0
SECTION
2
HEADER
9
$ACADVER
1
AC1015
9
$DWGCODEPAGE
3
ANSI_1252
9
$HANDSEED
5
264
9
$ANGBASE
50
0
9
$ANGDIR
70
0
9
$ATTMODE
70
1
9
$AUNITS
70
0
9
$AUPREC
70
0
9
$CECOLOR
62
256
9
$CELTSCALE
40
1
9
$CELTYPE
6
ByLayer
9
$CELWEIGHT
370
18
9
$CLAYER
8
0
9
$CMLJUST
70
0
9
$CMLSCALE
40
1
9
$CMLSTYLE
2
Standard
9
$DIMSTYLE
2
Standard
9
$TEXTSIZE
40
0.2
9
$TEXTSTYLE
7
Standard
9
$LUNITS
70
2
9
$LUPREC
70
4
9
$EXTNAMES
290
1
9
$INSUNITS
70
4
9
$LTSCALE
40
1
9
$LWDISPLAY
290
1
9
$PDMODE
70
0
9
$PDSIZE
40
0
9
$PLINEGEN
70
0
0
ENDSEC
0
SECTION
2
CLASSES
0
CLASS
1
RASTERVARIABLES
2
AcDbRasterVariables
3
ISM
90
0
280
0
281
0
0
ENDSEC
0
SECTION
2
TABLES
0
TABLE
2
VPORT
5
25a
100
AcDbSymbolTable
0
VPORT
5
1
100
AcDbSymbolTableRecord
100
AcDbViewportTableRecord
2
*Active
70
0
10
0
20
0
11
1
21
1
12
-1
22
1
13
0
23
0
14
0.5
24
0.5
15
10
25
10
16
0
26
0
36
1
17
0
27
0
37
0
0
ENDTAB
0
TABLE
2
LTYPE
5
25b
100
AcDbSymbolTable
0
LTYPE
5
14
100
AcDbSymbolTableRecord
100
AcDbLinetypeTableRecord
70
0
2
ByBlock
3

72
65
73
0
40
0
0
LTYPE
5
15
100
AcDbSymbolTableRecord
100
AcDbLinetypeTableRecord
70
0
2
ByLayer
3

72
65
73
0
40
0
0
LTYPE
5
16
100
AcDbSymbolTableRecord
100
AcDbLinetypeTableRecord
70
0
2
Continuous
3
Solid line
72
65
73
0
40
0
0
LTYPE
5
6E
100
AcDbSymbolTableRecord
100
AcDbLinetypeTableRecord
70
0
2
CENTER
3
____ _ ____ _ ____ _ ____
72
65
73
4
40
47.5
49
22
74
0
49
-8.5
74
0
49
8.5
74
0
49
-8.5
74
0
0
LTYPE
5
6F
100
AcDbSymbolTableRecord
100
AcDbLinetypeTableRecord
70
0
2
DASHED
3
__ __ __ __ __ __ __ __ __
72
65
73
2
40
25.72
49
12.86
74
0
49
-12.86
74
0
0
ENDTAB
0
TABLE
2
LAYER
5
25c
100
AcDbSymbolTable
0
LAYER
5
10
100
AcDbSymbolTableRecord
100
AcDbLayerTableRecord
2
0
70
0
62
7
6
Continuous
290
1
370
-3
390
0
0
LAYER
5
71
100
AcDbSymbolTableRecord
100
AcDbLayerTableRecord
2
81
70
0
62
-3
6
Continuous
290
1
370
-3
390
0
0
LAYER
5
73
100
AcDbSymbolTableRecord
100
AcDbLayerTableRecord
2
80
70
0
62
-6
6
Continuous
290
1
370
-3
390
0
0
LAYER
5
75
100
AcDbSymbolTableRecord
100
AcDbLayerTableRecord
2
1
70
0
62
4
6
Continuous
290
1
370
-3
390
0
0
LAYER
5
7E
100
AcDbSymbolTableRecord
100
AcDbLayerTableRecord
2
4
70
0
62
-2
6
CENTER
290
1
370
-3
390
0
0
LAYER
5
CF
100
AcDbSymbolTableRecord
100
AcDbLayerTableRecord
2
2
70
0
62
7
6
Continuous
290
1
370
-3
390
0
0
LAYER
5
1B7
100
AcDbSymbolTableRecord
100
AcDbLayerTableRecord
2
Defpoints
70
0
62
7
6
Continuous
290
0
370
-3
390
0
0
LAYER
5
246
100
AcDbSymbolTableRecord
100
AcDbLayerTableRecord
2
SK4
70
0
62
2
6
CENTER
290
1
370
-3
390
0
0
LAYER
5
247
100
AcDbSymbolTableRecord
100
AcDbLayerTableRecord
2
SK1
70
0
62
4
6
Continuous
290
1
370
-3
390
0
0
LAYER
5
248
100
AcDbSymbolTableRecord
100
AcDbLayerTableRecord
2
SK2
70
0
62
7
6
Continuous
290
1
370
-3
390
0
0
LAYER
5
249
100
AcDbSymbolTableRecord
100
AcDbLayerTableRecord
2
SK6
70
0
62
5
6
Continuous
290
1
370
-3
390
0
0
ENDTAB
0
TABLE
2
STYLE
5
25d
100
AcDbSymbolTable
0
STYLE
5
11
100
AcDbSymbolTableRecord
100
AcDbTextStyleTableRecord
2
Standard
3
txt
70
0
71
0
40
0
41
1
42
0
50
0
0
STYLE
5
18D
100
AcDbSymbolTableRecord
100
AcDbTextStyleTableRecord
2
iso_b_vert
3
simplex.shx
70
0
71
0
40
0
41
1
42
0
50
0
0
STYLE
5
18E
100
AcDbSymbolTableRecord
100
AcDbTextStyleTableRecord
2
DWGDirectTextStyle
3
simplex
70
0
71
0
40
0
41
1
42
0
50
0
0
ENDTAB
0
TABLE
2
DIMSTYLE
5
25e
100
AcDbSymbolTable
100
AcDbDimStyleTable
0
DIMSTYLE
105
27
100
AcDbSymbolTableRecord
100
AcDbDimStyleTableRecord
2
Standard
70
0
3
<>
41
0.18
42
0.0625
44
0.18
140
0.18
147
0.09
73
0
74
0
77
1
271
2
275
0
278
52
280
0
340
11
0
ENDTAB
0
TABLE
2
VIEW
5
25f
100
AcDbSymbolTable
0
ENDTAB
0
TABLE
2
UCS
5
260
100
AcDbSymbolTable
0
ENDTAB
0
TABLE
2
APPID
5
261
100
AcDbSymbolTable
0
APPID
5
12
100
AcDbSymbolTableRecord
100
AcDbRegAppTableRecord
2
ACAD
70
0
0
APPID
5
1B3
100
AcDbSymbolTableRecord
100
AcDbRegAppTableRecord
2
ACAD_DSTYLE_DIMBREAK
70
0
0
APPID
5
205
100
AcDbSymbolTableRecord
100
AcDbRegAppTableRecord
2
ACAD_DSTYLE_DIM_LINETYPE
70
0
0
APPID
5
206
100
AcDbSymbolTableRecord
100
AcDbRegAppTableRecord
2
ACAD_DSTYLE_DIM_EXT1_LINETYPE
70
0
0
APPID
5
207
100
AcDbSymbolTableRecord
100
AcDbRegAppTableRecord
2
ACAD_DSTYLE_DIM_EXT2_LINETYPE
70
0
0
APPID
5
242
100
AcDbSymbolTableRecord
100
AcDbRegAppTableRecord
2
ACAD_MLEADERVER
70
0
0
ENDTAB
0
TABLE
2
BLOCK_RECORD
5
262
100
AcDbSymbolTable
0
BLOCK_RECORD
5
1F
100
AcDbSymbolTableRecord
100
AcDbBlockTableRecord
2
*Model_Space
340
0
70
0
0
BLOCK_RECORD
5
1B
100
AcDbSymbolTableRecord
100
AcDbBlockTableRecord
2
*Paper_Space
340
0
70
0
0
BLOCK_RECORD
5
23
100
AcDbSymbolTableRecord
100
AcDbBlockTableRecord
2
*Paper_Space0
340
0
70
0
0
BLOCK_RECORD
5
1B8
100
AcDbSymbolTableRecord
100
AcDbBlockTableRecord
2
*D1
340
0
70
0
0
BLOCK_RECORD
5
1C4
100
AcDbSymbolTableRecord
100
AcDbBlockTableRecord
2
_U0
340
0
70
0
0
BLOCK_RECORD
5
1D0
100
AcDbSymbolTableRecord
100
AcDbBlockTableRecord
2
*D3
340
0
70
0
0
BLOCK_RECORD
5
1DE
100
AcDbSymbolTableRecord
100
AcDbBlockTableRecord
2
_U1
340
0
70
0
0
ENDTAB
0
ENDSEC
0
SECTION
2
BLOCKS
0
BLOCK
5
20
100
AcDbEntity
8
0
100
AcDbBlockBegin
2
*Model_Space
70
0
10
0
20
0
30
0
3
*Model_Space
0
ENDBLK
5
21
100
AcDbEntity
8
0
100
AcDbBlockEnd
0
BLOCK
5
1C
100
AcDbEntity
8
0
100
AcDbBlockBegin
2
*Paper_Space
70
0
10
0
20
0
30
0
3
*Paper_Space
0
ENDBLK
5
1D
100
AcDbEntity
8
0
100
AcDbBlockEnd
0
BLOCK
5
24
100
AcDbEntity
8
0
100
AcDbBlockBegin
2
*Paper_Space0
70
0
10
0
20
0
30
0
3
*Paper_Space0
0
ENDBLK
5
25
100
AcDbEntity
8
0
100
AcDbBlockEnd
0
BLOCK
5
1B9
100
AcDbEntity
8
0
100
AcDbBlockBegin
2
*D1
70
1
10
0
20
0
30
0
3
*D1
0
LINE
5
1BB
100
AcDbEntity
8
0
62
256
6
ByLayer
370
-2
48
1
60
0
100
AcDbLine
10
34
20
-1.5875
30
0
11
34
21
-39.1
31
0
39
0
210
0
220
0
230
1
0
LINE
5
1BC
100
AcDbEntity
8
0
62
256
6
ByLayer
370
-2
48
1
60
0
100
AcDbLine
10
0
20
-1.5875
30
0
11
0
21
-39.1
31
0
39
0
210
0
220
0
230
1
0
LINE
5
1BD
100
AcDbEntity
8
0
62
256
6
ByLayer
370
-2
48
1
60
0
100
AcDbLine
10
30.5
20
-37.1
30
0
11
3.5
21
-37.1
31
0
39
0
210
0
220
0
230
1
0
SOLID
5
1BE
100
AcDbEntity
8
0
62
256
6
ByLayer
370
-1
48
1
60
0
100
AcDbTrace
10
30.5
20
-37.683333
30
0
11
30.5
21
-36.516667
31
0
12
34
22
-37.1
32
0
13
34
23
-37.1
33
0
39
0
210
0
220
0
230
1
0
SOLID
5
1BF
100
AcDbEntity
8
0
62
256
6
ByLayer
370
-1
48
1
60
0
100
AcDbTrace
10
3.5
20
-36.516667
30
0
11
3.5
21
-37.683333
31
0
12
0
22
-37.1
32
0
13
0
23
-37.1
33
0
39
0
210
0
220
0
230
1
0
MTEXT
5
1C0
100
AcDbEntity
8
0
62
256
6
ByLayer
370
18
48
1
60
0
100
AcDbMText
10
17
20
-30.1
30
0
210
0
220
0
230
1
1
\A1;34
40
3.5
41
0
44
1
50
0
71
5
72
5
7
iso_b_vert
0
POINT
5
1C1
100
AcDbEntity
8
Defpoints
62
0
6
ByLayer
370
-1
48
1
60
0
100
AcDbPoint
10
34
20
0
30
0
39
0
210
0
220
0
230
1
50
360
0
POINT
5
1C2
100
AcDbEntity
8
Defpoints
62
0
6
ByLayer
370
-1
48
1
60
0
100
AcDbPoint
10
0
20
0
30
0
39
0
210
0
220
0
230
1
50
360
0
POINT
5
1C3
100
AcDbEntity
8
Defpoints
62
0
6
ByLayer
370
-1
48
1
60
0
100
AcDbPoint
10
0
20
-37.1
30
0
39
0
210
0
220
0
230
1
50
360
0
ENDBLK
5
1BA
100
AcDbEntity
8
0
100
AcDbBlockEnd
0
BLOCK
5
1CB
100
AcDbEntity
8
0
100
AcDbBlockBegin
2
_U0
70
0
10
0
20
0
30
0
3
_U0
0
MTEXT
5
1C5
100
AcDbEntity
8
SK2
62
256
6
ByLayer
370
18
48
1
60
0
100
AcDbMText
10
14.910767
20
-36.067366
30
0
210
0
220
0
230
1
1
\W0.7167;34
40
3.5
41
0
44
1.084337
50
0
71
7
72
5
7
iso_b_vert
0
LINE
5
1C6
100
AcDbEntity
8
SK2
62
256
6
ByLayer
370
13
48
1
60
0
100
AcDbLine
10
34
20
-1.5875
30
0
11
34
21
-39.1
31
0
39
0
210
0
220
0
230
1
0
LINE
5
1C7
100
AcDbEntity
8
SK2
62
256
6
ByLayer
370
13
48
1
60
0
100
AcDbLine
10
0
20
-1.5875
30
0
11
0
21
-39.1
31
0
39
0
210
0
220
0
230
1
0
LINE
5
1C8
100
AcDbEntity
8
SK2
62
256
6
ByLayer
370
13
48
1
60
0
100
AcDbLine
10
34
20
-37.1
30
0
11
0
21
-37.1
31
0
39
0
210
0
220
0
230
1
0
SOLID
5
1C9
100
AcDbEntity
8
SK2
62
256
6
ByLayer
370
18
48
1
60
0
100
AcDbTrace
10
34
20
-37.1
30
0
11
30.500002
21
-37.560784
31
0
12
30.499998
22
-36.639216
32
0
13
30.499998
23
-36.639216
33
0
39
0
210
0
220
0
230
1
0
SOLID
5
1CA
100
AcDbEntity
8
SK2
62
256
6
ByLayer
370
18
48
1
60
0
100
AcDbTrace
10
0
20
-37.1
30
0
11
3.499998
21
-36.639216
31
0
12
3.500002
22
-37.560784
32
0
13
3.500002
23
-37.560784
33
0
39
0
210
0
220
0
230
1
0
ENDBLK
5
1CC
100
AcDbEntity
8
0
100
AcDbBlockEnd
0
BLOCK
5
1D1
100
AcDbEntity
8
0
100
AcDbBlockBegin
2
*D3
70
1
10
0
20
0
30
0
3
*D3
0
LINE
5
1D3
100
AcDbEntity
8
0
62
256
6
ByLayer
370
-2
48
1
60
0
100
AcDbLine
10
34
20
-1.5875
30
0
11
34
21
-22.6
31
0
39
0
210
0
220
0
230
1
0
LINE
5
1D4
100
AcDbEntity
8
0
62
256
6
ByLayer
370
-2
48
1
60
0
100
AcDbLine
10
28
20
-1.5875
30
0
11
28
21
-22.6
31
0
39
0
210
0
220
0
230
1
0
LINE
5
1D5
100
AcDbEntity
8
0
62
256
6
ByLayer
370
-2
48
1
60
0
100
AcDbLine
10
34
20
-20.6
30
0
11
53.666667
21
-20.6
31
0
39
0
210
0
220
0
230
1
0
LINE
5
1D6
100
AcDbEntity
8
0
62
256
6
ByLayer
370
-2
48
1
60
0
100
AcDbLine
10
37.5
20
-20.6
30
0
11
41
21
-20.6
31
0
39
0
210
0
220
0
230
1
0
LINE
5
1D7
100
AcDbEntity
8
0
62
256
6
ByLayer
370
-2
48
1
60
0
100
AcDbLine
10
24.5
20
-20.6
30
0
11
21
21
-20.6
31
0
39
0
210
0
220
0
230
1
0
SOLID
5
1D8
100
AcDbEntity
8
0
62
256
6
ByLayer
370
-1
48
1
60
0
100
AcDbTrace
10
37.5
20
-20.016667
30
0
11
37.5
21
-21.183333
31
0
12
34
22
-20.6
32
0
13
34
23
-20.6
33
0
39
0
210
0
220
0
230
1
0
SOLID
5
1D9
100
AcDbEntity
8
0
62
256
6
ByLayer
370
-1
48
1
60
0
100
AcDbTrace
10
24.5
20
-21.183333
30
0
11
24.5
21
-20.016667
31
0
12
28
22
-20.6
32
0
13
28
23
-20.6
33
0
39
0
210
0
220
0
230
1
0
MTEXT
5
1DA
100
AcDbEntity
8
0
62
256
6
ByLayer
370
18
48
1
60
0
100
AcDbMText
10
47.333333
20
-13.6
30
0
210
0
220
0
230
1
1
\A1;6
40
3.5
41
0
44
1
50
0
71
5
72
5
7
iso_b_vert
0
POINT
5
1DB
100
AcDbEntity
8
Defpoints
62
0
6
ByLayer
370
-1
48
1
60
0
100
AcDbPoint
10
34
20
0
30
0
39
0
210
0
220
0
230
1
50
360
0
POINT
5
1DC
100
AcDbEntity
8
Defpoints
62
0
6
ByLayer
370
-1
48
1
60
0
100
AcDbPoint
10
28
20
0
30
0
39
0
210
0
220
0
230
1
50
360
0
POINT
5
1DD
100
AcDbEntity
8
Defpoints
62
0
6
ByLayer
370
-1
48
1
60
0
100
AcDbPoint
10
28
20
-20.6
30
0
39
0
210
0
220
0
230
1
50
360
0
ENDBLK
5
1D2
100
AcDbEntity
8
0
100
AcDbBlockEnd
0
BLOCK
5
1E5
100
AcDbEntity
8
0
100
AcDbBlockBegin
2
_U1
70
0
10
0
20
0
30
0
3
_U1
0
MTEXT
5
1DF
100
AcDbEntity
8
2
62
256
6
ByLayer
370
18
48
1
60
0
100
AcDbMText
10
45.558012
20
-19.567366
30
0
210
0
220
0
230
1
1
\W0.5404;6
40
3.5
41
0
44
1.084337
50
0
71
7
72
5
7
iso_b_vert
0
LINE
5
1E0
100
AcDbEntity
8
2
62
256
6
ByLayer
370
13
48
1
60
0
100
AcDbLine
10
34
20
-1.5875
30
0
11
34
21
-22.6
31
0
39
0
210
0
220
0
230
1
0
LINE
5
1E1
100
AcDbEntity
8
2
62
256
6
ByLayer
370
13
48
1
60
0
100
AcDbLine
10
28
20
-1.5875
30
0
11
28
21
-22.6
31
0
39
0
210
0
220
0
230
1
0
LINE
5
1E2
100
AcDbEntity
8
2
62
256
6
ByLayer
370
13
48
1
60
0
100
AcDbLine
10
19.25
20
-20.6
30
0
11
46.937978
21
-20.6
31
0
39
0
210
0
220
0
230
1
0
SOLID
5
1E3
100
AcDbEntity
8
2
62
256
6
ByLayer
370
18
48
1
60
0
100
AcDbTrace
10
34
20
-20.6
30
0
11
37.499998
21
-20.139216
31
0
12
37.500002
22
-21.060784
32
0
13
37.500002
23
-21.060784
33
0
39
0
210
0
220
0
230
1
0
SOLID
5
1E4
100
AcDbEntity
8
2
62
256
6
ByLayer
370
18
48
1
60
0
100
AcDbTrace
10
28
20
-20.6
30
0
11
24.500002
21
-21.060784
31
0
12
24.499998
22
-20.139216
32
0
13
24.499998
23
-20.139216
33
0
39
0
210
0
220
0
230
1
0
ENDBLK
5
1E6
100
AcDbEntity
8
0
100
AcDbBlockEnd
0
ENDSEC
0
SECTION
2
ENTITIES
0
ARC
5
E5
100
AcDbEntity
8
1
62
256
6
ByLayer
370
18
48
1
60
0
100
AcDbCircle
39
0
10
13.997679
20
3.025
30
0
40
1
210
0
220
0
230
1
100
AcDbArc
50
240
51
270
0
ARC
5
E6
100
AcDbEntity
8
1
62
256
6
ByLayer
370
18
48
1
60
0
100
AcDbCircle
39
0
10
13.997679
20
-3.025
30
0
40
1
210
0
220
0
230
1
100
AcDbArc
50
90
51
120
0
ELLIPSE
5
E7
100
AcDbEntity
8
1
62
256
6
ByLayer
370
18
48
1
60
0
100
AcDbEllipse
10
28.069282
20
-3.826072
30
0
11
0.990607657871562
21
1.77828267806552
31
0
210
0
220
0
230
1
40
0.820013
41
0.636028562012891
42
0.688288583591677
0
ELLIPSE
5
E8
100
AcDbEntity
8
1
62
256
6
ByLayer
370
18
48
1
60
0
100
AcDbEllipse
10
34.082285
20
-0.200404
30
0
11
0.124715932893701
21
0.0886399723984818
31
0
210
0
220
0
230
1
40
0.729272
41
1.97264871176903
42
2.89153475832153
0
ELLIPSE
5
E9
100
AcDbEntity
8
1
62
256
6
ByLayer
370
18
48
1
60
0
100
AcDbEllipse
10
33.859332
20
0.159557
30
0
11
0.000900055118951676
21
-0.139849841766991
31
0
210
0
220
0
230
1
40
0.436777
41
-2.60658835557995
42
-0.468560021887221
0
ELLIPSE
5
EA
100
AcDbEntity
8
1
62
256
6
ByLayer
370
18
48
1
60
0
100
AcDbEllipse
10
28
20
-3.098048
30
0
11
-1.47720810349214
21
1.34827898410423
31
0
210
0
220
0
230
1
40
0.670747
41
-1.0214509378248
42
-0.879682638121443
0
ELLIPSE
5
EB
100
AcDbEntity
8
1
62
256
6
ByLayer
370
18
48
1
60
0
100
AcDbEllipse
10
28.069282
20
-3.02214
30
0
11
-1.50348888358179
21
1.37226600624212
31
0
210
0
220
0
230
1
40
0.670747
41
-0.982140008285137
42
-0.83194041381504
0
ELLIPSE
5
EC
100
AcDbEntity
8
1
62
256
6
ByLayer
370
18
48
1
60
0
100
AcDbEllipse
10
28.069282
20
0.897321
30
0
11
-1.75422780248242
21
1.0326072011851
31
0
210
0
220
0
230
1
40
0.168793
41
1.48031899045817
42
1.63051858492786
0
ELLIPSE
5
ED
100
AcDbEntity
8
1
62
256
6
ByLayer
370
18
48
1
60
0
100
AcDbEllipse
10
28
20
0.779622
30
0
11
-1.72356414037783
21
1.01455736851279
31
0
210
0
220
0
230
1
40
0.168793
41
1.52806121476419
42
1.66982951446753
0
ELLIPSE
5
EE
100
AcDbEntity
8
1
62
256
6
ByLayer
370
18
48
1
60
0
100
AcDbEllipse
10
28.545527
20
1E-06
30
0
11
4.510835936018
21
-1.24153464075015
31
0
210
0
220
0
230
1
40
0.354647
41
-1.67773985822258
42
-1.65361028319439
0
ELLIPSE
5
EF
100
AcDbEntity
8
1
62
256
6
ByLayer
370
18
48
1
60
0
100
AcDbEllipse
10
28.580285
20
3.8E-05
30
0
11
4.82111799427384
21
-2.02091454815711
31
0
210
0
220
0
230
1
40
0.026408
41
1.75936486685141
42
1.7769975618166
0
ELLIPSE
5
F0
100
AcDbEntity
8
1
62
256
6
ByLayer
370
18
48
1
60
0
100
AcDbEllipse
10
28.545526
20
0
30
0
11
4.51322204259246
21
-1.10336741261047
31
0
210
0
220
0
230
1
40
0.376228
41
1.84263300752654
42
1.86676259125008
0
ELLIPSE
5
F1
100
AcDbEntity
8
1
62
256
6
ByLayer
370
18
48
1
60
0
100
AcDbEllipse
10
28
20
3.740274
30
0
11
-1.04642735987447
21
1.70440305693991
31
0
210
0
220
0
230
1
40
0.809793
41
2.35111916833202
42
2.49288746803537
0
ELLIPSE
5
F2
100
AcDbEntity
8
1
62
256
6
ByLayer
370
18
48
1
60
0
100
AcDbEllipse
10
28.069282
20
3.78281
30
0
11
-1.0650441866165
21
1.73472582718308
31
0
210
0
220
0
230
1
40
0.809793
41
2.30337694402616
42
2.4535765384957
0
POINT
5
70
100
AcDbEntity
8
81
62
256
6
ByLayer
370
18
48
1
60
0
100
AcDbPoint
10
34.05
20
0
30
0
39
0
210
0
220
0
230
1
50
360
0
POINT
5
72
100
AcDbEntity
8
80
62
256
6
ByLayer
370
18
48
1
60
0
100
AcDbPoint
10
0
20
0
30
0
39
0
210
0
220
0
230
1
50
360
0
POINT
5
74
100
AcDbEntity
8
1
62
256
6
ByLayer
370
18
48
1
60
1
100
AcDbPoint
10
34
20
0
30
0
39
0
210
0
220
0
230
1
50
360
0
POINT
5
76
100
AcDbEntity
8
1
62
256
6
ByLayer
370
18
48
1
60
1
100
AcDbPoint
10
0
20
0
30
0
39
0
210
0
220
0
230
1
50
360
0
POINT
5
77
100
AcDbEntity
8
1
62
256
6
ByLayer
370
18
48
1
60
1
100
AcDbPoint
10
34
20
0
30
0
39
0
210
0
220
0
230
1
50
360
0
POINT
5
78
100
AcDbEntity
8
1
62
256
6
ByLayer
370
18
48
1
60
1
100
AcDbPoint
10
28
20
0
30
0
39
0
210
0
220
0
230
1
50
360
0
SPLINE
5
F3
100
AcDbEntity
8
1
62
256
6
ByLayer
370
18
48
1
60
0
100
AcDbSpline
70
4
71
3
72
8
73
4
40
0
40
0
40
0
40
0
40
1
40
1
40
1
40
1
41
1
10
33.9994332874257
20
-0.0246619075332148
30
0
41
1
10
33.9993221720152
20
-0.0343992843093304
30
0
41
1
10
33.999140217026
20
-0.0441354047057985
30
0
41
1
10
33.9988871089631
20
-0.0538700171007633
30
0
0
SPLINE
5
F4
100
AcDbEntity
8
1
62
256
6
ByLayer
370
18
48
1
60
0
100
AcDbSpline
70
4
71
3
72
8
73
4
40
0
40
0
40
0
40
0
40
1
40
1
40
1
40
1
41
1
10
33.9994332874257
20
-0.0246619075329022
30
0
41
1
10
33.9994526458194
20
-0.0229480404993581
30
0
41
1
10
33.9994698550758
20
-0.0212340384683785
30
0
41
1
10
33.9994849141531
20
-0.0195199013745651
30
0
0
SPLINE
5
F5
100
AcDbEntity
8
1
62
256
6
ByLayer
370
18
48
1
60
0
100
AcDbSpline
70
4
71
3
72
8
73
4
40
0
40
0
40
0
40
0
40
1
40
1
40
1
40
1
41
1
10
33.9911544702688
20
-0.0188589285903049
30
0
41
1
10
33.9910815842843
20
-0.0190792516590079
30
0
41
1
10
33.9910087092431
20
-0.0192995759188079
30
0
41
1
10
33.9909358451719
20
-0.0195199013720639
30
0
0
SPLINE
5
F6
100
AcDbEntity
8
1
62
256
6
ByLayer
370
18
48
1
60
0
100
AcDbSpline
70
4
71
3
72
8
73
4
40
0
40
0
40
0
40
0
40
1
40
1
40
1
40
1
41
1
10
33.9994849141531
20
-0.0195199013745651
30
0
41
1
10
33.9994813193639
20
-0.0199062356887225
30
0
41
1
10
33.9994776718106
20
-0.020292569985827
30
0
41
1
10
33.9994739713966
20
-0.0206789041660329
30
0
0
SPLINE
5
F7
100
AcDbEntity
8
1
62
256
6
ByLayer
370
18
48
1
60
0
100
AcDbSpline
70
4
71
3
72
8
73
4
40
0
40
0
40
0
40
0
40
1
40
1
40
1
40
1
41
1
10
33.9994571174906
20
0.020968922978625
30
0
41
1
10
33.999403716895
20
0.0261624724042235
30
0
41
1
10
33.9993303272611
20
0.03135428539386
30
0
41
1
10
33.9992369721723
20
0.0365443639961995
30
0
0
SPLINE
5
F8
100
AcDbEntity
8
1
62
256
6
ByLayer
370
18
48
1
60
0
100
AcDbSpline
70
4
71
3
72
8
73
4
40
0
40
0
40
0
40
0
40
1
40
1
40
1
40
1
41
1
10
32.6963022274311
20
1.72130115708342
30
0
41
1
10
32.6699344745657
20
1.71594079998283
30
0
41
1
10
32.6435667217003
20
1.71043562018861
30
0
41
1
10
32.6171989688349
20
1.70478724349206
30
0
0
SPLINE
5
F9
100
AcDbEntity
8
1
62
256
6
ByLayer
370
18
48
1
60
0
100
AcDbSpline
70
4
71
3
72
10
73
6
40
0
40
0
40
0
40
0
40
0.106649236951583
40
0.106649236951583
40
1
40
1
40
1
40
1
41
1
10
33.9914091783183
20
0.0196103302967572
30
0
41
1
10
33.9913002619896
20
0.0201395774961668
30
0
41
1
10
33.991191354814
20
0.0206688265862738
30
0
41
1
10
33.9901702692299
20
0.0256313652548386
30
0
41
1
10
33.9892587252241
20
0.0300647859015726
30
0
41
1
10
33.9883478364204
20
0.0344983416152331
30
0
0
SPLINE
5
FA
100
AcDbEntity
8
1
62
256
6
ByLayer
370
18
48
1
60
0
100
AcDbSpline
70
4
71
3
72
8
73
4
40
0
40
0
40
0
40
0
40
1
40
1
40
1
40
1
41
1
10
33.9992369721723
20
0.0365443639963132
30
0
41
1
10
33.9991413622857
20
0.041858681968705
30
0
41
1
10
33.9990247587458
20
0.0471725973031027
30
0
41
1
10
33.9988871126487
20
0.05248610906159
30
0
0
SPLINE
5
FB
100
AcDbEntity
8
1
62
256
6
ByLayer
370
18
48
1
60
0
100
AcDbSpline
70
4
71
3
72
12
73
8
40
0
40
0
40
0
40
0
40
0.500000000000006
40
0.500000000000006
40
0.750000000000003
40
0.750000000000003
40
1
40
1
40
1
40
1
41
1
10
33.9988871121278
20
0.0524861283270468
30
0
41
1
10
33.9952561914584
20
0.138056206486539
30
0
41
1
10
33.9868704243968
20
0.223074479637347
30
0
41
1
10
33.9671648300699
20
0.349774799672105
30
0
41
1
10
33.9593831027787
20
0.391909193202196
30
0
41
1
10
33.9414836103717
20
0.475579508054693
30
0
41
1
10
33.9313743148501
20
0.51714244565153
30
0
41
1
10
33.9201097177908
20
0.558434160642719
30
0
0
SPLINE
5
FC
100
AcDbEntity
8
1
62
256
6
ByLayer
370
18
48
1
60
0
100
AcDbSpline
70
4
71
3
72
8
73
4
40
0
40
0
40
0
40
0
40
1
40
1
40
1
40
1
41
1
10
33.8772333923373
20
0.53228991835212
30
0
41
1
10
33.8914494535492
20
0.54111666974859
30
0
41
1
10
33.9057475278978
20
0.549822630534209
30
0
41
1
10
33.9201097177915
20
0.558434160642889
30
0
0
SPLINE
5
FD
100
AcDbEntity
8
1
62
256
6
ByLayer
370
18
48
1
60
0
100
AcDbSpline
70
4
71
3
72
26
73
22
40
0
40
0
40
0
40
0
40
0.0624999999999952
40
0.0624999999999952
40
0.12499999999999
40
0.12499999999999
40
0.249999999999981
40
0.249999999999981
40
0.312499999999976
40
0.312499999999976
40
0.374999999999971
40
0.499999999999977
40
0.499999999999977
40
0.56249999999998
40
0.56249999999998
40
0.624999999999983
40
0.749999999999989
40
0.749999999999989
40
0.874999999999994
40
0.874999999999994
40
1
40
1
40
1
40
1
41
1
10
33.9201097177902
20
0.558434160644822
30
0
41
1
10
33.9125511767554
20
0.584404721011907
30
0
41
1
10
33.9044591669984
20
0.610195020178679
30
0
41
1
10
33.8871931527927
20
0.661409964468675
30
0
41
1
10
33.8780312922402
20
0.686793767786185
30
0
41
1
10
33.8490685157361
20
0.761993553711022
30
0
41
1
10
33.8277566547375
20
0.810974332779125
30
0
41
1
10
33.7928028156251
20
0.882726609316165
30
0
41
1
10
33.7806378619284
20
0.906386952016646
30
0
41
1
10
33.7553883781248
20
0.952967737194768
30
0
41
1
10
33.7161541537829
20
1.02169848548854
30
0
41
1
10
33.6728559325519
20
1.08702799341955
30
0
41
1
10
33.6268427117873
20
1.15008484588606
30
0
41
1
10
33.6110615802253
20
1.17071010509014
30
0
41
1
10
33.5787637599764
20
1.21098772187702
30
0
41
1
10
33.5291526279544
20
1.27002353159855
30
0
41
1
10
33.4760605073409
20
1.32494145491668
30
0
41
1
10
33.4021427489918
20
1.39446875463244
30
0
41
1
10
33.3638920579364
20
1.42712793854977
30
0
41
1
10
33.2849601571593
20
1.48817665660897
30
0
41
1
10
33.2442587367277
20
1.51658422599667
30
0
41
1
10
33.2023078668299
20
1.54284328659594
30
0
0
SPLINE
5
FE
100
AcDbEntity
8
1
62
256
6
ByLayer
370
18
48
1
60
0
100
AcDbSpline
70
4
71
3
72
25
73
21
40
0
40
0
40
0
40
0
40
0.0329196302579484
40
0.0674051819722691
40
0.103458248724173
40
0.141080613085711
40
0.180274275105259
40
0.221041485924952
40
0.263384787421102
40
0.307307163438243
40
0.352813288720277
40
0.399909596128867
40
0.490790021912021
40
0.577131539519418
40
0.658945331132003
40
0.736236130345923
40
0.809001861612875
40
0.877233635884908
40
0.940914855419235
40
1
40
1
40
1
40
1
41
1
10
33.2023078668322
20
1.54284328659446
30
0
41
1
10
33.1968130183414
20
1.54624816800998
30
0
41
1
10
33.1855619423258
20
1.55321989429029
30
0
41
1
10
33.1681467542129
20
1.56360359343344
30
0
41
1
10
33.1498262881991
20
1.57420150812965
30
0
41
1
10
33.1305761655266
20
1.58495219469515
30
0
41
1
10
33.1103862928121
20
1.59582206543405
30
0
41
1
10
33.0892426916425
20
1.60676674740608
30
0
41
1
10
33.0671327778213
20
1.61774201090842
30
0
41
1
10
33.0440437597174
20
1.62870082562378
30
0
41
1
10
33.019962579186
20
1.63959281534292
30
0
41
1
10
32.9873843067546
20
1.65357605044497
30
0
41
1
10
32.9471901620804
20
1.66948230913684
30
0
41
1
10
32.900296417102
20
1.6860570179785
30
0
41
1
10
32.8554743129792
20
1.70011463579226
30
0
41
1
10
32.812825294952
20
1.71189658013191
30
0
41
1
10
32.7724390667876
20
1.72164812743404
30
0
41
1
10
32.7343924367133
20
1.72957717625016
30
0
41
1
10
32.6987672843572
20
1.73598974155783
30
0
41
1
10
32.6757942702663
20
1.73934283866322
30
0
41
1
10
32.6647377901889
20
1.74095662130387
30
0
0
SPLINE
5
FF
100
AcDbEntity
8
1
62
256
6
ByLayer
370
18
48
1
60
0
100
AcDbSpline
70
4
71
3
72
26
73
22
40
0
40
0
40
0
40
0
40
0.198925732886119
40
0.198925732886119
40
0.298388599329123
40
0.298388599329123
40
0.397851465772127
40
0.397851465772127
40
0.596777198658136
40
0.596777198658136
40
0.69624006510114
40
0.69624006510114
40
0.795702931544144
40
0.795702931544144
40
0.895165797987148
40
0.895165797987148
40
0.944897231208657
40
0.944897231208657
40
0.994628664430167
40
0.994628664430167
40
1
40
1
40
1
40
1
41
1
10
32.6963022274282
20
1.72130115708285
30
0
41
1
10
32.7134655133125
20
1.71772571792616
30
0
41
1
10
32.7303503349593
20
1.71338520471465
30
0
41
1
10
32.7551195607526
20
1.70545662374454
30
0
41
1
10
32.7632824641519
20
1.70257675712827
30
0
41
1
10
32.7793820377528
20
1.69626779921052
30
0
41
1
10
32.7873262763936
20
1.69283381659713
30
0
41
1
10
32.810488181909
20
1.68166331269217
30
0
41
1
10
32.8251512760921
20
1.67308251163439
30
0
41
1
10
32.845105651601
20
1.65744954347267
30
0
41
1
10
32.8514475035366
20
1.65173253529042
30
0
41
1
10
32.8629021702373
20
1.63909020801208
30
0
41
1
10
32.8679790475207
20
1.63222206981658
30
0
41
1
10
32.8760301695582
20
1.61699813360775
30
0
41
1
10
32.8788901768174
20
1.60887291683221
30
0
41
1
10
32.8806313173618
20
1.59559387772697
30
0
41
1
10
32.8807621339435
20
1.59102886260922
30
0
41
1
10
32.8800449861754
20
1.58190052216383
30
0
41
1
10
32.8791940435288
20
1.5772649113199
30
0
41
1
10
32.8777090744385
20
1.57216014003271
30
0
41
1
10
32.8775590063905
20
1.57166389304572
30
0
41
1
10
32.8774036912313
20
1.57116898744752
30
0
0
SPLINE
5
100
100
AcDbEntity
8
1
62
256
6
ByLayer
370
18
48
1
60
0
100
AcDbSpline
70
4
71
3
72
16
73
12
40
0
40
0
40
0
40
0
40
0.095133089009582
40
0.095133089009582
40
0.190266178019164
40
0.190266178019164
40
0.380532356038328
40
0.380532356038328
40
0.761064712076656
40
0.761064712076656
40
1
40
1
40
1
40
1
41
1
10
33.8772333923299
20
0.532289918363944
30
0
41
1
10
33.8756458067658
20
0.531304186600011
30
0
41
1
10
33.8738372062219
20
0.530855642464132
30
0
41
1
10
33.8701927939958
20
0.530395856152978
30
0
41
1
10
33.8683717356813
20
0.530397704357
30
0
41
1
10
33.8629101621448
20
0.530726574273558
30
0
41
1
10
33.8592878570251
20
0.531381288056508
30
0
41
1
10
33.8486715175738
20
0.533781704521289
30
0
41
1
10
33.8417809548289
20
0.536013059743738
30
0
41
1
10
33.8306615364046
20
0.539975232339117
30
0
41
1
10
33.8264032559827
20
0.541589488426155
30
0
41
1
10
33.8221710647744
20
0.543270065166041
30
0
0
SPLINE
5
101
100
AcDbEntity
8
1
62
256
6
ByLayer
370
13
48
1
60
0
100
AcDbSpline
70
4
71
3
72
8
73
4
40
0
40
0
40
0
40
0
40
1
40
1
40
1
40
1
41
1
10
33.7747555829158
20
0.607956638876715
30
0
41
1
10
33.8087832158024
20
0.582689608565175
30
0
41
1
10
33.8429461318412
20
0.557465267427574
30
0
41
1
10
33.8772333923299
20
0.532289918363915
30
0
0
SPLINE
5
102
100
AcDbEntity
8
1
62
256
6
ByLayer
370
18
48
1
60
0
100
AcDbSpline
70
4
71
3
72
10
73
6
40
0
40
0
40
0
40
0
40
0.352750407635385
40
0.352750407635385
40
1
40
1
40
1
40
1
41
1
10
28.8103020127164
20
-1.81017431330079
30
0
41
1
10
28.720497746015
20
-1.8264901813626
30
0
41
1
10
28.6307271458746
20
-1.84099455196309
30
0
41
1
10
28.3761737624562
20
-1.87682889449476
30
0
41
1
10
28.2113365688193
20
-1.89375018464699
30
0
41
1
10
28.0460922810408
20
-1.90396639907172
30
0
0
SPLINE
5
103
100
AcDbEntity
8
1
62
256
6
ByLayer
370
18
48
1
60
0
100
AcDbSpline
70
4
71
3
72
10
73
6
40
0
40
0
40
0
40
0
40
0.5
40
0.5
40
1
40
1
40
1
40
1
41
1
10
27.7335951551276
20
1.93190415063521
30
0
41
1
10
27.777822218665
20
1.91853615069323
30
0
41
1
10
27.8222697342989
20
1.90666617581002
30
0
41
1
10
27.9111262575485
20
1.88606179793655
30
0
41
1
10
27.9555602462306
20
1.87731596942965
30
0
41
1
10
27.9999999999999
20
1.87013683612216
30
0
0
SPLINE
5
104
100
AcDbEntity
8
1
62
256
6
ByLayer
370
18
48
1
60
0
100
AcDbSpline
70
4
71
3
72
8
73
4
40
0
40
0
40
0
40
0
40
1
40
1
40
1
40
1
41
1
10
31.2261870875543
20
1.95558771526788
30
0
41
1
10
31.4841247250362
20
1.93610707123597
30
0
41
1
10
31.7420623625181
20
1.89981609039577
30
0
41
1
10
32
20
1.84847004957541
30
0
0
SPLINE
5
105
100
AcDbEntity
8
1
62
256
6
ByLayer
370
18
48
1
60
0
100
AcDbSpline
70
4
71
3
72
32
73
28
40
0
40
0
40
0
40
0
40
0.124999999999992
40
0.124999999999992
40
0.156250000000002
40
0.156250000000002
40
0.187500000000011
40
0.250000000000031
40
0.250000000000031
40
0.375000000000045
40
0.375000000000045
40
0.437500000000064
40
0.437500000000064
40
0.468750000000074
40
0.468750000000074
40
0.500000000000083
40
0.500000000000083
40
0.625000000000078
40
0.625000000000078
40
0.687500000000066
40
0.718750000000059
40
0.718750000000059
40
0.750000000000053
40
0.750000000000053
40
0.875000000000026
40
0.875000000000026
40
1
40
1
40
1
40
1
41
1
10
32.776017435157
20
1.63899297178943
30
0
41
1
10
32.8209644088342
20
1.61058279348984
30
0
41
1
10
32.8664437857728
20
1.58032277817057
30
0
41
1
10
32.9239930293741
20
1.54006552861495
30
0
41
1
10
32.9355628171456
20
1.53187374233468
30
0
41
1
10
32.9586204888688
20
1.51534985871777
30
0
41
1
10
32.9930924287339
20
1.49034917638622
30
0
41
1
10
33.0272239780565
20
1.46471013572668
30
0
41
1
10
33.0950357326862
20
1.41258561721543
30
0
41
1
10
33.1396440082799
20
1.37671153960713
30
0
41
1
10
33.2056272180995
20
1.32115782236835
30
0
41
1
10
33.2274662822909
20
1.30234859831356
30
0
41
1
10
33.2599821353223
20
1.27367952872575
30
0
41
1
10
33.270781101711
20
1.26404574816431
30
0
41
1
10
33.2920979918349
20
1.24480353836373
30
0
41
1
10
33.3026412717104
20
1.23517293342417
30
0
41
1
10
33.354788536737
20
1.18697296052198
30
0
41
1
10
33.3946935843334
20
1.1482634462663
30
0
41
1
10
33.4518631582606
20
1.08997744050558
30
0
41
1
10
33.4797713186215
20
1.06077862233195
30
0
41
1
10
33.5066371954321
20
1.03149382560991
30
0
41
1
10
33.5243119365161
20
1.01195117294063
30
0
41
1
10
33.5330405443385
20
1.00215910521985
30
0
41
1
10
33.5757046473129
20
0.953586121802317
30
0
41
1
10
33.6070309045995
20
0.915629206653165
30
0
41
1
10
33.6643065044684
20
0.8414433950567
30
0
41
1
10
33.6902398044267
20
0.805219654345706
30
0
41
1
10
33.7133916661391
20
0.769889804940675
30
0
0
SPLINE
5
106
100
AcDbEntity
8
1
62
256
6
ByLayer
370
18
48
1
60
0
100
AcDbSpline
70
4
71
3
72
37
73
33
40
0
40
0
40
0
40
0
40
0.124999999999983
40
0.124999999999983
40
0.156249999999968
40
0.156249999999968
40
0.187499999999954
40
0.24999999999988
40
0.24999999999988
40
0.374999999999732
40
0.374999999999732
40
0.437499999999681
40
0.437499999999681
40
0.445312499999691
40
0.445312499999691
40
0.453124999999702
40
0.453124999999702
40
0.460937499999712
40
0.460937499999712
40
0.468749999999723
40
0.468749999999723
40
0.499999999999721
40
0.499999999999721
40
0.531249999999718
40
0.531249999999718
40
0.562499999999716
40
0.562499999999716
40
0.624999999999757
40
0.624999999999757
40
0.749999999999838
40
0.749999999999838
40
1
40
1
40
1
40
1
41
1
10
31.9999999855879
20
1.87346949788954
30
0
41
1
10
32.0312072394948
20
1.86976646178744
30
0
41
1
10
32.0623772578356
20
1.86590718751171
30
0
41
1
10
32.1013029093674
20
1.86085344604859
30
0
41
1
10
32.1090959346191
20
1.85979808599086
30
0
41
1
10
32.1247582030898
20
1.85740816559635
30
0
41
1
10
32.1483504995204
20
1.85345662613247
30
0
41
1
10
32.1722283605864
20
1.84850048928919
30
0
41
1
10
32.2203112659062
20
1.83753800196507
30
0
41
1
10
32.2528091870088
20
1.82882453476631
30
0
41
1
10
32.3018646136028
20
1.81497639187469
30
0
41
1
10
32.3182640027249
20
1.81023842612345
30
0
41
1
10
32.336726076885
20
1.8048939871116
30
0
41
1
10
32.3387788070503
20
1.80429650379176
30
0
41
1
10
32.3429033431148
20
1.80304870768347
30
0
41
1
10
32.34499143291
20
1.80235292660441
30
0
41
1
10
32.3490842936212
20
1.80119539148825
30
0
41
1
10
32.3511129179512
20
1.80066648788912
30
0
41
1
10
32.3552338920165
20
1.7994314615967
30
0
41
1
10
32.3573094148043
20
1.79877245558123
30
0
41
1
10
32.3676974647366
20
1.79545133276304
30
0
41
1
10
32.3759887854766
20
1.79285575062769
30
0
41
1
10
32.3925834990092
20
1.78764631714631
30
0
41
1
10
32.400889819206
20
1.7850313403577
30
0
41
1
10
32.4174611532569
20
1.77968408640757
30
0
41
1
10
32.4257310893856
20
1.77695456439119
30
0
41
1
10
32.4505075770522
20
1.76864452062858
30
0
41
1
10
32.4669857891333
20
1.76295969954228
30
0
41
1
10
32.5163216260965
20
1.74553004042122
30
0
41
1
10
32.549074409646
20
1.73338904513398
30
0
41
1
10
32.6469534469002
20
1.69546006469326
30
0
41
1
10
32.7117043290839
20
1.6681761773084
30
0
41
1
10
32.7760174351578
20
1.63899297179188
30
0
0
SPLINE
5
107
100
AcDbEntity
8
1
62
256
6
ByLayer
370
18
48
1
60
0
100
AcDbSpline
70
4
71
3
72
8
73
4
40
0
40
0
40
0
40
0
40
1
40
1
40
1
40
1
41
1
10
33.7133916661391
20
0.76988980494059
30
0
41
1
10
33.7485064638912
20
0.695082855233522
30
0
41
1
10
33.7844373761728
20
0.621552709986105
30
0
41
1
10
33.8209407934476
20
0.548982778935056
30
0
0
SPLINE
5
108
100
AcDbEntity
8
1
62
256
6
ByLayer
370
18
48
1
60
0
100
AcDbSpline
70
4
71
3
72
8
73
4
40
0
40
0
40
0
40
0
40
1
40
1
40
1
40
1
41
1
10
32.9802013843887
20
0.713044691272955
30
0
41
1
10
33.0115338165692
20
0.680374841698125
30
0
41
1
10
33.0438363961246
20
0.648099396810721
30
0
41
1
10
33.0771511571801
20
0.616235445205433
30
0
0
SPLINE
5
109
100
AcDbEntity
8
1
62
256
6
ByLayer
370
18
48
1
60
0
100
AcDbSpline
70
4
71
3
72
34
73
30
40
0
40
0
40
0
40
0
40
0.0624999999999784
40
0.0624999999999784
40
0.124999999999957
40
0.124999999999957
40
0.187499999999935
40
0.187499999999935
40
0.249999999999913
40
0.249999999999913
40
0.312499999999892
40
0.312499999999892
40
0.37499999999987
40
0.37499999999987
40
0.499999999999828
40
0.499999999999828
40
0.624999999999786
40
0.624999999999786
40
0.687499999999822
40
0.687499999999822
40
0.749999999999857
40
0.749999999999857
40
0.812499999999893
40
0.812499999999893
40
0.874999999999929
40
0.874999999999929
40
0.937499999999964
40
0.937499999999964
40
1
40
1
40
1
40
1
41
1
10
33.6410371670077
20
0.203265593710199
30
0
41
1
10
33.6416041252745
20
0.203274272723462
30
0
41
1
10
33.641968458345
20
0.203780044379329
30
0
41
1
10
33.642610293697
20
0.205733862301145
30
0
41
1
10
33.6428868169442
20
0.207176429926818
30
0
41
1
10
33.6435926309572
20
0.210797116928404
30
0
41
1
10
33.6440221228725
20
0.212982073194752
30
0
41
1
10
33.6452119351455
20
0.218014155095204
30
0
41
1
10
33.6459775471309
20
0.220876685154025
30
0
41
1
10
33.6479166033936
20
0.227023684381209
30
0
41
1
10
33.6490918809475
20
0.230324875527714
30
0
41
1
10
33.651936340688
20
0.237316558286267
30
0
41
1
10
33.6536211124872
20
0.241038073111127
30
0
41
1
10
33.6594163340831
20
0.25246581865548
30
0
41
1
10
33.664228532782
20
0.260411683212823
30
0
41
1
10
33.6761657148259
20
0.276516734994971
30
0
41
1
10
33.6830541671264
20
0.284358898230266
30
0
41
1
10
33.694898680164
20
0.295272124567021
30
0
41
1
10
33.6991357266848
20
0.298788584253913
30
0
41
1
10
33.7079341341075
20
0.305228103528293
30
0
41
1
10
33.7125194920964
20
0.308178419958949
30
0
41
1
10
33.7221157462893
20
0.31341942207456
30
0
41
1
10
33.7271571950913
20
0.315721451354193
30
0
41
1
10
33.7376180942088
20
0.319425341955196
30
0
41
1
10
33.742947708922
20
0.320797063879724
30
0
41
1
10
33.7538051636169
20
0.322492903408204
30
0
41
1
10
33.7593987434664
20
0.322806787252546
30
0
41
1
10
33.7703417606317
20
0.322383905597064
30
0
41
1
10
33.7757072559822
20
0.321667106009699
30
0
41
1
10
33.7809762684727
20
0.32056248862142
30
0
0
SPLINE
5
10A
100
AcDbEntity
8
1
62
256
6
ByLayer
370
18
48
1
60
0
100
AcDbSpline
70
4
71
3
72
12
73
8
40
0
40
0
40
0
40
0
40
0.25
40
0.25
40
0.5
40
0.5
40
1
40
1
40
1
40
1
41
1
10
33.8188517767886
20
0.317521579478807
30
0
41
1
10
33.8159465978068
20
0.316622977355337
30
0
41
1
10
33.8126048670392
20
0.31650186428493
30
0
41
1
10
33.8061396536399
20
0.316633401016105
30
0
41
1
10
33.802927186854
20
0.316929793159176
30
0
41
1
10
33.7933154956586
20
0.318113367280574
30
0
41
1
10
33.7871083764953
20
0.319276928345971
30
0
41
1
10
33.7809762684727
20
0.32056248862142
30
0
0
SPLINE
5
10B
100
AcDbEntity
8
1
62
256
6
ByLayer
370
18
48
1
60
0
100
AcDbSpline
70
4
71
3
72
14
73
10
40
0
40
0
40
0
40
0
40
0.0805124169355692
40
0.0805124169355692
40
0.54025620846781
40
0.54025620846781
40
0.770128104233905
40
0.770128104233905
40
1
40
1
40
1
40
1
41
1
10
33.2498677958865
20
0.46940111279514
30
0
41
1
10
33.2379751287371
20
0.478572088127237
30
0
41
1
10
33.2261315693884
20
0.487822091488994
30
0
41
1
10
33.1469982137755
20
0.550432123826511
30
0
41
1
10
33.0813080894986
20
0.606340219711797
30
0
41
1
10
32.9856935002074
20
0.694521841592291
30
0
41
1
10
32.9543088581473
20
0.724635035705489
30
0
41
1
10
32.8925894531996
20
0.786353693921342
30
0
41
1
10
32.8622747153523
20
0.817972102800468
30
0
41
1
10
32.8324536239517
20
0.850291396606053
30
0
0
SPLINE
5
10C
100
AcDbEntity
8
1
62
256
6
ByLayer
370
13
48
1
60
0
100
AcDbSpline
70
4
71
3
72
18
73
14
40
0
40
0
40
0
40
0
40
0.249999999999995
40
0.249999999999995
40
0.499999999999989
40
0.499999999999989
40
0.624999999999987
40
0.624999999999987
40
0.687499999999985
40
0.687499999999985
40
0.749999999999984
40
0.749999999999984
40
1
40
1
40
1
40
1
41
1
10
32.7402316476968
20
1.22920461090683
30
0
41
1
10
32.8158373943144
20
1.1307340669164
30
0
41
1
10
32.8939589330157
20
1.03684983350422
30
0
41
1
10
33.0591428995465
20
0.861592871178942
30
0
41
1
10
33.146534182965
20
0.780471249466899
30
0
41
1
10
33.2834711363246
20
0.667516811317029
30
0
41
1
10
33.3300839057287
20
0.631309431561476
30
0
41
1
10
33.4012695194035
20
0.578984453563237
30
0
41
1
10
33.4252091786635
20
0.561873500621772
30
0
41
1
10
33.473482147339
20
0.528279190179632
30
0
41
1
10
33.4978113510435
20
0.511799984138207
30
0
41
1
10
33.6197618890785
20
0.431273167221434
30
0
41
1
10
33.7187631633819
20
0.372454813216024
30
0
41
1
10
33.8188517767883
20
0.317521579479006
30
0
0
SPLINE
5
10D
100
AcDbEntity
8
1
62
256
6
ByLayer
370
18
48
1
60
0
100
AcDbSpline
70
4
71
3
72
8
73
4
40
0
40
0
40
0
40
0
40
1
40
1
40
1
40
1
41
1
10
33.8188517767884
20
0.317521579478893
30
0
41
1
10
33.8343006472901
20
0.322300076061765
30
0
41
1
10
33.8497822263264
20
0.32704259978226
30
0
41
1
10
33.8652906203034
20
0.331755632417867
30
0
0
SPLINE
5
10E
100
AcDbEntity
8
1
62
256
6
ByLayer
370
18
48
1
60
0
100
AcDbSpline
70
4
71
3
72
8
73
4
40
0
40
0
40
0
40
0
40
1
40
1
40
1
40
1
41
1
10
33.8652906203034
20
0.331755632417867
30
0
41
1
10
33.8730136358085
20
0.344024592265583
30
0
41
1
10
33.8806913637084
20
0.356389431774147
30
0
41
1
10
33.8883261485831
20
0.368845187167239
30
0
0
SPLINE
5
10F
100
AcDbEntity
8
1
62
256
6
ByLayer
370
13
48
1
60
0
100
AcDbSpline
70
4
71
3
72
8
73
4
40
0
40
0
40
0
40
0
40
1
40
1
40
1
40
1
41
1
10
32.4394046768282
20
1.65517634188262
30
0
41
1
10
32.4410821214178
20
1.65265525760165
30
0
41
1
10
32.4427603063222
20
1.65013484282667
30
0
41
1
10
32.4444392474801
20
1.64761511200601
30
0
0
SPLINE
5
110
100
AcDbEntity
8
1
62
256
6
ByLayer
370
18
48
1
60
0
100
AcDbSpline
70
4
71
3
72
10
73
6
40
0
40
0
40
0
40
0
40
0.5
40
0.5
40
1
40
1
40
1
40
1
41
1
10
32.444439247488
20
1.64761511203281
30
0
41
1
10
32.4865834434855
20
1.62616918930732
30
0
41
1
10
32.5286071139317
20
1.6035791368291
30
0
41
1
10
32.6125266082068
20
1.55610339112423
30
0
41
1
10
32.6544219059636
20
1.53121861171977
30
0
41
1
10
32.6963022274275
20
1.50508580056123
30
0
0
SPLINE
5
111
100
AcDbEntity
8
1
62
256
6
ByLayer
370
18
48
1
60
0
100
AcDbSpline
70
4
71
3
72
12
73
8
40
0
40
0
40
0
40
0
40
0.257647764024846
40
0.257647764024846
40
0.515295525950316
40
0.515295525950316
40
1
40
1
40
1
40
1
41
1
10
33.8396149080224
20
0.512036219369691
30
0
41
1
10
33.8437875126941
20
0.499728054611666
30
0
41
1
10
33.8479629952816
20
0.487422678367864
30
0
41
1
10
33.856319582966
20
0.46281739530636
30
0
41
1
10
33.8605006889758
20
0.450517485831483
30
0
41
1
10
33.872555489484
20
0.415085877103223
30
0
41
1
10
33.8804361630927
20
0.391960967532242
30
0
41
1
10
33.8883261485783
20
0.368845187162521
30
0
0
SPLINE
5
112
100
AcDbEntity
8
1
62
256
6
ByLayer
370
18
48
1
60
0
100
AcDbSpline
70
4
71
3
72
31
73
27
40
0
40
0
40
0
40
0
40
0.0033681333668817
40
0.0067428440929717
40
0.0134962829037395
40
0.0274642822227699
40
0.0389718954009981
40
0.0449653954621951
40
0.0524794450538405
40
0.104317005504807
40
0.16484617717548
40
0.168500758358352
40
0.170476890354879
40
0.171333523986292
40
0.173151882274831
40
0.179610410842863
40
0.184300198563468
40
0.205340477047272
40
0.226919269663843
40
0.354901092909795
40
0.481964398423436
40
0.656705721100028
40
0.786483764649824
40
0.910456085837003
40
0.949755009715072
40
1
40
1
40
1
40
1
41
1
10
32.000000023691
20
1.84847014097412
30
0
41
1
10
32.0025339248941
20
1.84795688144314
30
0
41
1
10
32.0076128056596
20
1.84692395649156
30
0
41
1
10
32.0177451401531
20
1.84486008785027
30
0
41
1
10
32.0358414785649
20
1.84112420913175
30
0
41
1
10
32.0599922134605
20
1.83609383166976
30
0
41
1
10
32.0834296110565
20
1.83106072864112
30
0
41
1
10
32.1019537828183
20
1.82711101510551
30
0
41
1
10
32.1507601956488
20
1.81606220382775
30
0
41
1
10
32.2395966525073
20
1.78873619047249
30
0
41
1
10
32.3243406853344
20
1.75499944765829
30
0
41
1
10
32.3722922403398
20
1.73526915404054
30
0
41
1
10
32.3770044773609
20
1.73329387547977
30
0
41
1
10
32.3803149837719
20
1.73189720452888
30
0
41
1
10
32.3870984257059
20
1.729103935761
30
0
41
1
10
32.3964872133341
20
1.72503557948406
30
0
41
1
10
32.4199395024384
20
1.71483556567341
30
0
41
1
10
32.4543410884253
20
1.69960035336356
30
0
41
1
10
32.577219048689
20
1.64246533890074
30
0
41
1
10
32.7718622514456
20
1.53859978020546
30
0
41
1
10
33.0598008503225
20
1.3516152843174
30
0
41
1
10
33.329882408308
20
1.13505780725822
30
0
41
1
10
33.5662418793608
20
0.898109484772164
30
0
41
1
10
33.7040599361994
20
0.726362339833372
30
0
41
1
10
33.7901891955188
20
0.597630971027684
30
0
41
1
10
33.8226857092703
20
0.542910044546034
30
0
41
1
10
33.8396149080322
20
0.512036219377251
30
0
0
SPLINE
5
113
100
AcDbEntity
8
1
62
256
6
ByLayer
370
18
48
1
60
0
100
AcDbSpline
70
4
71
3
72
8
73
4
40
0
40
0
40
0
40
0
40
1
40
1
40
1
40
1
41
1
10
32.6647377913794
20
1.53831439162826
30
0
41
1
10
32.5898752309723
20
1.58068284528548
30
0
41
1
10
32.5148821731181
20
1.61968664251864
30
0
41
1
10
32.4394046768279
20
1.65517634188274
30
0
0
SPLINE
5
114
100
AcDbEntity
8
1
62
256
6
ByLayer
370
18
48
1
60
0
100
AcDbSpline
70
4
71
3
72
25
73
21
40
0
40
0
40
0
40
0
40
0.032919630201723
40
0.0674051818720074
40
0.103458248592138
40
0.141080612934049
40
0.180274274946234
40
0.221041485770953
40
0.263384787284165
40
0.307307163330662
40
0.352813288654428
40
0.399909596117007
40
0.490790022037984
40
0.577131539744944
40
0.658945331418472
40
0.736236130654393
40
0.809001861903765
40
0.877233636118492
40
0.940914855555535
40
1
40
1
40
1
40
1
41
1
10
33.2023078655936
20
1.171363722671
30
0
41
1
10
33.1968130171351
20
1.17582813612225
30
0
41
1
10
33.1855619411834
20
1.18496932631152
30
0
41
1
10
33.1681467531669
20
1.19890216914448
30
0
41
1
10
33.1498262872481
20
1.21338701355586
30
0
41
1
10
33.1305761646694
20
1.22840356466173
30
0
41
1
10
33.1103862920475
20
1.24393954323566
30
0
41
1
10
33.0892426909692
20
1.25997887329311
30
0
41
1
10
33.0671327772382
20
1.27650500030879
30
0
41
1
10
33.0440437592231
20
1.29349994319054
30
0
41
1
10
33.0199625787791
20
1.31094475639
30
0
41
1
10
32.9873843064554
20
1.33415240735189
30
0
41
1
10
32.9471901619144
20
1.3620952646628
30
0
41
1
10
32.9002964171002
20
1.39369377123091
30
0
41
1
10
32.8554743131539
20
1.4229983255029
30
0
41
1
10
32.8128252953155
20
1.45008616361096
30
0
41
1
10
32.772439067352
20
1.47504052958186
30
0
41
1
10
32.7343924374902
20
1.49793104655427
30
0
41
1
10
32.6987672853576
20
1.51887461053602
30
0
41
1
10
32.6757942714199
20
1.53199823683113
30
0
41
1
10
32.6647377914207
20
1.53831439160487
30
0
0
SPLINE
5
115
100
AcDbEntity
8
1
62
256
6
ByLayer
370
18
48
1
60
0
100
AcDbSpline
70
4
71
3
72
22
73
18
40
0
40
0
40
0
40
0
40
0.250000000000042
40
0.250000000000042
40
0.375000000000063
40
0.375000000000063
40
0.437500000000073
40
0.437500000000073
40
0.500000000000084
40
0.500000000000084
40
0.625000000000085
40
0.625000000000085
40
0.687500000000075
40
0.687500000000075
40
0.750000000000065
40
0.750000000000065
40
1
40
1
40
1
40
1
41
1
10
33.8883261485742
20
0.368845187170137
30
0
41
1
10
33.8553579733597
20
0.434720839799184
30
0
41
1
10
33.8158034275126
20
0.501351109830068
30
0
41
1
10
33.7470819092906
20
0.602384140674616
30
0
41
1
10
33.7225931428899
20
0.636241855480904
30
0
41
1
10
33.6834466047226
20
0.687295607232414
30
0
41
1
10
33.6699953048333
20
0.704358217814331
30
0
41
1
10
33.642278015198
20
0.738574313393428
30
0
41
1
10
33.6279854532154
20
0.755758749593042
30
0
41
1
10
33.584082183658
20
0.807202190381702
30
0
41
1
10
33.5534944755617
20
0.841300527410908
30
0
41
1
10
33.5056414621877
20
0.892143836996411
30
0
41
1
10
33.4893615668773
20
0.909040951847601
30
0
41
1
10
33.4561411779808
20
0.942732951862581
30
0
41
1
10
33.4391817794927
20
0.959546051698595
30
0
41
1
10
33.3529495762254
20
1.04313209178704
30
0
41
1
10
33.2797431393482
20
1.10816054776464
30
0
41
1
10
33.2023078655939
20
1.1713637226708
30
0
0
SPLINE
5
116
100
AcDbEntity
8
1
62
256
6
ByLayer
370
18
48
1
60
0
100
AcDbSpline
70
4
71
3
72
8
73
4
40
0
40
0
40
0
40
0
40
1
40
1
40
1
40
1
41
1
10
32.8886249530589
20
-0.517386948179393
30
0
41
1
10
32.8968802407759
20
-0.51329113549096
30
0
41
1
10
32.9052062864592
20
-0.50920905967277
30
0
41
1
10
32.9136045961928
20
-0.505141013114269
30
0
0
SPLINE
5
117
100
AcDbEntity
8
1
62
256
6
ByLayer
370
18
48
1
60
0
100
AcDbSpline
70
4
71
3
72
16
73
12
40
0
40
0
40
0
40
0
40
0.499999999999899
40
0.499999999999899
40
0.562499999999899
40
0.562499999999899
40
0.624999999999899
40
0.624999999999899
40
0.749999999999932
40
0.749999999999932
40
1
40
1
40
1
40
1
41
1
10
32.9136045961928
20
-0.505141013114269
30
0
41
1
10
33.0296144496745
20
-0.560623835732883
30
0
41
1
10
33.1514601000728
20
-0.591563398534504
30
0
41
1
10
33.2936125048249
20
-0.605022376929497
30
0
41
1
10
33.3094780384745
20
-0.60621996710654
30
0
41
1
10
33.3413460712587
20
-0.608039119965468
30
0
41
1
10
33.3573694535523
20
-0.608660913095491
30
0
41
1
10
33.405457397421
20
-0.609688707419565
30
0
41
1
10
33.4375300880135
20
-0.609261982134427
30
0
41
1
10
33.5337857849001
20
-0.605006545878666
30
0
41
1
10
33.5980062827755
20
-0.598213133423258
30
0
41
1
10
33.6622666913955
20
-0.588263720607273
30
0
0
SPLINE
5
118
100
AcDbEntity
8
1
62
256
6
ByLayer
370
18
48
1
60
0
100
AcDbSpline
70
4
71
3
72
8
73
4
40
0
40
0
40
0
40
0
40
1
40
1
40
1
40
1
41
1
10
33.6001099000075
20
-0.50920727150924
30
0
41
1
10
33.6207186068481
20
-0.535669623231627
30
0
41
1
10
33.6414390819912
20
-0.562020228552996
30
0
41
1
10
33.6622666913953
20
-0.588263720606705
30
0
0
SPLINE
5
119
100
AcDbEntity
8
1
62
256
6
ByLayer
370
18
48
1
60
0
100
AcDbSpline
70
4
71
3
72
8
73
4
40
0
40
0
40
0
40
0
40
1
40
1
40
1
40
1
41
1
10
33.6001098999856
20
-0.509207271492755
30
0
41
1
10
33.6113735833797
20
-0.492734544921348
30
0
41
1
10
33.6225222974207
20
-0.476116420759666
30
0
41
1
10
33.6335668601763
20
-0.459366580227424
30
0
0
SPLINE
5
11A
100
AcDbEntity
8
1
62
256
6
ByLayer
370
18
48
1
60
0
100
AcDbSpline
70
4
71
3
72
8
73
4
40
0
40
0
40
0
40
0
40
1
40
1
40
1
40
1
41
1
10
32.9802013843894
20
0.713044691267299
30
0
41
1
10
32.9503809098716
20
0.711525564096405
30
0
41
1
10
32.9205239305045
20
0.710323355473577
30
0
41
1
10
32.8906329236529
20
0.709416558040687
30
0
0
SPLINE
5
11B
100
AcDbEntity
8
1
62
256
6
ByLayer
370
18
48
1
60
0
100
AcDbSpline
70
4
71
3
72
8
73
4
40
0
40
0
40
0
40
0
40
1
40
1
40
1
40
1
41
1
10
32.8324536104553
20
0.850291418826686
30
0
41
1
10
32.8802578800509
20
0.802593173962578
30
0
41
1
10
32.9294186141429
20
0.756905816766732
30
0
41
1
10
32.9802013843902
20
0.713044691270767
30
0
0
SPLINE
5
11C
100
AcDbEntity
8
1
62
256
6
ByLayer
370
18
48
1
60
0
100
AcDbSpline
70
4
71
3
72
30
73
26
40
0
40
0
40
0
40
0
40
0.249999999999945
40
0.249999999999945
40
0.374999999999941
40
0.374999999999941
40
0.499999999999937
40
0.499999999999937
40
0.624999999999933
40
0.624999999999933
40
0.749999999999929
40
0.749999999999929
40
0.812499999999926
40
0.812499999999926
40
0.874999999999924
40
0.874999999999924
40
0.906249999999921
40
0.906249999999921
40
0.937499999999919
40
0.937499999999919
40
0.953124999999939
40
0.953124999999939
40
0.96874999999996
40
0.96874999999996
40
1
40
1
40
1
40
1
41
1
10
32.8324535221481
20
0.850291506938078
30
0
41
1
10
32.8078975637491
20
0.874793004920377
30
0
41
1
10
32.7876256338995
20
0.902480388651924
30
0
41
1
10
32.7623968867578
20
0.94862550527418
30
0
41
1
10
32.754976051926
20
0.964591531497177
30
0
41
1
10
32.7419745493067
20
0.997295404046298
30
0
41
1
10
32.7363640050006
20
1.0140849862718
30
0
41
1
10
32.7267265808675
20
1.04852227704168
30
0
41
1
10
32.7226833693964
20
1.06626205405786
30
0
41
1
10
32.7163147118305
20
1.10183532343132
30
0
41
1
10
32.7139338100383
20
1.11973318285081
30
0
41
1
10
32.7119658349101
20
1.14680236844569
30
0
41
1
10
32.7115839104251
20
1.1558588440833
30
0
41
1
10
32.7116530533251
20
1.17383538785194
30
0
41
1
10
32.7120829899407
20
1.18278832486777
30
0
41
1
10
32.7139152126514
20
1.19583721002908
30
0
41
1
10
32.7147289985722
20
1.20014132453656
30
0
41
1
10
32.7170435942471
20
1.20852945049285
30
0
41
1
10
32.7185352514665
20
1.21258855264594
30
0
41
1
10
32.7216160656002
20
1.21808403826785
30
0
41
1
10
32.7227746262978
20
1.21979582989474
30
0
41
1
10
32.725441270167
20
1.22290775392233
30
0
41
1
10
32.7269767946807
20
1.22432202082808
30
0
41
1
10
32.7320105041499
20
1.22775939305728
30
0
41
1
10
32.7360336782754
20
1.22899002867072
30
0
41
1
10
32.7402316519322
20
1.22920460539794
30
0
0
SPLINE
5
11D
100
AcDbEntity
8
1
62
256
6
ByLayer
370
18
48
1
60
0
100
AcDbSpline
70
4
71
3
72
36
73
32
40
0
40
0
40
0
40
0
40
0.124999999999953
40
0.124999999999953
40
0.18749999999993
40
0.18749999999993
40
0.249999999999907
40
0.249999999999907
40
0.374999999999925
40
0.374999999999925
40
0.437499999999934
40
0.437499999999934
40
0.499999999999943
40
0.499999999999943
40
0.562499999999952
40
0.562499999999952
40
0.593749999999956
40
0.593749999999956
40
0.624999999999959
40
0.624999999999959
40
0.656249999999963
40
0.656249999999963
40
0.687499999999967
40
0.687499999999967
40
0.749999999999973
40
0.749999999999973
40
0.81249999999998
40
0.81249999999998
40
0.874999999999986
40
0.874999999999986
40
1
40
1
40
1
40
1
41
1
10
32.6963022274269
20
1.50508580056137
30
0
41
1
10
32.7134655133112
20
1.49438869068774
30
0
41
1
10
32.730350334958
20
1.48322569096476
30
0
41
1
10
32.7551195607512
20
1.46556190085173
30
0
41
1
10
32.7632824641506
20
1.45951999671647
30
0
41
1
10
32.7793820377515
20
1.44706665306319
30
0
41
1
10
32.7873262763923
20
1.44064778866951
30
0
41
1
10
32.8104881819077
20
1.42091231460384
30
0
41
1
10
32.8251512760908
20
1.4070974918358
30
0
41
1
10
32.8451056515997
20
1.38461442340673
30
0
41
1
10
32.8514475035352
20
1.37677115217028
30
0
41
1
10
32.8629021702359
20
1.36039539192822
30
0
41
1
10
32.8679790475194
20
1.35193148617901
30
0
41
1
10
32.876030169557
20
1.33431267168717
30
0
41
1
10
32.8788901768162
20
1.32542183133947
30
0
41
1
10
32.8806313173607
20
1.31188344552203
30
0
41
1
10
32.8807621339424
20
1.30738723647716
30
0
41
1
10
32.8800449861744
20
1.29872036886357
30
0
41
1
10
32.8791940435279
20
1.29448012492381
30
0
41
1
10
32.8765136104836
20
1.28637439694023
30
0
41
1
10
32.8747177350638
20
1.28258368179183
30
0
41
1
10
32.8703231923395
20
1.27546301823344
30
0
41
1
10
32.8676982542501
20
1.27211191101381
30
0
41
1
10
32.8590258272779
20
1.2629529116918
30
0
41
1
10
32.8521653275538
20
1.25792165868219
30
0
41
1
10
32.8370374312057
20
1.2493225469243
30
0
41
1
10
32.8289922306513
20
1.24588213269377
30
0
41
1
10
32.812286995108
20
1.24012365205746
30
0
41
1
10
32.8036214109658
20
1.23781537212636
30
0
41
1
10
32.7769476988109
20
1.23216539476258
30
0
41
1
10
32.7586653934812
20
1.2301468341436
30
0
41
1
10
32.7402316490532
20
1.2292046052508
30
0
0
SPLINE
5
11E
100
AcDbEntity
8
1
62
256
6
ByLayer
370
18
48
1
60
0
100
AcDbSpline
70
4
71
3
72
9
73
5
40
0
40
0
40
0
40
0
40
0.47969066589692
40
1
40
1
40
1
40
1
41
1
10
32.69630222743
20
1.50508580056044
30
0
41
1
10
32.13086815162
20
1.68289550734568
30
0
41
1
10
30.9521208546452
20
1.93190413957177
30
0
41
1
10
29.7733735576705
20
1.84136368661717
30
0
41
1
10
29.1600603365058
20
1.71581733791123
30
0
0
SPLINE
5
11F
100
AcDbEntity
8
1
62
256
6
ByLayer
370
13
48
1
60
0
100
AcDbSpline
70
4
71
3
72
8
73
4
40
0
40
0
40
0
40
0
40
1
40
1
40
1
40
1
41
1
10
31.0760251044495
20
1.10970362395671
30
0
41
1
10
31.6901642021924
20
1.00446407119907
30
0
41
1
10
32.3043032999352
20
0.84654552868227
30
0
41
1
10
32.918442397678
20
0.656095489182405
30
0
0
SPLINE
5
120
100
AcDbEntity
8
1
62
256
6
ByLayer
370
18
48
1
60
0
100
AcDbSpline
70
4
71
3
72
8
73
4
40
0
40
0
40
0
40
0
40
1
40
1
40
1
40
1
41
1
10
33.9566535730151
20
-0.302586039102323
30
0
41
1
10
33.9618196533219
20
-0.284844943357626
30
0
41
1
10
33.966731236555
20
-0.266891666924892
30
0
41
1
10
33.9713812402487
20
-0.24874006959601
30
0
0
SPLINE
5
121
100
AcDbEntity
8
1
62
256
6
ByLayer
370
18
48
1
60
0
100
AcDbSpline
70
4
71
3
72
8
73
4
40
0
40
0
40
0
40
0
40
1
40
1
40
1
40
1
41
1
10
33.9136161342836
20
-0.517619987139483
30
0
41
1
10
33.9315092221894
20
-0.446361392468589
30
0
41
1
10
33.9458736178216
20
-0.374685606791644
30
0
41
1
10
33.9566535730151
20
-0.302586039102294
30
0
0
SPLINE
5
122
100
AcDbEntity
8
1
62
256
6
ByLayer
370
18
48
1
60
0
100
AcDbSpline
70
4
71
3
72
22
73
18
40
0
40
0
40
0
40
0
40
0.249999999999972
40
0.249999999999972
40
0.499999999999943
40
0.499999999999943
40
0.624999999999957
40
0.624999999999957
40
0.749999999999972
40
0.749999999999972
40
0.812499999999979
40
0.812499999999979
40
0.874999999999986
40
0.874999999999986
40
0.937499999999993
40
0.937499999999993
40
1
40
1
40
1
40
1
41
1
10
33.9136161342836
20
-0.517619987139483
30
0
41
1
10
33.9084515874879
20
-0.538187613516101
30
0
41
1
10
33.9028367282921
20
-0.558382202789545
30
0
41
1
10
33.8905693788053
20
-0.597793051771305
30
0
41
1
10
33.883927814788
20
-0.617028130193518
30
0
41
1
10
33.8729164765193
20
-0.644688399909199
30
0
41
1
10
33.8690304933679
20
-0.653784970623263
30
0
41
1
10
33.8610442984146
20
-0.670770440448081
30
0
41
1
10
33.8568915331331
20
-0.678772268350798
30
0
41
1
10
33.8507323691062
20
-0.688918461115975
30
0
41
1
10
33.8486870071023
20
-0.692000521330897
30
0
41
1
10
33.8446374347586
20
-0.697351725600612
30
0
41
1
10
33.8426909544103
20
-0.699541103178831
30
0
41
1
10
33.839044494597
20
-0.702687378846662
30
0
41
1
10
33.8373455052352
20
-0.703621500508007
30
0
41
1
10
33.8344642685533
20
-0.703962016985713
30
0
41
1
10
33.8332411454525
20
-0.7033793972316
30
0
41
1
10
33.8322992093465
20
-0.702074530250883
30
0
0
SPLINE
5
123
100
AcDbEntity
8
1
62
256
6
ByLayer
370
18
48
1
60
0
100
AcDbSpline
70
4
71
3
72
8
73
4
40
0
40
0
40
0
40
0
40
1
40
1
40
1
40
1
41
1
10
32.4187623023452
20
-1.7214326084877
30
0
41
1
10
32.4257596167874
20
-1.72139996838013
30
0
41
1
10
32.4326437823282
20
-1.72154259308604
30
0
41
1
10
32.4394125556826
20
-1.72186508604551
30
0
0
SPLINE
5
124
100
AcDbEntity
8
1
62
256
6
ByLayer
370
18
48
1
60
0
100
AcDbSpline
70
4
71
3
72
8
73
4
40
0
40
0
40
0
40
0
40
1
40
1
40
1
40
1
41
1
10
32.6646049281785
20
-1.71457258629545
30
0
41
1
10
32.5897885607874
20
-1.72329081929789
30
0
41
1
10
32.5148422357959
20
-1.7254588746859
30
0
41
1
10
32.4394125556945
20
-1.72186508604611
30
0
0
SPLINE
5
125
100
AcDbEntity
8
1
62
256
6
ByLayer
370
18
48
1
60
0
100
AcDbSpline
70
4
71
3
72
25
73
21
40
0
40
0
40
0
40
0
40
0.0329557884896394
40
0.0674695592274291
40
0.103542901134234
40
0.141177591280663
40
0.180375623253534
40
0.221139240629338
40
0.263470976440892
40
0.307373798494573
40
0.352852349957996
40
0.399913044624915
40
0.490813595282504
40
0.577169328631018
40
0.658991480186187
40
0.736284812242802
40
0.809047250924958
40
0.877269881786235
40
0.940936037458239
40
1
40
1
40
1
40
1
41
1
10
33.2027997841261
20
-1.52704739454509
30
0
41
1
10
33.1972932396354
20
-1.53035068453221
30
0
41
1
10
33.1860198292065
20
-1.5371134272747
30
0
41
1
10
33.1685720106771
20
-1.54717094826333
30
0
41
1
10
33.1502216065551
20
-1.55742213562337
30
0
41
1
10
33.1309442284901
20
-1.56780505721323
30
0
41
1
10
33.1107298442297
20
-1.57828602457326
30
0
41
1
10
33.0895645233883
20
-1.58882047534013
30
0
41
1
10
33.0674357386999
20
-1.59936403292494
30
0
41
1
10
33.0443307617211
20
-1.60986953341225
30
0
41
1
10
33.0202366091443
20
-1.62028648233797
30
0
41
1
10
32.9876284380805
20
-1.63363143260546
30
0
41
1
10
32.9473875725637
20
-1.64875091782287
30
0
41
1
10
32.9004304037318
20
-1.66440461157745
30
0
41
1
10
32.8555498136426
20
-1.67757543787417
30
0
41
1
10
32.8128476496986
20
-1.68850767186146
30
0
41
1
10
32.7724139565015
20
-1.69744927874464
30
0
41
1
10
32.7343258308806
20
-1.7046105239107
30
0
41
1
10
32.6986654380934
20
-1.71030006196989
30
0
41
1
10
32.6756710128026
20
-1.71318446509991
30
0
41
1
10
32.6646049281788
20
-1.7145725862955
30
0
0
SPLINE
5
126
100
AcDbEntity
8
1
62
256
6
ByLayer
370
18
48
1
60
0
100
AcDbSpline
70
4
71
3
72
26
73
22
40
0
40
0
40
0
40
0
40
0.0625000000000038
40
0.0625000000000038
40
0.125000000000007
40
0.125000000000007
40
0.250000000000004
40
0.250000000000004
40
0.312500000000002
40
0.312500000000002
40
0.375
40
0.500000000000012
40
0.500000000000012
40
0.562500000000018
40
0.562500000000018
40
0.625000000000023
40
0.750000000000016
40
0.750000000000016
40
0.875000000000008
40
0.875000000000008
40
1
40
1
40
1
40
1
41
1
10
33.9201092407737
20
-0.55789437464523
30
0
41
1
10
33.9125544120881
20
-0.583684947704086
30
0
41
1
10
33.9044666409376
20
-0.609284880223044
30
0
41
1
10
33.8872101790318
20
-0.660098031697117
30
0
41
1
10
33.8780535545569
20
-0.685270885170468
30
0
41
1
10
33.8491079860746
20
-0.759809507847592
30
0
41
1
10
33.8278095528816
20
-0.808311161993771
30
0
41
1
10
33.7928788182487
20
-0.879287462813664
30
0
41
1
10
33.7807221197852
20
-0.902679142900212
30
0
41
1
10
33.7554895398465
20
-0.948706332951389
30
0
41
1
10
33.7162820033417
20
-1.01658124686435
30
0
41
1
10
33.673014469403
20
-1.08097955558429
30
0
41
1
10
33.6270346670924
20
-1.14305490402447
30
0
41
1
10
33.6112644861988
20
-1.16334560075183
30
0
41
1
10
33.5789893918988
20
-1.20294082571331
30
0
41
1
10
33.5294133746751
20
-1.26093224917599
30
0
41
1
10
33.4763594552234
20
-1.31474426616904
30
0
41
1
10
33.402495511299
20
-1.38274215158509
30
0
41
1
10
33.3642712049515
20
-1.41461629456708
30
0
41
1
10
33.2853946315707
20
-1.47405380185964
30
0
41
1
10
33.2447215708689
20
-1.50163533386441
30
0
41
1
10
33.2027997841255
20
-1.52704739454541
30
0
0
SPLINE
5
127
100
AcDbEntity
8
1
62
256
6
ByLayer
370
18
48
1
60
0
100
AcDbSpline
70
4
71
3
72
12
73
8
40
0
40
0
40
0
40
0
40
0.500000000000006
40
0.500000000000006
40
0.750000000000003
40
0.750000000000003
40
1
40
1
40
1
40
1
41
1
10
33.9988871121333
20
-0.0538698942892211
30
0
41
1
10
33.9952561786577
20
-0.139123543470021
30
0
41
1
10
33.9868703655568
20
-0.223823042843691
30
0
41
1
10
33.9671646509014
20
-0.350041687372169
30
0
41
1
10
33.959382874839
20
-0.392014770693976
30
0
41
1
10
33.9414832698517
20
-0.475362506582826
30
0
41
1
10
33.931373910336
20
-0.516764086157991
30
0
41
1
10
33.9201092407743
20
-0.557894374643126
30
0
0
SPLINE
5
128
100
AcDbEntity
8
1
62
256
6
ByLayer
370
18
48
1
60
0
100
AcDbSpline
70
4
71
3
72
8
73
4
40
0
40
0
40
0
40
0
40
1
40
1
40
1
40
1
41
1
10
33.9988871127645
20
-0.0538698707871674
30
0
41
1
10
33.9991723875784
20
-0.0428726220789315
30
0
41
1
10
33.9993689558566
20
-0.031809276602587
30
0
41
1
10
33.9994739714716
20
-0.020678896158131
30
0
0
SPLINE
5
129
100
AcDbEntity
8
1
62
256
6
ByLayer
370
18
48
1
60
0
100
AcDbSpline
70
4
71
3
72
10
73
6
40
0
40
0
40
0
40
0
40
0.88379390970411
40
0.88379390970411
40
1
40
1
40
1
40
1
41
1
10
33.9994739714714
20
-0.0206789001489938
30
0
41
1
10
33.996759043728
20
-0.029154237910916
30
0
41
1
10
33.9940221469637
20
-0.0376272751242936
30
0
41
1
10
33.9908992527012
20
-0.0472115778977411
30
0
41
1
10
33.9905359536107
20
-0.0483252903156881
30
0
41
1
10
33.9901722523848
20
-0.0494389595036182
30
0
0
SPLINE
5
12A
100
AcDbEntity
8
1
62
256
6
ByLayer
370
18
48
1
60
0
100
AcDbSpline
70
4
71
3
72
8
73
4
40
0
40
0
40
0
40
0
40
1
40
1
40
1
40
1
41
1
10
33.9903824726429
20
0.0177113016819135
30
0
41
1
10
33.9906409183119
20
-0.0046709728148642
30
0
41
1
10
33.9905707233885
20
-0.0270542898581994
30
0
41
1
10
33.9901722523848
20
-0.0494389595037035
30
0
0
SPLINE
5
12B
100
AcDbEntity
8
1
62
256
6
ByLayer
370
18
48
1
60
0
100
AcDbSpline
70
4
71
3
72
8
73
4
40
0
40
0
40
0
40
0
40
1
40
1
40
1
40
1
41
1
10
33.9740126569224
20
-0.151366739102087
30
0
41
1
10
33.9785664667446
20
-0.0945715993683507
30
0
41
1
10
33.9809202962787
20
-0.0375163598813799
30
0
41
1
10
33.9810901213365
20
0.0197970905670672
30
0
0
SPLINE
5
12C
100
AcDbEntity
8
1
62
256
6
ByLayer
370
18
48
1
60
0
100
AcDbSpline
70
4
71
3
72
22
73
18
40
0
40
0
40
0
40
0
40
0.125
40
0.125
40
0.25
40
0.25
40
0.375
40
0.375
40
0.5
40
0.5
40
0.625
40
0.625
40
0.75
40
0.75
40
0.875
40
0.875
40
1
40
1
40
1
40
1
41
1
10
33.9740126569224
20
-0.151366739102059
30
0
41
1
10
33.9749388155726
20
-0.152966411220149
30
0
41
1
10
33.9758438210362
20
-0.154904745262627
30
0
41
1
10
33.9774977435272
20
-0.159576860221819
30
0
41
1
10
33.9782549017895
20
-0.162311700308464
30
0
41
1
10
33.9795344118382
20
-0.169004721115925
30
0
41
1
10
33.9800289684923
20
-0.172835740265128
30
0
41
1
10
33.9805945738009
20
-0.181720708323667
30
0
41
1
10
33.9806463204073
20
-0.1865351420183
30
0
41
1
10
33.9802733405886
20
-0.196774357110371
30
0
41
1
10
33.9798566645439
20
-0.201971313788562
30
0
41
1
10
33.9787038642844
20
-0.212174729370673
30
0
41
1
10
33.9779830806225
20
-0.21708871296434
30
0
41
1
10
33.9763439070456
20
-0.226668605002118
30
0
41
1
10
33.9754246638346
20
-0.231322724549642
30
0
41
1
10
33.973482862005
20
-0.240248111010772
30
0
41
1
10
33.9724540131196
20
-0.244552429658199
30
0
41
1
10
33.9713812402487
20
-0.248740069595954
30
0
0
SPLINE
5
12D
100
AcDbEntity
8
1
62
256
6
ByLayer
370
18
48
1
60
0
100
AcDbSpline
70
4
71
3
72
10
73
6
40
0
40
0
40
0
40
0
40
0.5
40
0.5
40
1
40
1
40
1
40
1
41
1
10
27.7335951551276
20
-1.49157410165282
30
0
41
1
10
27.7778222186649
20
-1.49813532840548
30
0
41
1
10
27.8222697342989
20
-1.50622483322718
30
0
41
1
10
27.9111262575485
20
-1.52538412984143
30
0
41
1
10
27.9555602462307
20
-1.53645392396038
30
0
41
1
10
28
20
-1.54902375897294
30
0
0
SPLINE
5
12E
100
AcDbEntity
8
1
62
256
6
ByLayer
370
18
48
1
60
0
100
AcDbSpline
70
4
71
3
72
20
73
16
40
0
40
0
40
0
40
0
40
0.25
40
0.25
40
0.375
40
0.375
40
0.5
40
0.5
40
0.625
40
0.625
40
0.75
40
0.75
40
0.875
40
0.875
40
1
40
1
40
1
40
1
41
1
10
32.9682681531443
20
-0.65753853431147
30
0
41
1
10
32.9721837686401
20
-0.66393561620302
30
0
41
1
10
32.9757235191852
20
-0.67062121590476
30
0
41
1
10
32.9802362256192
20
-0.681261328908278
30
0
41
1
10
32.9816062988289
20
-0.684911016588046
30
0
41
1
10
32.9840079693566
20
-0.692470207024115
30
0
41
1
10
32.9850390711329
20
-0.696390918097848
30
0
41
1
10
32.9866186908214
20
-0.704346080944788
30
0
41
1
10
32.987176090731
20
-0.708402121008504
30
0
41
1
10
32.9877120760998
20
-0.716709601538469
30
0
41
1
10
32.9876817010817
20
-0.720953446190379
30
0
41
1
10
32.986936075184
20
-0.729320124802172
30
0
41
1
10
32.9862191858756
20
-0.733504574517951
30
0
41
1
10
32.9840450130122
20
-0.741729727189664
30
0
41
1
10
32.9826143073033
20
-0.745683855633899
30
0
41
1
10
32.9808531815587
20
-0.749485624580075
30
0
0
SPLINE
5
12F
100
AcDbEntity
8
1
62
256
6
ByLayer
370
18
48
1
60
0
100
AcDbSpline
70
4
71
3
72
8
73
4
40
0
40
0
40
0
40
0
40
1
40
1
40
1
40
1
41
1
10
28.0449493180722
20
-1.90405540799173
30
0
41
1
10
28.0299371888985
20
-1.90498435423677
30
0
41
1
10
28.0149537752958
20
-1.90584693848246
30
0
41
1
10
27.9999999999978
20
-1.90664087204649
30
0
0
SPLINE
5
130
100
AcDbEntity
8
1
62
256
6
ByLayer
370
18
48
1
60
0
100
AcDbSpline
70
4
71
3
72
26
73
22
40
0
40
0
40
0
40
0
40
0.0335407845276249
40
0.0693049708534763
40
0.107297776206591
40
0.147523181744474
40
0.189984151303016
40
0.234682795300688
40
0.28162049510014
40
0.330797998403382
40
0.382215493119368
40
0.435872665021423
40
0.491768743053045
40
0.549902535121339
40
0.610272456494844
40
0.672876552403155
40
0.737712516058299
40
0.804777703039419
40
0.874069142775625
40
0.945583547706296
40
1
40
1
40
1
40
1
41
1
10
28.0460564451037
20
-1.90438102273276
30
0
41
1
10
28.0463540003075
20
-1.90074537702989
30
0
41
1
10
28.0469688355003
20
-1.89323308049236
30
0
41
1
10
28.0476241992885
20
-1.88159573602383
30
0
41
1
10
28.0481297534407
20
-1.86921262962846
30
0
41
1
10
28.0484595945035
20
-1.85606865141082
30
0
41
1
10
28.0486211908978
20
-1.84214734182339
30
0
41
1
10
28.0486122737558
20
-1.82743161515566
30
0
41
1
10
28.0484334243164
20
-1.81190359379002
30
0
41
1
10
28.0480844109366
20
-1.79554470650194
30
0
41
1
10
28.0475652470347
20
-1.77833571454377
30
0
41
1
10
28.0468758845038
20
-1.76025676281782
30
0
41
1
10
28.0460162978466
20
-1.74128742902076
30
0
41
1
10
28.0449864682892
20
-1.72140677476295
30
0
41
1
10
28.0437863496256
20
-1.70059341298636
30
0
41
1
10
28.0424160257261
20
-1.67882552693766
30
0
41
1
10
28.0408750794528
20
-1.65608109887322
30
0
41
1
10
28.0391650737396
20
-1.63233733227511
30
0
41
1
10
28.0372798107015
20
-1.60757325982061
30
0
41
1
10
28.0354268488407
20
-1.58408414107723
30
0
41
1
10
28.0341414625514
20
-1.56881057694645
30
0
41
1
10
28.0335579720626
20
-1.56219095801535
30
0
0
SPLINE
5
131
100
AcDbEntity
8
1
62
256
6
ByLayer
370
18
48
1
60
0
100
AcDbSpline
70
4
71
3
72
32
73
28
40
0
40
0
40
0
40
0
40
0.125000000000014
40
0.125000000000014
40
0.156250000000018
40
0.156250000000018
40
0.187500000000021
40
0.250000000000052
40
0.250000000000052
40
0.375000000000114
40
0.375000000000114
40
0.437500000000145
40
0.437500000000145
40
0.46875000000016
40
0.46875000000016
40
0.500000000000176
40
0.500000000000176
40
0.625000000000171
40
0.625000000000171
40
0.687500000000159
40
0.718750000000143
40
0.718750000000143
40
0.750000000000127
40
0.750000000000127
40
0.875000000000063
40
0.875000000000063
40
1
40
1
40
1
40
1
41
1
10
32.7760174351559
20
-1.31844663558735
30
0
41
1
10
32.8203161591146
20
-1.32278476228342
30
0
41
1
10
32.865132157931
20
-1.32329424774005
30
0
41
1
10
32.9218313567
20
-1.31890396272593
30
0
41
1
10
32.933228940384
20
-1.3177696695046
30
0
41
1
10
32.9559649196534
20
-1.31499849568863
30
0
41
1
10
32.9899575198944
20
-1.3100940468633
30
0
41
1
10
33.0236192794607
20
-1.30296845587358
30
0
41
1
10
33.0905044016425
20
-1.28577403856093
30
0
41
1
10
33.1345120494223
20
-1.2704008489635
30
0
41
1
10
33.1996231460179
20
-1.24129627865892
30
0
41
1
10
33.2211763408786
20
-1.2305843268897
30
0
41
1
10
33.2532714961561
20
-1.21294113292967
30
0
41
1
10
33.263951948754
20
-1.20678358371643
30
0
41
1
10
33.2850597923746
20
-1.19403678994217
30
0
41
1
10
33.2955015106
20
-1.18744086319822
30
0
41
1
10
33.3471559428
20
-1.15336218343032
30
0
41
1
10
33.3867134828918
20
-1.122596775869
30
0
41
1
10
33.4434430277013
20
-1.07127874847177
30
0
41
1
10
33.4711524713032
20
-1.04432004167722
30
0
41
1
10
33.4978543940796
20
-1.01536315037603
30
0
41
1
10
33.5154279385107
20
-0.995606891681007
30
0
41
1
10
33.5241181371358
20
-0.985481945534417
30
0
41
1
10
33.5667723317414
20
-0.933972488097766
30
0
41
1
10
33.5981480466417
20
-0.89024341982207
30
0
41
1
10
33.6556763670465
20
-0.797992050265719
30
0
41
1
10
33.6818163285243
20
-0.749458145596975
30
0
41
1
10
33.7052667178102
20
-0.69845602798776
30
0
0
SPLINE
5
132
100
AcDbEntity
8
1
62
256
6
ByLayer
370
18
48
1
60
0
100
AcDbSpline
70
4
71
3
72
31
73
27
40
0
40
0
40
0
40
0
40
0.0033924209103647
40
0.0067914666091404
40
0.013593604334425
40
0.0276623266218841
40
0.0392529209736152
40
0.0452896400463879
40
0.0528578733078279
40
0.105069233405526
40
0.166034879810344
40
0.169715814100908
40
0.171706195972011
40
0.172569006774578
40
0.174400477044311
40
0.180905577922895
40
0.185629183747431
40
0.206821183136953
40
0.228555580014911
40
0.357460277726108
40
0.485439834270745
40
0.661441213209591
40
0.792155083678728
40
0.91702136683681
40
0.956603674479813
40
1
40
1
40
1
40
1
41
1
10
32.000000023691
20
-1.51390622202675
30
0
41
1
10
32.0025339248941
20
-1.51483804636106
30
0
41
1
10
32.0076128056596
20
-1.51670584966087
30
0
41
1
10
32.0177451401531
20
-1.52042097179091
30
0
41
1
10
32.0358414785648
20
-1.52702844468672
30
0
41
1
10
32.0599922134625
20
-1.53578406689738
30
0
41
1
10
32.0834296110557
20
-1.54418688459455
30
0
41
1
10
32.1019537828228
20
-1.55075999517251
30
0
41
1
10
32.1507601956465
20
-1.56837477365724
30
0
41
1
10
32.2395966526329
20
-1.59260017815833
30
0
41
1
10
32.3243406854862
20
-1.60654298116412
30
0
41
1
10
32.3722922405021
20
-1.61318774740153
30
0
41
1
10
32.3770044775694
20
-1.61380108654799
30
0
41
1
10
32.3803149838414
20
-1.61421682019403
30
0
41
1
10
32.3870984257734
20
-1.61527711055524
30
0
41
1
10
32.3964872132914
20
-1.61645454819995
30
0
41
1
10
32.4199395023542
20
-1.61928542699798
30
0
41
1
10
32.4543410884395
20
-1.62280918705929
30
0
41
1
10
32.5772190485725
20
-1.63049450828404
30
0
41
1
10
32.771862251464
20
-1.61736956711698
30
0
41
1
10
33.0598008503727
20
-1.53515262688111
30
0
41
1
10
33.3298824083806
20
-1.38036391485548
30
0
41
1
10
33.5662418794362
20
-1.15546181117657
30
0
41
1
10
33.7040599362571
20
-0.960981149283754
30
0
41
1
10
33.7873012189486
20
-0.804514274477611
30
0
41
1
10
33.817466117866
20
-0.737994528840034
30
0
41
1
10
33.8322992093465
20
-0.702074530250854
30
0
0
SPLINE
5
133
100
AcDbEntity
8
1
62
256
6
ByLayer
370
18
48
1
60
0
100
AcDbSpline
70
4
71
3
72
16
73
12
40
0
40
0
40
0
40
0
40
0.249999999999998
40
0.249999999999998
40
0.374999999999996
40
0.374999999999996
40
0.499999999999995
40
0.499999999999995
40
0.749999999999998
40
0.749999999999998
40
1
40
1
40
1
40
1
41
1
10
33.8322992093465
20
-0.702074530250883
30
0
41
1
10
33.8301630277052
20
-0.696690100229006
30
0
41
1
10
33.8289552228244
20
-0.689951731075752
30
0
41
1
10
33.8278732298964
20
-0.678747719568491
30
0
41
1
10
33.8276423255628
20
-0.674796040949502
30
0
41
1
10
33.8273932878334
20
-0.66668790334154
30
0
41
1
10
33.8273738061353
20
-0.662537443293616
30
0
41
1
10
33.827558991977
20
-0.649854073146116
30
0
41
1
10
33.8280038702182
20
-0.6410920452889
30
0
41
1
10
33.8293217890173
20
-0.62311867698412
30
0
41
1
10
33.8302000604771
20
-0.613886038043688
30
0
41
1
10
33.8312270819609
20
-0.604538520022118
30
0
0
SPLINE
5
134
100
AcDbEntity
8
1
62
256
6
ByLayer
370
18
48
1
60
0
100
AcDbSpline
70
4
71
3
72
8
73
4
40
0
40
0
40
0
40
0
40
1
40
1
40
1
40
1
41
1
10
33.8384188436509
20
-0.53543707457581
30
0
41
1
10
33.8361511017601
20
-0.558553937686298
30
0
41
1
10
33.8337490449012
20
-0.581584672995092
30
0
41
1
10
33.8312270819609
20
-0.604538520022146
30
0
0
SPLINE
5
135
100
AcDbEntity
8
1
62
256
6
ByLayer
370
18
48
1
60
0
100
AcDbSpline
70
4
71
3
72
10
73
6
40
0
40
0
40
0
40
0
40
0.5
40
0.5
40
1
40
1
40
1
40
1
41
1
10
33.7052667178099
20
-0.698456027987845
30
0
41
1
10
33.7290472044616
20
-0.673652968159161
30
0
41
1
10
33.7520572283918
20
-0.647622478068371
30
0
41
1
10
33.7965153865711
20
-0.593172970226135
30
0
41
1
10
33.8178893476014
20
-0.564848185633906
30
0
41
1
10
33.838418843651
20
-0.53543707457564
30
0
0
SPLINE
5
136
100
AcDbEntity
8
1
62
256
6
ByLayer
370
18
48
1
60
0
100
AcDbSpline
70
4
71
3
72
8
73
4
40
0
40
0
40
0
40
0
40
1
40
1
40
1
40
1
41
1
10
30.5139761123677
20
-1.01604333640208
30
0
41
1
10
29.6759840749118
20
-0.825126357322972
30
0
41
1
10
28.8379920374559
20
-0.544311989439564
30
0
41
1
10
28
20
-0.239610945996418
30
0
0
SPLINE
5
137
100
AcDbEntity
8
1
62
256
6
ByLayer
370
18
48
1
60
0
100
AcDbSpline
70
4
71
3
72
33
73
29
40
0
40
0
40
0
40
0
40
0.170386789360742
40
0.170386789360742
40
0.212983486700912
40
0.212983486700912
40
0.255580184041082
40
0.340773578721357
40
0.340773578721357
40
0.511160368081908
40
0.511160368081908
40
0.59635376276215
40
0.59635376276215
40
0.638950460102271
40
0.638950460102271
40
0.649599634437285
40
0.649599634437285
40
0.654924221604759
40
0.654924221604759
40
0.660248808772233
40
0.660248808772233
40
0.681547157442261
40
0.681547157442261
40
0.76674055212231
40
0.76674055212231
40
0.851933946802358
40
0.851933946802358
40
1
40
1
40
1
40
1
41
1
10
32.0000000084299
20
-1.86005339306533
30
0
41
1
10
32.0290985840422
20
-1.85615509030552
30
0
41
1
10
32.0581754394869
20
-1.85208780379213
30
0
41
1
10
32.0944579840025
20
-1.84688663667771
30
0
41
1
10
32.1017126063385
20
-1.84583648025861
30
0
41
1
10
32.1162831548949
20
-1.8435497384996
30
0
41
1
10
32.1382426093473
20
-1.83981084778236
30
0
41
1
10
32.1605068974415
20
-1.83520792798953
30
0
41
1
10
32.205393408091
20
-1.82507016493599
30
0
41
1
10
32.2358015557646
20
-1.81706390601093
30
0
41
1
10
32.2818058426383
20
-1.80421807248473
30
0
41
1
10
32.297204112712
20
-1.79979860019031
30
0
41
1
10
32.3203376892007
20
-1.79310978145242
30
0
41
1
10
32.3280445081555
20
-1.79089329925353
30
0
41
1
10
32.3377065522993
20
-1.7880635114183
30
0
41
1
10
32.3396452172072
20
-1.78748381168063
30
0
41
1
10
32.3425687030007
20
-1.78658031461541
30
0
41
1
10
32.3435487648685
20
-1.78626686448945
30
0
41
1
10
32.3454913359012
20
-1.78567917515727
30
0
41
1
10
32.3464459408401
20
-1.78542246581739
30
0
41
1
10
32.3512218371565
20
-1.78413251083472
30
0
41
1
10
32.3551388670069
20
-1.78288762292544
30
0
41
1
10
32.3747300691787
20
-1.77666094382715
30
0
41
1
10
32.3903560218972
20
-1.77190762563262
30
0
41
1
10
32.421588322641
20
-1.76196891343523
30
0
41
1
10
32.4371587791621
20
-1.75682129758431
30
0
41
1
10
32.4797342194652
20
-1.7424885410627
30
0
41
1
10
32.5066870609161
20
-1.73308835790587
30
0
41
1
10
32.533573713634
20
-1.72339882064404
30
0
0
SPLINE
5
138
100
AcDbEntity
8
1
62
256
6
ByLayer
370
18
48
1
60
0
100
AcDbSpline
70
4
71
3
72
10
73
6
40
0
40
0
40
0
40
0
40
0.5
40
0.5
40
1
40
1
40
1
40
1
41
1
10
33.6410371670121
20
-0.440351464936668
30
0
41
1
10
33.6405917265667
20
-0.444158515233596
30
0
41
1
10
33.6395349948669
20
-0.447630670910485
30
0
41
1
10
33.6369102577096
20
-0.453873746467764
30
0
41
1
10
33.6353210308678
20
-0.456706259488726
30
0
41
1
10
33.6335668601763
20
-0.459366580227424
30
0
0
SPLINE
5
139
100
AcDbEntity
8
1
62
256
6
ByLayer
370
13
48
1
60
0
100
AcDbSpline
70
4
71
3
72
18
73
14
40
0
40
0
40
0
40
0
40
0.250000000000014
40
0.250000000000014
40
0.375000000000022
40
0.375000000000022
40
0.500000000000029
40
0.500000000000029
40
0.750000000000015
40
0.750000000000015
40
0.875000000000007
40
0.875000000000007
40
1
40
1
40
1
40
1
41
1
10
33.6335668601764
20
-0.459366580227453
30
0
41
1
10
33.562119160342
20
-0.471669505409579
30
0
41
1
10
33.4912351343904
20
-0.481671649792475
30
0
41
1
10
33.3859020965456
20
-0.49235751342556
30
0
41
1
10
33.3510123046194
20
-0.495193389353517
30
0
41
1
10
33.2820915137867
20
-0.499308828428383
30
0
41
1
10
33.2480088131232
20
-0.500593911449187
30
0
41
1
10
33.1469982137747
20
-0.502090012680327
30
0
41
1
10
33.081308089498
20
-0.499936213734088
30
0
41
1
10
32.985693500207
20
-0.491996222439894
30
0
41
1
10
32.954308858147
20
-0.488566496224649
30
0
41
1
10
32.8925894531994
20
-0.480171941674257
30
0
41
1
10
32.8622747153522
20
-0.475218320206522
30
0
41
1
10
32.8324536239517
20
-0.469544914690289
30
0
0
SPLINE
5
13A
100
AcDbEntity
8
1
62
256
6
ByLayer
370
18
48
1
60
0
100
AcDbSpline
70
4
71
3
72
12
73
8
40
0
40
0
40
0
40
0
40
0.321964024094971
40
0.5634370421662
40
0.804910060237428
40
0.965892072284914
40
1
40
1
40
1
40
1
41
1
10
28
20
-1.42147384765761
30
0
41
1
10
28.3333333333333
20
-1.55304066250352
30
0
41
1
10
28.9166666666667
20
-1.74587196265668
30
0
41
1
10
29.75
20
-1.91741754119511
30
0
41
1
10
30.4166666666667
20
-1.97761045527486
30
0
41
1
10
30.8686456924403
20
-1.9716003483621
30
0
41
1
10
31.070624718214
20
-1.95832486499083
30
0
41
1
10
31.1059370773209
20
-1.95568498728528
30
0
0
SPLINE
5
13B
100
AcDbEntity
8
1
62
256
6
ByLayer
370
18
48
1
60
0
100
AcDbSpline
70
4
71
3
72
28
73
24
40
0
40
0
40
0
40
0
40
0.125000000000005
40
0.125000000000005
40
0.187500000000007
40
0.187500000000007
40
0.25000000000001
40
0.25000000000001
40
0.375000000000007
40
0.375000000000007
40
0.437500000000009
40
0.437500000000009
40
0.500000000000012
40
0.500000000000012
40
0.625000000000009
40
0.625000000000009
40
0.687500000000008
40
0.687500000000008
40
0.750000000000006
40
0.750000000000006
40
0.875000000000003
40
0.875000000000003
40
1
40
1
40
1
40
1
41
1
10
32
20
-1.8600533486925
30
0
41
1
10
31.8346044045868
20
-1.88155294590248
30
0
41
1
10
31.6694454540657
20
-1.89688439474705
30
0
41
1
10
31.4215656081834
20
-1.9100798146255
30
0
41
1
10
31.3388526314461
20
-1.91284268945938
30
0
41
1
10
31.1736097966776
20
-1.91498047133246
30
0
41
1
10
31.0911126568463
20
-1.9143577438937
30
0
41
1
10
30.8438585963698
20
-1.90730273143939
30
0
41
1
10
30.6793370979555
20
-1.89568023598392
30
0
41
1
10
30.432367113493
20
-1.86845952946339
30
0
41
1
10
30.3500130967268
20
-1.85775218511486
30
0
41
1
10
30.1851313482869
20
-1.83316605842529
30
0
41
1
10
30.1025603032913
20
-1.81927691538388
30
0
41
1
10
29.8552645642475
20
-1.77315011546352
30
0
41
1
10
29.6907017241369
20
-1.73642628259401
30
0
41
1
10
29.4436554145181
20
-1.67303897638942
30
0
41
1
10
29.3612731108997
20
-1.65052568013221
30
0
41
1
10
29.196336207854
20
-1.60282564453391
30
0
41
1
10
29.11371958268
20
-1.57761876319088
30
0
41
1
10
28.8659332032652
20
-1.49826339969343
30
0
41
1
10
28.7010019706324
20
-1.44045528859414
30
0
41
1
10
28.3709504768976
20
-1.31569428938127
30
0
41
1
10
28.2058306014688
20
-1.24874259142885
30
0
41
1
10
28.0402852874865
20
-1.17743523621761
30
0
0
SPLINE
5
13C
100
AcDbEntity
8
1
62
256
6
ByLayer
370
18
48
1
60
0
100
AcDbSpline
70
4
71
3
72
8
73
4
40
0
40
0
40
0
40
0
40
1
40
1
40
1
40
1
41
1
10
32.8906329236477
20
0.709416558035969
30
0
41
1
10
32.9003865525229
20
0.691677563244525
30
0
41
1
10
32.9097003875791
20
0.673907032027017
30
0
41
1
10
32.9184424076032
20
0.656095497491521
30
0
0
SPLINE
5
13D
100
AcDbEntity
8
1
62
256
6
ByLayer
370
18
48
1
60
0
100
AcDbSpline
70
4
71
3
72
14
73
10
40
0
40
0
40
0
40
0
40
0.25
40
0.25
40
0.5
40
0.5
40
0.75
40
0.75
40
1
40
1
40
1
40
1
41
1
10
32.9184423984122
20
0.656095492799807
30
0
41
1
10
32.92114658356
20
0.65058704250356
30
0
41
1
10
32.9235207152234
20
0.645150736235621
30
0
41
1
10
32.9273582308201
20
0.634477180502728
30
0
41
1
10
32.9287890479397
20
0.629321192194084
30
0
41
1
10
32.930287648125
20
0.619654831218583
30
0
41
1
10
32.9303395907172
20
0.61505376773863
30
0
41
1
10
32.9286011087158
20
0.607264132755063
30
0
41
1
10
32.9267923053403
20
0.604003924446005
30
0
41
1
10
32.9240854298116
20
0.601632646355739
30
0
0
SPLINE
5
13E
100
AcDbEntity
8
1
62
256
6
ByLayer
370
18
48
1
60
0
100
AcDbSpline
70
4
71
3
72
12
73
8
40
0
40
0
40
0
40
0
40
0.500000000000023
40
0.500000000000023
40
0.750000000000011
40
0.750000000000011
40
1
40
1
40
1
40
1
41
1
10
33.0771511571802
20
0.616235445205149
30
0
41
1
10
33.1663917205485
20
0.54007148126891
30
0
41
1
10
33.2578524848194
20
0.469650418295316
30
0
41
1
10
33.3976916153026
20
0.370868253670807
30
0
41
1
10
33.4447475796131
20
0.339086550241831
30
0
41
1
10
33.5396467155447
20
0.277559379662051
30
0
41
1
10
33.5871791805245
20
0.248015254333183
30
0
41
1
10
33.6346928115108
20
0.219559655971238
30
0
0
SPLINE
5
13F
100
AcDbEntity
8
1
62
256
6
ByLayer
370
18
48
1
60
0
100
AcDbSpline
70
4
71
3
72
8
73
4
40
0
40
0
40
0
40
0
40
1
40
1
40
1
40
1
41
1
10
32.8886249530505
20
-0.517386948177773
30
0
41
1
10
32.8812454382854
20
-0.517067136157777
30
0
41
1
10
32.8738612100445
20
-0.516758539360694
30
0
41
1
10
32.8664724099193
20
-0.516460820883992
30
0
0
SPLINE
5
140
100
AcDbEntity
8
1
62
256
6
ByLayer
370
18
48
1
60
0
100
AcDbSpline
70
4
71
3
72
8
73
4
40
0
40
0
40
0
40
0
40
1
40
1
40
1
40
1
41
1
10
32.8324536104553
20
-0.46954497150972
30
0
41
1
10
32.8509724672547
20
-0.485522179482359
30
0
41
1
10
32.8696865472084
20
-0.501487914475462
30
0
41
1
10
32.8886249530561
20
-0.517386948173936
30
0
0
SPLINE
5
141
100
AcDbEntity
8
1
62
256
6
ByLayer
370
18
48
1
60
0
100
AcDbSpline
70
4
71
3
72
30
73
26
40
0
40
0
40
0
40
0
40
0.250000000000028
40
0.250000000000028
40
0.375000000000042
40
0.375000000000042
40
0.500000000000056
40
0.500000000000056
40
0.62500000000007
40
0.62500000000007
40
0.750000000000084
40
0.750000000000084
40
0.81250000000009
40
0.81250000000009
40
0.875000000000097
40
0.875000000000097
40
0.906250000000093
40
0.906250000000093
40
0.93750000000009
40
0.93750000000009
40
0.953125000000068
40
0.953125000000068
40
0.968750000000045
40
0.968750000000045
40
1
40
1
40
1
40
1
41
1
10
32.8324535221481
20
-0.469544895322343
30
0
41
1
10
32.8078975637492
20
-0.448359156232868
30
0
41
1
10
32.7876256338995
20
-0.425791076882689
30
0
41
1
10
32.7623968867578
20
-0.391720158272108
30
0
41
1
10
32.754976051926
20
-0.380476395275167
30
0
41
1
10
32.7419745493066
20
-0.358730585670941
30
0
41
1
10
32.7363640050005
20
-0.348188769494044
30
0
41
1
10
32.7267265808673
20
-0.328026099841907
30
0
41
1
10
32.7226833693962
20
-0.318362124420958
30
0
41
1
10
32.7163147118303
20
-0.30063764048657
30
0
41
1
10
32.713933810038
20
-0.292518603491004
30
0
41
1
10
32.7119658349097
20
-0.281748871457495
30
0
41
1
10
32.7115839104248
20
-0.278399084913332
30
0
41
1
10
32.7116530533248
20
-0.272382474603063
30
0
41
1
10
32.7120829899404
20
-0.269697642409966
30
0
41
1
10
32.713915212651
20
-0.266490872674126
30
0
41
1
10
32.7147289985717
20
-0.265555126114663
30
0
41
1
10
32.7170435942466
20
-0.264093523329251
30
0
41
1
10
32.7185352514661
20
-0.263572361892216
30
0
41
1
10
32.7216160655998
20
-0.263326874714238
30
0
41
1
10
32.7227746262973
20
-0.263336213432893
30
0
41
1
10
32.7254412701666
20
-0.263582597681051
30
0
41
1
10
32.7269767946803
20
-0.263826919247037
30
0
41
1
10
32.7320105041495
20
-0.264934267820593
30
0
41
1
10
32.7360336782735
20
-0.266203110025629
30
0
41
1
10
32.7402316519302
20
-0.267767489215572
30
0
0
SPLINE
5
142
100
AcDbEntity
8
1
62
256
6
ByLayer
370
13
48
1
60
0
100
AcDbSpline
70
4
71
3
72
9
73
5
40
0
40
0
40
0
40
0
40
0.603832141911281
40
1
40
1
40
1
40
1
41
1
10
28
20
0.973628092179467
30
0
41
1
10
29
20
0.748891332974949
30
0
41
1
10
30.6560893841039
20
0.145131911115925
30
0
41
1
10
32.3121787682079
20
-0.453743215380797
30
0
41
1
10
32.9682681523117
20
-0.657538534434025
30
0
0
SPLINE
5
143
100
AcDbEntity
8
1
62
256
6
ByLayer
370
18
48
1
60
0
100
AcDbSpline
70
4
71
3
72
10
73
6
40
0
40
0
40
0
40
0
40
0.5
40
0.5
40
1
40
1
40
1
40
1
41
1
10
32.8664724099192
20
-0.516460820883992
30
0
41
1
10
32.884640551772
20
-0.538439471853565
30
0
41
1
10
32.9023061184422
20
-0.561059540074268
30
0
41
1
10
32.9363581488555
20
-0.607932146039587
30
0
41
1
10
32.9527495784633
20
-0.632178346043418
30
0
41
1
10
32.9682681615131
20
-0.657538526317296
30
0
0
SPLINE
5
144
100
AcDbEntity
8
1
62
256
6
ByLayer
370
18
48
1
60
0
100
AcDbSpline
70
4
71
3
72
18
73
14
40
0
40
0
40
0
40
0
40
0.250000000000015
40
0.250000000000015
40
0.375000000000012
40
0.375000000000012
40
0.50000000000001
40
0.50000000000001
40
0.750000000000005
40
0.750000000000005
40
0.875000000000002
40
0.875000000000002
40
1
40
1
40
1
40
1
41
1
10
32.9240854318656
20
0.601632645043082
30
0
41
1
10
32.9014503534934
20
0.581977565410682
30
0
41
1
10
32.8798830798259
20
0.561273573296432
30
0
41
1
10
32.8495923542282
20
0.528193853316196
30
0
41
1
10
32.8398404182184
20
0.516828411213879
30
0
41
1
10
32.821127858898
20
0.49332021534579
30
0
41
1
10
32.8121613077015
20
0.481167465921573
30
0
41
1
10
32.7867289959714
20
0.443509607087464
30
0
41
1
10
32.7716853099219
20
0.416787121022793
30
0
41
1
10
32.752921595945
20
0.37348629760919
30
0
41
1
10
32.7473023956055
20
0.358507532927291
30
0
41
1
10
32.7375599744668
20
0.327314697725342
30
0
41
1
10
32.7334730794459
20
0.311215155199477
30
0
41
1
10
32.7302650177245
20
0.294551856237519
30
0
0
SPLINE
5
145
100
AcDbEntity
8
1
62
256
6
ByLayer
370
18
48
1
60
0
100
AcDbSpline
70
4
71
3
72
8
73
4
40
0
40
0
40
0
40
0
40
1
40
1
40
1
40
1
41
1
10
32.9240854297041
20
0.601632646261578
30
0
41
1
10
32.3844620821999
20
0.778162343638997
30
0
41
1
10
31.8448387346957
20
0.931404259344845
30
0
41
1
10
31.3052153871915
20
1.0467243378817
30
0
0
SPLINE
5
146
100
AcDbEntity
8
1
62
256
6
ByLayer
370
13
48
1
60
0
100
AcDbSpline
70
4
71
3
72
8
73
4
40
0
40
0
40
0
40
0
40
1
40
1
40
1
40
1
41
1
10
28
20
-0.162307777701415
30
0
41
1
10
28.7560055205205
20
-0.434811110964176
30
0
41
1
10
29.5120110410409
20
-0.693404394865013
30
0
41
1
10
30.2680165615615
20
-0.888969361584657
30
0
0
SPLINE
5
147
100
AcDbEntity
8
1
62
256
6
ByLayer
370
18
48
1
60
0
100
AcDbSpline
70
4
71
3
72
8
73
4
40
0
40
0
40
0
40
0
40
1
40
1
40
1
40
1
41
1
10
28.0392697821831
20
1.89615475351894
30
0
41
1
10
28.0261541606242
20
1.89718431802876
30
0
41
1
10
28.0130639753261
20
1.89816365568205
30
0
41
1
10
27.9999999999993
20
1.8990911012516
30
0
0
SPLINE
5
148
100
AcDbEntity
8
1
62
256
6
ByLayer
370
18
48
1
60
0
100
AcDbSpline
70
4
71
3
72
28
73
24
40
0
40
0
40
0
40
0
40
0.124999999999989
40
0.124999999999989
40
0.187499999999987
40
0.187499999999987
40
0.249999999999986
40
0.249999999999986
40
0.374999999999991
40
0.374999999999991
40
0.437499999999993
40
0.437499999999993
40
0.499999999999996
40
0.499999999999996
40
0.625000000000001
40
0.625000000000001
40
0.687500000000003
40
0.687500000000003
40
0.750000000000006
40
0.750000000000006
40
0.875000000000003
40
0.875000000000003
40
1
40
1
40
1
40
1
41
1
10
32
20
0.546608854700679
30
0
41
1
10
31.8346044045176
20
0.633949490856395
30
0
41
1
10
31.6694454538296
20
0.719344396968779
30
0
41
1
10
31.4215656078696
20
0.843520831165876
30
0
41
1
10
31.3388526311258
20
0.884287775878306
30
0
41
1
10
31.17360979638
20
0.964162114193613
30
0
41
1
10
31.0911126565783
20
1.00325478586086
30
0
41
1
10
30.8438585961647
20
1.11771516173391
30
0
41
1
10
30.6793370977435
20
1.19026006854438
30
0
41
1
10
30.4323671132814
20
1.29275129627595
30
0
41
1
10
30.3500130965187
20
1.32586002722638
30
0
41
1
10
30.18513134809
20
1.38984823184552
30
0
41
1
10
30.1025603031033
20
1.42074144492633
30
0
41
1
10
29.8552645640908
20
1.5096018674713
30
0
41
1
10
29.6907017239997
20
1.56385611005211
30
0
41
1
10
29.4436554143963
20
1.6372240204293
30
0
41
1
10
29.3612731107816
20
1.66034410649164
30
0
41
1
10
29.1963362077428
20
1.70381640119422
30
0
41
1
10
29.1137195825717
20
1.72418249848337
30
0
41
1
10
28.8659332031724
20
1.78086642542792
30
0
41
1
10
28.7010019705554
20
1.81274640614274
30
0
41
1
10
28.3709504768523
20
1.86401908505488
30
0
41
1
10
28.2058306014395
20
1.88341419632732
30
0
41
1
10
28.0402852874687
20
1.89612972637212
30
0
0
SPLINE
5
149
100
AcDbEntity
8
1
62
256
6
ByLayer
370
18
48
1
60
0
100
AcDbSpline
70
4
71
3
72
8
73
4
40
0
40
0
40
0
40
0
40
1
40
1
40
1
40
1
41
1
10
32.4394046779243
20
-0.134693993984939
30
0
41
1
10
32.4410821221488
20
-0.135586503733123
30
0
41
1
10
32.4427603066878
20
-0.136477656008736
30
0
41
1
10
32.44443924748
20
-0.137367421357737
30
0
0
SPLINE
5
14A
100
AcDbEntity
8
1
62
256
6
ByLayer
370
18
48
1
60
0
100
AcDbSpline
70
4
71
3
72
12
73
8
40
0
40
0
40
0
40
0
40
0.5
40
0.5
40
0.75
40
0.75
40
1
40
1
40
1
40
1
41
1
10
27.9999999999999
20
0.791358057031772
30
0
41
1
10
27.9493199053674
20
0.812991533244542
30
0
41
1
10
27.8986962405601
20
0.833463024621295
30
0
41
1
10
27.8227405287488
20
0.862148463458539
30
0
41
1
10
27.7973953691581
20
0.871378713688102
30
0
41
1
10
27.7469705151758
20
0.888995260325288
30
0
41
1
10
27.7218579559929
20
0.897394646392115
30
0
41
1
10
27.6968347947663
20
0.905353974028117
30
0
0
SPLINE
5
14B
100
AcDbEntity
8
1
62
256
6
ByLayer
370
18
48
1
60
0
100
AcDbSpline
70
4
71
3
72
38
73
34
40
0
40
0
40
0
40
0
40
0.124999999999984
40
0.124999999999984
40
0.15624999999998
40
0.15624999999998
40
0.187499999999976
40
0.187499999999976
40
0.249999999999968
40
0.249999999999968
40
0.374999999999973
40
0.374999999999973
40
0.437499999999987
40
0.437499999999987
40
0.468749999999993
40
0.468749999999993
40
0.5
40
0.5
40
0.625000000000027
40
0.625000000000027
40
0.687500000000031
40
0.687500000000031
40
0.718750000000025
40
0.718750000000025
40
0.750000000000019
40
0.750000000000019
40
0.875000000000009
40
0.875000000000009
40
0.937500000000004
40
0.937500000000004
40
0.968750000000002
40
0.968750000000002
40
1
40
1
40
1
40
1
41
1
10
32.7302650177425
20
0.294551856225695
30
0
41
1
10
32.7790991665364
20
0.257514077775909
30
0
41
1
10
32.82856875416
20
0.223109427524889
30
0
41
1
10
32.891229873358
20
0.183518659768737
30
0
41
1
10
32.9038034749886
20
0.175771967297948
30
0
41
1
10
32.9290355019358
20
0.160630074315577
30
0
41
1
10
32.9417150297032
20
0.153223638413948
30
0
41
1
10
32.979546545681
20
0.131734907120432
30
0
41
1
10
33.0045849823564
20
0.118323487473617
30
0
41
1
10
33.0791588770996
20
0.0808008460660687
30
0
41
1
10
33.1281560845575
20
0.0593853919212108
30
0
41
1
10
33.2005417630272
20
0.0328221855019706
30
0
41
1
10
33.2244846243247
20
0.024897831863683
30
0
41
1
10
33.2601079860481
20
0.0144683926928906
30
0
41
1
10
33.2719341091638
20
0.0112366363223657
30
0
41
1
10
33.2952493645558
20
0.0053276829718243
30
0
41
1
10
33.3067689529224
20
0.0026411744825907
30
0
41
1
10
33.3636851775954
20
-0.0094679877953752
30
0
41
1
10
33.407050937929
20
-0.014948213340233
30
0
41
1
10
33.4688614164371
20
-0.0168824852204636
30
0
41
1
10
33.4889204596024
20
-0.0164703322022888
30
0
41
1
10
33.5181652742406
20
-0.0142141768197348
30
0
41
1
10
33.5277959513705
20
-0.0131851312466438
30
0
41
1
10
33.5466205027074
20
-0.0105921732394449
30
0
41
1
10
33.5558199337036
20
-0.0090295669218676
30
0
41
1
10
33.6007758469088
20
8.53665377178E-05
30
0
41
1
10
33.6334439704871
20
0.0114991790475472
30
0
41
1
10
33.6775779140106
20
0.0347068348835933
30
0
41
1
10
33.6914715808177
20
0.0434650543555506
30
0
41
1
10
33.7110648503082
20
0.0581618407879887
30
0
41
1
10
33.717397873396
20
0.0633304198341023
30
0
41
1
10
33.7295694732934
20
0.0741241340916758
30
0
41
1
10
33.7354141016557
20
0.0797522741824821
30
0
41
1
10
33.741022494845
20
0.0856069632269225
30
0
0
SPLINE
5
14C
100
AcDbEntity
8
1
62
256
6
ByLayer
370
18
48
1
60
0
100
AcDbSpline
70
4
71
3
72
35
73
31
40
0
40
0
40
0
40
0
40
0.125000000000305
40
0.125000000000305
40
0.15625000000037
40
0.15625000000037
40
0.187500000000435
40
0.250000000000518
40
0.250000000000518
40
0.375000000000731
40
0.375000000000731
40
0.437500000000862
40
0.437500000000862
40
0.468750000000928
40
0.468750000000928
40
0.476562500000932
40
0.476562500000932
40
0.48046875000091
40
0.48046875000091
40
0.484375000000887
40
0.484375000000887
40
0.500000000000847
40
0.500000000000847
40
0.562500000000735
40
0.562500000000735
40
0.625000000000623
40
0.625000000000623
40
0.750000000000399
40
0.750000000000399
40
1
40
1
40
1
40
1
41
1
10
31.9999999833263
20
0.546608819316361
30
0
41
1
10
32.0290985597374
20
0.531355004571935
30
0
41
1
10
32.0581754162384
20
0.516049664459558
30
0
41
1
10
32.0944579618924
20
0.496776154345241
30
0
41
1
10
32.1017125844268
20
0.492917088554719
30
0
41
1
10
32.1162831333069
20
0.48532879737084
30
0
41
1
10
32.1382425882332
20
0.474166000255963
30
0
41
1
10
32.1605068768544
20
0.463650315707611
30
0
41
1
10
32.2053933886264
20
0.443380724998803
30
0
41
1
10
32.2358015371433
20
0.430897612771076
30
0
41
1
10
32.2818058253945
20
0.413011694155529
30
0
41
1
10
32.2972040959457
20
0.407185536284317
30
0
41
1
10
32.3203376731707
20
0.398524093930462
30
0
41
1
10
32.3280444924558
20
0.395627680166655
30
0
41
1
10
32.3377065367813
20
0.392068215601796
30
0
41
1
10
32.3396452016927
20
0.391369697025453
30
0
41
1
10
32.3425686875165
20
0.390355032536007
30
0
41
1
10
32.3435487493535
20
0.390028710070482
30
0
41
1
10
32.3454913207198
20
0.38933855669319
30
0
41
1
10
32.3464459258317
20
0.388957831448209
30
0
41
1
10
32.351221822257
20
0.387060340392054
30
0
41
1
10
32.3551388519015
20
0.385748214890071
30
0
41
1
10
32.3747300547452
20
0.379200790913956
30
0
41
1
10
32.3903560080266
20
0.373730513349614
30
0
41
1
10
32.4215883099437
20
0.363452298886102
30
0
41
1
10
32.4371587670576
20
0.358627615397438
30
0
41
1
10
32.4838082785111
20
0.344716488474035
30
0
41
1
10
32.5148115993974
20
0.336271180277578
30
0
41
1
10
32.6075625531278
20
0.313615056889461
30
0
41
1
10
32.6690537335098
20
0.302089355849773
30
0
41
1
10
32.7302650177442
20
0.294551856236808
30
0
0
SPLINE
5
14D
100
AcDbEntity
8
1
62
256
6
ByLayer
370
18
48
1
60
0
100
AcDbSpline
70
4
71
3
72
8
73
4
40
0
40
0
40
0
40
0
40
1
40
1
40
1
40
1
41
1
10
33.8898326826774
20
-0.0309217304590845
30
0
41
1
10
33.8959869737985
20
-0.0623810783092722
30
0
41
1
10
33.9021932313075
20
-0.0938197397028944
30
0
41
1
10
33.9084433328583
20
-0.125240947930109
30
0
0
SPLINE
5
14E
100
AcDbEntity
8
1
62
256
6
ByLayer
370
18
48
1
60
0
100
AcDbSpline
70
4
71
3
72
8
73
4
40
0
40
0
40
0
40
0
40
1
40
1
40
1
40
1
41
1
10
33.7410224948447
20
0.0856069632271783
30
0
41
1
10
33.7946891704072
20
0.0423021716519258
30
0
41
1
10
33.844373869997
20
0.0034114174575848
30
0
41
1
10
33.8898326826775
20
-0.0309217304585161
30
0
0
SPLINE
5
14F
100
AcDbEntity
8
1
62
256
6
ByLayer
370
18
48
1
60
0
100
AcDbSpline
70
4
71
3
72
10
73
6
40
0
40
0
40
0
40
0
40
0.5
40
0.5
40
1
40
1
40
1
40
1
41
1
10
27.7289747789794
20
0.503924108758241
30
0
41
1
10
27.7739610584366
20
0.484720916508223
30
0
41
1
10
27.8191590630697
20
0.465558926630479
30
0
41
1
10
27.9095721925153
20
0.427490847391454
30
0
41
1
10
27.9547836391849
20
0.408585911228244
30
0
41
1
10
28.0000000000001
20
0.389810930023088
30
0
0
SPLINE
5
150
100
AcDbEntity
8
1
62
256
6
ByLayer
370
18
48
1
60
0
100
AcDbSpline
70
4
71
3
72
16
73
12
40
0
40
0
40
0
40
0
40
0.25
40
0.25
40
0.499999999999999
40
0.499999999999999
40
0.749999999999999
40
0.749999999999999
40
0.875
40
0.875
40
1
40
1
40
1
40
1
41
1
10
32.9808531825878
20
-0.749485625895261
30
0
41
1
10
32.9597380669816
20
-0.794832973088688
30
0
41
1
10
32.9393113570217
20
-0.840584017511162
30
0
41
1
10
32.9001977569574
20
-0.933106375870068
30
0
41
1
10
32.8814928786429
20
-0.979919186046146
30
0
41
1
10
32.8464071153585
20
-1.07466480482543
30
0
41
1
10
32.8300487408852
20
-1.12252297447103
30
0
41
1
10
32.8078336364405
20
-1.19526187235894
30
0
41
1
10
32.800817660001
20
-1.21966759109756
30
0
41
1
10
32.7876860835189
20
-1.26884796422152
30
0
41
1
10
32.7815716671273
20
-1.29362721084868
30
0
41
1
10
32.7760174351422
20
-1.31844663558502
30
0
0
SPLINE
5
151
100
AcDbEntity
8
1
62
256
6
ByLayer
370
18
48
1
60
0
100
AcDbSpline
70
4
71
3
72
9
73
5
40
0
40
0
40
0
40
0
40
0.397693549501682
40
1
40
1
40
1
40
1
41
1
10
32.9808531811638
20
-0.749485625432612
30
0
41
1
10
32.3205687874425
20
-0.548585204771058
30
0
41
1
10
30.6602843937213
20
0.053349213840761
30
0
41
1
10
29
20
0.692993794726334
30
0
41
1
10
28
20
0.941861015037773
30
0
0
SPLINE
5
152
100
AcDbEntity
8
1
62
256
6
ByLayer
370
18
48
1
60
0
100
AcDbSpline
70
4
71
3
72
42
73
38
40
0
40
0
40
0
40
0
40
0.0181791032109708
40
0.0375632900637996
40
0.0581553882963104
40
0.0799575556956336
40
0.102971398660643
40
0.127198061038026
40
0.152638291526255
40
0.179292495379775
40
0.20716077444523
40
0.236242958411778
40
0.266538629366841
40
0.298047141196145
40
0.330767634975327
40
0.364699051218948
40
0.399840139648066
40
0.436189466986727
40
0.473745423185694
40
0.512506226387304
40
0.549150904553879
40
0.583708123351
40
0.616180175726083
40
0.646570113370627
40
0.674881878003379
40
0.701120496772646
40
0.725292372914567
40
0.747405722391984
40
0.767857420139409
40
0.789672699572707
40
0.813515021779766
40
0.839404071715203
40
0.867355364536367
40
0.897381346690943
40
0.929492143250863
40
0.963696072034404
40
1
40
1
40
1
40
1
41
1
10
28.0460564451039
20
0.768070697647886
30
0
41
1
10
28.0463540003076
20
0.769715060184211
30
0
41
1
10
28.0469688355004
20
0.773112789225337
30
0
41
1
10
28.0476241992886
20
0.778381041926878
30
0
41
1
10
28.0481297534407
20
0.783957400738927
30
0
41
1
10
28.0484595945037
20
0.789823877894094
30
0
41
1
10
28.0486211908978
20
0.795958115632146
30
0
41
1
10
28.0486122737558
20
0.802337224803239
30
0
41
1
10
28.0484334243164
20
0.808936652405805
30
0
41
1
10
28.0480844109367
20
0.815730499119098
30
0
41
1
10
28.0475652470347
20
0.822691415757333
30
0
41
1
10
28.0468758845038
20
0.829790621822838
30
0
41
1
10
28.0460162978466
20
0.836997890696267
30
0
41
1
10
28.0449864682892
20
0.844281542042268
30
0
41
1
10
28.0437863496256
20
0.851608448266148
30
0
41
1
10
28.0424160257261
20
0.858943981803378
30
0
41
1
10
28.0408750794527
20
0.866252206908769
30
0
41
1
10
28.0391650737396
20
0.873495118448375
30
0
41
1
10
28.0372798107016
20
0.880635633808595
30
0
41
1
10
28.0353016205561
20
0.887426361744531
30
0
41
1
10
28.0332155659804
20
0.893702962632432
30
0
41
1
10
28.0309876072136
20
0.899355208756305
30
0
41
1
10
28.0286398907492
20
0.904434155803443
30
0
41
1
10
28.0261675352438
20
0.908994840044414
30
0
41
1
10
28.0235705252155
20
0.913087700185685
30
0
41
1
10
28.0208542073331
20
0.916758818152317
30
0
41
1
10
28.0180012782172
20
0.920057037907668
30
0
41
1
10
28.0150535359156
20
0.92302556150301
30
0
41
1
10
28.0116297777175
20
0.92590352035748
30
0
41
1
10
28.0088748093488
20
0.92851721232887
30
0
41
1
10
28.0064937662525
20
0.931025307460089
30
0
41
1
10
28.0044844092365
20
0.93340875755905
30
0
41
1
10
28.0028403651778
20
0.935628167718733
30
0
41
1
10
28.0015626014853
20
0.937641463122901
30
0
41
1
10
28.0006576124203
20
0.939394060577342
30
0
41
1
10
28.0000978767928
20
0.940871949038154
30
0
41
1
10
28.0000332670412
20
0.941524844446661
30
0
41
1
10
28
20
0.941861015037773
30
0
0
SPLINE
5
153
100
AcDbEntity
8
1
62
256
6
ByLayer
370
18
48
1
60
0
100
AcDbSpline
70
4
71
3
72
37
73
33
40
0
40
0
40
0
40
0
40
0.124999999999915
40
0.124999999999915
40
0.156249999999915
40
0.156249999999915
40
0.187499999999915
40
0.249999999999916
40
0.249999999999916
40
0.374999999999916
40
0.374999999999916
40
0.437499999999916
40
0.437499999999916
40
0.445312499999922
40
0.445312499999922
40
0.453124999999928
40
0.453124999999928
40
0.460937499999933
40
0.460937499999933
40
0.468749999999939
40
0.468749999999939
40
0.499999999999916
40
0.499999999999916
40
0.531249999999892
40
0.531249999999892
40
0.562499999999869
40
0.562499999999869
40
0.624999999999868
40
0.624999999999868
40
0.749999999999912
40
0.749999999999912
40
1
40
1
40
1
40
1
41
1
10
32.0000000091923
20
-1.27284922820277
30
0
41
1
10
32.0312075285458
20
-1.28539622413837
30
0
41
1
10
32.0623778116667
20
-1.29787312497788
30
0
41
1
10
32.1013038035576
20
-1.31332801246867
30
0
41
1
10
32.109096899544
20
-1.31635938160369
30
0
41
1
10
32.1247593172413
20
-1.32199184348224
30
0
41
1
10
32.1483518465849
20
-1.32987804502355
30
0
41
1
10
32.172229966048
20
-1.33619188299073
30
0
41
1
10
32.2203134150154
20
-1.34711459038868
30
0
41
1
10
32.2528117350583
20
-1.35210476209343
30
0
41
1
10
32.3018677721175
20
-1.35818572235885
30
0
41
1
10
32.3182673544273
20
-1.35999434289775
30
0
41
1
10
32.336729670209
20
-1.36198803496433
30
0
41
1
10
32.3387824321232
20
-1.3622030637865
30
0
41
1
10
32.3429070423663
20
-1.36254171943494
30
0
41
1
10
32.3449951685447
20
-1.36258703955582
30
0
41
1
10
32.3490879818024
20
-1.36308039959712
30
0
41
1
10
32.3511166856736
20
-1.36341238016809
30
0
41
1
10
32.3552377483887
20
-1.36377080696548
30
0
41
1
10
32.3573133089255
20
-1.36387819006555
30
0
41
1
10
32.367701507213
20
-1.36436801382436
30
0
41
1
10
32.3759929159364
20
-1.36485959195522
30
0
41
1
10
32.3925878477606
20
-1.36579925845777
30
0
41
1
10
32.4008948000269
20
-1.36624715354748
30
0
41
1
10
32.417467084795
20
-1.36686210617532
30
0
41
1
10
32.4257374381806
20
-1.36703770859262
30
0
41
1
10
32.4505150478871
20
-1.36726410216318
30
0
41
1
10
32.4669938509094
20
-1.36705266364368
30
0
41
1
10
32.5163310197556
20
-1.36542481064023
30
0
41
1
10
32.5490840886535
20
-1.36296772503877
30
0
41
1
10
32.646962147132
20
-1.35133399764686
30
0
41
1
10
32.7117099332214
20
-1.337901116192
30
0
41
1
10
32.7760174351567
20
-1.31844663558113
30
0
0
SPLINE
5
154
100
AcDbEntity
8
1
62
256
6
ByLayer
370
18
48
1
60
0
100
AcDbSpline
70
4
71
3
72
12
73
8
40
0
40
0
40
0
40
0
40
0.25
40
0.4375
40
0.625
40
0.75
40
1
40
1
40
1
40
1
41
1
10
28
20
1.89505081267836
30
0
41
1
10
28.3333333333333
20
1.84236564270614
30
0
41
1
10
28.9166666666667
20
1.70137872682793
30
0
41
1
10
29.75
20
1.40109901327
30
0
41
1
10
30.4166666666667
20
1.10488586693907
30
0
41
1
10
31.1666666666667
20
0.730614010771149
30
0
41
1
10
31.6666666666666
20
0.454581711306218
30
0
41
1
10
32
20
0.266610736302823
30
0
0
SPLINE
5
155
100
AcDbEntity
8
1
62
256
6
ByLayer
370
18
48
1
60
0
100
AcDbSpline
70
4
71
3
72
9
73
5
40
0
40
0
40
0
40
0
40
0.203413094481342
40
1
40
1
40
1
40
1
41
1
10
31.7660674299519
20
0.24317715308004
30
0
41
1
10
31.5107116199679
20
0.37904277686377
30
0
41
1
10
30.2553558099839
20
1.03645795625701
30
0
41
1
10
28.9999999999999
20
1.56008746448549
30
0
41
1
10
28
20
1.74625085501771
30
0
0
SPLINE
5
156
100
AcDbEntity
8
1
62
256
6
ByLayer
370
18
48
1
60
0
100
AcDbSpline
70
4
71
3
72
8
73
4
40
0
40
0
40
0
40
0
40
1
40
1
40
1
40
1
41
1
10
33.9189028359466
20
-0.269744382478677
30
0
41
1
10
33.9132687341854
20
-0.278362275004241
30
0
41
1
10
33.9073463583494
20
-0.286942200289161
30
0
41
1
10
33.9011351454242
20
-0.295484084181425
30
0
0
SPLINE
5
157
100
AcDbEntity
8
1
62
256
6
ByLayer
370
18
48
1
60
0
100
AcDbSpline
70
4
71
3
72
8
73
4
40
0
40
0
40
0
40
0
40
1
40
1
40
1
40
1
41
1
10
33.9189028359466
20
-0.269744382478706
30
0
41
1
10
33.9199374748312
20
-0.267356628606848
30
0
41
1
10
33.9209598720619
20
-0.264967683769129
30
0
41
1
10
33.921970022251
20
-0.262577547441396
30
0
0
SPLINE
5
158
100
AcDbEntity
8
1
62
256
6
ByLayer
370
18
48
1
60
0
100
AcDbSpline
70
4
71
3
72
8
73
4
40
0
40
0
40
0
40
0
40
1
40
1
40
1
40
1
41
1
10
33.9084433328574
20
-0.125240947928916
30
0
41
1
10
33.9127190331866
20
-0.17102877798979
30
0
41
1
10
33.9172478800199
20
-0.21680918271079
30
0
41
1
10
33.921970022251
20
-0.262577547441367
30
0
0
SPLINE
5
159
100
AcDbEntity
8
1
62
256
6
ByLayer
370
18
48
1
60
0
100
AcDbSpline
70
4
71
3
72
32
73
28
40
0
40
0
40
0
40
0
40
0.0031242642888029
40
0.0062546296102087
40
0.0125190865302777
40
0.0254757340613083
40
0.036150139417911
40
0.0417096807047216
40
0.0486796763664507
40
0.096763943746123
40
0.152910507148264
40
0.1563004787716
40
0.158133529129859
40
0.158928138292811
40
0.160614838607615
40
0.166605738105395
40
0.170955962190465
40
0.190472821601417
40
0.210489204035759
40
0.329204516998665
40
0.44706781740966
40
0.609157013238513
40
0.729538491376955
40
0.844534609853652
40
0.880988099333966
40
0.983174739563716
40
1
40
1
40
1
40
1
41
1
10
32.0000000236909
20
0.266610798605768
30
0
41
1
10
32.0025339249767
20
0.265158161289179
30
0
41
1
10
32.007612805812
20
0.262242377991811
30
0
41
1
10
32.0177451404713
20
0.256433636164331
30
0
41
1
10
32.0358414787065
20
0.246038725193898
30
0
41
1
10
32.0599922137062
20
0.232186062528456
30
0
41
1
10
32.0834296113613
20
0.218690429192975
30
0
41
1
10
32.101953782889
20
0.208121155987015
30
0
41
1
10
32.1507601957197
20
0.179342728159611
30
0
41
1
10
32.2395966527581
20
0.127885188865321
30
0
41
1
10
32.3243406856222
20
0.0806335209215376
30
0
41
1
10
32.3722922406764
20
0.0545381913323695
30
0
41
1
10
32.3770044776807
20
0.0519785925979761
30
0
41
1
10
32.3803149841577
20
0.0501870571306426
30
0
41
1
10
32.3870984261031
20
0.0463707638386097
30
0
41
1
10
32.3964872137979
20
0.0411864151637076
30
0
41
1
10
32.4199395029665
20
0.028311942981361
30
0
41
1
10
32.4543410889765
20
0.0098003749652094
30
0
41
1
10
32.5772190495031
20
-0.0539841005299024
30
0
41
1
10
32.7718622525097
20
-0.142312172268561
30
0
41
1
10
33.0598008517385
20
-0.241591703503587
30
0
41
1
10
33.3298824099161
20
-0.29584049915573
30
0
41
1
10
33.5662418809825
20
-0.298573447094128
30
0
41
1
10
33.7040599377254
20
-0.26847456868262
30
0
41
1
10
33.814359218311
20
-0.21853060727787
30
0
41
1
10
33.8706442741733
20
-0.174912144131383
30
0
41
1
10
33.9039438517238
20
-0.131574245363225
30
0
41
1
10
33.9084433328591
20
-0.125240947928944
30
0
0
SPLINE
5
15A
100
AcDbEntity
8
1
62
256
6
ByLayer
370
18
48
1
60
0
100
AcDbSpline
70
4
71
3
72
8
73
4
40
0
40
0
40
0
40
0
40
1
40
1
40
1
40
1
41
1
10
32.4186807346207
20
-0.125132273975936
30
0
41
1
10
32.3896112598506
20
-0.109796753518936
30
0
41
1
10
32.3605417850805
20
-0.0943073632317351
30
0
41
1
10
32.3314723103104
20
-0.0786684801695117
30
0
0
SPLINE
5
15B
100
AcDbEntity
8
1
62
256
6
ByLayer
370
18
48
1
60
0
100
AcDbSpline
70
4
71
3
72
8
73
4
40
0
40
0
40
0
40
0
40
1
40
1
40
1
40
1
41
1
10
32.4187785333199
20
-0.125183176418489
30
0
41
1
10
32.4257675599101
20
-0.128084255986891
30
0
41
1
10
32.4326436870169
20
-0.131252576615594
30
0
41
1
10
32.4394046779242
20
-0.134693993984882
30
0
0
SPLINE
5
15C
100
AcDbEntity
8
1
62
256
6
ByLayer
370
18
48
1
60
0
100
AcDbSpline
70
4
71
3
72
8
73
4
40
0
40
0
40
0
40
0
40
1
40
1
40
1
40
1
41
1
10
32.6647383977558
20
-0.241677730916535
30
0
41
1
10
32.5898756382636
20
-0.209091321409318
30
0
41
1
10
32.5148823796006
20
-0.173112959059921
30
0
41
1
10
32.439404677924
20
-0.13469399398474
30
0
0
SPLINE
5
15D
100
AcDbEntity
8
1
62
256
6
ByLayer
370
18
48
1
60
0
100
AcDbSpline
70
4
71
3
72
25
73
21
40
0
40
0
40
0
40
0
40
0.0329195446722919
40
0.0674050295542326
40
0.103458048235476
40
0.141080383297892
40
0.180274034801671
40
0.221041253902917
40
0.26338458249426
40
0.307307004453832
40
0.352813194595647
40
0.399909585819514
40
0.490790010557912
40
0.57713152801666
40
0.65894532019513
40
0.736236120542161
40
0.809001853406229
40
0.877233629686964
40
0.940914851734765
40
1
40
1
40
1
40
1
41
1
10
33.2023065666498
20
-0.410140447248494
30
0
41
1
10
33.19681174988
20
-0.409126398690802
30
0
41
1
10
33.1855607350058
20
-0.407050064595609
30
0
41
1
10
33.1681456371034
20
-0.403632890555286
30
0
41
1
10
33.1498252557469
20
-0.399875044546974
30
0
41
1
10
33.1305752122441
20
-0.395733279520016
30
0
41
1
10
33.1103854130842
20
-0.391185164920898
30
0
41
1
10
33.0892418797642
20
-0.386200918397805
30
0
41
1
10
33.0671320279733
20
-0.380751395381907
30
0
41
1
10
33.044043065951
20
-0.374805992219933
30
0
41
1
10
33.0199619353944
20
-0.368331606504086
30
0
41
1
10
32.9873837515435
20
-0.359190687886326
30
0
41
1
10
32.9471897353103
20
-0.34721635848021
30
0
41
1
10
32.9002961598559
20
-0.332204862678623
30
0
41
1
10
32.8554742191211
20
-0.316915276484735
30
0
41
1
10
32.8128253574801
20
-0.301520077754276
30
0
41
1
10
32.7724392779561
20
-0.286189626796727
30
0
41
1
10
32.7343927881334
20
-0.271069277589135
30
0
41
1
10
32.698767766895
20
-0.25635826302161
30
0
41
1
10
32.6757948372992
20
-0.24644756414574
30
0
41
1
10
32.6647383977565
20
-0.24167773091699
30
0
0
SPLINE
5
15E
100
AcDbEntity
8
1
62
256
6
ByLayer
370
18
48
1
60
0
100
AcDbSpline
70
4
71
3
72
19
73
15
40
0
40
0
40
0
40
0
40
0.0625000000000079
40
0.0625000000000079
40
0.125000000000016
40
0.250000000000019
40
0.250000000000019
40
0.375000000000022
40
0.375000000000022
40
0.500000000000025
40
0.500000000000025
40
0.750000000000013
40
0.750000000000013
40
1
40
1
40
1
40
1
41
1
10
33.9011351454257
20
-0.295484084179435
30
0
41
1
10
33.8930834053216
20
-0.303778758257636
30
0
41
1
10
33.8845281442887
20
-0.311748573647208
30
0
41
1
10
33.8665634287941
20
-0.326903881507974
30
0
41
1
10
33.8382904233396
20
-0.348509844502047
30
0
41
1
10
33.8061248995644
20
-0.366804342772213
30
0
41
1
10
33.7598503064154
20
-0.388309148961156
30
0
41
1
10
33.7350145599254
20
-0.397616459327395
30
0
41
1
10
33.6818906824421
20
-0.413315491520734
30
0
41
1
10
33.6535849938741
20
-0.419710182343778
30
0
41
1
10
33.5634606443585
20
-0.434375064679188
30
0
41
1
10
33.4982108844576
20
-0.437898378144155
30
0
41
1
10
33.3577973531799
20
-0.433081358644216
30
0
41
1
10
33.2826459518139
20
-0.424746319754632
30
0
41
1
10
33.2023065666482
20
-0.41014044724821
30
0
0
SPLINE
5
15F
100
AcDbEntity
8
1
62
256
6
ByLayer
370
18
48
1
60
0
100
AcDbSpline
70
4
71
3
72
8
73
4
40
0
40
0
40
0
40
0
40
1
40
1
40
1
40
1
41
1
10
28.0449493180724
20
0.766996795052023
30
0
41
1
10
28.0299371888987
20
0.775102103219695
30
0
41
1
10
28.0149537752959
20
0.783222384880389
30
0
41
1
10
27.9999999999978
20
0.791358057029527
30
0
0
SPLINE
5
160
100
AcDbEntity
8
1
62
256
6
ByLayer
370
18
48
1
60
0
100
AcDbSpline
70
4
71
3
72
28
73
24
40
0
40
0
40
0
40
0
40
0.125000000000008
40
0.125000000000008
40
0.187500000000008
40
0.187500000000008
40
0.250000000000008
40
0.250000000000008
40
0.375000000000008
40
0.375000000000008
40
0.437500000000008
40
0.437500000000008
40
0.500000000000008
40
0.500000000000008
40
0.625000000000016
40
0.625000000000016
40
0.687500000000016
40
0.687500000000016
40
0.750000000000016
40
0.750000000000016
40
0.875000000000008
40
0.875000000000008
40
1
40
1
40
1
40
1
41
1
10
32
20
-1.27284913785704
30
0
41
1
10
31.8348565459417
20
-1.20522419967645
30
0
41
1
10
31.669951828734
20
-1.13351898751682
30
0
41
1
10
31.4224468507771
20
-1.020331726943
30
0
41
1
10
31.3398582597044
20
-0.981634733708546
30
0
41
1
10
31.1748573107945
20
-0.902605913607744
30
0
41
1
10
31.0924792937744
20
-0.86229215028925
30
0
41
1
10
30.845576772297
20
-0.739133086488266
30
0
41
1
10
30.6812822325906
20
-0.654070624912805
30
0
41
1
10
30.4346489929932
20
-0.523307251449296
30
0
41
1
10
30.3524065740776
20
-0.479189332516398
30
0
41
1
10
30.1877486695451
20
-0.390105468608454
30
0
41
1
10
30.1052872310194
20
-0.3451139402259
30
0
41
1
10
29.8583162673647
20
-0.209634106359943
30
0
41
1
10
29.6939720099702
20
-0.118510608266831
30
0
41
1
10
29.4472660073113
20
0.0182082402716617
30
0
41
1
10
29.3649992542059
20
0.063787148393061
30
0
41
1
10
29.2002993144058
20
0.154768965151419
30
0
41
1
10
29.117806310558
20
0.200204625169079
30
0
41
1
10
28.8703743428328
20
0.335728922428132
30
0
41
1
10
28.7056929097641
20
0.424917631810018
30
0
41
1
10
28.3761737624576
20
0.599648629623431
30
0
41
1
10
28.21133656882
20
0.68519242219071
30
0
41
1
10
28.046092281041
20
0.768258332997249
30
0
0
SPLINE
5
161
100
AcDbEntity
8
1
62
256
6
ByLayer
370
18
48
1
60
0
100
AcDbSpline
70
4
71
3
72
12
73
8
40
0
40
0
40
0
40
0
40
0.25
40
0.4375
40
0.625
40
0.75
40
1
40
1
40
1
40
1
41
1
10
28
20
0.540113905566272
30
0
41
1
10
28.3333333333333
20
0.357563566747984
30
0
41
1
10
28.9166666666667
20
0.0249933282228767
30
0
41
1
10
29.75
20
-0.449138434655055
30
0
41
1
10
30.4166666666667
20
-0.810083009126998
30
0
41
1
10
31.1666666666667
20
-1.1819021975667
30
0
41
1
10
31.6666666666667
20
-1.3932696501443
30
0
41
1
10
32
20
-1.51390619534942
30
0
0
SPLINE
5
162
100
AcDbEntity
8
1
62
256
6
ByLayer
370
18
48
1
60
0
100
AcDbSpline
70
4
71
3
72
12
73
8
40
0
40
0
40
0
40
0
40
0.146264181912992
40
0.312808127133677
40
0.499656157741041
40
0.76120426966271
40
1
40
1
40
1
40
1
41
1
10
32.4186792862612
20
-1.72142715465185
30
0
41
1
10
32.4144294826909
20
-1.72112390345475
30
0
41
1
10
32.4053406334722
20
-1.72047535479595
30
0
41
1
10
32.3908167544082
20
-1.71928291954879
30
0
41
1
10
32.3729411873384
20
-1.71769826844277
30
0
41
1
10
32.3529663016351
20
-1.71578608692172
30
0
41
1
10
32.3384200101903
20
-1.71419938413973
30
0
41
1
10
32.3314775997998
20
-1.71344210920668
30
0
0
SPLINE
5
163
100
AcDbEntity
8
1
62
256
6
ByLayer
370
18
48
1
60
0
100
AcDbSpline
70
4
71
3
72
22
73
18
40
0
40
0
40
0
40
0
40
0.0627937027067888
40
0.123751722259118
40
0.182875167668255
40
0.240165839959694
40
0.295626298553583
40
0.349259938053623
40
0.401071077529563
40
0.451065064847099
40
0.499248399180926
40
0.538123923612528
40
0.594824867757139
40
0.669361048997137
40
0.761735787366439
40
0.871949356960502
40
1
40
1
40
1
40
1
41
1
10
32.3314775997998
20
-1.71344210920668
30
0
41
1
10
32.324546343665
20
-1.71263490312754
30
0
41
1
10
32.3108864566521
20
-1.71104408847245
30
0
41
1
10
32.2906912802261
20
-1.70836110738068
30
0
41
1
10
32.2710971235331
20
-1.705511806098
30
0
41
1
10
32.2521033612654
20
-1.70248118849017
30
0
41
1
10
32.2337101266559
20
-1.6992829435128
30
0
41
1
10
32.2159173787982
20
-1.69592032491232
30
0
41
1
10
32.1987250326112
20
-1.69240891304588
30
0
41
1
10
32.1821333061565
20
-1.68872555699386
30
0
41
1
10
32.1669715336013
20
-1.6851757602233
30
0
41
1
10
32.1510721675219
20
-1.68091546731628
30
0
41
1
10
32.1322710945131
20
-1.67547680824111
30
0
41
1
10
32.107566060603
20
-1.66807115889802
30
0
41
1
10
32.0769578730647
20
-1.65859600152825
30
0
41
1
10
32.0404458110138
20
-1.64701096352127
30
0
41
1
10
32.0141384135447
20
-1.63839837327782
30
0
41
1
10
31.9999999949992
20
-1.63376969779728
30
0
0
SPLINE
5
164
100
AcDbEntity
8
1
62
256
6
ByLayer
370
18
48
1
60
0
100
AcDbSpline
70
4
71
3
72
8
73
4
40
0
40
0
40
0
40
0
40
1
40
1
40
1
40
1
41
1
10
28.2580039470612
20
0.242891070020249
30
0
41
1
10
28.1720026313741
20
0.2886848584495
30
0
41
1
10
28.086001315687
20
0.33425080011321
30
0
41
1
10
28
20
0.379462055526829
30
0
0
SPLINE
5
165
100
AcDbEntity
8
1
62
256
6
ByLayer
370
18
48
1
60
0
100
AcDbSpline
70
4
71
3
72
18
73
14
40
0
40
0
40
0
40
0
40
0.250000000000036
40
0.250000000000036
40
0.375000000000056
40
0.375000000000056
40
0.500000000000076
40
0.500000000000076
40
0.625000000000096
40
0.625000000000096
40
0.750000000000116
40
0.750000000000116
40
1
40
1
40
1
40
1
41
1
10
26.0692548702122
20
-1.37920946102196
30
0
41
1
10
26.0664892935235
20
-1.37378355620058
30
0
41
1
10
26.064568677576
20
-1.36814000735157
30
0
41
1
10
26.0637311126528
20
-1.35939916779506
30
0
41
1
10
26.0638027450573
20
-1.35650016292203
30
0
41
1
10
26.0647455699688
20
-1.35073836074116
30
0
41
1
10
26.0656365394869
20
-1.34783739721723
30
0
41
1
10
26.0682581385543
20
-1.3422802529121
30
0
41
1
10
26.0699647251422
20
-1.33964509838268
30
0
41
1
10
26.0741214147514
20
-1.3346473843535
30
0
41
1
10
26.0765946090292
20
-1.33227550095304
30
0
41
1
10
26.0846799702135
20
-1.32583192858343
30
0
41
1
10
26.0910851538699
20
-1.32227503892187
30
0
41
1
10
26.0979825195093
20
-1.31932635290641
30
0
0
SPLINE
5
166
100
AcDbEntity
8
1
62
256
6
ByLayer
370
18
48
1
60
0
100
AcDbSpline
70
4
71
3
72
28
73
24
40
0
40
0
40
0
40
0
40
0.0312499999999949
40
0.0312499999999949
40
0.0624999999999899
40
0.0624999999999899
40
0.124999999999992
40
0.124999999999992
40
0.187499999999995
40
0.187499999999995
40
0.249999999999997
40
0.249999999999997
40
0.312499999999999
40
0.312499999999999
40
0.375000000000002
40
0.375000000000002
40
0.500000000000006
40
0.500000000000006
40
0.625000000000011
40
0.625000000000011
40
0.750000000000016
40
0.750000000000016
40
1
40
1
40
1
40
1
41
1
10
26.0979825195093
20
-1.31932635290641
30
0
41
1
10
26.1125486709166
20
-1.31309919181356
30
0
41
1
10
26.1274218203259
20
-1.30758172664068
30
0
41
1
10
26.1576262879566
20
-1.29762393779606
30
0
41
1
10
26.17295904798
20
-1.29318673523218
30
0
41
1
10
26.219508109507
20
-1.28118881587548
30
0
41
1
10
26.2512679399644
20
-1.2749259291329
30
0
41
1
10
26.3158302135773
20
-1.2649503940734
30
0
41
1
10
26.3486926539695
20
-1.26125370306045
30
0
41
1
10
26.41433670456
20
-1.25599333904239
30
0
41
1
10
26.447243549359
20
-1.25441179272815
30
0
41
1
10
26.5131950625554
20
-1.25296465041978
30
0
41
1
10
26.5462835462224
20
-1.25310394835023
30
0
41
1
10
26.6123089156725
20
-1.25485173051987
30
0
41
1
10
26.6452529363004
20
-1.25645869687983
30
0
41
1
10
26.7439048404127
20
-1.26318864979206
30
0
41
1
10
26.8094766875538
20
-1.27022011872046
30
0
41
1
10
26.9394935419599
20
-1.2882207959976
30
0
41
1
10
27.0040893489559
20
-1.29921657070645
30
0
41
1
10
27.1320098773753
20
-1.32433458061217
30
0
41
1
10
27.195451211759
20
-1.33848326808854
30
0
41
1
10
27.3835413892433
20
-1.38453652735601
30
0
41
1
10
27.5060272693623
20
-1.42002979153486
30
0
41
1
10
27.6262492661787
20
-1.45809498424507
30
0
0
SPLINE
5
167
100
AcDbEntity
8
1
62
256
6
ByLayer
370
18
48
1
60
0
100
AcDbSpline
70
4
71
3
72
8
73
4
40
0
40
0
40
0
40
0
40
1
40
1
40
1
40
1
41
1
10
27.7552717964177
20
-1.47518726328215
30
0
41
1
10
27.7479507899281
20
-1.48062573134104
30
0
41
1
10
27.7407236080286
20
-1.48608776434978
30
0
41
1
10
27.7335951551276
20
-1.49157410165282
30
0
0
SPLINE
5
168
100
AcDbEntity
8
1
62
256
6
ByLayer
370
18
48
1
60
0
100
AcDbSpline
70
4
71
3
72
10
73
6
40
0
40
0
40
0
40
0
40
0.5
40
0.5
40
1
40
1
40
1
40
1
41
1
10
27.7371966025171
20
-1.35250407834914
30
0
41
1
10
27.7357419965446
20
-1.37398445161233
30
0
41
1
10
27.7361700436661
20
-1.39512834122172
30
0
41
1
10
27.7418341655103
20
-1.43625378767837
30
0
41
1
10
27.7470741696098
20
-1.45620016797491
30
0
41
1
10
27.7552717964176
20
-1.47518726328212
30
0
0
SPLINE
5
169
100
AcDbEntity
8
1
62
256
6
ByLayer
370
18
48
1
60
0
100
AcDbSpline
70
4
71
3
72
10
73
6
40
0
40
0
40
0
40
0
40
0.5
40
0.5
40
1
40
1
40
1
40
1
41
1
10
27.6969176327746
20
-1.1763363867741
30
0
41
1
10
27.6982299857728
20
-1.20755874393683
30
0
41
1
10
27.7019543180625
20
-1.23811150593244
30
0
41
1
10
27.7150922266734
20
-1.29709035363442
30
0
41
1
10
27.7245086029066
20
-1.32551554043192
30
0
41
1
10
27.7371966025177
20
-1.3525040783492
30
0
0
SPLINE
5
16A
100
AcDbEntity
8
1
62
256
6
ByLayer
370
18
48
1
60
0
100
AcDbSpline
70
4
71
3
72
16
73
12
40
0
40
0
40
0
40
0
40
0.250000000000084
40
0.250000000000084
40
0.500000000000169
40
0.500000000000169
40
0.625000000000168
40
0.625000000000168
40
0.750000000000168
40
0.750000000000168
40
1
40
1
40
1
40
1
41
1
10
26.1559771217311
20
0.587122122026727
30
0
41
1
10
26.1542259805623
20
0.593263664062164
30
0
41
1
10
26.1532069308337
20
0.599489093710474
30
0
41
1
10
26.153225641047
20
0.612180775956972
30
0
41
1
10
26.1542870097869
20
0.618386072116408
30
0
41
1
10
26.1576646476532
20
0.627276750513943
30
0
41
1
10
26.1590905645951
20
0.630160510172317
30
0
41
1
10
26.1624063048842
20
0.635567935689949
30
0
41
1
10
26.1643071273219
20
0.63812390972717
30
0
41
1
10
26.1706789632738
20
0.645385967995111
30
0
41
1
10
26.1756908187394
20
0.649544071172016
30
0
41
1
10
26.181164013925
20
0.653133219654734
30
0
0
SPLINE
5
16B
100
AcDbEntity
8
1
62
256
6
ByLayer
370
18
48
1
60
0
100
AcDbSpline
70
4
71
3
72
28
73
24
40
0
40
0
40
0
40
0
40
0.0312500000000172
40
0.0312500000000172
40
0.0625000000000344
40
0.0625000000000344
40
0.125000000000069
40
0.125000000000069
40
0.156250000000079
40
0.156250000000079
40
0.18750000000009
40
0.18750000000009
40
0.250000000000098
40
0.250000000000098
40
0.375000000000086
40
0.375000000000086
40
0.500000000000074
40
0.500000000000074
40
0.625000000000062
40
0.625000000000062
40
0.75000000000005
40
0.75000000000005
40
1
40
1
40
1
40
1
41
1
10
26.1811640139293
20
0.653133219650414
30
0
41
1
10
26.1943176181599
20
0.661758937730639
30
0
41
1
10
26.2078878006292
20
0.669430450095746
30
0
41
1
10
26.2356517331027
20
0.683355297077128
30
0
41
1
10
26.2498473823075
20
0.689604169722685
30
0
41
1
10
26.2931850191713
20
0.706654512488598
30
0
41
1
10
26.323067826234
20
0.71578281075611
30
0
41
1
10
26.3689599059924
20
0.727091638993755
30
0
41
1
10
26.384412464212
20
0.730448113802225
30
0
41
1
10
26.4153726543566
20
0.736408102173783
30
0
41
1
10
26.4309134868052
20
0.739019556762656
30
0
41
1
10
26.4776953178093
20
0.74589104122839
30
0
41
1
10
26.5090944806615
20
0.749195594797726
30
0
41
1
10
26.603806516879
20
0.756018385973988
30
0
41
1
10
26.6670688754686
20
0.756454459456563
30
0
41
1
10
26.7935642973844
20
0.751302531500841
30
0
41
1
10
26.8565768043638
20
0.745684270026629
30
0
41
1
10
26.9819239801914
20
0.729467897977855
30
0
41
1
10
27.044037002539
20
0.718889464764175
30
0
41
1
10
27.1673030853125
20
0.693414751967936
30
0
41
1
10
27.2284857677161
20
0.678502578333706
30
0
41
1
10
27.4105444829804
20
0.627840442358405
30
0
41
1
10
27.5291167455912
20
0.586429266566739
30
0
41
1
10
27.6454326622144
20
0.538425670589731
30
0
0
SPLINE
5
16C
100
AcDbEntity
8
1
62
256
6
ByLayer
370
18
48
1
60
0
100
AcDbSpline
70
4
71
3
72
8
73
4
40
0
40
0
40
0
40
0
40
1
40
1
40
1
40
1
41
1
10
27.7552717964177
20
0.53230579702236
30
0
41
1
10
27.7463642389739
20
0.522986393031829
30
0
41
1
10
27.7375949562858
20
0.513528304333704
30
0
41
1
10
27.7289747789794
20
0.503924108758213
30
0
0
SPLINE
5
16D
100
AcDbEntity
8
1
62
256
6
ByLayer
370
18
48
1
60
0
100
AcDbSpline
70
4
71
3
72
10
73
6
40
0
40
0
40
0
40
0
40
0.5
40
0.5
40
1
40
1
40
1
40
1
41
1
10
27.7371966025178
20
0.695730254600846
30
0
41
1
10
27.7357419965454
20
0.668625320334087
30
0
41
1
10
27.7361700436662
20
0.64120750284377
30
0
41
1
10
27.7418341655105
20
0.586396672106389
30
0
41
1
10
27.7470741696098
20
0.559047080434851
30
0
41
1
10
27.7552717964177
20
0.53230579702236
30
0
0
SPLINE
5
16E
100
AcDbEntity
8
1
62
256
6
ByLayer
370
18
48
1
60
0
100
AcDbSpline
70
4
71
3
72
10
73
6
40
0
40
0
40
0
40
0
40
0.5
40
0.5
40
1
40
1
40
1
40
1
41
1
10
27.6968347947663
20
0.905353974028117
30
0
41
1
10
27.6980548402209
20
0.870663797780537
30
0
41
1
10
27.7017301311913
20
0.835501819933484
30
0
41
1
10
27.7148864309175
20
0.765246423522512
30
0
41
1
10
27.7243695257404
20
0.73015893917426
30
0
41
1
10
27.7371966025179
20
0.695730254600448
30
0
0
SPLINE
5
16F
100
AcDbEntity
8
1
62
256
6
ByLayer
370
18
48
1
60
0
100
AcDbSpline
70
4
71
3
72
29
73
25
40
0
40
0
40
0
40
0
40
0.125000000000027
40
0.125000000000027
40
0.250000000000053
40
0.250000000000053
40
0.37500000000008
40
0.37500000000008
40
0.40625000000008
40
0.40625000000008
40
0.43750000000008
40
0.500000000000069
40
0.500000000000069
40
0.625000000000046
40
0.625000000000046
40
0.68750000000004
40
0.68750000000004
40
0.718750000000037
40
0.718750000000037
40
0.750000000000034
40
0.750000000000034
40
0.875000000000017
40
0.875000000000017
40
1
40
1
40
1
40
1
41
1
10
27.6968347947663
20
0.905353974028117
30
0
41
1
10
27.6098970651078
20
0.953612338758376
30
0
41
1
10
27.5241888301048
20
1.00232022141975
30
0
41
1
10
27.3556302799841
20
1.10066685488164
30
0
41
1
10
27.272779872722
20
1.15030817210922
30
0
41
1
10
27.1103998091762
20
1.25042917937236
30
0
41
1
10
27.0308701430808
20
1.30091338623572
30
0
41
1
10
26.9338638714277
20
1.36434137195735
30
0
41
1
10
26.9145573160695
20
1.37705948466817
30
0
41
1
10
26.8763393732461
20
1.40242096718347
30
0
41
1
10
26.8196209914401
20
1.44033916227468
30
0
41
1
10
26.7647642420191
20
1.47782412479736
30
0
41
1
10
26.6576233288355
20
1.55201491271214
30
0
41
1
10
26.5896283805351
20
1.60045551515094
30
0
41
1
10
26.4931063872715
20
1.6704847769621
30
0
41
1
10
26.461843536569
20
1.69338490314772
30
0
41
1
10
26.4163521768947
20
1.72688505383815
30
0
41
1
10
26.401433581247
20
1.73790139109886
30
0
41
1
10
26.3723133864182
20
1.759433485746
30
0
41
1
10
26.3580800106266
20
1.76997261203189
30
0
41
1
10
26.2885191259951
20
1.82146796824347
30
0
41
1
10
26.2380065243825
20
1.85883906631798
30
0
41
1
10
26.1465697648142
20
1.92402377963765
30
0
41
1
10
26.1056371759964
20
1.95185056283145
30
0
41
1
10
26.0692548702119
20
1.97366263301012
30
0
0
SPLINE
5
170
100
AcDbEntity
8
1
62
256
6
ByLayer
370
18
48
1
60
0
100
AcDbSpline
70
4
71
3
72
18
73
14
40
0
40
0
40
0
40
0
40
0.249999999999997
40
0.249999999999997
40
0.374999999999997
40
0.374999999999997
40
0.499999999999998
40
0.499999999999998
40
0.624999999999998
40
0.624999999999998
40
0.749999999999998
40
0.749999999999998
40
1
40
1
40
1
40
1
41
1
10
26.0692548702119
20
1.97366263301012
30
0
41
1
10
26.0664892935232
20
1.975320662965
30
0
41
1
10
26.0645686775757
20
1.97699690168153
30
0
41
1
10
26.0637311126525
20
1.97950949607389
30
0
41
1
10
26.0638027450571
20
1.98032937389129
30
0
41
1
10
26.0647455699685
20
1.98193315255031
30
0
41
1
10
26.0656365394866
20
1.98272726942827
30
0
41
1
10
26.068258138554
20
1.98422500719894
30
0
41
1
10
26.0699647251419
20
1.9849234242846
30
0
41
1
10
26.0741214147511
20
1.98623017994052
30
0
41
1
10
26.0765946090289
20
1.98684071777711
30
0
41
1
10
26.0846799702132
20
1.9884801330619
30
0
41
1
10
26.0910851538696
20
1.98935874416685
30
0
41
1
10
26.097982519509
20
1.99007748443961
30
0
0
SPLINE
5
171
100
AcDbEntity
8
1
62
256
6
ByLayer
370
18
48
1
60
0
100
AcDbSpline
70
4
71
3
72
28
73
24
40
0
40
0
40
0
40
0
40
0.0312500000000041
40
0.0312500000000041
40
0.0625000000000082
40
0.0625000000000082
40
0.125000000000016
40
0.125000000000016
40
0.187500000000025
40
0.187500000000025
40
0.250000000000033
40
0.250000000000033
40
0.312500000000041
40
0.312500000000041
40
0.375000000000049
40
0.375000000000049
40
0.500000000000039
40
0.500000000000039
40
0.625000000000029
40
0.625000000000029
40
0.75000000000002
40
0.75000000000002
40
1
40
1
40
1
40
1
41
1
10
26.0979825195091
20
1.99007748443958
30
0
41
1
10
26.1125486709162
20
1.99159535085161
30
0
41
1
10
26.1274218203256
20
1.99288495503899
30
0
41
1
10
26.1576262879563
20
1.99515128437659
30
0
41
1
10
26.1729590479797
20
1.99612660999358
30
0
41
1
10
26.2195081095067
20
1.99870554080806
30
0
41
1
10
26.2512679399642
20
1.99996889478373
30
0
41
1
10
26.315830213577
20
2.00193672583512
30
0
41
1
10
26.3486926539692
20
2.00263506100896
30
0
41
1
10
26.4143367045597
20
2.0036193480565
30
0
41
1
10
26.4472435493587
20
2.00390763509023
30
0
41
1
10
26.5131950625552
20
2.0041720853925
30
0
41
1
10
26.5462835462221
20
2.00414681663861
30
0
41
1
10
26.6123089156723
20
2.00382698042176
30
0
41
1
10
26.6452529363002
20
2.00353242706433
30
0
41
1
10
26.7439048404125
20
2.00227268960009
30
0
41
1
10
26.8094766875536
20
2.0009341648443
30
0
41
1
10
26.9394935419597
20
1.9972309525661
30
0
41
1
10
27.0040893489557
20
1.99485911959303
30
0
41
1
10
27.1320098773751
20
1.98892123100782
30
0
41
1
10
27.1954512117588
20
1.98534772612098
30
0
41
1
10
27.3835413892431
20
1.97251865425704
30
0
41
1
10
27.5060272693622
20
1.96115920661907
30
0
41
1
10
27.6262492661786
20
1.94598545795702
30
0
0
SPLINE
5
172
100
AcDbEntity
8
1
62
256
6
ByLayer
370
18
48
1
60
0
100
AcDbSpline
70
4
71
3
72
8
73
4
40
0
40
0
40
0
40
0
40
1
40
1
40
1
40
1
41
1
10
27.7552717964177
20
1.93898268340053
30
0
41
1
10
27.7479507899281
20
1.93669349064234
30
0
41
1
10
27.7407236080287
20
1.93433539433858
30
0
41
1
10
27.7335951551276
20
1.93190415063521
30
0
0
SPLINE
5
173
100
AcDbEntity
8
1
62
256
6
ByLayer
370
18
48
1
60
0
100
AcDbSpline
70
4
71
3
72
8
73
4
40
0
40
0
40
0
40
0
40
1
40
1
40
1
40
1
41
1
10
28.0392697822006
20
-1.17883228031451
30
0
41
1
10
28.0261541606358
20
-1.17262375743024
30
0
41
1
10
28.0130639753318
20
-1.16634713545264
30
0
41
1
10
27.9999999999994
20
-1.16000025845827
30
0
0
SPLINE
5
174
100
AcDbEntity
8
1
62
256
6
ByLayer
370
18
48
1
60
0
100
AcDbSpline
70
4
71
3
72
80
73
76
40
0
40
0
40
0
40
0
40
0.0062951826010837
40
0.012566148392985
40
0.0189947170520323
40
0.0255850527268584
40
0.0323372825319979
40
0.0392515218760268
40
0.0463278753768271
40
0.0535664376735768
40
0.0609672941487314
40
0.0685305215712258
40
0.0762561886706459
40
0.0841443566506533
40
0.092195079648862
40
0.100408405149392
40
0.10878437435348
40
0.117323022512843
40
0.126024379229883
40
0.134888468728322
40
0.143915310097392
40
0.153104917512331
40
0.162457300433632
40
0.171972463787166
40
0.181650408127083
40
0.191491129783171
40
0.201494620994159
40
0.211660870028304
40
0.221989861292428
40
0.232481575430474
40
0.243135989412535
40
0.253953076615188
40
0.264932806893904
40
0.276075146648227
40
0.287380058880333
40
0.29884750324753
40
0.310477436109201
40
0.322269810568657
40
0.334224576510309
40
0.346341680632537
40
0.358621066476601
40
0.371062674451908
40
0.383666441857925
40
0.396432302902986
40
0.409360188720258
40
0.422450027381052
40
0.435701743905719
40
0.449115260272283
40
0.46269049542301
40
0.476427365269044
40
0.490325782693287
40
0.50438565755162
40
0.518606896672652
40
0.557289881115362
40
0.593591888507678
40
0.62751488603261
40
0.659061662457538
40
0.688235956470132
40
0.715042664015755
40
0.73948816767564
40
0.761580862370739
40
0.773749852594907
40
0.786655804121524
40
0.8003026191599
40
0.814693603720913
40
0.82983158102789
40
0.845718978567768
40
0.862357895475625
40
0.879750155061736
40
0.897897345979745
40
0.916800854611171
40
0.936461890583226
40
0.95688150686209
40
0.978060615517583
40
1
40
1
40
1
40
1
41
1
10
28.04026243333
20
-1.17809935865844
30
0
41
1
10
28.0403488426686
20
-1.17606731162113
30
0
41
1
10
28.0405213289394
20
-1.17201103458666
30
0
41
1
10
28.0408876228523
20
-1.16589187429093
30
0
41
1
10
28.041196172044
20
-1.15967275743117
30
0
41
1
10
28.041493060054
20
-1.1532983372403
30
0
41
1
10
28.0417665355694
20
-1.14676624481194
30
0
41
1
10
28.0420198823973
20
-1.14007696043456
30
0
41
1
10
28.0422521872799
20
-1.13323054352441
30
0
41
1
10
28.0424637027122
20
-1.12622718127309
30
0
41
1
10
28.0426543577739
20
-1.11906703673429
30
0
41
1
10
28.042824171303
20
-1.1117502914224
30
0
41
1
10
28.0429731373399
20
-1.10427713396325
30
0
41
1
10
28.0431012568564
20
-1.09664776371133
30
0
41
1
10
28.0432085289663
20
-1.08886239023258
30
0
41
1
10
28.0432949533519
20
-1.08092123394331
30
0
41
1
10
28.0433605295882
20
-1.07282452644043
30
0
41
1
10
28.043405257325
20
-1.064572510928
30
0
41
1
10
28.043429136233
20
-1.05616544262799
30
0
41
1
10
28.0434321660151
20
-1.04760358920606
30
0
41
1
10
28.0434143463995
20
-1.03888723120392
30
0
41
1
10
28.0433756771389
20
-1.03001666247997
30
0
41
1
10
28.043316158008
20
-1.02099219065812
30
0
41
1
10
28.0432357888013
20
-1.01181413758437
30
0
41
1
10
28.0431345693316
20
-1.00248283979118
30
0
41
1
10
28.043012499428
20
-0.992998648969547
30
0
41
1
10
28.0428695789348
20
-0.983361932448588
30
0
41
1
10
28.0427058077094
20
-0.973573073682616
30
0
41
1
10
28.0425211856211
20
-0.963632472745502
30
0
41
1
10
28.0423157125505
20
-0.953540546832329
30
0
41
1
10
28.0420893883871
20
-0.943297730767938
30
0
41
1
10
28.0418422130294
20
-0.932904477522612
30
0
41
1
10
28.0415741863828
20
-0.922361258734441
30
0
41
1
10
28.0412853083591
20
-0.911668565238443
30
0
41
1
10
28.0409755788755
20
-0.90082690760218
30
0
41
1
10
28.0406449978538
20
-0.88983681666781
30
0
41
1
10
28.0402935652186
20
-0.878698844100199
30
0
41
1
10
28.039921280898
20
-0.867413562941294
30
0
41
1
10
28.0395281448215
20
-0.855981568170364
30
0
41
1
10
28.0391141569194
20
-0.844403477269765
30
0
41
1
10
28.0386793171231
20
-0.832679930796502
30
0
41
1
10
28.0382236253609
20
-0.820811592958961
30
0
41
1
10
28.0377470815694
20
-0.8087991521991
30
0
41
1
10
28.0372496856471
20
-0.796643321778049
30
0
41
1
10
28.0367314376266
20
-0.78434484037345
30
0
41
1
10
28.0361923370176
20
-0.771904472653176
30
0
41
1
10
28.0356323853006
20
-0.759323009961463
30
0
41
1
10
28.0350515764443
20
-0.746601270597949
30
0
41
1
10
28.0344499329415
20
-0.733740101662789
30
0
41
1
10
28.0338273688819
20
-0.720740374969296
30
0
41
1
10
28.033184210105
20
-0.707603005510435
30
0
41
1
10
28.0325192186836
20
-0.694328884278974
30
0
41
1
10
28.0314485676868
20
-0.673281170625756
30
0
41
1
10
28.0299181430285
20
-0.645306778125246
30
0
41
1
10
28.0277817645272
20
-0.611270619320209
30
0
41
1
10
28.0255131278115
20
-0.579572111743971
30
0
41
1
10
28.0231080158068
20
-0.550191993789383
30
0
41
1
10
28.0205723401196
20
-0.52311044634655
30
0
41
1
10
28.0178904830703
20
-0.498308897335846
30
0
41
1
10
28.0151151365573
20
-0.475765037081743
30
0
41
1
10
28.012426569959
20
-0.45779127749492
30
0
41
1
10
28.0102358013147
20
-0.443382792400314
30
0
41
1
10
28.008731559457
20
-0.431559727716177
30
0
41
1
10
28.0073283509576
20
-0.419075919966389
30
0
41
1
10
28.0060527075677
20
-0.40593364244603
30
0
41
1
10
28.0048969874178
20
-0.392137483842191
30
0
41
1
10
28.0038634688112
20
-0.377691728725608
30
0
41
1
10
28.0029515474619
20
-0.362601125733335
30
0
41
1
10
28.0021614550098
20
-0.346870686891634
30
0
41
1
10
28.0014931293289
20
-0.330505721249637
30
0
41
1
10
28.000946774664
20
-0.313511989817698
30
0
41
1
10
28.0005217712257
20
-0.29589508217785
30
0
41
1
10
28.0002206706196
20
-0.277662964126677
30
0
41
1
10
28.0000335134045
20
-0.25881597662044
30
0
41
1
10
28.0000113016823
20
-0.246087433798806
30
0
41
1
10
28
20
-0.239610945996418
30
0
0
SPLINE
5
175
100
AcDbEntity
8
1
62
256
6
ByLayer
370
18
48
1
60
0
100
AcDbSpline
70
4
71
3
72
31
73
27
40
0
40
0
40
0
40
0
40
0.124999999999988
40
0.124999999999988
40
0.249999999999977
40
0.249999999999977
40
0.312499999999978
40
0.312499999999978
40
0.343749999999985
40
0.343749999999985
40
0.374999999999991
40
0.374999999999991
40
0.500000000000006
40
0.500000000000006
40
0.625000000000021
40
0.625000000000021
40
0.656250000000023
40
0.656250000000023
40
0.687500000000019
40
0.750000000000017
40
0.750000000000017
40
0.875000000000009
40
0.875000000000009
40
0.937500000000004
40
0.937500000000004
40
1
40
1
40
1
40
1
41
1
10
27.6969176327746
20
-1.17633638677413
30
0
41
1
10
27.6099885098473
20
-1.13213294026042
30
0
41
1
10
27.5244332860578
20
-1.08521824113223
30
0
41
1
10
27.3565850951047
20
-0.98482962852421
30
0
41
1
10
27.2742917362529
20
-0.931359757041747
30
0
41
1
10
27.1537598870922
20
-0.845107487221355
30
0
41
1
10
27.1140681317812
20
-0.815345548999318
30
0
41
1
10
27.0553244043919
20
-0.769008841972749
30
0
41
1
10
27.0358755361173
20
-0.753280696458233
30
0
41
1
10
26.9972541833516
20
-0.721226085946796
30
0
41
1
10
26.9780566487844
20
-0.704877530446822
30
0
41
1
10
26.8831022979068
20
-0.621823925307268
30
0
41
1
10
26.8108098826947
20
-0.551524988755062
30
0
41
1
10
26.6742118030978
20
-0.402228242598682
30
0
41
1
10
26.6099058228064
20
-0.323233018114479
30
0
41
1
10
26.5348675625559
20
-0.218372404050854
30
0
41
1
10
26.5200985125573
20
-0.197051174187948
30
0
41
1
10
26.4912420860579
20
-0.153986593397434
30
0
41
1
10
26.4490689746641
20
-0.0888989228899959
30
0
41
1
10
26.4101694934965
20
-0.0223766184121814
30
0
41
1
10
26.3365719676375
20
0.112477726877472
30
0
41
1
10
26.2931003664443
20
0.204790749107872
30
0
41
1
10
26.2357078989625
20
0.346483389755179
30
0
41
1
10
26.2178685629833
20
0.394288812204337
30
0
41
1
10
26.1847884726639
20
0.49076992678917
30
0
41
1
10
26.1697025534295
20
0.538984760384267
30
0
41
1
10
26.1559771217313
20
0.587122122026727
30
0
0
SPLINE
5
176
100
AcDbEntity
8
1
62
256
6
ByLayer
370
18
48
1
60
0
100
AcDbSpline
70
4
71
3
72
12
73
8
40
0
40
0
40
0
40
0
40
0.5
40
0.5
40
0.75
40
0.75
40
1
40
1
40
1
40
1
41
1
10
28
20
-1.1600002584569
30
0
41
1
10
27.9492750248013
20
-1.15587078397729
30
0
41
1
10
27.8986307396737
20
-1.15509997555077
30
0
41
1
10
27.8226717777064
20
-1.15913553591832
30
0
41
1
10
27.7973287370702
20
-1.16135433258501
30
0
41
1
10
27.746952734946
20
-1.16753338464002
30
0
41
1
10
27.7218821471739
20
-1.17149391232493
30
0
41
1
10
27.6969176327746
20
-1.1763363867741
30
0
0
SPLINE
5
177
100
AcDbEntity
8
1
62
256
6
ByLayer
370
18
48
1
60
0
100
AcDbSpline
70
4
71
3
72
12
73
8
40
0
40
0
40
0
40
0
40
0.500000000000059
40
0.500000000000059
40
0.750000000000029
40
0.750000000000029
40
1
40
1
40
1
40
1
41
1
10
28
20
1.89909110125103
30
0
41
1
10
27.9492750248013
20
1.91503421230641
30
0
41
1
10
27.8986307396738
20
1.932821261247
30
0
41
1
10
27.8226717777064
20
1.9621063919395
30
0
41
1
10
27.7973287370702
20
1.97231430008395
30
0
41
1
10
27.746952734946
20
1.9934341413917
30
0
41
1
10
27.721882147174
20
2.0043597675791
30
0
41
1
10
27.6969176327746
20
2.01562862326355
30
0
0
SPLINE
5
178
100
AcDbEntity
8
1
62
256
6
ByLayer
370
18
48
1
60
0
100
AcDbSpline
70
4
71
3
72
10
73
6
40
0
40
0
40
0
40
0
40
0.5
40
0.5
40
1
40
1
40
1
40
1
41
1
10
32.444439247449
20
1.64761511205262
30
0
41
1
10
32.4398873759238
20
1.64993142353211
30
0
41
1
10
32.4355440834281
20
1.65261902873428
30
0
41
1
10
32.4270344607408
20
1.65830575566576
30
0
41
1
10
32.4228767291912
20
1.66132029817462
30
0
41
1
10
32.4187780450773
20
1.66443770395011
30
0
0
SPLINE
5
179
100
AcDbEntity
8
1
62
256
6
ByLayer
370
18
48
1
60
0
100
AcDbSpline
70
4
71
3
72
12
73
8
40
0
40
0
40
0
40
0
40
0.315806060358244
40
0.473709090537365
40
0.710563635806048
40
0.947418181074731
40
1
40
1
40
1
40
1
41
1
10
32
20
1.81200656892256
30
0
41
1
10
31.6666666666666
20
1.89372660544441
30
0
41
1
10
31.1666666666667
20
1.97922227439173
30
0
41
1
10
30.4166666666667
20
2.00933315707741
30
0
41
1
10
29.75
20
1.96614170275063
30
0
41
1
10
29.1944998840263
20
1.86430352453749
30
0
41
1
10
28.8889997680525
20
1.78754834421429
30
0
41
1
10
28.8334996520788
20
1.77292955993823
30
0
0
SPLINE
5
17A
100
AcDbEntity
8
1
62
256
6
ByLayer
370
18
48
1
60
0
100
AcDbSpline
70
4
71
3
72
22
73
18
40
0
40
0
40
0
40
0
40
0.0627937031403902
40
0.123751723008647
40
0.182875168615586
40
0.240165840986068
40
0.295626299539771
40
0.34925993887991
40
0.401071078075862
40
0.451065064993024
40
0.499248398805777
40
0.538123925055107
40
0.59482487031332
40
0.669361051964916
40
0.761735790045111
40
0.8719493586498
40
1
40
1
40
1
40
1
41
1
10
32.3314776116132
20
1.70361588055536
30
0
41
1
10
32.3245463551845
20
1.70660792834275
30
0
41
1
10
32.3108864676039
20
1.71250455571931
30
0
41
1
10
32.2906912903568
20
1.72097552895198
30
0
41
1
10
32.2710971329033
20
1.72900389605749
30
0
41
1
10
32.2521033699355
20
1.73657395274645
30
0
41
1
10
32.2337101346864
20
1.74369095885564
30
0
41
1
10
32.2159173862497
20
1.75035241648575
30
0
41
1
10
32.198725039544
20
1.75656710841611
30
0
41
1
10
32.1821333126312
20
1.76230874851572
30
0
41
1
10
32.1669715394362
20
1.76739590649618
30
0
41
1
10
32.1510721725209
20
1.77224421196905
30
0
41
1
10
32.1322710984694
20
1.77760996929251
30
0
41
1
10
32.1075660635392
20
1.78441687108753
30
0
41
1
10
32.076957875003
20
1.79255947340025
30
0
41
1
10
32.0404458119767
20
1.80198955860885
30
0
41
1
10
32.0141384138651
20
1.8085050336208
30
0
41
1
10
31.999999995002
20
1.81200665375141
30
0
0
SPLINE
5
17B
100
AcDbEntity
8
1
62
256
6
ByLayer
370
18
48
1
60
0
100
AcDbSpline
70
4
71
3
72
12
73
8
40
0
40
0
40
0
40
0
40
0.146264052036848
40
0.312807841160124
40
0.499655689390848
40
0.76120405849921
40
1
40
1
40
1
40
1
41
1
10
32.4186792804024
20
1.66448447996905
30
0
41
1
10
32.4144294814671
20
1.66644897994379
30
0
41
1
10
32.4053406423997
20
1.67065036085387
30
0
41
1
10
32.3908167798964
20
1.67725614302395
30
0
41
1
10
32.3729412188117
20
1.68531088071686
30
0
41
1
10
32.3529663288449
20
1.69422394743526
30
0
41
1
10
32.3384200267344
20
1.70058160457657
30
0
41
1
10
32.3314776116132
20
1.70361588055536
30
0
0
SPLINE
5
17C
100
AcDbEntity
8
1
62
256
6
ByLayer
370
18
48
1
60
0
100
AcDbSpline
70
4
71
3
72
8
73
4
40
0
40
0
40
0
40
0
40
1
40
1
40
1
40
1
41
1
10
32.4187784234338
20
1.66443837186526
30
0
41
1
10
32.4187453757569
20
1.66445374132672
30
0
41
1
10
32.4187123280799
20
1.66446911069445
30
0
41
1
10
32.4186792804029
20
1.66448447996839
30
0
0
SPLINE
5
17D
100
AcDbEntity
8
1
62
256
6
ByLayer
370
18
48
1
60
0
100
AcDbSpline
70
4
71
3
72
8
73
4
40
0
40
0
40
0
40
0
40
1
40
1
40
1
40
1
41
1
10
32.4187785843452
20
1.66443849010932
30
0
41
1
10
32.4257675930244
20
1.66144235220173
30
0
41
1
10
32.4326437027523
20
1.65835536807128
30
0
41
1
10
32.4394046768281
20
1.65517634188262
30
0
0
SPLINE
5
17E
100
AcDbEntity
8
1
62
256
6
ByLayer
370
18
48
1
60
0
100
AcDbSpline
70
4
71
3
72
12
73
8
40
0
40
0
40
0
40
0
40
0.0045624218876217
40
0.170468684906351
40
0.419328079434446
40
0.668187473962541
40
1
40
1
40
1
40
1
41
1
10
31.0137499989591
20
-1.96582607539662
30
0
41
1
10
31.0091666659727
20
-1.96631161988603
30
0
41
1
10
30.8379166663197
20
-1.98424955896527
30
0
41
1
10
30.4166666666667
20
-2.00960497329166
30
0
41
1
10
29.75
20
-1.97985016100364
30
0
41
1
10
28.9166666666667
20
-1.84321271429573
30
0
41
1
10
28.3333333333333
20
-1.67074695609082
30
0
41
1
10
28
20
-1.54902375897294
30
0
0
SPLINE
5
17F
100
AcDbEntity
8
1
62
256
6
ByLayer
370
18
48
1
60
0
100
AcDbSpline
70
4
71
3
72
12
73
8
40
0
40
0
40
0
40
0
40
0.499999999999942
40
0.499999999999942
40
0.749999999999971
40
0.749999999999971
40
1
40
1
40
1
40
1
41
1
10
27.9999999999999
20
-1.90664087204434
30
0
41
1
10
27.9493199053673
20
-1.92192051660956
30
0
41
1
10
27.8986962405602
20
-1.93919537479684
30
0
41
1
10
27.8227405287488
20
-1.96799026421709
30
0
41
1
10
27.7973953691582
20
-1.97808054906622
30
0
41
1
10
27.7469705151758
20
-1.9990853589326
30
0
41
1
10
27.721857955993
20
-2.01001149810253
30
0
41
1
10
27.6968347947663
20
-2.0213450163574
30
0
0
SPLINE
5
180
100
AcDbEntity
8
1
62
256
6
ByLayer
370
18
48
1
60
0
100
AcDbSpline
70
4
71
3
72
12
73
8
40
0
40
0
40
0
40
0
40
0.25
40
0.375
40
0.5625
40
0.75
40
1
40
1
40
1
40
1
41
1
10
32
20
0.108698623606273
30
0
41
1
10
31.6666666666666
20
0.300776986074624
30
0
41
1
10
31.1666666666667
20
0.586256313320206
30
0
41
1
10
30.4166666666667
20
0.98116930926841
30
0
41
1
10
29.75
20
1.30016980610029
30
0
41
1
10
28.9166666666667
20
1.63430563722053
30
0
41
1
10
28.3333333333333
20
1.80190399189735
30
0
41
1
10
28
20
1.87013683612213
30
0
0
SPLINE
5
181
100
AcDbEntity
8
1
62
256
6
ByLayer
370
18
48
1
60
0
100
AcDbSpline
70
4
71
3
72
29
73
25
40
0
40
0
40
0
40
0
40
0.125000000000009
40
0.125000000000009
40
0.250000000000017
40
0.250000000000017
40
0.375000000000026
40
0.375000000000026
40
0.406250000000025
40
0.406250000000025
40
0.437500000000024
40
0.500000000000022
40
0.500000000000022
40
0.625000000000006
40
0.625000000000006
40
0.687499999999998
40
0.687499999999998
40
0.718749999999997
40
0.718749999999997
40
0.749999999999995
40
0.749999999999995
40
0.874999999999998
40
0.874999999999998
40
1
40
1
40
1
40
1
41
1
10
27.6968347947663
20
-2.0213450163574
30
0
41
1
10
27.6098970651078
20
-2.02458502644166
30
0
41
1
10
27.5241888301048
20
-2.02578051369491
30
0
41
1
10
27.3556302799841
20
-2.02320514582709
30
0
41
1
10
27.2727798727221
20
-2.01943932202289
30
0
41
1
10
27.1103998091764
20
-2.00568069266825
30
0
41
1
10
27.0308701430809
20
-1.99569638420658
30
0
41
1
10
26.9338638714279
20
-1.97817064389085
30
0
41
1
10
26.9145573160696
20
-1.97440575076089
30
0
41
1
10
26.8763393732462
20
-1.96636197664966
30
0
41
1
10
26.8196209914402
20
-1.95353100098166
30
0
41
1
10
26.7647642420192
20
-1.93829366905345
30
0
41
1
10
26.6576233288357
20
-1.90427534035587
30
0
41
1
10
26.5896283805353
20
-1.87689222958164
30
0
41
1
10
26.4931063872718
20
-1.82710274370484
30
0
41
1
10
26.4618435365692
20
-1.80904910821445
30
0
41
1
10
26.416352176895
20
-1.77952180019844
30
0
41
1
10
26.4014335812473
20
-1.76927544823593
30
0
41
1
10
26.3723133864185
20
-1.74810948300518
30
0
41
1
10
26.3580800106269
20
-1.73716983226106
30
0
41
1
10
26.2885191259954
20
-1.68064589279254
30
0
41
1
10
26.2380065243828
20
-1.62959948728874
30
0
41
1
10
26.1465697648145
20
-1.51456355759225
30
0
41
1
10
26.1056371759967
20
-1.45058948428314
30
0
41
1
10
26.0692548702122
20
-1.37920946102196
30
0
0
SPLINE
5
182
100
AcDbEntity
8
1
62
256
6
ByLayer
370
18
48
1
60
0
100
AcDbSpline
70
4
71
3
72
10
73
6
40
0
40
0
40
0
40
0
40
0.5
40
0.5
40
1
40
1
40
1
40
1
41
1
10
27.7371966025173
20
1.98144102492987
30
0
41
1
10
27.7357419965448
20
1.97548690937995
30
0
41
1
10
27.7361700436661
20
1.96890272343111
30
0
41
1
10
27.7418341655104
20
1.95464229013714
30
0
41
1
10
27.7470741696098
20
1.9469748460105
30
0
41
1
10
27.7552717964177
20
1.9389826834005
30
0
0
SPLINE
5
183
100
AcDbEntity
8
1
62
256
6
ByLayer
370
18
48
1
60
0
100
AcDbSpline
70
4
71
3
72
10
73
6
40
0
40
0
40
0
40
0
40
0.5
40
0.5
40
1
40
1
40
1
40
1
41
1
10
27.6969176327746
20
2.01562862326355
30
0
41
1
10
27.6982299857728
20
2.01194259715047
30
0
41
1
10
27.7019543180625
20
2.00716638670801
30
0
41
1
10
27.7150922266736
20
1.99565640764786
30
0
41
1
10
27.7245086029067
20
1.98892194117414
30
0
41
1
10
27.7371966025179
20
1.98144102492958
30
0
0
SPLINE
5
184
100
AcDbEntity
8
1
62
256
6
ByLayer
370
18
48
1
60
0
100
AcDbSpline
70
4
71
3
72
22
73
18
40
0
40
0
40
0
40
0
40
0.0626620770781063
40
0.123504141190216
40
0.18252736957942
40
0.239733631053295
40
0.295125552062226
40
0.348706593043314
40
0.400481137066252
40
0.450454593267986
40
0.49863351812441
40
0.550144537450995
40
0.615044298479689
40
0.69334700066114
40
0.785058819673484
40
0.892529426205233
40
1
40
1
40
1
40
1
41
1
10
32.3314723103104
20
-0.0786684801695117
30
0
41
1
10
32.3245556940768
20
-0.0749239413309795
30
0
41
1
10
32.3109233539486
20
-0.0675436233623827
30
0
41
1
10
32.2907667072281
20
-0.0565351844990118
30
0
41
1
10
32.2712057517287
20
-0.0457875813541477
30
0
41
1
10
32.2522398472056
20
-0.0353008782549296
30
0
41
1
10
32.2338691344097
20
-0.0250838211453015
30
0
41
1
10
32.2160935580699
20
-0.0151423158806949
30
0
41
1
10
32.1989130816342
20
-0.0054830687704168
30
0
41
1
10
32.1823277531873
20
0.0038897898846812
30
0
41
1
10
32.1657709831572
20
0.0132865624666749
30
0
41
1
10
32.1475666826549
20
0.0236877711912484
30
0
41
1
10
32.1260445331199
20
0.0360451398461521
30
0
41
1
10
32.1000922741977
20
0.0509847899782301
30
0
41
1
10
32.0694521919668
20
0.0686542730383337
30
0
41
1
10
32.0355969202207
20
0.0881818091119442
30
0
41
1
10
32.0118656449005
20
0.101859682083756
30
0
41
1
10
32.0000000090475
20
0.108698617528034
30
0
0
SPLINE
5
185
100
AcDbEntity
8
1
62
256
6
ByLayer
370
18
48
1
60
0
100
AcDbSpline
70
4
71
3
72
12
73
8
40
0
40
0
40
0
40
0
40
0.25
40
0.375
40
0.5625
40
0.75
40
1
40
1
40
1
40
1
41
1
10
32
20
-1.63376961257308
30
0
41
1
10
31.6666666666667
20
-1.52386250759167
30
0
41
1
10
31.1666666666667
20
-1.32597090738273
30
0
41
1
10
30.4166666666667
20
-0.967547358659687
30
0
41
1
10
29.75
20
-0.613176422761569
30
0
41
1
10
28.9166666666667
20
-0.138710486361191
30
0
41
1
10
28.3333333333333
20
0.201048394354871
30
0
41
1
10
28
20
0.389810930023117
30
0
0
SPLINE
5
186
100
AcDbEntity
8
1
62
256
6
ByLayer
370
18
48
1
60
0
100
AcDbSpline
70
4
71
3
72
10
73
6
40
0
40
0
40
0
40
0
40
0.881737119594001
40
0.881737119594001
40
1
40
1
40
1
40
1
41
1
10
27.6969176327746
20
2.01562862326355
30
0
41
1
10
27.6099885098473
20
2.02084716129025
30
0
41
1
10
27.5244332860578
20
2.02407886415241
30
0
41
1
10
27.4292528818176
20
2.02493269828122
30
0
41
1
10
27.418025909161
20
2.02498920841583
30
0
41
1
10
27.4068290159006
20
2.02499947049674
30
0
0
SPLINE
5
187
100
AcDbEntity
8
1
62
256
6
ByLayer
370
18
48
1
60
0
100
AcDbSpline
70
4
71
1
72
4
73
2
40
0
40
0
40
1
40
1
41
1
10
27.906868848266
20
-1.93698976208077
30
0
41
1
10
27.914382839725
20
-1.93485966478647
30
0
0
SPLINE
5
188
100
AcDbEntity
8
1
62
256
6
ByLayer
370
18
48
1
60
0
100
AcDbSpline
70
4
71
1
72
4
73
2
40
0
40
0
40
1
40
1
41
1
10
31.6180332762736
20
1.90581254809158
30
0
41
1
10
31.6180285586469
20
1.91329051790393
30
0
0
SPLINE
5
189
100
AcDbEntity
8
1
62
256
6
ByLayer
370
18
48
1
60
0
100
AcDbSpline
70
4
71
1
72
4
73
2
40
0
40
0
40
1
40
1
41
1
10
31.0984187899495
20
-1.95623893088506
30
0
41
1
10
31.0984072593884
20
-1.95624306555118
30
0
0
SPLINE
5
18A
100
AcDbEntity
8
1
62
256
6
ByLayer
370
18
48
1
60
0
100
AcDbSpline
70
4
71
1
72
4
73
2
40
0
40
0
40
1
40
1
41
1
10
31.5522375850239
20
-1.90569841423519
30
0
41
1
10
31.5522408482306
20
-1.90288901105396
30
0
0
SPLINE
5
18B
100
AcDbEntity
8
1
62
256
6
ByLayer
370
18
48
1
60
0
100
AcDbSpline
70
4
71
2
72
6
73
3
40
0
40
0
40
0
40
1
40
1
40
1
41
1
10
31.3280689399756
20
1.04181779379286
30
0
41
1
10
30.7696039609584
20
1.16366442577626
30
0
41
1
10
30.2100220308892
20
1.38001334184779
30
0
0
LINE
5
79
100
AcDbEntity
8
81
62
256
6
ByLayer
370
18
48
1
60
0
100
AcDbLine
10
34.05
20
0
30
0
11
39.05
21
0
31
0
39
0
210
0
220
0
230
1
0
LINE
5
7A
100
AcDbEntity
8
SK4
62
256
6
ByLayer
370
18
48
0.05
60
0
100
AcDbLine
10
-36
20
0
30
0
11
34.05
21
0
31
0
39
0
210
0
220
0
230
1
0
LINE
5
7C
100
AcDbEntity
8
80
62
256
6
ByLayer
370
18
48
1
60
0
100
AcDbLine
10
0
20
0
30
0
11
-5
21
0
31
0
39
0
210
0
220
0
230
1
0
LINE
5
7D
100
AcDbEntity
8
4
62
256
6
ByLayer
370
18
48
0.05
60
0
100
AcDbLine
10
0
20
0
30
0
11
34.05
21
0
31
0
39
0
210
0
220
0
230
1
0
LINE
5
7F
100
AcDbEntity
8
1
62
256
6
ByLayer
370
18
48
1
60
0
100
AcDbLine
10
33.991154
20
-0.018859
30
0
11
33.991015
21
-0.01952
31
0
39
0
210
0
220
0
230
1
0
LINE
5
80
100
AcDbEntity
8
1
62
256
6
ByLayer
370
13
48
1
60
0
100
AcDbLine
10
33.797068
20
-0.349848
30
0
11
33.641037
21
-0.440351
31
0
39
0
210
0
220
0
230
1
0
LINE
5
81
100
AcDbEntity
8
1
62
256
6
ByLayer
370
18
48
1
60
0
100
AcDbLine
10
0
20
3
30
0
11
0
21
0
31
0
39
0
210
0
220
0
230
1
0
LINE
5
82
100
AcDbEntity
8
1
62
256
6
ByLayer
370
18
48
1
60
0
100
AcDbLine
10
0
20
0
30
0
11
0
21
-3
31
0
39
0
210
0
220
0
230
1
0
LINE
5
83
100
AcDbEntity
8
1
62
256
6
ByLayer
370
18
48
1
60
0
100
AcDbLine
10
33.999485
20
-0.01952
30
0
11
33.990936
21
-0.01952
31
0
39
0
210
0
220
0
230
1
0
LINE
5
84
100
AcDbEntity
8
1
62
256
6
ByLayer
370
18
48
1
60
0
100
AcDbLine
10
33.999457
20
0.020969
30
0
11
33.99113
21
0.020969
31
0
39
0
210
0
220
0
230
1
0
LINE
5
85
100
AcDbEntity
8
1
62
256
6
ByLayer
370
13
48
1
60
0
100
AcDbLine
10
33.971381
20
-0.24874
30
0
11
33.945452
21
-0.26378
31
0
39
0
210
0
220
0
230
1
0
LINE
5
86
100
AcDbEntity
8
1
62
256
6
ByLayer
370
18
48
1
60
0
100
AcDbLine
10
33.956654
20
-0.302586
30
0
11
33.945452
21
-0.26378
31
0
39
0
210
0
220
0
230
1
0
LINE
5
87
100
AcDbEntity
8
1
62
256
6
ByLayer
370
18
48
1
60
0
100
AcDbLine
10
33.991409
20
0.01961
30
0
11
33.98109
21
0.019797
31
0
39
0
210
0
220
0
230
1
0
LINE
5
88
100
AcDbEntity
8
1
62
256
6
ByLayer
370
18
48
1
60
0
100
AcDbLine
10
33.999237
20
0.036544
30
0
11
33.988348
21
0.034498
31
0
39
0
210
0
220
0
230
1
0
LINE
5
89
100
AcDbEntity
8
1
62
256
6
ByLayer
370
13
48
1
60
0
100
AcDbLine
10
33.801846
20
0.113808
30
0
11
33.803761
21
0.102992
31
0
39
0
210
0
220
0
230
1
0
LINE
5
8A
100
AcDbEntity
8
1
62
256
6
ByLayer
370
13
48
1
60
0
100
AcDbLine
10
33.876154
20
-0.305981
30
0
11
33.913616
21
-0.51762
31
0
39
0
210
0
220
0
230
1
0
LINE
5
8B
100
AcDbEntity
8
1
62
256
6
ByLayer
370
18
48
1
60
0
100
AcDbLine
10
33.865291
20
0.331756
30
0
11
33.827415
21
0.279664
31
0
39
0
210
0
220
0
230
1
0
LINE
5
8C
100
AcDbEntity
8
1
62
256
6
ByLayer
370
18
48
1
60
0
100
AcDbLine
10
33.797068
20
-0.349848
30
0
11
33.838419
21
-0.535437
31
0
39
0
210
0
220
0
230
1
0
LINE
5
8D
100
AcDbEntity
8
1
62
256
6
ByLayer
370
13
48
1
60
0
100
AcDbLine
10
33.780976
20
0.320562
30
0
11
33.827415
21
0.279664
31
0
39
0
210
0
220
0
230
1
0
LINE
5
8E
100
AcDbEntity
8
1
62
256
6
ByLayer
370
18
48
1
60
0
100
AcDbLine
10
33.83255
20
0.034602
30
0
11
33.889833
21
-0.030922
31
0
39
0
210
0
220
0
230
1
0
LINE
5
8F
100
AcDbEntity
8
1
62
256
6
ByLayer
370
18
48
1
60
0
100
AcDbLine
10
33.83255
20
0.034602
30
0
11
33.641037
21
0.203266
31
0
39
0
210
0
220
0
230
1
0
LINE
5
90
100
AcDbEntity
8
1
62
256
6
ByLayer
370
13
48
1
60
0
100
AcDbLine
10
27.626249
20
1.945985
30
0
11
28
21
1.746251
31
0
39
0
210
0
220
0
230
1
0
LINE
5
91
100
AcDbEntity
8
1
62
256
6
ByLayer
370
13
48
1
60
0
100
AcDbLine
10
26.097983
20
1.990077
30
0
11
28
21
0.973628
31
0
39
0
210
0
220
0
230
1
0
LINE
5
92
100
AcDbEntity
8
1
62
256
6
ByLayer
370
18
48
1
60
0
100
AcDbLine
10
32
20
1.873469
30
0
11
32
21
1.84847
31
0
39
0
210
0
220
0
230
1
0
LINE
5
93
100
AcDbEntity
8
1
62
256
6
ByLayer
370
18
48
1
60
0
100
AcDbLine
10
33.681492
20
-0.685407
30
0
11
33.705267
21
-0.698456
31
0
39
0
210
0
220
0
230
1
0
LINE
5
94
100
AcDbEntity
8
1
62
256
6
ByLayer
370
18
48
1
60
0
100
AcDbLine
10
33.681492
20
-0.685407
30
0
11
33.662267
21
-0.588264
31
0
39
0
210
0
220
0
230
1
0
LINE
5
95
100
AcDbEntity
8
1
62
256
6
ByLayer
370
18
48
1
60
0
100
AcDbLine
10
28
20
0.941861
30
0
11
28
21
0.973628
31
0
39
0
210
0
220
0
230
1
0
LINE
5
96
100
AcDbEntity
8
1
62
256
6
ByLayer
370
13
48
1
60
0
100
AcDbLine
10
26.069255
20
-1.379209
30
0
11
27.040631
21
-1.30777
31
0
39
0
210
0
220
0
230
1
0
LINE
5
97
100
AcDbEntity
8
1
62
256
6
ByLayer
370
13
48
1
60
0
100
AcDbLine
10
26.097983
20
-1.319326
30
0
11
26.7847
21
-1.268822
31
0
39
0
210
0
220
0
230
1
0
LINE
5
98
100
AcDbEntity
8
1
62
256
6
ByLayer
370
18
48
1
60
0
100
AcDbLine
10
28
20
-1.421474
30
0
11
28
21
-1.16
31
0
39
0
210
0
220
0
230
1
0
LINE
5
99
100
AcDbEntity
8
1
62
256
6
ByLayer
370
18
48
1
60
0
100
AcDbLine
10
33.641526
20
0.184974
30
0
11
33.741022
21
0.085607
31
0
39
0
210
0
220
0
230
1
0
LINE
5
9A
100
AcDbEntity
8
1
62
256
6
ByLayer
370
18
48
1
60
0
100
AcDbLine
10
33.641526
20
0.184974
30
0
11
33.634693
21
0.21956
31
0
39
0
210
0
220
0
230
1
0
LINE
5
9B
100
AcDbEntity
8
1
62
256
6
ByLayer
370
18
48
1
60
0
100
AcDbLine
10
33.077151
20
0.616235
30
0
11
32.890633
21
0.709417
31
0
39
0
210
0
220
0
230
1
0
LINE
5
9C
100
AcDbEntity
8
1
62
256
6
ByLayer
370
18
48
1
60
0
100
AcDbLine
10
28
20
0.973628
30
0
11
28
21
1.746251
31
0
39
0
210
0
220
0
230
1
0
LINE
5
9D
100
AcDbEntity
8
1
62
256
6
ByLayer
370
18
48
1
60
0
100
AcDbLine
10
28
20
-0.239611
30
0
11
28
21
-0.162308
31
0
39
0
210
0
220
0
230
1
0
LINE
5
9E
100
AcDbEntity
8
1
62
256
6
ByLayer
370
18
48
1
60
0
100
AcDbLine
10
28
20
1.895051
30
0
11
28
21
1.899091
31
0
39
0
210
0
220
0
230
1
0
LINE
5
9F
100
AcDbEntity
8
1
62
256
6
ByLayer
370
18
48
1
60
0
100
AcDbLine
10
26.069255
20
1.973663
30
0
11
28
21
0.941861
31
0
39
0
210
0
220
0
230
1
0
LINE
5
A0
100
AcDbEntity
8
1
62
256
6
ByLayer
370
18
48
1
60
0
100
AcDbLine
10
32
20
0.546609
30
0
11
32
21
0.266611
31
0
39
0
210
0
220
0
230
1
0
LINE
5
A1
100
AcDbEntity
8
1
62
256
6
ByLayer
370
13
48
1
60
0
100
AcDbLine
10
26.181164
20
0.653133
30
0
11
28
21
-0.162308
31
0
39
0
210
0
220
0
230
1
0
LINE
5
A2
100
AcDbEntity
8
1
62
256
6
ByLayer
370
18
48
1
60
0
100
AcDbLine
10
28
20
-0.162308
30
0
11
28
21
0.379462
31
0
39
0
210
0
220
0
230
1
0
LINE
5
A3
100
AcDbEntity
8
1
62
256
6
ByLayer
370
13
48
1
60
0
100
AcDbLine
10
27.645433
20
0.538426
30
0
11
28
21
0.379462
31
0
39
0
210
0
220
0
230
1
0
LINE
5
A4
100
AcDbEntity
8
1
62
256
6
ByLayer
370
18
48
1
60
0
100
AcDbLine
10
32
20
0.266611
30
0
11
32
21
0.108699
31
0
39
0
210
0
220
0
230
1
0
LINE
5
A5
100
AcDbEntity
8
1
62
256
6
ByLayer
370
18
48
1
60
0
100
AcDbLine
10
28
20
0.540114
30
0
11
28
21
0.791358
31
0
39
0
210
0
220
0
230
1
0
LINE
5
A6
100
AcDbEntity
8
1
62
256
6
ByLayer
370
18
48
1
60
0
100
AcDbLine
10
32
20
-1.272849
30
0
11
32
21
-1.513906
31
0
39
0
210
0
220
0
230
1
0
LINE
5
A7
100
AcDbEntity
8
1
62
256
6
ByLayer
370
18
48
1
60
0
100
AcDbLine
10
32
20
-1.513906
30
0
11
32
21
-1.63377
31
0
39
0
210
0
220
0
230
1
0
LINE
5
A8
100
AcDbEntity
8
1
62
256
6
ByLayer
370
13
48
1
60
0
100
AcDbLine
10
26.155977
20
0.587122
30
0
11
28
21
-0.239611
31
0
39
0
210
0
220
0
230
1
0
LINE
5
A9
100
AcDbEntity
8
1
62
256
6
ByLayer
370
18
48
1
60
0
100
AcDbLine
10
32
20
1.84847
30
0
11
32
21
1.812007
31
0
39
0
210
0
220
0
230
1
0
LINE
5
AA
100
AcDbEntity
8
1
62
256
6
ByLayer
370
18
48
1
60
0
100
AcDbLine
10
28
20
-1.549024
30
0
11
28
21
-1.421474
31
0
39
0
210
0
220
0
230
1
0
LINE
5
AB
100
AcDbEntity
8
1
62
256
6
ByLayer
370
18
48
1
60
0
100
AcDbLine
10
28
20
1.870137
30
0
11
28
21
1.895051
31
0
39
0
210
0
220
0
230
1
0
LINE
5
AC
100
AcDbEntity
8
1
62
256
6
ByLayer
370
18
48
1
60
0
100
AcDbLine
10
28
20
1.870137
30
0
11
28
21
1.746251
31
0
39
0
210
0
220
0
230
1
0
LINE
5
AD
100
AcDbEntity
8
1
62
256
6
ByLayer
370
18
48
1
60
0
100
AcDbLine
10
28
20
0.389811
30
0
11
28
21
0.379462
31
0
39
0
210
0
220
0
230
1
0
LINE
5
AE
100
AcDbEntity
8
1
62
256
6
ByLayer
370
18
48
1
60
0
100
AcDbLine
10
28
20
0.389811
30
0
11
28
21
0.540114
31
0
39
0
210
0
220
0
230
1
0
LINE
5
AF
100
AcDbEntity
8
1
62
256
6
ByLayer
370
13
48
1
60
0
100
AcDbLine
10
13.997679
20
-2.025
30
0
11
13.997679
21
0
31
0
39
0
210
0
220
0
230
1
0
LINE
5
B0
100
AcDbEntity
8
1
62
256
6
ByLayer
370
13
48
1
60
0
100
AcDbLine
10
13.997679
20
0
30
0
11
13.997679
21
2.025
31
0
39
0
210
0
220
0
230
1
0
LINE
5
B1
100
AcDbEntity
8
1
62
256
6
ByLayer
370
13
48
1
60
0
100
AcDbLine
10
13.497679
20
2.158975
30
0
11
13.497679
21
0
31
0
39
0
210
0
220
0
230
1
0
LINE
5
B2
100
AcDbEntity
8
1
62
256
6
ByLayer
370
13
48
1
60
0
100
AcDbLine
10
13.497679
20
0
30
0
11
13.497679
21
-2.158975
31
0
39
0
210
0
220
0
230
1
0
LINE
5
B3
100
AcDbEntity
8
1
62
256
6
ByLayer
370
18
48
1
60
0
100
AcDbLine
10
12.04098
20
3
30
0
11
12.04098
21
0
31
0
39
0
210
0
220
0
230
1
0
LINE
5
B4
100
AcDbEntity
8
1
62
256
6
ByLayer
370
18
48
1
60
0
100
AcDbLine
10
12.04098
20
0
30
0
11
12.04098
21
-3
31
0
39
0
210
0
220
0
230
1
0
LINE
5
B5
100
AcDbEntity
8
SK1
62
256
6
ByLayer
370
18
48
1
60
0
100
AcDbLine
10
-36
20
-2.6
30
0
11
-36
21
2.6
31
0
39
0
210
0
220
0
230
1
0
LINE
5
B7
100
AcDbEntity
8
SK1
62
256
6
ByLayer
370
18
48
1
60
0
100
AcDbLine
10
0
20
3
30
0
11
0
21
0
31
0
39
0
210
0
220
0
230
1
0
LINE
5
B8
100
AcDbEntity
8
SK1
62
256
6
ByLayer
370
18
48
1
60
0
100
AcDbLine
10
0
20
0
30
0
11
0
21
-3
31
0
39
0
210
0
220
0
230
1
0
LINE
5
B9
100
AcDbEntity
8
SK1
62
256
6
ByLayer
370
18
48
1
60
0
100
AcDbLine
10
-35.6
20
3
30
0
11
-35.6
21
-3
31
0
39
0
210
0
220
0
230
1
0
LINE
5
BA
100
AcDbEntity
8
1
62
256
6
ByLayer
370
18
48
1
60
0
100
AcDbLine
10
13.997679
20
-2.025
30
0
11
27.515151
21
-2.025
31
0
39
0
210
0
220
0
230
1
0
LINE
5
BB
100
AcDbEntity
8
1
62
256
6
ByLayer
370
18
48
1
60
0
100
AcDbLine
10
12.04098
20
3
30
0
11
0
21
3
31
0
39
0
210
0
220
0
230
1
0
LINE
5
BC
100
AcDbEntity
8
1
62
256
6
ByLayer
370
18
48
1
60
0
100
AcDbLine
10
0
20
-3
30
0
11
12.04098
21
-3
31
0
39
0
210
0
220
0
230
1
0
LINE
5
BD
100
AcDbEntity
8
1
62
256
6
ByLayer
370
18
48
1
60
0
100
AcDbLine
10
27.408692
20
2.025
30
0
11
13.997679
21
2.025
31
0
39
0
210
0
220
0
230
1
0
LINE
5
BE
100
AcDbEntity
8
1
62
256
6
ByLayer
370
18
48
1
60
0
100
AcDbLine
10
13.497679
20
2.158975
30
0
11
12.04098
21
3
31
0
39
0
210
0
220
0
230
1
0
LINE
5
BF
100
AcDbEntity
8
1
62
256
6
ByLayer
370
18
48
1
60
0
100
AcDbLine
10
12.04098
20
-3
30
0
11
13.497679
21
-2.158975
31
0
39
0
210
0
220
0
230
1
0
LINE
5
C0
100
AcDbEntity
8
SK1
62
256
6
ByLayer
370
18
48
1
60
0
100
AcDbLine
10
-36
20
-2.6
30
0
11
-35.6
21
-3
31
0
39
0
210
0
220
0
230
1
0
LINE
5
C1
100
AcDbEntity
8
SK1
62
256
6
ByLayer
370
18
48
1
60
0
100
AcDbLine
10
-35.6
20
3
30
0
11
-36
21
2.6
31
0
39
0
210
0
220
0
230
1
0
LINE
5
C2
100
AcDbEntity
8
SK1
62
256
6
ByLayer
370
18
48
1
60
0
100
AcDbLine
10
0
20
3
30
0
11
-35.6
21
3
31
0
39
0
210
0
220
0
230
1
0
LINE
5
C3
100
AcDbEntity
8
SK1
62
256
6
ByLayer
370
18
48
1
60
0
100
AcDbLine
10
-35.6
20
-3
30
0
11
0
21
-3
31
0
39
0
210
0
220
0
230
1
0
LINE
5
C4
100
AcDbEntity
8
SK2
62
256
6
ByLayer
370
18
48
1
60
0
100
AcDbLine
10
-43.85
20
11.75
30
0
11
-43.85
21
-19.315466
31
0
39
0
210
0
220
0
230
1
0
LINE
5
C6
100
AcDbEntity
8
SK2
62
256
6
ByLayer
370
18
48
1
60
0
100
AcDbLine
10
-37.1875
20
3
30
0
11
-45.85
21
3
31
0
39
0
210
0
220
0
230
1
0
LINE
5
C7
100
AcDbEntity
8
SK2
62
256
6
ByLayer
370
18
48
1
60
0
100
AcDbLine
10
-37.1875
20
-3
30
0
11
-45.85
21
-3
31
0
39
0
210
0
220
0
230
1
0
LINE
5
C8
100
AcDbEntity
8
1
62
256
6
ByLayer
370
18
48
1
60
1
100
AcDbLine
10
-43.85
20
3
30
0
11
-44.310784
21
6.499998
31
0
39
0
210
0
220
0
230
1
0
LINE
5
C9
100
AcDbEntity
8
1
62
256
6
ByLayer
370
18
48
1
60
1
100
AcDbLine
10
-44.310784
20
6.499998
30
0
11
-43.389216
21
6.500002
31
0
39
0
210
0
220
0
230
1
0
LINE
5
CA
100
AcDbEntity
8
1
62
256
6
ByLayer
370
18
48
1
60
1
100
AcDbLine
10
-43.389216
20
6.500002
30
0
11
-43.85
21
3
31
0
39
0
210
0
220
0
230
1
0
LINE
5
CB
100
AcDbEntity
8
1
62
256
6
ByLayer
370
18
48
1
60
1
100
AcDbLine
10
-43.85
20
-3
30
0
11
-43.389216
21
-6.499998
31
0
39
0
210
0
220
0
230
1
0
LINE
5
CC
100
AcDbEntity
8
1
62
256
6
ByLayer
370
18
48
1
60
1
100
AcDbLine
10
-43.389216
20
-6.499998
30
0
11
-44.310784
21
-6.500002
31
0
39
0
210
0
220
0
230
1
0
LINE
5
CD
100
AcDbEntity
8
1
62
256
6
ByLayer
370
18
48
1
60
1
100
AcDbLine
10
-44.310784
20
-6.500002
30
0
11
-43.85
21
-3
31
0
39
0
210
0
220
0
230
1
0
LINE
5
CE
100
AcDbEntity
8
2
62
256
6
ByLayer
370
18
48
1
60
0
100
AcDbLine
10
46
20
18.6841
30
0
11
46
21
-10.7501
31
0
39
0
210
0
220
0
230
1
0
LINE
5
D0
100
AcDbEntity
8
2
62
256
6
ByLayer
370
18
48
1
60
0
100
AcDbLine
10
34.037055
20
2.0001
30
0
11
48
21
2.0001
31
0
39
0
210
0
220
0
230
1
0
LINE
5
D1
100
AcDbEntity
8
2
62
256
6
ByLayer
370
18
48
1
60
0
100
AcDbLine
10
34.037055
20
-2.0001
30
0
11
48
21
-2.0001
31
0
39
0
210
0
220
0
230
1
0
LINE
5
D2
100
AcDbEntity
8
1
62
256
6
ByLayer
370
18
48
1
60
1
100
AcDbLine
10
46
20
2.0001
30
0
11
45.539216
21
5.500098
31
0
39
0
210
0
220
0
230
1
0
LINE
5
D3
100
AcDbEntity
8
1
62
256
6
ByLayer
370
18
48
1
60
1
100
AcDbLine
10
45.539216
20
5.500098
30
0
11
46.460784
21
5.500102
31
0
39
0
210
0
220
0
230
1
0
LINE
5
D4
100
AcDbEntity
8
1
62
256
6
ByLayer
370
18
48
1
60
1
100
AcDbLine
10
46.460784
20
5.500102
30
0
11
46
21
2.0001
31
0
39
0
210
0
220
0
230
1
0
LINE
5
D5
100
AcDbEntity
8
1
62
256
6
ByLayer
370
18
48
1
60
1
100
AcDbLine
10
46
20
-2.0001
30
0
11
46.460784
21
-5.500098
31
0
39
0
210
0
220
0
230
1
0
LINE
5
D6
100
AcDbEntity
8
1
62
256
6
ByLayer
370
18
48
1
60
1
100
AcDbLine
10
46.460784
20
-5.500098
30
0
11
45.539216
21
-5.500102
31
0
39
0
210
0
220
0
230
1
0
LINE
5
D7
100
AcDbEntity
8
1
62
256
6
ByLayer
370
18
48
1
60
1
100
AcDbLine
10
45.539216
20
-5.500102
30
0
11
46
21
-2.0001
31
0
39
0
210
0
220
0
230
1
0
LINE
5
D8
100
AcDbEntity
8
SK2
62
256
6
ByLayer
370
18
48
1
60
0
100
AcDbLine
10
34
20
-47.1
30
0
11
-36
21
-47.1
31
0
39
0
210
0
220
0
230
1
0
LINE
5
D9
100
AcDbEntity
8
SK2
62
256
6
ByLayer
370
18
48
1
60
0
100
AcDbLine
10
-36
20
-4.1875
30
0
11
-36
21
-49.1
31
0
39
0
210
0
220
0
230
1
0
LINE
5
DA
100
AcDbEntity
8
SK2
62
256
6
ByLayer
370
18
48
1
60
0
100
AcDbLine
10
34
20
-1.5875
30
0
11
34
21
-49.1
31
0
39
0
210
0
220
0
230
1
0
LINE
5
DB
100
AcDbEntity
8
1
62
256
6
ByLayer
370
18
48
1
60
1
100
AcDbLine
10
-36
20
-47.1
30
0
11
-32.500002
21
-46.639216
31
0
39
0
210
0
220
0
230
1
0
LINE
5
DC
100
AcDbEntity
8
1
62
256
6
ByLayer
370
18
48
1
60
1
100
AcDbLine
10
-32.500002
20
-46.639216
30
0
11
-32.499998
21
-47.560784
31
0
39
0
210
0
220
0
230
1
0
LINE
5
DD
100
AcDbEntity
8
1
62
256
6
ByLayer
370
18
48
1
60
1
100
AcDbLine
10
-32.499998
20
-47.560784
30
0
11
-36
21
-47.1
31
0
39
0
210
0
220
0
230
1
0
LINE
5
DE
100
AcDbEntity
8
1
62
256
6
ByLayer
370
18
48
1
60
1
100
AcDbLine
10
34
20
-47.1
30
0
11
30.500002
21
-47.560784
31
0
39
0
210
0
220
0
230
1
0
LINE
5
DF
100
AcDbEntity
8
1
62
256
6
ByLayer
370
18
48
1
60
1
100
AcDbLine
10
30.500002
20
-47.560784
30
0
11
30.499998
21
-46.639216
31
0
39
0
210
0
220
0
230
1
0
LINE
5
E0
100
AcDbEntity
8
1
62
256
6
ByLayer
370
18
48
1
60
1
100
AcDbLine
10
30.499998
20
-46.639216
30
0
11
34
21
-47.1
31
0
39
0
210
0
220
0
230
1
0
LINE
5
E1
100
AcDbEntity
8
SK2
62
256
6
ByLayer
370
13
48
1
60
0
100
AcDbLine
10
33.227524
20
-1.578983
30
0
11
43.990902
21
-15.424083
31
0
39
0
210
0
220
0
230
1
0
LINE
5
E2
100
AcDbEntity
8
1
62
256
6
ByLayer
370
18
48
1
60
1
100
AcDbLine
10
33.227524
20
-1.578983
30
0
11
35.739473
21
-4.059389
31
0
39
0
210
0
220
0
230
1
0
LINE
5
E3
100
AcDbEntity
8
1
62
256
6
ByLayer
370
18
48
1
60
1
100
AcDbLine
10
35.739473
20
-4.059389
30
0
11
35.011906
21
-4.625015
31
0
39
0
210
0
220
0
230
1
0
LINE
5
E4
100
AcDbEntity
8
1
62
256
6
ByLayer
370
18
48
1
60
1
100
AcDbLine
10
35.011906
20
-4.625015
30
0
11
33.227524
21
-1.578983
31
0
39
0
210
0
220
0
230
1
0
LINE
5
190
100
AcDbEntity
8
1
62
256
6
ByLayer
370
18
48
1
60
1
100
AcDbLine
10
-43.85
20
3
30
0
11
-44.310784
21
6.499998
31
0
39
0
210
0
220
0
230
1
0
LINE
5
191
100
AcDbEntity
8
1
62
256
6
ByLayer
370
18
48
1
60
1
100
AcDbLine
10
-44.310784
20
6.499998
30
0
11
-43.389216
21
6.500002
31
0
39
0
210
0
220
0
230
1
0
LINE
5
192
100
AcDbEntity
8
1
62
256
6
ByLayer
370
18
48
1
60
1
100
AcDbLine
10
-43.389216
20
6.500002
30
0
11
-43.85
21
3
31
0
39
0
210
0
220
0
230
1
0
LINE
5
194
100
AcDbEntity
8
1
62
256
6
ByLayer
370
18
48
1
60
1
100
AcDbLine
10
-43.85
20
-3
30
0
11
-43.389216
21
-6.499998
31
0
39
0
210
0
220
0
230
1
0
LINE
5
195
100
AcDbEntity
8
1
62
256
6
ByLayer
370
18
48
1
60
1
100
AcDbLine
10
-43.389216
20
-6.499998
30
0
11
-44.310784
21
-6.500002
31
0
39
0
210
0
220
0
230
1
0
LINE
5
196
100
AcDbEntity
8
1
62
256
6
ByLayer
370
18
48
1
60
1
100
AcDbLine
10
-44.310784
20
-6.500002
30
0
11
-43.85
21
-3
31
0
39
0
210
0
220
0
230
1
0
LINE
5
19A
100
AcDbEntity
8
1
62
256
6
ByLayer
370
18
48
1
60
1
100
AcDbLine
10
46
20
2.0001
30
0
11
45.539216
21
5.500098
31
0
39
0
210
0
220
0
230
1
0
LINE
5
19B
100
AcDbEntity
8
1
62
256
6
ByLayer
370
18
48
1
60
1
100
AcDbLine
10
45.539216
20
5.500098
30
0
11
46.460784
21
5.500102
31
0
39
0
210
0
220
0
230
1
0
LINE
5
19C
100
AcDbEntity
8
1
62
256
6
ByLayer
370
18
48
1
60
1
100
AcDbLine
10
46.460784
20
5.500102
30
0
11
46
21
2.0001
31
0
39
0
210
0
220
0
230
1
0
LINE
5
19E
100
AcDbEntity
8
1
62
256
6
ByLayer
370
18
48
1
60
1
100
AcDbLine
10
46
20
-2.0001
30
0
11
46.460784
21
-5.500098
31
0
39
0
210
0
220
0
230
1
0
LINE
5
19F
100
AcDbEntity
8
1
62
256
6
ByLayer
370
18
48
1
60
1
100
AcDbLine
10
46.460784
20
-5.500098
30
0
11
45.539216
21
-5.500102
31
0
39
0
210
0
220
0
230
1
0
LINE
5
1A0
100
AcDbEntity
8
1
62
256
6
ByLayer
370
18
48
1
60
1
100
AcDbLine
10
45.539216
20
-5.500102
30
0
11
46
21
-2.0001
31
0
39
0
210
0
220
0
230
1
0
LINE
5
1A3
100
AcDbEntity
8
1
62
256
6
ByLayer
370
18
48
1
60
1
100
AcDbLine
10
-36
20
-47.1
30
0
11
-32.500002
21
-46.639216
31
0
39
0
210
0
220
0
230
1
0
LINE
5
1A4
100
AcDbEntity
8
1
62
256
6
ByLayer
370
18
48
1
60
1
100
AcDbLine
10
-32.500002
20
-46.639216
30
0
11
-32.499998
21
-47.560784
31
0
39
0
210
0
220
0
230
1
0
LINE
5
1A5
100
AcDbEntity
8
1
62
256
6
ByLayer
370
18
48
1
60
1
100
AcDbLine
10
-32.499998
20
-47.560784
30
0
11
-36
21
-47.1
31
0
39
0
210
0
220
0
230
1
0
LINE
5
1A7
100
AcDbEntity
8
1
62
256
6
ByLayer
370
18
48
1
60
1
100
AcDbLine
10
34
20
-47.1
30
0
11
30.500002
21
-47.560784
31
0
39
0
210
0
220
0
230
1
0
LINE
5
1A8
100
AcDbEntity
8
1
62
256
6
ByLayer
370
18
48
1
60
1
100
AcDbLine
10
30.500002
20
-47.560784
30
0
11
30.499998
21
-46.639216
31
0
39
0
210
0
220
0
230
1
0
LINE
5
1A9
100
AcDbEntity
8
1
62
256
6
ByLayer
370
18
48
1
60
1
100
AcDbLine
10
30.499998
20
-46.639216
30
0
11
34
21
-47.1
31
0
39
0
210
0
220
0
230
1
0
LINE
5
1AD
100
AcDbEntity
8
1
62
256
6
ByLayer
370
18
48
1
60
1
100
AcDbLine
10
33.227524
20
-1.578983
30
0
11
35.739473
21
-4.059389
31
0
39
0
210
0
220
0
230
1
0
LINE
5
1AE
100
AcDbEntity
8
1
62
256
6
ByLayer
370
18
48
1
60
1
100
AcDbLine
10
35.739473
20
-4.059389
30
0
11
35.011906
21
-4.625015
31
0
39
0
210
0
220
0
230
1
0
LINE
5
1AF
100
AcDbEntity
8
1
62
256
6
ByLayer
370
18
48
1
60
1
100
AcDbLine
10
35.011906
20
-4.625015
30
0
11
33.227524
21
-1.578983
31
0
39
0
210
0
220
0
230
1
0
MTEXT
5
18C
100
AcDbEntity
8
SK2
62
256
6
ByLayer
370
18
48
1
60
0
100
AcDbMText
10
-45.414634
20
-17.380622
30
0
210
0
220
0
230
1
1
%%c
40
3.5
41
0
44
1.084337
50
90
71
7
72
5
7
iso_b_vert
0
MTEXT
5
18F
100
AcDbEntity
8
SK2
62
256
6
ByLayer
370
18
48
1
60
0
100
AcDbMText
10
-45.414634
20
-10.407966
30
0
210
0
220
0
230
1
1
\W0.5404;6
40
3.5
41
0
44
1.084337
50
90
71
7
72
5
7
iso_b_vert
0
MTEXT
5
198
100
AcDbEntity
8
2
62
256
6
ByLayer
370
18
48
1
60
0
100
AcDbMText
10
44.435366
20
9.934944
30
0
210
0
220
0
230
1
1
%%c
40
3.5
41
0
44
1.084337
50
90
71
7
72
5
7
iso_b_vert
0
MTEXT
5
199
100
AcDbEntity
8
2
62
256
6
ByLayer
370
18
48
1
60
0
100
AcDbMText
10
44.435366
20
16.9076
30
0
210
0
220
0
230
1
1
\W0.6380;4
40
3.5
41
0
44
1.084337
50
90
71
7
72
5
7
iso_b_vert
0
MTEXT
5
1A2
100
AcDbEntity
8
SK2
62
256
6
ByLayer
370
18
48
1
60
0
100
AcDbMText
10
-2.904966
20
-46.067366
30
0
210
0
220
0
230
1
1
\W0.6740;70
40
3.5
41
0
44
1.084337
50
0
71
7
72
5
7
iso_b_vert
0
MTEXT
5
1AB
100
AcDbEntity
8
SK2
62
256
6
ByLayer
370
18
48
1
60
0
100
AcDbMText
10
41.645391
20
-10.585052
30
0
210
0
220
0
230
1
1
\W0.6380;R
40
3.5
41
0
44
1.084337
50
307.862003950211
71
7
72
5
7
iso_b_vert
0
MTEXT
5
1AC
100
AcDbEntity
8
SK2
62
256
6
ByLayer
370
18
48
1
60
0
100
AcDbMText
10
43.906489
20
-13.493538
30
0
210
0
220
0
230
1
1
\W0.5404;2
40
3.5
41
0
44
1.084337
50
307.862003950211
71
7
72
5
7
iso_b_vert
0
MTEXT
5
1B1
100
AcDbEntity
8
SK6
62
256
6
ByLayer
370
18
48
1
60
0
100
AcDbMText
10
-26.887969
20
-62.114886
30
0
210
0
220
0
230
1
1
\W0.7455;2B286-0400-TA       T2CH
40
3
41
0
44
1.084337
50
0
71
7
72
5
7
iso_b_vert
0
HATCH
5
193
100
AcDbEntity
8
SK2
62
256
6
ByLayer
370
13
48
1
60
0
100
AcDbHatch
10
0
20
0
30
0
210
0
220
0
230
1
2
ANSI31
70
0
71
0
91
1
92
5
93
3
72
1
10
-43.85
20
2.99999999999994
11
-44.3107837415528
21
6.49999830744676
72
1
10
-44.3107837415528
20
6.49999830744676
11
-43.3892162584472
21
6.50000169255313
72
1
10
-43.3892162584472
20
6.50000169255313
11
-43.85
21
2.99999999999994
97
0
75
0
76
1
52
0
41
0.0062
77
0
78
1
53
45
43
0
44
0
45
-0.0139193969876572
46
0.0139193969876572
79
0
47
0
98
1
10
0
20
0
0
HATCH
5
197
100
AcDbEntity
8
SK2
62
256
6
ByLayer
370
13
48
1
60
0
100
AcDbHatch
10
0
20
0
30
0
210
0
220
0
230
1
2
ANSI31
70
0
71
0
91
1
92
5
93
3
72
1
10
-43.85
20
-3.00000000000006
11
-43.3892162584472
21
-6.49999830744687
72
1
10
-43.3892162584472
20
-6.49999830744687
11
-44.3107837415528
21
-6.50000169255324
72
1
10
-44.3107837415528
20
-6.50000169255324
11
-43.85
21
-3.00000000000006
97
0
75
0
76
1
52
0
41
0.0062
77
0
78
1
53
45
43
0
44
0
45
-0.0139193969876572
46
0.0139193969876572
79
0
47
0
98
1
10
0
20
0
0
HATCH
5
19D
100
AcDbEntity
8
2
62
256
6
ByLayer
370
13
48
1
60
0
100
AcDbHatch
10
0
20
0
30
0
210
0
220
0
230
1
2
ANSI31
70
0
71
0
91
1
92
5
93
3
72
1
10
46
20
2.00009999999986
11
45.5392162584472
21
5.50009830744668
72
1
10
45.5392162584472
20
5.50009830744668
11
46.4607837415528
21
5.50010169255305
72
1
10
46.4607837415528
20
5.50010169255305
11
46
21
2.00009999999986
97
0
75
0
76
1
52
0
41
0.0062
77
0
78
1
53
45
43
0
44
0
45
-0.0139193969876572
46
0.0139193969876572
79
0
47
0
98
1
10
0
20
0
0
HATCH
5
1A1
100
AcDbEntity
8
2
62
256
6
ByLayer
370
13
48
1
60
0
100
AcDbHatch
10
0
20
0
30
0
210
0
220
0
230
1
2
ANSI31
70
0
71
0
91
1
92
5
93
3
72
1
10
46
20
-2.00010000000012
11
46.4607837415528
21
-5.50009830744693
72
1
10
46.4607837415528
20
-5.50009830744693
11
45.5392162584472
21
-5.5001016925533
72
1
10
45.5392162584472
20
-5.5001016925533
11
46
21
-2.00010000000012
97
0
75
0
76
1
52
0
41
0.0062
77
0
78
1
53
45
43
0
44
0
45
-0.0139193969876572
46
0.0139193969876572
79
0
47
0
98
1
10
0
20
0
0
HATCH
5
1A6
100
AcDbEntity
8
SK2
62
256
6
ByLayer
370
13
48
1
60
0
100
AcDbHatch
10
0
20
0
30
0
210
0
220
0
230
1
2
ANSI31
70
0
71
0
91
1
92
5
93
3
72
1
10
-36
20
-47.1000000000001
11
-32.5000016925532
21
-46.6392162584474
72
1
10
-32.5000016925532
20
-46.6392162584474
11
-32.4999983074468
21
-47.5607837415529
72
1
10
-32.4999983074468
20
-47.5607837415529
11
-36
21
-47.1000000000001
97
0
75
0
76
1
52
0
41
0.0062
77
0
78
1
53
45
43
0
44
0
45
-0.0139193969876572
46
0.0139193969876572
79
0
47
0
98
1
10
0
20
0
0
HATCH
5
1AA
100
AcDbEntity
8
SK2
62
256
6
ByLayer
370
13
48
1
60
0
100
AcDbHatch
10
0
20
0
30
0
210
0
220
0
230
1
2
ANSI31
70
0
71
0
91
1
92
5
93
3
72
1
10
34
20
-47.1000000000001
11
30.5000016925532
21
-47.5607837415529
72
1
10
30.5000016925532
20
-47.5607837415529
11
30.4999983074468
21
-46.6392162584474
72
1
10
30.4999983074468
20
-46.6392162584474
11
34
21
-47.1000000000001
97
0
75
0
76
1
52
0
41
0.0062
77
0
78
1
53
45
43
0
44
0
45
-0.0139193969876572
46
0.0139193969876572
79
0
47
0
98
1
10
0
20
0
0
HATCH
5
1B0
100
AcDbEntity
8
SK2
62
256
6
ByLayer
370
13
48
1
60
0
100
AcDbHatch
10
0
20
0
30
0
210
0
220
0
230
1
2
ANSI31
70
0
71
0
91
1
92
5
93
3
72
1
10
33.2275235581652
20
-1.57898255663255
11
35.7394734912756
21
-4.05938924549559
72
1
10
35.7394734912756
20
-4.05938924549559
11
35.0119060786328
21
-4.62501481598309
72
1
10
35.0119060786328
20
-4.62501481598309
11
33.2275235581652
21
-1.57898255663255
97
0
75
0
76
1
52
0
41
0.0062
77
0
78
1
53
45
43
0
44
0
45
-0.0139193969876572
46
0.0139193969876572
79
0
47
0
98
1
10
0
20
0
0
DIMENSION
5
1B4
100
AcDbEntity
8
SK2
62
256
6
ByLayer
370
18
48
1
60
0
100
AcDbDimension
2
_U0
10
0
20
-37.1
30
0
11
17
21
-37.1
31
0
70
32
71
1
72
1
41
1
210
0
220
0
230
1
3
Standard
100
AcDbAlignedDimension
13
34
23
0
33
0
14
0
24
0
34
0
50
0
100
AcDbRotatedDimension
1001
ACAD
1000
DSTYLE
1002
{
1070
   371
1070
    13
1070
   372
1070
    13
1070
   170
1070
     0
1070
   144
1040
1.0
1070
   277
1070
     2
1070
   284
1070
     8
1070
   278
1070
    46
1070
   146
1040
1.0
1070
   345
1005
16
1070
   347
1005
16
1070
   346
1005
16
1070
   344
1005
0
1070
   343
1005
0
1070
   172
1070
     1
1070
    76
1070
     0
1070
    75
1070
     0
1070
   282
1070
     0
1070
   281
1070
     0
1070
    71
1070
     0
1070
    74
1070
     0
1070
   279
1070
     0
1070
   173
1070
     1
1070
   340
1005
18D
1070
   271
1070
     2
1070
   272
1070
     2
1070
    77
1070
     1
1070
    73
1070
     1
1070
   171
1070
     3
1070
   274
1070
     4
1070
   177
1070
     2
1070
   176
1070
     2
1070
   178
1070
     2
1070
    78
1070
     8
1070
    48
1040
-0.1
1070
    41
1040
3.5
1070
   147
1040
1.75
1070
    42
1040
1.5875
1070
    44
1040
2.0
1070
   140
1040
3.5
1002
}
1001
ACAD_DSTYLE_DIM_LINETYPE
1070
   380
1005
16
1001
ACAD_DSTYLE_DIM_EXT1_LINETYPE
1070
   381
1005
16
1001
ACAD_DSTYLE_DIM_EXT2_LINETYPE
1070
   382
1005
16
0
DIMENSION
5
1CD
100
AcDbEntity
8
2
62
256
6
ByLayer
370
18
48
1
60
0
100
AcDbDimension
2
_U1
10
28
20
-20.6
30
0
11
47.333333
21
-20.6
31
0
70
32
71
1
72
1
41
1
210
0
220
0
230
1
3
Standard
100
AcDbAlignedDimension
13
34
23
0
33
0
14
28
24
0
34
0
50
0
100
AcDbRotatedDimension
1001
ACAD
1000
DSTYLE
1002
{
1070
   371
1070
    13
1070
   372
1070
    13
1070
   170
1070
     0
1070
   144
1040
1.0
1070
   277
1070
     2
1070
   284
1070
     8
1070
   278
1070
    46
1070
   146
1040
1.0
1070
   345
1005
16
1070
   347
1005
16
1070
   346
1005
16
1070
   344
1005
0
1070
   343
1005
0
1070
   172
1070
     1
1070
    76
1070
     0
1070
    75
1070
     0
1070
   282
1070
     0
1070
   281
1070
     0
1070
    71
1070
     0
1070
    74
1070
     0
1070
   279
1070
     0
1070
   173
1070
     1
1070
   340
1005
18D
1070
   271
1070
     2
1070
   272
1070
     2
1070
    77
1070
     1
1070
    73
1070
     1
1070
   171
1070
     3
1070
   274
1070
     4
1070
   177
1070
     2
1070
   176
1070
     2
1070
   178
1070
     2
1070
    78
1070
     8
1070
    48
1040
-0.1
1070
    41
1040
3.5
1070
   147
1040
1.75
1070
    42
1040
1.5875
1070
    44
1040
2.0
1070
   140
1040
3.5
1002
}
1001
ACAD_DSTYLE_DIM_LINETYPE
1070
   380
1005
16
1001
ACAD_DSTYLE_DIM_EXT1_LINETYPE
1070
   381
1005
16
1001
ACAD_DSTYLE_DIM_EXT2_LINETYPE
1070
   382
1005
16
0
ENDSEC
0
SECTION
2
OBJECTS
0
DICTIONARY
5
257
330
0
100
AcDbDictionary
280
0
281
1
3
ACAD_GROUP
350
258
3
ACAD_MLINESTYLE
350
259
0
DICTIONARY
5
258
330
0
100
AcDbDictionary
280
0
281
1
0
DICTIONARY
5
259
330
0
100
AcDbDictionary
280
0
281
1
3
Standard
350
18
0
MLINESTYLE
5
18
330
259
100
AcDbMlineStyle
2
Standard
70
0
3

62
256
51
90
52
90
71
2
49
-0.5
62
256
6
ByLayer
49
0.5
62
256
6
ByLayer
0
RASTERVARIABLES
5
245
330

100
AcDbRasterVariables
90
0
70
1
71
1
72
1
0
ENDSEC
0
EOF
