0
SECTION
2
HEADER
9
$ACADVER
1
AC1015
9
$DWGCODEPAGE
3
ANSI_1252
9
$HANDSEED
5
24b
9
$ANGBASE
50
0
9
$ANGDIR
70
0
9
$ATTMODE
70
1
9
$AUNITS
70
0
9
$AUPREC
70
0
9
$CECOLOR
62
256
9
$CELTSCALE
40
1
9
$CELTYPE
6
ByLayer
9
$CELWEIGHT
370
18
9
$CLAYER
8
0
9
$CMLJUST
70
0
9
$CMLSCALE
40
1
9
$CMLSTYLE
2
Standard
9
$DIMSTYLE
2
Standard
9
$TEXTSIZE
40
0.2
9
$TEXTSTYLE
7
Standard
9
$LUNITS
70
2
9
$LUPREC
70
4
9
$EXTNAMES
290
1
9
$INSUNITS
70
4
9
$LTSCALE
40
1
9
$LWDISPLAY
290
1
9
$PDMODE
70
0
9
$PDSIZE
40
0
9
$PLINEGEN
70
0
0
ENDSEC
0
SECTION
2
CLASSES
0
CLASS
1
RASTERVARIABLES
2
AcDbRasterVariables
3
ISM
90
0
280
0
281
0
0
ENDSEC
0
SECTION
2
TABLES
0
TABLE
2
VPORT
5
241
100
AcDbSymbolTable
0
VPORT
5
1
100
AcDbSymbolTableRecord
100
AcDbViewportTableRecord
2
*Active
70
0
10
0
20
0
11
1
21
1
12
-1
22
1
13
0
23
0
14
0.5
24
0.5
15
10
25
10
16
0
26
0
36
1
17
0
27
0
37
0
0
ENDTAB
0
TABLE
2
LTYPE
5
242
100
AcDbSymbolTable
0
LTYPE
5
14
100
AcDbSymbolTableRecord
100
AcDbLinetypeTableRecord
70
0
2
ByBlock
3

72
65
73
0
40
0
0
LTYPE
5
15
100
AcDbSymbolTableRecord
100
AcDbLinetypeTableRecord
70
0
2
ByLayer
3

72
65
73
0
40
0
0
LTYPE
5
16
100
AcDbSymbolTableRecord
100
AcDbLinetypeTableRecord
70
0
2
Continuous
3
Solid line
72
65
73
0
40
0
0
LTYPE
5
6E
100
AcDbSymbolTableRecord
100
AcDbLinetypeTableRecord
70
0
2
CENTER
3
____ _ ____ _ ____ _ ____
72
65
73
4
40
47.5
49
22
74
0
49
-8.5
74
0
49
8.5
74
0
49
-8.5
74
0
0
LTYPE
5
6F
100
AcDbSymbolTableRecord
100
AcDbLinetypeTableRecord
70
0
2
DASHED
3
__ __ __ __ __ __ __ __ __
72
65
73
2
40
25.72
49
12.86
74
0
49
-12.86
74
0
0
ENDTAB
0
TABLE
2
LAYER
5
243
100
AcDbSymbolTable
0
LAYER
5
10
100
AcDbSymbolTableRecord
100
AcDbLayerTableRecord
2
0
70
0
62
7
6
Continuous
290
1
370
-3
390
0
0
LAYER
5
71
100
AcDbSymbolTableRecord
100
AcDbLayerTableRecord
2
80
70
0
62
-6
6
Continuous
290
1
370
-3
390
0
0
LAYER
5
73
100
AcDbSymbolTableRecord
100
AcDbLayerTableRecord
2
81
70
0
62
-3
6
Continuous
290
1
370
-3
390
0
0
LAYER
5
75
100
AcDbSymbolTableRecord
100
AcDbLayerTableRecord
2
1
70
0
62
4
6
Continuous
290
1
370
-3
390
0
0
LAYER
5
7E
100
AcDbSymbolTableRecord
100
AcDbLayerTableRecord
2
4
70
0
62
-2
6
CENTER
290
1
370
-3
390
0
0
LAYER
5
C4
100
AcDbSymbolTableRecord
100
AcDbLayerTableRecord
2
2
70
0
62
7
6
Continuous
290
1
370
-3
390
0
0
LAYER
5
19E
100
AcDbSymbolTableRecord
100
AcDbLayerTableRecord
2
Defpoints
70
0
62
7
6
Continuous
290
0
370
-3
390
0
0
LAYER
5
22d
100
AcDbSymbolTableRecord
100
AcDbLayerTableRecord
2
SK4
70
0
62
2
6
CENTER
290
1
370
-3
390
0
0
LAYER
5
22e
100
AcDbSymbolTableRecord
100
AcDbLayerTableRecord
2
SK1
70
0
62
4
6
Continuous
290
1
370
-3
390
0
0
LAYER
5
22f
100
AcDbSymbolTableRecord
100
AcDbLayerTableRecord
2
SK2
70
0
62
7
6
Continuous
290
1
370
-3
390
0
0
LAYER
5
230
100
AcDbSymbolTableRecord
100
AcDbLayerTableRecord
2
SK6
70
0
62
5
6
Continuous
290
1
370
-3
390
0
0
ENDTAB
0
TABLE
2
STYLE
5
244
100
AcDbSymbolTable
0
STYLE
5
11
100
AcDbSymbolTableRecord
100
AcDbTextStyleTableRecord
2
Standard
3
txt
70
0
71
0
40
0
41
1
42
0
50
0
0
STYLE
5
174
100
AcDbSymbolTableRecord
100
AcDbTextStyleTableRecord
2
iso_b_vert
3
simplex.shx
70
0
71
0
40
0
41
1
42
0
50
0
0
STYLE
5
175
100
AcDbSymbolTableRecord
100
AcDbTextStyleTableRecord
2
DWGDirectTextStyle
3
simplex
70
0
71
0
40
0
41
1
42
0
50
0
0
ENDTAB
0
TABLE
2
DIMSTYLE
5
245
100
AcDbSymbolTable
100
AcDbDimStyleTable
0
DIMSTYLE
105
27
100
AcDbSymbolTableRecord
100
AcDbDimStyleTableRecord
2
Standard
70
0
3
<>
41
0.18
42
0.0625
44
0.18
140
0.18
147
0.09
73
0
74
0
77
1
271
2
275
0
278
52
280
0
340
11
0
ENDTAB
0
TABLE
2
VIEW
5
246
100
AcDbSymbolTable
0
ENDTAB
0
TABLE
2
UCS
5
247
100
AcDbSymbolTable
0
ENDTAB
0
TABLE
2
APPID
5
248
100
AcDbSymbolTable
0
APPID
5
12
100
AcDbSymbolTableRecord
100
AcDbRegAppTableRecord
2
ACAD
70
0
0
APPID
5
19A
100
AcDbSymbolTableRecord
100
AcDbRegAppTableRecord
2
ACAD_DSTYLE_DIMBREAK
70
0
0
APPID
5
1EC
100
AcDbSymbolTableRecord
100
AcDbRegAppTableRecord
2
ACAD_DSTYLE_DIM_LINETYPE
70
0
0
APPID
5
1ED
100
AcDbSymbolTableRecord
100
AcDbRegAppTableRecord
2
ACAD_DSTYLE_DIM_EXT1_LINETYPE
70
0
0
APPID
5
1EE
100
AcDbSymbolTableRecord
100
AcDbRegAppTableRecord
2
ACAD_DSTYLE_DIM_EXT2_LINETYPE
70
0
0
APPID
5
229
100
AcDbSymbolTableRecord
100
AcDbRegAppTableRecord
2
ACAD_MLEADERVER
70
0
0
ENDTAB
0
TABLE
2
BLOCK_RECORD
5
249
100
AcDbSymbolTable
0
BLOCK_RECORD
5
1F
100
AcDbSymbolTableRecord
100
AcDbBlockTableRecord
2
*Model_Space
340
0
70
0
0
BLOCK_RECORD
5
1B
100
AcDbSymbolTableRecord
100
AcDbBlockTableRecord
2
*Paper_Space
340
0
70
0
0
BLOCK_RECORD
5
23
100
AcDbSymbolTableRecord
100
AcDbBlockTableRecord
2
*Paper_Space0
340
0
70
0
0
BLOCK_RECORD
5
19F
100
AcDbSymbolTableRecord
100
AcDbBlockTableRecord
2
*D1
340
0
70
0
0
BLOCK_RECORD
5
1AB
100
AcDbSymbolTableRecord
100
AcDbBlockTableRecord
2
_U0
340
0
70
0
0
BLOCK_RECORD
5
1B7
100
AcDbSymbolTableRecord
100
AcDbBlockTableRecord
2
*D3
340
0
70
0
0
BLOCK_RECORD
5
1C5
100
AcDbSymbolTableRecord
100
AcDbBlockTableRecord
2
_U1
340
0
70
0
0
ENDTAB
0
ENDSEC
0
SECTION
2
BLOCKS
0
BLOCK
5
20
100
AcDbEntity
8
0
100
AcDbBlockBegin
2
*Model_Space
70
0
10
0
20
0
30
0
3
*Model_Space
0
ENDBLK
5
21
100
AcDbEntity
8
0
100
AcDbBlockEnd
0
BLOCK
5
1C
100
AcDbEntity
8
0
100
AcDbBlockBegin
2
*Paper_Space
70
0
10
0
20
0
30
0
3
*Paper_Space
0
ENDBLK
5
1D
100
AcDbEntity
8
0
100
AcDbBlockEnd
0
BLOCK
5
24
100
AcDbEntity
8
0
100
AcDbBlockBegin
2
*Paper_Space0
70
0
10
0
20
0
30
0
3
*Paper_Space0
0
ENDBLK
5
25
100
AcDbEntity
8
0
100
AcDbBlockEnd
0
BLOCK
5
1A0
100
AcDbEntity
8
0
100
AcDbBlockBegin
2
*D1
70
1
10
0
20
0
30
0
3
*D1
0
LINE
5
1A2
100
AcDbEntity
8
0
62
256
6
ByLayer
370
-2
48
1
60
0
100
AcDbLine
10
32
20
-1.5875
30
0
11
32
21
-41.167729
31
0
39
0
210
0
220
0
230
1
0
LINE
5
1A3
100
AcDbEntity
8
0
62
256
6
ByLayer
370
-2
48
1
60
0
100
AcDbLine
10
0
20
-1.5875
30
0
11
0
21
-41.167729
31
0
39
0
210
0
220
0
230
1
0
LINE
5
1A4
100
AcDbEntity
8
0
62
256
6
ByLayer
370
-2
48
1
60
0
100
AcDbLine
10
28.5
20
-39.167729
30
0
11
3.5
21
-39.167729
31
0
39
0
210
0
220
0
230
1
0
SOLID
5
1A5
100
AcDbEntity
8
0
62
256
6
ByLayer
370
-1
48
1
60
0
100
AcDbTrace
10
28.5
20
-39.751062
30
0
11
28.5
21
-38.584396
31
0
12
32
22
-39.167729
32
0
13
32
23
-39.167729
33
0
39
0
210
0
220
0
230
1
0
SOLID
5
1A6
100
AcDbEntity
8
0
62
256
6
ByLayer
370
-1
48
1
60
0
100
AcDbTrace
10
3.5
20
-38.584396
30
0
11
3.5
21
-39.751062
31
0
12
0
22
-39.167729
32
0
13
0
23
-39.167729
33
0
39
0
210
0
220
0
230
1
0
MTEXT
5
1A7
100
AcDbEntity
8
0
62
256
6
ByLayer
370
18
48
1
60
0
100
AcDbMText
10
16
20
-32.167729
30
0
210
0
220
0
230
1
1
\A1;32
40
3.5
41
0
44
1
50
0
71
5
72
5
7
iso_b_vert
0
POINT
5
1A8
100
AcDbEntity
8
Defpoints
62
0
6
ByLayer
370
-1
48
1
60
0
100
AcDbPoint
10
32
20
0
30
0
39
0
210
0
220
0
230
1
50
360
0
POINT
5
1A9
100
AcDbEntity
8
Defpoints
62
0
6
ByLayer
370
-1
48
1
60
0
100
AcDbPoint
10
0
20
0
30
0
39
0
210
0
220
0
230
1
50
360
0
POINT
5
1AA
100
AcDbEntity
8
Defpoints
62
0
6
ByLayer
370
-1
48
1
60
0
100
AcDbPoint
10
0
20
-39.167729
30
0
39
0
210
0
220
0
230
1
50
360
0
ENDBLK
5
1A1
100
AcDbEntity
8
0
100
AcDbBlockEnd
0
BLOCK
5
1B2
100
AcDbEntity
8
0
100
AcDbBlockBegin
2
_U0
70
0
10
0
20
0
30
0
3
_U0
0
MTEXT
5
1AC
100
AcDbEntity
8
SK2
62
256
6
ByLayer
370
18
48
1
60
0
100
AcDbMText
10
14.095034
20
-38.135096
30
0
210
0
220
0
230
1
1
\W0.6740;32
40
3.5
41
0
44
1.084337
50
0
71
7
72
5
7
iso_b_vert
0
LINE
5
1AD
100
AcDbEntity
8
SK2
62
256
6
ByLayer
370
13
48
1
60
0
100
AcDbLine
10
32
20
-1.5875
30
0
11
32
21
-41.167729
31
0
39
0
210
0
220
0
230
1
0
LINE
5
1AE
100
AcDbEntity
8
SK2
62
256
6
ByLayer
370
13
48
1
60
0
100
AcDbLine
10
0
20
-1.5875
30
0
11
0
21
-41.167729
31
0
39
0
210
0
220
0
230
1
0
LINE
5
1AF
100
AcDbEntity
8
SK2
62
256
6
ByLayer
370
13
48
1
60
0
100
AcDbLine
10
32
20
-39.167729
30
0
11
0
21
-39.167729
31
0
39
0
210
0
220
0
230
1
0
SOLID
5
1B0
100
AcDbEntity
8
SK2
62
256
6
ByLayer
370
18
48
1
60
0
100
AcDbTrace
10
32
20
-39.167729
30
0
11
28.500002
21
-39.628513
31
0
12
28.499998
22
-38.706945
32
0
13
28.499998
23
-38.706945
33
0
39
0
210
0
220
0
230
1
0
SOLID
5
1B1
100
AcDbEntity
8
SK2
62
256
6
ByLayer
370
18
48
1
60
0
100
AcDbTrace
10
0
20
-39.167729
30
0
11
3.499998
21
-38.706945
31
0
12
3.500002
22
-39.628513
32
0
13
3.500002
23
-39.628513
33
0
39
0
210
0
220
0
230
1
0
ENDBLK
5
1B3
100
AcDbEntity
8
0
100
AcDbBlockEnd
0
BLOCK
5
1B8
100
AcDbEntity
8
0
100
AcDbBlockBegin
2
*D3
70
1
10
0
20
0
30
0
3
*D3
0
LINE
5
1BA
100
AcDbEntity
8
0
62
256
6
ByLayer
370
-2
48
1
60
0
100
AcDbLine
10
32
20
-1.5875
30
0
11
32
21
-24.667729
31
0
39
0
210
0
220
0
230
1
0
LINE
5
1BB
100
AcDbEntity
8
0
62
256
6
ByLayer
370
-2
48
1
60
0
100
AcDbLine
10
17
20
-1.5875
30
0
11
17
21
-24.667729
31
0
39
0
210
0
220
0
230
1
0
LINE
5
1BC
100
AcDbEntity
8
0
62
256
6
ByLayer
370
-2
48
1
60
0
100
AcDbLine
10
32
20
-22.667729
30
0
11
54.666667
21
-22.667729
31
0
39
0
210
0
220
0
230
1
0
LINE
5
1BD
100
AcDbEntity
8
0
62
256
6
ByLayer
370
-2
48
1
60
0
100
AcDbLine
10
35.5
20
-22.667729
30
0
11
39
21
-22.667729
31
0
39
0
210
0
220
0
230
1
0
LINE
5
1BE
100
AcDbEntity
8
0
62
256
6
ByLayer
370
-2
48
1
60
0
100
AcDbLine
10
13.5
20
-22.667729
30
0
11
10
21
-22.667729
31
0
39
0
210
0
220
0
230
1
0
SOLID
5
1BF
100
AcDbEntity
8
0
62
256
6
ByLayer
370
-1
48
1
60
0
100
AcDbTrace
10
35.5
20
-22.084396
30
0
11
35.5
21
-23.251062
31
0
12
32
22
-22.667729
32
0
13
32
23
-22.667729
33
0
39
0
210
0
220
0
230
1
0
SOLID
5
1C0
100
AcDbEntity
8
0
62
256
6
ByLayer
370
-1
48
1
60
0
100
AcDbTrace
10
13.5
20
-23.251062
30
0
11
13.5
21
-22.084396
31
0
12
17
22
-22.667729
32
0
13
17
23
-22.667729
33
0
39
0
210
0
220
0
230
1
0
MTEXT
5
1C1
100
AcDbEntity
8
0
62
256
6
ByLayer
370
18
48
1
60
0
100
AcDbMText
10
46.833333
20
-15.667729
30
0
210
0
220
0
230
1
1
\A1;15
40
3.5
41
0
44
1
50
0
71
5
72
5
7
iso_b_vert
0
POINT
5
1C2
100
AcDbEntity
8
Defpoints
62
0
6
ByLayer
370
-1
48
1
60
0
100
AcDbPoint
10
32
20
0
30
0
39
0
210
0
220
0
230
1
50
360
0
POINT
5
1C3
100
AcDbEntity
8
Defpoints
62
0
6
ByLayer
370
-1
48
1
60
0
100
AcDbPoint
10
17
20
0
30
0
39
0
210
0
220
0
230
1
50
360
0
POINT
5
1C4
100
AcDbEntity
8
Defpoints
62
0
6
ByLayer
370
-1
48
1
60
0
100
AcDbPoint
10
17
20
-22.667729
30
0
39
0
210
0
220
0
230
1
50
360
0
ENDBLK
5
1B9
100
AcDbEntity
8
0
100
AcDbBlockEnd
0
BLOCK
5
1CC
100
AcDbEntity
8
0
100
AcDbBlockBegin
2
_U1
70
0
10
0
20
0
30
0
3
_U1
0
MTEXT
5
1C6
100
AcDbEntity
8
2
62
256
6
ByLayer
370
18
48
1
60
0
100
AcDbMText
10
43.594896
20
-21.635096
30
0
210
0
220
0
230
1
1
\W0.5321;15
40
3.5
41
0
44
1.084337
50
0
71
7
72
5
7
iso_b_vert
0
LINE
5
1C7
100
AcDbEntity
8
2
62
256
6
ByLayer
370
13
48
1
60
0
100
AcDbLine
10
32
20
-1.5875
30
0
11
32
21
-24.667729
31
0
39
0
210
0
220
0
230
1
0
LINE
5
1C8
100
AcDbEntity
8
2
62
256
6
ByLayer
370
13
48
1
60
0
100
AcDbLine
10
17
20
-1.5875
30
0
11
17
21
-24.667729
31
0
39
0
210
0
220
0
230
1
0
LINE
5
1C9
100
AcDbEntity
8
2
62
256
6
ByLayer
370
13
48
1
60
0
100
AcDbLine
10
17
20
-22.667729
30
0
11
46.715462
21
-22.667729
31
0
39
0
210
0
220
0
230
1
0
SOLID
5
1CA
100
AcDbEntity
8
2
62
256
6
ByLayer
370
18
48
1
60
0
100
AcDbTrace
10
32
20
-22.667729
30
0
11
28.500002
21
-23.128513
31
0
12
28.499998
22
-22.206945
32
0
13
28.499998
23
-22.206945
33
0
39
0
210
0
220
0
230
1
0
SOLID
5
1CB
100
AcDbEntity
8
2
62
256
6
ByLayer
370
18
48
1
60
0
100
AcDbTrace
10
17
20
-22.667729
30
0
11
20.499998
21
-22.206945
31
0
12
20.500002
22
-23.128513
32
0
13
20.500002
23
-23.128513
33
0
39
0
210
0
220
0
230
1
0
ENDBLK
5
1CD
100
AcDbEntity
8
0
100
AcDbBlockEnd
0
ENDSEC
0
SECTION
2
ENTITIES
0
ELLIPSE
5
DA
100
AcDbEntity
8
1
62
256
6
ByLayer
370
18
48
1
60
0
100
AcDbEllipse
10
17.173205
20
-9.565181
30
0
11
2.47651914467898
21
4.44570669516376
31
0
210
0
220
0
230
1
40
0.820013
41
0.636028562012894
42
0.688651349298714
0
ELLIPSE
5
DB
100
AcDbEntity
8
1
62
256
6
ByLayer
370
18
48
1
60
0
100
AcDbEllipse
10
32.258609
20
-0.434063
30
0
11
0.311789832247089
21
0.221599930992599
31
0
210
0
220
0
230
1
40
0.729272
41
2.13951930103855
42
2.89153475834128
0
ELLIPSE
5
DC
100
AcDbEntity
8
1
62
256
6
ByLayer
370
18
48
1
60
0
100
AcDbEllipse
10
31.654707
20
0.425233
30
0
11
0.00225013779728219
21
-0.349624604417461
31
0
210
0
220
0
230
1
40
0.436777
41
-2.60658835557935
42
-0.468560021886325
0
ELLIPSE
5
DD
100
AcDbEntity
8
1
62
256
6
ByLayer
370
18
48
1
60
0
100
AcDbEllipse
10
17.173205
20
9.457024
30
0
11
-2.6626104665414
21
4.33681456795765
31
0
210
0
220
0
230
1
40
0.809793
41
2.35670166977299
42
2.45357653849568
0
ELLIPSE
5
DE
100
AcDbEntity
8
1
62
256
6
ByLayer
370
18
48
1
60
0
100
AcDbEllipse
10
17.173205
20
-7.555351
30
0
11
-3.75872220895454
21
3.4306650156052
31
0
210
0
220
0
230
1
40
0.670747
41
-0.982140008285157
42
-0.885265139561964
0
ELLIPSE
5
DF
100
AcDbEntity
8
1
62
256
6
ByLayer
370
18
48
1
60
0
100
AcDbEllipse
10
17.173205
20
2.243301
30
0
11
-4.38556950620621
21
2.58151800296256
31
0
210
0
220
0
230
1
40
0.168793
41
1.53364371620547
42
1.63051858492786
0
ELLIPSE
5
E0
100
AcDbEntity
8
1
62
256
6
ByLayer
370
18
48
1
60
0
100
AcDbEllipse
10
18.363831
20
0
30
0
11
11.1379925530454
21
-3.065507424091
31
0
210
0
220
0
230
1
40
0.354644
41
-1.66766366914975
42
-1.59566904000393
0
ELLIPSE
5
E1
100
AcDbEntity
8
1
62
256
6
ByLayer
370
18
48
1
60
0
100
AcDbEllipse
10
18.450893
20
0
30
0
11
11.9045827025573
21
-4.99010704724271
31
0
210
0
220
0
230
1
40
0.026409
41
1.70403884912953
42
1.76812994250858
0
ELLIPSE
5
E2
100
AcDbEntity
8
1
62
256
6
ByLayer
370
18
48
1
60
0
100
AcDbEllipse
10
18.363831
20
0
30
0
11
11.1438881205316
21
-2.72435424206218
31
0
210
0
220
0
230
1
40
0.376224
41
1.78468711308894
42
1.85668174247037
0
POINT
5
70
100
AcDbEntity
8
80
62
256
6
ByLayer
370
18
48
1
60
0
100
AcDbPoint
10
0
20
0
30
0
39
0
210
0
220
0
230
1
50
360
0
POINT
5
72
100
AcDbEntity
8
81
62
256
6
ByLayer
370
18
48
1
60
0
100
AcDbPoint
10
32.05
20
0
30
0
39
0
210
0
220
0
230
1
50
360
0
POINT
5
74
100
AcDbEntity
8
1
62
256
6
ByLayer
370
18
48
1
60
1
100
AcDbPoint
10
32
20
0
30
0
39
0
210
0
220
0
230
1
50
360
0
POINT
5
76
100
AcDbEntity
8
1
62
256
6
ByLayer
370
18
48
1
60
1
100
AcDbPoint
10
0
20
0
30
0
39
0
210
0
220
0
230
1
50
360
0
POINT
5
77
100
AcDbEntity
8
1
62
256
6
ByLayer
370
18
48
1
60
1
100
AcDbPoint
10
32
20
0
30
0
39
0
210
0
220
0
230
1
50
360
0
POINT
5
78
100
AcDbEntity
8
1
62
256
6
ByLayer
370
18
48
1
60
1
100
AcDbPoint
10
17
20
0
30
0
39
0
210
0
220
0
230
1
50
360
0
SPLINE
5
E3
100
AcDbEntity
8
1
62
256
6
ByLayer
370
18
48
1
60
0
100
AcDbSpline
70
4
71
3
72
10
73
6
40
0
40
0
40
0
40
0
40
0.0462861296283052
40
0.0462861296283052
40
1
40
1
40
1
40
1
41
1
10
28.3668625181207
20
4.34454433207935
30
0
41
1
10
28.3711267329577
20
4.3439079229864
30
0
41
1
10
28.3753897558924
20
4.34326201110829
30
0
41
1
10
28.4674665537526
20
4.32910456278915
30
0
41
1
10
28.5548010339445
20
4.31164966184926
30
0
41
1
10
28.6419396011176
20
4.29095498096524
30
0
0
SPLINE
5
E4
100
AcDbEntity
8
1
62
256
6
ByLayer
370
18
48
1
60
0
100
AcDbSpline
70
4
71
3
72
10
73
6
40
0
40
0
40
0
40
0
40
0.336452235752265
40
0.336452235752265
40
1
40
1
40
1
40
1
41
1
10
29.8930953383854
20
1.37450125082697
30
0
41
1
10
29.8617254725563
20
1.40051281041411
30
0
41
1
10
29.8304592783069
20
1.42681156344122
30
0
41
1
10
29.7378357339397
20
1.50584877620733
30
0
41
1
10
29.6767673295176
20
1.5594401275695
30
0
41
1
10
29.6161166739066
20
1.61422113365612
30
0
0
SPLINE
5
E5
100
AcDbEntity
8
1
62
256
6
ByLayer
370
18
48
1
60
0
100
AcDbSpline
70
4
71
3
72
8
73
4
40
0
40
0
40
0
40
0
40
1
40
1
40
1
40
1
41
1
10
17
20
-4.78248948711865
30
0
41
1
10
17.0617188404321
20
-4.77392279433101
30
0
41
1
10
17.1234376808643
20
-4.76498611731472
30
0
41
1
10
17.1851565212964
20
-4.75568306905939
30
0
0
SPLINE
5
E6
100
AcDbEntity
8
1
62
256
6
ByLayer
370
18
48
1
60
0
100
AcDbSpline
70
4
71
3
72
8
73
4
40
0
40
0
40
0
40
0
40
1
40
1
40
1
40
1
41
1
10
31.999529457225
20
-0.0299599582675967
30
0
41
1
10
31.9995291142441
20
-0.0299808870741174
30
0
41
1
10
31.9995287712023
20
-0.0300018158803823
30
0
41
1
10
31.9995284280998
20
-0.0300227446864767
30
0
0
SPLINE
5
E7
100
AcDbEntity
8
1
62
256
6
ByLayer
370
18
48
1
60
0
100
AcDbSpline
70
4
71
3
72
8
73
4
40
0
40
0
40
0
40
0
40
1
40
1
40
1
40
1
41
1
10
31.9992757893908
20
0.0314533844679659
30
0
41
1
10
31.9992882240929
20
0.033288006844856
30
0
41
1
10
31.999299785236
20
0.0351226353337495
30
0
41
1
10
31.9993104728015
20
0.0369572686902586
30
0
0
SPLINE
5
E8
100
AcDbEntity
8
1
62
256
6
ByLayer
370
13
48
1
60
0
100
AcDbSpline
70
4
71
3
72
8
73
4
40
0
40
0
40
0
40
0
40
1
40
1
40
1
40
1
41
1
10
28.6419396011162
20
4.29095498096498
30
0
41
1
10
28.608590221654
20
4.28403876600561
30
0
41
1
10
28.5752408421917
20
4.27702644118386
30
0
41
1
10
28.5418914627294
20
4.26991826934369
30
0
0
SPLINE
5
E9
100
AcDbEntity
8
1
62
256
6
ByLayer
370
18
48
1
60
0
100
AcDbSpline
70
4
71
3
72
8
73
4
40
0
40
0
40
0
40
0
40
1
40
1
40
1
40
1
41
1
10
31.9862173462422
20
0.0311602038663352
30
0
41
1
10
31.9859916673725
20
0.0322301066885018
30
0
41
1
10
31.9857660052161
20
0.0333000130482901
30
0
41
1
10
31.9855403598018
20
0.0343699229509582
30
0
0
SPLINE
5
EA
100
AcDbEntity
8
1
62
256
6
ByLayer
370
18
48
1
60
0
100
AcDbSpline
70
4
71
3
72
16
73
12
40
0
40
0
40
0
40
0
40
0.249999999999999
40
0.249999999999999
40
0.499999999999997
40
0.499999999999997
40
0.624999999999996
40
0.624999999999996
40
0.749999999999995
40
0.749999999999995
40
1
40
1
40
1
40
1
41
1
10
31.9993104728022
20
0.036957268689946
30
0
41
1
10
31.9959494774731
20
0.162279416265051
30
0
41
1
10
31.9884880716886
20
0.287193599918453
30
0
41
1
10
31.9654197950636
20
0.536211546926097
30
0
41
1
10
31.9498365270941
20
0.660317658611035
30
0
41
1
10
31.9202358713696
20
0.84585740450953
30
0
41
1
10
31.9093288113155
20
0.907607467020057
30
0
41
1
10
31.8855096727793
20
1.03053381942436
30
0
41
1
10
31.872590596654
20
1.09175620614047
30
0
41
1
10
31.8308457702485
20
1.27471075875883
30
0
41
1
10
31.799052354519
20
1.39573507148492
30
0
41
1
10
31.7632576663241
20
1.51580499313323
30
0
0
SPLINE
5
EB
100
AcDbEntity
8
1
62
256
6
ByLayer
370
18
48
1
60
0
100
AcDbSpline
70
4
71
3
72
8
73
4
40
0
40
0
40
0
40
0
40
1
40
1
40
1
40
1
41
1
10
31.5541683814034
20
1.42772618197148
30
0
41
1
10
31.623833697403
20
1.4571588783561
30
0
41
1
10
31.693532786427
20
1.48651223120908
30
0
41
1
10
31.7632576663236
20
1.51580499313306
30
0
0
SPLINE
5
EC
100
AcDbEntity
8
1
62
256
6
ByLayer
370
18
48
1
60
0
100
AcDbSpline
70
4
71
3
72
45
73
41
40
0
40
0
40
0
40
0
40
0.0323122644837967
40
0.0323122644837967
40
0.0646245289675935
40
0.0646245289675935
40
0.129249057935187
40
0.129249057935187
40
0.258498115870378
40
0.258498115870378
40
0.323122644837971
40
0.323122644837971
40
0.33927877707987
40
0.33927877707987
40
0.355434909321769
40
0.387747173805563
40
0.387747173805563
40
0.452371702773157
40
0.452371702773157
40
0.51699623174075
40
0.51699623174075
40
0.581620760708343
40
0.581620760708343
40
0.597776892950245
40
0.597776892950245
40
0.613933025192146
40
0.613933025192146
40
0.646245289675949
40
0.646245289675949
40
0.710869818643554
40
0.710869818643554
40
0.775494347611159
40
0.775494347611159
40
0.840118876578765
40
0.840118876578765
40
0.872431141062568
40
0.872431141062568
40
0.904743405546371
40
0.904743405546371
40
1
40
1
40
1
40
1
41
1
10
31.763257666324
20
1.51580499313323
30
0
41
1
10
31.7461530647192
20
1.56912985046361
30
0
41
1
10
31.7281317194858
20
1.62211448625769
30
0
41
1
10
31.6902421897285
20
1.72739804992773
30
0
41
1
10
31.6703520395386
20
1.77974329243361
30
0
41
1
10
31.6083214049735
20
1.93470996508356
30
0
41
1
10
31.5637254168877
20
2.03560164955911
30
0
41
1
10
31.4204339107796
20
2.33115651483897
30
0
41
1
10
31.3122574324739
20
2.51871073062998
30
0
41
1
10
31.1308507396329
20
2.78557126095993
30
0
41
1
10
31.0671773874566
20
2.8721080058582
30
0
41
1
10
30.9834805366453
20
2.9771974511909
30
0
41
1
10
30.9665369401737
20
2.99805843019976
30
0
41
1
10
30.9323888625675
20
3.03928988421157
30
0
41
1
10
30.8807199473645
20
3.10047115741241
30
0
41
1
10
30.8277261746823
20
3.15968227691874
30
0
41
1
10
30.7199907050922
20
3.27552690476185
30
0
41
1
10
30.6458382421914
20
3.34933092659804
30
0
41
1
10
30.4929209645601
20
3.49021927114424
30
0
41
1
10
30.4141563751191
20
3.55729523302415
30
0
41
1
10
30.251994541197
20
3.68458211478836
30
0
41
1
10
30.1685978708479
20
3.74478327342456
30
0
41
1
10
30.0613955088869
20
3.81557368728383
30
0
41
1
10
30.039806996156
20
3.82950927078244
30
0
41
1
10
29.9963314637084
20
3.85693219169716
30
0
41
1
10
29.9744197591302
20
3.87043414865786
30
0
41
1
10
29.9084548577635
20
3.91012964075614
30
0
41
1
10
29.8641729029422
20
3.93551637730789
30
0
41
1
10
29.7304255942356
20
4.00850813612712
30
0
41
1
10
29.6400602750983
20
4.05295006215457
30
0
41
1
10
29.4569699317234
20
4.13359381994235
30
0
41
1
10
29.3642463789051
20
4.16979820943325
30
0
41
1
10
29.1764190776236
20
4.23396867668552
30
0
41
1
10
29.0813132030716
20
4.26193186151028
30
0
41
1
10
28.9368556318402
20
4.2976344401969
30
0
41
1
10
28.8884029561764
20
4.30849320159282
30
0
41
1
10
28.790885895279
20
4.32809086855306
30
0
41
1
10
28.7417324338563
20
4.33684159330289
30
0
41
1
10
28.5476705269171
20
4.36695580907937
30
0
41
1
10
28.402491778552
20
4.37980879124854
30
0
41
1
10
28.2569975130499
20
4.38317067645207
30
0
0
SPLINE
5
ED
100
AcDbEntity
8
1
62
256
6
ByLayer
370
18
48
1
60
0
100
AcDbSpline
70
4
71
3
72
26
73
22
40
0
40
0
40
0
40
0
40
0.215378123270805
40
0.215378123270805
40
0.323067184906182
40
0.323067184906182
40
0.430756246541558
40
0.430756246541558
40
0.646134369812361
40
0.646134369812361
40
0.699978900630072
40
0.699978900630072
40
0.753823431447783
40
0.753823431447783
40
0.861512493083167
40
0.861512493083167
40
0.915357023900859
40
0.915357023900859
40
0.969201554718551
40
0.969201554718551
40
1
40
1
40
1
40
1
41
1
10
28.6419396011162
20
4.29095498096501
30
0
41
1
10
28.6799881026872
20
4.28191749751653
30
0
41
1
10
28.7174501523725
20
4.27137769302229
30
0
41
1
10
28.772485197715
20
4.25279708294889
30
0
41
1
10
28.7906356616894
20
4.24613877634374
30
0
41
1
10
28.8264707542102
20
4.23174863340017
30
0
41
1
10
28.844138230535
20
4.22402152404709
30
0
41
1
10
28.895869535936
20
4.19913596388886
30
0
41
1
10
28.9288469805961
20
4.18030522829531
30
0
41
1
10
28.9669396145816
20
4.15240422126348
30
0
41
1
10
28.974396633826
20
4.14659946414079
30
0
41
1
10
28.9889278667579
20
4.13446519147732
30
0
41
1
10
28.9960200800112
20
4.12811860167943
30
0
41
1
10
29.0164679096961
20
4.10826311301631
30
0
41
1
10
29.0289471288471
20
4.09403489345226
30
0
41
1
10
29.0451562526479
20
4.07058821331236
30
0
41
1
10
29.0501363591189
20
4.06240135427055
30
0
41
1
10
29.0588640203259
20
4.04550896747614
30
0
41
1
10
29.0626390714932
20
4.03676942182645
30
0
41
1
10
29.0674677621085
20
4.02248646685214
30
0
41
1
10
29.0689955044297
20
4.01717469163228
30
0
41
1
10
29.0702621294901
20
4.01173643472041
30
0
0
SPLINE
5
EE
100
AcDbEntity
8
1
62
256
6
ByLayer
370
18
48
1
60
0
100
AcDbSpline
70
4
71
3
72
10
73
6
40
0
40
0
40
0
40
0
40
0.372647458247795
40
0.372647458247795
40
1
40
1
40
1
40
1
41
1
10
19.1011225145091
20
-4.51466314754191
30
0
41
1
10
18.8571460304329
20
-4.55972797547128
30
0
41
1
10
18.6133089209464
20
-4.59936306979088
30
0
41
1
10
17.958698555144
20
-4.6909686243626
30
0
41
1
10
17.5477403588425
20
-4.73287514053786
30
0
41
1
10
17.1356001454597
20
-4.75869285301647
30
0
0
SPLINE
5
EF
100
AcDbEntity
8
1
62
256
6
ByLayer
370
18
48
1
60
0
100
AcDbSpline
70
4
71
3
72
12
73
8
40
0
40
0
40
0
40
0
40
0.499999999999985
40
0.499999999999985
40
0.749999999999992
40
0.749999999999992
40
1
40
1
40
1
40
1
41
1
10
17
20
4.74772775152135
30
0
41
1
10
16.897685644136
20
4.77988564797477
30
0
41
1
10
16.7954607689563
20
4.81505893018615
30
0
41
1
10
16.6421115017904
20
4.87213391457584
30
0
41
1
10
16.5909324580417
20
4.89190328558229
30
0
41
1
10
16.4888720828639
20
4.93271955855752
30
0
41
1
10
16.4380093253588
20
4.95375695959834
30
0
41
1
10
16.3872996255916
20
4.97539577430632
30
0
0
SPLINE
5
F0
100
AcDbEntity
8
1
62
256
6
ByLayer
370
18
48
1
60
0
100
AcDbSpline
70
4
71
3
72
8
73
4
40
0
40
0
40
0
40
0
40
1
40
1
40
1
40
1
41
1
10
27
20
4.6884227362163
30
0
41
1
10
26.7734086500739
20
4.71396172372408
30
0
41
1
10
26.5470309021213
20
4.73467358316847
30
0
41
1
10
26.3206759565422
20
4.75052883454316
30
0
0
SPLINE
5
F1
100
AcDbEntity
8
1
62
256
6
ByLayer
370
18
48
1
60
0
100
AcDbSpline
70
4
71
3
72
8
73
4
40
0
40
0
40
0
40
0
40
1
40
1
40
1
40
1
41
1
10
25.2107815564127
20
4.87777412017402
30
0
41
1
10
25.8071877042751
20
4.82776350866695
30
0
41
1
10
26.4035938521376
20
4.74300061050033
30
0
41
1
10
27
20
4.62552681852247
30
0
0
SPLINE
5
F2
100
AcDbEntity
8
1
62
256
6
ByLayer
370
18
48
1
60
0
100
AcDbSpline
70
4
71
3
72
8
73
4
40
0
40
0
40
0
40
0
40
1
40
1
40
1
40
1
41
1
10
28.0534980323322
20
-4.30473007087329
30
0
41
1
10
28.0601015467354
20
-4.30479577922227
30
0
41
1
10
28.0666661709534
20
-4.30490620540709
30
0
41
1
10
28.0731923753065
20
-4.30506026051944
30
0
0
SPLINE
5
F3
100
AcDbEntity
8
1
62
256
6
ByLayer
370
18
48
1
60
0
100
AcDbSpline
70
4
71
3
72
34
73
30
40
0
40
0
40
0
40
0
40
0.12499999999996
40
0.12499999999996
40
0.15624999999995
40
0.15624999999995
40
0.18749999999994
40
0.18749999999994
40
0.24999999999993
40
0.24999999999993
40
0.374999999999918
40
0.374999999999918
40
0.437499999999913
40
0.437499999999913
40
0.468749999999914
40
0.468749999999914
40
0.499999999999916
40
0.499999999999916
40
0.624999999999923
40
0.624999999999923
40
0.687499999999923
40
0.687499999999923
40
0.718749999999927
40
0.718749999999927
40
0.74999999999993
40
0.74999999999993
40
0.874999999999965
40
0.874999999999965
40
1
40
1
40
1
40
1
41
1
10
28.9439764137725
20
4.09506841008323
30
0
41
1
10
29.0575602769632
20
4.02325965323561
30
0
41
1
10
29.1723107429196
20
3.94689789299375
30
0
41
1
10
29.3172867959967
20
3.84544331920833
30
0
41
1
10
29.3463593133186
20
3.82485069275722
30
0
41
1
10
29.4046626795309
20
3.78304750529239
30
0
41
1
10
29.4338645025434
20
3.76185645553281
30
0
41
1
10
29.5209562556116
20
3.69789749519973
30
0
41
1
10
29.5785764453691
20
3.65457074315418
30
0
41
1
10
29.7501277049169
20
3.52254939498909
30
0
41
1
10
29.8627561477223
20
3.43182412461064
30
0
41
1
10
30.0290229922238
20
3.2915648651076
30
0
41
1
10
30.0839976565366
20
3.244113985062
30
0
41
1
10
30.1657638913184
20
3.17185303726441
30
0
41
1
10
30.1929337009226
20
3.14755748588152
30
0
41
1
10
30.2469038957197
20
3.0987151480995
30
0
41
1
10
30.2735790444438
20
3.07428238017823
30
0
41
1
10
30.4054282690906
20
2.95206141453369
30
0
41
1
10
30.5060579077937
20
2.85410315296033
30
0
41
1
10
30.6497840641663
20
2.70689563426441
30
0
41
1
10
30.6964843052229
20
2.65778123720102
30
0
41
1
10
30.7646886891528
20
2.58404056065047
30
0
41
1
10
30.7871155669047
20
2.5594488121379
30
0
41
1
10
30.8313448817348
20
2.51024194702936
30
0
41
1
10
30.8531770310248
20
2.48559285173457
30
0
41
1
10
30.9604196365536
20
2.36266536796435
30
0
41
1
10
31.0387717202544
20
2.26686897501921
30
0
41
1
10
31.1813876200409
20
2.08009519034255
30
0
41
1
10
31.2456197140476
20
1.98912864939419
30
0
41
1
10
31.3025947973826
20
1.90064442523513
30
0
0
SPLINE
5
F4
100
AcDbEntity
8
1
62
256
6
ByLayer
370
18
48
1
60
0
100
AcDbSpline
70
4
71
3
72
44
73
40
40
0
40
0
40
0
40
0
40
0.0156249999999961
40
0.0156249999999961
40
0.0312499999999921
40
0.0624999999999843
40
0.0624999999999843
40
0.124999999999968
40
0.124999999999968
40
0.249999999999936
40
0.249999999999936
40
0.312499999999921
40
0.312499999999921
40
0.343749999999922
40
0.343749999999922
40
0.374999999999923
40
0.374999999999923
40
0.382812499999914
40
0.382812499999914
40
0.390624999999905
40
0.390624999999905
40
0.398437499999897
40
0.398437499999897
40
0.406249999999888
40
0.406249999999888
40
0.421874999999889
40
0.421874999999889
40
0.437499999999889
40
0.437499999999889
40
0.49999999999991
40
0.49999999999991
40
0.53124999999992
40
0.562499999999931
40
0.562499999999931
40
0.624999999999951
40
0.624999999999951
40
0.749999999999973
40
0.749999999999973
40
1
40
1
40
1
40
1
41
1
10
27.0000007703562
20
4.68841965654906
30
0
41
1
10
27.0097664818364
20
4.68728618579109
30
0
41
1
10
27.0195340390583
20
4.6861328610434
30
0
41
1
10
27.0390649123295
20
4.68381838181006
30
0
41
1
10
27.0683424351907
20
4.68038277615477
30
0
41
1
10
27.0976936039203
20
4.67655038281359
30
0
41
1
10
27.1564930822266
20
4.66838943087188
30
0
41
1
10
27.1958292379046
20
4.66226082992941
30
0
41
1
10
27.3142674080686
20
4.64195136550765
30
0
41
1
10
27.3938009131695
20
4.62584838543313
30
0
41
1
10
27.5139841786919
20
4.59849465966513
30
0
41
1
10
27.5541967624388
20
4.5888282896785
30
0
41
1
10
27.614692339967
20
4.57374266146505
30
0
41
1
10
27.6348826681165
20
4.56863004094822
30
0
41
1
10
27.6753270293208
20
4.55820164011658
30
0
41
1
10
27.6955900124598
20
4.55285584006455
30
0
41
1
10
27.7210641640002
20
4.54572233611458
30
0
41
1
10
27.7261663576866
20
4.5442728527652
30
0
41
1
10
27.7363880451633
20
4.54132076937609
30
0
41
1
10
27.7415209705632
20
4.53977603577712
30
0
41
1
10
27.7517051356092
20
4.53694494773103
30
0
41
1
10
27.7567397879536
20
4.53571009264311
30
0
41
1
10
27.7668735665461
20
4.53303805690859
30
0
41
1
10
27.7719601106554
20
4.5316406785671
30
0
41
1
10
27.7872731618064
20
4.52728392660475
30
0
41
1
10
27.7975121358859
20
4.52428785155905
30
0
41
1
10
27.8179869505158
20
4.51831227549283
30
0
41
1
10
27.8282323867964
20
4.51530282082507
30
0
41
1
10
27.8795042767156
20
4.50013576533198
30
0
41
1
10
27.920671445426
20
4.48759797553018
30
0
41
1
10
27.9826985465548
20
4.46808799272401
30
0
41
1
10
28.0241402971861
20
4.4548541395859
30
0
41
1
10
28.0657690958352
20
4.44115947034615
30
0
41
1
10
28.1280524242776
20
4.42037337747979
30
0
41
1
10
28.1694626922465
20
4.40615782212714
30
0
41
1
10
28.2933764213531
20
4.36248014442509
30
0
41
1
10
28.3755659289265
20
4.33199625473048
30
0
41
1
10
28.6210088157724
20
4.2367582262896
30
0
41
1
10
28.783147165823
20
4.16824465892895
30
0
41
1
10
28.9439764137706
20
4.09506841008076
30
0
0
SPLINE
5
F5
100
AcDbEntity
8
1
62
256
6
ByLayer
370
18
48
1
60
0
100
AcDbSpline
70
4
71
3
72
8
73
4
40
0
40
0
40
0
40
0
40
1
40
1
40
1
40
1
41
1
10
31.3025947973827
20
1.9006444252351
30
0
41
1
10
31.4008043348072
20
1.69503482931276
30
0
41
1
10
31.5016351732702
20
1.49361997803692
30
0
41
1
10
31.6041898570404
20
1.29522015879579
30
0
0
SPLINE
5
F6
100
AcDbEntity
8
1
62
256
6
ByLayer
370
18
48
1
60
0
100
AcDbSpline
70
4
71
3
72
8
73
4
40
0
40
0
40
0
40
0
40
1
40
1
40
1
40
1
41
1
10
29.4700088203377
20
1.78386486463211
30
0
41
1
10
29.5570495467878
20
1.69374863600777
30
0
41
1
10
29.6469321405123
20
1.6048017756693
30
0
41
1
10
29.7398701311813
20
1.51711214656046
30
0
0
SPLINE
5
F7
100
AcDbEntity
8
1
62
256
6
ByLayer
370
18
48
1
60
0
100
AcDbSpline
70
4
71
3
72
28
73
24
40
0
40
0
40
0
40
0
40
0.0017059029535987
40
0.0072487569460287
40
0.0110828583527758
40
0.0127767024516154
40
0.0254247128079594
40
0.0982826096951885
40
0.125941334721097
40
0.136600892540993
40
0.145911076737721
40
0.148334624140832
40
0.149688561706064
40
0.152854007914754
40
0.156512797394989
40
0.178883516050933
40
0.280925448305649
40
0.356192749834857
40
0.441428984376312
40
0.745288241290041
40
0.869944373197381
40
0.94849689081052
40
1
40
1
40
1
40
1
41
1
10
26.9999966677653
20
4.62552496986703
30
0
41
1
10
27.0031483476711
20
4.62489556549582
30
0
41
1
10
27.0165580650192
20
4.62221108797621
30
0
41
1
10
27.0371820957881
20
4.61803925780782
30
0
41
1
10
27.0575986698563
20
4.61390135526716
30
0
41
1
10
27.0913113278582
20
4.60690013831695
30
0
41
1
10
27.2529049629261
20
4.5714060288654
30
0
41
1
10
27.4613198948877
20
4.51132432869986
30
0
41
1
10
27.6646610902532
20
4.44014373391386
30
0
41
1
10
27.7516004317634
20
4.40803465051849
30
0
41
1
10
27.792310691782
20
4.39240017527851
30
0
41
1
10
27.8159993618835
20
4.38306495903859
30
0
41
1
10
27.8288225816927
20
4.37809454565755
30
0
41
1
10
27.8439661746118
20
4.3721677341459
30
0
41
1
10
27.8972733411828
20
4.35075106617225
30
0
41
1
10
28.1302800808642
20
4.25438583591747
30
0
41
1
10
28.4837925598197
20
4.08775195622081
30
0
41
1
10
28.9355321566017
20
3.83971984904991
30
0
41
1
10
29.7149843102039
20
3.3557727950089
30
0
41
1
10
30.5277132955747
20
2.69558012289832
30
0
41
1
10
31.1702910526513
20
1.95910420704195
30
0
41
1
10
31.4418217035579
20
1.57471250648669
30
0
41
1
10
31.5606734724452
20
1.37481849584177
30
0
41
1
10
31.6041898570932
20
1.29522015870265
30
0
0
SPLINE
5
F8
100
AcDbEntity
8
1
62
256
6
ByLayer
370
18
48
1
60
0
100
AcDbSpline
70
4
71
3
72
12
73
8
40
0
40
0
40
0
40
0
40
0.250000000000033
40
0.250000000000033
40
0.500000000000066
40
0.500000000000066
40
1
40
1
40
1
40
1
41
1
10
31.1264503024809
20
0.51910942941953
30
0
41
1
10
31.1268914789227
20
0.517965030782023
30
0
41
1
10
31.126562941559
20
0.517589215517972
30
0
41
1
10
31.1248523389991
20
0.51789253740489
30
0
41
1
10
31.1234652462862
20
0.518581546500457
30
0
41
1
10
31.1183629847692
20
0.521660661120421
30
0
41
1
10
31.113669298519
20
0.525063127844106
30
0
41
1
10
31.1083739543832
20
0.529117550497233
30
0
0
SPLINE
5
F9
100
AcDbEntity
8
1
62
256
6
ByLayer
370
18
48
1
60
0
100
AcDbSpline
70
4
71
3
72
8
73
4
40
0
40
0
40
0
40
0
40
1
40
1
40
1
40
1
41
1
10
29.2378545573511
20
-1.29457527293567
30
0
41
1
10
29.2658226656379
20
-1.28084527759373
30
0
41
1
10
29.2940950239079
20
-1.26717509333628
30
0
41
1
10
29.3226779251177
20
-1.25356595726626
30
0
0
SPLINE
5
FA
100
AcDbEntity
8
1
62
256
6
ByLayer
370
18
48
1
60
0
100
AcDbSpline
70
4
71
3
72
18
73
14
40
0
40
0
40
0
40
0
40
0.24999999999999
40
0.24999999999999
40
0.499999999999979
40
0.499999999999979
40
0.562499999999976
40
0.562499999999976
40
0.624999999999974
40
0.624999999999974
40
0.749999999999983
40
0.749999999999983
40
1
40
1
40
1
40
1
41
1
10
29.3226779251177
20
-1.25356595726632
30
0
41
1
10
29.4647598151191
20
-1.31805639421563
30
0
41
1
10
29.6100726010994
20
-1.36886394975218
30
0
41
1
10
29.9066697958308
20
-1.44518917011163
30
0
41
1
10
30.0579548805958
20
-1.47070397200719
30
0
41
1
10
30.2505780484227
20
-1.48770373589346
30
0
41
1
10
30.2892788502251
20
-1.49035761417264
30
0
41
1
10
30.3670286746936
20
-1.49419065139176
30
0
41
1
10
30.4061131744132
20
-1.49536840863496
30
0
41
1
10
30.5232334687885
20
-1.4967159229158
30
0
41
1
10
30.6013281518144
20
-1.49469882211895
30
0
41
1
10
30.8356518651671
20
-1.48066513920387
30
0
41
1
10
30.9919199519927
20
-1.46078849054504
30
0
41
1
10
31.1482270182939
20
-1.4330672761985
30
0
0
SPLINE
5
FB
100
AcDbEntity
8
1
62
256
6
ByLayer
370
18
48
1
60
0
100
AcDbSpline
70
4
71
3
72
8
73
4
40
0
40
0
40
0
40
0
40
1
40
1
40
1
40
1
41
1
10
31.0130698395516
20
-1.26351034089112
30
0
41
1
10
31.0579018798468
20
-1.32025599942185
30
0
41
1
10
31.1029587205898
20
-1.37677040231228
30
0
41
1
10
31.1482270182976
20
-1.43306727620634
30
0
0
SPLINE
5
FC
100
AcDbEntity
8
1
62
256
6
ByLayer
370
18
48
1
60
0
100
AcDbSpline
70
4
71
3
72
8
73
4
40
0
40
0
40
0
40
0
40
1
40
1
40
1
40
1
41
1
10
31.0130698395516
20
-1.26351034089109
30
0
41
1
10
31.0452147116967
20
-1.2140791111986
30
0
41
1
10
31.0769664282081
20
-1.16416300065879
30
0
41
1
10
31.1083739543837
20
-1.11382239842325
30
0
0
SPLINE
5
FD
100
AcDbEntity
8
1
62
256
6
ByLayer
370
18
48
1
60
0
100
AcDbSpline
70
4
71
3
72
8
73
4
40
0
40
0
40
0
40
0
40
1
40
1
40
1
40
1
41
1
10
29.4700088203391
20
1.78386486463157
30
0
41
1
10
29.3889230782068
20
1.77953617397608
30
0
41
1
10
29.3077231712124
20
1.77614605937325
30
0
41
1
10
29.2264177235837
20
1.77362361903141
30
0
0
SPLINE
5
FE
100
AcDbEntity
8
1
62
256
6
ByLayer
370
18
48
1
60
0
100
AcDbSpline
70
4
71
3
72
10
73
6
40
0
40
0
40
0
40
0
40
0.5
40
0.5
40
1
40
1
40
1
40
1
41
1
10
29.0713472807708
20
2.15249023625049
30
0
41
1
10
29.1358182353764
20
2.08837361111486
30
0
41
1
10
29.2011781167725
20
2.02560500627197
30
0
41
1
10
29.3340041872526
20
1.90277556755001
30
0
41
1
10
29.4014598607968
20
1.84270218768779
30
0
41
1
10
29.4700088203381
20
1.78386486463185
30
0
0
SPLINE
5
FF
100
AcDbEntity
8
1
62
256
6
ByLayer
370
13
48
1
60
0
100
AcDbSpline
70
4
71
3
72
10
73
6
40
0
40
0
40
0
40
0
40
0.374535184338652
40
0.77543355427577
40
1
40
1
40
1
40
1
41
1
10
24.623300508817
20
2.78550079728481
30
0
41
1
10
25.2072003392114
20
2.68636646916397
30
0
41
1
10
26.4161001696057
20
2.44186796943683
30
0
41
1
10
27.9750987759059
20
2.03377182219589
30
0
41
1
10
28.9501975518118
20
1.74172056069366
30
0
41
1
10
29.3002963277176
20
1.63288607469312
30
0
0
SPLINE
5
100
100
AcDbEntity
8
1
62
256
6
ByLayer
370
18
48
1
60
0
100
AcDbSpline
70
4
71
3
72
8
73
4
40
0
40
0
40
0
40
0
40
1
40
1
40
1
40
1
41
1
10
31.9545248047717
20
-0.361819800494658
30
0
41
1
10
31.9645279826632
20
-0.231192697984
30
0
41
1
10
31.9699662356854
20
-0.10010703735864
30
0
41
1
10
31.9708233111053
20
0.0314388140090784
30
0
0
SPLINE
5
101
100
AcDbEntity
8
1
62
256
6
ByLayer
370
18
48
1
60
0
100
AcDbSpline
70
4
71
3
72
25
73
21
40
0
40
0
40
0
40
0
40
0.125
40
0.125
40
0.1875
40
0.1875
40
0.25
40
0.25
40
0.3125
40
0.3125
40
0.375
40
0.4375
40
0.4375
40
0.5
40
0.5
40
0.625
40
0.625
40
0.75
40
0.75
40
1
40
1
40
1
40
1
41
1
10
31.9545248047683
20
-0.361819800509608
30
0
41
1
10
31.9561852659359
20
-0.367375537146785
30
0
41
1
10
31.9576826879748
20
-0.37365930828031
30
0
41
1
10
31.9595742956881
20
-0.384588751878482
30
0
41
1
10
31.9601413495482
20
-0.388475240835561
30
0
41
1
10
31.9611045869901
20
-0.396598677082181
30
0
41
1
10
31.9615049914344
20
-0.400858267817
30
0
41
1
10
31.9621258243725
20
-0.409807633236881
30
0
41
1
10
31.962346995982
20
-0.414532130508064
30
0
41
1
10
31.9625840238137
20
-0.424295577621024
30
0
41
1
10
31.9626153856052
20
-0.434233452606094
30
0
41
1
10
31.9622562939662
20
-0.44449680865219
30
0
41
1
10
31.9617099864792
20
-0.454913727679866
30
0
41
1
10
31.9613447539245
20
-0.460151520229544
30
0
41
1
10
31.9600303156962
20
-0.475640086548481
30
0
41
1
10
31.9588579831094
20
-0.48580071705382
30
0
41
1
10
31.9560603595297
20
-0.505875425445595
30
0
41
1
10
31.9544682765644
20
-0.51555117526226
30
0
41
1
10
31.9493010914223
20
-0.543680414761127
30
0
41
1
10
31.945313425905
20
-0.561395986522626
30
0
41
1
10
31.941042121406
20
-0.578283352497039
30
0
0
SPLINE
5
102
100
AcDbEntity
8
1
62
256
6
ByLayer
370
18
48
1
60
0
100
AcDbSpline
70
4
71
3
72
8
73
4
40
0
40
0
40
0
40
0
40
1
40
1
40
1
40
1
41
1
10
31.9274913664987
20
-0.630491691701963
30
0
41
1
10
31.9321050763432
20
-0.613161246665783
30
0
41
1
10
31.9366221322668
20
-0.595758569778297
30
0
41
1
10
31.941042121406
20
-0.578283352496953
30
0
0
SPLINE
5
103
100
AcDbEntity
8
1
62
256
6
ByLayer
370
18
48
1
60
0
100
AcDbSpline
70
4
71
3
72
12
73
8
40
0
40
0
40
0
40
0
40
0.25
40
0.25
40
0.5
40
0.5
40
1
40
1
40
1
40
1
41
1
10
31.7919136748017
20
-1.34267057470006
30
0
41
1
10
31.8069637611697
20
-1.2840567296783
30
0
41
1
10
31.821105618146
20
-1.22518198004764
30
0
41
1
10
31.8475576428664
20
-1.10690629635818
30
0
41
1
10
31.85985345237
20
-1.04753968466824
30
0
41
1
10
31.8938068797571
20
-0.869303652531158
30
0
41
1
10
31.9125720635213
20
-0.750090836286063
30
0
41
1
10
31.9274913664987
20
-0.63049169170182
30
0
0
SPLINE
5
104
100
AcDbEntity
8
1
62
256
6
ByLayer
370
18
48
1
60
0
100
AcDbSpline
70
4
71
3
72
41
73
37
40
0
40
0
40
0
40
0
40
0.125000000000029
40
0.125000000000029
40
0.250000000000058
40
0.250000000000058
40
0.375000000000087
40
0.375000000000087
40
0.437500000000091
40
0.437500000000091
40
0.500000000000096
40
0.500000000000096
40
0.562500000000101
40
0.562500000000101
40
0.625000000000105
40
0.625000000000105
40
0.656250000000096
40
0.656250000000096
40
0.687500000000088
40
0.718750000000079
40
0.718750000000079
40
0.75000000000007
40
0.75000000000007
40
0.781250000000062
40
0.781250000000062
40
0.812500000000053
40
0.812500000000053
40
0.843750000000044
40
0.843750000000044
40
0.875000000000035
40
0.875000000000035
40
0.906250000000026
40
0.906250000000026
40
0.937500000000018
40
0.937500000000018
40
1
40
1
40
1
40
1
41
1
10
31.7919136748017
20
-1.34267057470021
30
0
41
1
10
31.7844600802415
20
-1.37169923445148
30
0
41
1
10
31.7766324424206
20
-1.40041771087991
30
0
41
1
10
31.7601724891226
20
-1.45714361604075
30
0
41
1
10
31.7515409779725
20
-1.48515232302574
30
0
41
1
10
31.7333797061741
20
-1.54031007306554
30
0
41
1
10
31.7238521226027
20
-1.56746261054718
30
0
41
1
10
31.7087588152915
20
-1.6073432929164
30
0
41
1
10
31.7035933274817
20
-1.62049434313192
30
0
41
1
10
31.6929554081971
20
-1.64645066536096
30
0
41
1
10
31.6874580448898
20
-1.65931261106749
30
0
41
1
10
31.6762181469203
20
-1.68432698617485
30
0
41
1
10
31.6705100391972
20
-1.69640835237212
30
0
41
1
10
31.6589120048648
20
-1.71950944956762
30
0
41
1
10
31.6530222739221
20
-1.73053334995035
30
0
41
1
10
31.6440420184332
20
-1.7460026343301
30
0
41
1
10
31.641027768395
20
-1.75097096384655
30
0
41
1
10
31.635053421908
20
-1.76031995442395
30
0
41
1
10
31.6291101510597
20
-1.76912189715438
30
0
41
1
10
31.6232544816611
20
-1.77666477145482
30
0
41
1
10
31.6174600417834
20
-1.78345808434347
30
0
41
1
10
31.6146306435176
20
-1.78643304695299
30
0
41
1
10
31.6091947740481
20
-1.79138543715243
30
0
41
1
10
31.6065784617731
20
-1.79337488431926
30
0
41
1
10
31.6015826178314
20
-1.79626372736575
30
0
41
1
10
31.5992032960033
20
-1.79714942443377
30
0
41
1
10
31.5948871706986
20
-1.79769885673565
30
0
41
1
10
31.5929248708838
20
-1.79738096757671
30
0
41
1
10
31.5893941236014
20
-1.79557060830851
30
0
41
1
10
31.587815131636
20
-1.79405576886512
30
0
41
1
10
31.5851315237353
20
-1.78996803691919
30
0
41
1
10
31.5840187470905
20
-1.78740606798479
30
0
41
1
10
31.5822017203072
20
-1.78136009392222
30
0
41
1
10
31.5814953820047
20
-1.77785223399761
30
0
41
1
10
31.579957948381
20
-1.7662608951417
30
0
41
1
10
31.5796881439512
20
-1.7571555162564
30
0
41
1
10
31.579975226464
20
-1.7470124630521
30
0
0
SPLINE
5
105
100
AcDbEntity
8
1
62
256
6
ByLayer
370
18
48
1
60
0
100
AcDbSpline
70
4
71
3
72
13
73
9
40
0
40
0
40
0
40
0
40
0.053077859747403
40
0.0854400862884115
40
0.161101542129476
40
0.24855503855466
40
0.783266744319814
40
1
40
1
40
1
40
1
41
1
10
27.8310455402543
20
-4.28359036435685
30
0
41
1
10
27.8352000102527
20
-4.28410838090821
30
0
41
1
10
27.8418946862356
20
-4.28493316196608
30
0
41
1
10
27.8551645392724
20
-4.28653646932096
30
0
41
1
10
27.8712751456188
20
-4.28839711375639
30
0
41
1
10
27.9278872914474
20
-4.29467192608598
30
0
41
1
10
27.9956482400243
20
-4.300546881777
30
0
41
1
10
28.0558639474515
20
-4.30415567323146
30
0
41
1
10
28.0731923753254
20
-4.30506026052043
30
0
0
SPLINE
5
106
100
AcDbEntity
8
1
62
256
6
ByLayer
370
18
48
1
60
0
100
AcDbSpline
70
4
71
3
72
8
73
4
40
0
40
0
40
0
40
0
40
1
40
1
40
1
40
1
41
1
10
28.0731923753065
20
-4.30506026051944
30
0
41
1
10
28.0825858971217
20
-4.30518966260263
30
0
41
1
10
28.0918932742533
20
-4.30545099534623
30
0
41
1
10
28.1011130427488
20
-4.30584683218103
30
0
0
SPLINE
5
107
100
AcDbEntity
8
1
62
256
6
ByLayer
370
18
48
1
60
0
100
AcDbSpline
70
4
71
3
72
45
73
41
40
0
40
0
40
0
40
0
40
0.0312500000000052
40
0.0312500000000052
40
0.0625000000000103
40
0.0625000000000103
40
0.125000000000018
40
0.125000000000018
40
0.250000000000032
40
0.250000000000032
40
0.31250000000004
40
0.31250000000004
40
0.328125000000043
40
0.328125000000043
40
0.343750000000046
40
0.375000000000047
40
0.375000000000047
40
0.43750000000005
40
0.43750000000005
40
0.500000000000052
40
0.500000000000052
40
0.562500000000055
40
0.562500000000055
40
0.578125000000051
40
0.578125000000051
40
0.593750000000047
40
0.593750000000047
40
0.62500000000004
40
0.62500000000004
40
0.687500000000031
40
0.687500000000031
40
0.750000000000022
40
0.750000000000022
40
0.812500000000014
40
0.812500000000014
40
0.843750000000009
40
0.843750000000009
40
0.875000000000005
40
0.875000000000005
40
1
40
1
40
1
40
1
41
1
10
31.7632570086967
20
-1.51231631352053
30
0
41
1
10
31.7461523985352
20
-1.56527266757865
30
0
41
1
10
31.7281310461819
20
-1.6178713617779
30
0
41
1
10
31.6902415050441
20
-1.72234784407175
30
0
41
1
10
31.6703513528883
20
-1.77427148289584
30
0
41
1
10
31.6083207205177
20
-1.92792878342897
30
0
41
1
10
31.563724740114
20
-2.02788587362403
30
0
41
1
10
31.4204332718913
20
-2.32045307688091
30
0
41
1
10
31.3122568393236
20
-2.50577016478888
30
0
41
1
10
31.1308502428265
20
-2.7688905988249
30
0
41
1
10
31.0671769274885
20
-2.85411691375859
30
0
41
1
10
30.9834801288385
20
-2.95748825932415
30
0
41
1
10
30.9665365444518
20
-2.97800164044691
30
0
41
1
10
30.9323884912681
20
-3.01853302877535
30
0
41
1
10
30.8807196133492
20
-3.07865576605545
30
0
41
1
10
30.8277258797978
20
-3.13678356993083
30
0
41
1
10
30.7199904908083
20
-3.25043004867962
30
0
41
1
10
30.6458380847793
20
-3.32272710682099
30
0
41
1
10
30.4929209270609
20
-3.46052280034357
30
0
41
1
10
30.4141564006584
20
-3.52601260754386
30
0
41
1
10
30.2519946990204
20
-3.65004183177743
30
0
41
1
10
30.1685980979086
20
-3.70857092266542
30
0
41
1
10
30.0613958265245
20
-3.77721245564862
30
0
41
1
10
30.0398073321118
20
-3.79071536638949
30
0
41
1
10
29.9963318367152
20
-3.81726712282921
30
0
41
1
10
29.9744201509213
20
-3.8303300936953
30
0
41
1
10
29.9084553014178
20
-3.86870430219389
30
0
41
1
10
29.8641733813663
20
-3.89320443210715
30
0
41
1
10
29.7304261774176
20
-3.96351964048785
30
0
41
1
10
29.640060928714
20
-4.00615492319923
30
0
41
1
10
29.4569707267467
20
-4.08314283587833
30
0
41
1
10
29.3642472449035
20
-4.11749799108711
30
0
41
1
10
29.1764200855982
20
-4.17792874288816
30
0
41
1
10
29.0813142819122
20
-4.20400151226625
30
0
41
1
10
28.9368568170199
20
-4.2368369242663
30
0
41
1
10
28.8884041768876
20
-4.24673468856267
30
0
41
1
10
28.7908871875816
20
-4.26439970026223
30
0
41
1
10
28.7417337832482
20
-4.27217700331019
30
0
41
1
10
28.4959612898436
20
-4.30545199281815
30
0
41
1
10
28.2988426807058
20
-4.31433605553602
30
0
41
1
10
28.1011130427527
20
-4.3058468321812
30
0
0
SPLINE
5
108
100
AcDbEntity
8
1
62
256
6
ByLayer
370
18
48
1
60
0
100
AcDbSpline
70
4
71
3
72
10
73
6
40
0
40
0
40
0
40
0
40
0.979732751167051
40
0.979732751167051
40
1
40
1
40
1
40
1
41
1
10
31.9995230426146
20
-0.0309880739051209
30
0
41
1
10
31.9963218852845
20
-0.156542029751193
30
0
41
1
10
31.9889765627117
20
-0.28168137654464
30
0
41
1
10
31.9772754362197
20
-0.408988838994333
30
0
41
1
10
31.9770365354028
20
-0.411568835815359
30
0
41
1
10
31.9767958825078
20
-0.414148657347283
30
0
0
SPLINE
5
109
100
AcDbEntity
8
1
62
256
6
ByLayer
370
18
48
1
60
0
100
AcDbSpline
70
4
71
3
72
14
73
10
40
0
40
0
40
0
40
0
40
0.245318626863824
40
0.245318626863824
40
0.433988970147866
40
0.433988970147866
40
0.622659313431907
40
0.622659313431907
40
1
40
1
40
1
40
1
41
1
10
31.963972535952
20
-0.537174748907233
30
0
41
1
10
31.9546497587495
20
-0.618076020239613
30
0
41
1
10
31.9435822759211
20
-0.698802740040378
30
0
41
1
10
31.9208668395335
20
-0.841301233992311
30
0
41
1
10
31.909939502387
20
-0.903157089960359
30
0
41
1
10
31.8860572558829
20
-1.02629013204009
30
0
41
1
10
31.8730954954369
20
-1.08761316407748
30
0
41
1
10
31.8311895849982
20
-1.27086164177132
30
0
41
1
10
31.7992455607885
20
-1.39207142040922
30
0
41
1
10
31.7632570086967
20
-1.51231631352053
30
0
0
SPLINE
5
10A
100
AcDbEntity
8
1
62
256
6
ByLayer
370
18
48
1
60
0
100
AcDbSpline
70
4
71
3
72
8
73
4
40
0
40
0
40
0
40
0
40
1
40
1
40
1
40
1
41
1
10
31.9995230425337
20
-0.0309880807931506
30
0
41
1
10
31.9995248686063
20
-0.0306663257479158
30
0
41
1
10
31.9995266637993
20
-0.030344548331442
30
0
41
1
10
31.999528428101
20
-0.030022748540091
30
0
0
SPLINE
5
10B
100
AcDbEntity
8
1
62
256
6
ByLayer
370
18
48
1
60
0
100
AcDbSpline
70
4
71
3
72
8
73
4
40
0
40
0
40
0
40
0
40
1
40
1
40
1
40
1
41
1
10
31.9995284282003
20
-0.0300227344153541
30
0
41
1
10
31.9946962692303
20
-0.0447404019301132
30
0
41
1
10
31.9898384099281
20
-0.0594552815283578
30
0
41
1
10
31.9849539312401
20
-0.0741672525815602
30
0
0
SPLINE
5
10C
100
AcDbEntity
8
1
62
256
6
ByLayer
370
18
48
1
60
0
100
AcDbSpline
70
4
71
3
72
8
73
4
40
0
40
0
40
0
40
0
40
1
40
1
40
1
40
1
41
1
10
31.9849681622271
20
0.0269234303043504
30
0
41
1
10
31.9852612783409
20
-0.0067723481436985
30
0
41
1
10
31.9852564625241
20
-0.0404692076788251
30
0
41
1
10
31.9849539312401
20
-0.0741672525815602
30
0
0
SPLINE
5
10D
100
AcDbEntity
8
1
62
256
6
ByLayer
370
18
48
1
60
0
100
AcDbSpline
70
4
71
3
72
24
73
20
40
0
40
0
40
0
40
0
40
0.249999999999957
40
0.249999999999957
40
0.374999999999966
40
0.374999999999966
40
0.499999999999974
40
0.499999999999974
40
0.624999999999983
40
0.624999999999983
40
0.687499999999983
40
0.687499999999983
40
0.749999999999984
40
0.749999999999984
40
0.874999999999971
40
0.874999999999971
40
0.937499999999986
40
0.937499999999986
40
1
40
1
40
1
40
1
41
1
10
29.4259823939299
20
-1.65086991959961
30
0
41
1
10
29.4358595262751
20
-1.66691371369478
30
0
41
1
10
29.4447762748472
20
-1.6836642579681
30
0
41
1
10
29.4561348210017
20
-1.71027407129353
30
0
41
1
10
29.4595816031403
20
-1.71939377383362
30
0
41
1
10
29.4656248071951
20
-1.73825895992579
30
0
41
1
10
29.4682361747738
20
-1.74807004046636
30
0
41
1
10
29.4722741149627
20
-1.76820284627968
30
0
41
1
10
29.4736858944326
20
-1.77841939620896
30
0
41
1
10
29.4747063343546
20
-1.79401554563148
30
0
41
1
10
29.4748628650171
20
-1.79925966694449
30
0
41
1
10
29.4747654071858
20
-1.80984942337281
30
0
41
1
10
29.4745074336158
20
-1.81521801902926
30
0
41
1
10
29.4730794609129
20
-1.8311373980217
30
0
41
1
10
29.4712632807175
20
-1.84159522790051
30
0
41
1
10
29.4671530264621
20
-1.85703324338607
30
0
41
1
10
29.4655422329657
20
-1.86215989115914
30
0
41
1
10
29.4618989856125
20
-1.87216750555527
30
0
41
1
10
29.4598662492799
20
-1.87705867531156
30
0
41
1
10
29.4576289957946
20
-1.88184072468309
30
0
0
SPLINE
5
10E
100
AcDbEntity
8
1
62
256
6
ByLayer
370
18
48
1
60
0
100
AcDbSpline
70
4
71
3
72
8
73
4
40
0
40
0
40
0
40
0
40
1
40
1
40
1
40
1
41
1
10
17.1339964285192
20
-4.75883073013878
30
0
41
1
10
17.0892316847091
20
-4.7616508479617
30
0
41
1
10
17.0445649766439
20
-4.76424438624127
30
0
41
1
10
17.0000000000001
20
-4.76660218269436
30
0
0
SPLINE
5
10F
100
AcDbEntity
8
1
62
256
6
ByLayer
370
18
48
1
60
0
100
AcDbSpline
70
4
71
3
72
35
73
31
40
0
40
0
40
0
40
0
40
0.0331986650529729
40
0.067418481415571
40
0.102658392990391
40
0.138917292262829
40
0.176194020879623
40
0.214487370113463
40
0.253796081233689
40
0.294118845799905
40
0.319910674603505
40
0.346849993580858
40
0.374940279078802
40
0.404184641203486
40
0.434585878848671
40
0.466146524340219
40
0.498868879781098
40
0.532755046708203
40
0.567806950316764
40
0.604026359238257
40
0.641414901651712
40
0.679974078349432
40
0.719705273254963
40
0.760609761794935
40
0.802688717450627
40
0.845943216755283
40
0.89037424295549
40
0.935982688516701
40
0.982769356622328
40
1
40
1
40
1
40
1
41
1
10
17.1358814970393
20
-4.75988207391271
30
0
41
1
10
17.133883908936
20
-4.75135852962705
30
0
41
1
10
17.1298272893035
20
-4.73404926700763
30
0
41
1
10
17.1235602060926
20
-4.70745152873795
30
0
41
1
10
17.1170440966737
20
-4.67987022882758
30
0
41
1
10
17.1102713171612
20
-4.65126933335776
30
0
41
1
10
17.1032460827612
20
-4.62163370216584
30
0
41
1
10
17.0959591256504
20
-4.59094599422158
30
0
41
1
10
17.088444430262
20
-4.55917338841246
30
0
41
1
10
17.0815824456915
20
-4.53056593199045
30
0
41
1
10
17.0757365857239
20
-4.50504097021525
30
0
41
1
10
17.0710904668124
20
-4.48257462912795
30
0
41
1
10
17.0665727727322
20
-4.45888712871783
30
0
41
1
10
17.0622083123457
20
-4.43395371530525
30
0
41
1
10
17.0579900730573
20
-4.40776182649455
30
0
41
1
10
17.0539201002305
20
-4.38029492260802
30
0
41
1
10
17.0499978590194
20
-4.35153711358996
30
0
41
1
10
17.0462235412395
20
-4.32147186972671
30
0
41
1
10
17.0425971284866
20
-4.2900824138903
30
0
41
1
10
17.0391186577639
20
-4.25735163886199
30
0
41
1
10
17.0357881469356
20
-4.22326216054978
30
0
41
1
10
17.0326056161647
20
-4.18779633440698
30
0
41
1
10
17.0295710822471
20
-4.15093628379637
30
0
41
1
10
17.0266845605279
20
-4.11266392657731
30
0
41
1
10
17.0239460646479
20
-4.07296100379065
30
0
41
1
10
17.021355606866
20
-4.03180910937047
30
0
41
1
10
17.0189131981896
20
-3.98918972120148
30
0
41
1
10
17.0166188485338
20
-3.94508423345187
30
0
41
1
10
17.0149425408302
20
-3.90946132210607
30
0
41
1
10
17.0140244034622
20
-3.88854641880727
30
0
41
1
10
17.013781571068
20
-3.88290897336847
30
0
0
SPLINE
5
110
100
AcDbEntity
8
1
62
256
6
ByLayer
370
18
48
1
60
0
100
AcDbSpline
70
4
71
3
72
12
73
8
40
0
40
0
40
0
40
0
40
0.499999999999986
40
0.499999999999986
40
0.749999999999993
40
0.749999999999993
40
1
40
1
40
1
40
1
41
1
10
17
20
-4.76660218269441
30
0
41
1
10
16.8977927365443
20
-4.79741687517375
30
0
41
1
10
16.79561862609
20
-4.83149710219476
30
0
41
1
10
16.6422716990417
20
-4.88737902329854
30
0
41
1
10
16.5910984809414
20
-4.90681870464419
30
0
41
1
10
16.4890640732807
20
-4.94712348897019
30
0
41
1
10
16.4381709144849
20
-4.96799894013245
30
0
41
1
10
16.3873886226231
20
-4.989578581079
30
0
0
SPLINE
5
111
100
AcDbEntity
8
1
62
256
6
ByLayer
370
18
48
1
60
0
100
AcDbSpline
70
4
71
3
72
33
73
29
40
0
40
0
40
0
40
0
40
0.125000000000014
40
0.125000000000014
40
0.156250000000018
40
0.156250000000018
40
0.187500000000021
40
0.187500000000021
40
0.250000000000028
40
0.250000000000028
40
0.375000000000042
40
0.375000000000042
40
0.437500000000049
40
0.437500000000049
40
0.468750000000052
40
0.468750000000052
40
0.500000000000056
40
0.500000000000056
40
0.625000000000043
40
0.625000000000043
40
0.750000000000031
40
0.750000000000031
40
0.781250000000028
40
0.781250000000028
40
0.812500000000025
40
0.875000000000019
40
0.875000000000019
40
1
40
1
40
1
40
1
41
1
10
28.9439764137651
20
-3.2966912952966
30
0
41
1
10
29.056451197544
20
-3.30766813511087
30
0
41
1
10
29.1700700469941
20
-3.30888431774986
30
0
41
1
10
29.3136005953941
20
-3.29754760975851
30
0
41
1
10
29.3423824464798
20
-3.29463407632608
30
0
41
1
10
29.4001012089393
20
-3.28748410435719
30
0
41
1
10
29.4290316227261
20
-3.2832447755101
30
0
41
1
10
29.5153114119541
20
-3.26863797900336
30
0
41
1
10
29.5723986178722
20
-3.25635668756013
30
0
41
1
10
29.7423761976919
20
-3.21196437925201
30
0
41
1
10
29.8539889459255
20
-3.17234262400245
30
0
41
1
10
30.0187881946256
20
-3.09750862116385
30
0
41
1
10
30.0732830487606
20
-3.06998775170311
30
0
41
1
10
30.1543450598911
20
-3.02470736494033
30
0
41
1
10
30.1812522402939
20
-3.00894673269551
30
0
41
1
10
30.2348343689185
20
-2.97606025208751
30
0
41
1
10
30.2613602308957
20
-2.9590247781351
30
0
41
1
10
30.3923949963948
20
-2.87110865548183
30
0
41
1
10
30.4924572397908
20
-2.79189101993512
30
0
41
1
10
30.6831562436858
20
-2.61588325317965
30
0
41
1
10
30.7737865726852
20
-2.51908113133905
30
0
41
1
10
30.8808974313893
20
-2.38656222780318
30
0
41
1
10
30.9019221940424
20
-2.35958505961852
30
0
41
1
10
30.943012361943
20
-2.30492077410457
30
0
41
1
10
31.0032926789287
20
-2.2217548557928
30
0
41
1
10
31.0595733114596
20
-2.13513667475115
30
0
41
1
10
31.1669289151803
20
-1.95740713055929
30
0
41
1
10
31.2315686585397
20
-1.83293868181599
30
0
41
1
10
31.2891100328534
20
-1.70234339102407
30
0
0
SPLINE
5
112
100
AcDbEntity
8
1
62
256
6
ByLayer
370
18
48
1
60
0
100
AcDbSpline
70
4
71
3
72
28
73
24
40
0
40
0
40
0
40
0
40
0.0017221143484261
40
0.0073176427291143
40
0.0111881800490606
40
0.0128981209462201
40
0.0256663268228017
40
0.099216600816959
40
0.12713816993856
40
0.137899026781948
40
0.147297686746989
40
0.149744265404303
40
0.15111106959623
40
0.154306597409493
40
0.158000156793029
40
0.180583466998414
40
0.283595115640287
40
0.359577691116985
40
0.445623935539157
40
0.752370802418264
40
0.878211556088642
40
0.957510567440235
40
1
40
1
40
1
40
1
41
1
10
26.9999966677653
20
-3.79200399919031
30
0
41
1
10
27.0031483476712
20
-3.79316762647764
30
0
41
1
10
27.0165580650194
20
-3.7981205781586
30
0
41
1
10
27.0371820957885
20
-3.80575279197137
30
0
41
1
10
27.0575986698578
20
-3.81324648046274
30
0
41
1
10
27.0913113278641
20
-3.82572468930192
30
0
41
1
10
27.2529049629579
20
-3.88363686243662
30
0
41
1
10
27.4613198949546
20
-3.94385954832461
30
0
41
1
10
27.6646610903523
20
-3.98810560005481
30
0
41
1
10
27.7516004318767
20
-4.00489360224657
30
0
41
1
10
27.7923106919017
20
-4.01209054650352
30
0
41
1
10
27.8159993620069
20
-4.01595239097395
30
0
41
1
10
27.8288225818165
20
-4.01832292604146
30
0
41
1
10
27.8439661747359
20
-4.02101294205318
30
0
41
1
10
27.8972733413056
20
-4.02985502300535
30
0
41
1
10
28.130280080984
20
-4.06305977653628
30
0
41
1
10
28.4837925599323
20
-4.07493310015198
30
0
41
1
10
28.9355321567043
20
-4.02392398820413
30
0
41
1
10
29.7149843102812
20
-3.83030874798817
30
0
41
1
10
30.5277132956261
20
-3.33501239885376
30
0
41
1
10
31.1702910526804
20
-2.5388721534562
30
0
41
1
10
31.4317864520129
20
-2.08196861502122
30
0
41
1
10
31.5433643771379
20
-1.83566270599712
30
0
41
1
10
31.579975226464
20
-1.7470124630521
30
0
0
SPLINE
5
113
100
AcDbEntity
8
1
62
256
6
ByLayer
370
18
48
1
60
0
100
AcDbSpline
70
4
71
3
72
12
73
8
40
0
40
0
40
0
40
0
40
0.250000000000003
40
0.250000000000003
40
0.500000000000006
40
0.500000000000006
40
1
40
1
40
1
40
1
41
1
10
31.579975226464
20
-1.7470124630521
30
0
41
1
10
31.5794623366249
20
-1.7339221102755
30
0
41
1
10
31.5793970430581
20
-1.72046217339226
30
0
41
1
10
31.5799097211406
20
-1.69298544322214
30
0
41
1
10
31.5804902528001
20
-1.67896666783517
30
0
41
1
10
31.5829785347376
20
-1.63622608126201
30
0
41
1
10
31.5856223823791
20
-1.6068279268662
30
0
41
1
10
31.5889109631983
20
-1.57674503570394
30
0
0
SPLINE
5
114
100
AcDbEntity
8
1
62
256
6
ByLayer
370
18
48
1
60
0
100
AcDbSpline
70
4
71
3
72
8
73
4
40
0
40
0
40
0
40
0
40
1
40
1
40
1
40
1
41
1
10
31.616617406961
20
-1.29990455562333
30
0
41
1
10
31.6082252761495
20
-1.392710898578
30
0
41
1
10
31.5989443602792
20
-1.48496271105529
30
0
41
1
10
31.5889109631979
20
-1.57674503570465
30
0
0
SPLINE
5
115
100
AcDbEntity
8
1
62
256
6
ByLayer
370
18
48
1
60
0
100
AcDbSpline
70
4
71
3
72
12
73
8
40
0
40
0
40
0
40
0
40
0.249999999999994
40
0.249999999999994
40
0.499999999999987
40
0.499999999999987
40
1
40
1
40
1
40
1
41
1
10
31.2891100328523
20
-1.70234339102478
30
0
41
1
10
31.3182754420488
20
-1.6716354155933
30
0
41
1
10
31.3469856792047
20
-1.64019803123424
30
0
41
1
10
31.4034996925875
20
-1.57587066737602
30
0
41
1
10
31.4313073214738
20
-1.54297471726292
30
0
41
1
10
31.513229987894
20
-1.44228900764364
30
0
41
1
10
31.5658983370582
20
-1.37245409013462
30
0
41
1
10
31.616617406961
20
-1.29990455562327
30
0
0
SPLINE
5
116
100
AcDbEntity
8
1
62
256
6
ByLayer
370
13
48
1
60
0
100
AcDbSpline
70
4
71
3
72
10
73
6
40
0
40
0
40
0
40
0
40
0.101909123094567
40
0.401272748729711
40
1
40
1
40
1
40
1
41
1
10
23.2632859821293
20
-2.53591366210401
30
0
41
1
10
23.0505239880862
20
-2.48750147427126
30
0
41
1
10
22.2127619940431
20
-2.28789584885081
30
0
41
1
10
20.1250000000001
20
-1.70815619515045
30
0
41
1
10
18.2500000000001
20
-1.05435306677458
30
0
41
1
10
17
20
-0.59902735555255
30
0
0
SPLINE
5
117
100
AcDbEntity
8
1
62
256
6
ByLayer
370
18
48
1
60
0
100
AcDbSpline
70
4
71
3
72
41
73
37
40
0
40
0
40
0
40
0
40
0.0413385373121467
40
0.0413385373121467
40
0.0826770746242933
40
0.0826770746242933
40
0.165354149248587
40
0.165354149248587
40
0.330708298497174
40
0.330708298497174
40
0.41338537312148
40
0.41338537312148
40
0.454723910433646
40
0.454723910433646
40
0.496062447745811
40
0.496062447745811
40
0.537400985057977
40
0.537400985057977
40
0.547735619386025
40
0.547735619386025
40
0.558070253714073
40
0.558070253714073
40
0.568404888042121
40
0.568404888042121
40
0.578739522370169
40
0.578739522370169
40
0.661416596994633
40
0.661416596994633
40
0.702755134306865
40
0.702755134306865
40
0.744093671619098
40
0.744093671619098
40
0.826770746243562
40
0.99212489549249
40
0.99212489549249
40
1
40
1
40
1
40
1
41
1
10
27.0000009095249
20
-4.6545574115176
30
0
41
1
10
27.0182710496681
20
-4.65215080903741
30
0
41
1
10
27.0365386617032
20
-4.64971195952
30
0
41
1
10
27.0730794503842
20
-4.64473863667382
30
0
41
1
10
27.0913856467726
20
-4.64210267974894
30
0
41
1
10
27.1464064921386
20
-4.63378399483068
30
0
41
1
10
27.1832321013394
20
-4.62766423199312
30
0
41
1
10
27.2941644359022
20
-4.60768600283163
30
0
41
1
10
27.3687265590402
20
-4.59221483227708
30
0
41
1
10
27.4814911277043
20
-4.56630572846222
30
0
41
1
10
27.5192366564101
20
-4.55720803724861
30
0
41
1
10
27.5760592730126
20
-4.54300989229506
30
0
41
1
10
27.5950330289469
20
-4.53818816730194
30
0
41
1
10
27.6330346918167
20
-4.5284038439292
30
0
41
1
10
27.6520515451107
20
-4.52346906884168
30
0
41
1
10
27.6902034291288
20
-4.51330255903909
30
0
41
1
10
27.7093445448976
20
-4.50805495419053
30
0
41
1
10
27.7334567844454
20
-4.50104209334415
30
0
41
1
10
27.7383025370222
20
-4.49958210403568
30
0
41
1
10
27.74791080926
20
-4.49687055942195
30
0
41
1
10
27.752646171509
20
-4.49568608252153
30
0
41
1
10
27.7621803910893
20
-4.49315918787238
30
0
41
1
10
27.7669658010728
20
-4.4918504259002
30
0
41
1
10
27.7765823527134
20
-4.48912083904239
30
0
41
1
10
27.7814072612567
20
-4.48771547513931
30
0
41
1
10
27.8248214857788
20
-4.47509748704655
30
0
41
1
10
27.8635305097928
20
-4.46362619617923
30
0
41
1
10
27.9218620322878
20
-4.44585877432888
30
0
41
1
10
27.9413493324703
20
-4.43984605357275
30
0
41
1
10
27.9804149948919
20
-4.4276380938272
30
0
41
1
10
28.0000153058413
20
-4.4214357200967
30
0
41
1
10
28.0587091795758
20
-4.40263289490687
30
0
41
1
10
28.1758054251763
20
-4.36420314102776
30
0
41
1
10
28.2920709161341
20
-4.32341277709597
30
0
41
1
10
28.3729321791773
20
-4.29394597833939
30
0
41
1
10
28.3766074443186
20
-4.29260428601557
30
0
41
1
10
28.3802819761643
20
-4.29126048581904
30
0
0
SPLINE
5
118
100
AcDbEntity
8
1
62
256
6
ByLayer
370
18
48
1
60
0
100
AcDbSpline
70
4
71
3
72
11
73
7
40
0
40
0
40
0
40
0
40
0.418921276979352
40
0.698202128298919
40
0.837842553958703
40
1
40
1
40
1
40
1
41
1
10
17.0000000000001
20
-3.55368461914389
30
0
41
1
10
18.2500000000001
20
-4.04707802705965
30
0
41
1
10
20.3333333333333
20
-4.68132151557916
30
0
41
1
10
22.8333333333334
20
-4.94938764673827
30
0
41
1
10
24.5671875052035
20
-4.9228880303605
30
0
41
1
10
25.4677083437403
20
-4.82828343248741
30
0
41
1
10
25.9515625156105
20
-4.75533214264678
30
0
0
SPLINE
5
119
100
AcDbEntity
8
1
62
256
6
ByLayer
370
18
48
1
60
0
100
AcDbSpline
70
4
71
3
72
34
73
30
40
0
40
0
40
0
40
0
40
0.125000000000011
40
0.125000000000011
40
0.156250000000012
40
0.156250000000012
40
0.187500000000014
40
0.187500000000014
40
0.250000000000013
40
0.250000000000013
40
0.375000000000011
40
0.375000000000011
40
0.43750000000001
40
0.43750000000001
40
0.46875000000001
40
0.46875000000001
40
0.50000000000001
40
0.50000000000001
40
0.625000000000008
40
0.625000000000008
40
0.687500000000007
40
0.687500000000007
40
0.718750000000007
40
0.718750000000007
40
0.750000000000006
40
0.750000000000006
40
0.875000000000003
40
0.875000000000003
40
1
40
1
40
1
40
1
41
1
10
27
20
-4.65456026878428
30
0
41
1
10
26.5880318196361
20
-4.70756136270748
30
0
41
1
10
26.1767828764704
20
-4.74470312334645
30
0
41
1
10
25.6621622505406
20
-4.77100132450971
30
0
41
1
10
25.5592107868293
20
-4.77525404585205
30
0
41
1
10
25.3532189255437
20
-4.78173556897397
30
0
41
1
10
25.2501440138184
20
-4.78396433106849
30
0
41
1
10
24.9411501271732
20
-4.78759522795184
30
0
41
1
10
24.7353750298539
20
-4.78594852454373
30
0
41
1
10
24.1183409446252
20
-4.76880055697282
30
0
41
1
10
23.7073737086825
20
-4.74111327079163
30
0
41
1
10
23.0904012903618
20
-4.67599617472121
30
0
41
1
10
22.8846566768789
20
-4.65034983029344
30
0
41
1
10
22.5757573480633
20
-4.60600417697572
30
0
41
1
10
22.4727436347133
20
-4.59024262215885
30
0
41
1
10
22.2665955792232
20
-4.55676093095244
30
0
41
1
10
22.1634845756994
20
-4.53904357247222
30
0
41
1
10
21.6484699441681
20
-4.44573429786632
30
0
41
1
10
21.2374991674373
20
-4.35588114195198
30
0
41
1
10
20.6212456945533
20
-4.19871042379881
30
0
41
1
10
20.4158638450205
20
-4.14256817097956
30
0
41
1
10
20.1075823268442
20
-4.05301042595156
30
0
41
1
10
20.0047869840801
20
-4.02226767389561
30
0
41
1
10
19.7990841957683
20
-3.95904996788525
30
0
41
1
10
19.6961350210993
20
-3.92656138655235
30
0
41
1
10
19.181559746964
20
-3.76008569463872
30
0
41
1
10
18.7707473539969
20
-3.61415223760474
30
0
41
1
10
17.9484421461573
20
-3.30009021682071
30
0
41
1
10
17.5369504672664
20
-3.13197635543352
30
0
41
1
10
17.124203390874
20
-2.95387927525957
30
0
0
SPLINE
5
11A
100
AcDbEntity
8
1
62
256
6
ByLayer
370
18
48
1
60
0
100
AcDbSpline
70
4
71
3
72
12
73
8
40
0
40
0
40
0
40
0
40
0.250000000000001
40
0.250000000000001
40
0.500000000000002
40
0.500000000000002
40
1
40
1
40
1
40
1
41
1
10
31.126450302481
20
-1.05077578600094
30
0
41
1
10
31.126888424854
20
-1.05719579372038
30
0
41
1
10
31.1265688392643
20
-1.0633007669156
30
0
41
1
10
31.1248491538678
20
-1.07506146465215
30
0
41
1
10
31.1234776286298
20
-1.08052994857061
30
0
41
1
10
31.1183836906671
20
-1.0960635262258
30
0
41
1
10
31.1136705402303
20
-1.10533292619203
30
0
41
1
10
31.1083739543834
20
-1.11382239842345
30
0
0
SPLINE
5
11B
100
AcDbEntity
8
1
62
256
6
ByLayer
370
13
48
1
60
0
100
AcDbSpline
70
4
71
3
72
18
73
14
40
0
40
0
40
0
40
0
40
0.249999999999994
40
0.249999999999994
40
0.499999999999989
40
0.499999999999989
40
0.624999999999992
40
0.624999999999992
40
0.749999999999994
40
0.749999999999994
40
0.874999999999997
40
0.874999999999997
40
1
40
1
40
1
40
1
41
1
10
31.1083739543836
20
-1.11382239842342
30
0
41
1
10
30.9270233884514
20
-1.14587386158797
30
0
41
1
10
30.7478021396961
20
-1.1719592293459
30
0
41
1
10
30.3953745767368
20
-1.21028997847219
30
0
41
1
10
30.2222591437649
20
-1.22289476648598
30
0
41
1
10
29.9671309937249
20
-1.2302815850793
30
0
41
1
10
29.8828440097236
20
-1.23080998676539
30
0
41
1
10
29.7157477497381
20
-1.22753667597493
30
0
41
1
10
29.6329235316549
20
-1.22369338104093
30
0
41
1
10
29.468853583696
20
-1.21146822867362
30
0
41
1
10
29.3876127399316
20
-1.20310431421345
30
0
41
1
10
29.226975817155
20
-1.18201357997603
30
0
41
1
10
29.1483900672825
20
-1.16942070833969
30
0
41
1
10
29.0713472807848
20
-1.15495325952071
30
0
0
SPLINE
5
11C
100
AcDbEntity
8
1
62
256
6
ByLayer
370
18
48
1
60
0
100
AcDbSpline
70
4
71
3
72
8
73
4
40
0
40
0
40
0
40
0
40
1
40
1
40
1
40
1
41
1
10
29.2264177235876
20
1.77362361903508
30
0
41
1
10
29.2523644980149
20
1.72680854906579
30
0
41
1
10
29.2771161862066
20
1.6799052830585
30
0
41
1
10
29.3002963444549
20
1.63288606949001
30
0
0
SPLINE
5
11D
100
AcDbEntity
8
1
62
256
6
ByLayer
370
18
48
1
60
0
100
AcDbSpline
70
4
71
3
72
16
73
12
40
0
40
0
40
0
40
0
40
0.249999999999999
40
0.249999999999999
40
0.499999999999998
40
0.499999999999998
40
0.625
40
0.625
40
0.750000000000002
40
0.750000000000002
40
1
40
1
40
1
40
1
41
1
10
29.3002963284645
20
1.63288607834943
30
0
41
1
10
29.3071325918228
20
1.61902142647011
30
0
41
1
10
29.3130965466999
20
1.60541272826262
30
0
41
1
10
29.3227098042869
20
1.57887448165221
30
0
41
1
10
29.3263812465466
20
1.56591755535578
30
0
41
1
10
29.3293039077033
20
1.5473041535636
30
0
41
1
10
29.329819843256
20
1.54136516594434
30
0
41
1
10
29.329811248071
20
1.53008992202362
30
0
41
1
10
29.3292802310146
20
1.52472406086835
30
0
41
1
10
29.3259131866541
20
1.50987890290995
30
0
41
1
10
29.3214041913754
20
1.50192191480693
30
0
41
1
10
29.3145304236626
20
1.49599078430697
30
0
0
SPLINE
5
11E
100
AcDbEntity
8
1
62
256
6
ByLayer
370
18
48
1
60
0
100
AcDbSpline
70
4
71
3
72
16
73
12
40
0
40
0
40
0
40
0
40
0.500000000000047
40
0.500000000000047
40
0.625000000000055
40
0.625000000000055
40
0.687500000000049
40
0.687500000000049
40
0.750000000000043
40
0.750000000000043
40
1
40
1
40
1
40
1
41
1
10
29.7398701311785
20
1.517112146562
30
0
41
1
10
29.9548674703722
20
1.33577650471324
30
0
41
1
10
30.1748362010407
20
1.16734263022801
30
0
41
1
10
30.4553291218073
20
0.971156966390708
30
0
41
1
10
30.5117056546138
20
0.932641166650654
30
0
41
1
10
30.5966784547672
20
0.875926312091195
30
0
41
1
10
30.625070937103
20
0.857198393910835
30
0
41
1
10
30.6819879712257
20
0.820085304513754
30
0
41
1
10
30.7105332537698
20
0.801686861376197
30
0
41
1
10
30.8532952192759
20
0.71069986705254
30
0
41
1
10
30.9675027082979
20
0.64118974295954
30
0
41
1
10
31.0817085169035
20
0.574324777371459
30
0
0
SPLINE
5
11F
100
AcDbEntity
8
1
62
256
6
ByLayer
370
18
48
1
60
0
100
AcDbSpline
70
4
71
3
72
8
73
4
40
0
40
0
40
0
40
0
40
1
40
1
40
1
40
1
41
1
10
29.2378545573516
20
-1.29457527293582
30
0
41
1
10
29.2135404796944
20
-1.29349258026451
30
0
41
1
10
29.1892049044673
20
-1.29245882063526
30
0
41
1
10
29.1648486896333
20
-1.29147204114182
30
0
0
SPLINE
5
120
100
AcDbEntity
8
1
62
256
6
ByLayer
370
18
48
1
60
0
100
AcDbSpline
70
4
71
3
72
8
73
4
40
0
40
0
40
0
40
0
40
1
40
1
40
1
40
1
41
1
10
29.0713472807848
20
-1.15495325952085
30
0
41
1
10
29.1261732835208
20
-1.20157727296123
30
0
41
1
10
29.1816414049416
20
-1.24818709774604
30
0
41
1
10
29.2378545573513
20
-1.29457527293604
30
0
0
SPLINE
5
121
100
AcDbEntity
8
1
62
256
6
ByLayer
370
18
48
1
60
0
100
AcDbSpline
70
4
71
3
72
38
73
34
40
0
40
0
40
0
40
0
40
0.125000000000004
40
0.125000000000004
40
0.250000000000008
40
0.250000000000008
40
0.375000000000012
40
0.375000000000012
40
0.500000000000015
40
0.500000000000015
40
0.562500000000017
40
0.562500000000017
40
0.625000000000019
40
0.625000000000019
40
0.750000000000015
40
0.750000000000015
40
0.812500000000013
40
0.812500000000013
40
0.875000000000011
40
0.875000000000011
40
0.906250000000009
40
0.906250000000009
40
0.937500000000007
40
0.937500000000007
40
0.953125000000012
40
0.953125000000012
40
0.968750000000017
40
0.968750000000017
40
0.97656250000002
40
0.97656250000002
40
0.984375000000023
40
0.984375000000023
40
1
40
1
40
1
40
1
41
1
10
29.0713472807848
20
-1.15495325952082
30
0
41
1
10
29.0395075526373
20
-1.1278767659046
30
0
41
1
10
29.0104652651613
20
-1.09992659812369
30
0
41
1
10
28.9572439749559
20
-1.04312569705124
30
0
41
1
10
28.9330726714845
20
-1.01427172385743
30
0
41
1
10
28.8891327711584
20
-0.956484981886746
30
0
41
1
10
28.8697467471792
20
-0.928061435364526
30
0
41
1
10
28.8354206190789
20
-0.873042358103362
30
0
41
1
10
28.8204562126535
20
-0.846414233308735
30
0
41
1
10
28.8008768619487
20
-0.808295023241612
30
0
41
1
10
28.7948221961015
20
-0.79587436236946
30
0
41
1
10
28.7836759024743
20
-0.771806354180626
30
0
41
1
10
28.7786133049118
20
-0.760225571182957
30
0
41
1
10
28.7649053393727
20
-0.72693256247311
30
0
41
1
10
28.7576578044739
20
-0.706639791990966
30
0
41
1
10
28.750351496201
20
-0.679715934881557
30
0
41
1
10
28.7485175688935
20
-0.671309035748493
30
0
41
1
10
28.7466764969672
20
-0.656137152531954
30
0
41
1
10
28.7466197460518
20
-0.649315027271342
30
0
41
1
10
28.7491011763885
20
-0.640969748825825
30
0
41
1
10
28.7503604253781
20
-0.638501025426166
30
0
41
1
10
28.754341989643
20
-0.634459197386263
30
0
41
1
10
28.7570418487445
20
-0.632887228601248
30
0
41
1
10
28.7630655725752
20
-0.631722402057363
30
0
41
1
10
28.7654182783671
20
-0.631540010144732
30
0
41
1
10
28.7709329470593
20
-0.631721832698645
30
0
41
1
10
28.7741045961926
20
-0.632081009486285
30
0
41
1
10
28.7797516763334
20
-0.633161330716348
30
0
41
1
10
28.7817827392857
20
-0.633613875767992
30
0
41
1
10
28.7860324621879
20
-0.634684571085415
30
0
41
1
10
28.7882668675769
20
-0.635305460657179
30
0
41
1
10
28.7953116846431
20
-0.63742738531846
30
0
41
1
10
28.8004623914559
20
-0.639193378841242
30
0
41
1
10
28.805784897467
20
-0.641181023847736
30
0
0
SPLINE
5
122
100
AcDbEntity
8
1
62
256
6
ByLayer
370
13
48
1
60
0
100
AcDbSpline
70
4
71
3
72
13
73
9
40
0
40
0
40
0
40
0
40
0.301787004147593
40
0.452680506221389
40
0.603574008295185
40
0.754467510368981
40
0.905361012442778
40
1
40
1
40
1
40
1
41
1
10
17
20
2.43407023044881
30
0
41
1
10
18.2500000000001
20
2.14657800187379
30
0
41
1
10
20.1250000000001
20
1.59620279450604
30
0
41
1
10
22.625
20
0.73537113283345
30
0
41
1
10
24.5000000000001
20
0.0539995981485504
30
0
41
1
10
26.375
20
-0.628366703185748
30
0
41
1
10
28.0169941310285
20
-1.20155397028358
30
0
41
1
10
29.033988262057
20
-1.52951244022307
30
0
41
1
10
29.4259823930855
20
-1.65086991971975
30
0
0
SPLINE
5
123
100
AcDbEntity
8
1
62
256
6
ByLayer
370
18
48
1
60
0
100
AcDbSpline
70
4
71
3
72
10
73
6
40
0
40
0
40
0
40
0
40
0.5
40
0.5
40
1
40
1
40
1
40
1
41
1
10
29.1648486896333
20
-1.29147204114182
30
0
41
1
10
29.2114528656927
20
-1.34742428798046
30
0
41
1
10
29.2567717096261
20
-1.4050228353363
30
0
41
1
10
29.3441285500564
20
-1.52442215974619
30
0
41
1
10
29.3861797249341
20
-1.58620608031958
30
0
41
1
10
29.4259824107937
20
-1.65086992520202
30
0
0
SPLINE
5
124
100
AcDbEntity
8
1
62
256
6
ByLayer
370
13
48
1
60
0
100
AcDbSpline
70
4
71
3
72
10
73
6
40
0
40
0
40
0
40
0
40
0.660563492400126
40
0.990845238600188
40
1
40
1
40
1
40
1
41
1
10
17
20
-0.405769444253366
30
0
41
1
10
18.2500000000001
20
-0.856303263051757
30
0
41
1
10
20.1250000000001
20
-1.51347459821176
30
0
41
1
10
22.0173237726296
20
-2.05536844698219
30
0
41
1
10
22.6596475452593
20
-2.22117274432486
30
0
41
1
10
22.6769713178889
20
-2.22563129403619
30
0
0
SPLINE
5
125
100
AcDbEntity
8
1
62
256
6
ByLayer
370
18
48
1
60
0
100
AcDbSpline
70
4
71
3
72
19
73
15
40
0
40
0
40
0
40
0
40
0.249999999999993
40
0.249999999999993
40
0.374999999999993
40
0.374999999999993
40
0.499999999999994
40
0.499999999999994
40
0.750000000000002
40
0.750000000000002
40
0.812500000000002
40
0.812500000000002
40
0.875000000000003
40
1
40
1
40
1
40
1
41
1
10
29.314530405243
20
1.49599079215426
30
0
41
1
10
29.2579692765774
20
1.44719431172862
30
0
41
1
10
29.2040455559319
20
1.39578719439282
30
0
41
1
10
29.1282550630554
20
1.31363312798624
30
0
41
1
10
29.1038447315899
20
1.28540393121582
30
0
41
1
10
29.0569821272187
20
1.22700735009366
30
0
41
1
10
29.0345546756882
20
1.19686796375919
30
0
41
1
10
28.9708571106985
20
1.10341334659509
30
0
41
1
10
28.9330745348217
20
1.03703143105423
30
0
41
1
10
28.8936666609111
20
0.947241833431491
30
0
41
1
10
28.8861709861286
20
0.928916792983586
30
0
41
1
10
28.8720846823229
20
0.891666373124934
30
0
41
1
10
28.8523097023515
20
0.834891626197788
30
0
41
1
10
28.8368301355392
20
0.775265532814416
30
0
41
1
10
28.8286593472928
20
0.734088323215502
30
0
0
SPLINE
5
126
100
AcDbEntity
8
1
62
256
6
ByLayer
370
13
48
1
60
0
100
AcDbSpline
70
4
71
3
72
10
73
6
40
0
40
0
40
0
40
0
40
0.265079962145075
40
0.731975899363402
40
1
40
1
40
1
40
1
41
1
10
29.314530421882
20
1.49599078277058
30
0
41
1
10
28.9596869479213
20
1.6123260496729
30
0
41
1
10
27.9798434739607
20
1.9232233992436
30
0
41
1
10
26.6412154196589
20
2.30004480424392
30
0
41
1
10
25.6574308393177
20
2.53087583836052
30
0
41
1
10
25.2986462589765
20
2.60835624293833
30
0
0
SPLINE
5
127
100
AcDbEntity
8
1
62
256
6
ByLayer
370
18
48
1
60
0
100
AcDbSpline
70
4
71
3
72
12
73
8
40
0
40
0
40
0
40
0
40
0.5
40
0.5
40
0.75
40
0.75
40
1
40
1
40
1
40
1
41
1
10
17.0000000000001
20
1.97839504062532
30
0
41
1
10
16.8977927365443
20
2.02202285355023
30
0
41
1
10
16.79561862609
20
2.06378004773382
30
0
41
1
10
16.6422716990418
20
2.1232540232177
30
0
41
1
10
16.5910984809414
20
2.14256499104036
30
0
41
1
10
16.4890640732807
20
2.1799161227884
30
0
41
1
10
16.4381709144849
20
2.19796963226409
30
0
41
1
10
16.3873886226231
20
2.21536275738859
30
0
0
SPLINE
5
128
100
AcDbEntity
8
1
62
256
6
ByLayer
370
18
48
1
60
0
100
AcDbSpline
70
4
71
3
72
8
73
4
40
0
40
0
40
0
40
0
40
1
40
1
40
1
40
1
41
1
10
17.1226515972426
20
4.73848400858299
30
0
41
1
10
17.0816711603956
20
4.74175585674982
30
0
41
1
10
17.0407860998963
20
4.74483966884304
30
0
41
1
10
16.9999999999983
20
4.74772775152277
30
0
0
SPLINE
5
129
100
AcDbEntity
8
1
62
256
6
ByLayer
370
18
48
1
60
0
100
AcDbSpline
70
4
71
3
72
34
73
30
40
0
40
0
40
0
40
0
40
0.124999999999996
40
0.124999999999996
40
0.156249999999995
40
0.156249999999995
40
0.187499999999994
40
0.187499999999994
40
0.249999999999992
40
0.249999999999992
40
0.374999999999991
40
0.374999999999991
40
0.437499999999991
40
0.437499999999991
40
0.46874999999999
40
0.46874999999999
40
0.49999999999999
40
0.49999999999999
40
0.624999999999992
40
0.624999999999992
40
0.687499999999994
40
0.687499999999994
40
0.718749999999994
40
0.718749999999994
40
0.749999999999995
40
0.749999999999995
40
0.874999999999997
40
0.874999999999997
40
1
40
1
40
1
40
1
41
1
10
27
20
1.36169777894878
30
0
41
1
10
26.5880318196428
20
1.58061108132753
30
0
41
1
10
26.1767828764874
20
1.7946067256519
30
0
41
1
10
25.662162250577
20
2.05353339053963
30
0
41
1
10
25.5592107868698
20
2.10489115144716
30
0
41
1
10
25.3532189255924
20
2.20669355401648
30
0
41
1
10
25.2501440138713
20
2.25715469620735
30
0
41
1
10
24.9411501272377
20
2.40688282643581
30
0
41
1
10
24.7353750299255
20
2.5045381436758
30
0
41
1
10
24.1183409447078
20
2.79041868439239
30
0
41
1
10
23.7073737087565
20
2.97157286827397
30
0
41
1
10
23.0904012904182
20
3.22788773295014
30
0
41
1
10
22.8846566769289
20
3.31075033183691
30
0
41
1
10
22.5757573481067
20
3.43096058997827
30
0
41
1
10
22.4727436347552
20
3.47034955271354
30
0
41
1
10
22.2665955792629
20
3.54772414428877
30
0
41
1
10
22.1634845757383
20
3.58570026399104
30
0
41
1
10
21.6484699442053
20
3.77164285748705
30
0
41
1
10
21.2374991674806
20
3.90809102445869
30
0
41
1
10
20.6212456946056
20
4.09231298822775
30
0
41
1
10
20.4158638450756
20
4.15029701506995
30
0
41
1
10
20.1075823269033
20
4.23194160710645
30
0
41
1
10
20.0047869841404
20
4.25826833354
30
0
41
1
10
19.7990841958312
20
4.3091159350831
30
0
41
1
10
19.6961350211637
20
4.33364622135062
30
0
41
1
10
19.1815597470339
20
4.45158723557242
30
0
41
1
10
18.7707473540715
20
4.53080469508024
30
0
41
1
10
17.948442146245
20
4.65819237179733
30
0
41
1
10
17.5369504673626
20
4.70638465083377
30
0
41
1
10
17.1242033909816
20
4.7385399860807
30
0
0
SPLINE
5
12A
100
AcDbEntity
8
1
62
256
6
ByLayer
370
18
48
1
60
0
100
AcDbSpline
70
4
71
3
72
18
73
14
40
0
40
0
40
0
40
0
40
0.250000000000002
40
0.250000000000002
40
0.375000000000003
40
0.375000000000003
40
0.500000000000003
40
0.500000000000003
40
0.750000000000006
40
0.750000000000006
40
0.875000000000003
40
0.875000000000003
40
1
40
1
40
1
40
1
41
1
10
29.4576289784288
20
-1.88184071816391
30
0
41
1
10
29.4048580829817
20
-1.99463320336579
30
0
41
1
10
29.3537765089625
20
-2.10843587965741
30
0
41
1
10
29.280361119395
20
-2.28105762332197
30
0
41
1
10
29.2564259793153
20
-2.33891911814212
30
0
41
1
10
29.2097737283767
20
-2.45537047347295
30
0
41
1
10
29.1870575303071
20
-2.51396015992702
30
0
41
1
10
29.1211232310314
20
-2.69061962421631
30
0
41
1
10
29.0800533320009
20
-2.8096766003903
30
0
41
1
10
29.0241319213281
20
-2.99079039950607
30
0
41
1
10
29.0064199473045
20
-3.05167809479434
30
0
41
1
10
28.9733561373761
20
-3.17385935667778
30
0
41
1
10
28.9579986140139
20
-3.23515740479735
30
0
41
1
10
28.9439764137462
20
-3.2966912952933
30
0
0
SPLINE
5
12B
100
AcDbEntity
8
1
62
256
6
ByLayer
370
13
48
1
60
0
100
AcDbSpline
70
4
71
3
72
13
73
9
40
0
40
0
40
0
40
0
40
0.0969389116124795
40
0.2474490930104
40
0.39795927440832
40
0.54846945580624
40
0.69897963720416
40
1
40
1
40
1
40
1
41
1
10
29.4576289961598
20
-1.88184072390263
30
0
41
1
10
29.0550859974399
20
-1.75977519282085
30
0
41
1
10
28.02754299872
20
-1.43269651488018
30
0
41
1
10
26.375
20
-0.855019665965272
30
0
41
1
10
24.5000000000001
20
-0.161277882337004
30
0
41
1
10
22.625
20
0.54237991132868
30
0
41
1
10
20.1250000000001
20
1.4438396071267
30
0
41
1
10
18.2500000000001
20
2.03640173361276
30
0
41
1
10
17
20
2.35465253792125
30
0
0
SPLINE
5
12C
100
AcDbEntity
8
1
62
256
6
ByLayer
370
18
48
1
60
0
100
AcDbSpline
70
4
71
3
72
48
73
44
40
0
40
0
40
0
40
0
40
0.0188443918889582
40
0.0382684147790957
40
0.0582714692031359
40
0.0788529265081103
40
0.100012129183768
40
0.121748391126275
40
0.144060997848658
40
0.166949206647454
40
0.181589293189518
40
0.196880723828562
40
0.212825471825925
40
0.22942530255557
40
0.246681804739535
40
0.264596415789259
40
0.283170442435915
40
0.302405077564359
40
0.322301413963508
40
0.342860455552785
40
0.364083126527296
40
0.385970278774249
40
0.408522697843238
40
0.431741107698285
40
0.455626174436687
40
0.480178509125619
40
0.505398669880411
40
0.531287163286756
40
0.557844445251627
40
0.585070921353621
40
0.612966946751923
40
0.641532825703792
40
0.670768810732731
40
0.700675101483271
40
0.73125184329303
40
0.762499125508437
40
0.794416979566944
40
0.827005376865554
40
0.860264226433054
40
0.89419337242126
40
0.928792591428908
40
0.964061589670334
40
1
40
1
40
1
40
1
41
1
10
17.1358814970246
20
1.90951141420229
30
0
41
1
10
17.1338839089212
20
1.91483804596476
30
0
41
1
10
17.1298272892888
20
1.9256551503247
30
0
41
1
10
17.123560206078
20
1.94183026765006
30
0
41
1
10
17.1170440966592
20
1.95825222395794
30
0
41
1
10
17.1102713171469
20
1.97487395085079
30
0
41
1
10
17.103246082747
20
1.99167406316167
30
0
41
1
10
17.0959591256364
20
2.00862611331212
30
0
41
1
10
17.0884444302481
20
2.02569146312877
30
0
41
1
10
17.081582445678
20
2.04067335607317
30
0
41
1
10
17.075736585711
20
2.053595203425
30
0
41
1
10
17.0710904668003
20
2.06451781493556
30
0
41
1
10
17.0665727727209
20
2.07562487335937
30
0
41
1
10
17.0622083123351
20
2.08688719177368
30
0
41
1
10
17.0579900730474
20
2.09828483396109
30
0
41
1
10
17.0539201002214
20
2.10979412646938
30
0
41
1
10
17.049997859011
20
2.12139135186956
30
0
41
1
10
17.0462235412317
20
2.13305169520262
30
0
41
1
10
17.0425971284793
20
2.14474953861375
30
0
41
1
10
17.0391186577573
20
2.15645837435679
30
0
41
1
10
17.0357881469295
20
2.16815082623853
30
0
41
1
10
17.0326056161592
20
2.17979864103469
30
0
41
1
10
17.0295710822421
20
2.19137268904001
30
0
41
1
10
17.0266845605233
20
2.20284296280147
30
0
41
1
10
17.0239460646438
20
2.21417857719851
30
0
41
1
10
17.0213556068624
20
2.22534777006535
30
0
41
1
10
17.0189131981864
20
2.23631790366622
30
0
41
1
10
17.0166188485309
20
2.24705546702359
30
0
41
1
10
17.014472566849
20
2.25752607918312
30
0
41
1
10
17.0124743612479
20
2.26769449349811
30
0
41
1
10
17.0106242391029
20
2.27752460293519
30
0
41
1
10
17.0089222071236
20
2.28697944674877
30
0
41
1
10
17.0073682715491
20
2.29602121753112
30
0
41
1
10
17.0059624378082
20
2.30461127283559
30
0
41
1
10
17.0047047122039
20
2.31271013552464
30
0
41
1
10
17.0035950957543
20
2.32027754436487
30
0
41
1
10
17.0026336082532
20
2.32727231800007
30
0
41
1
10
17.0018201958636
20
2.33365294544018
30
0
41
1
10
17.0011550871393
20
2.33937538703034
30
0
41
1
10
17.0006374235101
20
2.34440161746394
30
0
41
1
10
17.0002705253725
20
2.34866686841272
30
0
41
1
10
17.0000416558902
20
2.3522056076657
30
0
41
1
10
17.0000139720476
20
2.35383179862902
30
0
41
1
10
17.0000000000001
20
2.35465253792125
30
0
0
SPLINE
5
12D
100
AcDbEntity
8
1
62
256
6
ByLayer
370
18
48
1
60
0
100
AcDbSpline
70
4
71
3
72
43
73
39
40
0
40
0
40
0
40
0
40
0.0156249999999936
40
0.0156249999999936
40
0.0312499999999873
40
0.0624999999999743
40
0.0624999999999743
40
0.124999999999948
40
0.249999999999879
40
0.249999999999879
40
0.312499999999844
40
0.312499999999844
40
0.343749999999836
40
0.343749999999836
40
0.374999999999828
40
0.374999999999828
40
0.382812499999825
40
0.382812499999825
40
0.390624999999823
40
0.390624999999823
40
0.398437499999822
40
0.398437499999822
40
0.40624999999982
40
0.40624999999982
40
0.421874999999816
40
0.421874999999816
40
0.437499999999812
40
0.437499999999812
40
0.499999999999815
40
0.499999999999815
40
0.531249999999816
40
0.562499999999818
40
0.562499999999818
40
0.624999999999839
40
0.624999999999839
40
0.749999999999899
40
0.749999999999899
40
1
40
1
40
1
40
1
41
1
10
27.0000007707607
20
-3.19078795338325
30
0
41
1
10
27.0097663139841
20
-3.19477417237465
30
0
41
1
10
27.0195337049443
20
-3.19873634385257
30
0
41
1
10
27.0390642459856
20
-3.20666228394708
30
0
41
1
10
27.0683412631275
20
-3.21862935605117
30
0
41
1
10
27.0976919715987
20
-3.23003385088788
30
0
41
1
10
27.1564905862043
20
-3.25212810376536
30
0
41
1
10
27.2744966728837
20
-3.29333259565087
30
0
41
1
10
27.3937961556788
20
-3.32586364492704
30
0
41
1
10
27.5139790878885
20
-3.35321348373824
30
0
41
1
10
27.5541916365895
20
-3.36144159690534
30
0
41
1
10
27.6146872502079
20
-3.37280126229814
30
0
41
1
10
27.6348776049658
20
-3.37644733461045
30
0
41
1
10
27.6753220402929
20
-3.38339348606325
30
0
41
1
10
27.6955850742257
20
-3.38664347133317
30
0
41
1
10
27.7210593499448
20
-3.38992861757873
30
0
41
1
10
27.7261615715633
20
-3.3905463534532
30
0
41
1
10
27.736383322379
20
-3.39168991704358
30
0
41
1
10
27.7415162875009
20
-3.39214349879367
30
0
41
1
10
27.7517005687567
20
-3.39349184094652
30
0
41
1
10
27.7567352238428
20
-3.39447565435549
30
0
41
1
10
27.7668690163352
20
-3.39609647711993
30
0
41
1
10
27.771955569232
20
-3.39680148882996
30
0
41
1
10
27.7872686974743
20
-3.39863197729193
30
0
41
1
10
27.7975077585185
20
-3.39969273262807
30
0
41
1
10
27.8179827292985
20
-3.40183795569743
30
0
41
1
10
27.8282282471103
20
-3.40287090794999
30
0
41
1
10
27.8795005640017
20
-3.4078156994261
30
0
41
1
10
27.9206681390604
20
-3.41103200846055
30
0
41
1
10
27.9826959723443
20
-3.41453401745102
30
0
41
1
10
28.0241382844261
20
-3.416440787434
30
0
41
1
10
28.0657676257962
20
-3.41746258336559
30
0
41
1
10
28.1280516858249
20
-3.41831549009515
30
0
41
1
10
28.1694623783565
20
-3.41798136629697
30
0
41
1
10
28.2933771942793
20
-3.41426703951868
30
0
41
1
10
28.3755671786101
20
-3.40819312107871
30
0
41
1
10
28.6210107704919
20
-3.37916446876599
30
0
41
1
10
28.7831486250599
20
-3.34542291296466
30
0
41
1
10
28.9439764137661
20
-3.29669129528799
30
0
0
SPLINE
5
12E
100
AcDbEntity
8
1
62
256
6
ByLayer
370
18
48
1
60
0
100
AcDbSpline
70
4
71
3
72
39
73
35
40
0
40
0
40
0
40
0
40
0.124999999999954
40
0.124999999999954
40
0.187499999999932
40
0.187499999999932
40
0.249999999999909
40
0.249999999999909
40
0.374999999999863
40
0.374999999999863
40
0.437499999999841
40
0.437499999999841
40
0.453124999999839
40
0.453124999999839
40
0.468749999999837
40
0.468749999999837
40
0.499999999999842
40
0.499999999999842
40
0.624999999999867
40
0.624999999999867
40
0.68749999999988
40
0.68749999999988
40
0.718749999999889
40
0.718749999999889
40
0.749999999999899
40
0.812499999999924
40
0.812499999999924
40
0.874999999999949
40
0.874999999999949
40
0.937499999999975
40
0.937499999999975
40
0.968749999999987
40
0.968749999999987
40
1
40
1
40
1
40
1
41
1
10
28.8286593473142
20
0.734088323201405
30
0
41
1
10
28.9524625026498
20
0.640234453172781
30
0
41
1
10
29.0776674514086
20
0.553216384482852
30
0
41
1
10
29.2676536830784
20
0.433314172413645
30
0
41
1
10
29.3313474682785
20
0.395126880806885
30
0
41
1
10
29.4595015712552
20
0.322490269483609
30
0
41
1
10
29.5231035659425
20
0.288530004459631
30
0
41
1
10
29.7122406919565
20
0.193754534127009
30
0
41
1
10
29.8362360488733
20
0.1399339932685
30
0
41
1
10
30.019016522731
20
0.073553700570244
30
0
41
1
10
30.0794055428447
20
0.0538293101174929
30
0
41
1
10
30.1541932912512
20
0.0322941423480643
30
0
41
1
10
30.1691158603603
20
0.0281433670781155
30
0
41
1
10
30.1988901564749
20
0.0201582683552317
30
0
41
1
10
30.2137608909512
20
0.0163193855171926
30
0
41
1
10
30.258083160578
20
0.0053282208186829
30
0
41
1
10
30.2872585808917
20
-0.001304344382504
30
0
41
1
10
30.4313013846392
20
-0.0310477718517461
30
0
41
1
10
30.5407123491237
20
-0.0439870737786521
30
0
41
1
10
30.6961011873498
20
-0.0471264921406203
30
0
41
1
10
30.7464358476686
20
-0.0454482938742444
30
0
41
1
10
30.8196902153779
20
-0.0387410999819338
30
0
41
1
10
30.8437363127202
20
-0.035806084708895
30
0
41
1
10
30.8910529676641
20
-0.0285135739467819
30
0
41
1
10
30.9603368989948
20
-0.0155202530158363
30
0
41
1
10
31.0246501642464
20
0.0035122147394873
30
0
41
1
10
31.1061128903041
20
0.0340989326657279
30
0
41
1
10
31.144708772576
20
0.0519868094716855
30
0
41
1
10
31.2176117077229
20
0.09297330748268
30
0
41
1
10
31.2519148821945
20
0.116076640782296
30
0
41
1
10
31.3000987849191
20
0.154705594588989
30
0
41
1
10
31.3156363534101
20
0.168265344564276
30
0
41
1
10
31.3455078999601
20
0.19662097112149
30
0
41
1
10
31.3598164239317
20
0.211388084882344
30
0
41
1
10
31.3735110124146
20
0.226731990801568
30
0
0
SPLINE
5
12F
100
AcDbEntity
8
1
62
256
6
ByLayer
370
18
48
1
60
0
100
AcDbSpline
70
4
71
3
72
41
73
37
40
0
40
0
40
0
40
0
40
0.0312499999999829
40
0.0312499999999829
40
0.0624999999999659
40
0.0624999999999659
40
0.124999999999913
40
0.124999999999913
40
0.249999999999827
40
0.249999999999827
40
0.312499999999784
40
0.312499999999784
40
0.343749999999762
40
0.343749999999762
40
0.374999999999741
40
0.374999999999741
40
0.406249999999719
40
0.406249999999719
40
0.414062499999724
40
0.414062499999724
40
0.421874999999728
40
0.421874999999728
40
0.429687499999732
40
0.429687499999732
40
0.437499999999736
40
0.437499999999736
40
0.499999999999731
40
0.499999999999731
40
0.531249999999739
40
0.531249999999739
40
0.562499999999746
40
0.562499999999746
40
0.624999999999779
40
0.749999999999846
40
0.749999999999846
40
1
40
1
40
1
40
1
41
1
10
26.9999994582068
20
1.36170072210882
30
0
41
1
10
27.0182696132051
20
1.3520467076352
30
0
41
1
10
27.0365372421936
20
1.34238776130917
30
0
41
1
10
27.0730780579295
20
1.32308532979312
30
0
41
1
10
27.0913842675294
20
1.31352079828542
30
0
41
1
10
27.1464051531327
20
1.28507435935069
30
0
41
1
10
27.1832307891489
20
1.26646040116168
30
0
41
1
10
27.2941632050159
20
1.21171365165631
30
0
41
1
10
27.3687253832052
20
1.17667556033223
30
0
41
1
10
27.4814900360872
20
1.12631776295782
30
0
41
1
10
27.5192355930594
20
1.10990739429985
30
0
41
1
10
27.5760582530983
20
1.08577824336393
30
0
41
1
10
27.5950320236641
20
1.07781348082102
30
0
41
1
10
27.6330337161031
20
1.06201271772346
30
0
41
1
10
27.6520505844776
20
1.05415045976642
30
0
41
1
10
27.6902024956463
20
1.03870665120161
30
0
41
1
10
27.7093436238473
20
1.03113957169336
30
0
41
1
10
27.7334558774729
20
1.02212179056278
30
0
41
1
10
27.7383016323248
20
1.02037355849058
30
0
41
1
10
27.7479099251421
20
1.01667944369487
30
0
41
1
10
27.7526452937108
20
1.01466905595356
30
0
41
1
10
27.7621795175296
20
1.01079903990538
30
0
41
1
10
27.766964927905
20
1.00890747885444
30
0
41
1
10
27.7765814832721
20
1.00523291418548
30
0
41
1
10
27.7814063953431
20
1.00343511069107
30
0
41
1
10
27.824820653797
20
0.987231097828953
30
0
41
1
10
27.8635297076689
20
0.97310807114755
30
0
41
1
10
27.921861274981
20
0.952556971626308
30
0
41
1
10
27.9413485901469
20
0.94580931231215
30
0
41
1
10
27.980414282635
20
0.932529017953669
30
0
41
1
10
28.0000146091846
20
0.925989375354675
30
0
41
1
10
28.0587085331747
20
0.906787834443463
30
0
41
1
10
28.1758048787346
20
0.870004184053954
30
0
41
1
10
28.2920704680169
20
0.838225777633994
30
0
41
1
10
28.5236264492337
20
0.781516943721499
30
0
41
1
10
28.6766995399386
20
0.75287396805146
30
0
41
1
10
28.8286593473157
20
0.734088323214479
30
0
0
SPLINE
5
130
100
AcDbEntity
8
1
62
256
6
ByLayer
370
18
48
1
60
0
100
AcDbSpline
70
4
71
3
72
8
73
4
40
0
40
0
40
0
40
0
40
1
40
1
40
1
40
1
41
1
10
31.7381051165539
20
-0.0591390859962928
30
0
41
1
10
31.7519588671793
20
-0.127372408507028
30
0
41
1
10
31.7658938353202
20
-0.195571150750879
30
0
41
1
10
31.7798986187295
20
-0.263740167399106
30
0
0
SPLINE
5
131
100
AcDbEntity
8
1
62
256
6
ByLayer
370
18
48
1
60
0
100
AcDbSpline
70
4
71
3
72
12
73
8
40
0
40
0
40
0
40
0
40
0.25
40
0.25
40
0.5
40
0.5
40
1
40
1
40
1
40
1
41
1
10
31.3735110124168
20
0.22673199080009
30
0
41
1
10
31.406250941153
20
0.200321226729699
30
0
41
1
10
31.438426020537
20
0.174540649385136
30
0
41
1
10
31.5015635359967
20
0.124301812712389
30
0
41
1
10
31.5325387143127
20
0.099833234942821
30
0
41
1
10
31.6237011662088
20
0.0283606649918795
30
0
41
1
10
31.6821408000858
20
-0.0167218472791149
30
0
41
1
10
31.7381051165572
20
-0.0591390860062972
30
0
0
SPLINE
5
132
100
AcDbEntity
8
1
62
256
6
ByLayer
370
18
48
1
60
0
100
AcDbSpline
70
4
71
3
72
8
73
4
40
0
40
0
40
0
40
0
40
1
40
1
40
1
40
1
41
1
10
28.0534693315103
20
-0.317846480713825
30
0
41
1
10
28.0600640597785
20
-0.320551813801274
30
0
41
1
10
28.0666196765474
20
-0.323360298562704
30
0
41
1
10
28.0731366667337
20
-0.326270353314556
30
0
0
SPLINE
5
133
100
AcDbEntity
8
1
62
256
6
ByLayer
370
18
48
1
60
0
100
AcDbSpline
70
4
71
3
72
11
73
7
40
0
40
0
40
0
40
0
40
0.375
40
0.625
40
0.75
40
1
40
1
40
1
40
1
41
1
10
17.0000000000001
20
4.73762703169612
30
0
41
1
10
18.25
20
4.54014217802091
30
0
41
1
10
20.3333333333333
20
3.96043939766111
30
0
41
1
10
22.8333333333334
20
2.8706549099104
30
0
41
1
10
24.9166666666667
20
1.8251248426381
30
0
41
1
10
26.1666666666667
20
1.13360929891582
30
0
41
1
10
27
20
0.663412151084373
30
0
0
SPLINE
5
134
100
AcDbEntity
8
1
62
256
6
ByLayer
370
18
48
1
60
0
100
AcDbSpline
70
4
71
3
72
10
73
6
40
0
40
0
40
0
40
0
40
0.5
40
0.5
40
1
40
1
40
1
40
1
41
1
10
28.1143332494108
20
-0.346341617797634
30
0
41
1
10
28.1035753821298
20
-0.34097994623346
30
0
41
1
10
28.0932745042234
20
-0.336088497902694
30
0
41
1
10
28.0730822143305
20
-0.326694881232015
30
0
41
1
10
28.0632074719229
20
-0.322210845111726
30
0
41
1
10
28.0534693315101
20
-0.317846480714024
30
0
0
SPLINE
5
135
100
AcDbEntity
8
1
62
256
6
ByLayer
370
18
48
1
60
0
100
AcDbSpline
70
4
71
3
72
8
73
4
40
0
40
0
40
0
40
0
40
1
40
1
40
1
40
1
41
1
10
26.449798474447
20
0.586719170745226
30
0
41
1
10
26.4358523928375
20
0.594152511481894
30
0
41
1
10
26.4219063112278
20
0.601583593385726
30
0
41
1
10
26.4079602296182
20
0.609012329028871
30
0
0
SPLINE
5
136
100
AcDbEntity
8
1
62
256
6
ByLayer
370
13
48
1
60
0
100
AcDbSpline
70
4
71
3
72
12
73
8
40
0
40
0
40
0
40
0
40
0.0035034405772812
40
0.202802752461825
40
0.402102064346369
40
0.601401376230913
40
1
40
1
40
1
40
1
41
1
10
26.4079602296178
20
0.60901232902907
30
0
41
1
10
26.3969734864119
20
0.614864697682918
30
0
41
1
10
25.760986743206
20
0.953554945600587
30
0
41
1
10
24.5
20
1.61512598476932
30
0
41
1
10
22.625
20
2.52249321961844
30
0
41
1
10
20.1250000000001
20
3.57717912672561
30
0
41
1
10
18.2500000000001
20
4.13322008581665
30
0
41
1
10
17
20
4.36562713754441
30
0
0
SPLINE
5
137
100
AcDbEntity
8
1
62
256
6
ByLayer
370
18
48
1
60
0
100
AcDbSpline
70
4
71
3
72
8
73
4
40
0
40
0
40
0
40
0
40
1
40
1
40
1
40
1
41
1
10
31.816073440643
20
-0.608793104011767
30
0
41
1
10
31.7941699907636
20
-0.643966686955196
30
0
41
1
10
31.7703519330299
20
-0.678888577513902
30
0
41
1
10
31.7446139061657
20
-0.713558070898671
30
0
0
SPLINE
5
138
100
AcDbEntity
8
1
62
256
6
ByLayer
370
18
48
1
60
0
100
AcDbSpline
70
4
71
3
72
8
73
4
40
0
40
0
40
0
40
0
40
1
40
1
40
1
40
1
41
1
10
31.7798986190545
20
-0.263740168465745
30
0
41
1
10
31.7914017730524
20
-0.378791882475923
30
0
41
1
10
31.8035052615462
20
-0.493812021515169
30
0
41
1
10
31.816073440643
20
-0.608793104012449
30
0
0
SPLINE
5
139
100
AcDbEntity
8
1
62
256
6
ByLayer
370
18
48
1
60
0
100
AcDbSpline
70
4
71
3
72
29
73
25
40
0
40
0
40
0
40
0
40
0.0015792862781152
40
0.0067107348364055
40
0.0102602589919108
40
0.0118283814558399
40
0.0235376226889515
40
0.0909878117985995
40
0.116593632351272
40
0.126462009308356
40
0.135081166758078
40
0.137324831997303
40
0.138578276698532
40
0.141508775031305
40
0.144895999379739
40
0.165606303520872
40
0.260074410900012
40
0.329755172189711
40
0.408664945645536
40
0.689970956573428
40
0.805374777278495
40
0.878096917135287
40
0.978693366082945
40
1
40
1
40
1
40
1
41
1
10
26.9999966677653
20
0.663406452878576
30
0
41
1
10
27.0031483476711
20
0.661603749304021
30
0
41
1
10
27.0165580650193
20
0.653925264602748
30
0
41
1
10
27.0371820957885
20
0.642058687247186
30
0
41
1
10
27.0575986698575
20
0.630366565350386
30
0
41
1
10
27.0913113278639
20
0.610788648709814
30
0
41
1
10
27.2529049629567
20
0.516987559895938
30
0
41
1
10
27.4613198949518
20
0.396753619259897
30
0
41
1
10
27.6646610903487
20
0.281939997930778
30
0
41
1
10
27.7516004318729
20
0.233381407168054
30
0
41
1
10
27.7923106918977
20
0.210733905736589
30
0
41
1
10
27.8159993620018
20
0.197655168565035
30
0
41
1
10
27.8288225818114
20
0.190371077579442
30
0
41
1
10
27.8439661747302
20
0.1818247181441
30
0
41
1
10
27.8972733413004
20
0.151837770323425
30
0
41
1
10
28.1302800809787
20
0.0236193522805763
30
0
41
1
10
28.4837925599275
20
-0.151660802641345
30
0
41
1
10
28.9355321567
20
-0.342538325338268
30
0
41
1
10
29.7149843102788
20
-0.619040915776282
30
0
41
1
10
30.5277132956244
20
-0.760554569901672
30
0
41
1
10
31.1702910526795
20
-0.670045544864792
30
0
41
1
10
31.5027544349377
20
-0.538671761400394
30
0
41
1
10
31.6808125652918
20
-0.398840069884528
30
0
41
1
10
31.7658982890782
20
-0.284570711749808
30
0
41
1
10
31.7798986231737
20
-0.26374016797314
30
0
0
SPLINE
5
13A
100
AcDbEntity
8
1
62
256
6
ByLayer
370
18
48
1
60
0
100
AcDbSpline
70
4
71
3
72
8
73
4
40
0
40
0
40
0
40
0
40
1
40
1
40
1
40
1
41
1
10
28.0731366667337
20
-0.326270353314556
30
0
41
1
10
28.0825498926944
20
-0.330481056566725
30
0
41
1
10
28.091876629321
20
-0.334891871126217
30
0
41
1
10
28.1011154045346
20
-0.339506364577829
30
0
0
SPLINE
5
13B
100
AcDbEntity
8
1
62
256
6
ByLayer
370
18
48
1
60
0
100
AcDbSpline
70
4
71
3
72
12
73
8
40
0
40
0
40
0
40
0
40
0.499999999999986
40
0.499999999999986
40
0.749999999999993
40
0.749999999999993
40
1
40
1
40
1
40
1
41
1
10
17
20
-2.9000007501042
30
0
41
1
10
16.897685644136
20
-2.89167217357314
30
0
41
1
10
16.7954607689564
20
-2.88881388263269
30
0
41
1
10
16.6421115017905
20
-2.89292234061634
30
0
41
1
10
16.5909324580418
20
-2.89569970096764
30
0
41
1
10
16.4888720828639
20
-2.90409334403873
30
0
41
1
10
16.4380093253588
20
-2.90970399917464
30
0
41
1
10
16.3872996255916
20
-2.91674062017714
30
0
0
SPLINE
5
13C
100
AcDbEntity
8
1
62
256
6
ByLayer
370
18
48
1
60
0
100
AcDbSpline
70
4
71
3
72
8
73
4
40
0
40
0
40
0
40
0
40
1
40
1
40
1
40
1
41
1
10
17.1226515971351
20
-2.95869750987546
30
0
41
1
10
17.081671160324
20
-2.93939018787049
30
0
41
1
10
17.0407860998607
20
-2.91982792323793
30
0
41
1
10
16.9999999999984
20
-2.90000075010755
30
0
0
SPLINE
5
13D
100
AcDbEntity
8
1
62
256
6
ByLayer
370
18
48
1
60
0
100
AcDbSpline
70
4
71
3
72
50
73
46
40
0
40
0
40
0
40
0
40
0.0159132271491452
40
0.0322636547562309
40
0.0490510227119467
40
0.0662750602450662
40
0.083935485646002
40
0.102032005985607
40
0.120564316829471
40
0.139532101947949
40
0.158935033022121
40
0.178772769345948
40
0.193269587924807
40
0.20840856839219
40
0.224190986621556
40
0.240617988173325
40
0.257690607083053
40
0.275409780926394
40
0.293776362908384
40
0.312791131552631
40
0.332454798437449
40
0.352768014329022
40
0.37373137398791
40
0.395345419868576
40
0.417610644887816
40
0.440527494403876
40
0.464096367521247
40
0.488317617814977
40
0.513191553551599
40
0.538718437470271
40
0.564898486177023
40
0.591731869196231
40
0.61921870771645
40
0.647359073061938
40
0.676152984916548
40
0.705600409322808
40
0.735701256475858
40
0.766455378329309
40
0.797862566027967
40
0.829922547180601
40
0.862634982984467
40
0.895999465212152
40
0.930015513070299
40
0.964682569938998
40
1
40
1
40
1
40
1
41
1
10
17.1244774277045
20
-2.95606866562511
30
0
41
1
10
17.1228728172358
20
-2.94315962180278
30
0
41
1
10
17.1196195111846
20
-2.9169868707188
30
0
41
1
10
17.1146767441157
20
-2.87721308449608
30
0
41
1
10
17.1096040831716
20
-2.83639156715364
30
0
41
1
10
17.1044017651
20
-2.79452700802548
30
0
41
1
10
17.0990698212915
20
-2.75162292147218
30
0
41
1
10
17.0936078717872
20
-2.70768359372187
30
0
41
1
10
17.088017463881
20
-2.66271337754947
30
0
41
1
10
17.0822925995619
20
-2.61671762231171
30
0
41
1
10
17.0764564550227
20
-2.56969968524956
30
0
41
1
10
17.0710054270524
20
-2.52633317126265
30
0
41
1
10
17.0661794221144
20
-2.48642206987319
30
0
41
1
10
17.062118281081
20
-2.44978224569908
30
0
41
1
10
17.0581711996026
20
-2.41159852364351
30
0
41
1
10
17.054357466842
20
-2.37187492134049
30
0
41
1
10
17.0506716429146
20
-2.33061785362636
30
0
41
1
10
17.0471153227471
20
-2.28783368620253
30
0
41
1
10
17.0436880965279
20
-2.24352946894857
30
0
41
1
10
17.0403901176014
20
-2.19771276629729
30
0
41
1
10
17.0372213754665
20
-2.15039174538111
30
0
41
1
10
17.0341819020078
20
-2.10157519252857
30
0
41
1
10
17.0312717137879
20
-2.0512725512971
30
0
41
1
10
17.0284908287534
20
-1.99949395562538
30
0
41
1
10
17.0258392619126
20
-1.94625026548127
30
0
41
1
10
17.0233170268751
20
-1.8915531028546
30
0
41
1
10
17.0209241357006
20
-1.83541488862571
30
0
41
1
10
17.0186605991849
20
-1.77784888008583
30
0
41
1
10
17.0165264269918
20
-1.71886920909537
30
0
41
1
10
17.014521627802
20
-1.65849092080288
30
0
41
1
10
17.0126462094342
20
-1.5967300128641
30
0
41
1
10
17.0109001789548
20
-1.53360347508101
30
0
41
1
10
17.0092835427807
20
-1.46912932942095
30
0
41
1
10
17.0077963067426
20
-1.40332667020385
30
0
41
1
10
17.0064384762579
20
-1.33621570489041
30
0
41
1
10
17.0052100560354
20
-1.26781779338799
30
0
41
1
10
17.0041110515544
20
-1.19815549348178
30
0
41
1
10
17.0031414636682
20
-1.12725258258692
30
0
41
1
10
17.0023013096816
20
-1.05513417022857
30
0
41
1
10
17.0015905424379
20
-0.981826460020528
30
0
41
1
10
17.0010093619597
20
-0.90735785918028
30
0
41
1
10
17.0005570170515
20
-0.831754902390969
30
0
41
1
10
17.000236411906
20
-0.755058108053078
30
0
41
1
10
17.0000364098925
20
-0.677261251016319
30
0
41
1
10
17.00001221159
20
-0.62526638529107
30
0
41
1
10
17
20
-0.59902735555255
30
0
0
SPLINE
5
13E
100
AcDbEntity
8
1
62
256
6
ByLayer
370
18
48
1
60
0
100
AcDbSpline
70
4
71
3
72
30
73
26
40
0
40
0
40
0
40
0
40
0.124999999999999
40
0.124999999999999
40
0.249999999999998
40
0.249999999999998
40
0.374999999999998
40
0.374999999999998
40
0.406249999999998
40
0.406249999999998
40
0.437499999999998
40
0.437499999999998
40
0.499999999999999
40
0.499999999999999
40
0.624999999999999
40
0.624999999999999
40
0.687499999999998
40
0.687499999999998
40
0.718749999999998
40
0.718749999999998
40
0.749999999999998
40
0.749999999999998
40
0.874999999999999
40
0.874999999999999
40
1
40
1
40
1
40
1
41
1
10
16.3873886226231
20
-4.989578581079
30
0
41
1
10
16.171494670329
20
-4.99816981069745
30
0
41
1
10
15.9586187706435
20
-5.00172611206014
30
0
41
1
10
15.539853093842
20
-4.99669901898145
30
0
41
1
10
15.3339630775264
20
-4.98812698906005
30
0
41
1
10
14.9302699290666
20
-4.95588438457682
30
0
41
1
10
14.7324667117377
20
-4.93223282226163
30
0
41
1
10
14.4910526074673
20
-4.89054345994597
30
0
41
1
10
14.4430621661319
20
-4.88159515205226
30
0
41
1
10
14.3476872274739
20
-4.86239131810586
30
0
41
1
10
14.3002659227873
20
-4.8521253143455
30
0
41
1
10
14.159698816999
20
-4.81941061069253
30
0
41
1
10
14.0680202742099
20
-4.79500584775144
30
0
41
1
10
13.7993031302174
20
-4.71322104132216
30
0
41
1
10
13.6285879856209
20
-4.64731757546161
30
0
41
1
10
13.3859510748694
20
-4.5275243371932
30
0
41
1
10
13.3073100810763
20
-4.48409289571745
30
0
41
1
10
13.1927953440621
20
-4.41308970918152
30
0
41
1
10
13.155198176137
20
-4.38844498834808
30
0
41
1
10
13.0811673392166
20
-4.33708705313927
30
0
41
1
10
13.0449188468428
20
-4.31050028705195
30
0
41
1
10
12.867770708091
20
-4.1731450264349
30
0
41
1
10
12.738813474096
20
-4.04891690648492
30
0
41
1
10
12.5048622392812
20
-3.76858631622437
30
0
41
1
10
12.3998477039171
20
-3.6125206677805
30
0
41
1
10
12.3062547318571
20
-3.43822821561656
30
0
0
SPLINE
5
13F
100
AcDbEntity
8
1
62
256
6
ByLayer
370
18
48
1
60
0
100
AcDbSpline
70
4
71
3
72
24
73
20
40
0
40
0
40
0
40
0
40
0.125000000000004
40
0.125000000000004
40
0.250000000000009
40
0.250000000000009
40
0.375000000000013
40
0.375000000000013
40
0.437500000000013
40
0.437500000000013
40
0.500000000000013
40
0.500000000000013
40
0.62500000000001
40
0.62500000000001
40
0.750000000000007
40
0.750000000000007
40
0.875000000000003
40
0.875000000000003
40
1
40
1
40
1
40
1
41
1
10
12.3062547318571
20
-3.43822821561659
30
0
41
1
10
12.3026597494151
20
-3.43153350028163
30
0
41
1
10
12.2995957091532
20
-3.42472223194423
30
0
41
1
10
12.2947761998317
20
-3.41081688316587
30
0
41
1
10
12.2930132859396
20
-3.40368240097635
30
0
41
1
10
12.2911996942093
20
-3.38923665459768
30
0
41
1
10
12.2911574064023
20
-3.38203695070499
30
0
41
1
10
12.292585856626
20
-3.37128295937222
30
0
41
1
10
12.2933113673002
20
-3.36770592697127
30
0
41
1
10
12.2953047404661
20
-3.36056950709704
30
0
41
1
10
12.2965853079246
20
-3.35698689098436
30
0
41
1
10
12.3011843481162
20
-3.346545851857
30
0
41
1
10
12.3052592381488
20
-3.33993461610422
30
0
41
1
10
12.3153178500001
20
-3.3273816545607
30
0
41
1
10
12.3213714511779
20
-3.32140395356225
30
0
41
1
10
12.3346556512288
20
-3.31057588285992
30
0
41
1
10
12.3419281794628
20
-3.30565074833075
30
0
41
1
10
12.3575084295183
20
-3.29660887145289
30
0
41
1
10
12.3658248834887
20
-3.29249590475385
30
0
41
1
10
12.3744270445095
20
-3.28878873577258
30
0
0
SPLINE
5
140
100
AcDbEntity
8
1
62
256
6
ByLayer
370
18
48
1
60
0
100
AcDbSpline
70
4
71
3
72
34
73
30
40
0
40
0
40
0
40
0
40
0.0312499999999983
40
0.0312499999999983
40
0.0624999999999966
40
0.0624999999999966
40
0.124999999999998
40
0.124999999999998
40
0.156249999999999
40
0.156249999999999
40
0.1875
40
0.1875
40
0.250000000000001
40
0.250000000000001
40
0.312500000000003
40
0.312500000000003
40
0.375000000000005
40
0.375000000000005
40
0.437500000000006
40
0.437500000000006
40
0.500000000000008
40
0.500000000000008
40
0.625000000000006
40
0.625000000000006
40
0.750000000000004
40
0.750000000000004
40
0.875000000000002
40
0.875000000000002
40
1
40
1
40
1
40
1
41
1
10
12.3744270445096
20
-3.28878873577256
30
0
41
1
10
12.4108127501339
20
-3.27310802961909
30
0
41
1
10
12.4479961140544
20
-3.25924259277863
30
0
41
1
10
12.5235443795746
20
-3.23424795438524
30
0
41
1
10
12.5619132440721
20
-3.22312719209853
30
0
41
1
10
12.6784338329502
20
-3.19308867779279
30
0
41
1
10
12.7579805647391
20
-3.17745383042856
30
0
41
1
10
12.879295590321
20
-3.15881462509083
30
0
41
1
10
12.9201259588727
20
-3.15341180450272
30
0
41
1
10
13.0021447401096
20
-3.14408728313217
30
0
41
1
10
13.0432163827358
20
-3.14017659881966
30
0
41
1
10
13.1665944904143
20
-3.13042750613772
30
0
41
1
10
13.2490629432021
20
-3.12655890867509
30
0
41
1
10
13.414350456327
20
-3.12311495748554
30
0
41
1
10
13.4972750618765
20
-3.12355254744932
30
0
41
1
10
13.662697677355
20
-3.12809186596491
30
0
41
1
10
13.7452413766798
20
-3.13219040192399
30
0
41
1
10
13.9100359955835
20
-3.14355695987393
30
0
41
1
10
13.9923418839641
20
-3.15083343910209
30
0
41
1
10
14.1564128045388
20
-3.16817172550637
30
0
41
1
10
14.2381328662338
20
-3.17822737472835
30
0
41
1
10
14.482433110666
20
-3.21209198755636
30
0
41
1
10
14.6442556242241
20
-3.23961045541858
30
0
41
1
10
14.9647191841958
20
-3.30234305785496
30
0
41
1
10
15.1236092222072
20
-3.33761167017528
30
0
41
1
10
15.4380151606541
20
-3.41410471505247
30
0
41
1
10
15.5937064465477
20
-3.45537422359121
30
0
41
1
10
15.9015990485213
20
-3.54226844071363
30
0
41
1
10
16.0538240792011
20
-3.58789669320936
30
0
41
1
10
16.2045426073011
20
-3.63501982590856
30
0
0
SPLINE
5
141
100
AcDbEntity
8
1
62
256
6
ByLayer
370
18
48
1
60
0
100
AcDbSpline
70
4
71
3
72
21
73
17
40
0
40
0
40
0
40
0
40
0.250000000000012
40
0.250000000000012
40
0.375000000000018
40
0.375000000000018
40
0.500000000000024
40
0.500000000000024
40
0.562500000000027
40
0.562500000000027
40
0.62500000000003
40
0.62500000000003
40
0.75000000000002
40
0.87500000000001
40
0.87500000000001
40
1
40
1
40
1
40
1
41
1
10
16.5748655172062
20
-3.43187068723165
30
0
41
1
10
16.5841032841073
20
-3.48030437361553
30
0
41
1
10
16.5993443818679
20
-3.5272144372359
30
0
41
1
10
16.6328236618122
20
-3.59375568714916
30
0
41
1
10
16.6457257249811
20
-3.61525060715127
30
0
41
1
10
16.6751023977074
20
-3.65660525389635
30
0
41
1
10
16.6916609161893
20
-3.67656089824223
30
0
41
1
10
16.7190488834289
20
-3.70497107230111
30
0
41
1
10
16.7286071198152
20
-3.71419772920282
30
0
41
1
10
16.7485886744628
20
-3.73217180404657
30
0
41
1
10
16.7590374457062
20
-3.74093871970592
30
0
41
1
10
16.791504230889
20
-3.76638353699303
30
0
41
1
10
16.8375873813361
20
-3.79790715188056
30
0
41
1
10
16.8889050234761
20
-3.82509192562642
30
0
41
1
10
16.9426955044085
20
-3.85029701874006
30
0
41
1
10
16.97091661472
20
-3.86193790318674
30
0
41
1
10
17
20
-3.87255939743218
30
0
0
SPLINE
5
142
100
AcDbEntity
8
1
62
256
6
ByLayer
370
18
48
1
60
0
100
AcDbSpline
70
4
71
3
72
16
73
12
40
0
40
0
40
0
40
0
40
0.249999999999999
40
0.249999999999999
40
0.499999999999998
40
0.499999999999998
40
0.624999999999998
40
0.624999999999998
40
0.749999999999999
40
0.749999999999999
40
1
40
1
40
1
40
1
41
1
10
16.3872996255916
20
-2.91674062017711
30
0
41
1
10
16.3916619578152
20
-2.9639480670333
30
0
41
1
10
16.3985194038456
20
-3.0104316360586
30
0
41
1
10
16.4177435396471
20
-3.10144727783873
30
0
41
1
10
16.4301051935171
20
-3.1459636651598
30
0
41
1
10
16.453173946368
20
-3.21096508854532
30
0
41
1
10
16.4616034880344
20
-3.23229661677939
30
0
41
1
10
16.4800105005992
20
-3.27428016503569
30
0
41
1
10
16.4900019203878
20
-3.29495731602125
30
0
41
1
10
16.5223003327749
20
-3.35574591099871
30
0
41
1
10
16.5469199547736
20
-3.39462512390227
30
0
41
1
10
16.574865517207
20
-3.43187068723088
30
0
0
SPLINE
5
143
100
AcDbEntity
8
1
62
256
6
ByLayer
370
18
48
1
60
0
100
AcDbSpline
70
4
71
3
72
30
73
26
40
0
40
0
40
0
40
0
40
0.125
40
0.125
40
0.250000000000001
40
0.250000000000001
40
0.375000000000001
40
0.375000000000001
40
0.437500000000003
40
0.437500000000003
40
0.468750000000004
40
0.468750000000004
40
0.500000000000004
40
0.500000000000004
40
0.625000000000005
40
0.625000000000005
40
0.687500000000004
40
0.687500000000004
40
0.718750000000005
40
0.718750000000005
40
0.750000000000005
40
0.750000000000005
40
0.875000000000003
40
0.875000000000003
40
1
40
1
40
1
40
1
41
1
10
16.3872996255916
20
-2.91674062017711
30
0
41
1
10
16.1721680666879
20
-2.80816629381104
30
0
41
1
10
15.9606138755641
20
-2.69317524549146
30
0
41
1
10
15.5459038941332
20
-2.44788733012822
30
0
41
1
10
15.342747496904
20
-2.3175974861332
30
0
41
1
10
14.9463006324522
20
-2.03851021755867
30
0
41
1
10
14.7530095703025
20
-1.88972417995242
30
0
41
1
10
14.4717549010604
20
-1.64950984493868
30
0
41
1
10
14.3794522625531
20
-1.56659036746248
30
0
41
1
10
14.2433505943014
20
-1.43744515556116
30
0
41
1
10
14.1983755540923
20
-1.3936016436617
30
0
41
1
10
14.1092413672794
20
-1.30423161249948
30
0
41
1
10
14.0650056185199
20
-1.25862031781185
30
0
41
1
10
13.8475764466612
20
-1.02786678654471
30
0
41
1
10
13.6847329601602
20
-0.833787315777812
30
0
41
1
10
13.4577521986097
20
-0.52745311229242
30
0
41
1
10
13.3849696812134
20
-0.422806605572845
30
0
41
1
10
13.2801722450193
20
-0.261906925861524
30
0
41
1
10
13.2459690618125
20
-0.207618648373625
30
0
41
1
10
13.179030708944
20
-0.0977093371735691
30
0
41
1
10
13.146269678896
20
-0.0420427488208759
30
0
41
1
10
12.9864305995458
20
0.239203570938628
30
0
41
1
10
12.8739860825864
20
0.468600559645637
30
0
41
1
10
12.676817946303
20
0.934269514647497
30
0
41
1
10
12.5920688539158
20
1.17053691334996
30
0
41
1
10
12.5201663970435
20
1.4093989945197
30
0
0
SPLINE
5
144
100
AcDbEntity
8
1
62
256
6
ByLayer
370
18
48
1
60
0
100
AcDbSpline
70
4
71
3
72
21
73
17
40
0
40
0
40
0
40
0
40
0.249999999999996
40
0.249999999999996
40
0.374999999999992
40
0.374999999999992
40
0.499999999999988
40
0.499999999999988
40
0.56249999999999
40
0.56249999999999
40
0.624999999999991
40
0.749999999999994
40
0.749999999999994
40
0.874999999999997
40
0.874999999999997
40
1
40
1
40
1
40
1
41
1
10
12.5201663970436
20
1.40939899451968
30
0
41
1
10
12.5155503640152
20
1.42473359230502
30
0
41
1
10
12.5127190559457
20
1.44030331979863
30
0
41
1
10
12.5122730348087
20
1.46416811491898
30
0
41
1
10
12.5127784767987
20
1.4720902030605
30
0
41
1
10
12.5151890104483
20
1.4875945790053
30
0
41
1
10
12.5170925185542
20
1.49521746181196
30
0
41
1
10
12.52108363465
20
1.50644305727516
30
0
41
1
10
12.5226129623801
20
1.51016651719567
30
0
41
1
10
12.5259926662278
20
1.51738984175498
30
0
41
1
10
12.5315547603001
20
1.52793476673651
30
0
41
1
10
12.5385220312837
20
1.53765341252586
30
0
41
1
10
12.5489657005845
20
1.54993503665926
30
0
41
1
10
12.5547254607974
20
1.55568067944336
30
0
41
1
10
12.5669369377184
20
1.56628257192355
30
0
41
1
10
12.5734222912885
20
1.57117816696709
30
0
41
1
10
12.5802322997359
20
1.57572779362403
30
0
0
SPLINE
5
145
100
AcDbEntity
8
1
62
256
6
ByLayer
370
18
48
1
60
0
100
AcDbSpline
70
4
71
3
72
34
73
30
40
0
40
0
40
0
40
0
40
0.031249999999997
40
0.031249999999997
40
0.062499999999994
40
0.062499999999994
40
0.124999999999993
40
0.124999999999993
40
0.156249999999993
40
0.156249999999993
40
0.187499999999992
40
0.187499999999992
40
0.249999999999991
40
0.249999999999991
40
0.31249999999999
40
0.31249999999999
40
0.374999999999989
40
0.374999999999989
40
0.437499999999988
40
0.437499999999988
40
0.499999999999987
40
0.499999999999987
40
0.62499999999999
40
0.62499999999999
40
0.749999999999993
40
0.749999999999993
40
0.874999999999997
40
0.874999999999997
40
1
40
1
40
1
40
1
41
1
10
12.5802322997359
20
1.57572779362405
30
0
41
1
10
12.6130166362876
20
1.59763033495796
30
0
41
1
10
12.6468882745928
20
1.61707683140222
30
0
41
1
10
12.7162500910375
20
1.65233968190915
30
0
41
1
10
12.7517454438326
20
1.66814405419629
30
0
41
1
10
12.8601735838409
20
1.71122931362194
30
0
41
1
10
12.935022534402
20
1.7342421350962
30
0
41
1
10
13.0500463578568
20
1.76270638197389
30
0
41
1
10
13.0887255444378
20
1.77113042644609
30
0
41
1
10
13.1662676365236
20
1.78608104958826
30
0
41
1
10
13.205196897792
20
1.79262290785468
30
0
41
1
10
13.3223991875191
20
1.80981276188945
30
0
41
1
10
13.4011334807632
20
1.81804741521682
30
0
41
1
10
13.5592843737398
20
1.82929895459046
30
0
41
1
10
13.638324114145
20
1.83228502712541
30
0
41
1
10
13.7963441992416
20
1.83387618745644
30
0
41
1
10
13.8753244573585
20
1.83247460776198
30
0
41
1
10
14.0332330614555
20
1.8258380954791
30
0
41
1
10
14.1121778393542
20
1.8205984196955
30
0
41
1
10
14.2699529903452
20
1.80665216809629
30
0
41
1
10
14.3485492243643
20
1.79796599449466
30
0
41
1
10
14.5835467678322
20
1.76722372131599
30
0
41
1
10
14.7391727098145
20
1.7405066901805
30
0
41
1
10
15.0485610827148
20
1.67610481242778
30
0
41
1
10
15.2017134722956
20
1.63853351021425
30
0
41
1
10
15.5052981122684
20
1.55365139631269
30
0
41
1
10
15.6558244216624
20
1.50629033249237
30
0
41
1
10
15.9533606620993
20
1.40287045644615
30
0
41
1
10
16.1004926941539
20
1.34677914131382
30
0
41
1
10
16.2461602502532
20
1.28662117758358
30
0
0
SPLINE
5
146
100
AcDbEntity
8
1
62
256
6
ByLayer
370
18
48
1
60
0
100
AcDbSpline
70
4
71
3
72
21
73
17
40
0
40
0
40
0
40
0
40
0.250000000000001
40
0.250000000000001
40
0.375000000000001
40
0.375000000000001
40
0.500000000000001
40
0.500000000000001
40
0.562499999999994
40
0.562499999999994
40
0.624999999999988
40
0.624999999999988
40
0.749999999999992
40
0.874999999999996
40
0.874999999999996
40
1
40
1
40
1
40
1
41
1
10
16.5748655172085
20
1.59944636142154
30
0
41
1
10
16.5841032841098
20
1.53634725827206
30
0
41
1
10
16.5993443818683
20
1.4735932042243
30
0
41
1
10
16.6328236618126
20
1.38238499621991
30
0
41
1
10
16.6457257249816
20
1.3525400572918
30
0
41
1
10
16.6751023977079
20
1.29444390133926
30
0
41
1
10
16.6916609161898
20
1.26605620466634
30
0
41
1
10
16.7190488834294
20
1.22519434585044
30
0
41
1
10
16.7286071198156
20
1.21184610719806
30
0
41
1
10
16.7485886744632
20
1.18570284860536
30
0
41
1
10
16.7590374457066
20
1.17287910843396
30
0
41
1
10
16.7915042308894
20
1.13546793975831
30
0
41
1
10
16.8375873813365
20
1.08859626779838
30
0
41
1
10
16.8889050234763
20
1.04740961921468
30
0
41
1
10
16.9426955044085
20
1.00892858362712
30
0
41
1
10
16.97091661472
20
0.990996602368796
30
0
41
1
10
17
20
0.974527325057949
30
0
0
SPLINE
5
147
100
AcDbEntity
8
1
62
256
6
ByLayer
370
18
48
1
60
0
100
AcDbSpline
70
4
71
3
72
16
73
12
40
0
40
0
40
0
40
0
40
0.249999999999993
40
0.249999999999993
40
0.499999999999987
40
0.499999999999987
40
0.624999999999987
40
0.624999999999987
40
0.749999999999988
40
0.749999999999988
40
1
40
1
40
1
40
1
41
1
10
16.3873886226231
20
2.21536275738859
30
0
41
1
10
16.3917773089748
20
2.16334816612678
30
0
41
1
10
16.3986543347162
20
2.11103034960675
30
0
41
1
10
16.4179020495946
20
2.00642170458218
30
0
41
1
10
16.4302670744461
20
1.95415257815378
30
0
41
1
10
16.4533275704244
20
1.87623698002977
30
0
41
1
10
16.4617515523805
20
1.85039724341266
30
0
41
1
10
16.4801431140871
20
1.7990150081381
30
0
41
1
10
16.4901243479455
20
1.77344189670089
30
0
41
1
10
16.5223837502522
20
1.69749723115896
30
0
41
1
10
16.5469672818223
20
1.6478874716214
30
0
41
1
10
16.5748655172088
20
1.59944636142035
30
0
0
SPLINE
5
148
100
AcDbEntity
8
1
62
256
6
ByLayer
370
18
48
1
60
0
100
AcDbSpline
70
4
71
3
72
30
73
26
40
0
40
0
40
0
40
0
40
0.124999999999999
40
0.124999999999999
40
0.249999999999998
40
0.249999999999998
40
0.374999999999997
40
0.374999999999997
40
0.406249999999998
40
0.406249999999998
40
0.437499999999998
40
0.437499999999998
40
0.499999999999999
40
0.499999999999999
40
0.625000000000002
40
0.625000000000002
40
0.687500000000004
40
0.687500000000004
40
0.718750000000005
40
0.718750000000005
40
0.750000000000005
40
0.750000000000005
40
0.875000000000003
40
0.875000000000003
40
1
40
1
40
1
40
1
41
1
10
16.3873886226231
20
2.21536275738859
30
0
41
1
10
16.171494670329
20
2.33471531079442
30
0
41
1
10
15.9586187706435
20
2.45506983649938
30
0
41
1
10
15.5398530938419
20
2.69783454473298
30
0
41
1
10
15.3339630775264
20
2.82025061017671
30
0
41
1
10
14.9302699290666
20
3.06689350919544
30
0
41
1
10
14.7324667117377
20
3.19113057487311
30
0
41
1
10
14.4910526074674
20
3.34707034918949
30
0
41
1
10
14.4430621661319
20
3.37828867330615
30
0
41
1
10
14.3476872274739
20
3.4407653600102
30
0
41
1
10
14.3002659227873
20
3.47204873514832
30
0
41
1
10
14.159698816999
20
3.56541665502232
30
0
41
1
10
14.0680202742098
20
3.62717022159481
30
0
41
1
10
13.7993031302173
20
3.81047793344632
30
0
41
1
10
13.6285879856209
20
3.93012283429857
30
0
41
1
10
13.3859510748694
20
4.10315523063369
30
0
41
1
10
13.3073100810763
20
4.15975011244848
30
0
41
1
10
13.1927953440621
20
4.24258401337414
30
0
41
1
10
13.155198176137
20
4.26985137269952
30
0
41
1
10
13.0811673392166
20
4.32361411086745
30
0
41
1
10
13.0449188468428
20
4.34997482874783
30
0
41
1
10
12.867770708091
20
4.47878095733995
30
0
41
1
10
12.738813474096
20
4.57251563731108
30
0
41
1
10
12.5048622392811
20
4.7366972989858
30
0
41
1
10
12.3998477039171
20
4.80717541089024
30
0
41
1
10
12.3062547318571
20
4.8629875233585
30
0
0
SPLINE
5
149
100
AcDbEntity
8
1
62
256
6
ByLayer
370
18
48
1
60
0
100
AcDbSpline
70
4
71
3
72
24
73
20
40
0
40
0
40
0
40
0
40
0.125000000000003
40
0.125000000000003
40
0.250000000000006
40
0.250000000000006
40
0.375000000000009
40
0.375000000000009
40
0.437500000000009
40
0.437500000000009
40
0.500000000000008
40
0.500000000000008
40
0.625000000000006
40
0.625000000000006
40
0.750000000000004
40
0.750000000000004
40
0.875000000000002
40
0.875000000000002
40
1
40
1
40
1
40
1
41
1
10
12.3062547318571
20
4.8629875233585
30
0
41
1
10
12.3026597494151
20
4.865131312149
30
0
41
1
10
12.2995957091532
20
4.86728207807454
30
0
41
1
10
12.2947761998317
20
4.87160713934753
30
0
41
1
10
12.2930132859396
20
4.87379363338394
30
0
41
1
10
12.2911996942093
20
4.87815077191743
30
0
41
1
10
12.2911574064023
20
4.88028804024239
30
0
41
1
10
12.292585856626
20
4.88343073294467
30
0
41
1
10
12.2933113673002
20
4.88446775436876
30
0
41
1
10
12.295304740466
20
4.8865203794056
30
0
41
1
10
12.2965853079245
20
4.88754249045741
30
0
41
1
10
12.3011843481161
20
4.8904983138608
30
0
41
1
10
12.3052592381488
20
4.89233922336376
30
0
41
1
10
12.3153178500001
20
4.89578793042367
30
0
41
1
10
12.3213714511778
20
4.89740494090807
30
0
41
1
10
12.3346556512288
20
4.90030022767976
30
0
41
1
10
12.3419281794628
20
4.90159930012786
30
0
41
1
10
12.3575084295182
20
4.90396176351172
30
0
41
1
10
12.3658248834887
20
4.90502398107614
30
0
41
1
10
12.3744270445095
20
4.90597396810949
30
0
0
SPLINE
5
14A
100
AcDbEntity
8
1
62
256
6
ByLayer
370
18
48
1
60
0
100
AcDbSpline
70
4
71
3
72
34
73
30
40
0
40
0
40
0
40
0
40
0.0312499999999983
40
0.0312499999999983
40
0.0624999999999966
40
0.0624999999999966
40
0.124999999999998
40
0.124999999999998
40
0.156249999999999
40
0.156249999999999
40
0.1875
40
0.1875
40
0.250000000000001
40
0.250000000000001
40
0.312500000000003
40
0.312500000000003
40
0.375000000000005
40
0.375000000000005
40
0.437500000000006
40
0.437500000000006
40
0.500000000000008
40
0.500000000000008
40
0.625000000000006
40
0.625000000000006
40
0.750000000000004
40
0.750000000000004
40
0.875000000000002
40
0.875000000000002
40
1
40
1
40
1
40
1
41
1
10
12.3744270445095
20
4.90597396810938
30
0
41
1
10
12.4108127501338
20
4.90999225473047
30
0
41
1
10
12.4479961140543
20
4.91340049564681
30
0
41
1
10
12.5235443795746
20
4.91938572720264
30
0
41
1
10
12.5619132440721
20
4.9219588015238
30
0
41
1
10
12.6784338329501
20
4.92875844919362
30
0
41
1
10
12.7579805647391
20
4.93208355217232
30
0
41
1
10
12.879295590321
20
4.93596297751861
30
0
41
1
10
12.9201259588726
20
4.93706637554672
30
0
41
1
10
13.0021447401096
20
4.93895073623079
30
0
41
1
10
13.0432163827358
20
4.93972941647041
30
0
41
1
10
13.1665944904143
20
4.94165714339411
30
0
41
1
10
13.2490629432021
20
4.94240296379562
30
0
41
1
10
13.414350456327
20
4.9430687342292
30
0
41
1
10
13.4972750618765
20
4.94298477879477
30
0
41
1
10
13.662697677355
20
4.94210562766364
30
0
41
1
10
13.7452413766798
20
4.94131036884522
30
0
41
1
10
13.9100359955835
20
4.93905886549425
30
0
41
1
10
13.9923418839641
20
4.93760058009292
30
0
41
1
10
14.1564128045388
20
4.93402761912563
30
0
41
1
10
14.2381328662337
20
4.93191404094526
30
0
41
1
10
14.482433110666
20
4.92455369297565
30
0
41
1
10
14.6442556242241
20
4.91828715354688
30
0
41
1
10
14.9647191841958
20
4.90266160094035
30
0
41
1
10
15.1236092222072
20
4.89328679277193
30
0
41
1
10
15.4380151606542
20
4.87090016330461
30
0
41
1
10
15.5937064465478
20
4.85787335130661
30
0
41
1
10
15.9015990485213
20
4.82760684141218
30
0
41
1
10
16.0538240792011
20
4.81036683061157
30
0
41
1
10
16.2045426073011
20
4.79071914691991
30
0
0
SPLINE
5
14B
100
AcDbEntity
8
1
62
256
6
ByLayer
370
18
48
1
60
0
100
AcDbSpline
70
4
71
3
72
21
73
17
40
0
40
0
40
0
40
0
40
0.250000000000002
40
0.250000000000002
40
0.375000000000003
40
0.375000000000003
40
0.500000000000004
40
0.500000000000004
40
0.562499999999997
40
0.562499999999997
40
0.624999999999991
40
0.624999999999991
40
0.749999999999994
40
0.874999999999997
40
0.874999999999997
40
1
40
1
40
1
40
1
41
1
10
16.5748655172079
20
4.86501420728197
30
0
41
1
10
16.5841032841091
20
4.84964372451972
30
0
41
1
10
16.5993443818682
20
4.83314827793919
30
0
41
1
10
16.6328236618124
20
4.80759925889967
30
0
41
1
10
16.6457257249814
20
4.79897162418732
30
0
41
1
10
16.6751023977076
20
4.78170897167979
30
0
41
1
10
16.6916609161896
20
4.77303221629748
30
0
41
1
10
16.7190488834291
20
4.76024072804864
30
0
41
1
10
16.7286071198154
20
4.75601027883556
30
0
41
1
10
16.748588674463
20
4.74763169987179
30
0
41
1
10
16.7590374457064
20
4.7434741273776
30
0
41
1
10
16.7915042308892
20
4.73121904713435
30
0
41
1
10
16.8375873813363
20
4.71552330578118
30
0
41
1
10
16.8889050234763
20
4.70123628755644
30
0
41
1
10
16.9426955044085
20
4.68770159619876
30
0
41
1
10
16.97091661472
20
4.68129405688032
30
0
41
1
10
17
20
4.67534209030549
30
0
0
SPLINE
5
14C
100
AcDbEntity
8
1
62
256
6
ByLayer
370
18
48
1
60
0
100
AcDbSpline
70
4
71
3
72
16
73
12
40
0
40
0
40
0
40
0
40
0.249999999999997
40
0.249999999999997
40
0.499999999999995
40
0.499999999999995
40
0.624999999999994
40
0.624999999999994
40
0.749999999999992
40
0.749999999999992
40
1
40
1
40
1
40
1
41
1
10
16.3872996255916
20
4.97539577430632
30
0
41
1
10
16.3916619578152
20
4.96963692717134
30
0
41
1
10
16.3985194038456
20
4.96288200028175
30
0
41
1
10
16.4177435396472
20
4.94752330794884
30
0
41
1
10
16.4301051935173
20
4.93892285341281
30
0
41
1
10
16.4531739463683
20
4.92480039938346
30
0
41
1
10
16.4616034880348
20
4.9198987625675
30
0
41
1
10
16.4800105005996
20
4.90973693796045
30
0
41
1
10
16.4900019203884
20
4.90446986730828
30
0
41
1
10
16.5223003327756
20
4.88823510463331
30
0
41
1
10
16.546919954775
20
4.87683412709077
30
0
41
1
10
16.5748655172087
20
4.86501420728169
30
0
0
SPLINE
5
14D
100
AcDbEntity
8
1
62
256
6
ByLayer
370
18
48
1
60
0
100
AcDbSpline
70
4
71
3
72
8
73
4
40
0
40
0
40
0
40
0
40
1
40
1
40
1
40
1
41
1
10
17.1339964285044
20
1.90580381407861
30
0
41
1
10
17.0892316846992
20
1.92994914661489
30
0
41
1
10
17.0445649766389
20
1.95414566390235
30
0
41
1
10
17.0000000000001
20
1.97839504062532
30
0
0
SPLINE
5
14E
100
AcDbEntity
8
1
62
256
6
ByLayer
370
18
48
1
60
0
100
AcDbSpline
70
4
71
3
72
34
73
30
40
0
40
0
40
0
40
0
40
0.124999999999999
40
0.124999999999999
40
0.156249999999999
40
0.156249999999999
40
0.187499999999999
40
0.187499999999999
40
0.250000000000002
40
0.250000000000002
40
0.375000000000008
40
0.375000000000008
40
0.43750000000001
40
0.43750000000001
40
0.468750000000009
40
0.468750000000009
40
0.500000000000008
40
0.500000000000008
40
0.625000000000004
40
0.625000000000004
40
0.687500000000003
40
0.687500000000003
40
0.718750000000004
40
0.718750000000004
40
0.750000000000004
40
0.750000000000004
40
0.875000000000002
40
0.875000000000002
40
1
40
1
40
1
40
1
41
1
10
27
20
-3.19079276322623
30
0
41
1
10
26.5884831260373
20
-3.02044703605543
30
0
41
1
10
26.1776707730045
20
-2.83956146238327
30
0
41
1
10
25.66360735067
20
-2.60239749349836
30
0
41
1
10
25.560767899654
20
-2.55441048977016
30
0
41
1
10
25.3550019126303
20
-2.45737581255778
30
0
41
1
10
25.2520405099458
20
-2.40831115615728
30
0
41
1
10
24.9433873585753
20
-2.25979370897414
30
0
41
1
10
24.7378434577836
20
-2.15898128574565
30
0
41
1
10
24.1215223770346
20
-1.85172576348933
30
0
41
1
10
23.7110570546284
20
-1.64046855863478
30
0
41
1
10
23.0948488498394
20
-1.31606553381025
30
0
41
1
10
22.8893607545976
20
-1.20667560670094
30
0
41
1
10
22.5808454679599
20
-1.04097144856104
30
0
41
1
10
22.4779596505025
20
-0.985467067647761
30
0
41
1
10
22.2720665918082
20
-0.873962596307791
30
0
41
1
10
22.1690792434762
20
-0.817973039205214
30
0
41
1
10
21.6546812261539
20
-0.537397445352099
30
0
41
1
10
21.2441891688282
20
-0.310531463470738
30
0
41
1
10
20.6286118899516
20
0.0309047561628972
30
0
41
1
10
20.42344833076
20
0.144910817483009
30
0
41
1
10
20.1154923890915
20
0.315748553531989
30
0
41
1
10
20.0128052524291
20
0.372665784427227
30
0
41
1
10
19.8073196349506
20
0.486368087855283
30
0
41
1
10
19.704481003471
20
0.54317525880532
30
0
41
1
10
19.1904245245991
20
0.826416842092442
30
0
41
1
10
18.7800415088127
20
1.05019093861188
30
0
41
1
10
17.9586985551251
20
1.48818106735479
30
0
41
1
10
17.5477403588244
20
1.70240582318252
30
0
41
1
10
17.135600145445
20
1.91026035995739
30
0
0
SPLINE
5
14F
100
AcDbEntity
8
1
62
256
6
ByLayer
370
18
48
1
60
0
100
AcDbSpline
70
4
71
3
72
11
73
7
40
0
40
0
40
0
40
0
40
0.375
40
0.625
40
0.75
40
1
40
1
40
1
40
1
41
1
10
17.0000000000001
20
1.35028476391582
30
0
41
1
10
18.2500000000001
20
0.665789697349453
30
0
41
1
10
20.3333333333334
20
-0.546318114776909
30
0
41
1
10
22.8333333333334
20
-1.91989856308723
30
0
41
1
10
24.9166666666667
20
-2.95467838574254
30
0
41
1
10
26.1666666666667
20
-3.48846797559918
30
0
41
1
10
27
20
-3.7920001857791
30
0
0
SPLINE
5
150
100
AcDbEntity
8
1
62
256
6
ByLayer
370
18
48
1
60
0
100
AcDbSpline
70
4
71
3
72
8
73
4
40
0
40
0
40
0
40
0
40
1
40
1
40
1
40
1
41
1
10
28.0534980323321
20
-4.30473007087349
30
0
41
1
10
27.9792314474675
20
-4.2999188955589
30
0
41
1
10
27.9051028028957
20
-4.29281928327524
30
0
41
1
10
27.8310491903328
20
-4.28358640731813
30
0
0
SPLINE
5
151
100
AcDbEntity
8
1
62
256
6
ByLayer
370
18
48
1
60
0
100
AcDbSpline
70
4
71
3
72
26
73
22
40
0
40
0
40
0
40
0
40
0.0397995415355911
40
0.079363583058858
40
0.118692670268024
40
0.157787372971718
40
0.19664828569116
40
0.235276028269684
40
0.273671246489087
40
0.311834612693484
40
0.349766826420027
40
0.387468615036785
40
0.42494073438776
40
0.462183969444764
40
0.499199134966243
40
0.62514990397972
40
0.749038373627101
40
0.812020830820203
40
0.874347074503722
40
0.93714703465645
40
1
40
1
40
1
40
1
41
1
10
27.8310490810135
20
-4.28358639368849
30
0
41
1
10
27.8200262528164
20
-4.28218704978261
30
0
41
1
10
27.7980458201931
20
-4.2793966421041
30
0
41
1
10
27.7651661744739
20
-4.2748928290018
30
0
41
1
10
27.7324774015263
20
-4.27017384417019
30
0
41
1
10
27.6999789991977
20
-4.26521840414043
30
0
41
1
10
27.6676711004254
20
-4.26003493456108
30
0
41
1
10
27.6355536694592
20
-4.25462396953978
30
0
41
1
10
27.6036267154361
20
-4.24898813608237
30
0
41
1
10
27.5718902352059
20
-4.24312950223413
30
0
41
1
10
27.5403442302134
20
-4.23705027992528
30
0
41
1
10
27.5089886957289
20
-4.23075264017203
30
0
41
1
10
27.4778236469572
20
-4.22423875231408
30
0
41
1
10
27.4468490261321
20
-4.21751080693383
30
0
41
1
10
27.3913475554829
20
-4.20499858651439
30
0
41
1
10
27.3118316335927
20
-4.18562448936109
30
0
41
1
10
27.22515855621
20
-4.16203404317974
30
0
41
1
10
27.1561601919471
20
-4.14173621112866
30
0
41
1
10
27.1041014849109
20
-4.12567494160049
30
0
41
1
10
27.0521191828873
20
-4.10874897120593
30
0
41
1
10
27.0173779637319
20
-4.0972263057615
30
0
41
1
10
27.0000000265693
20
-4.09146254268967
30
0
0
SPLINE
5
152
100
AcDbEntity
8
1
62
256
6
ByLayer
370
13
48
1
60
0
100
AcDbSpline
70
4
71
3
72
8
73
4
40
0
40
0
40
0
40
0
40
1
40
1
40
1
40
1
41
1
10
17.6406718892823
20
0.609376971166768
30
0
41
1
10
17.4271145928549
20
0.723133520961682
30
0
41
1
10
17.2135572964275
20
0.836331449507355
30
0
41
1
10
17
20
0.948655138817259
30
0
0
SPLINE
5
153
100
AcDbEntity
8
1
62
256
6
ByLayer
370
18
48
1
60
0
100
AcDbSpline
70
4
71
3
72
45
73
41
40
0
40
0
40
0
40
0
40
0.0312499999999988
40
0.0312499999999988
40
0.0624999999999976
40
0.0624999999999976
40
0.124999999999992
40
0.124999999999992
40
0.15624999999999
40
0.15624999999999
40
0.187499999999987
40
0.187499999999987
40
0.249999999999982
40
0.249999999999982
40
0.374999999999976
40
0.374999999999976
40
0.437499999999975
40
0.437499999999975
40
0.453124999999975
40
0.453124999999975
40
0.468749999999975
40
0.49999999999998
40
0.49999999999998
40
0.624999999999995
40
0.624999999999995
40
0.687499999999999
40
0.687499999999999
40
0.718750000000001
40
0.718750000000001
40
0.750000000000003
40
0.750000000000003
40
0.812500000000001
40
0.812500000000001
40
0.874999999999998
40
0.874999999999998
40
0.937499999999996
40
0.937499999999996
40
0.968749999999998
40
0.968749999999998
40
1
40
1
40
1
40
1
41
1
10
31.7446139061654
20
-0.713558070897278
30
0
41
1
10
31.7270538443462
20
-0.731248657764098
30
0
41
1
10
31.7085952494546
20
-0.74834331574624
30
0
41
1
10
31.6698674581144
20
-0.781328041640791
30
0
41
1
10
31.6496397733473
20
-0.797181127424381
30
0
41
1
10
31.5864990301016
20
-0.842743317130129
30
0
41
1
10
31.541099703828
20
-0.870499132129538
30
0
41
1
10
31.4680206620762
20
-0.908150994942247
30
0
41
1
10
31.4428295682317
20
-0.920036843217645
30
0
41
1
10
31.3907720822522
20
-0.942457831444557
30
0
41
1
10
31.3638847602827
20
-0.952997156289882
30
0
41
1
10
31.2812366922971
20
-0.98236827341529
30
0
41
1
10
31.2233323483754
20
-0.999023732004133
30
0
41
1
10
31.0413950608546
20
-1.04045914973926
30
0
41
1
10
30.9091892597486
20
-1.05672330693596
30
0
41
1
10
30.6945997881947
20
-1.06488513709604
30
0
41
1
10
30.6203390215643
20
-1.06491669694444
30
0
41
1
10
30.52399588626
20
-1.06153110051426
30
0
41
1
10
30.5045582068154
20
-1.06068111259921
30
0
41
1
10
30.465495506152
20
-1.05864108628197
30
0
41
1
10
30.4065604504179
20
-1.0550688895336
30
0
41
1
10
30.3466121594956
20
-1.04996195730973
30
0
41
1
10
30.1445694627172
20
-1.02950273777964
30
0
41
1
10
29.9759017199426
20
-1.0020039831783
30
0
41
1
10
29.7124907485245
20
-0.944195041637812
30
0
41
1
10
29.6229433260003
20
-0.922170039426959
30
0
41
1
10
29.4859478910081
20
-0.88494186484516
30
0
41
1
10
29.4398177576267
20
-0.871827632000389
30
0
41
1
10
29.3467246713645
20
-0.844202474378989
30
0
41
1
10
29.3000288101703
20
-0.829771246575945
30
0
41
1
10
29.1594971438263
20
-0.78465703106005
30
0
41
1
10
29.0652165157
20
-0.752157192045104
30
0
41
1
10
28.8755112718652
20
-0.682425063716892
30
0
41
1
10
28.7800843053961
20
-0.645188850158746
30
0
41
1
10
28.58808363262
20
-0.565995553497203
30
0
41
1
10
28.4915163589552
20
-0.524041187784775
30
0
41
1
10
28.3457789909934
20
-0.457533451818563
30
0
41
1
10
28.2970516564794
20
-0.434767576396325
30
0
41
1
10
28.1992959636995
20
-0.388031828131858
30
0
41
1
10
28.1502119264279
20
-0.364028617099223
30
0
41
1
10
28.101115404533
20
-0.339506364577062
30
0
0
SPLINE
5
154
100
AcDbEntity
8
1
62
256
6
ByLayer
370
13
48
1
60
0
100
AcDbSpline
70
4
71
3
72
8
73
4
40
0
40
0
40
0
40
0
40
1
40
1
40
1
40
1
41
1
10
28.1011154045343
20
-0.339506364577573
30
0
41
1
10
28.1055192516352
20
-0.341790340652722
30
0
41
1
10
28.1099251783452
20
-0.344068783684122
30
0
41
1
10
28.1143332500822
20
-0.346341618145487
30
0
0
SPLINE
5
155
100
AcDbEntity
8
1
62
256
6
ByLayer
370
18
48
1
60
0
100
AcDbSpline
70
4
71
3
72
10
73
6
40
0
40
0
40
0
40
0
40
0.640589806044666
40
0.640589806044666
40
1
40
1
40
1
40
1
41
1
10
28.1143332503168
20
-0.346341618250591
30
0
41
1
10
28.2035359626714
20
-0.390799839723741
30
0
41
1
10
28.291836715111
20
-0.433050168189794
30
0
41
1
10
28.4289211936023
20
-0.495783846342164
30
0
41
1
10
28.4780395152579
20
-0.517685494916492
30
0
41
1
10
28.5270568515415
20
-0.538957630935073
30
0
0
SPLINE
5
156
100
AcDbEntity
8
1
62
256
6
ByLayer
370
18
48
1
60
0
100
AcDbSpline
70
4
71
3
72
8
73
4
40
0
40
0
40
0
40
0
40
1
40
1
40
1
40
1
41
1
10
28.0534693302246
20
4.1572952074699
30
0
41
1
10
28.0600637544654
20
4.15460082808147
30
0
41
1
10
28.0666193765795
20
4.15184742207384
30
0
41
1
10
28.0731366663965
20
4.14903544693314
30
0
0
SPLINE
5
157
100
AcDbEntity
8
1
62
256
6
ByLayer
370
18
48
1
60
0
100
AcDbSpline
70
4
71
3
72
10
73
6
40
0
40
0
40
0
40
0
40
0.5
40
0.5
40
1
40
1
40
1
40
1
41
1
10
28.1143332500024
20
4.11634409883507
30
0
41
1
10
28.1035753823758
20
4.12214483797416
30
0
41
1
10
28.0932745041517
20
4.12871104347533
30
0
41
1
10
28.0730822136393
20
4.14252293937457
30
0
41
1
10
28.0632074709319
20
4.14979674671753
30
0
41
1
10
28.0534693302244
20
4.15729520746967
30
0
0
SPLINE
5
158
100
AcDbEntity
8
1
62
256
6
ByLayer
370
18
48
1
60
0
100
AcDbSpline
70
4
71
3
72
8
73
4
40
0
40
0
40
0
40
0
40
1
40
1
40
1
40
1
41
1
10
28.0534693302245
20
4.15729520746976
30
0
41
1
10
27.9792159879212
20
4.19187160482048
30
0
41
1
10
27.9050968485796
20
4.22479071516716
30
0
41
1
10
27.831049260392
20
4.2560771197528
30
0
0
SPLINE
5
159
100
AcDbEntity
8
1
62
256
6
ByLayer
370
18
48
1
60
0
100
AcDbSpline
70
4
71
3
72
11
73
7
40
0
40
0
40
0
40
0
40
0.318731450157615
40
0.478097175236423
40
0.796828625394039
40
1
40
1
40
1
40
1
41
1
10
27
20
4.53408680531714
30
0
41
1
10
26.1666666666667
20
4.73659220242948
30
0
41
1
10
24.9166666666667
20
4.94644944504336
30
0
41
1
10
22.8333333333334
20
5.03449671861497
30
0
41
1
10
21.0521354275272
20
4.88830429410018
30
0
41
1
10
19.6876041883876
20
4.59492978850386
30
0
41
1
10
19.1564062825814
20
4.45575136586695
30
0
0
SPLINE
5
15A
100
AcDbEntity
8
1
62
256
6
ByLayer
370
18
48
1
60
0
100
AcDbSpline
70
4
71
3
72
12
73
8
40
0
40
0
40
0
40
0
40
0.261187853733691
40
0.261187853733691
40
0.522375702980667
40
0.522375702980667
40
1
40
1
40
1
40
1
41
1
10
31.6041898570343
20
1.2952201586956
30
0
41
1
10
31.6148033467037
20
1.26437758475049
30
0
41
1
10
31.6254271410512
20
1.23354521155636
30
0
41
1
10
31.6466948391722
20
1.17190048348013
30
0
41
1
10
31.6573387476913
20
1.14108811496766
30
0
41
1
10
31.6874745252112
20
1.05395810827588
30
0
41
1
10
31.7069894210522
20
0.997663394931863
30
0
41
1
10
31.7265357320587
20
0.94140029294266
30
0
0
SPLINE
5
15B
100
AcDbEntity
8
1
62
256
6
ByLayer
370
18
48
1
60
0
100
AcDbSpline
70
4
71
3
72
26
73
22
40
0
40
0
40
0
40
0
40
0.0397957272384731
40
0.0793559968262205
40
0.118681354297042
40
0.157772369286145
40
0.196629636132007
40
0.235253774485483
40
0.273645429926083
40
0.311805274585378
40
0.349734007777427
40
0.387432356636524
40
0.424901076761655
40
0.462140952868321
40
0.499152799446936
40
0.625109119297257
40
0.749002905171727
40
0.811992778480353
40
0.874326451543734
40
0.937136319266316
40
1
40
1
40
1
40
1
41
1
10
27.8310491539212
20
4.2560771647386
30
0
41
1
10
27.8200273812327
20
4.26071561160535
30
0
41
1
10
27.7980490478994
20
4.26996506124169
30
0
41
1
10
27.7651725348255
20
4.28355536249211
30
0
41
1
10
27.7324868602336
20
4.29688372662969
30
0
41
1
10
27.6999915220684
20
4.309932160003
30
0
41
1
10
27.6676866532415
20
4.32270426496737
30
0
41
1
10
27.6355722180097
20
4.33519795161996
30
0
41
1
10
27.6036482255084
20
4.3474126837578
30
0
41
1
10
27.571914672588
20
4.35934755458919
30
0
41
1
10
27.5403715606931
20
4.37100179555227
30
0
41
1
10
27.5090188850951
20
4.38237464658837
30
0
41
1
10
27.4778566609967
20
4.39346536807585
30
0
41
1
10
27.4468848306382
20
4.40427331830801
30
0
41
1
10
27.3913836651346
20
4.42324955091021
30
0
41
1
10
27.3118656349038
20
4.44918227960522
30
0
41
1
10
27.2251874667365
20
4.47522531309653
30
0
41
1
10
27.1561834973018
20
4.4945414398691
30
0
41
1
10
27.1041179231104
20
4.50840626920117
30
0
41
1
10
27.0521278503169
20
4.52139441089898
30
0
41
1
10
27.0173809273301
20
4.5298549625152
30
0
41
1
10
27.0000000265761
20
4.53408704971389
30
0
0
SPLINE
5
15C
100
AcDbEntity
8
1
62
256
6
ByLayer
370
18
48
1
60
0
100
AcDbSpline
70
4
71
3
72
13
73
9
40
0
40
0
40
0
40
0
40
0.0530898954600753
40
0.085459650160834
40
0.161138706511013
40
0.248612546530126
40
0.783448637918768
40
1
40
1
40
1
40
1
41
1
10
27.8310456132207
20
4.25607443909146
30
0
41
1
10
27.8352000589069
20
4.25431907083643
30
0
41
1
10
27.8418947117485
20
4.25148318130346
30
0
41
1
10
27.8551645391455
20
4.24584091192659
30
0
41
1
10
27.8712751454915
20
4.23894751437467
30
0
41
1
10
27.9278872913217
20
4.21458075740887
30
0
41
1
10
27.9956294796811
20
4.18455757604386
30
0
41
1
10
28.0558267243632
20
4.1570237763226
30
0
41
1
10
28.0731366664123
20
4.1490354469253
30
0
0
SPLINE
5
15D
100
AcDbEntity
8
1
62
256
6
ByLayer
370
18
48
1
60
0
100
AcDbSpline
70
4
71
3
72
8
73
4
40
0
40
0
40
0
40
0
40
1
40
1
40
1
40
1
41
1
10
28.0731366663961
20
4.14903544693277
30
0
41
1
10
28.0825498924727
20
4.1448699206845
30
0
41
1
10
28.0918766292136
20
4.14063796365969
30
0
41
1
10
28.101115404539
20
4.1363386265721
30
0
0
SPLINE
5
15E
100
AcDbEntity
8
1
62
256
6
ByLayer
370
18
48
1
60
0
100
AcDbSpline
70
4
71
3
72
37
73
33
40
0
40
0
40
0
40
0
40
0.0624999999999913
40
0.0624999999999913
40
0.124999999999983
40
0.124999999999983
40
0.187499999999974
40
0.187499999999974
40
0.249999999999965
40
0.249999999999965
40
0.374999999999939
40
0.374999999999939
40
0.499999999999912
40
0.499999999999912
40
0.562499999999915
40
0.562499999999915
40
0.624999999999918
40
0.624999999999918
40
0.687499999999921
40
0.687499999999921
40
0.749999999999924
40
0.749999999999924
40
0.812499999999926
40
0.812499999999926
40
0.843749999999928
40
0.843749999999928
40
0.874999999999929
40
0.906249999999931
40
0.906249999999931
40
0.937499999999932
40
0.937499999999932
40
1
40
1
40
1
40
1
41
1
10
31.1264503024765
20
0.519109429421349
30
0
41
1
10
31.1255981307965
20
0.52131993754773
30
0
41
1
10
31.1246179579838
20
0.524605109336051
30
0
41
1
10
31.1230252829907
20
0.533050743088012
30
0
41
1
10
31.1224091699335
20
0.538256102240297
30
0
41
1
10
31.1219653380027
20
0.550095723895623
30
0
41
1
10
31.1221263657424
20
0.556742985929247
30
0
41
1
10
31.1234547322736
20
0.57133947150902
30
0
41
1
10
31.1246357287409
20
0.579354961372445
30
0
41
1
10
31.129878864904
20
0.60467015515141
30
0
41
1
10
31.1355806204774
20
0.623220336336232
30
0
41
1
10
31.1523461643392
20
0.663038783274573
30
0
41
1
10
31.1630513133617
20
0.683470069904445
30
0
41
1
10
31.1828829434709
20
0.71420909543113
30
0
41
1
10
31.1901840663579
20
0.72453484774644
30
0
41
1
10
31.2057417792224
20
0.744530178086961
30
0
41
1
10
31.2140351334
20
0.75426915460892
30
0
41
1
10
31.2317380060127
20
0.773111752913366
30
0
41
1
10
31.2411866100356
20
0.782251925905513
30
0
41
1
10
31.2612100185123
20
0.799542540223513
30
0
41
1
10
31.2716230611615
20
0.807560977415562
30
0
41
1
10
31.2933817706319
20
0.822136913294202
30
0
41
1
10
31.3047254054451
20
0.82869765372331
30
0
41
1
10
31.3226291178045
20
0.837143138037618
30
0
41
1
10
31.3287796776093
20
0.839735093486894
30
0
41
1
10
31.3412376324683
20
0.844304566868175
30
0
41
1
10
31.3538387034712
20
0.848261845249368
30
0
41
1
10
31.3667510698141
20
0.850907051734993
30
0
41
1
10
31.3798321754212
20
0.852850883461656
30
0
41
1
10
31.3865038356951
20
0.853472525412371
30
0
41
1
10
31.4064168054791
20
0.854220981873965
30
0
41
1
10
31.4194609138089
20
0.853247492403739
30
0
41
1
10
31.4322856300145
20
0.851112906711052
30
0
0
SPLINE
5
15F
100
AcDbEntity
8
1
62
256
6
ByLayer
370
18
48
1
60
0
100
AcDbSpline
70
4
71
3
72
12
73
8
40
0
40
0
40
0
40
0
40
0.25
40
0.25
40
0.5
40
0.5
40
1
40
1
40
1
40
1
41
1
10
31.4962455476468
20
0.848006000769715
30
0
41
1
10
31.4911314796577
20
0.846836592141869
30
0
41
1
10
31.4857849940697
20
0.846472193076835
30
0
41
1
10
31.4749220662351
20
0.846332062724372
30
0
41
1
10
31.4694599471206
20
0.846597248246923
30
0
41
1
10
31.4533523527176
20
0.847873881106295
30
0
41
1
10
31.4427848356967
20
0.849365386229493
30
0
41
1
10
31.4322856300144
20
0.851112906710625
30
0
0
SPLINE
5
160
100
AcDbEntity
8
1
62
256
6
ByLayer
370
13
48
1
60
0
100
AcDbSpline
70
4
71
3
72
24
73
20
40
0
40
0
40
0
40
0
40
0.125
40
0.125
40
0.250000000000001
40
0.250000000000001
40
0.312500000000001
40
0.312500000000001
40
0.375000000000001
40
0.375000000000001
40
0.500000000000001
40
0.500000000000001
40
0.625
40
0.625
40
0.75
40
0.75
40
0.875
40
0.875
40
1
40
1
40
1
40
1
41
1
10
28.8057848961005
20
3.13839307385996
30
0
41
1
10
28.8997658231773
20
3.01616165540054
30
0
41
1
10
28.9958747612827
20
2.89599099740738
30
0
41
1
10
29.1933888443334
20
2.66062128911938
30
0
41
1
10
29.2947872100295
20
2.54541717032504
30
0
41
1
10
29.4518298063497
20
2.37706638053342
30
0
41
1
10
29.5050130732893
20
2.32169875056439
30
0
41
1
10
29.6131966341274
20
2.2125738713934
30
0
41
1
10
29.6678274185315
20
2.15916239195425
30
0
41
1
10
29.8330589295177
20
2.00255247606447
30
0
41
1
10
29.9450977205932
20
1.90293395512046
30
0
41
1
10
30.1724859187742
20
1.71254334709354
30
0
41
1
10
30.2878220732513
20
1.62168198210435
30
0
41
1
10
30.5215907385361
20
1.44770113084027
30
0
41
1
10
30.6400214723705
20
1.36458487129386
30
0
41
1
10
30.8800279056827
20
1.20569298700363
30
0
41
1
10
31.0016089338761
20
1.12994839618847
30
0
41
1
10
31.2472392787426
20
0.984671705196405
30
0
41
1
10
31.3712908952447
20
0.915129799755647
30
0
41
1
10
31.4962455476551
20
0.848006000765366
30
0
0
SPLINE
5
161
100
AcDbEntity
8
1
62
256
6
ByLayer
370
18
48
1
60
0
100
AcDbSpline
70
4
71
3
72
8
73
4
40
0
40
0
40
0
40
0
40
1
40
1
40
1
40
1
41
1
10
31.4962455476547
20
0.84800600076548
30
0
41
1
10
31.5632743250117
20
0.86333313969314
30
0
41
1
10
31.6303181386062
20
0.878638172194286
30
0
41
1
10
31.6973737121156
20
0.893925915151215
30
0
0
SPLINE
5
162
100
AcDbEntity
8
1
62
256
6
ByLayer
370
18
48
1
60
0
100
AcDbSpline
70
4
71
3
72
8
73
4
40
0
40
0
40
0
40
0
40
1
40
1
40
1
40
1
41
1
10
31.6973737121156
20
0.893925915151186
30
0
41
1
10
31.7071211902459
20
0.909694293165927
30
0
41
1
10
31.7168415742879
20
0.925519694578384
30
0
41
1
10
31.7265357320587
20
0.94140029294266
30
0
0
SPLINE
5
163
100
AcDbEntity
8
1
62
256
6
ByLayer
370
18
48
1
60
0
100
AcDbSpline
70
4
71
3
72
44
73
40
40
0
40
0
40
0
40
0
40
0.0312500000000003
40
0.0312500000000003
40
0.0625000000000007
40
0.0625000000000007
40
0.125000000000001
40
0.125000000000001
40
0.156250000000002
40
0.156250000000002
40
0.187500000000002
40
0.187500000000002
40
0.249999999999999
40
0.249999999999999
40
0.374999999999987
40
0.374999999999987
40
0.406249999999987
40
0.406249999999987
40
0.437499999999987
40
0.437499999999987
40
0.499999999999992
40
0.499999999999992
40
0.624999999999996
40
0.624999999999996
40
0.687499999999998
40
0.687499999999998
40
0.703124999999998
40
0.703124999999998
40
0.718749999999999
40
0.718749999999999
40
0.749999999999999
40
0.749999999999999
40
0.875000000000003
40
0.875000000000003
40
0.937500000000001
40
0.937500000000001
40
0.968750000000001
40
0.968750000000001
40
1
40
1
40
1
40
1
41
1
10
31.7265357320587
20
0.94140029294266
30
0
41
1
10
31.7085601815183
20
0.977370997464078
30
0
41
1
10
31.6896822715491
20
1.01361840217197
30
0
41
1
10
31.6502529723405
20
1.08641023591952
30
0
41
1
10
31.6297190301492
20
1.12292584925763
30
0
41
1
10
31.5656881606272
20
1.23283960031915
30
0
41
1
10
31.5197700974313
20
1.30660440603012
30
0
41
1
10
31.4460028074048
20
1.41801570040195
30
0
41
1
10
31.4205981384386
20
1.45528057586449
30
0
41
1
10
31.368144414489
20
1.53007662060159
30
0
41
1
10
31.341163461436
20
1.56750950943064
30
0
41
1
10
31.2582464480871
20
1.67956379684512
30
0
41
1
10
31.200232050959
20
1.75408906347368
30
0
41
1
10
31.0181541009443
20
1.97711356666909
30
0
41
1
10
30.8861108360376
20
2.12508816734356
30
0
41
1
10
30.7077429932385
20
2.30882469446394
30
0
41
1
10
30.6713985596451
20
2.34550733904831
30
0
41
1
10
30.5973504442799
20
2.41873039369727
30
0
41
1
10
30.5596233871818
20
2.45529391714914
30
0
41
1
10
30.4445106066232
20
2.56464149665604
30
0
41
1
10
30.365979260295
20
2.63634060390982
30
0
41
1
10
30.1251975460343
20
2.84805406495764
30
0
41
1
10
29.957805865376
20
2.98477634255761
30
0
41
1
10
29.6965155918132
20
3.18329278519119
30
0
41
1
10
29.6077101764691
20
3.2483613796183
30
0
41
1
10
29.4945177604365
20
3.32827771774347
30
0
41
1
10
29.4717698275392
20
3.34418990746659
30
0
41
1
10
29.4260531194929
20
3.37587068147559
30
0
41
1
10
29.4030605365256
20
3.39165535350639
30
0
41
1
10
29.3339347348017
20
3.43866328063709
30
0
41
1
10
29.2877047632634
20
3.46950694361399
30
0
41
1
10
29.0558310366319
20
3.62128245533077
30
0
41
1
10
28.8680354575497
20
3.73494673838226
30
0
41
1
10
28.5829988601902
20
3.89412619589544
30
0
41
1
10
28.4874315983466
20
3.94530164825653
30
0
41
1
10
28.3432120359486
20
4.01915255336908
30
0
41
1
10
28.2949936857285
20
4.04328318744538
30
0
41
1
10
28.1982622467946
20
4.09055943810571
30
0
41
1
10
28.1496943566169
20
4.11373202742996
30
0
41
1
10
28.101115404537
20
4.13633862657306
30
0
0
SPLINE
5
164
100
AcDbEntity
8
1
62
256
6
ByLayer
370
13
48
1
60
0
100
AcDbSpline
70
4
71
3
72
8
73
4
40
0
40
0
40
0
40
0
40
1
40
1
40
1
40
1
41
1
10
28.1011154045382
20
4.13633862657849
30
0
41
1
10
28.1055192518347
20
4.12967127348051
30
0
41
1
10
28.1099251787405
20
4.12300641107134
30
0
41
1
10
28.1143332506734
20
4.11634409781885
30
0
0
SPLINE
5
165
100
AcDbEntity
8
1
62
256
6
ByLayer
370
18
48
1
60
0
100
AcDbSpline
70
4
71
3
72
10
73
6
40
0
40
0
40
0
40
0
40
0.5
40
0.5
40
1
40
1
40
1
40
1
41
1
10
28.114333250908
20
4.11634409836049
30
0
41
1
10
28.2035359630271
20
4.06824519235789
30
0
41
1
10
28.2918367152354
20
4.01716676812742
30
0
41
1
10
28.4674665537522
20
3.9109301010802
30
0
41
1
10
28.5548010339437
20
3.85578971397791
30
0
41
1
10
28.6419396011166
20
3.79926566862127
30
0
0
SPLINE
5
166
100
AcDbEntity
8
1
62
256
6
ByLayer
370
18
48
1
60
0
100
AcDbSpline
70
4
71
3
72
38
73
34
40
0
40
0
40
0
40
0
40
0.124999999999992
40
0.124999999999992
40
0.249999999999985
40
0.249999999999985
40
0.374999999999977
40
0.374999999999977
40
0.499999999999969
40
0.499999999999969
40
0.56249999999997
40
0.56249999999997
40
0.624999999999971
40
0.624999999999971
40
0.749999999999967
40
0.749999999999967
40
0.812499999999964
40
0.812499999999964
40
0.874999999999961
40
0.874999999999961
40
0.906249999999958
40
0.906249999999958
40
0.937499999999955
40
0.937499999999955
40
0.95312499999996
40
0.95312499999996
40
0.968749999999964
40
0.968749999999964
40
0.976562499999966
40
0.976562499999966
40
0.984374999999968
40
0.984374999999968
40
1
40
1
40
1
40
1
41
1
10
29.0713472807708
20
2.15249023625049
30
0
41
1
10
29.0395075526167
20
2.18415497468908
30
0
41
1
10
29.010465265135
20
2.21795097204077
30
0
41
1
10
28.957243974919
20
2.28956161390957
30
0
41
1
10
28.9330726714429
20
2.32738170063522
30
0
41
1
10
28.8891327711076
20
2.40703336354937
30
0
41
1
10
28.8697467471248
20
2.44817485215276
30
0
41
1
10
28.8354206190164
20
2.53263103776158
30
0
41
1
10
28.8204562125868
20
2.57598648445617
30
0
41
1
10
28.8008768618752
20
2.64264285674517
30
0
41
1
10
28.7948221960256
20
2.66516711841277
30
0
41
1
10
28.7836759023936
20
2.71061649237623
30
0
41
1
10
28.7786133048285
20
2.73341282436854
30
0
41
1
10
28.764905339281
20
2.80200599866569
30
0
41
1
10
28.7576578043757
20
2.84799441122681
30
0
41
1
10
28.7503514960904
20
2.91746829815097
30
0
41
1
10
28.7485175687781
20
2.94077949656679
30
0
41
1
10
28.7466764968407
20
2.98711673675803
30
0
41
1
10
28.7466197459192
20
3.01026876540632
30
0
41
1
10
28.7491011762443
20
3.04423666151985
30
0
41
1
10
28.7503604252298
20
3.05544126766827
30
0
41
1
10
28.7543419894851
20
3.07749421033318
30
0
41
1
10
28.7570418485813
20
3.08831355673573
30
0
41
1
10
28.7630655724034
20
3.10350390943225
30
0
41
1
10
28.7654182781926
20
3.10839115649173
30
0
41
1
10
28.7709329468794
20
3.11737860230491
30
0
41
1
10
28.7741045960101
20
3.12151706060493
30
0
41
1
10
28.7797516761473
20
3.12697951057834
30
0
41
1
10
28.7817827390988
20
3.12866679226934
30
0
41
1
10
28.786032462
20
3.13164078767997
30
0
41
1
10
28.7882668673886
20
3.13294390528404
30
0
41
1
10
28.795311684454
20
3.13628559550949
30
0
41
1
10
28.8004623912674
20
3.13772439929625
30
0
41
1
10
28.8057848972794
20
3.13839307232664
30
0
0
SPLINE
5
167
100
AcDbEntity
8
1
62
256
6
ByLayer
370
18
48
1
60
0
100
AcDbSpline
70
4
71
3
72
52
73
48
40
0
40
0
40
0
40
0
40
0.12499999999996
40
0.12499999999996
40
0.187499999999939
40
0.187499999999939
40
0.249999999999919
40
0.249999999999919
40
0.374999999999907
40
0.374999999999907
40
0.40624999999991
40
0.40624999999991
40
0.437499999999914
40
0.437499999999914
40
0.499999999999922
40
0.499999999999922
40
0.531249999999925
40
0.531249999999925
40
0.562499999999929
40
0.562499999999929
40
0.593749999999932
40
0.593749999999932
40
0.624999999999936
40
0.624999999999936
40
0.640624999999938
40
0.640624999999938
40
0.656249999999941
40
0.656249999999941
40
0.687499999999952
40
0.687499999999952
40
0.703124999999957
40
0.703124999999957
40
0.718749999999963
40
0.718749999999963
40
0.749999999999974
40
0.749999999999974
40
0.781249999999985
40
0.781249999999985
40
0.812499999999996
40
0.812499999999996
40
0.875000000000019
40
0.875000000000019
40
0.906250000000014
40
0.906250000000014
40
0.93750000000001
40
0.93750000000001
40
1
40
1
40
1
40
1
41
1
10
28.6419396011153
20
3.79926566862159
30
0
41
1
10
28.6799881026863
20
3.77458350345864
30
0
41
1
10
28.7174501523715
20
3.74896528567234
30
0
41
1
10
28.772485197714
20
3.7087111489295
30
0
41
1
10
28.7906356616883
20
3.69498627804967
30
0
41
1
10
28.8264707542093
20
3.66680620238364
30
0
41
1
10
28.844138230534
20
3.65236270894141
30
0
41
1
10
28.895869535935
20
3.60805223032645
30
0
41
1
10
28.9288469805952
20
3.57716789098836
30
0
41
1
10
28.9669396145807
20
3.53573733333255
30
0
41
1
10
28.9743966338249
20
3.5273053189463
30
0
41
1
10
28.9889278667569
20
3.51009439865968
30
0
41
1
10
28.9960200800103
20
3.50129226067287
30
0
41
1
10
29.0164679096953
20
3.47442455003136
30
0
41
1
10
29.0289471288462
20
3.45601000810217
30
0
41
1
10
29.0451562526471
20
3.42727057751733
30
0
41
1
10
29.0501363591181
20
3.41748590325241
30
0
41
1
10
29.058864020325
20
3.39785374642696
30
0
41
1
10
29.0626390714924
20
3.3879631456669
30
0
41
1
10
29.0687824892367
20
3.36799823716908
30
0
41
1
10
29.0711535258688
20
3.3579187907637
30
0
41
1
10
29.0741535663081
20
3.33754873042742
30
0
41
1
10
29.0747361026689
20
3.32754811536483
30
0
41
1
10
29.0741397690494
20
3.31283808099678
30
0
41
1
10
29.0736956760041
20
3.3079832836147
30
0
41
1
10
29.0722972309574
20
3.29837405661848
30
0
41
1
10
29.0713355535652
20
3.29359466240027
30
0
41
1
10
29.0677120169522
20
3.27962825363537
30
0
41
1
10
29.0643313082163
20
3.27082202647779
30
0
41
1
10
29.0579416351561
20
3.25830051119908
30
0
41
1
10
29.0555915714299
20
3.25424154586747
30
0
41
1
10
29.0504683691059
20
3.24634428346931
30
0
41
1
10
29.0476889776726
20
3.24250156792931
30
0
41
1
10
29.0389027574673
20
3.2314782247339
30
0
41
1
10
29.0324083566204
20
3.22472722924982
30
0
41
1
10
29.0183793372183
20
3.21220395173984
30
0
41
1
10
29.010843535299
20
3.20643280305416
30
0
41
1
10
28.9948925067417
20
3.19572162829422
30
0
41
1
10
28.9865284969919
20
3.19082077836089
30
0
41
1
10
28.9608047707234
20
3.17740137024012
30
0
41
1
10
28.9426890163461
20
3.1700568106813
30
0
41
1
10
28.9145179900541
20
3.16072698781724
30
0
41
1
10
28.9049581387692
20
3.15790354922234
30
0
41
1
10
28.885546645185
20
3.15275624896725
30
0
41
1
10
28.8756911525183
20
3.1504332095036
30
0
41
1
10
28.8460138285646
20
3.14417971399519
30
0
41
1
10
28.8259875189787
20
3.14093115272505
30
0
41
1
10
28.8057848965575
20
3.13839307223591
30
0
0
SPLINE
5
168
100
AcDbEntity
8
1
62
256
6
ByLayer
370
13
48
1
60
0
100
AcDbSpline
70
4
71
3
72
13
73
9
40
0
40
0
40
0
40
0
40
0.0448210047882532
40
0.259240225859115
40
0.473659446929977
40
0.688078668000839
40
0.9024978890717
40
1
40
1
40
1
40
1
41
1
10
28.6419396011154
20
3.79926566862162
30
0
41
1
10
28.5112930674102
20
3.83980432221784
30
0
41
1
10
27.7556465337051
20
4.06671502328959
30
0
41
1
10
26.375
20
4.39826711192501
30
0
41
1
10
24.5000000000001
20
4.64575589183866
30
0
41
1
10
22.625
20
4.67358579415529
30
0
41
1
10
21.0907959112721
20
4.52003459243423
30
0
41
1
10
20.1815918225442
20
4.35424978173304
30
0
41
1
10
19.8973877338163
20
4.2954886013747
30
0
0
SPLINE
5
169
100
AcDbEntity
8
1
62
256
6
ByLayer
370
18
48
1
60
0
100
AcDbSpline
70
4
71
3
72
11
73
7
40
0
40
0
40
0
40
0
40
0.0069924599079245
40
0.172493716589937
40
0.503496229953962
40
1
40
1
40
1
40
1
41
1
10
24.5528127402785
20
-4.91257965237105
30
0
41
1
10
24.535208493519
20
-4.91447263180567
30
0
41
1
10
24.1009375800929
20
-4.96040758488121
30
0
41
1
10
22.8333333333334
20
-5.03948363095648
30
0
41
1
10
20.3333333333333
20
-4.88481482444803
30
0
41
1
10
18.2500000000001
20
-4.32902138665878
30
0
41
1
10
17.0000000000001
20
-3.87255939743218
30
0
0
SPLINE
5
16A
100
AcDbEntity
8
1
62
256
6
ByLayer
370
18
48
1
60
0
100
AcDbSpline
70
4
71
3
72
8
73
4
40
0
40
0
40
0
40
0
40
1
40
1
40
1
40
1
41
1
10
28.0534693315101
20
-0.317846480714081
30
0
41
1
10
27.9792168130404
20
-0.27908336020397
30
0
41
1
10
27.9050975976214
20
-0.239610090184868
30
0
41
1
10
27.8310490855205
20
-0.199560121010791
30
0
0
SPLINE
5
16B
100
AcDbEntity
8
1
62
256
6
ByLayer
370
18
48
1
60
0
100
AcDbSpline
70
4
71
3
72
11
73
7
40
0
40
0
40
0
40
0
40
0.25
40
0.375
40
0.625
40
1
40
1
40
1
40
1
41
1
10
27
20
0.268556692068699
30
0
41
1
10
26.1666666666667
20
0.748974621307383
30
0
41
1
10
24.9166666666667
20
1.46416057855674
30
0
41
1
10
22.8333333333334
20
2.56731174028593
30
0
41
1
10
20.3333333333333
20
3.74594977575808
30
0
41
1
10
18.25
20
4.41946892450821
30
0
41
1
10
17.0000000000001
20
4.67534209030552
30
0
0
SPLINE
5
16C
100
AcDbEntity
8
1
62
256
6
ByLayer
370
18
48
1
60
0
100
AcDbSpline
70
4
71
3
72
26
73
22
40
0
40
0
40
0
40
0
40
0.0397947834943852
40
0.0793541198426086
40
0.118678554537883
40
0.157768657172455
40
0.196625022039532
40
0.235248268742392
40
0.273639042810445
40
0.311798016322616
40
0.349725888537765
40
0.387423386532265
40
0.424891265844471
40
0.462130311126408
40
0.499141336802072
40
0.625099021725023
40
0.748994115130495
40
0.811985824203003
40
0.874321336264731
40
0.937133660611904
40
1
40
1
40
1
40
1
41
1
10
27.8310490855205
20
-0.199560121010791
30
0
41
1
10
27.8200275750099
20
-0.193591555114324
30
0
41
1
10
27.7980497631182
20
-0.181689736537976
30
0
41
1
10
27.7651740281598
20
-0.163790634622984
30
0
41
1
10
27.7324891231636
20
-0.145928696854412
30
0
41
1
10
27.6999945460981
20
-0.128099848084474
30
0
41
1
10
27.6676904298688
20
-0.110309148874109
30
0
41
1
10
27.6355767387341
20
-0.0925591897876927
30
0
41
1
10
27.6036534818292
20
-0.074853173304291
30
0
41
1
10
27.5719206560043
20
-0.0571940950354133
30
0
41
1
10
27.5403782627044
20
-0.0395849619035005
30
0
41
1
10
27.5090262972006
20
-0.0220287308009404
30
0
41
1
10
27.4778647746958
20
-0.0045283369108233
30
0
41
1
10
27.4468936374314
20
0.0129133588391142
30
0
41
1
10
27.391392554755
20
0.0442516826464896
30
0
41
1
10
27.3118740146812
20
0.0893987416202719
30
0
41
1
10
27.2251945992543
20
0.138953888074866
30
0
41
1
10
27.1561892511065
20
0.178565432171695
30
0
41
1
10
27.1041219807564
20
0.208520372826285
30
0
41
1
10
27.0521299864041
20
0.238499106466435
30
0
41
1
10
27.017381651879
20
0.258534606448194
30
0
41
1
10
27.0000000174273
20
0.2685566619366
30
0
0
SPLINE
5
16D
100
AcDbEntity
8
1
62
256
6
ByLayer
370
18
48
1
60
0
100
AcDbSpline
70
4
71
3
72
13
73
9
40
0
40
0
40
0
40
0
40
0.0530901720349705
40
0.0854599172475578
40
0.161138951420224
40
0.248612765804915
40
0.783448700463107
40
1
40
1
40
1
40
1
41
1
10
27.8310455447618
20
-0.199566838376626
30
0
41
1
10
27.835200013259
20
-0.201813915804223
30
0
41
1
10
27.8418946878126
20
-0.205431842904261
30
0
41
1
10
27.855164539267
20
-0.212591633658377
30
0
41
1
10
27.8712751456126
20
-0.221238936800717
30
0
41
1
10
27.9278872914418
20
-0.251497301258325
30
0
41
1
10
27.9956294798742
20
-0.286885343617485
30
0
41
1
10
28.0558267246282
20
-0.317526276775169
30
0
41
1
10
28.0731366667499
20
-0.326270353322798
30
0
0
SPLINE
5
16E
100
AcDbEntity
8
1
62
256
6
ByLayer
370
18
48
1
60
0
100
AcDbSpline
70
4
71
3
72
10
73
6
40
0
40
0
40
0
40
0
40
0.865238688450576
40
0.865238688450576
40
1
40
1
40
1
40
1
41
1
10
16.3872996255916
20
4.97539577430632
30
0
41
1
10
16.172168066688
20
4.98864078097299
30
0
41
1
10
15.9606138755643
20
4.99699024971028
30
0
41
1
10
15.7209632525822
20
4.99969482675616
30
0
41
1
10
15.6887694706419
20
4.99991385612992
30
0
41
1
10
15.6566803136493
20
4.99998125597617
30
0
0
SPLINE
5
16F
100
AcDbEntity
8
1
62
256
6
ByLayer
370
18
48
1
60
0
100
AcDbSpline
70
4
71
3
72
11
73
7
40
0
40
0
40
0
40
0
40
0.25
40
0.375
40
0.625
40
1
40
1
40
1
40
1
41
1
10
27
20
-4.09146227317663
30
0
41
1
10
26.1666666666667
20
-3.8147529682841
30
0
41
1
10
24.9166666666667
20
-3.3148363527157
30
0
41
1
10
22.8333333333334
20
-2.31739481182845
30
0
41
1
10
20.3333333333333
20
-0.964267988925428
30
0
41
1
10
18.2500000000001
20
0.266667816474609
30
0
41
1
10
17.0000000000001
20
0.974527325057949
30
0
0
SPLINE
5
170
100
AcDbEntity
8
1
62
256
6
ByLayer
370
18
48
1
60
0
100
AcDbSpline
70
4
71
1
72
4
73
2
40
0
40
0
40
1
40
1
41
1
10
28.5243207418078
20
-0.537769685493998
30
0
41
1
10
28.5447921844335
20
-0.546655643869229
30
0
0
SPLINE
5
171
100
AcDbEntity
8
1
62
256
6
ByLayer
370
18
48
1
60
0
100
AcDbSpline
70
4
71
1
72
4
73
2
40
0
40
0
40
1
40
1
41
1
10
16.7513911642928
20
-4.84803435566087
30
0
41
1
10
16.7753986237228
20
-4.84014201365423
30
0
0
SPLINE
5
172
100
AcDbEntity
8
1
62
256
6
ByLayer
370
18
48
1
60
0
100
AcDbSpline
70
4
71
3
72
17
73
13
40
0
40
0
40
0
40
0
40
0.118788630822716
40
0.215042505644059
40
0.317105778213244
40
0.377426926011447
40
0.442276839630868
40
0.518259866153091
40
0.623517177352692
40
0.721997853113911
40
0.840173114767771
40
1
40
1
40
1
40
1
41
1
10
25.3213072002372
20
2.60345364914122
30
0
41
1
10
25.2090101192374
20
2.62781988705521
30
0
41
1
10
25.0061527420341
20
2.67400733402087
30
0
41
1
10
24.7085153340047
20
2.74763088388119
30
0
41
1
10
24.466050415482
20
2.81190291162449
30
0
41
1
10
24.2602814898176
20
2.86925904308245
30
0
41
1
10
24.0736915244536
20
2.92318199357223
30
0
41
1
10
23.8428186894875
20
2.99264959929641
30
0
41
1
10
23.5763731713365
20
3.07687788193962
30
0
41
1
10
23.2530027303602
20
3.1843202157184
30
0
41
1
10
22.8963419915811
20
3.30989623328892
30
0
41
1
10
22.652196807018
20
3.40087544817067
30
0
41
1
10
22.5183033420385
20
3.45276755589032
30
0
0
LINE
5
79
100
AcDbEntity
8
81
62
256
6
ByLayer
370
18
48
1
60
0
100
AcDbLine
10
32.05
20
0
30
0
11
37.05
21
0
31
0
39
0
210
0
220
0
230
1
0
LINE
5
7A
100
AcDbEntity
8
SK4
62
256
6
ByLayer
370
18
48
0.05
60
0
100
AcDbLine
10
-40
20
0
30
0
11
32.05
21
0
31
0
39
0
210
0
220
0
230
1
0
LINE
5
7C
100
AcDbEntity
8
80
62
256
6
ByLayer
370
18
48
1
60
0
100
AcDbLine
10
0
20
0
30
0
11
-5
21
0
31
0
39
0
210
0
220
0
230
1
0
LINE
5
7D
100
AcDbEntity
8
4
62
256
6
ByLayer
370
18
48
0.05
60
0
100
AcDbLine
10
0
20
0
30
0
11
32.05
21
0
31
0
39
0
210
0
220
0
230
1
0
LINE
5
7F
100
AcDbEntity
8
1
62
256
6
ByLayer
370
18
48
1
60
0
100
AcDbLine
10
0
20
5
30
0
11
0
21
0
31
0
39
0
210
0
220
0
230
1
0
LINE
5
80
100
AcDbEntity
8
1
62
256
6
ByLayer
370
18
48
1
60
0
100
AcDbLine
10
0
20
0
30
0
11
0
21
-5
31
0
39
0
210
0
220
0
230
1
0
LINE
5
81
100
AcDbEntity
8
1
62
256
6
ByLayer
370
18
48
1
60
0
100
AcDbLine
10
17
20
-4.782489
30
0
11
17
21
-4.766602
31
0
39
0
210
0
220
0
230
1
0
LINE
5
82
100
AcDbEntity
8
1
62
256
6
ByLayer
370
18
48
1
60
0
100
AcDbLine
10
31.999529
20
-0.02996
30
0
11
31.984786
21
-0.030258
31
0
39
0
210
0
220
0
230
1
0
LINE
5
83
100
AcDbEntity
8
1
62
256
6
ByLayer
370
18
48
1
60
0
100
AcDbLine
10
31.999276
20
0.031453
30
0
11
31.986108
21
0.031453
31
0
39
0
210
0
220
0
230
1
0
LINE
5
84
100
AcDbEntity
8
1
62
256
6
ByLayer
370
13
48
1
60
0
100
AcDbLine
10
31.941042
20
-0.578283
30
0
11
31.916526
21
-0.592504
31
0
39
0
210
0
220
0
230
1
0
LINE
5
85
100
AcDbEntity
8
1
62
256
6
ByLayer
370
18
48
1
60
0
100
AcDbLine
10
31.986217
20
0.03116
30
0
11
31.970823
21
0.031439
31
0
39
0
210
0
220
0
230
1
0
LINE
5
86
100
AcDbEntity
8
1
62
256
6
ByLayer
370
18
48
1
60
0
100
AcDbLine
10
31.99931
20
0.036957
30
0
11
31.98554
21
0.03437
31
0
39
0
210
0
220
0
230
1
0
LINE
5
87
100
AcDbEntity
8
1
62
256
6
ByLayer
370
18
48
1
60
0
100
AcDbLine
10
31.927491
20
-0.630492
30
0
11
31.916526
21
-0.592504
31
0
39
0
210
0
220
0
230
1
0
LINE
5
88
100
AcDbEntity
8
1
62
256
6
ByLayer
370
13
48
1
60
0
100
AcDbLine
10
31.689505
20
-0.764128
30
0
11
31.791914
21
-1.342671
31
0
39
0
210
0
220
0
230
1
0
LINE
5
89
100
AcDbEntity
8
1
62
256
6
ByLayer
370
18
48
1
60
0
100
AcDbLine
10
31.519814
20
-0.865436
30
0
11
31.616617
21
-1.299905
31
0
39
0
210
0
220
0
230
1
0
LINE
5
8A
100
AcDbEntity
8
1
62
256
6
ByLayer
370
13
48
1
60
0
100
AcDbLine
10
31.252113
20
-0.977887
30
0
11
31.12645
21
-1.050776
31
0
39
0
210
0
220
0
230
1
0
LINE
5
8B
100
AcDbEntity
8
1
62
256
6
ByLayer
370
18
48
1
60
0
100
AcDbLine
10
31.587751
20
0.112847
30
0
11
31.738105
21
-0.059139
31
0
39
0
210
0
220
0
230
1
0
LINE
5
8C
100
AcDbEntity
8
1
62
256
6
ByLayer
370
13
48
1
60
0
100
AcDbLine
10
31.587751
20
0.112847
30
0
11
31.12645
21
0.519109
31
0
39
0
210
0
220
0
230
1
0
LINE
5
8D
100
AcDbEntity
8
1
62
256
6
ByLayer
370
13
48
1
60
0
100
AcDbLine
10
16.204543
20
4.790719
30
0
11
17
21
4.365627
31
0
39
0
210
0
220
0
230
1
0
LINE
5
8E
100
AcDbEntity
8
1
62
256
6
ByLayer
370
13
48
1
60
0
100
AcDbLine
10
12.374427
20
4.905974
30
0
11
17
21
2.43407
31
0
39
0
210
0
220
0
230
1
0
LINE
5
8F
100
AcDbEntity
8
1
62
256
6
ByLayer
370
18
48
1
60
0
100
AcDbLine
10
27
20
4.688423
30
0
11
27
21
4.625527
31
0
39
0
210
0
220
0
230
1
0
LINE
5
90
100
AcDbEntity
8
1
62
256
6
ByLayer
370
18
48
1
60
0
100
AcDbLine
10
31.190845
20
-1.648409
30
0
11
31.28911
21
-1.702343
31
0
39
0
210
0
220
0
230
1
0
LINE
5
91
100
AcDbEntity
8
1
62
256
6
ByLayer
370
18
48
1
60
0
100
AcDbLine
10
31.190845
20
-1.648409
30
0
11
31.148227
21
-1.433067
31
0
39
0
210
0
220
0
230
1
0
LINE
5
92
100
AcDbEntity
8
1
62
256
6
ByLayer
370
18
48
1
60
0
100
AcDbLine
10
17
20
2.354653
30
0
11
17
21
2.43407
31
0
39
0
210
0
220
0
230
1
0
LINE
5
93
100
AcDbEntity
8
1
62
256
6
ByLayer
370
13
48
1
60
0
100
AcDbLine
10
12.306255
20
-3.438228
30
0
11
14.729694
21
-3.260001
31
0
39
0
210
0
220
0
230
1
0
LINE
5
94
100
AcDbEntity
8
1
62
256
6
ByLayer
370
13
48
1
60
0
100
AcDbLine
10
12.374427
20
-3.288789
30
0
11
14.086612
21
-3.162869
31
0
39
0
210
0
220
0
230
1
0
LINE
5
95
100
AcDbEntity
8
1
62
256
6
ByLayer
370
18
48
1
60
0
100
AcDbLine
10
17
20
-3.553685
30
0
11
17
21
-2.900001
31
0
39
0
210
0
220
0
230
1
0
LINE
5
96
100
AcDbEntity
8
1
62
256
6
ByLayer
370
18
48
1
60
0
100
AcDbLine
10
31.095534
20
0.504347
30
0
11
31.373511
21
0.226732
31
0
39
0
210
0
220
0
230
1
0
LINE
5
97
100
AcDbEntity
8
1
62
256
6
ByLayer
370
18
48
1
60
0
100
AcDbLine
10
31.095534
20
0.504347
30
0
11
31.081709
21
0.574325
31
0
39
0
210
0
220
0
230
1
0
LINE
5
98
100
AcDbEntity
8
1
62
256
6
ByLayer
370
18
48
1
60
0
100
AcDbLine
10
29.73987
20
1.517112
30
0
11
29.226418
21
1.773624
31
0
39
0
210
0
220
0
230
1
0
LINE
5
99
100
AcDbEntity
8
1
62
256
6
ByLayer
370
18
48
1
60
0
100
AcDbLine
10
17
20
2.43407
30
0
11
17
21
4.365627
31
0
39
0
210
0
220
0
230
1
0
LINE
5
9A
100
AcDbEntity
8
1
62
256
6
ByLayer
370
18
48
1
60
0
100
AcDbLine
10
17
20
-0.599027
30
0
11
17
21
-0.405769
31
0
39
0
210
0
220
0
230
1
0
LINE
5
9B
100
AcDbEntity
8
1
62
256
6
ByLayer
370
18
48
1
60
0
100
AcDbLine
10
12.306255
20
4.862988
30
0
11
17
21
2.354653
31
0
39
0
210
0
220
0
230
1
0
LINE
5
9C
100
AcDbEntity
8
1
62
256
6
ByLayer
370
18
48
1
60
0
100
AcDbLine
10
17
20
4.737627
30
0
11
17
21
4.747728
31
0
39
0
210
0
220
0
230
1
0
LINE
5
9D
100
AcDbEntity
8
1
62
256
6
ByLayer
370
18
48
1
60
0
100
AcDbLine
10
27
20
1.361702
30
0
11
27
21
0.663412
31
0
39
0
210
0
220
0
230
1
0
LINE
5
9E
100
AcDbEntity
8
1
62
256
6
ByLayer
370
13
48
1
60
0
100
AcDbLine
10
12.580232
20
1.575728
30
0
11
17
21
-0.405769
31
0
39
0
210
0
220
0
230
1
0
LINE
5
9F
100
AcDbEntity
8
1
62
256
6
ByLayer
370
18
48
1
60
0
100
AcDbLine
10
17
20
-0.405769
30
0
11
17
21
0.948655
31
0
39
0
210
0
220
0
230
1
0
LINE
5
A0
100
AcDbEntity
8
1
62
256
6
ByLayer
370
13
48
1
60
0
100
AcDbLine
10
16.24616
20
1.286621
30
0
11
17
21
0.948655
31
0
39
0
210
0
220
0
230
1
0
LINE
5
A1
100
AcDbEntity
8
1
62
256
6
ByLayer
370
18
48
1
60
0
100
AcDbLine
10
27
20
0.663412
30
0
11
27
21
0.268557
31
0
39
0
210
0
220
0
230
1
0
LINE
5
A2
100
AcDbEntity
8
1
62
256
6
ByLayer
370
13
48
1
60
0
100
AcDbLine
10
12.520166
20
1.409399
30
0
11
17
21
-0.599027
31
0
39
0
210
0
220
0
230
1
0
LINE
5
A3
100
AcDbEntity
8
1
62
256
6
ByLayer
370
18
48
1
60
0
100
AcDbLine
10
17
20
1.350285
30
0
11
17
21
1.978395
31
0
39
0
210
0
220
0
230
1
0
LINE
5
A4
100
AcDbEntity
8
1
62
256
6
ByLayer
370
18
48
1
60
0
100
AcDbLine
10
27
20
-3.190793
30
0
11
27
21
-3.792
31
0
39
0
210
0
220
0
230
1
0
LINE
5
A5
100
AcDbEntity
8
1
62
256
6
ByLayer
370
18
48
1
60
0
100
AcDbLine
10
27
20
-3.792
30
0
11
27
21
-4.091462
31
0
39
0
210
0
220
0
230
1
0
LINE
5
A6
100
AcDbEntity
8
1
62
256
6
ByLayer
370
18
48
1
60
0
100
AcDbLine
10
31.697374
20
0.893926
30
0
11
31.574914
21
0.725502
31
0
39
0
210
0
220
0
230
1
0
LINE
5
A7
100
AcDbEntity
8
1
62
256
6
ByLayer
370
13
48
1
60
0
100
AcDbLine
10
31.432286
20
0.851113
30
0
11
31.574914
21
0.725502
31
0
39
0
210
0
220
0
230
1
0
LINE
5
A8
100
AcDbEntity
8
1
62
256
6
ByLayer
370
18
48
1
60
0
100
AcDbLine
10
27
20
4.625527
30
0
11
27
21
4.534087
31
0
39
0
210
0
220
0
230
1
0
LINE
5
A9
100
AcDbEntity
8
1
62
256
6
ByLayer
370
18
48
1
60
0
100
AcDbLine
10
17
20
-3.872559
30
0
11
17
21
-3.553685
31
0
39
0
210
0
220
0
230
1
0
LINE
5
AA
100
AcDbEntity
8
1
62
256
6
ByLayer
370
18
48
1
60
0
100
AcDbLine
10
17
20
4.675342
30
0
11
17
21
4.737627
31
0
39
0
210
0
220
0
230
1
0
LINE
5
AB
100
AcDbEntity
8
1
62
256
6
ByLayer
370
18
48
1
60
0
100
AcDbLine
10
17
20
4.675342
30
0
11
17
21
4.365627
31
0
39
0
210
0
220
0
230
1
0
LINE
5
AC
100
AcDbEntity
8
1
62
256
6
ByLayer
370
18
48
1
60
0
100
AcDbLine
10
17
20
0.974527
30
0
11
17
21
1.350285
31
0
39
0
210
0
220
0
230
1
0
LINE
5
AD
100
AcDbEntity
8
1
62
256
6
ByLayer
370
18
48
1
60
0
100
AcDbLine
10
17
20
0.974527
30
0
11
17
21
0.948655
31
0
39
0
210
0
220
0
230
1
0
LINE
5
AE
100
AcDbEntity
8
SK1
62
256
6
ByLayer
370
18
48
1
60
0
100
AcDbLine
10
0
20
5
30
0
11
0
21
0
31
0
39
0
210
0
220
0
230
1
0
LINE
5
B0
100
AcDbEntity
8
SK1
62
256
6
ByLayer
370
18
48
1
60
0
100
AcDbLine
10
0
20
0
30
0
11
0
21
-5
31
0
39
0
210
0
220
0
230
1
0
LINE
5
B1
100
AcDbEntity
8
SK1
62
256
6
ByLayer
370
18
48
1
60
0
100
AcDbLine
10
-39.4
20
5
30
0
11
-39.4
21
-5
31
0
39
0
210
0
220
0
230
1
0
LINE
5
B2
100
AcDbEntity
8
SK1
62
256
6
ByLayer
370
18
48
1
60
0
100
AcDbLine
10
-40
20
-4.4
30
0
11
-40
21
4.4
31
0
39
0
210
0
220
0
230
1
0
LINE
5
B3
100
AcDbEntity
8
1
62
256
6
ByLayer
370
18
48
1
60
0
100
AcDbLine
10
15.667185
20
5
30
0
11
0
21
5
31
0
39
0
210
0
220
0
230
1
0
LINE
5
B4
100
AcDbEntity
8
1
62
256
6
ByLayer
370
18
48
1
60
0
100
AcDbLine
10
0
20
-5
30
0
11
15.903418
21
-5
31
0
39
0
210
0
220
0
230
1
0
LINE
5
B5
100
AcDbEntity
8
SK1
62
256
6
ByLayer
370
18
48
1
60
0
100
AcDbLine
10
0
20
5
30
0
11
-39.4
21
5
31
0
39
0
210
0
220
0
230
1
0
LINE
5
B6
100
AcDbEntity
8
SK1
62
256
6
ByLayer
370
18
48
1
60
0
100
AcDbLine
10
-39.4
20
-5
30
0
11
0
21
-5
31
0
39
0
210
0
220
0
230
1
0
LINE
5
B7
100
AcDbEntity
8
SK1
62
256
6
ByLayer
370
18
48
1
60
0
100
AcDbLine
10
-40
20
-4.4
30
0
11
-39.4
21
-5
31
0
39
0
210
0
220
0
230
1
0
LINE
5
B8
100
AcDbEntity
8
SK1
62
256
6
ByLayer
370
18
48
1
60
0
100
AcDbLine
10
-39.4
20
5
30
0
11
-40
21
4.4
31
0
39
0
210
0
220
0
230
1
0
LINE
5
B9
100
AcDbEntity
8
SK2
62
256
6
ByLayer
370
18
48
1
60
0
100
AcDbLine
10
-47.65
20
5
30
0
11
-47.65
21
-23.056066
31
0
39
0
210
0
220
0
230
1
0
LINE
5
BB
100
AcDbEntity
8
SK2
62
256
6
ByLayer
370
18
48
1
60
0
100
AcDbLine
10
-40.9875
20
5
30
0
11
-49.65
21
5
31
0
39
0
210
0
220
0
230
1
0
LINE
5
BC
100
AcDbEntity
8
SK2
62
256
6
ByLayer
370
18
48
1
60
0
100
AcDbLine
10
-40.9875
20
-5
30
0
11
-49.65
21
-5
31
0
39
0
210
0
220
0
230
1
0
LINE
5
BD
100
AcDbEntity
8
1
62
256
6
ByLayer
370
18
48
1
60
1
100
AcDbLine
10
-47.65
20
5
30
0
11
-47.189216
21
1.500002
31
0
39
0
210
0
220
0
230
1
0
LINE
5
BE
100
AcDbEntity
8
1
62
256
6
ByLayer
370
18
48
1
60
1
100
AcDbLine
10
-47.189216
20
1.500002
30
0
11
-48.110784
21
1.499998
31
0
39
0
210
0
220
0
230
1
0
LINE
5
BF
100
AcDbEntity
8
1
62
256
6
ByLayer
370
18
48
1
60
1
100
AcDbLine
10
-48.110784
20
1.499998
30
0
11
-47.65
21
5
31
0
39
0
210
0
220
0
230
1
0
LINE
5
C0
100
AcDbEntity
8
1
62
256
6
ByLayer
370
18
48
1
60
1
100
AcDbLine
10
-47.65
20
-5
30
0
11
-48.110784
21
-1.500002
31
0
39
0
210
0
220
0
230
1
0
LINE
5
C1
100
AcDbEntity
8
1
62
256
6
ByLayer
370
18
48
1
60
1
100
AcDbLine
10
-48.110784
20
-1.500002
30
0
11
-47.189216
21
-1.499998
31
0
39
0
210
0
220
0
230
1
0
LINE
5
C2
100
AcDbEntity
8
1
62
256
6
ByLayer
370
18
48
1
60
1
100
AcDbLine
10
-47.189216
20
-1.499998
30
0
11
-47.65
21
-5
31
0
39
0
210
0
220
0
230
1
0
LINE
5
C3
100
AcDbEntity
8
2
62
256
6
ByLayer
370
18
48
1
60
0
100
AcDbLine
10
44
20
-5.0001
30
0
11
44
21
23.056166
31
0
39
0
210
0
220
0
230
1
0
LINE
5
C5
100
AcDbEntity
8
2
62
256
6
ByLayer
370
18
48
1
60
0
100
AcDbLine
10
27.879333
20
5.0001
30
0
11
46
21
5.0001
31
0
39
0
210
0
220
0
230
1
0
LINE
5
C6
100
AcDbEntity
8
2
62
256
6
ByLayer
370
18
48
1
60
0
100
AcDbLine
10
27.879333
20
-5.0001
30
0
11
46
21
-5.0001
31
0
39
0
210
0
220
0
230
1
0
LINE
5
C7
100
AcDbEntity
8
1
62
256
6
ByLayer
370
18
48
1
60
1
100
AcDbLine
10
44
20
5.0001
30
0
11
44.460784
21
1.500102
31
0
39
0
210
0
220
0
230
1
0
LINE
5
C8
100
AcDbEntity
8
1
62
256
6
ByLayer
370
18
48
1
60
1
100
AcDbLine
10
44.460784
20
1.500102
30
0
11
43.539216
21
1.500098
31
0
39
0
210
0
220
0
230
1
0
LINE
5
C9
100
AcDbEntity
8
1
62
256
6
ByLayer
370
18
48
1
60
1
100
AcDbLine
10
43.539216
20
1.500098
30
0
11
44
21
5.0001
31
0
39
0
210
0
220
0
230
1
0
LINE
5
CA
100
AcDbEntity
8
1
62
256
6
ByLayer
370
18
48
1
60
1
100
AcDbLine
10
44
20
-5.0001
30
0
11
43.539216
21
-1.500102
31
0
39
0
210
0
220
0
230
1
0
LINE
5
CB
100
AcDbEntity
8
1
62
256
6
ByLayer
370
18
48
1
60
1
100
AcDbLine
10
43.539216
20
-1.500102
30
0
11
44.460784
21
-1.500098
31
0
39
0
210
0
220
0
230
1
0
LINE
5
CC
100
AcDbEntity
8
1
62
256
6
ByLayer
370
18
48
1
60
1
100
AcDbLine
10
44.460784
20
-1.500098
30
0
11
44
21
-5.0001
31
0
39
0
210
0
220
0
230
1
0
LINE
5
CD
100
AcDbEntity
8
SK2
62
256
6
ByLayer
370
18
48
1
60
0
100
AcDbLine
10
32
20
-49.167729
30
0
11
-40
21
-49.167729
31
0
39
0
210
0
220
0
230
1
0
LINE
5
CE
100
AcDbEntity
8
SK2
62
256
6
ByLayer
370
18
48
1
60
0
100
AcDbLine
10
-40
20
-5.9875
30
0
11
-40
21
-51.167729
31
0
39
0
210
0
220
0
230
1
0
LINE
5
CF
100
AcDbEntity
8
SK2
62
256
6
ByLayer
370
18
48
1
60
0
100
AcDbLine
10
32
20
-1.5875
30
0
11
32
21
-51.167729
31
0
39
0
210
0
220
0
230
1
0
LINE
5
D0
100
AcDbEntity
8
1
62
256
6
ByLayer
370
18
48
1
60
1
100
AcDbLine
10
-40
20
-49.167729
30
0
11
-36.500002
21
-48.706945
31
0
39
0
210
0
220
0
230
1
0
LINE
5
D1
100
AcDbEntity
8
1
62
256
6
ByLayer
370
18
48
1
60
1
100
AcDbLine
10
-36.500002
20
-48.706945
30
0
11
-36.499998
21
-49.628513
31
0
39
0
210
0
220
0
230
1
0
LINE
5
D2
100
AcDbEntity
8
1
62
256
6
ByLayer
370
18
48
1
60
1
100
AcDbLine
10
-36.499998
20
-49.628513
30
0
11
-40
21
-49.167729
31
0
39
0
210
0
220
0
230
1
0
LINE
5
D3
100
AcDbEntity
8
1
62
256
6
ByLayer
370
18
48
1
60
1
100
AcDbLine
10
32
20
-49.167729
30
0
11
28.500002
21
-49.628513
31
0
39
0
210
0
220
0
230
1
0
LINE
5
D4
100
AcDbEntity
8
1
62
256
6
ByLayer
370
18
48
1
60
1
100
AcDbLine
10
28.500002
20
-49.628513
30
0
11
28.499998
21
-48.706945
31
0
39
0
210
0
220
0
230
1
0
LINE
5
D5
100
AcDbEntity
8
1
62
256
6
ByLayer
370
18
48
1
60
1
100
AcDbLine
10
28.499998
20
-48.706945
30
0
11
32
21
-49.167729
31
0
39
0
210
0
220
0
230
1
0
LINE
5
D6
100
AcDbEntity
8
SK2
62
256
6
ByLayer
370
13
48
1
60
0
100
AcDbLine
10
30.257961
20
-3.792847
30
0
11
42.081899
21
-17.558016
31
0
39
0
210
0
220
0
230
1
0
LINE
5
D7
100
AcDbEntity
8
1
62
256
6
ByLayer
370
18
48
1
60
1
100
AcDbLine
10
30.257961
20
-3.792847
30
0
11
32.88807
21
-6.147595
31
0
39
0
210
0
220
0
230
1
0
LINE
5
D8
100
AcDbEntity
8
1
62
256
6
ByLayer
370
18
48
1
60
1
100
AcDbLine
10
32.88807
20
-6.147595
30
0
11
32.188999
21
-6.748084
31
0
39
0
210
0
220
0
230
1
0
LINE
5
D9
100
AcDbEntity
8
1
62
256
6
ByLayer
370
18
48
1
60
1
100
AcDbLine
10
32.188999
20
-6.748084
30
0
11
30.257961
21
-3.792847
31
0
39
0
210
0
220
0
230
1
0
LINE
5
177
100
AcDbEntity
8
1
62
256
6
ByLayer
370
18
48
1
60
1
100
AcDbLine
10
-47.65
20
5
30
0
11
-47.189216
21
1.500002
31
0
39
0
210
0
220
0
230
1
0
LINE
5
178
100
AcDbEntity
8
1
62
256
6
ByLayer
370
18
48
1
60
1
100
AcDbLine
10
-47.189216
20
1.500002
30
0
11
-48.110784
21
1.499998
31
0
39
0
210
0
220
0
230
1
0
LINE
5
179
100
AcDbEntity
8
1
62
256
6
ByLayer
370
18
48
1
60
1
100
AcDbLine
10
-48.110784
20
1.499998
30
0
11
-47.65
21
5
31
0
39
0
210
0
220
0
230
1
0
LINE
5
17B
100
AcDbEntity
8
1
62
256
6
ByLayer
370
18
48
1
60
1
100
AcDbLine
10
-47.65
20
-5
30
0
11
-48.110784
21
-1.500002
31
0
39
0
210
0
220
0
230
1
0
LINE
5
17C
100
AcDbEntity
8
1
62
256
6
ByLayer
370
18
48
1
60
1
100
AcDbLine
10
-48.110784
20
-1.500002
30
0
11
-47.189216
21
-1.499998
31
0
39
0
210
0
220
0
230
1
0
LINE
5
17D
100
AcDbEntity
8
1
62
256
6
ByLayer
370
18
48
1
60
1
100
AcDbLine
10
-47.189216
20
-1.499998
30
0
11
-47.65
21
-5
31
0
39
0
210
0
220
0
230
1
0
LINE
5
181
100
AcDbEntity
8
1
62
256
6
ByLayer
370
18
48
1
60
1
100
AcDbLine
10
44
20
5.0001
30
0
11
44.460784
21
1.500102
31
0
39
0
210
0
220
0
230
1
0
LINE
5
182
100
AcDbEntity
8
1
62
256
6
ByLayer
370
18
48
1
60
1
100
AcDbLine
10
44.460784
20
1.500102
30
0
11
43.539216
21
1.500098
31
0
39
0
210
0
220
0
230
1
0
LINE
5
183
100
AcDbEntity
8
1
62
256
6
ByLayer
370
18
48
1
60
1
100
AcDbLine
10
43.539216
20
1.500098
30
0
11
44
21
5.0001
31
0
39
0
210
0
220
0
230
1
0
LINE
5
185
100
AcDbEntity
8
1
62
256
6
ByLayer
370
18
48
1
60
1
100
AcDbLine
10
44
20
-5.0001
30
0
11
43.539216
21
-1.500102
31
0
39
0
210
0
220
0
230
1
0
LINE
5
186
100
AcDbEntity
8
1
62
256
6
ByLayer
370
18
48
1
60
1
100
AcDbLine
10
43.539216
20
-1.500102
30
0
11
44.460784
21
-1.500098
31
0
39
0
210
0
220
0
230
1
0
LINE
5
187
100
AcDbEntity
8
1
62
256
6
ByLayer
370
18
48
1
60
1
100
AcDbLine
10
44.460784
20
-1.500098
30
0
11
44
21
-5.0001
31
0
39
0
210
0
220
0
230
1
0
LINE
5
18A
100
AcDbEntity
8
1
62
256
6
ByLayer
370
18
48
1
60
1
100
AcDbLine
10
-40
20
-49.167729
30
0
11
-36.500002
21
-48.706945
31
0
39
0
210
0
220
0
230
1
0
LINE
5
18B
100
AcDbEntity
8
1
62
256
6
ByLayer
370
18
48
1
60
1
100
AcDbLine
10
-36.500002
20
-48.706945
30
0
11
-36.499998
21
-49.628513
31
0
39
0
210
0
220
0
230
1
0
LINE
5
18C
100
AcDbEntity
8
1
62
256
6
ByLayer
370
18
48
1
60
1
100
AcDbLine
10
-36.499998
20
-49.628513
30
0
11
-40
21
-49.167729
31
0
39
0
210
0
220
0
230
1
0
LINE
5
18E
100
AcDbEntity
8
1
62
256
6
ByLayer
370
18
48
1
60
1
100
AcDbLine
10
32
20
-49.167729
30
0
11
28.500002
21
-49.628513
31
0
39
0
210
0
220
0
230
1
0
LINE
5
18F
100
AcDbEntity
8
1
62
256
6
ByLayer
370
18
48
1
60
1
100
AcDbLine
10
28.500002
20
-49.628513
30
0
11
28.499998
21
-48.706945
31
0
39
0
210
0
220
0
230
1
0
LINE
5
190
100
AcDbEntity
8
1
62
256
6
ByLayer
370
18
48
1
60
1
100
AcDbLine
10
28.499998
20
-48.706945
30
0
11
32
21
-49.167729
31
0
39
0
210
0
220
0
230
1
0
LINE
5
194
100
AcDbEntity
8
1
62
256
6
ByLayer
370
18
48
1
60
1
100
AcDbLine
10
30.257961
20
-3.792847
30
0
11
32.88807
21
-6.147595
31
0
39
0
210
0
220
0
230
1
0
LINE
5
195
100
AcDbEntity
8
1
62
256
6
ByLayer
370
18
48
1
60
1
100
AcDbLine
10
32.88807
20
-6.147595
30
0
11
32.188999
21
-6.748084
31
0
39
0
210
0
220
0
230
1
0
LINE
5
196
100
AcDbEntity
8
1
62
256
6
ByLayer
370
18
48
1
60
1
100
AcDbLine
10
32.188999
20
-6.748084
30
0
11
30.257961
21
-3.792847
31
0
39
0
210
0
220
0
230
1
0
MTEXT
5
173
100
AcDbEntity
8
SK2
62
256
6
ByLayer
370
18
48
1
60
0
100
AcDbMText
10
-49.214634
20
-21.121222
30
0
210
0
220
0
230
1
1
%%c
40
3.5
41
0
44
1.084337
50
90
71
7
72
5
7
iso_b_vert
0
MTEXT
5
176
100
AcDbEntity
8
SK2
62
256
6
ByLayer
370
18
48
1
60
0
100
AcDbMText
10
-49.214634
20
-14.148566
30
0
210
0
220
0
230
1
1
\W0.5321;10
40
3.5
41
0
44
1.084337
50
90
71
7
72
5
7
iso_b_vert
0
MTEXT
5
17F
100
AcDbEntity
8
2
62
256
6
ByLayer
370
18
48
1
60
0
100
AcDbMText
10
42.435366
20
12.934944
30
0
210
0
220
0
230
1
1
%%c
40
3.5
41
0
44
1.084337
50
90
71
7
72
5
7
iso_b_vert
0
MTEXT
5
180
100
AcDbEntity
8
2
62
256
6
ByLayer
370
18
48
1
60
0
100
AcDbMText
10
42.435366
20
19.9076
30
0
210
0
220
0
230
1
1
\W0.5321;10
40
3.5
41
0
44
1.084337
50
90
71
7
72
5
7
iso_b_vert
0
MTEXT
5
189
100
AcDbEntity
8
SK2
62
256
6
ByLayer
370
18
48
1
60
0
100
AcDbMText
10
-5.904966
20
-48.135096
30
0
210
0
220
0
230
1
1
\W0.6740;72
40
3.5
41
0
44
1.084337
50
0
71
7
72
5
7
iso_b_vert
0
MTEXT
5
192
100
AcDbEntity
8
SK2
62
256
6
ByLayer
370
18
48
1
60
0
100
AcDbMText
10
39.510737
20
-12.848201
30
0
210
0
220
0
230
1
1
\W0.6380;R
40
3.5
41
0
44
1.084337
50
310.661759864958
71
7
72
5
7
iso_b_vert
0
MTEXT
5
193
100
AcDbEntity
8
SK2
62
256
6
ByLayer
370
18
48
1
60
0
100
AcDbMText
10
41.911203
20
-15.642771
30
0
210
0
220
0
230
1
1
\W0.5404;5
40
3.5
41
0
44
1.084337
50
310.661759864958
71
7
72
5
7
iso_b_vert
0
MTEXT
5
198
100
AcDbEntity
8
SK6
62
256
6
ByLayer
370
18
48
1
60
0
100
AcDbMText
10
-29.336642
20
-62.111915
30
0
210
0
220
0
230
1
1
\W0.7307;2B256-1000-TA       T2CH
40
3
41
0
44
1.084337
50
0
71
7
72
5
7
iso_b_vert
0
HATCH
5
17A
100
AcDbEntity
8
SK2
62
256
6
ByLayer
370
13
48
1
60
0
100
AcDbHatch
10
0
20
0
30
0
210
0
220
0
230
1
2
ANSI31
70
0
71
0
91
1
92
5
93
3
72
1
10
-47.65
20
4.99999999999991
11
-47.1892162584473
21
1.5000016925531
72
1
10
-47.1892162584473
20
1.5000016925531
11
-48.1107837415528
21
1.49999830744673
72
1
10
-48.1107837415528
20
1.49999830744673
11
-47.65
21
4.99999999999991
97
0
75
0
76
1
52
0
41
0.0062
77
0
78
1
53
45
43
0
44
0
45
-0.0139193969876572
46
0.0139193969876572
79
0
47
0
98
1
10
0
20
0
0
HATCH
5
17E
100
AcDbEntity
8
SK2
62
256
6
ByLayer
370
13
48
1
60
0
100
AcDbHatch
10
0
20
0
30
0
210
0
220
0
230
1
2
ANSI31
70
0
71
0
91
1
92
5
93
3
72
1
10
-47.65
20
-5.00000000000009
11
-48.1107837415528
21
-1.50000169255327
72
1
10
-48.1107837415528
20
-1.50000169255327
11
-47.1892162584473
21
-1.4999983074469
72
1
10
-47.1892162584473
20
-1.4999983074469
11
-47.65
21
-5.00000000000009
97
0
75
0
76
1
52
0
41
0.0062
77
0
78
1
53
45
43
0
44
0
45
-0.0139193969876572
46
0.0139193969876572
79
0
47
0
98
1
10
0
20
0
0
HATCH
5
184
100
AcDbEntity
8
2
62
256
6
ByLayer
370
13
48
1
60
0
100
AcDbHatch
10
0
20
0
30
0
210
0
220
0
230
1
2
ANSI31
70
0
71
0
91
1
92
5
93
3
72
1
10
44
20
5.00009999999989
11
44.4607837415528
21
1.50010169255307
72
1
10
44.4607837415528
20
1.50010169255307
11
43.5392162584472
21
1.50009830744671
72
1
10
43.5392162584472
20
1.50009830744671
11
44
21
5.00009999999989
97
0
75
0
76
1
52
0
41
0.0062
77
0
78
1
53
45
43
0
44
0
45
-0.0139193969876572
46
0.0139193969876572
79
0
47
0
98
1
10
0
20
0
0
HATCH
5
188
100
AcDbEntity
8
2
62
256
6
ByLayer
370
13
48
1
60
0
100
AcDbHatch
10
0
20
0
30
0
210
0
220
0
230
1
2
ANSI31
70
0
71
0
91
1
92
5
93
3
72
1
10
44
20
-5.00010000000012
11
43.5392162584472
21
-1.5001016925533
72
1
10
43.5392162584472
20
-1.5001016925533
11
44.4607837415528
21
-1.50009830744693
72
1
10
44.4607837415528
20
-1.50009830744693
11
44
21
-5.00010000000012
97
0
75
0
76
1
52
0
41
0.0062
77
0
78
1
53
45
43
0
44
0
45
-0.0139193969876572
46
0.0139193969876572
79
0
47
0
98
1
10
0
20
0
0
HATCH
5
18D
100
AcDbEntity
8
SK2
62
256
6
ByLayer
370
13
48
1
60
0
100
AcDbHatch
10
0
20
0
30
0
210
0
220
0
230
1
2
ANSI31
70
0
71
0
91
1
92
5
93
3
72
1
10
-40
20
-49.1677290392721
11
-36.5000016925532
21
-48.7069452977193
72
1
10
-36.5000016925532
20
-48.7069452977193
11
-36.4999983074468
21
-49.6285127808248
72
1
10
-36.4999983074468
20
-49.6285127808248
11
-40
21
-49.1677290392721
97
0
75
0
76
1
52
0
41
0.0062
77
0
78
1
53
45
43
0
44
0
45
-0.0139193969876572
46
0.0139193969876572
79
0
47
0
98
1
10
0
20
0
0
HATCH
5
191
100
AcDbEntity
8
SK2
62
256
6
ByLayer
370
13
48
1
60
0
100
AcDbHatch
10
0
20
0
30
0
210
0
220
0
230
1
2
ANSI31
70
0
71
0
91
1
92
5
93
3
72
1
10
32
20
-49.1677290392721
11
28.5000016925532
21
-49.6285127808248
72
1
10
28.5000016925532
20
-49.6285127808248
11
28.4999983074468
21
-48.7069452977193
72
1
10
28.4999983074468
20
-48.7069452977193
11
32
21
-49.1677290392721
97
0
75
0
76
1
52
0
41
0.0062
77
0
78
1
53
45
43
0
44
0
45
-0.0139193969876572
46
0.0139193969876572
79
0
47
0
98
1
10
0
20
0
0
HATCH
5
197
100
AcDbEntity
8
SK2
62
256
6
ByLayer
370
13
48
1
60
0
100
AcDbHatch
10
0
20
0
30
0
210
0
220
0
230
1
2
ANSI31
70
0
71
0
91
1
92
5
93
3
72
1
10
30.2579613372286
20
-3.79284694195857
11
32.8880696114446
21
-6.14759539444995
72
1
10
32.8880696114446
20
-6.14759539444995
11
32.1889989351327
21
-6.74808420820901
72
1
10
32.1889989351327
20
-6.74808420820901
11
30.2579613372286
21
-3.79284694195857
97
0
75
0
76
1
52
0
41
0.0062
77
0
78
1
53
45
43
0
44
0
45
-0.0139193969876572
46
0.0139193969876572
79
0
47
0
98
1
10
0
20
0
0
DIMENSION
5
19B
100
AcDbEntity
8
SK2
62
256
6
ByLayer
370
18
48
1
60
0
100
AcDbDimension
2
_U0
10
0
20
-39.167729
30
0
11
16
21
-39.167729
31
0
70
32
71
1
72
1
41
1
210
0
220
0
230
1
3
Standard
100
AcDbAlignedDimension
13
32
23
0
33
0
14
0
24
0
34
0
50
0
100
AcDbRotatedDimension
1001
ACAD
1000
DSTYLE
1002
{
1070
   371
1070
    13
1070
   372
1070
    13
1070
   170
1070
     0
1070
   144
1040
1.0
1070
   277
1070
     2
1070
   284
1070
     8
1070
   278
1070
    46
1070
   146
1040
1.0
1070
   345
1005
16
1070
   347
1005
16
1070
   346
1005
16
1070
   344
1005
0
1070
   343
1005
0
1070
   172
1070
     1
1070
    76
1070
     0
1070
    75
1070
     0
1070
   282
1070
     0
1070
   281
1070
     0
1070
    71
1070
     0
1070
    74
1070
     0
1070
   279
1070
     0
1070
   173
1070
     1
1070
   340
1005
174
1070
   271
1070
     2
1070
   272
1070
     2
1070
    77
1070
     1
1070
    73
1070
     1
1070
   171
1070
     3
1070
   274
1070
     4
1070
   177
1070
     2
1070
   176
1070
     2
1070
   178
1070
     2
1070
    78
1070
     8
1070
    48
1040
-0.1
1070
    41
1040
3.5
1070
   147
1040
1.75
1070
    42
1040
1.5875
1070
    44
1040
2.0
1070
   140
1040
3.5
1002
}
1001
ACAD_DSTYLE_DIM_LINETYPE
1070
   380
1005
16
1001
ACAD_DSTYLE_DIM_EXT1_LINETYPE
1070
   381
1005
16
1001
ACAD_DSTYLE_DIM_EXT2_LINETYPE
1070
   382
1005
16
0
DIMENSION
5
1B4
100
AcDbEntity
8
2
62
256
6
ByLayer
370
18
48
1
60
0
100
AcDbDimension
2
_U1
10
17
20
-22.667729
30
0
11
46.833333
21
-22.667729
31
0
70
32
71
1
72
1
41
1
210
0
220
0
230
1
3
Standard
100
AcDbAlignedDimension
13
32
23
0
33
0
14
17
24
0
34
0
50
0
100
AcDbRotatedDimension
1001
ACAD
1000
DSTYLE
1002
{
1070
   371
1070
    13
1070
   372
1070
    13
1070
   170
1070
     0
1070
   144
1040
1.0
1070
   277
1070
     2
1070
   284
1070
     8
1070
   278
1070
    46
1070
   146
1040
1.0
1070
   345
1005
16
1070
   347
1005
16
1070
   346
1005
16
1070
   344
1005
0
1070
   343
1005
0
1070
   172
1070
     1
1070
    76
1070
     0
1070
    75
1070
     0
1070
   282
1070
     0
1070
   281
1070
     0
1070
    71
1070
     0
1070
    74
1070
     0
1070
   279
1070
     0
1070
   173
1070
     1
1070
   340
1005
174
1070
   271
1070
     2
1070
   272
1070
     2
1070
    77
1070
     1
1070
    73
1070
     1
1070
   171
1070
     3
1070
   274
1070
     4
1070
   177
1070
     2
1070
   176
1070
     2
1070
   178
1070
     2
1070
    78
1070
     8
1070
    48
1040
-0.1
1070
    41
1040
3.5
1070
   147
1040
1.75
1070
    42
1040
1.5875
1070
    44
1040
2.0
1070
   140
1040
3.5
1002
}
1001
ACAD_DSTYLE_DIM_LINETYPE
1070
   380
1005
16
1001
ACAD_DSTYLE_DIM_EXT1_LINETYPE
1070
   381
1005
16
1001
ACAD_DSTYLE_DIM_EXT2_LINETYPE
1070
   382
1005
16
0
ENDSEC
0
SECTION
2
OBJECTS
0
DICTIONARY
5
23e
330
0
100
AcDbDictionary
280
0
281
1
3
ACAD_GROUP
350
23f
3
ACAD_MLINESTYLE
350
240
0
DICTIONARY
5
23f
330
0
100
AcDbDictionary
280
0
281
1
0
DICTIONARY
5
240
330
0
100
AcDbDictionary
280
0
281
1
3
Standard
350
18
0
MLINESTYLE
5
18
330
240
100
AcDbMlineStyle
2
Standard
70
0
3

62
256
51
90
52
90
71
2
49
-0.5
62
256
6
ByLayer
49
0.5
62
256
6
ByLayer
0
RASTERVARIABLES
5
22c
330

100
AcDbRasterVariables
90
0
70
1
71
1
72
1
0
ENDSEC
0
EOF
