0
SECTION
2
HEADER
9
$ACADVER
1
AC1015
9
$DWGCODEPAGE
3
ANSI_1252
9
$HANDSEED
5
25a
9
$ANGBASE
50
0
9
$ANGDIR
70
0
9
$ATTMODE
70
1
9
$AUNITS
70
0
9
$AUPREC
70
0
9
$CECOLOR
62
256
9
$CELTSCALE
40
1
9
$CELTYPE
6
ByLayer
9
$CELWEIGHT
370
18
9
$CLAYER
8
0
9
$CMLJUST
70
0
9
$CMLSCALE
40
1
9
$CMLSTYLE
2
Standard
9
$DIMSTYLE
2
Standard
9
$TEXTSIZE
40
0.2
9
$TEXTSTYLE
7
Standard
9
$LUNITS
70
2
9
$LUPREC
70
4
9
$EXTNAMES
290
1
9
$INSUNITS
70
4
9
$LTSCALE
40
1
9
$LWDISPLAY
290
1
9
$PDMODE
70
0
9
$PDSIZE
40
0
9
$PLINEGEN
70
0
0
ENDSEC
0
SECTION
2
CLASSES
0
CLASS
1
RASTERVARIABLES
2
AcDbRasterVariables
3
ISM
90
0
280
0
281
0
0
ENDSEC
0
SECTION
2
TABLES
0
TABLE
2
VPORT
5
250
100
AcDbSymbolTable
0
VPORT
5
1
100
AcDbSymbolTableRecord
100
AcDbViewportTableRecord
2
*Active
70
0
10
0
20
0
11
1
21
1
12
-1
22
1
13
0
23
0
14
0.5
24
0.5
15
10
25
10
16
0
26
0
36
1
17
0
27
0
37
0
0
ENDTAB
0
TABLE
2
LTYPE
5
251
100
AcDbSymbolTable
0
LTYPE
5
14
100
AcDbSymbolTableRecord
100
AcDbLinetypeTableRecord
70
0
2
ByBlock
3

72
65
73
0
40
0
0
LTYPE
5
15
100
AcDbSymbolTableRecord
100
AcDbLinetypeTableRecord
70
0
2
ByLayer
3

72
65
73
0
40
0
0
LTYPE
5
16
100
AcDbSymbolTableRecord
100
AcDbLinetypeTableRecord
70
0
2
Continuous
3
Solid line
72
65
73
0
40
0
0
LTYPE
5
6E
100
AcDbSymbolTableRecord
100
AcDbLinetypeTableRecord
70
0
2
CENTER
3
____ _ ____ _ ____ _ ____
72
65
73
4
40
47.5
49
22
74
0
49
-8.5
74
0
49
8.5
74
0
49
-8.5
74
0
0
LTYPE
5
6F
100
AcDbSymbolTableRecord
100
AcDbLinetypeTableRecord
70
0
2
DASHED
3
__ __ __ __ __ __ __ __ __
72
65
73
2
40
25.72
49
12.86
74
0
49
-12.86
74
0
0
ENDTAB
0
TABLE
2
LAYER
5
252
100
AcDbSymbolTable
0
LAYER
5
10
100
AcDbSymbolTableRecord
100
AcDbLayerTableRecord
2
0
70
0
62
7
6
Continuous
290
1
370
-3
390
0
0
LAYER
5
71
100
AcDbSymbolTableRecord
100
AcDbLayerTableRecord
2
80
70
0
62
-6
6
Continuous
290
1
370
-3
390
0
0
LAYER
5
73
100
AcDbSymbolTableRecord
100
AcDbLayerTableRecord
2
81
70
0
62
-3
6
Continuous
290
1
370
-3
390
0
0
LAYER
5
75
100
AcDbSymbolTableRecord
100
AcDbLayerTableRecord
2
1
70
0
62
4
6
Continuous
290
1
370
-3
390
0
0
LAYER
5
7E
100
AcDbSymbolTableRecord
100
AcDbLayerTableRecord
2
4
70
0
62
-2
6
CENTER
290
1
370
-3
390
0
0
LAYER
5
CD
100
AcDbSymbolTableRecord
100
AcDbLayerTableRecord
2
2
70
0
62
7
6
Continuous
290
1
370
-3
390
0
0
LAYER
5
1AD
100
AcDbSymbolTableRecord
100
AcDbLayerTableRecord
2
Defpoints
70
0
62
7
6
Continuous
290
0
370
-3
390
0
0
LAYER
5
23c
100
AcDbSymbolTableRecord
100
AcDbLayerTableRecord
2
SK4
70
0
62
2
6
CENTER
290
1
370
-3
390
0
0
LAYER
5
23d
100
AcDbSymbolTableRecord
100
AcDbLayerTableRecord
2
SK1
70
0
62
4
6
Continuous
290
1
370
-3
390
0
0
LAYER
5
23e
100
AcDbSymbolTableRecord
100
AcDbLayerTableRecord
2
SK2
70
0
62
7
6
Continuous
290
1
370
-3
390
0
0
LAYER
5
23f
100
AcDbSymbolTableRecord
100
AcDbLayerTableRecord
2
SK6
70
0
62
5
6
Continuous
290
1
370
-3
390
0
0
ENDTAB
0
TABLE
2
STYLE
5
253
100
AcDbSymbolTable
0
STYLE
5
11
100
AcDbSymbolTableRecord
100
AcDbTextStyleTableRecord
2
Standard
3
txt
70
0
71
0
40
0
41
1
42
0
50
0
0
STYLE
5
183
100
AcDbSymbolTableRecord
100
AcDbTextStyleTableRecord
2
iso_b_vert
3
simplex.shx
70
0
71
0
40
0
41
1
42
0
50
0
0
STYLE
5
184
100
AcDbSymbolTableRecord
100
AcDbTextStyleTableRecord
2
DWGDirectTextStyle
3
simplex
70
0
71
0
40
0
41
1
42
0
50
0
0
ENDTAB
0
TABLE
2
DIMSTYLE
5
254
100
AcDbSymbolTable
100
AcDbDimStyleTable
0
DIMSTYLE
105
27
100
AcDbSymbolTableRecord
100
AcDbDimStyleTableRecord
2
Standard
70
0
3
<>
41
0.18
42
0.0625
44
0.18
140
0.18
147
0.09
73
0
74
0
77
1
271
2
275
0
278
52
280
0
340
11
0
ENDTAB
0
TABLE
2
VIEW
5
255
100
AcDbSymbolTable
0
ENDTAB
0
TABLE
2
UCS
5
256
100
AcDbSymbolTable
0
ENDTAB
0
TABLE
2
APPID
5
257
100
AcDbSymbolTable
0
APPID
5
12
100
AcDbSymbolTableRecord
100
AcDbRegAppTableRecord
2
ACAD
70
0
0
APPID
5
1A9
100
AcDbSymbolTableRecord
100
AcDbRegAppTableRecord
2
ACAD_DSTYLE_DIMBREAK
70
0
0
APPID
5
1FB
100
AcDbSymbolTableRecord
100
AcDbRegAppTableRecord
2
ACAD_DSTYLE_DIM_LINETYPE
70
0
0
APPID
5
1FC
100
AcDbSymbolTableRecord
100
AcDbRegAppTableRecord
2
ACAD_DSTYLE_DIM_EXT1_LINETYPE
70
0
0
APPID
5
1FD
100
AcDbSymbolTableRecord
100
AcDbRegAppTableRecord
2
ACAD_DSTYLE_DIM_EXT2_LINETYPE
70
0
0
APPID
5
238
100
AcDbSymbolTableRecord
100
AcDbRegAppTableRecord
2
ACAD_MLEADERVER
70
0
0
ENDTAB
0
TABLE
2
BLOCK_RECORD
5
258
100
AcDbSymbolTable
0
BLOCK_RECORD
5
1F
100
AcDbSymbolTableRecord
100
AcDbBlockTableRecord
2
*Model_Space
340
0
70
0
0
BLOCK_RECORD
5
1B
100
AcDbSymbolTableRecord
100
AcDbBlockTableRecord
2
*Paper_Space
340
0
70
0
0
BLOCK_RECORD
5
23
100
AcDbSymbolTableRecord
100
AcDbBlockTableRecord
2
*Paper_Space0
340
0
70
0
0
BLOCK_RECORD
5
1AE
100
AcDbSymbolTableRecord
100
AcDbBlockTableRecord
2
*D1
340
0
70
0
0
BLOCK_RECORD
5
1BA
100
AcDbSymbolTableRecord
100
AcDbBlockTableRecord
2
_U0
340
0
70
0
0
BLOCK_RECORD
5
1C6
100
AcDbSymbolTableRecord
100
AcDbBlockTableRecord
2
*D3
340
0
70
0
0
BLOCK_RECORD
5
1D4
100
AcDbSymbolTableRecord
100
AcDbBlockTableRecord
2
_U1
340
0
70
0
0
ENDTAB
0
ENDSEC
0
SECTION
2
BLOCKS
0
BLOCK
5
20
100
AcDbEntity
8
0
100
AcDbBlockBegin
2
*Model_Space
70
0
10
0
20
0
30
0
3
*Model_Space
0
ENDBLK
5
21
100
AcDbEntity
8
0
100
AcDbBlockEnd
0
BLOCK
5
1C
100
AcDbEntity
8
0
100
AcDbBlockBegin
2
*Paper_Space
70
0
10
0
20
0
30
0
3
*Paper_Space
0
ENDBLK
5
1D
100
AcDbEntity
8
0
100
AcDbBlockEnd
0
BLOCK
5
24
100
AcDbEntity
8
0
100
AcDbBlockBegin
2
*Paper_Space0
70
0
10
0
20
0
30
0
3
*Paper_Space0
0
ENDBLK
5
25
100
AcDbEntity
8
0
100
AcDbBlockEnd
0
BLOCK
5
1AF
100
AcDbEntity
8
0
100
AcDbBlockBegin
2
*D1
70
1
10
0
20
0
30
0
3
*D1
0
LINE
5
1B1
100
AcDbEntity
8
0
62
256
6
ByLayer
370
-2
48
1
60
0
100
AcDbLine
10
44
20
-1.5875
30
0
11
44
21
-39.1
31
0
39
0
210
0
220
0
230
1
0
LINE
5
1B2
100
AcDbEntity
8
0
62
256
6
ByLayer
370
-2
48
1
60
0
100
AcDbLine
10
0
20
-1.5875
30
0
11
0
21
-39.1
31
0
39
0
210
0
220
0
230
1
0
LINE
5
1B3
100
AcDbEntity
8
0
62
256
6
ByLayer
370
-2
48
1
60
0
100
AcDbLine
10
40.5
20
-37.1
30
0
11
3.5
21
-37.1
31
0
39
0
210
0
220
0
230
1
0
SOLID
5
1B4
100
AcDbEntity
8
0
62
256
6
ByLayer
370
-1
48
1
60
0
100
AcDbTrace
10
40.5
20
-37.683333
30
0
11
40.5
21
-36.516667
31
0
12
44
22
-37.1
32
0
13
44
23
-37.1
33
0
39
0
210
0
220
0
230
1
0
SOLID
5
1B5
100
AcDbEntity
8
0
62
256
6
ByLayer
370
-1
48
1
60
0
100
AcDbTrace
10
3.5
20
-36.516667
30
0
11
3.5
21
-37.683333
31
0
12
0
22
-37.1
32
0
13
0
23
-37.1
33
0
39
0
210
0
220
0
230
1
0
MTEXT
5
1B6
100
AcDbEntity
8
0
62
256
6
ByLayer
370
18
48
1
60
0
100
AcDbMText
10
22
20
-30.1
30
0
210
0
220
0
230
1
1
\A1;44
40
3.5
41
0
44
1
50
0
71
5
72
5
7
iso_b_vert
0
POINT
5
1B7
100
AcDbEntity
8
Defpoints
62
0
6
ByLayer
370
-1
48
1
60
0
100
AcDbPoint
10
44
20
0
30
0
39
0
210
0
220
0
230
1
50
360
0
POINT
5
1B8
100
AcDbEntity
8
Defpoints
62
0
6
ByLayer
370
-1
48
1
60
0
100
AcDbPoint
10
0
20
0
30
0
39
0
210
0
220
0
230
1
50
360
0
POINT
5
1B9
100
AcDbEntity
8
Defpoints
62
0
6
ByLayer
370
-1
48
1
60
0
100
AcDbPoint
10
0
20
-37.1
30
0
39
0
210
0
220
0
230
1
50
360
0
ENDBLK
5
1B0
100
AcDbEntity
8
0
100
AcDbBlockEnd
0
BLOCK
5
1C1
100
AcDbEntity
8
0
100
AcDbBlockBegin
2
_U0
70
0
10
0
20
0
30
0
3
_U0
0
MTEXT
5
1BB
100
AcDbEntity
8
SK2
62
256
6
ByLayer
370
18
48
1
60
0
100
AcDbMText
10
19.7265
20
-36.067366
30
0
210
0
220
0
230
1
1
\W0.7685;44
40
3.5
41
0
44
1.084337
50
0
71
7
72
5
7
iso_b_vert
0
LINE
5
1BC
100
AcDbEntity
8
SK2
62
256
6
ByLayer
370
13
48
1
60
0
100
AcDbLine
10
44
20
-1.5875
30
0
11
44
21
-39.1
31
0
39
0
210
0
220
0
230
1
0
LINE
5
1BD
100
AcDbEntity
8
SK2
62
256
6
ByLayer
370
13
48
1
60
0
100
AcDbLine
10
0
20
-1.5875
30
0
11
0
21
-39.1
31
0
39
0
210
0
220
0
230
1
0
LINE
5
1BE
100
AcDbEntity
8
SK2
62
256
6
ByLayer
370
13
48
1
60
0
100
AcDbLine
10
44
20
-37.1
30
0
11
0
21
-37.1
31
0
39
0
210
0
220
0
230
1
0
SOLID
5
1BF
100
AcDbEntity
8
SK2
62
256
6
ByLayer
370
18
48
1
60
0
100
AcDbTrace
10
44
20
-37.1
30
0
11
40.500002
21
-37.560784
31
0
12
40.499998
22
-36.639216
32
0
13
40.499998
23
-36.639216
33
0
39
0
210
0
220
0
230
1
0
SOLID
5
1C0
100
AcDbEntity
8
SK2
62
256
6
ByLayer
370
18
48
1
60
0
100
AcDbTrace
10
0
20
-37.1
30
0
11
3.499998
21
-36.639216
31
0
12
3.500002
22
-37.560784
32
0
13
3.500002
23
-37.560784
33
0
39
0
210
0
220
0
230
1
0
ENDBLK
5
1C2
100
AcDbEntity
8
0
100
AcDbBlockEnd
0
BLOCK
5
1C7
100
AcDbEntity
8
0
100
AcDbBlockBegin
2
*D3
70
1
10
0
20
0
30
0
3
*D3
0
LINE
5
1C9
100
AcDbEntity
8
0
62
256
6
ByLayer
370
-2
48
1
60
0
100
AcDbLine
10
44
20
-1.5875
30
0
11
44
21
-22.6
31
0
39
0
210
0
220
0
230
1
0
LINE
5
1CA
100
AcDbEntity
8
0
62
256
6
ByLayer
370
-2
48
1
60
0
100
AcDbLine
10
36.5
20
-1.5875
30
0
11
36.5
21
-22.6
31
0
39
0
210
0
220
0
230
1
0
LINE
5
1CB
100
AcDbEntity
8
0
62
256
6
ByLayer
370
-2
48
1
60
0
100
AcDbLine
10
44
20
-20.6
30
0
11
68.833333
21
-20.6
31
0
39
0
210
0
220
0
230
1
0
LINE
5
1CC
100
AcDbEntity
8
0
62
256
6
ByLayer
370
-2
48
1
60
0
100
AcDbLine
10
47.5
20
-20.6
30
0
11
51
21
-20.6
31
0
39
0
210
0
220
0
230
1
0
LINE
5
1CD
100
AcDbEntity
8
0
62
256
6
ByLayer
370
-2
48
1
60
0
100
AcDbLine
10
33
20
-20.6
30
0
11
29.5
21
-20.6
31
0
39
0
210
0
220
0
230
1
0
SOLID
5
1CE
100
AcDbEntity
8
0
62
256
6
ByLayer
370
-1
48
1
60
0
100
AcDbTrace
10
47.5
20
-20.016667
30
0
11
47.5
21
-21.183333
31
0
12
44
22
-20.6
32
0
13
44
23
-20.6
33
0
39
0
210
0
220
0
230
1
0
SOLID
5
1CF
100
AcDbEntity
8
0
62
256
6
ByLayer
370
-1
48
1
60
0
100
AcDbTrace
10
33
20
-21.183333
30
0
11
33
21
-20.016667
31
0
12
36.5
22
-20.6
32
0
13
36.5
23
-20.6
33
0
39
0
210
0
220
0
230
1
0
MTEXT
5
1D0
100
AcDbEntity
8
0
62
256
6
ByLayer
370
18
48
1
60
0
100
AcDbMText
10
59.916667
20
-13.6
30
0
210
0
220
0
230
1
1
\A1;7.5
40
3.5
41
0
44
1
50
0
71
5
72
5
7
iso_b_vert
0
POINT
5
1D1
100
AcDbEntity
8
Defpoints
62
0
6
ByLayer
370
-1
48
1
60
0
100
AcDbPoint
10
44
20
0
30
0
39
0
210
0
220
0
230
1
50
360
0
POINT
5
1D2
100
AcDbEntity
8
Defpoints
62
0
6
ByLayer
370
-1
48
1
60
0
100
AcDbPoint
10
36.5
20
0
30
0
39
0
210
0
220
0
230
1
50
360
0
POINT
5
1D3
100
AcDbEntity
8
Defpoints
62
0
6
ByLayer
370
-1
48
1
60
0
100
AcDbPoint
10
36.5
20
-20.6
30
0
39
0
210
0
220
0
230
1
50
360
0
ENDBLK
5
1C8
100
AcDbEntity
8
0
100
AcDbBlockEnd
0
BLOCK
5
1DB
100
AcDbEntity
8
0
100
AcDbBlockBegin
2
_U1
70
0
10
0
20
0
30
0
3
_U1
0
MTEXT
5
1D5
100
AcDbEntity
8
2
62
256
6
ByLayer
370
18
48
1
60
0
100
AcDbMText
10
55.564412
20
-19.567366
30
0
210
0
220
0
230
1
1
\W0.7121;7.5
40
3.5
41
0
44
1.084337
50
0
71
7
72
5
7
iso_b_vert
0
LINE
5
1D6
100
AcDbEntity
8
2
62
256
6
ByLayer
370
13
48
1
60
0
100
AcDbLine
10
44
20
-1.5875
30
0
11
44
21
-22.6
31
0
39
0
210
0
220
0
230
1
0
LINE
5
1D7
100
AcDbEntity
8
2
62
256
6
ByLayer
370
13
48
1
60
0
100
AcDbLine
10
36.5
20
-1.5875
30
0
11
36.5
21
-22.6
31
0
39
0
210
0
220
0
230
1
0
LINE
5
1D8
100
AcDbEntity
8
2
62
256
6
ByLayer
370
13
48
1
60
0
100
AcDbLine
10
36.5
20
-20.6
30
0
11
60.977844
21
-20.6
31
0
39
0
210
0
220
0
230
1
0
SOLID
5
1D9
100
AcDbEntity
8
2
62
256
6
ByLayer
370
18
48
1
60
0
100
AcDbTrace
10
44
20
-20.6
30
0
11
40.500002
21
-21.060784
31
0
12
40.499998
22
-20.139216
32
0
13
40.499998
23
-20.139216
33
0
39
0
210
0
220
0
230
1
0
SOLID
5
1DA
100
AcDbEntity
8
2
62
256
6
ByLayer
370
18
48
1
60
0
100
AcDbTrace
10
36.5
20
-20.6
30
0
11
39.999998
21
-20.139216
31
0
12
40.000002
22
-21.060784
32
0
13
40.000002
23
-21.060784
33
0
39
0
210
0
220
0
230
1
0
ENDBLK
5
1DC
100
AcDbEntity
8
0
100
AcDbBlockEnd
0
ENDSEC
0
SECTION
2
ENTITIES
0
ARC
5
E3
100
AcDbEntity
8
1
62
256
6
ByLayer
370
18
48
1
60
0
100
AcDbCircle
39
0
10
18.997679
20
3.525
30
0
40
1
210
0
220
0
230
1
100
AcDbArc
50
240
51
270
0
ARC
5
E4
100
AcDbEntity
8
1
62
256
6
ByLayer
370
18
48
1
60
0
100
AcDbCircle
39
0
10
18.997679
20
-3.525
30
0
40
1
210
0
220
0
230
1
100
AcDbArc
50
90
51
120
0
ELLIPSE
5
E5
100
AcDbEntity
8
1
62
256
6
ByLayer
370
18
48
1
60
0
100
AcDbEllipse
10
44.115591
20
-0.234052
30
0
11
0.155894916137129
21
0.110799965494139
31
0
210
0
220
0
230
1
40
0.729272
41
2.05480374825886
42
2.89153475838071
0
ELLIPSE
5
E6
100
AcDbEntity
8
1
62
256
6
ByLayer
370
18
48
1
60
0
100
AcDbEllipse
10
43.827618
20
0.194538
30
0
11
0.000855541793251486
21
-0.173186786438702
31
0
210
0
220
0
230
1
40
0.441746
41
-2.61906232725047
42
-0.481033993557218
0
ELLIPSE
5
E7
100
AcDbEntity
8
1
62
256
6
ByLayer
370
18
48
1
60
0
100
AcDbEllipse
10
36.5
20
-3.872559
30
0
11
-1.84651012936523
21
1.68534873013023
31
0
210
0
220
0
230
1
40
0.670747
41
-1.02145093782485
42
-0.894711477194789
0
ELLIPSE
5
E8
100
AcDbEntity
8
1
62
256
6
ByLayer
370
18
48
1
60
0
100
AcDbEllipse
10
36.586603
20
-3.777675
30
0
11
-1.87936110447728
21
1.71533250780258
31
0
210
0
220
0
230
1
40
0.670747
41
-0.982140008285189
42
-0.841530591690678
0
ELLIPSE
5
E9
100
AcDbEntity
8
1
62
256
6
ByLayer
370
18
48
1
60
0
100
AcDbEllipse
10
36.586603
20
1.036402
30
0
11
-2.19464886499347
21
1.28758694181369
31
0
210
0
220
0
230
1
40
0.153943
41
1.48094900855861
42
1.62155842515278
0
ELLIPSE
5
EA
100
AcDbEntity
8
1
62
256
6
ByLayer
370
18
48
1
60
0
100
AcDbEllipse
10
36.5
20
0.88879
30
0
11
-2.15628670294179
21
1.26508009814253
31
0
210
0
220
0
230
1
40
0.153943
41
1.53412989406242
42
1.66086935469245
0
ELLIPSE
5
EB
100
AcDbEntity
8
1
62
256
6
ByLayer
370
18
48
1
60
0
100
AcDbEllipse
10
36.267941
20
-5E-06
30
0
11
6.69894808166494
21
-1.79483473904868
31
0
210
0
220
0
230
1
40
0.265116
41
-1.53295535248036
42
-1.51137300859091
0
ELLIPSE
5
EC
100
AcDbEntity
8
1
62
256
6
ByLayer
370
18
48
1
60
0
100
AcDbEllipse
10
36.257894
20
-2E-05
30
0
11
7.00484160252203
21
-2.47980840581316
31
0
210
0
220
0
230
1
40
0.067928
41
1.60485844691986
42
1.62337587738448
0
ELLIPSE
5
ED
100
AcDbEntity
8
1
62
256
6
ByLayer
370
18
48
1
60
0
100
AcDbEllipse
10
36.267942
20
-5E-06
30
0
11
6.70799937688337
21
-0.926649200995788
31
0
210
0
220
0
230
1
40
0.350153
41
1.63061864624399
42
1.65220094060431
0
ELLIPSE
5
EE
100
AcDbEntity
8
1
62
256
6
ByLayer
370
18
48
1
60
0
100
AcDbEllipse
10
36.5
20
4.675342
30
0
11
-1.30803419984316
21
2.13050382117484
31
0
210
0
220
0
230
1
40
0.809793
41
2.36614800740528
42
2.49288746803533
0
ELLIPSE
5
EF
100
AcDbEntity
8
1
62
256
6
ByLayer
370
18
48
1
60
0
100
AcDbEllipse
10
36.586603
20
4.728512
30
0
11
-1.33130523327071
21
2.16840728397881
31
0
210
0
220
0
230
1
40
0.809793
41
2.31296712190139
42
2.45357653849567
0
POINT
5
70
100
AcDbEntity
8
80
62
256
6
ByLayer
370
18
48
1
60
0
100
AcDbPoint
10
0
20
0
30
0
39
0
210
0
220
0
230
1
50
360
0
POINT
5
72
100
AcDbEntity
8
81
62
256
6
ByLayer
370
18
48
1
60
0
100
AcDbPoint
10
44.05
20
0
30
0
39
0
210
0
220
0
230
1
50
360
0
POINT
5
74
100
AcDbEntity
8
1
62
256
6
ByLayer
370
18
48
1
60
1
100
AcDbPoint
10
44
20
0
30
0
39
0
210
0
220
0
230
1
50
360
0
POINT
5
76
100
AcDbEntity
8
1
62
256
6
ByLayer
370
18
48
1
60
1
100
AcDbPoint
10
0
20
0
30
0
39
0
210
0
220
0
230
1
50
360
0
POINT
5
77
100
AcDbEntity
8
1
62
256
6
ByLayer
370
18
48
1
60
1
100
AcDbPoint
10
44
20
0
30
0
39
0
210
0
220
0
230
1
50
360
0
POINT
5
78
100
AcDbEntity
8
1
62
256
6
ByLayer
370
18
48
1
60
1
100
AcDbPoint
10
36.5
20
0
30
0
39
0
210
0
220
0
230
1
50
360
0
SPLINE
5
F0
100
AcDbEntity
8
1
62
256
6
ByLayer
370
18
48
1
60
0
100
AcDbSpline
70
4
71
3
72
12
73
8
40
0
40
0
40
0
40
0
40
0.294003185108329
40
0.294003185108329
40
0.647001592554165
40
0.647001592554165
40
1
40
1
40
1
40
1
41
1
10
42.8270440619429
20
0.764279306185585
30
0
41
1
10
42.7903170031986
20
0.796543269340418
30
0
41
1
10
42.7542150937431
20
0.829434581927444
30
0
41
1
10
42.6761970750314
20
0.903219587420892
30
0
41
1
10
42.6345724346253
20
0.944401278717123
30
0
41
1
10
42.5532559028466
20
1.02859300426036
30
0
41
1
10
42.5135350454931
20
1.07158173431981
30
0
41
1
10
42.4745896191647
20
1.11535019485154
30
0
0
SPLINE
5
F1
100
AcDbEntity
8
1
62
256
6
ByLayer
370
18
48
1
60
0
100
AcDbSpline
70
4
71
3
72
8
73
4
40
0
40
0
40
0
40
0
40
1
40
1
40
1
40
1
41
1
10
43.9995371092273
20
-0.0264724284122053
30
0
41
1
10
43.999463696028
20
-0.0335154396360906
30
0
41
1
10
43.9993606567522
20
-0.0405581261244095
30
0
41
1
10
43.999227919853
20
-0.0476001156312407
30
0
0
SPLINE
5
F2
100
AcDbEntity
8
1
62
256
6
ByLayer
370
18
48
1
60
0
100
AcDbSpline
70
4
71
3
72
8
73
4
40
0
40
0
40
0
40
0
40
1
40
1
40
1
40
1
41
1
10
43.9995371092273
20
-0.026472428411779
30
0
41
1
10
43.9995594113693
20
-0.0241551382659679
30
0
41
1
10
43.9995785397369
20
-0.0218376292897631
30
0
41
1
10
43.9995944927569
20
-0.0195199013746787
30
0
0
SPLINE
5
F3
100
AcDbEntity
8
1
62
256
6
ByLayer
370
18
48
1
60
0
100
AcDbSpline
70
4
71
3
72
8
73
4
40
0
40
0
40
0
40
0
40
1
40
1
40
1
40
1
41
1
10
43.9911603690803
20
-0.0186745427862718
30
0
41
1
10
43.9910640038857
20
-0.0189563274753652
30
0
41
1
10
43.9909676520898
20
-0.019238113672003
30
0
41
1
10
43.9908713137271
20
-0.019519901379482
30
0
0
SPLINE
5
F4
100
AcDbEntity
8
1
62
256
6
ByLayer
370
18
48
1
60
0
100
AcDbSpline
70
4
71
3
72
8
73
4
40
0
40
0
40
0
40
0
40
1
40
1
40
1
40
1
41
1
10
43.9995944927569
20
-0.0195199013746219
30
0
41
1
10
43.9995916597051
20
-0.0197390092147032
30
0
41
1
10
43.9995888151069
20
-0.0199581170224405
30
0
41
1
10
43.9995859589527
20
-0.0201772247999372
30
0
0
SPLINE
5
F5
100
AcDbEntity
8
1
62
256
6
ByLayer
370
18
48
1
60
0
100
AcDbSpline
70
4
71
3
72
8
73
4
40
0
40
0
40
0
40
0
40
1
40
1
40
1
40
1
41
1
10
43.9995807986061
20
0.0202474959681354
30
0
41
1
10
43.9995503315935
20
0.0242467818376042
30
0
41
1
10
43.999510356186
20
0.0282452467656924
30
0
41
1
10
43.999460880499
20
0.0322428914530803
30
0
0
SPLINE
5
F6
100
AcDbEntity
8
1
62
256
6
ByLayer
370
18
48
1
60
0
100
AcDbSpline
70
4
71
3
72
10
73
6
40
0
40
0
40
0
40
0
40
0.987360905307715
40
0.987360905307715
40
1
40
1
40
1
40
1
41
1
10
43.9912920758625
20
0.0190478906837939
30
0
41
1
10
43.9905024391878
20
0.0228098117767388
30
0
41
1
10
43.9897133283243
20
0.0265718436620546
30
0
41
1
10
43.9889146552541
20
0.0303821462528902
30
0
41
1
10
43.9889045608361
20
0.0304303050501744
30
0
41
1
10
43.9888944665053
20
0.0304784638657054
30
0
0
SPLINE
5
F7
100
AcDbEntity
8
1
62
256
6
ByLayer
370
18
48
1
60
0
100
AcDbSpline
70
4
71
3
72
8
73
4
40
0
40
0
40
0
40
0
40
1
40
1
40
1
40
1
41
1
10
43.999460880499
20
0.0322428914533361
30
0
41
1
10
43.9993974383643
20
0.0371256943724916
30
0
41
1
10
43.9993197922877
20
0.0420083021941764
30
0
41
1
10
43.9992279196364
20
0.046890591180869
30
0
0
SPLINE
5
F8
100
AcDbEntity
8
1
62
256
6
ByLayer
370
18
48
1
60
0
100
AcDbSpline
70
4
71
3
72
12
73
8
40
0
40
0
40
0
40
0
40
0.5
40
0.5
40
0.75
40
0.75
40
1
40
1
40
1
40
1
41
1
10
43.9992279182839
20
0.0468906630512151
30
0
41
1
10
43.9950813034341
20
0.161115135988979
30
0
41
1
10
43.9841423637356
20
0.274637589342632
30
0
41
1
10
43.9575227400297
20
0.443865891063496
30
0
41
1
10
43.9469387238715
20
0.500084873393064
30
0
41
1
10
43.922458810512
20
0.611582690383415
30
0
41
1
10
43.9085449430661
20
0.666933469947537
30
0
41
1
10
43.8929689407086
20
0.721888921391866
30
0
0
SPLINE
5
F9
100
AcDbEntity
8
1
62
256
6
ByLayer
370
18
48
1
60
0
100
AcDbSpline
70
4
71
3
72
8
73
4
40
0
40
0
40
0
40
0
40
1
40
1
40
1
40
1
41
1
10
43.8192660011223
20
0.684270712903725
30
0
41
1
10
43.8437836185406
20
0.696901272222789
30
0
41
1
10
43.8683551088985
20
0.70943367133097
30
0
41
1
10
43.8929689407089
20
0.721888921391951
30
0
0
SPLINE
5
FA
100
AcDbEntity
8
1
62
256
6
ByLayer
370
18
48
1
60
0
100
AcDbSpline
70
4
71
3
72
29
73
25
40
0
40
0
40
0
40
0
40
0.0625000000000047
40
0.0625000000000047
40
0.125000000000009
40
0.125000000000009
40
0.250000000000019
40
0.250000000000019
40
0.375000000000029
40
0.375000000000029
40
0.437500000000027
40
0.468750000000027
40
0.468750000000027
40
0.500000000000026
40
0.500000000000026
40
0.625000000000024
40
0.625000000000024
40
0.750000000000022
40
0.750000000000022
40
0.87500000000002
40
0.87500000000002
40
0.93750000000001
40
0.93750000000001
40
1
40
1
40
1
40
1
41
1
10
43.8929689407086
20
0.721888921391866
30
0
41
1
10
43.882318369094
20
0.757045501538357
30
0
41
1
10
43.8708808901961
20
0.791929570915613
30
0
41
1
10
43.8464292936142
20
0.861147594666306
30
0
41
1
10
43.8334730162694
20
0.895323544035421
30
0
41
1
10
43.7925434250395
20
0.996242971319901
30
0
41
1
10
43.7624570581348
20
1.0615116132513
30
0
41
1
10
43.6967628983492
20
1.18806409328866
30
0
41
1
10
43.6611719225758
20
1.24935524378498
30
0
41
1
10
43.6036562296995
20
1.33830383997182
30
0
41
1
10
43.5738605419001
20
1.38202902770971
30
0
41
1
10
43.5424858686041
20
1.42461829245403
30
0
41
1
10
43.5212156897831
20
1.45275683760252
30
0
41
1
10
43.5103968581618
20
1.46670677349351
30
0
41
1
10
43.4557203688361
20
1.53542564103964
30
0
41
1
10
43.4098898631615
20
1.58741802675635
30
0
41
1
10
43.314154814732
20
1.68562872767964
30
0
41
1
10
43.264252665368
20
1.731849129669
30
0
41
1
10
43.16040705745
20
1.81855759628837
30
0
41
1
10
43.1064583832744
20
1.85904073029963
30
0
41
1
10
43.0224177192608
20
1.91533158671086
30
0
41
1
10
42.9938828066026
20
1.93334945783215
30
0
41
1
10
42.9362443842246
20
1.96758024346977
30
0
41
1
10
42.9070819504421
20
1.98383411792062
30
0
41
1
10
42.8775769415838
20
1.99922507213409
30
0
0
SPLINE
5
FB
100
AcDbEntity
8
1
62
256
6
ByLayer
370
18
48
1
60
0
100
AcDbSpline
70
4
71
3
72
17
73
13
40
0
40
0
40
0
40
0
40
0.250000000000044
40
0.250000000000044
40
0.375000000000067
40
0.375000000000067
40
0.43750000000006
40
0.43750000000006
40
0.500000000000053
40
0.750000000000027
40
0.750000000000027
40
1
40
1
40
1
40
1
41
1
10
42.8775769415821
20
1.99922507213498
30
0
41
1
10
42.8126758955827
20
2.03303010316742
30
0
41
1
10
42.7464655373564
20
2.06249074958444
30
0
41
1
10
42.6452390208934
20
2.10020325704832
30
0
41
1
10
42.6111779674319
20
2.11169216196433
30
0
41
1
10
42.5596112992542
20
2.12728783760699
30
0
41
1
10
42.5423220936119
20
2.13221857722615
30
0
41
1
10
42.5077237201403
20
2.14149439243744
30
0
41
1
10
42.4211543060808
20
2.16323195261475
30
0
41
1
10
42.3341923698339
20
2.1778457033873
30
0
41
1
10
42.1944448490858
20
2.19239974196773
30
0
41
1
10
42.1242668788161
20
2.1952611201832
30
0
41
1
10
42.0537521546068
20
2.19373406031516
30
0
0
SPLINE
5
FC
100
AcDbEntity
8
1
62
256
6
ByLayer
370
18
48
1
60
0
100
AcDbSpline
70
4
71
3
72
14
73
10
40
0
40
0
40
0
40
0
40
0.174872995005546
40
0.174872995005546
40
0.349745990011091
40
0.349745990011091
40
0.699491980022183
40
0.699491980022183
40
1
40
1
40
1
40
1
41
1
10
43.8192660011161
20
0.684270712915463
30
0
41
1
10
43.8174701100106
20
0.683345537000065
30
0
41
1
10
43.8155491076391
20
0.682892920362548
30
0
41
1
10
43.8116015279923
20
0.682386455335859
30
0
41
1
10
43.8096101673635
20
0.68235480250965
30
0
41
1
10
43.8037155099443
20
0.682596035506123
30
0
41
1
10
43.7998247722138
20
0.683196991327407
30
0
41
1
10
43.7926206862765
20
0.684648548282496
30
0
41
1
10
43.78933714787
20
0.685447322188622
30
0
41
1
10
43.7860863556445
20
0.686336812788312
30
0
0
SPLINE
5
FD
100
AcDbEntity
8
1
62
256
6
ByLayer
370
13
48
1
60
0
100
AcDbSpline
70
4
71
3
72
8
73
4
40
0
40
0
40
0
40
0
40
1
40
1
40
1
40
1
41
1
10
43.7499104270964
20
0.735356179238011
30
0
41
1
10
43.7729759954406
20
0.718308084113204
30
0
41
1
10
43.7960947760114
20
0.701278346434577
30
0
41
1
10
43.8192660011161
20
0.684270712915463
30
0
0
SPLINE
5
FE
100
AcDbEntity
8
1
62
256
6
ByLayer
370
18
48
1
60
0
100
AcDbSpline
70
4
71
3
72
10
73
6
40
0
40
0
40
0
40
0
40
0.329309259313445
40
0.329309259313445
40
1
40
1
40
1
40
1
41
1
10
37.4771279930345
20
-2.25313934635872
30
0
41
1
10
37.3759510050647
20
-2.27226325862645
30
0
41
1
10
37.2748044541248
20
-2.2895531330731
30
0
41
1
10
36.9675912832257
20
-2.33633347521592
30
0
41
1
10
36.7614574092609
20
-2.3598941785018
30
0
41
1
10
36.5548222426282
20
-2.3750741851326
30
0
0
SPLINE
5
FF
100
AcDbEntity
8
1
62
256
6
ByLayer
370
18
48
1
60
0
100
AcDbSpline
70
4
71
3
72
12
73
8
40
0
40
0
40
0
40
0
40
0.5
40
0.5
40
0.75
40
0.75
40
1
40
1
40
1
40
1
41
1
10
36.4999999999999
20
2.37364076624064
30
0
41
1
10
36.4390424374362
20
2.39265309100409
30
0
41
1
10
36.3781384910135
20
2.41389601350221
30
0
41
1
10
36.2867493683441
20
2.44898709621853
30
0
41
1
10
36.2562528714087
20
2.46123538094906
30
0
41
1
10
36.1955393887234
20
2.48666052559793
30
0
41
1
10
36.1652887346163
20
2.49984938586462
30
0
41
1
10
36.1351328567454
20
2.51349727677899
30
0
0
SPLINE
5
100
100
AcDbEntity
8
1
62
256
6
ByLayer
370
18
48
1
60
0
100
AcDbSpline
70
4
71
3
72
10
73
6
40
0
40
0
40
0
40
0
40
0.5
40
0.5
40
1
40
1
40
1
40
1
41
1
10
36.1907810354439
20
2.4000180512048
30
0
41
1
10
36.2419754249301
20
2.38633243554406
30
0
41
1
10
36.2934245579245
20
2.37427677365963
30
0
41
1
10
36.3965773863217
20
2.35348065198093
30
0
41
1
10
36.4482437389816
20
2.34474494822453
30
0
41
1
10
36.5
20
2.33767104515266
30
0
0
SPLINE
5
101
100
AcDbEntity
8
1
62
256
6
ByLayer
370
18
48
1
60
0
100
AcDbSpline
70
4
71
3
72
8
73
4
40
0
40
0
40
0
40
0
40
1
40
1
40
1
40
1
41
1
10
41.5
20
2.33189083481508
30
0
41
1
10
41.327181085289
20
2.35370710983239
30
0
41
1
10
41.1545726785309
20
2.37011215440916
30
0
41
1
10
40.9819230730195
20
2.38084308740386
30
0
0
SPLINE
5
102
100
AcDbEntity
8
1
62
256
6
ByLayer
370
18
48
1
60
0
100
AcDbSpline
70
4
71
3
72
8
73
4
40
0
40
0
40
0
40
0
40
1
40
1
40
1
40
1
41
1
10
40.4556251986324
20
2.44471021357481
30
0
41
1
10
40.4695574807731
20
2.44366658407441
30
0
41
1
10
40.4834897629139
20
2.44258347545573
30
0
41
1
10
40.4974220450547
20
2.44146107031796
30
0
0
SPLINE
5
103
100
AcDbEntity
8
1
62
256
6
ByLayer
370
18
48
1
60
0
100
AcDbSpline
70
4
71
3
72
8
73
4
40
0
40
0
40
0
40
0
40
1
40
1
40
1
40
1
41
1
10
40.6460935144438
20
2.42800052605196
30
0
41
1
10
40.9307290096292
20
2.39940577082069
30
0
41
1
10
41.2153645048146
20
2.35468045229226
30
0
41
1
10
41.5
20
2.29538160808465
30
0
0
SPLINE
5
104
100
AcDbEntity
8
1
62
256
6
ByLayer
370
18
48
1
60
0
100
AcDbSpline
70
4
71
3
72
29
73
25
40
0
40
0
40
0
40
0
40
0.0625000000000036
40
0.0625000000000036
40
0.125000000000007
40
0.125000000000007
40
0.250000000000013
40
0.250000000000013
40
0.37500000000002
40
0.37500000000002
40
0.437500000000023
40
0.437500000000023
40
0.500000000000026
40
0.500000000000026
40
0.625000000000032
40
0.625000000000032
40
0.687500000000027
40
0.718750000000024
40
0.718750000000024
40
0.750000000000022
40
0.750000000000022
40
0.875000000000011
40
0.875000000000011
40
1
40
1
40
1
40
1
41
1
10
42.5269681336289
20
1.99877155268174
30
0
41
1
10
42.5544730809025
20
1.98057114371892
30
0
41
1
10
42.5821222345519
20
1.96184698372028
30
0
41
1
10
42.637717281187
20
1.92332091987171
30
0
41
1
10
42.6656984422995
20
1.90349349045758
30
0
41
1
10
42.7498849607384
20
1.84248574747431
30
0
41
1
10
42.8052214049495
20
1.80059862778273
30
0
41
1
10
42.9143508882772
20
1.71444377790587
30
0
41
1
10
42.9681418000464
20
1.67017276641371
30
0
41
1
10
43.0476182627568
20
1.60190004281458
30
0
41
1
10
43.0739442109286
20
1.57879749726558
30
0
41
1
10
43.1260198716648
20
1.53207417298677
30
0
41
1
10
43.1514906361831
20
1.50870501382153
30
0
41
1
10
43.2262406155837
20
1.43857555931481
30
0
41
1
10
43.2738681479381
20
1.39179342751714
30
0
41
1
10
43.3420235605017
20
1.32157678800638
30
0
41
1
10
43.3752735147686
20
1.28645752476805
30
0
41
1
10
43.4072542459103
20
1.25132148146361
30
0
41
1
10
43.4282886596557
20
1.22789367049148
30
0
41
1
10
43.4386475902224
20
1.21619442327486
30
0
41
1
10
43.4892766640523
20
1.15819567874723
30
0
41
1
10
43.526396726757
20
1.11300408548513
30
0
41
1
10
43.5941082555511
20
1.02495083849863
30
0
41
1
10
43.6247482352392
20
0.98207187113718
30
0
41
1
10
43.6520721657134
20
0.940376342518789
30
0
0
SPLINE
5
105
100
AcDbEntity
8
1
62
256
6
ByLayer
370
18
48
1
60
0
100
AcDbSpline
70
4
71
3
72
45
73
41
40
0
40
0
40
0
40
0
40
0.0624999999997584
40
0.0624999999997584
40
0.0937499999996376
40
0.0937499999996376
40
0.124999999999517
40
0.156249999999396
40
0.156249999999396
40
0.187499999999275
40
0.187499999999275
40
0.249999999999034
40
0.249999999999034
40
0.265624999998999
40
0.265624999998999
40
0.281249999998963
40
0.281249999998963
40
0.289062499998963
40
0.289062499998963
40
0.292968749998962
40
0.292968749998962
40
0.296874999998962
40
0.296874999998962
40
0.31249999999896
40
0.31249999999896
40
0.34374999999899
40
0.34374999999899
40
0.374999999999021
40
0.374999999999021
40
0.437499999999115
40
0.437499999999115
40
0.49999999999921
40
0.49999999999921
40
0.562499999999304
40
0.562499999999304
40
0.624999999999399
40
0.624999999999399
40
0.749999999999588
40
0.749999999999588
40
1
40
1
40
1
40
1
41
1
10
41.4999992867308
20
2.3318823478254
30
0
41
1
10
41.5207742834808
20
2.32919637740841
30
0
41
1
10
41.5415519714227
20
2.32637213711189
30
0
41
1
10
41.5726923769075
20
2.32208678686084
30
0
41
1
10
41.5830628413243
20
2.32067564544971
30
0
41
1
10
41.6037875536376
20
2.31786839270544
30
0
41
1
10
41.6245045436008
20
2.31503387467526
30
0
41
1
10
41.645302177678
20
2.31171035230233
30
0
41
1
10
41.6661950110789
20
2.3079167474443
30
0
41
1
10
41.6766872481948
20
2.30579438061204
30
0
41
1
10
41.7082717223844
20
2.29892355804804
30
0
41
1
10
41.729478456003
20
2.29364866983977
30
0
41
1
10
41.7560201248793
20
2.28691690139883
30
0
41
1
10
41.7613290352706
20
2.28556775414126
30
0
41
1
10
41.7719404061141
20
2.28289535883212
30
0
41
1
10
41.7772385652779
20
2.2815898618455
30
0
41
1
10
41.7851895312115
20
2.27961475511944
30
0
41
1
10
41.7878444389777
20
2.27893713754389
30
0
41
1
10
41.7918555401226
20
2.27780293441464
30
0
41
1
10
41.7931950879387
20
2.27741468591907
30
0
41
1
10
41.7958375977188
20
2.27678807598784
30
0
41
1
10
41.79715715769
20
2.27648158118089
30
0
41
1
10
41.8037980669673
20
2.27477263932823
30
0
41
1
10
41.8091507582907
20
2.27324241240433
30
0
41
1
10
41.8252089762437
20
2.26865668874592
30
0
41
1
10
41.8359181042071
20
2.26559013654605
30
0
41
1
10
41.857327764892
20
2.25950070692352
30
0
41
1
10
41.8680342677176
20
2.25645359614447
30
0
41
1
10
41.900199781297
20
2.24714856644414
30
0
41
1
10
41.9217242798584
20
2.24065228300967
30
0
41
1
10
41.9649641522653
20
2.22702962698247
30
0
41
1
10
41.9866700379987
20
2.21993955343424
30
0
41
1
10
42.0302451212834
20
2.20528840068906
30
0
41
1
10
42.0521172632898
20
2.19771613504855
30
0
41
1
10
42.0960479632676
20
2.18206883841526
30
0
41
1
10
42.1181365040291
20
2.17398137842042
30
0
41
1
10
42.1839912986312
20
2.1492260974085
30
0
41
1
10
42.2275667857741
20
2.13199022937795
30
0
41
1
10
42.3573848277164
20
2.0782534334688
30
0
41
1
10
42.4427335450837
20
2.03975597694276
30
0
41
1
10
42.5269681336289
20
1.99877155268189
30
0
0
SPLINE
5
106
100
AcDbEntity
8
1
62
256
6
ByLayer
370
18
48
1
60
0
100
AcDbSpline
70
4
71
3
72
8
73
4
40
0
40
0
40
0
40
0
40
1
40
1
40
1
40
1
41
1
10
43.6520721657186
20
0.940376342512195
30
0
41
1
10
43.7017210628642
20
0.833442506717091
30
0
41
1
10
43.752819272081
20
0.728742980263746
30
0
41
1
10
43.8048576091984
20
0.625634651701318
30
0
0
SPLINE
5
107
100
AcDbEntity
8
1
62
256
6
ByLayer
370
18
48
1
60
0
100
AcDbSpline
70
4
71
3
72
8
73
4
40
0
40
0
40
0
40
0
40
1
40
1
40
1
40
1
41
1
10
42.6787213501629
20
0.914655096471307
30
0
41
1
10
42.7175820658493
20
0.87391590062947
30
0
41
1
10
42.7576845240118
20
0.833673766116419
30
0
41
1
10
42.7990852847412
20
0.793951333563001
30
0
0
SPLINE
5
108
100
AcDbEntity
8
1
62
256
6
ByLayer
370
18
48
1
60
0
100
AcDbSpline
70
4
71
3
72
21
73
17
40
0
40
0
40
0
40
0
40
0.125000000000018
40
0.125000000000018
40
0.187500000000027
40
0.187500000000027
40
0.250000000000036
40
0.500000000000036
40
0.500000000000036
40
0.750000000000037
40
0.750000000000037
40
0.875000000000018
40
0.875000000000018
40
0.937500000000009
40
0.937500000000009
40
1
40
1
40
1
40
1
41
1
10
42.8775769432451
20
-1.98851616898466
30
0
41
1
10
42.8453986379813
20
-2.00495703253372
30
0
41
1
10
42.812728008143
20
-2.02041176538029
30
0
41
1
10
42.7629692962776
20
-2.04207713831829
30
0
41
1
10
42.7462346200437
20
-2.04905450178131
30
0
41
1
10
42.7127078094878
20
-2.06241950998191
30
0
41
1
10
42.6286621847877
20
-2.09439715091099
30
0
41
1
10
42.5435175798074
20
-2.11929062472606
30
0
41
1
10
42.4059585965668
20
-2.15031441406043
30
0
41
1
10
42.3364989613608
20
-2.16142976547732
30
0
41
1
10
42.2311909712312
20
-2.17147671602561
30
0
41
1
10
42.1959019465575
20
-2.17371944071655
30
0
41
1
10
42.1426772647632
20
-2.17540336449804
30
0
41
1
10
42.1248623905895
20
-2.17568436067236
30
0
41
1
10
42.0892646342367
20
-2.17568189129389
30
0
41
1
10
42.0714944576161
20
-2.17539938379088
30
0
41
1
10
42.0537521546224
20
-2.17484008070971
30
0
0
SPLINE
5
109
100
AcDbEntity
8
1
62
256
6
ByLayer
370
18
48
1
60
0
100
AcDbSpline
70
4
71
3
72
8
73
4
40
0
40
0
40
0
40
0
40
1
40
1
40
1
40
1
41
1
10
42.0124188119764
20
-2.17466626740736
30
0
41
1
10
42.0265893718922
20
-2.17434433897898
30
0
41
1
10
42.0403571686669
20
-2.17441782115779
30
0
41
1
10
42.053752154612
20
-2.1748400807094
30
0
0
SPLINE
5
10A
100
AcDbEntity
8
1
62
256
6
ByLayer
370
18
48
1
60
0
100
AcDbSpline
70
4
71
3
72
27
73
23
40
0
40
0
40
0
40
0
40
3.7156938453E-06
40
0.0133247561557836
40
0.0300700567554725
40
0.0570346236367946
40
0.0881452881181065
40
0.104914697634033
40
0.109329329115604
40
0.110448233889177
40
0.111470952012929
40
0.113642102916925
40
0.122059857692535
40
0.153649666320891
40
0.189445179802372
40
0.345143976034449
40
0.560640583666544
40
0.649783977469324
40
0.782056927960544
40
0.866911171404893
40
0.985411948054697
40
1
40
1
40
1
40
1
41
1
10
41.4999957565096
20
2.29537504112142
30
0
41
1
10
41.5000055421571
20
2.29537297687745
30
0
41
1
10
41.5126448222143
20
2.29270676311427
30
0
41
1
10
41.5413056079109
20
2.28657569195767
30
0
41
1
10
41.595206167568
20
2.27457732155503
30
0
41
1
10
41.6654251014404
20
2.25954766075057
30
0
41
1
10
41.7352675918183
20
2.23665035535598
30
0
41
1
10
41.7839595616981
20
2.21921633404074
30
0
41
1
10
41.804768750847
20
2.21179049747741
30
0
41
1
10
41.8107816086914
20
2.20954811057066
30
0
41
1
10
41.8148804217127
20
2.20808349476701
30
0
41
1
10
41.8257898662393
20
2.20402636372131
30
0
41
1
10
41.8652620603754
20
2.18885261240885
30
0
41
1
10
41.9362808806551
20
2.16081120026962
30
0
41
1
10
42.1435647321907
20
2.07170220011793
30
0
41
1
10
42.5121685489866
20
1.88069602428394
30
0
41
1
10
42.897362733178
20
1.61629219657431
30
0
41
1
10
43.2253237617063
20
1.3391006427922
30
0
41
1
10
43.4333901795566
20
1.13295101261787
30
0
41
1
10
43.6328303661094
20
0.896315371538066
30
0
41
1
10
43.7422804338962
20
0.736554146948436
30
0
41
1
10
43.7987944153734
20
0.63661525686399
30
0
41
1
10
43.804857609208
20
0.625634651685232
30
0
0
SPLINE
5
10B
100
AcDbEntity
8
1
62
256
6
ByLayer
370
18
48
1
60
0
100
AcDbSpline
70
4
71
3
72
8
73
4
40
0
40
0
40
0
40
0
40
1
40
1
40
1
40
1
41
1
10
43.9715261292548
20
-0.184979887576304
30
0
41
1
10
43.9770742580958
20
-0.117205383707528
30
0
41
1
10
43.9801331839806
20
-0.049129143830811
30
0
41
1
10
43.9807167801506
20
0.0192471503683862
30
0
0
SPLINE
5
10C
100
AcDbEntity
8
1
62
256
6
ByLayer
370
18
48
1
60
0
100
AcDbSpline
70
4
71
3
72
22
73
18
40
0
40
0
40
0
40
0
40
0.125000000000021
40
0.125000000000021
40
0.250000000000043
40
0.250000000000043
40
0.312500000000041
40
0.312500000000041
40
0.375000000000038
40
0.375000000000038
40
0.50000000000003
40
0.50000000000003
40
0.625000000000023
40
0.625000000000023
40
0.750000000000015
40
0.750000000000015
40
1
40
1
40
1
40
1
41
1
10
43.9715261292521
20
-0.184979887589918
30
0
41
1
10
43.9725085522862
20
-0.187400755724241
30
0
41
1
10
43.9734271391596
20
-0.190204162222074
30
0
41
1
10
43.9750652995308
20
-0.196922823224924
30
0
41
1
10
43.9757744004591
20
-0.200824390336322
30
0
41
1
10
43.9765488583446
20
-0.207522139493079
30
0
41
1
10
43.9767617918441
20
-0.209931675146493
30
0
41
1
10
43.9770667865588
20
-0.214941885056845
30
0
41
1
10
43.9771605109455
20
-0.217543853482994
30
0
41
1
10
43.9772597362911
20
-0.225643701231633
30
0
41
1
10
43.9770712838869
20
-0.231494597304646
30
0
41
1
10
43.976263626541
20
-0.24309025433115
30
0
41
1
10
43.9756429415302
20
-0.248956076654338
30
0
41
1
10
43.9741457577418
20
-0.260207495610473
30
0
41
1
10
43.9732621282242
20
-0.265688512931121
30
0
41
1
10
43.9703259794533
20
-0.281744427745338
30
0
41
1
10
43.9680622862266
20
-0.291616009027251
30
0
41
1
10
43.9656274253301
20
-0.301046344679378
30
0
0
SPLINE
5
10D
100
AcDbEntity
8
1
62
256
6
ByLayer
370
18
48
1
60
0
100
AcDbSpline
70
4
71
3
72
8
73
4
40
0
40
0
40
0
40
0
40
1
40
1
40
1
40
1
41
1
10
43.9537539933464
20
-0.345161102318258
30
0
41
1
10
43.9578447060707
20
-0.330563395056373
30
0
41
1
10
43.9618035117266
20
-0.315856549581525
30
0
41
1
10
43.9656274253299
20
-0.30104634468006
30
0
0
SPLINE
5
10E
100
AcDbEntity
8
1
62
256
6
ByLayer
370
18
48
1
60
0
100
AcDbSpline
70
4
71
3
72
8
73
4
40
0
40
0
40
0
40
0
40
1
40
1
40
1
40
1
41
1
10
43.8928886409622
20
-0.652912135294372
30
0
41
1
10
43.9190117733084
20
-0.551035725604578
30
0
41
1
10
43.9392753076481
20
-0.448449027624974
30
0
41
1
10
43.9537539933464
20
-0.345161102318258
30
0
0
SPLINE
5
10F
100
AcDbEntity
8
1
62
256
6
ByLayer
370
18
48
1
60
0
100
AcDbSpline
70
4
71
3
72
28
73
24
40
0
40
0
40
0
40
0
40
0.250000000000037
40
0.250000000000037
40
0.375000000000036
40
0.375000000000036
40
0.500000000000036
40
0.500000000000036
40
0.625000000000035
40
0.625000000000035
40
0.687500000000034
40
0.687500000000034
40
0.750000000000034
40
0.750000000000034
40
0.812500000000033
40
0.812500000000033
40
0.875000000000033
40
0.875000000000033
40
0.906250000000033
40
0.906250000000033
40
0.937500000000033
40
0.937500000000033
40
1
40
1
40
1
40
1
41
1
10
43.8928886409622
20
-0.652912135294372
30
0
41
1
10
43.8862572180429
20
-0.678773718399952
30
0
41
1
10
43.8790441093189
20
-0.704151782669442
30
0
41
1
10
43.8672271898946
20
-0.74126791438286
30
0
41
1
10
43.8631211294731
20
-0.753480007521489
30
0
41
1
10
43.8545307411292
20
-0.777507089211412
30
0
41
1
10
43.8500475420539
20
-0.789324053582675
30
0
41
1
10
43.8406217185129
20
-0.812419773469173
30
0
41
1
10
43.8356403084549
20
-0.823773765114055
30
0
41
1
10
43.8280459807093
20
-0.83947315666407
30
0
41
1
10
43.8254855043272
20
-0.844505967897192
30
0
41
1
10
43.8203073538266
20
-0.854065103249212
30
0
41
1
10
43.8176700697568
20
-0.858623757536662
30
0
41
1
10
43.8124360034512
20
-0.866899991309452
30
0
41
1
10
43.8098577893474
20
-0.870594144998961
30
0
41
1
10
43.8048281961447
20
-0.876830070078114
30
0
41
1
10
43.8023953686687
20
-0.879331736950718
30
0
41
1
10
43.7990903631226
20
-0.881798252998067
30
0
41
1
10
43.7980384686299
20
-0.882415515860373
30
0
41
1
10
43.796046648299
20
-0.88320145923916
30
0
41
1
10
43.7951014234364
20
-0.8833661918367
30
0
41
1
10
43.792546628793
20
-0.883135896793647
30
0
41
1
10
43.7911834634749
20
-0.882045906086859
30
0
41
1
10
43.7901466875055
20
-0.880071802833527
30
0
0
SPLINE
5
110
100
AcDbEntity
8
1
62
256
6
ByLayer
370
18
48
1
60
0
100
AcDbSpline
70
4
71
3
72
29
73
25
40
0
40
0
40
0
40
0
40
0.0624999999999955
40
0.0624999999999955
40
0.124999999999991
40
0.124999999999991
40
0.249999999999974
40
0.249999999999974
40
0.374999999999957
40
0.374999999999957
40
0.437499999999948
40
0.468749999999944
40
0.468749999999944
40
0.499999999999939
40
0.499999999999939
40
0.62499999999995
40
0.62499999999995
40
0.749999999999961
40
0.749999999999961
40
0.874999999999972
40
0.874999999999972
40
0.937499999999986
40
0.937499999999986
40
1
40
1
40
1
40
1
41
1
10
43.8929689407076
20
-0.721416258539023
30
0
41
1
10
43.8823190508244
20
-0.756460577713511
30
0
41
1
10
43.8708821007594
20
-0.791225777474011
30
0
41
1
10
43.8464310250264
20
-0.860192273843523
30
0
41
1
10
43.8334861440746
20
-0.894206136847401
30
0
41
1
10
43.7925758067761
20
-0.99466711181023
30
0
41
1
10
43.7625019760633
20
-1.05961075286353
30
0
41
1
10
43.6968290246301
20
-1.18547168325853
30
0
41
1
10
43.661246707682
20
-1.24639615078755
30
0
41
1
10
43.6037388664065
20
-1.33476154870644
30
0
41
1
10
43.5739458116186
20
-1.37818690083122
30
0
41
1
10
43.5425713554793
20
-1.42046367392788
30
0
41
1
10
43.5213007284108
20
-1.44839102812898
30
0
41
1
10
43.510486945884
20
-1.46222666666557
30
0
41
1
10
43.4558394757026
20
-1.53036581877117
30
0
41
1
10
43.4100299416201
20
-1.58188205468224
30
0
41
1
10
43.3143302723624
20
-1.67911423637392
30
0
41
1
10
43.2644425231254
20
-1.72483224738011
30
0
41
1
10
43.1606171651429
20
-1.81050693629987
30
0
41
1
10
43.1066743491641
20
-1.85045873342551
30
0
41
1
10
43.0226342377547
20
-1.90592763615663
30
0
41
1
10
42.9941088011966
20
-1.92366159317186
30
0
41
1
10
42.9364060112526
20
-1.95736545278402
30
0
41
1
10
42.9071797936631
20
-1.97336863243848
30
0
41
1
10
42.8775769432451
20
-1.98851616898466
30
0
0
SPLINE
5
111
100
AcDbEntity
8
1
62
256
6
ByLayer
370
18
48
1
60
0
100
AcDbSpline
70
4
71
3
72
12
73
8
40
0
40
0
40
0
40
0
40
0.5
40
0.5
40
0.75
40
0.75
40
1
40
1
40
1
40
1
41
1
10
43.9992279170352
20
-0.0476002698647733
30
0
41
1
10
43.9950798760714
20
-0.161670174998136
30
0
41
1
10
43.9841365268087
20
-0.27498912795599
30
0
41
1
10
43.9575308015869
20
-0.443841379893058
30
0
41
1
10
43.9469480286869
20
-0.499963760166907
30
0
41
1
10
43.9224649071627
20
-0.611284416595367
30
0
41
1
10
43.9085485419346
20
-0.666547558813278
30
0
41
1
10
43.8929689407076
20
-0.721416258539051
30
0
0
SPLINE
5
112
100
AcDbEntity
8
1
62
256
6
ByLayer
370
18
48
1
60
0
100
AcDbSpline
70
4
71
3
72
8
73
4
40
0
40
0
40
0
40
0
40
1
40
1
40
1
40
1
41
1
10
43.9992279169671
20
-0.0476002699402045
30
0
41
1
10
43.9993965706697
20
-0.0384986620091183
30
0
41
1
10
43.9995163027966
20
-0.0293578601423405
30
0
41
1
10
43.9995859588997
20
-0.0201772288833411
30
0
0
SPLINE
5
113
100
AcDbEntity
8
1
62
256
6
ByLayer
370
18
48
1
60
0
100
AcDbSpline
70
4
71
3
72
8
73
4
40
0
40
0
40
0
40
0
40
1
40
1
40
1
40
1
41
1
10
43.9995859589914
20
-0.0201772207772422
30
0
41
1
10
43.9964133588925
20
-0.0298368428650235
30
0
41
1
10
43.9932213950294
20
-0.0394943662838614
30
0
41
1
10
43.9900091360407
20
-0.0491496735276939
30
0
0
SPLINE
5
114
100
AcDbEntity
8
1
62
256
6
ByLayer
370
18
48
1
60
0
100
AcDbSpline
70
4
71
3
72
8
73
4
40
0
40
0
40
0
40
0
40
1
40
1
40
1
40
1
41
1
10
43.9902518218712
20
0.0171093952793626
30
0
41
1
10
43.9904272210888
20
-0.0049764953226088
30
0
41
1
10
43.9903462893855
20
-0.0270628174654348
30
0
41
1
10
43.9900091360407
20
-0.0491496735276939
30
0
0
SPLINE
5
115
100
AcDbEntity
8
1
62
256
6
ByLayer
370
18
48
1
60
0
100
AcDbSpline
70
4
71
3
72
8
73
4
40
0
40
0
40
0
40
0
40
1
40
1
40
1
40
1
41
1
10
42.678721350158
20
0.914655096469346
30
0
41
1
10
42.6448105221299
20
0.911069844533159
30
0
41
1
10
42.6108483442508
20
0.907858092817293
30
0
41
1
10
42.5768401635664
20
0.904980948848475
30
0
0
SPLINE
5
116
100
AcDbEntity
8
1
62
256
6
ByLayer
370
18
48
1
60
0
100
AcDbSpline
70
4
71
3
72
8
73
4
40
0
40
0
40
0
40
0
40
1
40
1
40
1
40
1
41
1
10
42.4745896184734
20
1.11535019612666
30
0
41
1
10
42.5404371305883
20
1.04553978274987
30
0
41
1
10
42.6082810060221
20
0.978573172428071
30
0
41
1
10
42.678721350161
20
0.914655096472842
30
0
0
SPLINE
5
117
100
AcDbEntity
8
1
62
256
6
ByLayer
370
13
48
1
60
0
100
AcDbSpline
70
4
71
3
72
8
73
4
40
0
40
0
40
0
40
0
40
1
40
1
40
1
40
1
41
1
10
40.4051578595823
20
1.30329770371898
30
0
41
1
10
41.1801671758321
20
1.14584494967633
30
0
41
1
10
41.9551764920819
20
0.925814826834568
30
0
41
1
10
42.7301858083317
20
0.670859065225017
30
0
0
SPLINE
5
118
100
AcDbEntity
8
1
62
256
6
ByLayer
370
18
48
1
60
0
100
AcDbSpline
70
4
71
3
72
35
73
31
40
0
40
0
40
0
40
0
40
0.0625000000000137
40
0.0625000000000137
40
0.125000000000027
40
0.125000000000027
40
0.187500000000041
40
0.187500000000041
40
0.250000000000055
40
0.250000000000055
40
0.312500000000068
40
0.312500000000068
40
0.375000000000082
40
0.437500000000096
40
0.437500000000096
40
0.500000000000109
40
0.500000000000109
40
0.562500000000123
40
0.562500000000123
40
0.625000000000137
40
0.625000000000137
40
0.750000000000164
40
0.750000000000164
40
0.812500000000123
40
0.812500000000123
40
0.875000000000082
40
0.875000000000082
40
0.937500000000041
40
0.937500000000041
40
1
40
1
40
1
40
1
41
1
10
43.5568280991751
20
0.244136148953061
30
0
41
1
10
43.5569237322733
20
0.244862145440777
30
0
41
1
10
43.5568555452374
20
0.246203885128466
30
0
41
1
10
43.5567745366628
20
0.249872007478189
30
0
41
1
10
43.5567602273399
20
0.252202860827879
30
0
41
1
10
43.5570386464628
20
0.257741008130438
30
0
41
1
10
43.5573346515453
20
0.260971712877904
30
0
41
1
10
43.5583858527723
20
0.268045701633497
30
0
41
1
10
43.5591384578205
20
0.271902943956945
30
0
41
1
10
43.5612061301076
20
0.280181057311353
30
0
41
1
10
43.5625339199673
20
0.284638762017494
30
0
41
1
10
43.5657862322776
20
0.293876833659709
30
0
41
1
10
43.5696212312767
20
0.30342215712065
30
0
41
1
10
43.5747127911907
20
0.313464341084625
30
0
41
1
10
43.5805074406906
20
0.323711110035191
30
0
41
1
10
43.5837136089854
20
0.328856820743226
30
0
41
1
10
43.5906945265034
20
0.339016847174605
30
0
41
1
10
43.5944799019811
20
0.344051284825667
30
0
41
1
10
43.6026958056618
20
0.353965706673193
30
0
41
1
10
43.6071585972718
20
0.358873626274715
30
0
41
1
10
43.6212251573768
20
0.372817540003524
30
0
41
1
10
43.6316010286105
20
0.38126082206395
30
0
41
1
10
43.6490004811272
20
0.391747122310392
30
0
41
1
10
43.6549899831842
20
0.394797033413369
30
0
41
1
10
43.6674162199048
20
0.399842602773106
30
0
41
1
10
43.6739101761739
20
0.401848189011758
30
0
41
1
10
43.6871836857839
20
0.404509488218849
30
0
41
1
10
43.693859128631
20
0.405149972334073
30
0
41
1
10
43.7072610140984
20
0.405091245151851
30
0
41
1
10
43.7140099200996
20
0.404373636227291
30
0
41
1
10
43.7204832133407
20
0.403151301635205
30
0
0
SPLINE
5
119
100
AcDbEntity
8
1
62
256
6
ByLayer
370
18
48
1
60
0
100
AcDbSpline
70
4
71
3
72
8
73
4
40
0
40
0
40
0
40
0
40
1
40
1
40
1
40
1
41
1
10
36.1907810354242
20
-1.8794601021448
30
0
41
1
10
36.2932117436297
20
-1.89293757664436
30
0
41
1
10
36.3965029394489
20
-1.91192346183792
30
0
41
1
10
36.5
20
-1.93627969871619
30
0
0
SPLINE
5
11A
100
AcDbEntity
8
1
62
256
6
ByLayer
370
18
48
1
60
0
100
AcDbSpline
70
4
71
3
72
8
73
4
40
0
40
0
40
0
40
0
40
1
40
1
40
1
40
1
41
1
10
36.5535791557549
20
-2.37514664458234
30
0
41
1
10
36.5356904751968
20
-2.37647304093616
30
0
41
1
10
36.5178304870197
20
-2.37772601473566
30
0
41
1
10
36.5
20
-2.37890335961868
30
0
0
SPLINE
5
11B
100
AcDbEntity
8
1
62
256
6
ByLayer
370
18
48
1
60
0
100
AcDbSpline
70
4
71
3
72
25
73
21
40
0
40
0
40
0
40
0
40
0.0370967320471462
40
0.0766794916182673
40
0.118750630683276
40
0.163311692294646
40
0.210363536570306
40
0.259906433640333
40
0.31194013291358
40
0.366463915073798
40
0.423476631282169
40
0.48297673276946
40
0.544962293118782
40
0.609431024927739
40
0.676380292107739
40
0.745807118769787
40
0.817708195423172
40
0.892079883049638
40
0.966084853660581
40
1
40
1
40
1
40
1
41
1
10
36.5548086562002
20
-2.37550061353525
30
0
41
1
10
36.5549582968583
20
-2.37051030688662
30
0
41
1
10
36.5552676063028
20
-2.36019526953103
30
0
41
1
10
36.5554600176914
20
-2.3441799022178
30
0
41
1
10
36.5554806488968
20
-2.32710668610145
30
0
41
1
10
36.5553043892993
20
-2.30895188935381
30
0
41
1
10
36.5549384746345
20
-2.28969327242692
30
0
41
1
10
36.5543806996839
20
-2.26930681659704
30
0
41
1
10
36.5536316260611
20
-2.24776775708906
30
0
41
1
10
36.5526910279423
20
-2.22505036565866
30
0
41
1
10
36.551558915416
20
-2.20112810420582
30
0
41
1
10
36.5502352496334
20
-2.17597367337251
30
0
41
1
10
36.5487199721977
20
-2.14955911528531
30
0
41
1
10
36.5470131964046
20
-2.12185584003225
30
0
41
1
10
36.5451143556179
20
-2.09283494918267
30
0
41
1
10
36.5430255869629
20
-2.06246642316375
30
0
41
1
10
36.5407383898332
20
-2.03072281262882
30
0
41
1
10
36.5383172267569
20
-1.99798632201634
30
0
41
1
10
36.5361471084985
20
-1.97065524142869
30
0
41
1
10
36.5347223406751
20
-1.95439028423925
30
0
41
1
10
36.5342599208529
20
-1.94927073765251
30
0
0
SPLINE
5
11C
100
AcDbEntity
8
1
62
256
6
ByLayer
370
18
48
1
60
0
100
AcDbSpline
70
4
71
3
72
14
73
10
40
0
40
0
40
0
40
0
40
0.25
40
0.25
40
0.5
40
0.5
40
0.75
40
0.75
40
1
40
1
40
1
40
1
41
1
10
43.7901466875055
20
-0.880071802833555
30
0
41
1
10
43.7878596169585
20
-0.873219182783998
30
0
41
1
10
43.7865838944973
20
-0.86497532381523
30
0
41
1
10
43.785130950725
20
-0.846925729902551
30
0
41
1
10
43.7849853559376
20
-0.837018181797475
30
0
41
1
10
43.7854405714763
20
-0.816713138496766
30
0
41
1
10
43.786037080727
20
-0.806232701022367
30
0
41
1
10
43.7877249057156
20
-0.784787113579739
30
0
41
1
10
43.7888192985788
20
-0.773819536281962
30
0
41
1
10
43.7900955159555
20
-0.762651702589068
30
0
0
SPLINE
5
11D
100
AcDbEntity
8
1
62
256
6
ByLayer
370
18
48
1
60
0
100
AcDbSpline
70
4
71
3
72
8
73
4
40
0
40
0
40
0
40
0
40
1
40
1
40
1
40
1
41
1
10
43.8016672737452
20
-0.653924257121901
30
0
41
1
10
43.7980877605987
20
-0.690350473901049
30
0
41
1
10
43.7942171794265
20
-0.72658413837587
30
0
41
1
10
43.7900955159554
20
-0.762651702589068
30
0
0
SPLINE
5
11E
100
AcDbEntity
8
1
62
256
6
ByLayer
370
18
48
1
60
0
100
AcDbSpline
70
4
71
3
72
8
73
4
40
0
40
0
40
0
40
0
40
1
40
1
40
1
40
1
41
1
10
39.8640768798259
20
-1.41471836003692
30
0
41
1
10
38.7427179198839
20
-1.20963859807148
30
0
41
1
10
37.6213589599419
20
-0.859449371725958
30
0
41
1
10
36.5
20
-0.458013808702418
30
0
0
SPLINE
5
11F
100
AcDbEntity
8
1
62
256
6
ByLayer
370
18
48
1
60
0
100
AcDbSpline
70
4
71
3
72
42
73
38
40
0
40
0
40
0
40
0
40
0.108245546605454
40
0.108245546605454
40
0.162368319908151
40
0.162368319908151
40
0.216491093210849
40
0.270613866513546
40
0.270613866513546
40
0.324736639816243
40
0.432982186421639
40
0.432982186421639
40
0.487104959724337
40
0.487104959724337
40
0.514166346375686
40
0.514166346375686
40
0.520931693038569
40
0.520931693038569
40
0.527697039701453
40
0.527697039701453
40
0.534462386364336
40
0.534462386364336
40
0.541227733027219
40
0.541227733027219
40
0.56828911967863
40
0.56828911967863
40
0.595350506330041
40
0.595350506330041
40
0.649473279632924
40
0.649473279632924
40
0.757718826238691
40
0.757718826238691
40
0.865964372844459
40
0.865964372844459
40
0.974209919450226
40
0.974209919450226
40
1
40
1
40
1
40
1
41
1
10
41.4999993017817
20
-2.32301751386086
30
0
41
1
10
41.5199136288012
20
-2.32029238326092
30
0
41
1
10
41.5398317560605
20
-2.31744583782071
30
0
41
1
10
41.5696874305325
20
-2.31311440676521
30
0
41
1
10
41.5796314070758
20
-2.31167788459709
30
0
41
1
10
41.5994976801664
20
-2.30883930788144
30
0
41
1
10
41.6193510164009
20
-2.30599846248177
30
0
41
1
10
41.6392740164243
20
-2.30278422180606
30
0
41
1
10
41.6592868298449
20
-2.29918889761868
30
0
41
1
10
41.6894541079191
20
-2.29317397232091
30
0
41
1
10
41.7199980155621
20
-2.28567175648851
30
0
41
1
10
41.7506286489982
20
-2.27785554722155
30
0
41
1
10
41.7608509376692
20
-2.27520556910892
30
0
41
1
10
41.7761555464257
20
-2.27132917591689
30
0
41
1
10
41.7812366848528
20
-2.27010752259824
30
0
41
1
10
41.7876344666871
20
-2.26841791071874
30
0
41
1
10
41.7889173399303
20
-2.26806841513871
30
0
41
1
10
41.7914935350498
20
-2.26733320440158
30
0
41
1
10
41.7927841629484
20
-2.26695692409061
30
0
41
1
10
41.7953251091025
20
-2.26634416320493
30
0
41
1
10
41.796592450496
20
-2.26604852320031
30
0
41
1
10
41.7991470536613
20
-2.26538817934971
30
0
41
1
10
41.8004293056404
20
-2.26504086068059
30
0
41
1
10
41.8068444888586
20
-2.26329087658988
30
0
41
1
10
41.8119996515975
20
-2.2618119592365
30
0
41
1
10
41.8223155795228
20
-2.25883755687118
30
0
41
1
10
41.8274731487051
20
-2.25735280496224
30
0
41
1
10
41.84293976604
20
-2.2529221239964
30
0
41
1
10
41.8532463595983
20
-2.24998710588611
30
0
41
1
10
41.8841927585832
20
-2.2411038654528
30
0
41
1
10
41.9048752956525
20
-2.23502279625288
30
0
41
1
10
41.9464642956313
20
-2.22219845710416
30
0
41
1
10
41.9673533629502
20
-2.21551379130628
30
0
41
1
10
42.0092956419427
20
-2.20172659246879
30
0
41
1
10
42.0303511779753
20
-2.19461610596304
30
0
41
1
10
42.0565379114446
20
-2.18553858726824
30
0
41
1
10
42.0615832738985
20
-2.18377886129346
30
0
41
1
10
42.0666320888634
20
-2.18200725392842
30
0
0
SPLINE
5
120
100
AcDbEntity
8
1
62
256
6
ByLayer
370
18
48
1
60
0
100
AcDbSpline
70
4
71
3
72
12
73
8
40
0
40
0
40
0
40
0
40
0.322119552040929
40
0.563709216071626
40
0.805298880102322
40
0.966358656122787
40
1
40
1
40
1
40
1
41
1
10
36.5000000000001
20
-1.77684230957203
30
0
41
1
10
36.9166666666667
20
-1.94130082815025
30
0
41
1
10
37.6458333333334
20
-2.18233995335265
30
0
41
1
10
38.6875000000001
20
-2.39677192650245
30
0
41
1
10
39.5208333333334
20
-2.47201306909344
30
0
41
1
10
40.0851822698851
20
-2.46450874422129
30
0
41
1
10
40.3370312064369
20
-2.44798813867138
30
0
41
1
10
40.3805468096553
20
-2.44474613089389
30
0
0
SPLINE
5
121
100
AcDbEntity
8
1
62
256
6
ByLayer
370
18
48
1
60
0
100
AcDbSpline
70
4
71
3
72
31
73
27
40
0
40
0
40
0
40
0
40
0.124999999999987
40
0.124999999999987
40
0.156249999999984
40
0.156249999999984
40
0.187499999999981
40
0.187499999999981
40
0.249999999999981
40
0.249999999999981
40
0.374999999999981
40
0.374999999999981
40
0.437499999999984
40
0.437499999999984
40
0.499999999999987
40
0.499999999999987
40
0.624999999999994
40
0.624999999999994
40
0.6875
40
0.71875
40
0.71875
40
0.75
40
0.75
40
0.875
40
0.875
40
1
40
1
40
1
40
1
41
1
10
41.5
20
-2.32302572870282
30
0
41
1
10
41.2933298172738
20
-2.3507041389405
30
0
41
1
10
41.0869587873453
20
-2.37067462706054
30
0
41
1
10
40.8288376374079
20
-2.38542687939685
30
0
41
1
10
40.7772052195548
20
-2.38786600806472
30
0
41
1
10
40.6739093830979
20
-2.39170433444369
30
0
41
1
10
40.6222317840777
20
-2.39310343299732
30
0
41
1
10
40.4673619187878
20
-2.39571154995991
30
0
41
1
10
40.3642681301613
20
-2.39533512578075
30
0
41
1
10
40.0552748650995
20
-2.38772124476827
30
0
41
1
10
39.8496614389614
20
-2.37399453184329
30
0
41
1
10
39.5409981243531
20
-2.3411662203479
30
0
41
1
10
39.4380704855385
20
-2.32818050776771
30
0
41
1
10
39.2319974039015
20
-2.29824109747739
30
0
41
1
10
39.1287974954716
20
-2.28127458930729
30
0
41
1
10
38.8197202490514
20
-2.2247866947539
30
0
41
1
10
38.6140468604796
20
-2.17964535113347
30
0
41
1
10
38.3052965677002
20
-2.10150940736639
30
0
41
1
10
38.1508617257917
20
-2.0598340667157
30
0
41
1
10
37.9961912827599
20
-2.01437533821112
30
0
41
1
10
37.893009477097
20
-1.98324084976633
30
0
41
1
10
37.8413668645055
20
-1.96725356406014
30
0
41
1
10
37.5833303292699
20
-1.88539877163117
30
0
41
1
10
37.3772420914428
20
-1.8137280983068
30
0
41
1
10
36.9648649982057
20
-1.65880960983165
30
0
41
1
10
36.7585767670609
20
-1.57556317351828
30
0
41
1
10
36.551775473444
20
-1.48677878714108
30
0
0
SPLINE
5
122
100
AcDbEntity
8
1
62
256
6
ByLayer
370
18
48
1
60
0
100
AcDbSpline
70
4
71
3
72
10
73
6
40
0
40
0
40
0
40
0
40
0.5
40
0.5
40
1
40
1
40
1
40
1
41
1
10
42.5768401635669
20
0.904980948849129
30
0
41
1
10
42.6038214537774
20
0.866190419796283
30
0
41
1
10
42.630199287875
20
0.827302491936678
30
0
41
1
10
42.6814444146202
20
0.749282832330664
30
0
41
1
10
42.7063160384272
20
0.710151799640556
30
0
41
1
10
42.7301858062018
20
0.670859065740274
30
0
0
SPLINE
5
123
100
AcDbEntity
8
1
62
256
6
ByLayer
370
18
48
1
60
0
100
AcDbSpline
70
4
71
3
72
20
73
16
40
0
40
0
40
0
40
0
40
0.250000000000088
40
0.250000000000088
40
0.375000000000073
40
0.375000000000073
40
0.500000000000059
40
0.500000000000059
40
0.625000000000044
40
0.625000000000044
40
0.750000000000029
40
0.750000000000029
40
0.875000000000015
40
0.875000000000015
40
1
40
1
40
1
40
1
41
1
10
42.7301858082219
20
0.670859064762055
30
0
41
1
10
42.7355610884542
20
0.662014109948757
30
0
41
1
10
42.7404564062087
20
0.653228988149806
30
0
41
1
10
42.7467683086462
20
0.64017984261173
30
0
41
1
10
42.7486986108599
20
0.635851777017734
30
0
41
1
10
42.7521161421386
20
0.627250880543471
30
0
41
1
10
42.7536028091599
20
0.622969459174612
30
0
41
1
10
42.7559273727899
20
0.614713491280042
30
0
41
1
10
42.7567780463171
20
0.610712400362331
30
0
41
1
10
42.7576850191775
20
0.603033703338809
30
0
41
1
10
42.7577273883829
20
0.599397227503346
30
0
41
1
10
42.7568526707532
20
0.592818695596492
30
0
41
1
10
42.7559205680257
20
0.589814485735161
30
0
41
1
10
42.7530505000308
20
0.584703130961145
30
0
41
1
10
42.7511351634627
20
0.582600363097782
30
0
41
1
10
42.7487564520648
20
0.580934542766897
30
0
0
SPLINE
5
124
100
AcDbEntity
8
1
62
256
6
ByLayer
370
18
48
1
60
0
100
AcDbSpline
70
4
71
3
72
14
73
10
40
0
40
0
40
0
40
0
40
0.500000000000034
40
0.500000000000034
40
0.625000000000025
40
0.625000000000025
40
0.750000000000017
40
0.750000000000017
40
1
40
1
40
1
40
1
41
1
10
42.7990852847409
20
0.793951333562944
30
0
41
1
10
42.9185157799423
20
0.689891455068306
30
0
41
1
10
43.0415055117897
20
0.594553675322402
30
0
41
1
10
43.1987532170583
20
0.483984216793033
30
0
41
1
10
43.2303791079447
20
0.462302479733609
30
0
41
1
10
43.2939630404824
20
0.419752958734506
30
0
41
1
10
43.325963903734
20
0.398858884617226
30
0
41
1
10
43.4218753563459
20
0.337676246688147
30
0
41
1
10
43.4858328417207
20
0.298785483996738
30
0
41
1
10
43.5498041432377
20
0.261482081566953
30
0
0
SPLINE
5
125
100
AcDbEntity
8
1
62
256
6
ByLayer
370
18
48
1
60
0
100
AcDbSpline
70
4
71
3
72
8
73
4
40
0
40
0
40
0
40
0
40
1
40
1
40
1
40
1
41
1
10
42.4745896184734
20
-0.57014393468063
30
0
41
1
10
42.5211423151761
20
-0.607960772853545
30
0
41
1
10
42.5686748084046
20
-0.645675346357223
30
0
41
1
10
42.6174419638116
20
-0.682787608318876
30
0
0
SPLINE
5
126
100
AcDbEntity
8
1
62
256
6
ByLayer
370
18
48
1
60
0
100
AcDbSpline
70
4
71
3
72
10
73
6
40
0
40
0
40
0
40
0
40
0.5
40
0.5
40
1
40
1
40
1
40
1
41
1
10
36.5000000000001
20
0.941641657478783
30
0
41
1
10
36.4387172584247
20
0.969052578859333
30
0
41
1
10
36.3777147620298
20
0.995182167636443
30
0
41
1
10
36.2561274878354
20
1.04456360063023
30
0
41
1
10
36.1955432548519
20
1.06781661080484
30
0
41
1
10
36.1350828183886
20
1.08937283423475
30
0
0
SPLINE
5
127
100
AcDbEntity
8
1
62
256
6
ByLayer
370
13
48
1
60
0
100
AcDbSpline
70
4
71
3
72
8
73
4
40
0
40
0
40
0
40
0
40
1
40
1
40
1
40
1
41
1
10
36.5
20
-0.340809660410713
30
0
41
1
10
37.5069861530496
20
-0.698276528453192
30
0
41
1
10
38.5139723060992
20
-1.02385002559365
30
0
41
1
10
39.5209584591489
20
-1.24829279314665
30
0
0
SPLINE
5
128
100
AcDbEntity
8
1
62
256
6
ByLayer
370
18
48
1
60
0
100
AcDbSpline
70
4
71
3
72
16
73
12
40
0
40
0
40
0
40
0
40
0.25
40
0.25
40
0.5
40
0.5
40
0.75
40
0.75
40
0.875
40
0.875
40
1
40
1
40
1
40
1
41
1
10
42.7487564542098
20
0.580934541665613
30
0
41
1
10
42.7227691709079
20
0.562941051584858
30
0
41
1
10
42.6975217990541
20
0.544166376839996
30
0
41
1
10
42.6488866551001
20
0.504653701207474
30
0
41
1
10
42.6254820603727
20
0.483903463968289
30
0
41
1
10
42.5811274290616
20
0.439947648924914
30
0
41
1
10
42.5602062597191
20
0.416778547205695
30
0
41
1
10
42.5312742832932
20
0.379701788777908
30
0
41
1
10
42.5220405996008
20
0.366953776853791
30
0
41
1
10
42.5045195982369
20
0.340560321153049
30
0
41
1
10
42.4962261966708
20
0.326900840866187
30
0
41
1
10
42.4885231407223
20
0.312799144613109
30
0
0
SPLINE
5
129
100
AcDbEntity
8
1
62
256
6
ByLayer
370
18
48
1
60
0
100
AcDbSpline
70
4
71
3
72
8
73
4
40
0
40
0
40
0
40
0
40
1
40
1
40
1
40
1
41
1
10
42.7487564521613
20
0.580934542834598
30
0
41
1
10
42.0955660590211
20
0.808875579736565
30
0
41
1
10
41.4423756658809
20
1.01482710040022
30
0
41
1
10
40.7891852727407
20
1.18093635643771
30
0
0
SPLINE
5
12A
100
AcDbEntity
8
1
62
256
6
ByLayer
370
18
48
1
60
0
100
AcDbSpline
70
4
71
3
72
10
73
6
40
0
40
0
40
0
40
0
40
0.5
40
0.5
40
1
40
1
40
1
40
1
41
1
10
43.5568280991747
20
-0.538164596965487
30
0
41
1
10
43.5567395436104
20
-0.543922200945019
30
0
41
1
10
43.5554920479747
20
-0.549039976121861
30
0
41
1
10
43.5520429274351
20
-0.558272148924658
30
0
41
1
10
43.5498349103389
20
-0.562378929206886
30
0
41
1
10
43.5473649952628
20
-0.566209808443176
30
0
0
SPLINE
5
12B
100
AcDbEntity
8
1
62
256
6
ByLayer
370
18
48
1
60
0
100
AcDbSpline
70
4
71
3
72
32
73
28
40
0
40
0
40
0
40
0
40
0.125000000000037
40
0.125000000000037
40
0.187500000000042
40
0.187500000000042
40
0.250000000000048
40
0.250000000000048
40
0.37500000000006
40
0.37500000000006
40
0.500000000000072
40
0.500000000000072
40
0.562500000000071
40
0.562500000000071
40
0.625000000000069
40
0.625000000000069
40
0.750000000000054
40
0.750000000000054
40
0.812500000000046
40
0.812500000000046
40
0.875000000000038
40
0.875000000000038
40
0.937500000000031
40
0.937500000000031
40
0.968750000000015
40
0.968750000000015
40
1
40
1
40
1
40
1
41
1
10
42.4745896106463
20
-0.570143928322523
30
0
41
1
10
42.4491732125721
20
-0.549497051050935
30
0
41
1
10
42.4267902154199
20
-0.528345687154086
30
0
41
1
10
42.3965243156731
20
-0.496764347609712
30
0
41
1
10
42.3869951119642
20
-0.486259596429932
30
0
41
1
10
42.3689027777873
20
-0.465429211450697
30
0
41
1
10
42.3603214962736
20
-0.455080280941814
30
0
41
1
10
42.3359376476902
20
-0.424649947194752
30
0
41
1
10
42.3216536994522
20
-0.40541640357884
30
0
41
1
10
42.2954924414381
20
-0.369538039497826
30
0
41
1
10
42.2836182840806
20
-0.352892252631733
30
0
41
1
10
42.266621396413
20
-0.330026006551378
30
0
41
1
10
42.2610932576129
20
-0.322752492064268
30
0
41
1
10
42.2501541110804
20
-0.308905057575544
30
0
41
1
10
42.2447362656389
20
-0.302323332677105
30
0
41
1
10
42.2284765761302
20
-0.283673317113596
30
0
41
1
10
42.2176598517173
20
-0.272721344050609
30
0
41
1
10
42.2001607316404
20
-0.257957357110996
30
0
41
1
10
42.1941112631416
20
-0.253309253230782
30
0
41
1
10
42.1811753500292
20
-0.244329178514278
30
0
41
1
10
42.1742912979585
20
-0.240000002241146
30
0
41
1
10
42.1590135585127
20
-0.231229200375623
30
0
41
1
10
42.1505911232353
20
-0.226772650018347
30
0
41
1
10
42.136306855668
20
-0.21959882970873
30
0
41
1
10
42.1312635327354
20
-0.217122197209079
30
0
41
1
10
42.1207467942612
20
-0.212037942377719
30
0
41
1
10
42.1152675335417
20
-0.209427066076415
30
0
41
1
10
42.1096079801596
20
-0.206758365139137
30
0
0
SPLINE
5
12C
100
AcDbEntity
8
1
62
256
6
ByLayer
370
13
48
1
60
0
100
AcDbSpline
70
4
71
3
72
20
73
16
40
0
40
0
40
0
40
0
40
0.249999999999984
40
0.249999999999984
40
0.499999999999968
40
0.499999999999968
40
0.562499999999979
40
0.562499999999979
40
0.624999999999991
40
0.624999999999991
40
0.749999999999994
40
0.749999999999994
40
0.874999999999997
40
0.874999999999997
40
1
40
1
40
1
40
1
41
1
10
43.5473649952631
20
-0.566209808443091
30
0
41
1
10
43.4514594446723
20
-0.583241050520684
30
0
41
1
10
43.3565014940053
20
-0.596944038397538
30
0
41
1
10
43.1687352564125
20
-0.615786035281502
30
0
41
1
10
43.0759221552815
20
-0.620905657658085
30
0
41
1
10
42.9618255123189
20
-0.621473342837021
30
0
41
1
10
42.9391028016674
20
-0.621296080459189
30
0
41
1
10
42.8938676029657
20
-0.620351617654109
30
0
41
1
10
42.8714269437473
20
-0.619585377170552
30
0
41
1
10
42.8048317207935
20
-0.616424213253936
30
0
41
1
10
42.7613289716887
20
-0.613164470549009
30
0
41
1
10
42.6761970750312
20
-0.604447267570151
30
0
41
1
10
42.6345724346251
20
-0.59897540880749
30
0
41
1
10
42.5532559028464
20
-0.586044254986831
30
0
41
1
10
42.513535045493
20
-0.578589270483576
30
0
41
1
10
42.4745896191646
20
-0.570143930169706
30
0
0
SPLINE
5
12D
100
AcDbEntity
8
1
62
256
6
ByLayer
370
18
48
1
60
0
100
AcDbSpline
70
4
71
3
72
32
73
28
40
0
40
0
40
0
40
0
40
0.12499999999996
40
0.12499999999996
40
0.156249999999954
40
0.156249999999954
40
0.187499999999948
40
0.249999999999937
40
0.249999999999937
40
0.374999999999933
40
0.374999999999933
40
0.437499999999931
40
0.437499999999931
40
0.499999999999928
40
0.499999999999928
40
0.624999999999941
40
0.624999999999941
40
0.68749999999994
40
0.68749999999994
40
0.718749999999939
40
0.718749999999939
40
0.749999999999939
40
0.874999999999964
40
0.874999999999964
40
0.937499999999982
40
0.937499999999982
40
1
40
1
40
1
40
1
41
1
10
42.48852314071
20
0.31279914462246
30
0
41
1
10
42.546586699692
20
0.271770703488926
30
0
41
1
10
42.6052908486753
20
0.233708432138485
30
0
41
1
10
42.6795240613247
20
0.190080422304163
30
0
41
1
10
42.6944425891684
20
0.181537726453314
30
0
41
1
10
42.7241303586333
20
0.164989293689018
30
0
41
1
10
42.7684954190126
20
0.140936595808512
30
0
41
1
10
42.8123676230765
20
0.119161745621796
30
0
41
1
10
42.8994589797844
20
0.0786302710955056
30
0
41
1
10
42.9566510054946
20
0.0556250091329957
30
0
41
1
10
43.0410832912361
20
0.027383036592056
30
0
41
1
10
43.0690104655457
20
0.0190149763918441
30
0
41
1
10
43.1243482789147
20
0.0044909392641159
30
0
41
1
10
43.1513785002127
20
-0.0015656326305589
30
0
41
1
10
43.2305998000802
20
-0.0162071344414016
30
0
41
1
10
43.2809359098976
20
-0.0212910199429075
30
0
41
1
10
43.3527355370529
20
-0.0219249511351904
30
0
41
1
10
43.3760463051914
20
-0.0209614744757971
30
0
41
1
10
43.4100556328387
20
-0.017710360987877
30
0
41
1
10
43.4212547845715
20
-0.0163221355966243
30
0
41
1
10
43.443219811735
20
-0.01295083417142
30
0
41
1
10
43.4969360802419
20
-0.0030563699884283
30
0
41
1
10
43.5447333172343
20
0.0140925882227236
30
0
41
1
10
43.5966185049846
20
0.0413773236086854
30
0
41
1
10
43.6130089693051
20
0.0515809307505322
30
0
41
1
10
43.6439507613298
20
0.0742422309548942
30
0
41
1
10
43.6585379304766
20
0.0867525014321586
30
0
41
1
10
43.6720245930676
20
0.100283895739693
30
0
0
SPLINE
5
12E
100
AcDbEntity
8
1
62
256
6
ByLayer
370
18
48
1
60
0
100
AcDbSpline
70
4
71
3
72
46
73
42
40
0
40
0
40
0
40
0
40
0.0624999999999317
40
0.0624999999999317
40
0.0937499999998808
40
0.0937499999998808
40
0.12499999999983
40
0.156249999999779
40
0.156249999999779
40
0.187499999999728
40
0.249999999999626
40
0.249999999999626
40
0.281249999999575
40
0.281249999999575
40
0.29687499999955
40
0.29687499999955
40
0.300781249999561
40
0.300781249999561
40
0.304687499999572
40
0.304687499999572
40
0.308593749999584
40
0.308593749999584
40
0.312499999999595
40
0.312499999999595
40
0.328124999999605
40
0.328124999999605
40
0.343749999999615
40
0.343749999999615
40
0.374999999999635
40
0.374999999999635
40
0.437499999999675
40
0.437499999999675
40
0.499999999999715
40
0.499999999999715
40
0.562499999999755
40
0.562499999999755
40
0.624999999999795
40
0.624999999999795
40
0.749999999999875
40
0.749999999999875
40
1
40
1
40
1
40
1
41
1
10
41.5000016846489
20
0.667598023568871
30
0
41
1
10
41.5199159618084
20
0.657091694702217
30
0
41
1
10
41.5398340402941
20
0.64660349760112
30
0
41
1
10
41.5696896375489
20
0.630825714037144
30
0
41
1
10
41.5796335870115
20
0.625547434291406
30
0
41
1
10
41.5994998087566
20
0.614937690863627
30
0
41
1
10
41.6193530969907
20
0.604297958801453
30
0
41
1
10
41.6392760557614
20
0.593849207357636
30
0
41
1
10
41.6592888314854
20
0.583639006649207
30
0
41
1
10
41.689456053054
20
0.568716463438335
30
0
41
1
10
41.7199998962203
20
0.554785761204471
30
0
41
1
10
41.7506304575218
20
0.541081259507621
30
0
41
1
10
41.7608527203269
20
0.536544655950109
30
0
41
1
10
41.776157287571
20
0.529664998258539
30
0
41
1
10
41.7812384081547
20
0.527318819211672
30
0
41
1
10
41.7876361889234
20
0.52450667117111
30
0
41
1
10
41.7889190628224
20
0.523952862501375
30
0
41
1
10
41.7914952607871
20
0.522872381079253
30
0
41
1
10
41.7927858662767
20
0.522338641642079
30
0
41
1
10
41.7953267881976
20
0.521166539055372
30
0
41
1
10
41.7965941398967
20
0.520572422758704
30
0
41
1
10
41.7991487457768
20
0.51943587171931
30
0
41
1
10
41.8004309963339
20
0.518880442631854
30
0
41
1
10
41.8068461698447
20
0.516113462166487
30
0
41
1
10
41.8120013225506
20
0.513959572730499
30
0
41
1
10
41.8223172259147
20
0.50966611233244
30
0
41
1
10
41.8274747811194
20
0.507518270124081
30
0
41
1
10
41.8429413592213
20
0.501058748061439
30
0
41
1
10
41.8532479272924
20
0.496740510432829
30
0
41
1
10
41.8841942518387
20
0.483853847544452
30
0
41
1
10
41.904876742846
20
0.475395224746364
30
0
41
1
10
41.9464656476391
20
0.459050736609328
30
0
41
1
10
41.9673546665164
20
0.451119831444402
30
0
41
1
10
42.0092968476869
20
0.435672717906442
30
0
41
1
10
42.0303523345474
20
0.428162537803814
30
0
41
1
10
42.072648412167
20
0.413607508664882
30
0
41
1
10
42.0939147800834
20
0.406555977955435
30
0
41
1
10
42.1573447031348
20
0.38636424358441
30
0
41
1
10
42.199347538806
20
0.374113291680203
30
0
41
1
10
42.3245709347048
20
0.341159826616206
30
0
41
1
10
42.4070195392476
20
0.324237517114398
30
0
41
1
10
42.4885231407227
20
0.31279914461382
30
0
0
SPLINE
5
12F
100
AcDbEntity
8
1
62
256
6
ByLayer
370
18
48
1
60
0
100
AcDbSpline
70
4
71
3
72
8
73
4
40
0
40
0
40
0
40
0
40
1
40
1
40
1
40
1
41
1
10
43.8680940713975
20
-0.0470353606602032
30
0
41
1
10
43.8745849583245
20
-0.0795532845328069
30
0
41
1
10
43.8811179806938
20
-0.112053866414357
30
0
41
1
10
43.8876856968008
20
-0.144540169256402
30
0
0
SPLINE
5
130
100
AcDbEntity
8
1
62
256
6
ByLayer
370
18
48
1
60
0
100
AcDbSpline
70
4
71
3
72
10
73
6
40
0
40
0
40
0
40
0
40
0.5
40
0.5
40
1
40
1
40
1
40
1
41
1
10
43.6720245930675
20
0.10028389573975
30
0
41
1
10
43.7075596629164
20
0.0725417562139228
30
0
41
1
10
43.741685852064
20
0.0463867457538356
30
0
41
1
10
43.8070607235148
20
-0.002727498690632
30
0
41
1
10
43.8383332597009
20
-0.0257044241636493
30
0
41
1
10
43.8680940713975
20
-0.0470353606600327
30
0
0
SPLINE
5
131
100
AcDbEntity
8
1
62
256
6
ByLayer
370
18
48
1
60
0
100
AcDbSpline
70
4
71
3
72
10
73
6
40
0
40
0
40
0
40
0
40
0.5
40
0.5
40
1
40
1
40
1
40
1
41
1
10
36.187690627181
20
0.559978969376516
30
0
41
1
10
36.2394262435736
20
0.540075785749082
30
0
41
1
10
36.2914132878465
20
0.520458072056812
30
0
41
1
10
36.3955536599954
20
0.481917219792763
30
0
41
1
10
36.4477258068154
20
0.462986305458941
30
0
41
1
10
36.5000000000002
20
0.444395188022327
30
0
0
SPLINE
5
132
100
AcDbEntity
8
1
62
256
6
ByLayer
370
18
48
1
60
0
100
AcDbSpline
70
4
71
3
72
12
73
8
40
0
40
0
40
0
40
0
40
0.25
40
0.4375
40
0.625
40
0.75
40
1
40
1
40
1
40
1
41
1
10
36.5
20
2.36881351584796
30
0
41
1
10
36.9166666666667
20
2.30295705337565
30
0
41
1
10
37.6458333333334
20
2.12672340834746
30
0
41
1
10
38.6875
20
1.75137376658515
30
0
41
1
10
39.5208333333333
20
1.38110733346562
30
0
41
1
10
40.4583333333333
20
0.913267513933874
30
0
41
1
10
41.0833333333333
20
0.568227137228689
30
0
41
1
10
41.5
20
0.333263427289836
30
0
0
SPLINE
5
133
100
AcDbEntity
8
1
62
256
6
ByLayer
370
18
48
1
60
0
100
AcDbSpline
70
4
71
3
72
8
73
4
40
0
40
0
40
0
40
0
40
1
40
1
40
1
40
1
41
1
10
43.9052856987279
20
-0.317807108352668
30
0
41
1
10
43.8955011568398
20
-0.333275496056444
30
0
41
1
10
43.8849696620891
20
-0.348645379251792
30
0
41
1
10
43.8737014580585
20
-0.363918108812356
30
0
0
SPLINE
5
134
100
AcDbEntity
8
1
62
256
6
ByLayer
370
18
48
1
60
0
100
AcDbSpline
70
4
71
3
72
8
73
4
40
0
40
0
40
0
40
0
40
1
40
1
40
1
40
1
41
1
10
43.8876856964801
20
-0.144540168251041
30
0
41
1
10
43.8932723132842
20
-0.202309720616512
30
0
41
1
10
43.8991641641394
20
-0.260066734918013
30
0
41
1
10
43.9052856987279
20
-0.317807108352781
30
0
0
SPLINE
5
135
100
AcDbEntity
8
1
62
256
6
ByLayer
370
18
48
1
60
0
100
AcDbSpline
70
4
71
3
72
27
73
23
40
0
40
0
40
0
40
0
40
3.4539296434E-06
40
0.0123860500150311
40
0.0279516730041759
40
0.0530166325509212
40
0.0819356042539653
40
0.0975236377251769
40
0.101627266015217
40
0.102667345872816
40
0.103618015264728
40
0.105636212323867
40
0.1134609507615
40
0.142825311734667
40
0.176099092891545
40
0.320829176870357
40
0.521144419343223
40
0.604007814460002
40
0.726962363218587
40
0.805838771239005
40
0.91599137210378
40
1
40
1
40
1
40
1
41
1
10
41.4999963087328
20
0.333262067610235
30
0
41
1
10
41.5000049899335
20
0.333257102053324
30
0
41
1
10
41.5126448222142
20
0.326027241764592
30
0
41
1
10
41.5413056079104
20
0.309551606315011
30
0
41
1
10
41.595206167567
20
0.278624128905079
30
0
41
1
10
41.6654251014339
20
0.238273293650963
30
0
41
1
10
41.7352675918044
20
0.197558056655481
30
0
41
1
10
41.7839595616771
20
0.169223524830812
30
0
41
1
10
41.8047687508227
20
0.157121825811288
30
0
41
1
10
41.8107816086661
20
0.153642999796062
30
0
41
1
10
41.8148804216873
20
0.151174550858372
30
0
41
1
10
41.8257898662136
20
0.144600559384202
30
0
41
1
10
41.8652620603503
20
0.121008821493746
30
0
41
1
10
41.9362808806295
20
0.079921480531624
30
0
41
1
10
42.1435647321665
20
-0.0336211399820456
30
0
41
1
10
42.512168548966
20
-0.203778348229861
30
0
41
1
10
42.8973627331618
20
-0.318730904680308
30
0
41
1
10
43.2253237616945
20
-0.366026057343532
30
0
41
1
10
43.4333901795486
20
-0.36663292058077
30
0
41
1
10
43.6328303661055
20
-0.329314272667233
30
0
41
1
10
43.7803405225975
20
-0.26259607053322
30
0
41
1
10
43.8598107791153
20
-0.184930404216516
30
0
41
1
10
43.8876856932333
20
-0.144540167490732
30
0
0
SPLINE
5
136
100
AcDbEntity
8
1
62
256
6
ByLayer
370
18
48
1
60
0
100
AcDbSpline
70
4
71
3
72
8
73
4
40
0
40
0
40
0
40
0
40
1
40
1
40
1
40
1
41
1
10
42.0124188118556
20
-0.158381093068186
30
0
41
1
10
42.0265893717945
20
-0.163319813483355
30
0
41
1
10
42.0403571685681
20
-0.169181031949336
30
0
41
1
10
42.0537521544966
20
-0.175887269973487
30
0
0
SPLINE
5
137
100
AcDbEntity
8
1
62
256
6
ByLayer
370
18
48
1
60
0
100
AcDbSpline
70
4
71
3
72
8
73
4
40
0
40
0
40
0
40
0
40
1
40
1
40
1
40
1
41
1
10
37.4232184376531
20
-0.0861459233455832
30
0
41
1
10
37.1154789584354
20
0.0789580669326995
30
0
41
1
10
36.8077394792177
20
0.244667242884219
30
0
41
1
10
36.5
20
0.407296328196082
30
0
0
SPLINE
5
138
100
AcDbEntity
8
1
62
256
6
ByLayer
370
18
48
1
60
0
100
AcDbSpline
70
4
71
3
72
12
73
8
40
0
40
0
40
0
40
0
40
0.499999999999953
40
0.499999999999953
40
0.749999999999976
40
0.749999999999976
40
1
40
1
40
1
40
1
41
1
10
36.5
20
-1.4644392562918
30
0
41
1
10
36.4390424374363
20
-1.45718473833003
30
0
41
1
10
36.3781384910137
20
-1.45353991169259
30
0
41
1
10
36.2867493683441
20
-1.45366668765715
30
0
41
1
10
36.2562528714088
20
-1.45464762292676
30
0
41
1
10
36.1955393887235
20
-1.45851072236911
30
0
41
1
10
36.1652887346163
20
-1.46139123682917
30
0
41
1
10
36.1351328567454
20
-1.46523683881847
30
0
0
SPLINE
5
139
100
AcDbEntity
8
1
62
256
6
ByLayer
370
18
48
1
60
0
100
AcDbSpline
70
4
71
3
72
8
73
4
40
0
40
0
40
0
40
0
40
1
40
1
40
1
40
1
41
1
10
36.5505948225208
20
-1.48826558345371
30
0
41
1
10
36.5337016337729
20
-1.48040612173432
30
0
41
1
10
36.5168364310497
20
-1.47246480659172
30
0
41
1
10
36.4999999999989
20
-1.46443925629407
30
0
0
SPLINE
5
13A
100
AcDbEntity
8
1
62
256
6
ByLayer
370
18
48
1
60
0
100
AcDbSpline
70
4
71
3
72
38
73
34
40
0
40
0
40
0
40
0
40
0.0208486259532226
40
0.043160405960466
40
0.0669365424905433
40
0.0921778079474906
40
0.118884611493346
40
0.147057047308952
40
0.176694929713667
40
0.207797818799835
40
0.240365039100395
40
0.274395693058566
40
0.309888670564458
40
0.346842655478408
40
0.385256129820384
40
0.425127376134941
40
0.46645447841933
40
0.509235321913881
40
0.551003375785357
40
0.590029203702883
40
0.626315240992746
40
0.659864913162246
40
0.690682827332489
40
0.718775083238645
40
0.744149776784347
40
0.767369003029774
40
0.792453845151237
40
0.820229156242154
40
0.850714141197344
40
0.883923452426514
40
0.919868503530597
40
0.958558304622105
40
1
40
1
40
1
40
1
41
1
10
36.5517604606022
20
-1.4874342304937
30
0
41
1
10
36.5519186899158
20
-1.48002163339569
30
0
41
1
10
36.5522462530573
20
-1.46467622402966
30
0
41
1
10
36.5524700421427
20
-1.44088591218568
30
0
41
1
10
36.5525273346783
20
-1.41554998287194
30
0
41
1
10
36.5523929931625
20
-1.38867598770182
30
0
41
1
10
36.5520742746996
20
-1.36027235056332
30
0
41
1
10
36.5515689510152
20
-1.33034858887285
30
0
41
1
10
36.5508775851251
20
-1.2989153635092
30
0
41
1
10
36.5499999451069
20
-1.26598458669491
30
0
41
1
10
36.5489360391157
20
-1.23156951975056
30
0
41
1
10
36.5476858259174
20
-1.19568488097735
30
0
41
1
10
36.5462492459079
20
-1.15834695331662
30
0
41
1
10
36.5446264104843
20
-1.11957371022047
30
0
41
1
10
36.5428167541344
20
-1.07938489093786
30
0
41
1
10
36.5408224083786
20
-1.0378022940406
30
0
41
1
10
36.5386348802188
20
-0.994849226439754
30
0
41
1
10
36.5363325685786
20
-0.951403804274946
30
0
41
1
10
36.5338812772366
20
-0.908916888691891
30
0
41
1
10
36.5312159298505
20
-0.868811141219595
30
0
41
1
10
36.5284039746991
20
-0.831654886965083
30
0
41
1
10
36.5254359445105
20
-0.797419282405116
30
0
41
1
10
36.522321298466
20
-0.76607594354212
30
0
41
1
10
36.5190373954407
20
-0.737597934907882
30
0
41
1
10
36.5156350406894
20
-0.711770382421378
30
0
41
1
10
36.5116124320052
20
-0.687048324471277
30
0
41
1
10
36.5084974293444
20
-0.661574184940491
30
0
41
1
10
36.5058606933877
20
-0.633776939469954
30
0
41
1
10
36.5037132091301
20
-0.603415427070445
30
0
41
1
10
36.5020410795219
20
-0.570523165481205
30
0
41
1
10
36.5008576544448
20
-0.535143425726801
30
0
41
1
10
36.5001266805253
20
-0.497295303035941
30
0
41
1
10
36.5000431826759
20
-0.471404028186043
30
0
41
1
10
36.5
20
-0.458013808702418
30
0
0
SPLINE
5
13B
100
AcDbEntity
8
1
62
256
6
ByLayer
370
18
48
1
60
0
100
AcDbSpline
70
4
71
3
72
22
73
18
40
0
40
0
40
0
40
0
40
0.125
40
0.125
40
0.25
40
0.25
40
0.375
40
0.375
40
0.5
40
0.5
40
0.625
40
0.625
40
0.75
40
0.75
40
0.875
40
0.875
40
1
40
1
40
1
40
1
41
1
10
34.0094014218517
20
-1.79611866858559
30
0
41
1
10
34.0070060913434
20
-1.79250579785298
30
0
41
1
10
34.0049065627795
20
-1.78881278771018
30
0
41
1
10
34.0014621281002
20
-1.78122534013431
30
0
41
1
10
34.0001086596827
20
-1.77729684150677
30
0
41
1
10
33.9984573233747
20
-1.76934179224944
30
0
41
1
10
33.9981595084475
20
-1.76535122035671
30
0
41
1
10
33.9988513564607
20
-1.75734394227865
30
0
41
1
10
33.999878964881
20
-1.75326313456333
30
0
41
1
10
34.0033493042446
20
-1.7455183726332
30
0
41
1
10
34.0057897218092
20
-1.74180952665503
30
0
41
1
10
34.0119543467927
20
-1.7348644164008
30
0
41
1
10
34.0155828653112
20
-1.73171853020321
30
0
41
1
10
34.0237349054572
20
-1.72596739096906
30
0
41
1
10
34.0282263420586
20
-1.72339315778046
30
0
41
1
10
34.0376222796051
20
-1.71883513837565
30
0
41
1
10
34.0425633872155
20
-1.71682728406617
30
0
41
1
10
34.0476966799344
20
-1.71503513141613
30
0
0
SPLINE
5
13C
100
AcDbEntity
8
1
62
256
6
ByLayer
370
18
48
1
60
0
100
AcDbSpline
70
4
71
3
72
28
73
24
40
0
40
0
40
0
40
0
40
0.0625000000000063
40
0.0625000000000063
40
0.125000000000013
40
0.125000000000013
40
0.187500000000019
40
0.187500000000019
40
0.250000000000025
40
0.250000000000025
40
0.312500000000032
40
0.312500000000032
40
0.375000000000038
40
0.375000000000038
40
0.50000000000003
40
0.50000000000003
40
0.625000000000023
40
0.625000000000023
40
0.750000000000015
40
0.750000000000015
40
0.875000000000008
40
0.875000000000008
40
1
40
1
40
1
40
1
41
1
10
34.0476966799344
20
-1.71503513141613
30
0
41
1
10
34.0864529065581
20
-1.70150442548305
30
0
41
1
10
34.1264549774005
20
-1.69046194541355
30
0
41
1
10
34.2081265578771
20
-1.67182608152203
30
0
41
1
10
34.249875296412
20
-1.66425563088762
30
0
41
1
10
34.3336691817407
20
-1.65195823680503
30
0
41
1
10
34.3758501388039
20
-1.6472052094999
30
0
41
1
10
34.4606601300893
20
-1.63993925567687
30
0
41
1
10
34.5033515208305
20
-1.63742980120793
30
0
41
1
10
34.5887326261795
20
-1.63432695707507
30
0
41
1
10
34.6314323780142
20
-1.63373088725777
30
0
41
1
10
34.7168476383402
20
-1.63417923450513
30
0
41
1
10
34.7595943734923
20
-1.63522641665372
30
0
41
1
10
34.8876418544197
20
-1.64053378300315
30
0
41
1
10
34.9724981332113
20
-1.64692788485607
30
0
41
1
10
35.1413835569313
20
-1.66423135980676
30
0
41
1
10
35.2254105816514
20
-1.67515162195443
30
0
41
1
10
35.3927464332252
20
-1.70070919253618
30
0
41
1
10
35.4758930244396
20
-1.71532805973135
30
0
41
1
10
35.6408780658084
20
-1.74746540290533
30
0
41
1
10
35.7228282762398
20
-1.76500777733193
30
0
41
1
10
35.8853213920594
20
-1.80230341516321
30
0
41
1
10
35.9658953383689
20
-1.82206212251518
30
0
41
1
10
36.0458765417689
20
-1.84263322012248
30
0
0
SPLINE
5
13D
100
AcDbEntity
8
1
62
256
6
ByLayer
370
18
48
1
60
0
100
AcDbSpline
70
4
71
3
72
8
73
4
40
0
40
0
40
0
40
0
40
1
40
1
40
1
40
1
41
1
10
36.2263350356274
20
-1.85186529670673
30
0
41
1
10
36.214231438802
20
-1.86099555996134
30
0
41
1
10
36.2023706879337
20
-1.87019346912109
30
0
41
1
10
36.1907810354395
20
-1.879460102151
30
0
0
SPLINE
5
13E
100
AcDbEntity
8
1
62
256
6
ByLayer
370
18
48
1
60
0
100
AcDbSpline
70
4
71
3
72
10
73
6
40
0
40
0
40
0
40
0
40
0.5
40
0.5
40
1
40
1
40
1
40
1
41
1
10
36.1922689166832
20
-1.69474540854952
30
0
41
1
10
36.1914651019601
20
-1.72254208368261
30
0
41
1
10
36.1933881965112
20
-1.74983077100191
30
0
41
1
10
36.2042380229782
20
-1.80258198545891
30
0
41
1
10
36.2131735621671
20
-1.82798518979629
30
0
41
1
10
36.2263350356274
20
-1.85186529670671
30
0
0
SPLINE
5
13F
100
AcDbEntity
8
1
62
256
6
ByLayer
370
18
48
1
60
0
100
AcDbSpline
70
4
71
3
72
12
73
8
40
0
40
0
40
0
40
0
40
0.5
40
0.5
40
0.75
40
0.75
40
1
40
1
40
1
40
1
41
1
10
36.1351328567454
20
-1.46523683881847
30
0
41
1
10
36.1370807460006
20
-1.50613491334499
30
0
41
1
10
36.1424003985458
20
-1.5461020720777
30
0
41
1
10
36.1563780987036
20
-1.60376887802337
30
0
41
1
10
36.1620458742445
20
-1.6226377155871
30
0
41
1
10
36.1755150889472
20
-1.65941370509606
30
0
41
1
10
36.1833116192796
20
-1.67732156059788
30
0
41
1
10
36.1922689166823
20
-1.69474540854904
30
0
0
SPLINE
5
140
100
AcDbEntity
8
1
62
256
6
ByLayer
370
18
48
1
60
0
100
AcDbSpline
70
4
71
3
72
26
73
22
40
0
40
0
40
0
40
0
40
0.125000000000003
40
0.125000000000003
40
0.250000000000007
40
0.250000000000007
40
0.37500000000001
40
0.37500000000001
40
0.437500000000007
40
0.437500000000007
40
0.500000000000004
40
0.500000000000004
40
0.625000000000007
40
0.625000000000007
40
0.687500000000008
40
0.687500000000008
40
0.750000000000009
40
0.750000000000009
40
0.875000000000005
40
0.875000000000005
40
1
40
1
40
1
40
1
41
1
10
36.1351328567454
20
-1.46523683881847
30
0
41
1
10
36.0265755390566
20
-1.41054705844363
30
0
41
1
10
35.9194990909157
20
-1.35278623731574
30
0
41
1
10
35.7087645501009
20
-1.23005021319261
30
0
41
1
10
35.6051064196517
20
-1.16507780257996
30
0
41
1
10
35.4017331981903
20
-1.02654550180102
30
0
41
1
10
35.3020181940015
20
-0.952990076513714
30
0
41
1
10
35.1558472066717
20
-0.83487931399452
30
0
41
1
10
35.107575121705
20
-0.794100699346359
30
0
41
1
10
35.0131368518608
20
-0.710480167408519
30
0
41
1
10
34.9669060264888
20
-0.667594971861263
30
0
41
1
10
34.831281351962
20
-0.535552530475911
30
0
41
1
10
34.7449580160974
20
-0.443010725667364
30
0
41
1
10
34.6219770846843
20
-0.296748418550124
30
0
41
1
10
34.5820667465988
20
-0.246752268531083
30
0
41
1
10
34.5044663737773
20
-0.144152833593438
30
0
41
1
10
34.4666765260577
20
-0.0913839057380414
30
0
41
1
10
34.3583264508847
20
0.0685447674288184
30
0
41
1
10
34.2922845808788
20
0.177921281553637
30
0
41
1
10
34.1718264216871
20
0.401531737834347
30
0
41
1
10
34.1174007786998
20
0.515762392195228
30
0
41
1
10
34.0684999510306
20
0.632103589333184
30
0
0
SPLINE
5
141
100
AcDbEntity
8
1
62
256
6
ByLayer
370
18
48
1
60
0
100
AcDbSpline
70
4
71
3
72
20
73
16
40
0
40
0
40
0
40
0
40
0.125000000000029
40
0.125000000000029
40
0.250000000000059
40
0.250000000000059
40
0.375000000000088
40
0.375000000000088
40
0.500000000000118
40
0.500000000000118
40
0.625000000000147
40
0.625000000000147
40
0.750000000000177
40
0.750000000000177
40
1
40
1
40
1
40
1
41
1
10
34.0684999510306
20
0.632103589333184
30
0
41
1
10
34.0665442849905
20
0.636756363921108
30
0
41
1
10
34.0648699764176
20
0.64148035203209
30
0
41
1
10
34.0622225832949
20
0.651106734020317
30
0
41
1
10
34.061244581636
20
0.656046083131656
30
0
41
1
10
34.0602250008828
20
0.665983788360137
30
0
41
1
10
34.060184189359
20
0.670925290654282
30
0
41
1
10
34.0611991693456
20
0.680746020775302
30
0
41
1
10
34.0622864072349
20
0.685699727496484
30
0
41
1
10
34.0656156702016
20
0.695092187514462
30
0
41
1
10
34.0678331695066
20
0.699531342032202
30
0
41
1
10
34.0733226679688
20
0.70792128311416
30
0
41
1
10
34.0766034292488
20
0.711855035152524
30
0
41
1
10
34.0873532312331
20
0.722459193831014
30
0
41
1
10
34.0959384277782
20
0.728218050341866
30
0
41
1
10
34.1051127512841
20
0.732893075999556
30
0
0
SPLINE
5
142
100
AcDbEntity
8
1
62
256
6
ByLayer
370
18
48
1
60
0
100
AcDbSpline
70
4
71
3
72
28
73
24
40
0
40
0
40
0
40
0
40
0.0625
40
0.0625
40
0.125
40
0.125
40
0.1875
40
0.1875
40
0.25
40
0.25
40
0.3125
40
0.3125
40
0.375
40
0.375
40
0.5
40
0.5
40
0.625
40
0.625
40
0.75
40
0.75
40
0.875
40
0.875
40
1
40
1
40
1
40
1
41
1
10
34.1051127512847
20
0.73289307599876
30
0
41
1
10
34.142142421058
20
0.751762549718165
30
0
41
1
10
34.1805978077396
20
0.767081085519663
30
0
41
1
10
34.2594027800386
20
0.793056971097485
30
0
41
1
10
34.2998573581392
20
0.803682583121315
30
0
41
1
10
34.3811951330746
20
0.821200729303854
30
0
41
1
10
34.42221006505
20
0.828129401597778
30
0
41
1
10
34.5047821063744
20
0.839140554170399
30
0
41
1
10
34.5464027761432
20
0.843218265265619
30
0
41
1
10
34.6296940895711
20
0.848973154762518
30
0
41
1
10
34.6713832754826
20
0.85065423712345
30
0
41
1
10
34.7548359161108
20
0.851979794186576
30
0
41
1
10
34.7966411440756
20
0.851620592186919
30
0
41
1
10
34.92184013526
20
0.847846590006981
30
0
41
1
10
35.0048924464692
20
0.841773004122842
30
0
41
1
10
35.1703259069243
20
0.823806450305938
30
0
41
1
10
35.2527052622655
20
0.811897487987039
30
0
41
1
10
35.416879804177
20
0.782927974874752
30
0
41
1
10
35.4983972529096
20
0.765909673951512
30
0
41
1
10
35.6603082756198
20
0.72734463932224
30
0
41
1
10
35.7407657347476
20
0.705775274810748
30
0
41
1
10
35.9003000907636
20
0.658590115087804
30
0
41
1
10
35.9794211158821
20
0.632964199771038
30
0
41
1
10
36.057967423653
20
0.605473335093109
30
0
0
SPLINE
5
143
100
AcDbEntity
8
1
62
256
6
ByLayer
370
18
48
1
60
0
100
AcDbSpline
70
4
71
3
72
8
73
4
40
0
40
0
40
0
40
0
40
1
40
1
40
1
40
1
41
1
10
36.2263350356274
20
0.603443807425379
30
0
41
1
10
36.2131533460153
20
0.58924021913856
30
0
41
1
10
36.200259239049
20
0.574758437129333
30
0
41
1
10
36.1876906271914
20
0.559978969367677
30
0
0
SPLINE
5
144
100
AcDbEntity
8
1
62
256
6
ByLayer
370
18
48
1
60
0
100
AcDbSpline
70
4
71
3
72
10
73
6
40
0
40
0
40
0
40
0
40
0.5
40
0.5
40
1
40
1
40
1
40
1
41
1
10
36.1922689166826
20
0.815444048899337
30
0
41
1
10
36.1914651019595
20
0.779955532478795
30
0
41
1
10
36.1933881965112
20
0.744120355561023
30
0
41
1
10
36.2042380229782
20
0.672882586471502
30
0
41
1
10
36.213173562167
20
0.637554804152074
30
0
41
1
10
36.2263350356274
20
0.603443807425322
30
0
0
SPLINE
5
145
100
AcDbEntity
8
1
62
256
6
ByLayer
370
18
48
1
60
0
100
AcDbSpline
70
4
71
3
72
12
73
8
40
0
40
0
40
0
40
0
40
0.5
40
0.5
40
0.75
40
0.75
40
1
40
1
40
1
40
1
41
1
10
36.1350828183883
20
1.08937283423481
30
0
41
1
10
36.1369803851317
20
1.04386979991637
30
0
41
1
10
36.1422734622499
20
0.997764783697903
30
0
41
1
10
36.1562596338139
20
0.928854244347008
30
0
41
1
10
36.1619381289915
20
0.905895830509422
30
0
41
1
10
36.1754473130646
20
0.860360647187491
30
0
41
1
10
36.1832726841868
20
0.837786084633109
30
0
41
1
10
36.1922689166825
20
0.815444048899337
30
0
0
SPLINE
5
146
100
AcDbEntity
8
1
62
256
6
ByLayer
370
18
48
1
60
0
100
AcDbSpline
70
4
71
3
72
28
73
24
40
0
40
0
40
0
40
0
40
0.125000000000005
40
0.125000000000005
40
0.25000000000001
40
0.25000000000001
40
0.375000000000015
40
0.375000000000015
40
0.406250000000018
40
0.406250000000018
40
0.437500000000022
40
0.437500000000022
40
0.50000000000002
40
0.50000000000002
40
0.625000000000015
40
0.625000000000015
40
0.75000000000001
40
0.75000000000001
40
0.812500000000007
40
0.812500000000007
40
0.875000000000005
40
0.875000000000005
40
1
40
1
40
1
40
1
41
1
10
36.1350828183885
20
1.08937283423472
30
0
41
1
10
36.0262680539503
20
1.1498607423849
30
0
41
1
10
35.918844738519
20
1.21077191773847
30
0
41
1
10
35.7071737343567
20
1.33343262543406
30
0
41
1
10
35.6029261279185
20
1.39518470027343
30
0
41
1
10
35.3980495683009
20
1.51937736255584
30
0
41
1
10
35.2974208582086
20
1.58182222778382
30
0
41
1
10
35.1742020405223
20
1.66006267383273
30
0
41
1
10
35.1496867296648
20
1.67571918169142
30
0
41
1
10
35.1009210152894
20
1.70703916183368
30
0
41
1
10
35.0766401904995
20
1.72272245838485
30
0
41
1
10
35.0044630140243
20
1.76959880515346
30
0
41
1
10
34.957260553283
20
1.8005996033437
30
0
41
1
10
34.8184863023143
20
1.89263700129882
30
0
41
1
10
34.729750344749
20
1.9527268930805
30
0
41
1
10
34.5602380809503
20
2.06884074501105
30
0
41
1
10
34.4794610000926
20
2.1248735047192
30
0
41
1
10
34.364505965799
20
2.20422076247533
30
0
41
1
10
34.3275676495725
20
2.22963964576988
30
0
41
1
10
34.2565594994728
20
2.27802819161459
30
0
41
1
10
34.2224590352087
20
2.30101910768227
30
0
41
1
10
34.1242516072094
20
2.36594677573768
30
0
41
1
10
34.0642310303312
20
2.40386596652269
30
0
41
1
10
34.0094014218519
20
2.43500014195862
30
0
0
SPLINE
5
147
100
AcDbEntity
8
1
62
256
6
ByLayer
370
18
48
1
60
0
100
AcDbSpline
70
4
71
3
72
22
73
18
40
0
40
0
40
0
40
0
40
0.125
40
0.125
40
0.25
40
0.25
40
0.375
40
0.375
40
0.5
40
0.5
40
0.625
40
0.625
40
0.75
40
0.75
40
0.875
40
0.875
40
1
40
1
40
1
40
1
41
1
10
34.0094014218519
20
2.43500014195862
30
0
41
1
10
34.0070060913435
20
2.43636029466342
30
0
41
1
10
34.0049065627797
20
2.43773135513814
30
0
41
1
10
34.0014621281004
20
2.44050542247729
30
0
41
1
10
34.0001086596828
20
2.44192048867669
30
0
41
1
10
33.9984573233749
20
2.44473960639451
30
0
41
1
10
33.9981595084477
20
2.44613122754734
30
0
41
1
10
33.9988513564609
20
2.44887860317735
30
0
41
1
10
33.9998789648811
20
2.45025530377822
30
0
41
1
10
34.0033493042448
20
2.4528270919553
30
0
41
1
10
34.0057897218094
20
2.45403792965743
30
0
41
1
10
34.0119543467928
20
2.45627456514561
30
0
41
1
10
34.0155828653114
20
2.45727172702684
30
0
41
1
10
34.0237349054573
20
2.459075124207
30
0
41
1
10
34.0282263420588
20
2.45987148913852
30
0
41
1
10
34.0376222796052
20
2.4612697319277
30
0
41
1
10
34.0425633872157
20
2.46187903906514
30
0
41
1
10
34.0476966799346
20
2.46241931457186
30
0
0
SPLINE
5
148
100
AcDbEntity
8
1
62
256
6
ByLayer
370
18
48
1
60
0
100
AcDbSpline
70
4
71
3
72
28
73
24
40
0
40
0
40
0
40
0
40
0.0625000000000063
40
0.0625000000000063
40
0.125000000000013
40
0.125000000000013
40
0.187500000000019
40
0.187500000000019
40
0.250000000000025
40
0.250000000000025
40
0.312500000000032
40
0.312500000000032
40
0.375000000000038
40
0.375000000000038
40
0.50000000000003
40
0.50000000000003
40
0.625000000000023
40
0.625000000000023
40
0.750000000000015
40
0.750000000000015
40
0.875000000000008
40
0.875000000000008
40
1
40
1
40
1
40
1
41
1
10
34.0476966799346
20
2.46241931457186
30
0
41
1
10
34.0864529065582
20
2.46649838060691
30
0
41
1
10
34.1264549774006
20
2.46960455267282
30
0
41
1
10
34.2081265578773
20
2.47468815767525
30
0
41
1
10
34.2498752964122
20
2.47665160628864
30
0
41
1
10
34.3336691817409
20
2.47977598931789
30
0
41
1
10
34.375850138804
20
2.48094148828312
30
0
41
1
10
34.4606601300894
20
2.48270392855855
30
0
41
1
10
34.5033515208306
20
2.48329881124673
30
0
41
1
10
34.5887326261797
20
2.48403282225254
30
0
41
1
10
34.6314323780143
20
2.48417206085892
30
0
41
1
10
34.7168476383404
20
2.48406666777794
30
0
41
1
10
34.7595943734925
20
2.48382109572731
30
0
41
1
10
34.8876418544198
20
2.48256097722418
30
0
41
1
10
34.9724981332115
20
2.48103404085444
30
0
41
1
10
35.1413835569313
20
2.47667267508825
30
0
41
1
10
35.2254105816515
20
2.47383387523251
30
0
41
1
10
35.3927464332253
20
2.46671821626828
30
0
41
1
10
35.4758930244397
20
2.46244485443987
30
0
41
1
10
35.6408780658085
20
2.45229462882011
30
0
41
1
10
35.7228282762398
20
2.44640924976991
30
0
41
1
10
35.8853213920595
20
2.43282272930577
30
0
41
1
10
35.965895338369
20
2.42511986703661
30
0
41
1
10
36.045876541769
20
2.41639047515204
30
0
0
SPLINE
5
149
100
AcDbEntity
8
1
62
256
6
ByLayer
370
18
48
1
60
0
100
AcDbSpline
70
4
71
3
72
8
73
4
40
0
40
0
40
0
40
0
40
1
40
1
40
1
40
1
41
1
10
36.2263350356273
20
2.4124268266601
30
0
41
1
10
36.2142314388034
20
2.40846113896933
30
0
41
1
10
36.2023706879367
20
2.40432968273689
30
0
41
1
10
36.1907810354439
20
2.4000180512048
30
0
0
SPLINE
5
14A
100
AcDbEntity
8
1
62
256
6
ByLayer
370
18
48
1
60
0
100
AcDbSpline
70
4
71
3
72
8
73
4
40
0
40
0
40
0
40
0
40
1
40
1
40
1
40
1
41
1
10
42.0537521545092
20
-0.175887269979768
30
0
41
1
10
42.0836596236197
20
-0.191372472909393
30
0
41
1
10
42.1137411127396
20
-0.206364234631053
30
0
41
1
10
42.1440660598734
20
-0.220796014910945
30
0
0
SPLINE
5
14B
100
AcDbEntity
8
1
62
256
6
ByLayer
370
18
48
1
60
0
100
AcDbSpline
70
4
71
3
72
29
73
25
40
0
40
0
40
0
40
0
40
0.0625000000000039
40
0.0625000000000039
40
0.125000000000008
40
0.187500000000012
40
0.187500000000012
40
0.250000000000015
40
0.250000000000015
40
0.375000000000023
40
0.375000000000023
40
0.437500000000021
40
0.437500000000021
40
0.500000000000018
40
0.500000000000018
40
0.625000000000014
40
0.625000000000014
40
0.687500000000011
40
0.687500000000011
40
0.750000000000009
40
0.750000000000009
40
0.875000000000005
40
0.875000000000005
40
1
40
1
40
1
40
1
41
1
10
43.8737014580585
20
-0.363918108812328
30
0
41
1
10
43.8626124151752
20
-0.37522739296125
30
0
41
1
10
43.8507858599078
20
-0.386070737419203
30
0
41
1
10
43.8258128363684
20
-0.406671261364949
30
0
41
1
10
43.7994911157607
20
-0.426211621890388
30
0
41
1
10
43.770450920045
20
-0.443607962677959
30
0
41
1
10
43.7400428360585
20
-0.459918453856744
30
0
41
1
10
43.7241401278959
20
-0.467536914203862
30
0
41
1
10
43.6744696655942
20
-0.488698386047304
30
0
41
1
10
43.6389043514245
20
-0.500489033135693
30
0
41
1
10
43.5819045995126
20
-0.514770786626713
30
0
41
1
10
43.5622944320716
20
-0.518964348349755
30
0
41
1
10
43.5218502051469
20
-0.52622224041238
30
0
41
1
10
43.5010317521401
20
-0.52928233427366
30
0
41
1
10
43.4370671631632
20
-0.536733778709163
30
0
41
1
10
43.3923115636709
20
-0.539419875893799
30
0
41
1
10
43.321998148766
20
-0.540058355686028
30
0
41
1
10
43.2979876638588
20
-0.539702553710043
30
0
41
1
10
43.2491739375325
20
-0.537863594978433
30
0
41
1
10
43.2243635696551
20
-0.536383015392801
30
0
41
1
10
43.1487363159363
20
-0.530279706282101
30
0
41
1
10
43.0967243146767
20
-0.52399969878141
30
0
41
1
10
42.9895442630587
20
-0.507020061048024
30
0
41
1
10
42.9343753184442
20
-0.496320361147667
30
0
41
1
10
42.8775785216165
20
-0.483323986091193
30
0
0
SPLINE
5
14C
100
AcDbEntity
8
1
62
256
6
ByLayer
370
18
48
1
60
0
100
AcDbSpline
70
4
71
3
72
16
73
12
40
0
40
0
40
0
40
0
40
0.249999999999991
40
0.249999999999991
40
0.499999999999982
40
0.499999999999982
40
0.624999999999996
40
0.624999999999996
40
0.750000000000009
40
0.750000000000009
40
1
40
1
40
1
40
1
41
1
10
42.8775785216165
20
-0.483323986091193
30
0
41
1
10
42.8128698515989
20
-0.468513068014119
30
0
41
1
10
42.7470124369517
20
-0.450944870846428
30
0
41
1
10
42.6130996096717
20
-0.410320360743555
30
0
41
1
10
42.545049159111
20
-0.387249292846235
30
0
41
1
10
42.4413519289192
20
-0.348432969693732
30
0
41
1
10
42.4065119803234
20
-0.334798424135783
30
0
41
1
10
42.3362567719263
20
-0.306140752972937
30
0
41
1
10
42.3007827439123
20
-0.29108843764692
30
0
41
1
10
42.1947598874762
20
-0.244425842723587
30
0
41
1
10
42.124209958821
20
-0.211162171271269
30
0
41
1
10
42.0537521545083
20
-0.175887269979427
30
0
0
SPLINE
5
14D
100
AcDbEntity
8
1
62
256
6
ByLayer
370
18
48
1
60
0
100
AcDbSpline
70
4
71
3
72
9
73
5
40
0
40
0
40
0
40
0
40
0.309728140811567
40
1
40
1
40
1
40
1
41
1
10
41.9326421540768
20
-0.111908149447345
30
0
41
1
10
41.3717614360511
20
0.189044709940106
30
0
41
1
10
39.5608807180256
20
1.1682906230954
30
0
41
1
10
37.75
20
1.9318864575406
30
0
41
1
10
36.5
20
2.1719688775143
30
0
0
SPLINE
5
14E
100
AcDbEntity
8
1
62
256
6
ByLayer
370
18
48
1
60
0
100
AcDbSpline
70
4
71
3
72
12
73
8
40
0
40
0
40
0
40
0
40
0.311823939796628
40
0.467735909694942
40
0.701603864542412
40
0.935471819389883
40
1
40
1
40
1
40
1
41
1
10
41.5
20
2.24633052988287
30
0
41
1
10
41.0833333333333
20
2.35226289854819
30
0
41
1
10
40.4583333333334
20
2.46517800651287
30
0
41
1
10
39.5208333333333
20
2.51221895459455
30
0
41
1
10
38.6875
20
2.46662059311222
30
0
41
1
10
37.9762758892457
20
2.34310057581749
30
0
41
1
10
37.5775517784913
20
2.24535497692705
30
0
41
1
10
37.491327667737
20
2.22290750408806
30
0
0
SPLINE
5
14F
100
AcDbEntity
8
1
62
256
6
ByLayer
370
18
48
1
60
0
100
AcDbSpline
70
4
71
3
72
12
73
8
40
0
40
0
40
0
40
0
40
0.26115845440897
40
0.26115845440897
40
0.522316902689693
40
0.522316902689693
40
1
40
1
40
1
40
1
41
1
10
43.8048576091967
20
0.625634651676677
30
0
41
1
10
43.8100482759982
20
0.610162319352241
30
0
41
1
10
43.8152449238999
20
0.594695692352303
30
0
41
1
10
43.8256498823305
20
0.563773636696823
30
0
41
1
10
43.8308581959413
20
0.548318198925216
30
0
41
1
10
43.8456090878294
20
0.504608865315987
30
0
41
1
10
43.85516502103
20
0.476367794282794
30
0
41
1
10
43.8647391429699
20
0.448144409690144
30
0
0
SPLINE
5
150
100
AcDbEntity
8
1
62
256
6
ByLayer
370
18
48
1
60
0
100
AcDbSpline
70
4
71
3
72
22
73
18
40
0
40
0
40
0
40
0
40
0.249999999999985
40
0.374999999999977
40
0.374999999999977
40
0.49999999999997
40
0.49999999999997
40
0.624999999999962
40
0.624999999999962
40
0.687499999999958
40
0.687499999999958
40
0.749999999999955
40
0.812499999999951
40
0.812499999999951
40
0.874999999999947
40
0.874999999999947
40
1
40
1
40
1
40
1
41
1
10
42.0124188118559
20
2.05892586255013
30
0
41
1
10
41.9699818184618
20
2.07953452528219
30
0
41
1
10
41.9063310137032
20
2.10871153906396
30
0
41
1
10
41.8425878030716
20
2.13527335051046
30
0
41
1
10
41.8000600849447
20
2.15238785695885
30
0
41
1
10
41.7788097477435
20
2.16091272282804
30
0
41
1
10
41.7362798507473
20
2.17744230247749
30
0
41
1
10
41.7150014801329
20
2.18545364193807
30
0
41
1
10
41.6829749886386
20
2.19645657976207
30
0
41
1
10
41.6722809800343
20
2.1999536982398
30
0
41
1
10
41.6508387861008
20
2.2064990146871
30
0
41
1
10
41.6293445418951
20
2.21261481090494
30
0
41
1
10
41.6077920039837
20
2.21827481630734
30
0
41
1
10
41.5862367396549
20
2.22391484648568
30
0
41
1
10
41.5754607154173
20
2.22674625144748
30
0
41
1
10
41.5431354625836
20
2.23525523537504
30
0
41
1
10
41.5215752121102
20
2.24084599880692
30
0
41
1
10
41.4999998097614
20
2.24632484650687
30
0
0
SPLINE
5
151
100
AcDbEntity
8
1
62
256
6
ByLayer
370
18
48
1
60
0
100
AcDbSpline
70
4
71
3
72
22
73
18
40
0
40
0
40
0
40
0
40
1.08361444761E-05
40
0.0272228924775273
40
0.0614299849741371
40
0.116512867956694
40
0.180065347723048
40
0.214321689614903
40
0.223339844083348
40
0.225625528885281
40
0.227714724791254
40
0.232149924945168
40
0.249345610057469
40
0.313876879548114
40
0.386999510780391
40
0.705059081739686
40
1
40
1
40
1
40
1
41
1
10
41.4999977044629
20
2.24632556873215
30
0
41
1
10
41.500007397759
20
2.2463231070227
30
0
41
1
10
41.5128298920574
20
2.24306669850299
30
0
41
1
10
41.5420298924927
20
2.23559254321722
30
0
41
1
10
41.5967505691227
20
2.2210795589001
30
0
41
1
10
41.6680951987513
20
2.20274411926346
30
0
41
1
10
41.7394072795033
20
2.17650996640481
30
0
41
1
10
41.789167638406
20
2.1567398119162
30
0
41
1
10
41.810536229748
20
2.14814460297973
30
0
41
1
10
41.8166357601693
20
2.14570585462386
30
0
41
1
10
41.8210112233957
20
2.14394770115098
30
0
41
1
10
41.8326466862873
20
2.13926924914372
30
0
41
1
10
41.8746107329008
20
2.12215349041571
30
0
41
1
10
41.9501816318698
20
2.08991823292675
30
0
41
1
10
42.1699924764161
20
1.98918587479918
30
0
41
1
10
42.4902928798114
20
1.8139902229176
30
0
41
1
10
42.7559150949887
20
1.63250606661046
30
0
41
1
10
42.8775785203916
20
1.54068391741973
30
0
0
SPLINE
5
152
100
AcDbEntity
8
1
62
256
6
ByLayer
370
18
48
1
60
0
100
AcDbSpline
70
4
71
3
72
22
73
18
40
0
40
0
40
0
40
0
40
1.08360927401E-05
40
0.0272229284041308
40
0.0614300636995378
40
0.116513016432436
40
0.180065577146251
40
0.214321962712397
40
0.223340128654293
40
0.225625816460507
40
0.227715015062375
40
0.232150220871336
40
0.249345927927688
40
0.313877279744398
40
0.387000004259992
40
0.705059980945912
40
1
40
1
40
1
40
1
41
1
10
41.4999977908509
20
-2.06696244217784
30
0
41
1
10
41.5000073113408
20
-2.06696550490091
30
0
41
1
10
41.5128298918921
20
-2.07109049692866
30
0
41
1
10
41.5420298904323
20
-2.08043124749554
30
0
41
1
10
41.5967505704072
20
-2.09746189844336
30
0
41
1
10
41.6680951987544
20
-2.12022822584069
30
0
41
1
10
41.7394072797026
20
-2.13554694908331
30
0
41
1
10
41.7891676383024
20
-2.14468161095238
30
0
41
1
10
41.8105362298119
20
-2.14845937586071
30
0
41
1
10
41.8166357601818
20
-2.14954736486675
30
0
41
1
10
41.8210112234706
20
-2.15031759935931
30
0
41
1
10
41.8326466864156
20
-2.15234536875513
30
0
41
1
10
41.8746107330425
20
-2.15921241624014
30
0
41
1
10
41.9501816321538
20
-2.1688197030752
30
0
41
1
10
42.1699924769424
20
-2.18325203440188
30
0
41
1
10
42.4902922852841
20
-2.14912344388108
30
0
41
1
10
42.7559139907791
20
-2.05054904230769
30
0
41
1
10
42.8775769432451
20
-1.98851616898466
30
0
0
SPLINE
5
153
100
AcDbEntity
8
1
62
256
6
ByLayer
370
18
48
1
60
0
100
AcDbSpline
70
4
71
3
72
9
73
5
40
0
40
0
40
0
40
0
40
0.440683370682343
40
1
40
1
40
1
40
1
41
1
10
42.1096079801612
20
1.92165019564155
30
0
41
1
10
41.4897386534408
20
2.10856237465117
30
0
41
1
10
40.0831293553395
20
2.40265755647084
30
0
41
1
10
38.6765200572382
20
2.3118526721008
30
0
41
1
10
37.8897800858573
20
2.15707011098485
30
0
0
SPLINE
5
154
100
AcDbEntity
8
1
62
256
6
ByLayer
370
18
48
1
60
0
100
AcDbSpline
70
4
71
3
72
8
73
4
40
0
40
0
40
0
40
0
40
1
40
1
40
1
40
1
41
1
10
42.6174419638114
20
-0.682787608318648
30
0
41
1
10
42.6428682776639
20
-0.669301035390788
30
0
41
1
10
42.6688436548681
20
-0.655925195794822
30
0
41
1
10
42.6953846646711
20
-0.642663431163299
30
0
0
SPLINE
5
155
100
AcDbEntity
8
1
62
256
6
ByLayer
370
18
48
1
60
0
100
AcDbSpline
70
4
71
3
72
14
73
10
40
0
40
0
40
0
40
0
40
0.500000000000029
40
0.500000000000029
40
0.625000000000029
40
0.625000000000029
40
0.750000000000029
40
0.750000000000029
40
1
40
1
40
1
40
1
41
1
10
42.6953846646711
20
-0.642663431163356
30
0
41
1
10
42.8318028006009
20
-0.698006820657554
30
0
41
1
10
42.9740179135429
20
-0.727843717909849
30
0
41
1
10
43.1574150734482
20
-0.740375657671876
30
0
41
1
10
43.194393549647
20
-0.741637616222789
30
0
41
1
10
43.2688140953848
20
-0.741828825179425
30
0
41
1
10
43.3060331804158
20
-0.74075954573641
30
0
41
1
10
43.4177142202687
20
-0.7344075885851
30
0
41
1
10
43.492199883619
20
-0.725990869161592
30
0
41
1
10
43.5667112555781
20
-0.714175716421522
30
0
0
SPLINE
5
156
100
AcDbEntity
8
1
62
256
6
ByLayer
370
18
48
1
60
0
100
AcDbSpline
70
4
71
3
72
8
73
4
40
0
40
0
40
0
40
0
40
1
40
1
40
1
40
1
41
1
10
43.5030935567101
20
-0.633606898955406
30
0
41
1
10
43.5242059541273
20
-0.660557564982867
30
0
41
1
10
43.5454128781281
20
-0.687412803332393
30
0
41
1
10
43.5667112555821
20
-0.714175716429736
30
0
0
SPLINE
5
157
100
AcDbEntity
8
1
62
256
6
ByLayer
370
18
48
1
60
0
100
AcDbSpline
70
4
71
3
72
8
73
4
40
0
40
0
40
0
40
0
40
1
40
1
40
1
40
1
41
1
10
43.5030935567102
20
-0.633606898955406
30
0
41
1
10
43.5180066954877
20
-0.611337001258477
30
0
41
1
10
43.5327585445923
20
-0.588864655620426
30
0
41
1
10
43.547364995263
20
-0.566209808442864
30
0
0
SPLINE
5
158
100
AcDbEntity
8
1
62
256
6
ByLayer
370
18
48
1
60
0
100
AcDbSpline
70
4
71
3
72
12
73
8
40
0
40
0
40
0
40
0
40
0.250000000000257
40
0.250000000000257
40
0.500000000000515
40
0.500000000000515
40
1
40
1
40
1
40
1
41
1
10
43.7598522474865
20
0.400531715279357
30
0
41
1
10
43.7567672548944
20
0.399723069260602
30
0
41
1
10
43.7533833622199
20
0.399553397836399
30
0
41
1
10
43.7466624242626
20
0.399596660702201
30
0
41
1
10
43.743342252616
20
0.399839158514368
30
0
41
1
10
43.7334352021506
20
0.400859686360491
30
0
41
1
10
43.7268905500077
20
0.401941421437698
30
0
41
1
10
43.7204832133459
20
0.403151301627048
30
0
0
SPLINE
5
159
100
AcDbEntity
8
1
62
256
6
ByLayer
370
18
48
1
60
0
100
AcDbSpline
70
4
71
3
72
8
73
4
40
0
40
0
40
0
40
0
40
1
40
1
40
1
40
1
41
1
10
42.0124188118559
20
2.0589258625501
30
0
41
1
10
42.0265893717932
20
2.05360762153845
30
0
41
1
10
42.0403571685687
20
2.04776081062565
30
0
41
1
10
42.0537521544957
20
2.04141612626611
30
0
0
SPLINE
5
15A
100
AcDbEntity
8
1
62
256
6
ByLayer
370
18
48
1
60
0
100
AcDbSpline
70
4
71
3
72
8
73
4
40
0
40
0
40
0
40
0
40
1
40
1
40
1
40
1
41
1
10
42.1096079801613
20
1.9216501956416
30
0
41
1
10
42.076202738534
20
1.96668947306509
30
0
41
1
10
42.0438306372631
20
2.01246499213707
30
0
41
1
10
42.0124188118471
20
2.05892586254581
30
0
0
SPLINE
5
15B
100
AcDbEntity
8
1
62
256
6
ByLayer
370
18
48
1
60
0
100
AcDbSpline
70
4
71
3
72
32
73
28
40
0
40
0
40
0
40
0
40
0.124999999999966
40
0.124999999999966
40
0.187499999999962
40
0.187499999999962
40
0.249999999999957
40
0.249999999999957
40
0.374999999999968
40
0.374999999999968
40
0.499999999999979
40
0.499999999999979
40
0.562499999999984
40
0.562499999999984
40
0.62499999999999
40
0.62499999999999
40
0.750000000000001
40
0.750000000000001
40
0.812500000000007
40
0.812500000000007
40
0.875000000000012
40
0.875000000000012
40
0.937500000000018
40
0.937500000000018
40
0.968750000000009
40
0.968750000000009
40
1
40
1
40
1
40
1
41
1
10
42.4745896106463
20
1.1153502044248
30
0
41
1
10
42.4491732125722
20
1.14229623790388
30
0
41
1
10
42.4267902154174
20
1.17141926989123
30
0
41
1
10
42.3965243156704
20
1.21768354968916
30
0
41
1
10
42.3869951119641
20
1.2335404960597
30
0
41
1
10
42.3689027777872
20
1.26604791586087
30
0
41
1
10
42.3603214962735
20
1.28273789557713
30
0
41
1
10
42.33593764769
20
1.33362515986457
30
0
41
1
10
42.321653699452
20
1.36825288100027
30
0
41
1
10
42.2954924414379
20
1.43835617055959
30
0
41
1
10
42.2836182840804
20
1.47383288290163
30
0
41
1
10
42.2666213964129
20
1.5273254591566
30
0
41
1
10
42.2610932576127
20
1.54520321983816
30
0
41
1
10
42.2501541110802
20
1.58099561749515
30
0
41
1
10
42.2447362656387
20
1.59893425893901
30
0
41
1
10
42.22847657613
20
1.65250253230693
30
0
41
1
10
42.2176598517569
20
1.68789053902827
30
0
41
1
10
42.200160731689
20
1.74016067466078
30
0
41
1
10
42.1941112631416
20
1.75744825226096
30
0
41
1
10
42.1811753500293
20
1.79166425192568
30
0
41
1
10
42.1742912979586
20
1.80859287150531
30
0
41
1
10
42.1590135585129
20
1.84195535915475
30
0
41
1
10
42.1505911232355
20
1.85838267171704
30
0
41
1
10
42.1363068556682
20
1.88256475256082
30
0
41
1
10
42.1312635327356
20
1.89056502634935
30
0
41
1
10
42.1207467942613
20
1.90628444462016
30
0
41
1
10
42.1152675335419
20
1.91401845896379
30
0
41
1
10
42.1096079801598
20
1.92165019564197
30
0
0
SPLINE
5
15C
100
AcDbEntity
8
1
62
256
6
ByLayer
370
13
48
1
60
0
100
AcDbSpline
70
4
71
3
72
25
73
21
40
0
40
0
40
0
40
0
40
0.125000000000005
40
0.125000000000005
40
0.250000000000009
40
0.250000000000009
40
0.375000000000014
40
0.375000000000014
40
0.500000000000019
40
0.500000000000019
40
0.562500000000021
40
0.593750000000022
40
0.593750000000022
40
0.625000000000023
40
0.625000000000023
40
0.750000000000015
40
0.750000000000015
40
0.875000000000008
40
0.875000000000008
40
1
40
1
40
1
40
1
41
1
10
42.0537521545059
20
2.04141612626671
30
0
41
1
10
42.1107732580746
20
1.95543189509851
30
0
41
1
10
42.168426935295
20
1.87032552843786
30
0
41
1
10
42.2859619245302
20
1.70275488937506
30
0
41
1
10
42.3458374256073
20
1.62028702648348
30
0
41
1
10
42.4689265215456
20
1.45911727317667
30
0
41
1
10
42.5322028892009
20
1.38045805484231
30
0
41
1
10
42.6638114774293
20
1.22819604753442
30
0
41
1
10
42.7321981929229
20
1.15462699121824
30
0
41
1
10
42.8399610380033
20
1.049051112201
30
0
41
1
10
42.8950735084784
20
0.997418034755214
30
0
41
1
10
42.9519625322332
20
0.9474928645906
30
0
41
1
10
42.9902743940954
20
0.914584765697299
30
0
41
1
10
43.0096465346636
20
0.89829941313306
30
0
41
1
10
43.1071824541844
20
0.818018354484082
30
0
41
1
10
43.1866261060045
20
0.758049933915373
30
0
41
1
10
43.347531815092
20
0.64525705615614
30
0
41
1
10
43.4289715957003
20
0.59243815395169
30
0
41
1
10
43.5933191671766
20
0.492507268800665
30
0
41
1
10
43.6762426356532
20
0.445399894738415
30
0
41
1
10
43.7598522475005
20
0.400531715271825
30
0
0
SPLINE
5
15D
100
AcDbEntity
8
1
62
256
6
ByLayer
370
18
48
1
60
0
100
AcDbSpline
70
4
71
3
72
8
73
4
40
0
40
0
40
0
40
0
40
1
40
1
40
1
40
1
41
1
10
43.7598522474984
20
0.400531715273928
30
0
41
1
10
43.7895154931487
20
0.408307119843613
30
0
41
1
10
43.8192080899825
20
0.416046581029207
30
0
41
1
10
43.8489240127811
20
0.42375747729713
30
0
0
SPLINE
5
15E
100
AcDbEntity
8
1
62
256
6
ByLayer
370
18
48
1
60
0
100
AcDbSpline
70
4
71
3
72
8
73
4
40
0
40
0
40
0
40
0
40
1
40
1
40
1
40
1
41
1
10
43.8489240127811
20
0.423757477297158
30
0
41
1
10
43.8542101774077
20
0.431854867438574
30
0
41
1
10
43.8594817734817
20
0.439984094006547
30
0
41
1
10
43.864739142975
20
0.448144409695146
30
0
0
SPLINE
5
15F
100
AcDbEntity
8
1
62
256
6
ByLayer
370
18
48
1
60
0
100
AcDbSpline
70
4
71
3
72
27
73
23
40
0
40
0
40
0
40
0
40
0.062499999999998
40
0.062499999999998
40
0.124999999999996
40
0.187499999999994
40
0.187499999999994
40
0.249999999999992
40
0.249999999999992
40
0.374999999999988
40
0.374999999999988
40
0.499999999999984
40
0.499999999999984
40
0.624999999999979
40
0.624999999999979
40
0.687499999999977
40
0.687499999999977
40
0.749999999999975
40
0.749999999999975
40
0.874999999999987
40
0.874999999999987
40
1
40
1
40
1
40
1
41
1
10
43.8647391429674
20
0.448144409694237
30
0
41
1
10
43.8534559326871
20
0.470440596593619
30
0
41
1
10
43.8414840332062
20
0.492927283624681
30
0
41
1
10
43.8162651336994
20
0.538091041049114
30
0
41
1
10
43.7897391375491
20
0.583500240328135
30
0
41
1
10
43.7605796889669
20
0.629410053202975
30
0
41
1
10
43.7300957280424
20
0.675577117268858
30
0
41
1
10
43.7141684229305
20
0.698821020332559
30
0
41
1
10
43.6645985685465
20
0.768664542103352
30
0
41
1
10
43.629188559954
20
0.815386310031698
30
0
41
1
10
43.5536518737035
20
0.909095659107834
30
0
41
1
10
43.5134255352227
20
0.956192084753098
30
0
41
1
10
43.4290002564437
20
1.04971513340894
30
0
41
1
10
43.3847447293571
20
1.09621125314121
30
0
41
1
10
43.3152840796272
20
1.16553544915118
30
0
41
1
10
43.2915816901417
20
1.18860630587139
30
0
41
1
10
43.2434444361823
20
1.23432658921746
30
0
41
1
10
43.2189861409853
20
1.25700182271274
30
0
41
1
10
43.1444547854537
20
1.32447805666814
30
0
41
1
10
43.0932266052566
20
1.36872942000704
30
0
41
1
10
42.9877174991208
20
1.45579454550401
30
0
41
1
10
42.9334352629288
20
1.49860711976095
30
0
41
1
10
42.8775785203917
20
1.54068391741973
30
0
0
SPLINE
5
160
100
AcDbEntity
8
1
62
256
6
ByLayer
370
18
48
1
60
0
100
AcDbSpline
70
4
71
3
72
19
73
15
40
0
40
0
40
0
40
0
40
0.12499999999997
40
0.12499999999997
40
0.187499999999972
40
0.187499999999972
40
0.249999999999974
40
0.499999999999983
40
0.499999999999983
40
0.749999999999991
40
0.749999999999991
40
0.874999999999996
40
0.874999999999996
40
1
40
1
40
1
40
1
41
1
10
42.8775785203917
20
1.5406839174197
30
0
41
1
10
42.8454142952709
20
1.56489025204402
30
0
41
1
10
42.8127626541818
20
1.58882593222788
30
0
41
1
10
42.7630406111714
20
1.62432020155549
30
0
41
1
10
42.7463160649783
20
1.63610162985259
30
0
41
1
10
42.7127599484697
20
1.65942767660087
30
0
41
1
10
42.6286467798947
20
1.71711885733592
30
0
41
1
10
42.5434634771568
20
1.77177609135526
30
0
41
1
10
42.4058806860579
20
1.85552110421074
30
0
41
1
10
42.3364281210085
20
1.89551668783173
30
0
41
1
10
42.2311611296301
20
1.95254455686958
30
0
41
1
10
42.1958908486553
20
1.97105932669226
30
0
41
1
10
42.1249727129954
20
2.00707195865456
30
0
41
1
10
42.089261246608
20
2.02459684906861
30
0
41
1
10
42.0537521545052
20
2.04141612626165
30
0
0
SPLINE
5
161
100
AcDbEntity
8
1
62
256
6
ByLayer
370
18
48
1
60
0
100
AcDbSpline
70
4
71
3
72
12
73
8
40
0
40
0
40
0
40
0
40
0.006807491830816
40
0.17233957652568
40
0.420637703567976
40
0.668935830610272
40
1
40
1
40
1
40
1
41
1
10
40.2757030677896
20
-2.45637546208548
30
0
41
1
10
40.2671353785264
20
-2.45729319373038
30
0
41
1
10
40.0502343559299
20
-2.48014109546577
30
0
41
1
10
39.5208333333334
20
-2.51200621661289
30
0
41
1
10
38.6875000000001
20
-2.47481270126013
30
0
41
1
10
37.6458333333334
20
-2.30401589289684
30
0
41
1
10
36.9166666666667
20
-2.08843369513298
30
0
41
1
10
36.5000000000001
20
-1.93627969871616
30
0
0
SPLINE
5
162
100
AcDbEntity
8
1
62
256
6
ByLayer
370
18
48
1
60
0
100
AcDbSpline
70
4
71
3
72
10
73
6
40
0
40
0
40
0
40
0
40
0.5
40
0.5
40
1
40
1
40
1
40
1
41
1
10
36.5
20
-2.37890335961868
30
0
41
1
10
36.4387172584246
20
-2.39759354226825
30
0
41
1
10
36.3777147620297
20
-2.41855386551717
30
0
41
1
10
36.2561274878352
20
-2.46478590131545
30
0
41
1
10
36.1955432548518
20
-2.49005852218548
30
0
41
1
10
36.1350828183885
20
-2.51741773968098
30
0
0
SPLINE
5
163
100
AcDbEntity
8
1
62
256
6
ByLayer
370
18
48
1
60
0
100
AcDbSpline
70
4
71
3
72
22
73
18
40
0
40
0
40
0
40
0
40
0.249999999999985
40
0.249999999999985
40
0.374999999999977
40
0.374999999999977
40
0.499999999999966
40
0.499999999999966
40
0.624999999999956
40
0.624999999999956
40
0.749999999999946
40
0.749999999999946
40
0.812499999999941
40
0.812499999999941
40
0.874999999999936
40
0.874999999999936
40
1
40
1
40
1
40
1
41
1
10
42.7701345845542
20
-0.933072470852295
30
0
41
1
10
42.7764836078888
20
-0.941564795236076
30
0
41
1
10
42.7823348157348
20
-0.950517339410709
30
0
41
1
10
42.7900182035607
20
-0.964957003953685
30
0
41
1
10
42.7923950316212
20
-0.969940608121448
30
0
41
1
10
42.7966691094709
20
-0.980351176648043
30
0
41
1
10
42.7985676820682
20
-0.985796104470779
30
0
41
1
10
42.8016259293133
20
-0.996965126468382
30
0
41
1
10
42.8028019455111
20
-1.00271776887593
30
0
41
1
10
42.8042119649467
20
-1.01467159131744
30
0
41
1
10
42.8044202102742
20
-1.02070937575965
30
0
41
1
10
42.8038565839525
20
-1.02978317258027
30
0
41
1
10
42.8035227168271
20
-1.03281499814616
30
0
41
1
10
42.8025343843656
20
-1.03889451897129
30
0
41
1
10
42.801873102695
20
-1.04195836940858
30
0
41
1
10
42.7994485966441
20
-1.05088132577524
30
0
41
1
10
42.7972389909366
20
-1.056560585531
30
0
41
1
10
42.7944696330493
20
-1.0619856853935
30
0
0
SPLINE
5
164
100
AcDbEntity
8
1
62
256
6
ByLayer
370
18
48
1
60
0
100
AcDbSpline
70
4
71
3
72
29
73
25
40
0
40
0
40
0
40
0
40
0.06250000000001
40
0.06250000000001
40
0.12500000000002
40
0.12500000000002
40
0.250000000000021
40
0.250000000000021
40
0.375000000000022
40
0.375000000000022
40
0.437500000000013
40
0.437500000000013
40
0.500000000000004
40
0.500000000000004
40
0.624999999999986
40
0.624999999999986
40
0.687499999999985
40
0.718749999999993
40
0.718749999999993
40
0.75
40
0.75
40
0.875
40
0.875
40
1
40
1
40
1
40
1
41
1
10
42.5269681337367
20
-1.67556453439659
30
0
41
1
10
42.5544024076724
20
-1.67626046733307
30
0
41
1
10
42.5819801487442
20
-1.6757879502556
30
0
41
1
10
42.6374308223961
20
-1.67243876606307
30
0
41
1
10
42.6653358695802
20
-1.66955746991781
30
0
41
1
10
42.7493121669555
20
-1.65718336259306
30
0
41
1
10
42.8045123625124
20
-1.64416097818051
30
0
41
1
10
42.9133773735749
20
-1.60876887213803
30
0
41
1
10
42.9670400517913
20
-1.58638613876997
30
0
41
1
10
43.0463310035526
20
-1.54548781986696
30
0
41
1
10
43.0725852160492
20
-1.53061354721714
30
0
41
1
10
43.1245678128166
20
-1.49836164172257
30
0
41
1
10
43.1499946613025
20
-1.48117350914742
30
0
41
1
10
43.2246208151925
20
-1.42649588320128
30
0
41
1
10
43.2721759718284
20
-1.3859124364686
30
0
41
1
10
43.340241151651
20
-1.31888839265048
30
0
41
1
10
43.3734506218552
20
-1.28382742698611
30
0
41
1
10
43.4053982815312
20
-1.24639199070711
30
0
41
1
10
43.4264123539606
20
-1.22089991170407
30
0
41
1
10
43.4367718644646
20
-1.20789140899569
30
0
41
1
10
43.4874009995635
20
-1.1420788312785
30
0
41
1
10
43.5245365414686
20
-1.08651963574533
30
0
41
1
10
43.592308454162
20
-0.969787150787738
30
0
41
1
10
43.6229919009989
20
-0.908654526450022
30
0
41
1
10
43.6503829229471
20
-0.844677849828884
30
0
0
SPLINE
5
165
100
AcDbEntity
8
1
62
256
6
ByLayer
370
18
48
1
60
0
100
AcDbSpline
70
4
71
3
72
27
73
23
40
0
40
0
40
0
40
0
40
3.7592837918E-06
40
0.0134811545902805
40
0.030423000862269
40
0.057704061066491
40
0.0891798834207016
40
0.10614612198712
40
0.110612569695279
40
0.111744607531954
40
0.112779329710202
40
0.114975964252999
40
0.123492521485022
40
0.155453111951336
40
0.191668771258489
40
0.349195064639994
40
0.567221039498977
40
0.657410743877753
40
0.791236233288183
40
0.877086443901305
40
0.996978110128929
40
1
40
1
40
1
40
1
41
1
10
41.4999959438736
20
-1.9195849191872
30
0
41
1
10
41.500005354791
20
-1.91958830365695
30
0
41
1
10
41.5126448223732
20
-1.92413386411221
30
0
41
1
10
41.5413056070715
20
-1.93443887375722
30
0
41
1
10
41.595206168711
20
-1.95330349704599
30
0
41
1
10
41.665425101556
20
-1.97852807633996
30
0
41
1
10
41.7352675920497
20
-1.99640282580344
30
0
41
1
10
41.7839595616993
20
-2.00737279497829
30
0
41
1
10
41.8047687509752
20
-2.01207791938714
30
0
41
1
10
41.8107816088085
20
-2.0133249195799
30
0
41
1
10
41.8148804219051
20
-2.01433372226657
30
0
41
1
10
41.8257898664749
20
-2.01686694159954
30
0
41
1
10
41.8652620606413
20
-2.02535588914861
30
0
41
1
10
41.9362808810675
20
-2.03855762622274
30
0
41
1
10
42.1435647328823
20
-2.06365364473328
30
0
41
1
10
42.5121685501443
20
-2.04494404601766
30
0
41
1
10
42.8973627347207
20
-1.89963919987966
30
0
41
1
10
43.2253237634195
20
-1.67480921780421
30
0
41
1
10
43.4333901812802
20
-1.47337405435576
30
0
41
1
10
43.6328303677307
20
-1.20450836380391
30
0
41
1
10
43.73645435305
20
-1.00986140419613
30
0
41
1
10
43.788863446601
20
-0.883193313038191
30
0
41
1
10
43.7901466875055
20
-0.880071802833555
30
0
0
SPLINE
5
166
100
AcDbEntity
8
1
62
256
6
ByLayer
370
18
48
1
60
0
100
AcDbSpline
70
4
71
3
72
10
73
6
40
0
40
0
40
0
40
0
40
0.5
40
0.5
40
1
40
1
40
1
40
1
41
1
10
43.6503829229464
20
-0.844677849829282
30
0
41
1
10
43.6772038001004
20
-0.815260158738369
30
0
41
1
10
43.7032675377756
20
-0.784587007965627
30
0
41
1
10
43.7537111174235
20
-0.720970337057594
30
0
41
1
10
43.7781026011446
20
-0.688017259084404
30
0
41
1
10
43.8016672737452
20
-0.653924257121901
30
0
0
SPLINE
5
167
100
AcDbEntity
8
1
62
256
6
ByLayer
370
18
48
1
60
0
100
AcDbSpline
70
4
71
3
72
8
73
4
40
0
40
0
40
0
40
0
40
1
40
1
40
1
40
1
41
1
10
42.6174419638118
20
-0.682787608318733
30
0
41
1
10
42.5957684261094
20
-0.68139811244626
30
0
41
1
10
42.5740511754858
20
-0.680094623524553
30
0
41
1
10
42.5522935775195
20
-0.678870519641407
30
0
0
SPLINE
5
168
100
AcDbEntity
8
1
62
256
6
ByLayer
370
13
48
1
60
0
100
AcDbSpline
70
4
71
3
72
9
73
5
40
0
40
0
40
0
40
0
40
0.598073286845261
40
1
40
1
40
1
40
1
41
1
10
36.5
20
1.1425229636634
30
0
41
1
10
37.75
20
0.837779183078879
30
0
41
1
10
39.8400448615479
20
0.0511593961825269
30
0
41
1
10
41.9300897230958
20
-0.686519194225582
30
0
41
1
10
42.7701345846437
20
-0.933072470852494
30
0
0
SPLINE
5
169
100
AcDbEntity
8
1
62
256
6
ByLayer
370
18
48
1
60
0
100
AcDbSpline
70
4
71
3
72
10
73
6
40
0
40
0
40
0
40
0
40
0.5
40
0.5
40
1
40
1
40
1
40
1
41
1
10
42.5522935775235
20
-0.678870519640896
30
0
41
1
10
42.5904773744663
20
-0.718625288661087
30
0
41
1
10
42.627881609965
20
-0.759464993871575
30
0
41
1
10
42.7006928203438
20
-0.843924044513955
30
0
41
1
10
42.7361090396214
20
-0.887530524269295
30
0
41
1
10
42.7701345733915
20
-0.933072457676246
30
0
0
SPLINE
5
16A
100
AcDbEntity
8
1
62
256
6
ByLayer
370
18
48
1
60
0
100
AcDbSpline
70
4
71
3
72
8
73
4
40
0
40
0
40
0
40
0
40
1
40
1
40
1
40
1
41
1
10
36.5505949785664
20
2.36966515175149
30
0
41
1
10
36.5337017376309
20
2.37105621804173
30
0
41
1
10
36.5168364828901
20
2.37238207809582
30
0
41
1
10
36.4999999999989
20
2.37364076624169
30
0
0
SPLINE
5
16B
100
AcDbEntity
8
1
62
256
6
ByLayer
370
18
48
1
60
0
100
AcDbSpline
70
4
71
3
72
31
73
27
40
0
40
0
40
0
40
0
40
0.124999999999987
40
0.124999999999987
40
0.156249999999987
40
0.156249999999987
40
0.187499999999987
40
0.187499999999987
40
0.249999999999987
40
0.249999999999987
40
0.374999999999994
40
0.374999999999994
40
0.437499999999994
40
0.437499999999994
40
0.499999999999994
40
0.499999999999994
40
0.624999999999994
40
0.624999999999994
40
0.68749999999999
40
0.718749999999989
40
0.718749999999989
40
0.749999999999987
40
0.749999999999987
40
0.874999999999994
40
0.874999999999994
40
1
40
1
40
1
40
1
41
1
10
41.5
20
0.667592573928061
30
0
41
1
10
41.2933298172804
20
0.777088086813393
30
0
41
1
10
41.086958787359
20
0.884205531120955
30
0
41
1
10
40.8288376374305
20
1.01407059080097
30
0
41
1
10
40.7772052195792
20
1.03984121796214
30
0
41
1
10
40.6739093831259
20
1.09094801683943
30
0
41
1
10
40.6222317841073
20
1.11629092153723
30
0
41
1
10
40.4673619188229
20
1.19150962391572
30
0
41
1
10
40.3642681301999
20
1.24060824123214
30
0
41
1
10
40.0552748651488
20
1.38440769866935
30
0
41
1
10
39.8496614390182
20
1.47560605874597
30
0
41
1
10
39.5409981244209
20
1.60455691425989
30
0
41
1
10
39.4380704856102
20
1.64623182961188
30
0
41
1
10
39.2319974039804
20
1.72681715261581
30
0
41
1
10
39.1287974955541
20
1.76574505591296
30
0
41
1
10
38.8197202491444
20
1.87778620234138
30
0
41
1
10
38.6140468605795
20
1.94629044483048
30
0
41
1
10
38.3052965678108
20
2.03909019905595
30
0
41
1
10
38.1508617259078
20
2.08300027562777
30
0
41
1
10
37.9961912828816
20
2.12303847247395
30
0
41
1
10
37.8930094772223
20
2.14885372934418
30
0
41
1
10
37.8413668646325
20
2.16132682046057
30
0
41
1
10
37.5833303294054
20
2.22137024175348
30
0
41
1
10
37.3772420915842
20
2.26204493781566
30
0
41
1
10
36.9648649983583
20
2.32780669108686
30
0
41
1
10
36.7585767672189
20
2.35289690413114
30
0
41
1
10
36.5517754736083
20
2.36962804083262
30
0
0
SPLINE
5
16C
100
AcDbEntity
8
1
62
256
6
ByLayer
370
18
48
1
60
0
100
AcDbSpline
70
4
71
3
72
12
73
8
40
0
40
0
40
0
40
0
40
0.5
40
0.5
40
0.75
40
0.75
40
1
40
1
40
1
40
1
41
1
10
42.7944696346249
20
-1.06198568570414
30
0
41
1
10
42.7438722949254
20
-1.16053138301231
30
0
41
1
10
42.6953306375273
20
-1.26049800862296
30
0
41
1
10
42.6274814583209
20
-1.41365920511646
30
0
41
1
10
42.6057380592898
20
-1.46517508020534
30
0
41
1
10
42.5644940629864
20
-1.5693941179465
30
0
41
1
10
42.5449698533367
20
-1.62215530111519
30
0
41
1
10
42.5269681337384
20
-1.67556453439749
30
0
0
SPLINE
5
16D
100
AcDbEntity
8
1
62
256
6
ByLayer
370
18
48
1
60
0
100
AcDbSpline
70
4
71
3
72
9
73
5
40
0
40
0
40
0
40
0
40
0.404238924234535
40
1
40
1
40
1
40
1
41
1
10
42.794469633119
20
-1.06198568525599
30
0
41
1
10
41.946313088746
20
-0.820516659953512
30
0
41
1
10
39.848156544373
20
-0.0805109479340444
30
0
41
1
10
37.75
20
0.756454383746018
30
0
41
1
10
36.5
20
1.09449224149719
30
0
0
SPLINE
5
16E
100
AcDbEntity
8
1
62
256
6
ByLayer
370
18
48
1
60
0
100
AcDbSpline
70
4
71
3
72
38
73
34
40
0
40
0
40
0
40
0
40
0.0210512198885597
40
0.0435131816177645
40
0.0673872198560078
40
0.09267421023667
40
0.119374640849424
40
0.147488664984523
40
0.177016140439433
40
0.207956659024978
40
0.240309568811531
40
0.274073990921636
40
0.309248832174751
40
0.345832794542504
40
0.383824382128149
40
0.423221906208984
40
0.46402348875391
40
0.506227064735378
40
0.548222540437873
40
0.58747051242801
40
0.62397397344281
40
0.657737030364336
40
0.688765144145922
40
0.717065509519169
40
0.742647659483019
40
0.766066849300584
40
0.791334632968646
40
0.819287988845341
40
0.849950439159103
40
0.883340041764649
40
0.919470979631102
40
0.958354583505597
40
1
40
1
40
1
40
1
41
1
10
36.5548086562052
20
0.913691093188419
30
0
41
1
10
36.5549582968632
20
0.915764663947186
30
0
41
1
10
36.5552676063077
20
0.920050765251546
30
0
41
1
10
36.5554600176958
20
0.926639870941784
30
0
41
1
10
36.555480648901
20
0.933575884448317
30
0
41
1
10
36.5553043893033
20
0.94082700674835
30
0
41
1
10
36.5549384746382
20
0.948361934094038
30
0
41
1
10
36.5543806996874
20
0.956146612952608
30
0
41
1
10
36.5536316260644
20
0.964145173496263
30
0
41
1
10
36.5526910279453
20
0.972319643152389
30
0
41
1
10
36.551558915419
20
0.980630017066147
30
0
41
1
10
36.5502352496361
20
0.989034221626923
30
0
41
1
10
36.5487199722003
20
0.997488132209327
30
0
41
1
10
36.5470131964071
20
1.00594549426876
30
0
41
1
10
36.5451143556202
20
1.0143582075591
30
0
41
1
10
36.5430255869653
20
1.02267519887309
30
0
41
1
10
36.5407383898354
20
1.03084687142183
30
0
41
1
10
36.5383172267588
20
1.03870654055166
30
0
41
1
10
36.5357274921201
20
1.04601670104387
30
0
41
1
10
36.53290020209
20
1.05262483060574
30
0
41
1
10
36.5299224233643
20
1.05846083876457
30
0
41
1
10
36.5267844320519
20
1.06361380189062
30
0
41
1
10
36.5234961044458
20
1.06816096616873
30
0
41
1
10
36.5200335329552
20
1.07218354570173
30
0
41
1
10
36.5164509497899
20
1.07575229010206
30
0
41
1
10
36.512223308776
20
1.07921280350769
30
0
41
1
10
36.5089430460739
20
1.08226546896862
30
0
41
1
10
36.5061681686772
20
1.08513258717846
30
0
41
1
10
36.503907855926
20
1.08776999260442
30
0
41
1
10
36.5021480727052
20
1.09011591044018
30
0
41
1
10
36.5009026054524
20
1.09208391590843
30
0
41
1
10
36.500133325289
20
1.09364499902802
30
0
41
1
10
36.5000454463907
20
1.09420344323132
30
0
41
1
10
36.5
20
1.09449224149719
30
0
0
SPLINE
5
16F
100
AcDbEntity
8
1
62
256
6
ByLayer
370
18
48
1
60
0
100
AcDbSpline
70
4
71
3
72
45
73
41
40
0
40
0
40
0
40
0
40
0.0625000000000038
40
0.0625000000000038
40
0.0937500000000217
40
0.0937500000000217
40
0.12500000000004
40
0.156250000000058
40
0.156250000000058
40
0.187500000000075
40
0.187500000000075
40
0.250000000000111
40
0.250000000000111
40
0.265625000000103
40
0.265625000000103
40
0.281250000000095
40
0.281250000000095
40
0.289062500000074
40
0.289062500000074
40
0.292968750000064
40
0.292968750000064
40
0.296875000000053
40
0.296875000000053
40
0.312500000000044
40
0.312500000000044
40
0.343750000000027
40
0.343750000000027
40
0.375000000000009
40
0.375000000000009
40
0.437500000000008
40
0.437500000000008
40
0.500000000000007
40
0.500000000000007
40
0.562500000000006
40
0.562500000000006
40
0.625000000000005
40
0.625000000000005
40
0.750000000000004
40
0.750000000000004
40
1
40
1
40
1
40
1
41
1
10
41.4999992867317
20
-1.63084328609503
30
0
41
1
10
41.5207753468458
20
-1.63908358151195
30
0
41
1
10
41.5415539445837
20
-1.64716925053096
30
0
41
1
10
41.5726957148241
20
-1.65930541238555
30
0
41
1
10
41.5830666716413
20
-1.66339168108141
30
0
41
1
10
41.6037924262889
20
-1.6716176757422
30
0
41
1
10
41.6245103739204
20
-1.67983272585471
30
0
41
1
10
41.6453084425545
20
-1.68733576134954
30
0
41
1
10
41.6662009149906
20
-1.69411546495329
30
0
41
1
10
41.6766926195936
20
-1.69715769074855
30
0
41
1
10
41.708274677368
20
-1.7054956784514
30
0
41
1
10
41.7294786600986
20
-1.70996291672992
30
0
41
1
10
41.7560166547979
20
-1.71532214558022
30
0
41
1
10
41.7613248264208
20
-1.71638966197975
30
0
41
1
10
41.7719347672324
20
-1.71856731942682
30
0
41
1
10
41.7772322804297
20
-1.71970631149236
30
0
41
1
10
41.7851821973904
20
-1.72138847793397
30
0
41
1
10
41.7878367105172
20
-1.72191806883393
30
0
41
1
10
41.7918469904997
20
-1.72252008009187
30
0
41
1
10
41.7931863515971
20
-1.72270333061857
30
0
41
1
10
41.795828649549
20
-1.72331555929011
30
0
41
1
10
41.7971480126425
20
-1.72363357712652
30
0
41
1
10
41.8037878561561
20
-1.7249335455322
30
0
41
1
10
41.8091395180385
20
-1.72570581317606
30
0
41
1
10
41.8251945678777
20
-1.72802817436437
30
0
41
1
10
41.8359016075378
20
-1.72955763047062
30
0
41
1
10
41.8573071102378
20
-1.73268353805847
30
0
41
1
10
41.8680115197921
20
-1.73424011730444
30
0
41
1
10
41.9001704124742
20
-1.73862854466839
30
0
41
1
10
41.9216899076381
20
-1.74105411555297
30
0
41
1
10
41.9649185706003
20
-1.7447896956958
30
0
41
1
10
41.9866183069726
20
-1.74616055419949
30
0
41
1
10
42.0301800567885
20
-1.74802132282005
30
0
41
1
10
42.0520449957385
20
-1.74849244335974
30
0
41
1
10
42.0959601241927
20
-1.74846660796649
30
0
41
1
10
42.118053838757
20
-1.74796549670231
30
0
41
1
10
42.1839431820751
20
-1.74497687359303
30
0
41
1
10
42.2275364651395
20
-1.74101100170432
30
0
41
1
10
42.3573928307072
20
-1.7231862209922
30
0
41
1
10
42.4427471357599
20
-1.70344877507472
30
0
41
1
10
42.5269681337387
20
-1.67556453439656
30
0
0
SPLINE
5
170
100
AcDbEntity
8
1
62
256
6
ByLayer
370
18
48
1
60
0
100
AcDbSpline
70
4
71
3
72
23
73
19
40
0
40
0
40
0
40
0
40
0.250000000000015
40
0.250000000000015
40
0.375000000000022
40
0.375000000000022
40
0.50000000000003
40
0.50000000000003
40
0.625000000000037
40
0.625000000000037
40
0.687500000000041
40
0.687500000000041
40
0.750000000000045
40
0.812500000000049
40
0.812500000000049
40
0.875000000000053
40
0.875000000000053
40
1
40
1
40
1
40
1
41
1
10
42.0124188119764
20
-2.17466626740733
30
0
41
1
10
41.9699816326498
20
-2.17137029891597
30
0
41
1
10
41.9275476222396
20
-2.16663176675365
30
0
41
1
10
41.8638350414757
20
-2.1574804898805
30
0
41
1
10
41.8425872936709
20
-2.15408923806922
30
0
41
1
10
41.8000595229846
20
-2.14663357264706
30
0
41
1
10
41.778809161581
20
-2.14283913158235
30
0
41
1
10
41.7362792343469
20
-2.13466171640709
30
0
41
1
10
41.7150008575652
20
-2.1302846440864
30
0
41
1
10
41.6829743920333
20
-2.1226731697158
30
0
41
1
10
41.6722803979672
20
-2.11996051370628
30
0
41
1
10
41.6508382490543
20
-2.11408383643317
30
0
41
1
10
41.6293440656431
20
-2.10777572354667
30
0
41
1
10
41.6077916056976
20
-2.1010157679473
30
0
41
1
10
41.5862364203727
20
-2.09423634756271
30
0
41
1
10
41.575460435368
20
-2.09085763435996
30
0
41
1
10
41.5431352994028
20
-2.08073431520154
30
0
41
1
10
41.5215751296678
20
-2.07390348527559
30
0
41
1
10
41.4999998121528
20
-2.06696334565007
30
0
0
SPLINE
5
171
100
AcDbEntity
8
1
62
256
6
ByLayer
370
18
48
1
60
0
100
AcDbSpline
70
4
71
3
72
8
73
4
40
0
40
0
40
0
40
0
40
1
40
1
40
1
40
1
41
1
10
36.5535791557598
20
0.912507820154815
30
0
41
1
10
36.5356904752001
20
0.9222052481486
30
0
41
1
10
36.5178304870215
20
0.931916416021693
30
0
41
1
10
36.5000000000001
20
0.941641657478783
30
0
0
SPLINE
5
172
100
AcDbEntity
8
1
62
256
6
ByLayer
370
18
48
1
60
0
100
AcDbSpline
70
4
71
3
72
12
73
8
40
0
40
0
40
0
40
0
40
0.25
40
0.4375
40
0.625
40
0.75
40
1
40
1
40
1
40
1
41
1
10
36.5000000000001
20
0.633653302584094
30
0
41
1
10
36.9166666666667
20
0.404366928930273
30
0
41
1
10
37.6458333333334
20
-0.0121892986396972
30
0
41
1
10
38.6875000000001
20
-0.603502517916326
30
0
41
1
10
39.5208333333334
20
-1.05191496013086
30
0
41
1
10
40.4583333333334
20
-1.51205882937333
30
0
41
1
10
41.0833333333334
20
-1.77200847263936
30
0
41
1
10
41.5
20
-1.91959025418691
30
0
0
SPLINE
5
173
100
AcDbEntity
8
1
62
256
6
ByLayer
370
18
48
1
60
0
100
AcDbSpline
70
4
71
3
72
31
73
27
40
0
40
0
40
0
40
0
40
0.125000000000006
40
0.125000000000006
40
0.15625000000001
40
0.15625000000001
40
0.187500000000013
40
0.187500000000013
40
0.250000000000019
40
0.250000000000019
40
0.375000000000026
40
0.375000000000026
40
0.437500000000026
40
0.437500000000026
40
0.500000000000026
40
0.500000000000026
40
0.625000000000019
40
0.625000000000019
40
0.687500000000016
40
0.718750000000015
40
0.718750000000015
40
0.750000000000013
40
0.750000000000013
40
0.875000000000006
40
0.875000000000006
40
1
40
1
40
1
40
1
41
1
10
41.5000000000001
20
-1.63085759970767
30
0
41
1
10
41.2934639399028
20
-1.54790885032114
30
0
41
1
10
41.0872285411827
20
-1.45971504927962
30
0
41
1
10
40.8292730648542
20
-1.34342328790089
30
0
41
1
10
40.7776736016878
20
-1.31986248488477
30
0
41
1
10
40.6744432274858
20
-1.27214897426731
30
0
41
1
10
40.6227979566413
20
-1.24798929502541
30
0
41
1
10
40.4680236600009
20
-1.17475298649617
30
0
41
1
10
40.3649923567216
20
-1.12489001469024
30
0
41
1
10
40.0561824779172
20
-0.972405879046505
30
0
41
1
10
39.8506860811096
20
-0.866890320656125
30
0
41
1
10
39.5421951614317
20
-0.704404612655907
30
0
41
1
10
39.4393244373043
20
-0.649538411349369
30
0
41
1
10
39.2333653389658
20
-0.538660451761956
30
0
41
1
10
39.1302211296441
20
-0.482617606891608
30
0
41
1
10
38.821308979447
20
-0.313726731384975
30
0
41
1
10
38.6157467726554
20
-0.199952629406937
30
0
41
1
10
38.3071709749316
20
-0.0289806669061363
30
0
41
1
10
38.1528253534057
20
0.056583820690264
30
0
41
1
10
37.998248277236
20
0.142003443364075
30
0
41
1
10
37.8951297557478
20
0.198889323498804
30
0
41
1
10
37.8435186185251
20
0.227311972314197
30
0
41
1
10
37.585636812265
20
0.368994397247292
30
0
41
1
10
37.3796813414493
20
0.48107103497199
30
0
41
1
10
36.9675912832029
20
0.701025892721617
30
0
41
1
10
36.761457409254
20
0.808906074295322
30
0
41
1
10
36.5548222426332
20
0.913869086018167
30
0
0
SPLINE
5
174
100
AcDbEntity
8
1
62
256
6
ByLayer
370
18
48
1
60
0
100
AcDbSpline
70
4
71
3
72
28
73
24
40
0
40
0
40
0
40
0
40
0.125000000000031
40
0.125000000000031
40
0.250000000000061
40
0.250000000000061
40
0.375000000000092
40
0.375000000000092
40
0.406250000000092
40
0.406250000000092
40
0.437500000000092
40
0.437500000000092
40
0.500000000000081
40
0.500000000000081
40
0.625000000000061
40
0.625000000000061
40
0.750000000000041
40
0.750000000000041
40
0.81250000000003
40
0.81250000000003
40
0.87500000000002
40
0.87500000000002
40
1
40
1
40
1
40
1
41
1
10
36.1350828183884
20
-2.51741773968109
30
0
41
1
10
36.0262680539502
20
-2.52260992295061
30
0
41
1
10
35.9188447385189
20
-2.52528776038199
30
0
41
1
10
35.7071737343566
20
-2.52466342717182
30
0
41
1
10
35.6029261279184
20
-2.52136587397294
30
0
41
1
10
35.3980495683007
20
-2.507451379635
30
0
41
1
10
35.2974208582085
20
-2.49684195808365
30
0
41
1
10
35.1742020405221
20
-2.47781214554902
30
0
41
1
10
35.1496867296647
20
-2.47371603113311
30
0
41
1
10
35.1009210152893
20
-2.46490573889412
30
0
41
1
10
35.0766401904993
20
-2.4601849711286
30
0
41
1
10
35.0044630140241
20
-2.44508823435899
30
0
41
1
10
34.9572605532829
20
-2.43378889777614
30
0
41
1
10
34.8184863023141
20
-2.39584244393086
30
0
41
1
10
34.7297503447488
20
-2.36516590364462
30
0
41
1
10
34.5602380809501
20
-2.29082495818466
30
0
41
1
10
34.4794610000924
20
-2.2471718275778
30
0
41
1
10
34.3645059657989
20
-2.169736427375
30
0
41
1
10
34.3275676495723
20
-2.14215084460352
30
0
41
1
10
34.2565594994726
20
-2.0833760017172
30
0
41
1
10
34.2224590352086
20
-2.05216663670208
30
0
41
1
10
34.1242516072092
20
-1.95276194509248
30
0
41
1
10
34.064231030331
20
-1.87881802346027
30
0
41
1
10
34.0094014218517
20
-1.79611866858559
30
0
0
SPLINE
5
175
100
AcDbEntity
8
1
62
256
6
ByLayer
370
18
48
1
60
0
100
AcDbSpline
70
4
71
3
72
10
73
6
40
0
40
0
40
0
40
0
40
0.5
40
0.5
40
1
40
1
40
1
40
1
41
1
10
36.1922689166823
20
2.46835920950863
30
0
41
1
10
36.1914651019591
20
2.46046142751953
30
0
41
1
10
36.1933881965111
20
2.45172254015068
30
0
41
1
10
36.2042380229781
20
2.43288337896917
30
0
41
1
10
36.213173562167
20
2.42279904084498
30
0
41
1
10
36.2263350356274
20
2.41242682666007
30
0
0
SPLINE
5
176
100
AcDbEntity
8
1
62
256
6
ByLayer
370
18
48
1
60
0
100
AcDbSpline
70
4
71
3
72
12
73
8
40
0
40
0
40
0
40
0
40
0.5
40
0.5
40
0.75
40
0.75
40
1
40
1
40
1
40
1
41
1
10
36.1351328567454
20
2.51349727677896
30
0
41
1
10
36.1370807460006
20
2.5087093228293
30
0
41
1
10
36.1424003985458
20
2.50242191915308
30
0
41
1
10
36.1563780987037
20
2.49100253523639
30
0
41
1
10
36.1620458742445
20
2.48686142959704
30
0
41
1
10
36.1755150889473
20
2.47801428548178
30
0
41
1
10
36.1833116192797
20
2.47330979269412
30
0
41
1
10
36.1922689166824
20
2.46835920950858
30
0
0
SPLINE
5
177
100
AcDbEntity
8
1
62
256
6
ByLayer
370
18
48
1
60
0
100
AcDbSpline
70
4
71
3
72
12
73
8
40
0
40
0
40
0
40
0
40
0.25
40
0.375
40
0.5625
40
0.75
40
1
40
1
40
1
40
1
41
1
10
41.5
20
0.13587328657016
30
0
41
1
10
41.0833333333333
20
0.375971230647565
30
0
41
1
10
40.4583333333333
20
0.732820392131941
30
0
41
1
10
39.5208333333333
20
1.22646163637029
30
0
41
1
10
38.6875
20
1.62521225761583
30
0
41
1
10
37.6458333333334
20
2.04288204631732
30
0
41
1
10
36.9166666666667
20
2.25237998985605
30
0
41
1
10
36.5
20
2.33767104515266
30
0
0
SPLINE
5
178
100
AcDbEntity
8
1
62
256
6
ByLayer
370
18
48
1
60
0
100
AcDbSpline
70
4
71
3
72
22
73
18
40
0
40
0
40
0
40
0
40
1.08361444936E-05
40
0.0272228924504145
40
0.0614299849128094
40
0.116512867838834
40
0.180065347534204
40
0.214321689386278
40
0.223339843844124
40
0.225625528643374
40
0.227714724547257
40
0.232149924696807
40
0.249345609791895
40
0.313876879218679
40
0.386999510378419
40
0.70505908102368
40
1
40
1
40
1
40
1
41
1
10
41.4999982184939
20
0.135874200032816
30
0
41
1
10
41.5000068837285
20
0.135869206666172
30
0
41
1
10
41.5128298920572
20
0.128479910160621
30
0
41
1
10
41.542029892492
20
0.111648756554814
30
0
41
1
10
41.5967505691221
20
0.080084558134871
30
0
41
1
10
41.6680951987428
20
0.0389444043117351
30
0
41
1
10
41.7394072794847
20
-0.0024921575258645
30
0
41
1
10
41.7891676383813
20
-0.0312854068554316
30
0
41
1
10
41.8105362297205
20
-0.0436079549320993
30
0
41
1
10
41.8166357601411
20
-0.0471205447217358
30
0
41
1
10
41.8210112233674
20
-0.0496385931746772
30
0
41
1
10
41.8326466862587
20
-0.0563170845170191
30
0
41
1
10
41.8746107328729
20
-0.0801929705249051
30
0
41
1
10
41.9501816318414
20
-0.121801139268484
30
0
41
1
10
42.1699924763896
20
-0.236078716767906
30
0
41
1
10
42.4902928802572
20
-0.375015046819271
30
0
41
1
10
42.7559150958392
20
-0.455089911962688
30
0
41
1
10
42.8775785216166
20
-0.483323986091165
30
0
0
SPLINE
5
179
100
AcDbEntity
8
1
62
256
6
ByLayer
370
18
48
1
60
0
100
AcDbSpline
70
4
71
3
72
12
73
8
40
0
40
0
40
0
40
0
40
0.25
40
0.375
40
0.5625
40
0.75
40
1
40
1
40
1
40
1
41
1
10
41.5
20
-2.06696847433062
30
0
41
1
10
41.0833333333334
20
-1.93304837280374
30
0
41
1
10
40.4583333333334
20
-1.69036769893296
30
0
41
1
10
39.5208333333334
20
-1.2476794167782
30
0
41
1
10
38.6875000000001
20
-0.808158572448775
30
0
41
1
10
37.6458333333334
20
-0.217294071988448
30
0
41
1
10
36.9166666666667
20
0.207660021523878
30
0
41
1
10
36.5000000000001
20
0.444395188022383
30
0
0
SPLINE
5
17A
100
AcDbEntity
8
1
62
256
6
ByLayer
370
18
48
1
60
0
100
AcDbSpline
70
4
71
3
72
10
73
6
40
0
40
0
40
0
40
0
40
0.879313821693525
40
0.879313821693525
40
1
40
1
40
1
40
1
41
1
10
36.1351328567454
20
2.51349727677896
30
0
41
1
10
36.0265755390566
20
2.51989983125088
30
0
41
1
10
35.9194990909156
20
2.52382942602415
30
0
41
1
10
35.7996701199523
20
2.52490761481801
30
0
41
1
10
35.7852406156172
20
2.52498167726841
30
0
41
1
10
35.7708439858802
20
2.5249977842935
30
0
0
SPLINE
5
17B
100
AcDbEntity
8
1
62
256
6
ByLayer
370
18
48
1
60
0
100
AcDbSpline
70
4
71
3
72
22
73
18
40
0
40
0
40
0
40
0
40
0.250000000000015
40
0.375000000000023
40
0.375000000000023
40
0.50000000000003
40
0.50000000000003
40
0.625000000000038
40
0.625000000000038
40
0.687500000000042
40
0.687500000000042
40
0.750000000000045
40
0.812500000000049
40
0.812500000000049
40
0.875000000000053
40
0.875000000000053
40
1
40
1
40
1
40
1
41
1
10
42.0124188118556
20
-0.158381093068215
30
0
41
1
10
41.969984283867
20
-0.134655940951802
30
0
41
1
10
41.9063362760054
20
-0.0986006794103957
30
0
41
1
10
41.8425945625545
20
-0.0620372565786056
30
0
41
1
10
41.8000675431757
20
-0.0375685866241611
30
0
41
1
10
41.7788175278342
20
-0.0252990218054663
30
0
41
1
10
41.7362880339615
20
-0.000680213108609
30
0
41
1
10
41.7150097463348
20
0.0116696284536602
30
0
41
1
10
41.6829829129351
20
0.0302472213265617
30
0
41
1
10
41.6722887124322
20
0.0364482561390957
30
0
41
1
10
41.6508459234902
20
0.0488619716437313
30
0
41
1
10
41.6293508752594
20
0.0612864066420968
30
0
41
1
10
41.6077973057611
20
0.0737161790301855
30
0
41
1
10
41.5862409960647
20
0.0861458464891598
30
0
41
1
10
41.5754644526916
20
0.0923608451868461
30
0
41
1
10
41.543137653498
20
0.111007505325574
30
0
41
1
10
41.5215763347298
20
0.123440343907902
30
0
41
1
10
41.4999998097696
20
0.135872838377878
30
0
0
SPLINE
5
17C
100
AcDbEntity
8
1
62
256
6
ByLayer
370
18
48
1
60
0
100
AcDbSpline
70
4
71
2
72
6
73
3
40
0
40
0
40
0
40
1
40
1
40
1
41
1
10
42.3450652591186
20
-0.30442601432668
30
0
41
1
10
42.2412281651503
20
-0.270393350407119
30
0
41
1
10
42.1471517040217
20
-0.217341613158482
30
0
0
SPLINE
5
17D
100
AcDbEntity
8
1
62
256
6
ByLayer
370
18
48
1
60
0
100
AcDbSpline
70
4
71
1
72
4
73
2
40
0
40
0
40
1
40
1
41
1
10
40.9829113225071
20
2.38067793297594
30
0
41
1
10
40.9829062316419
20
2.38673072394784
30
0
0
SPLINE
5
17E
100
AcDbEntity
8
1
62
256
6
ByLayer
370
18
48
1
60
0
100
AcDbSpline
70
4
71
1
72
4
73
2
40
0
40
0
40
1
40
1
41
1
10
40.3730234874422
20
-2.44529866360639
30
0
41
1
10
40.3730090742408
20
-2.44530383193899
30
0
0
SPLINE
5
17F
100
AcDbEntity
8
1
62
256
6
ByLayer
370
18
48
1
60
0
100
AcDbSpline
70
4
71
1
72
4
73
2
40
0
40
0
40
1
40
1
41
1
10
40.9402969812861
20
-2.3821230177947
30
0
41
1
10
40.9403008053534
20
-2.37876968797374
30
0
0
SPLINE
5
180
100
AcDbEntity
8
1
62
256
6
ByLayer
370
18
48
1
60
0
100
AcDbSpline
70
4
71
3
72
11
73
7
40
0
40
0
40
0
40
0
40
0.311408691422664
40
0.498731230083094
40
0.686427024807671
40
1
40
1
40
1
40
1
41
1
10
40.8033533369475
20
1.17732711237397
30
0
41
1
10
40.6750368167747
20
1.21017325761537
30
0
41
1
10
40.4693982161957
20
1.26807451742397
30
0
41
1
10
40.1863776692969
20
1.35951557876368
30
0
41
1
10
39.9016207626096
20
1.45990647434408
30
0
41
1
10
39.6942341753933
20
1.54080160062242
30
0
41
1
10
39.5643873496838
20
1.5945295797701
30
0
0
SPLINE
5
181
100
AcDbEntity
8
1
62
256
6
ByLayer
370
18
48
1
60
0
100
AcDbSpline
70
4
71
1
72
4
73
2
40
0
40
0
40
1
40
1
41
1
10
42.2058411447399
20
-0.249225820796937
30
0
41
1
10
42.2636537733135
20
-0.274747002993422
30
0
0
LINE
5
79
100
AcDbEntity
8
81
62
256
6
ByLayer
370
18
48
1
60
0
100
AcDbLine
10
44.05
20
0
30
0
11
49.05
21
0
31
0
39
0
210
0
220
0
230
1
0
LINE
5
7A
100
AcDbEntity
8
SK4
62
256
6
ByLayer
370
18
48
0.05
60
0
100
AcDbLine
10
-36
20
0
30
0
11
44.05
21
0
31
0
39
0
210
0
220
0
230
1
0
LINE
5
7C
100
AcDbEntity
8
80
62
256
6
ByLayer
370
18
48
1
60
0
100
AcDbLine
10
0
20
0
30
0
11
-5
21
0
31
0
39
0
210
0
220
0
230
1
0
LINE
5
7D
100
AcDbEntity
8
4
62
256
6
ByLayer
370
18
48
0.05
60
0
100
AcDbLine
10
0
20
0
30
0
11
44.05
21
0
31
0
39
0
210
0
220
0
230
1
0
LINE
5
7F
100
AcDbEntity
8
1
62
256
6
ByLayer
370
18
48
1
60
0
100
AcDbLine
10
0
20
3
30
0
11
0
21
0
31
0
39
0
210
0
220
0
230
1
0
LINE
5
80
100
AcDbEntity
8
1
62
256
6
ByLayer
370
18
48
1
60
0
100
AcDbLine
10
0
20
0
30
0
11
0
21
-3
31
0
39
0
210
0
220
0
230
1
0
LINE
5
81
100
AcDbEntity
8
1
62
256
6
ByLayer
370
18
48
1
60
0
100
AcDbLine
10
43.999594
20
-0.01952
30
0
11
43.990871
21
-0.01952
31
0
39
0
210
0
220
0
230
1
0
LINE
5
82
100
AcDbEntity
8
1
62
256
6
ByLayer
370
18
48
1
60
0
100
AcDbLine
10
43.999581
20
0.020247
30
0
11
43.99104
21
0.020247
31
0
39
0
210
0
220
0
230
1
0
LINE
5
83
100
AcDbEntity
8
1
62
256
6
ByLayer
370
13
48
1
60
0
100
AcDbLine
10
43.965627
20
-0.301046
30
0
11
43.944549
21
-0.313273
31
0
39
0
210
0
220
0
230
1
0
LINE
5
84
100
AcDbEntity
8
1
62
256
6
ByLayer
370
18
48
1
60
0
100
AcDbLine
10
43.991292
20
0.019048
30
0
11
43.980717
21
0.019247
31
0
39
0
210
0
220
0
230
1
0
LINE
5
85
100
AcDbEntity
8
1
62
256
6
ByLayer
370
18
48
1
60
0
100
AcDbLine
10
43.999461
20
0.032243
30
0
11
43.988894
21
0.030478
31
0
39
0
210
0
220
0
230
1
0
LINE
5
86
100
AcDbEntity
8
1
62
256
6
ByLayer
370
18
48
1
60
0
100
AcDbLine
10
43.953754
20
-0.345161
30
0
11
43.944549
21
-0.313273
31
0
39
0
210
0
220
0
230
1
0
LINE
5
87
100
AcDbEntity
8
1
62
256
6
ByLayer
370
13
48
1
60
0
100
AcDbLine
10
43.84586
20
-0.387233
30
0
11
43.892889
21
-0.652912
31
0
39
0
210
0
220
0
230
1
0
LINE
5
88
100
AcDbEntity
8
1
62
256
6
ByLayer
370
18
48
1
60
0
100
AcDbLine
10
43.848924
20
0.423757
30
0
11
43.788696
21
0.344426
31
0
39
0
210
0
220
0
230
1
0
LINE
5
89
100
AcDbEntity
8
1
62
256
6
ByLayer
370
18
48
1
60
0
100
AcDbLine
10
43.750806
20
-0.42565
30
0
11
43.801667
21
-0.653924
31
0
39
0
210
0
220
0
230
1
0
LINE
5
8A
100
AcDbEntity
8
1
62
256
6
ByLayer
370
13
48
1
60
0
100
AcDbLine
10
43.720483
20
0.403151
30
0
11
43.788696
21
0.344426
31
0
39
0
210
0
220
0
230
1
0
LINE
5
8B
100
AcDbEntity
8
1
62
256
6
ByLayer
370
18
48
1
60
0
100
AcDbLine
10
43.792978
20
0.04083
30
0
11
43.868094
21
-0.047035
31
0
39
0
210
0
220
0
230
1
0
LINE
5
8C
100
AcDbEntity
8
1
62
256
6
ByLayer
370
13
48
1
60
0
100
AcDbLine
10
43.792978
20
0.04083
30
0
11
43.556828
21
0.244136
31
0
39
0
210
0
220
0
230
1
0
LINE
5
8D
100
AcDbEntity
8
1
62
256
6
ByLayer
370
13
48
1
60
0
100
AcDbLine
10
36.045877
20
2.41639
30
0
11
36.5
21
2.171969
31
0
39
0
210
0
220
0
230
1
0
LINE
5
8E
100
AcDbEntity
8
1
62
256
6
ByLayer
370
13
48
1
60
0
100
AcDbLine
10
34.047697
20
2.462419
30
0
11
36.5
21
1.142523
31
0
39
0
210
0
220
0
230
1
0
LINE
5
8F
100
AcDbEntity
8
1
62
256
6
ByLayer
370
18
48
1
60
0
100
AcDbLine
10
41.5
20
2.331891
30
0
11
41.5
21
2.295382
31
0
39
0
210
0
220
0
230
1
0
LINE
5
90
100
AcDbEntity
8
1
62
256
6
ByLayer
370
18
48
1
60
0
100
AcDbLine
10
36.5
20
1.094492
30
0
11
36.5
21
1.142523
31
0
39
0
210
0
220
0
230
1
0
LINE
5
91
100
AcDbEntity
8
1
62
256
6
ByLayer
370
13
48
1
60
0
100
AcDbLine
10
34.009401
20
-1.796119
30
0
11
35.296924
21
-1.688531
31
0
39
0
210
0
220
0
230
1
0
LINE
5
92
100
AcDbEntity
8
1
62
256
6
ByLayer
370
18
48
1
60
0
100
AcDbLine
10
41.5
20
-2.323026
30
0
11
41.5
21
-2.323017
31
0
39
0
210
0
220
0
230
1
0
LINE
5
93
100
AcDbEntity
8
1
62
256
6
ByLayer
370
13
48
1
60
0
100
AcDbLine
10
34.047697
20
-1.715035
30
0
11
34.876805
21
-1.645754
31
0
39
0
210
0
220
0
230
1
0
LINE
5
94
100
AcDbEntity
8
1
62
256
6
ByLayer
370
18
48
1
60
0
100
AcDbLine
10
36.5
20
-1.776842
30
0
11
36.5
21
-1.464439
31
0
39
0
210
0
220
0
230
1
0
LINE
5
95
100
AcDbEntity
8
1
62
256
6
ByLayer
370
18
48
1
60
0
100
AcDbLine
10
43.560268
20
0.212156
30
0
11
43.672025
21
0.100284
31
0
39
0
210
0
220
0
230
1
0
LINE
5
96
100
AcDbEntity
8
1
62
256
6
ByLayer
370
18
48
1
60
0
100
AcDbLine
10
43.560268
20
0.212156
30
0
11
43.549804
21
0.261482
31
0
39
0
210
0
220
0
230
1
0
LINE
5
97
100
AcDbEntity
8
1
62
256
6
ByLayer
370
18
48
1
60
0
100
AcDbLine
10
42.799085
20
0.793951
30
0
11
42.57684
21
0.904981
31
0
39
0
210
0
220
0
230
1
0
LINE
5
98
100
AcDbEntity
8
1
62
256
6
ByLayer
370
18
48
1
60
0
100
AcDbLine
10
34.009401
20
2.435
30
0
11
36.5
21
1.094492
31
0
39
0
210
0
220
0
230
1
0
LINE
5
99
100
AcDbEntity
8
1
62
256
6
ByLayer
370
18
48
1
60
0
100
AcDbLine
10
36.5
20
1.142523
30
0
11
36.5
21
2.171969
31
0
39
0
210
0
220
0
230
1
0
LINE
5
9A
100
AcDbEntity
8
1
62
256
6
ByLayer
370
18
48
1
60
0
100
AcDbLine
10
36.5
20
2.368814
30
0
11
36.5
21
2.373641
31
0
39
0
210
0
220
0
230
1
0
LINE
5
9B
100
AcDbEntity
8
1
62
256
6
ByLayer
370
18
48
1
60
0
100
AcDbLine
10
36.5
20
-0.458014
30
0
11
36.5
21
-0.34081
31
0
39
0
210
0
220
0
230
1
0
LINE
5
9C
100
AcDbEntity
8
1
62
256
6
ByLayer
370
18
48
1
60
0
100
AcDbLine
10
41.5
20
0.667598
30
0
11
41.5
21
0.333263
31
0
39
0
210
0
220
0
230
1
0
LINE
5
9D
100
AcDbEntity
8
1
62
256
6
ByLayer
370
18
48
1
60
0
100
AcDbLine
10
41.5
20
0.333263
30
0
11
41.5
21
0.135875
31
0
39
0
210
0
220
0
230
1
0
LINE
5
9E
100
AcDbEntity
8
1
62
256
6
ByLayer
370
13
48
1
60
0
100
AcDbLine
10
34.105113
20
0.732893
30
0
11
36.5
21
-0.34081
31
0
39
0
210
0
220
0
230
1
0
LINE
5
9F
100
AcDbEntity
8
1
62
256
6
ByLayer
370
18
48
1
60
0
100
AcDbLine
10
36.5
20
-0.34081
30
0
11
36.5
21
0.407296
31
0
39
0
210
0
220
0
230
1
0
LINE
5
A0
100
AcDbEntity
8
1
62
256
6
ByLayer
370
13
48
1
60
0
100
AcDbLine
10
36.057967
20
0.605473
30
0
11
36.5
21
0.407296
31
0
39
0
210
0
220
0
230
1
0
LINE
5
A1
100
AcDbEntity
8
1
62
256
6
ByLayer
370
18
48
1
60
0
100
AcDbLine
10
36.5
20
0.633653
30
0
11
36.5
21
0.941642
31
0
39
0
210
0
220
0
230
1
0
LINE
5
A2
100
AcDbEntity
8
1
62
256
6
ByLayer
370
13
48
1
60
0
100
AcDbLine
10
34.0685
20
0.632104
30
0
11
36.5
21
-0.458014
31
0
39
0
210
0
220
0
230
1
0
LINE
5
A3
100
AcDbEntity
8
1
62
256
6
ByLayer
370
18
48
1
60
0
100
AcDbLine
10
41.5
20
2.295382
30
0
11
41.5
21
2.246331
31
0
39
0
210
0
220
0
230
1
0
LINE
5
A4
100
AcDbEntity
8
1
62
256
6
ByLayer
370
18
48
1
60
0
100
AcDbLine
10
43.584525
20
-0.809914
30
0
11
43.650383
21
-0.844678
31
0
39
0
210
0
220
0
230
1
0
LINE
5
A5
100
AcDbEntity
8
1
62
256
6
ByLayer
370
18
48
1
60
0
100
AcDbLine
10
43.584525
20
-0.809914
30
0
11
43.566711
21
-0.714176
31
0
39
0
210
0
220
0
230
1
0
LINE
5
A6
100
AcDbEntity
8
1
62
256
6
ByLayer
370
18
48
1
60
0
100
AcDbLine
10
36.5
20
-1.93628
30
0
11
36.5
21
-1.776842
31
0
39
0
210
0
220
0
230
1
0
LINE
5
A7
100
AcDbEntity
8
1
62
256
6
ByLayer
370
18
48
1
60
0
100
AcDbLine
10
36.5
20
2.337671
30
0
11
36.5
21
2.368814
31
0
39
0
210
0
220
0
230
1
0
LINE
5
A8
100
AcDbEntity
8
1
62
256
6
ByLayer
370
18
48
1
60
0
100
AcDbLine
10
36.5
20
0.444395
30
0
11
36.5
21
0.407296
31
0
39
0
210
0
220
0
230
1
0
LINE
5
A9
100
AcDbEntity
8
1
62
256
6
ByLayer
370
18
48
1
60
0
100
AcDbLine
10
41.5
20
-1.91959
30
0
11
41.5
21
-2.066967
31
0
39
0
210
0
220
0
230
1
0
LINE
5
AA
100
AcDbEntity
8
1
62
256
6
ByLayer
370
18
48
1
60
0
100
AcDbLine
10
36.5
20
0.444395
30
0
11
36.5
21
0.633653
31
0
39
0
210
0
220
0
230
1
0
LINE
5
AB
100
AcDbEntity
8
1
62
256
6
ByLayer
370
18
48
1
60
0
100
AcDbLine
10
41.5
20
-1.630853
30
0
11
41.5
21
-1.91959
31
0
39
0
210
0
220
0
230
1
0
LINE
5
AC
100
AcDbEntity
8
1
62
256
6
ByLayer
370
18
48
1
60
0
100
AcDbLine
10
36.5
20
2.337671
30
0
11
36.5
21
2.171969
31
0
39
0
210
0
220
0
230
1
0
LINE
5
AD
100
AcDbEntity
8
1
62
256
6
ByLayer
370
13
48
1
60
0
100
AcDbLine
10
18.997679
20
-2.525
30
0
11
18.997679
21
0
31
0
39
0
210
0
220
0
230
1
0
LINE
5
AE
100
AcDbEntity
8
1
62
256
6
ByLayer
370
13
48
1
60
0
100
AcDbLine
10
18.997679
20
0
30
0
11
18.997679
21
2.525
31
0
39
0
210
0
220
0
230
1
0
LINE
5
AF
100
AcDbEntity
8
1
62
256
6
ByLayer
370
13
48
1
60
0
100
AcDbLine
10
18.497679
20
2.658975
30
0
11
18.497679
21
0
31
0
39
0
210
0
220
0
230
1
0
LINE
5
B0
100
AcDbEntity
8
1
62
256
6
ByLayer
370
13
48
1
60
0
100
AcDbLine
10
18.497679
20
0
30
0
11
18.497679
21
-2.658975
31
0
39
0
210
0
220
0
230
1
0
LINE
5
B1
100
AcDbEntity
8
1
62
256
6
ByLayer
370
18
48
1
60
0
100
AcDbLine
10
17.907006
20
3
30
0
11
17.907006
21
0
31
0
39
0
210
0
220
0
230
1
0
LINE
5
B2
100
AcDbEntity
8
1
62
256
6
ByLayer
370
18
48
1
60
0
100
AcDbLine
10
17.907006
20
0
30
0
11
17.907006
21
-3
31
0
39
0
210
0
220
0
230
1
0
LINE
5
B3
100
AcDbEntity
8
SK1
62
256
6
ByLayer
370
18
48
1
60
0
100
AcDbLine
10
-36
20
-2.6
30
0
11
-36
21
2.6
31
0
39
0
210
0
220
0
230
1
0
LINE
5
B5
100
AcDbEntity
8
SK1
62
256
6
ByLayer
370
18
48
1
60
0
100
AcDbLine
10
0
20
3
30
0
11
0
21
0
31
0
39
0
210
0
220
0
230
1
0
LINE
5
B6
100
AcDbEntity
8
SK1
62
256
6
ByLayer
370
18
48
1
60
0
100
AcDbLine
10
0
20
0
30
0
11
0
21
-3
31
0
39
0
210
0
220
0
230
1
0
LINE
5
B7
100
AcDbEntity
8
SK1
62
256
6
ByLayer
370
18
48
1
60
0
100
AcDbLine
10
-35.6
20
3
30
0
11
-35.6
21
-3
31
0
39
0
210
0
220
0
230
1
0
LINE
5
B8
100
AcDbEntity
8
1
62
256
6
ByLayer
370
18
48
1
60
0
100
AcDbLine
10
35.773713
20
2.525
30
0
11
18.997679
21
2.525
31
0
39
0
210
0
220
0
230
1
0
LINE
5
B9
100
AcDbEntity
8
1
62
256
6
ByLayer
370
18
48
1
60
0
100
AcDbLine
10
18.997679
20
-2.525
30
0
11
35.839995
21
-2.525
31
0
39
0
210
0
220
0
230
1
0
LINE
5
BA
100
AcDbEntity
8
1
62
256
6
ByLayer
370
18
48
1
60
0
100
AcDbLine
10
17.907006
20
3
30
0
11
0
21
3
31
0
39
0
210
0
220
0
230
1
0
LINE
5
BB
100
AcDbEntity
8
1
62
256
6
ByLayer
370
18
48
1
60
0
100
AcDbLine
10
0
20
-3
30
0
11
17.907006
21
-3
31
0
39
0
210
0
220
0
230
1
0
LINE
5
BC
100
AcDbEntity
8
1
62
256
6
ByLayer
370
18
48
1
60
0
100
AcDbLine
10
18.497679
20
2.658975
30
0
11
17.907006
21
3
31
0
39
0
210
0
220
0
230
1
0
LINE
5
BD
100
AcDbEntity
8
1
62
256
6
ByLayer
370
18
48
1
60
0
100
AcDbLine
10
17.907006
20
-3
30
0
11
18.497679
21
-2.658975
31
0
39
0
210
0
220
0
230
1
0
LINE
5
BE
100
AcDbEntity
8
SK1
62
256
6
ByLayer
370
18
48
1
60
0
100
AcDbLine
10
-36
20
-2.6
30
0
11
-35.6
21
-3
31
0
39
0
210
0
220
0
230
1
0
LINE
5
BF
100
AcDbEntity
8
SK1
62
256
6
ByLayer
370
18
48
1
60
0
100
AcDbLine
10
-35.6
20
3
30
0
11
-36
21
2.6
31
0
39
0
210
0
220
0
230
1
0
LINE
5
C0
100
AcDbEntity
8
SK1
62
256
6
ByLayer
370
18
48
1
60
0
100
AcDbLine
10
0
20
3
30
0
11
-35.6
21
3
31
0
39
0
210
0
220
0
230
1
0
LINE
5
C1
100
AcDbEntity
8
SK1
62
256
6
ByLayer
370
18
48
1
60
0
100
AcDbLine
10
-35.6
20
-3
30
0
11
0
21
-3
31
0
39
0
210
0
220
0
230
1
0
LINE
5
C2
100
AcDbEntity
8
SK2
62
256
6
ByLayer
370
18
48
1
60
0
100
AcDbLine
10
-43.85
20
11.75
30
0
11
-43.85
21
-19.315466
31
0
39
0
210
0
220
0
230
1
0
LINE
5
C4
100
AcDbEntity
8
SK2
62
256
6
ByLayer
370
18
48
1
60
0
100
AcDbLine
10
-37.1875
20
3
30
0
11
-45.85
21
3
31
0
39
0
210
0
220
0
230
1
0
LINE
5
C5
100
AcDbEntity
8
SK2
62
256
6
ByLayer
370
18
48
1
60
0
100
AcDbLine
10
-37.1875
20
-3
30
0
11
-45.85
21
-3
31
0
39
0
210
0
220
0
230
1
0
LINE
5
C6
100
AcDbEntity
8
1
62
256
6
ByLayer
370
18
48
1
60
1
100
AcDbLine
10
-43.85
20
3
30
0
11
-44.310784
21
6.499998
31
0
39
0
210
0
220
0
230
1
0
LINE
5
C7
100
AcDbEntity
8
1
62
256
6
ByLayer
370
18
48
1
60
1
100
AcDbLine
10
-44.310784
20
6.499998
30
0
11
-43.389216
21
6.500002
31
0
39
0
210
0
220
0
230
1
0
LINE
5
C8
100
AcDbEntity
8
1
62
256
6
ByLayer
370
18
48
1
60
1
100
AcDbLine
10
-43.389216
20
6.500002
30
0
11
-43.85
21
3
31
0
39
0
210
0
220
0
230
1
0
LINE
5
C9
100
AcDbEntity
8
1
62
256
6
ByLayer
370
18
48
1
60
1
100
AcDbLine
10
-43.85
20
-3
30
0
11
-43.389216
21
-6.499998
31
0
39
0
210
0
220
0
230
1
0
LINE
5
CA
100
AcDbEntity
8
1
62
256
6
ByLayer
370
18
48
1
60
1
100
AcDbLine
10
-43.389216
20
-6.499998
30
0
11
-44.310784
21
-6.500002
31
0
39
0
210
0
220
0
230
1
0
LINE
5
CB
100
AcDbEntity
8
1
62
256
6
ByLayer
370
18
48
1
60
1
100
AcDbLine
10
-44.310784
20
-6.500002
30
0
11
-43.85
21
-3
31
0
39
0
210
0
220
0
230
1
0
LINE
5
CC
100
AcDbEntity
8
2
62
256
6
ByLayer
370
18
48
1
60
0
100
AcDbLine
10
56
20
18.815566
30
0
11
56
21
-11.2501
31
0
39
0
210
0
220
0
230
1
0
LINE
5
CE
100
AcDbEntity
8
2
62
256
6
ByLayer
370
18
48
1
60
0
100
AcDbLine
10
43.589496
20
2.5001
30
0
11
58
21
2.5001
31
0
39
0
210
0
220
0
230
1
0
LINE
5
CF
100
AcDbEntity
8
2
62
256
6
ByLayer
370
18
48
1
60
0
100
AcDbLine
10
43.589496
20
-2.5001
30
0
11
58
21
-2.5001
31
0
39
0
210
0
220
0
230
1
0
LINE
5
D0
100
AcDbEntity
8
1
62
256
6
ByLayer
370
18
48
1
60
1
100
AcDbLine
10
56
20
2.5001
30
0
11
55.539216
21
6.000098
31
0
39
0
210
0
220
0
230
1
0
LINE
5
D1
100
AcDbEntity
8
1
62
256
6
ByLayer
370
18
48
1
60
1
100
AcDbLine
10
55.539216
20
6.000098
30
0
11
56.460784
21
6.000102
31
0
39
0
210
0
220
0
230
1
0
LINE
5
D2
100
AcDbEntity
8
1
62
256
6
ByLayer
370
18
48
1
60
1
100
AcDbLine
10
56.460784
20
6.000102
30
0
11
56
21
2.5001
31
0
39
0
210
0
220
0
230
1
0
LINE
5
D3
100
AcDbEntity
8
1
62
256
6
ByLayer
370
18
48
1
60
1
100
AcDbLine
10
56
20
-2.5001
30
0
11
56.460784
21
-6.000098
31
0
39
0
210
0
220
0
230
1
0
LINE
5
D4
100
AcDbEntity
8
1
62
256
6
ByLayer
370
18
48
1
60
1
100
AcDbLine
10
56.460784
20
-6.000098
30
0
11
55.539216
21
-6.000102
31
0
39
0
210
0
220
0
230
1
0
LINE
5
D5
100
AcDbEntity
8
1
62
256
6
ByLayer
370
18
48
1
60
1
100
AcDbLine
10
55.539216
20
-6.000102
30
0
11
56
21
-2.5001
31
0
39
0
210
0
220
0
230
1
0
LINE
5
D6
100
AcDbEntity
8
SK2
62
256
6
ByLayer
370
18
48
1
60
0
100
AcDbLine
10
44
20
-47.1
30
0
11
-36
21
-47.1
31
0
39
0
210
0
220
0
230
1
0
LINE
5
D7
100
AcDbEntity
8
SK2
62
256
6
ByLayer
370
18
48
1
60
0
100
AcDbLine
10
-36
20
-4.1875
30
0
11
-36
21
-49.1
31
0
39
0
210
0
220
0
230
1
0
LINE
5
D8
100
AcDbEntity
8
SK2
62
256
6
ByLayer
370
18
48
1
60
0
100
AcDbLine
10
44
20
-1.5875
30
0
11
44
21
-49.1
31
0
39
0
210
0
220
0
230
1
0
LINE
5
D9
100
AcDbEntity
8
1
62
256
6
ByLayer
370
18
48
1
60
1
100
AcDbLine
10
-36
20
-47.1
30
0
11
-32.500002
21
-46.639216
31
0
39
0
210
0
220
0
230
1
0
LINE
5
DA
100
AcDbEntity
8
1
62
256
6
ByLayer
370
18
48
1
60
1
100
AcDbLine
10
-32.500002
20
-46.639216
30
0
11
-32.499998
21
-47.560784
31
0
39
0
210
0
220
0
230
1
0
LINE
5
DB
100
AcDbEntity
8
1
62
256
6
ByLayer
370
18
48
1
60
1
100
AcDbLine
10
-32.499998
20
-47.560784
30
0
11
-36
21
-47.1
31
0
39
0
210
0
220
0
230
1
0
LINE
5
DC
100
AcDbEntity
8
1
62
256
6
ByLayer
370
18
48
1
60
1
100
AcDbLine
10
44
20
-47.1
30
0
11
40.500002
21
-47.560784
31
0
39
0
210
0
220
0
230
1
0
LINE
5
DD
100
AcDbEntity
8
1
62
256
6
ByLayer
370
18
48
1
60
1
100
AcDbLine
10
40.500002
20
-47.560784
30
0
11
40.499998
21
-46.639216
31
0
39
0
210
0
220
0
230
1
0
LINE
5
DE
100
AcDbEntity
8
1
62
256
6
ByLayer
370
18
48
1
60
1
100
AcDbLine
10
40.499998
20
-46.639216
30
0
11
44
21
-47.1
31
0
39
0
210
0
220
0
230
1
0
LINE
5
DF
100
AcDbEntity
8
SK2
62
256
6
ByLayer
370
13
48
1
60
0
100
AcDbLine
10
43.073808
20
-1.942454
30
0
11
54.019194
21
-15.451666
31
0
39
0
210
0
220
0
230
1
0
LINE
5
E0
100
AcDbEntity
8
1
62
256
6
ByLayer
370
18
48
1
60
1
100
AcDbLine
10
43.073808
20
-1.942454
30
0
11
45.635159
21
-4.371814
31
0
39
0
210
0
220
0
230
1
0
LINE
5
E1
100
AcDbEntity
8
1
62
256
6
ByLayer
370
18
48
1
60
1
100
AcDbLine
10
45.635159
20
-4.371814
30
0
11
44.91912
21
-4.951965
31
0
39
0
210
0
220
0
230
1
0
LINE
5
E2
100
AcDbEntity
8
1
62
256
6
ByLayer
370
18
48
1
60
1
100
AcDbLine
10
44.91912
20
-4.951965
30
0
11
43.073808
21
-1.942454
31
0
39
0
210
0
220
0
230
1
0
LINE
5
186
100
AcDbEntity
8
1
62
256
6
ByLayer
370
18
48
1
60
1
100
AcDbLine
10
-43.85
20
3
30
0
11
-44.310784
21
6.499998
31
0
39
0
210
0
220
0
230
1
0
LINE
5
187
100
AcDbEntity
8
1
62
256
6
ByLayer
370
18
48
1
60
1
100
AcDbLine
10
-44.310784
20
6.499998
30
0
11
-43.389216
21
6.500002
31
0
39
0
210
0
220
0
230
1
0
LINE
5
188
100
AcDbEntity
8
1
62
256
6
ByLayer
370
18
48
1
60
1
100
AcDbLine
10
-43.389216
20
6.500002
30
0
11
-43.85
21
3
31
0
39
0
210
0
220
0
230
1
0
LINE
5
18A
100
AcDbEntity
8
1
62
256
6
ByLayer
370
18
48
1
60
1
100
AcDbLine
10
-43.85
20
-3
30
0
11
-43.389216
21
-6.499998
31
0
39
0
210
0
220
0
230
1
0
LINE
5
18B
100
AcDbEntity
8
1
62
256
6
ByLayer
370
18
48
1
60
1
100
AcDbLine
10
-43.389216
20
-6.499998
30
0
11
-44.310784
21
-6.500002
31
0
39
0
210
0
220
0
230
1
0
LINE
5
18C
100
AcDbEntity
8
1
62
256
6
ByLayer
370
18
48
1
60
1
100
AcDbLine
10
-44.310784
20
-6.500002
30
0
11
-43.85
21
-3
31
0
39
0
210
0
220
0
230
1
0
LINE
5
190
100
AcDbEntity
8
1
62
256
6
ByLayer
370
18
48
1
60
1
100
AcDbLine
10
56
20
2.5001
30
0
11
55.539216
21
6.000098
31
0
39
0
210
0
220
0
230
1
0
LINE
5
191
100
AcDbEntity
8
1
62
256
6
ByLayer
370
18
48
1
60
1
100
AcDbLine
10
55.539216
20
6.000098
30
0
11
56.460784
21
6.000102
31
0
39
0
210
0
220
0
230
1
0
LINE
5
192
100
AcDbEntity
8
1
62
256
6
ByLayer
370
18
48
1
60
1
100
AcDbLine
10
56.460784
20
6.000102
30
0
11
56
21
2.5001
31
0
39
0
210
0
220
0
230
1
0
LINE
5
194
100
AcDbEntity
8
1
62
256
6
ByLayer
370
18
48
1
60
1
100
AcDbLine
10
56
20
-2.5001
30
0
11
56.460784
21
-6.000098
31
0
39
0
210
0
220
0
230
1
0
LINE
5
195
100
AcDbEntity
8
1
62
256
6
ByLayer
370
18
48
1
60
1
100
AcDbLine
10
56.460784
20
-6.000098
30
0
11
55.539216
21
-6.000102
31
0
39
0
210
0
220
0
230
1
0
LINE
5
196
100
AcDbEntity
8
1
62
256
6
ByLayer
370
18
48
1
60
1
100
AcDbLine
10
55.539216
20
-6.000102
30
0
11
56
21
-2.5001
31
0
39
0
210
0
220
0
230
1
0
LINE
5
199
100
AcDbEntity
8
1
62
256
6
ByLayer
370
18
48
1
60
1
100
AcDbLine
10
-36
20
-47.1
30
0
11
-32.500002
21
-46.639216
31
0
39
0
210
0
220
0
230
1
0
LINE
5
19A
100
AcDbEntity
8
1
62
256
6
ByLayer
370
18
48
1
60
1
100
AcDbLine
10
-32.500002
20
-46.639216
30
0
11
-32.499998
21
-47.560784
31
0
39
0
210
0
220
0
230
1
0
LINE
5
19B
100
AcDbEntity
8
1
62
256
6
ByLayer
370
18
48
1
60
1
100
AcDbLine
10
-32.499998
20
-47.560784
30
0
11
-36
21
-47.1
31
0
39
0
210
0
220
0
230
1
0
LINE
5
19D
100
AcDbEntity
8
1
62
256
6
ByLayer
370
18
48
1
60
1
100
AcDbLine
10
44
20
-47.1
30
0
11
40.500002
21
-47.560784
31
0
39
0
210
0
220
0
230
1
0
LINE
5
19E
100
AcDbEntity
8
1
62
256
6
ByLayer
370
18
48
1
60
1
100
AcDbLine
10
40.500002
20
-47.560784
30
0
11
40.499998
21
-46.639216
31
0
39
0
210
0
220
0
230
1
0
LINE
5
19F
100
AcDbEntity
8
1
62
256
6
ByLayer
370
18
48
1
60
1
100
AcDbLine
10
40.499998
20
-46.639216
30
0
11
44
21
-47.1
31
0
39
0
210
0
220
0
230
1
0
LINE
5
1A3
100
AcDbEntity
8
1
62
256
6
ByLayer
370
18
48
1
60
1
100
AcDbLine
10
43.073808
20
-1.942454
30
0
11
45.635159
21
-4.371814
31
0
39
0
210
0
220
0
230
1
0
LINE
5
1A4
100
AcDbEntity
8
1
62
256
6
ByLayer
370
18
48
1
60
1
100
AcDbLine
10
45.635159
20
-4.371814
30
0
11
44.91912
21
-4.951965
31
0
39
0
210
0
220
0
230
1
0
LINE
5
1A5
100
AcDbEntity
8
1
62
256
6
ByLayer
370
18
48
1
60
1
100
AcDbLine
10
44.91912
20
-4.951965
30
0
11
43.073808
21
-1.942454
31
0
39
0
210
0
220
0
230
1
0
MTEXT
5
182
100
AcDbEntity
8
SK2
62
256
6
ByLayer
370
18
48
1
60
0
100
AcDbMText
10
-45.414634
20
-17.380622
30
0
210
0
220
0
230
1
1
%%c
40
3.5
41
0
44
1.084337
50
90
71
7
72
5
7
iso_b_vert
0
MTEXT
5
185
100
AcDbEntity
8
SK2
62
256
6
ByLayer
370
18
48
1
60
0
100
AcDbMText
10
-45.414634
20
-10.407966
30
0
210
0
220
0
230
1
1
\W0.5404;6
40
3.5
41
0
44
1.084337
50
90
71
7
72
5
7
iso_b_vert
0
MTEXT
5
18E
100
AcDbEntity
8
2
62
256
6
ByLayer
370
18
48
1
60
0
100
AcDbMText
10
54.435366
20
10.434944
30
0
210
0
220
0
230
1
1
%%c
40
3.5
41
0
44
1.084337
50
90
71
7
72
5
7
iso_b_vert
0
MTEXT
5
18F
100
AcDbEntity
8
2
62
256
6
ByLayer
370
18
48
1
60
0
100
AcDbMText
10
54.435366
20
17.4076
30
0
210
0
220
0
230
1
1
\W0.5404;5
40
3.5
41
0
44
1.084337
50
90
71
7
72
5
7
iso_b_vert
0
MTEXT
5
198
100
AcDbEntity
8
SK2
62
256
6
ByLayer
370
18
48
1
60
0
100
AcDbMText
10
2.095034
20
-46.067366
30
0
210
0
220
0
230
1
1
\W0.6740;80
40
3.5
41
0
44
1.084337
50
0
71
7
72
5
7
iso_b_vert
0
MTEXT
5
1A1
100
AcDbEntity
8
SK2
62
256
6
ByLayer
370
18
48
1
60
0
100
AcDbMText
10
49.040835
20
-7.530582
30
0
210
0
220
0
230
1
1
\W0.6380;R
40
3.5
41
0
44
1.084337
50
309.014961119706
71
7
72
5
7
iso_b_vert
0
MTEXT
5
1A2
100
AcDbEntity
8
SK2
62
256
6
ByLayer
370
18
48
1
60
0
100
AcDbMText
10
51.359999
20
-10.392982
30
0
210
0
220
0
230
1
1
\W0.7121;2.5
40
3.5
41
0
44
1.084337
50
309.014961119706
71
7
72
5
7
iso_b_vert
0
MTEXT
5
1A7
100
AcDbEntity
8
SK6
62
256
6
ByLayer
370
18
48
1
60
0
100
AcDbMText
10
-22.062398
20
-62.114886
30
0
210
0
220
0
230
1
1
\W0.7403;2B286-0500-RA       R2AH
40
3
41
0
44
1.084337
50
0
71
7
72
5
7
iso_b_vert
0
HATCH
5
189
100
AcDbEntity
8
SK2
62
256
6
ByLayer
370
13
48
1
60
0
100
AcDbHatch
10
0
20
0
30
0
210
0
220
0
230
1
2
ANSI31
70
0
71
0
91
1
92
5
93
3
72
1
10
-43.85
20
2.99999999999994
11
-44.3107837415528
21
6.49999830744676
72
1
10
-44.3107837415528
20
6.49999830744676
11
-43.3892162584472
21
6.50000169255313
72
1
10
-43.3892162584472
20
6.50000169255313
11
-43.85
21
2.99999999999994
97
0
75
0
76
1
52
0
41
0.0062
77
0
78
1
53
45
43
0
44
0
45
-0.0139193969876572
46
0.0139193969876572
79
0
47
0
98
1
10
0
20
0
0
HATCH
5
18D
100
AcDbEntity
8
SK2
62
256
6
ByLayer
370
13
48
1
60
0
100
AcDbHatch
10
0
20
0
30
0
210
0
220
0
230
1
2
ANSI31
70
0
71
0
91
1
92
5
93
3
72
1
10
-43.85
20
-3.00000000000006
11
-43.3892162584472
21
-6.49999830744687
72
1
10
-43.3892162584472
20
-6.49999830744687
11
-44.3107837415528
21
-6.50000169255324
72
1
10
-44.3107837415528
20
-6.50000169255324
11
-43.85
21
-3.00000000000006
97
0
75
0
76
1
52
0
41
0.0062
77
0
78
1
53
45
43
0
44
0
45
-0.0139193969876572
46
0.0139193969876572
79
0
47
0
98
1
10
0
20
0
0
HATCH
5
193
100
AcDbEntity
8
2
62
256
6
ByLayer
370
13
48
1
60
0
100
AcDbHatch
10
0
20
0
30
0
210
0
220
0
230
1
2
ANSI31
70
0
71
0
91
1
92
5
93
3
72
1
10
56
20
2.50009999999986
11
55.5392162584472
21
6.00009830744668
72
1
10
55.5392162584472
20
6.00009830744668
11
56.4607837415528
21
6.00010169255305
72
1
10
56.4607837415528
20
6.00010169255305
11
56
21
2.50009999999986
97
0
75
0
76
1
52
0
41
0.0062
77
0
78
1
53
45
43
0
44
0
45
-0.0139193969876572
46
0.0139193969876572
79
0
47
0
98
1
10
0
20
0
0
HATCH
5
197
100
AcDbEntity
8
2
62
256
6
ByLayer
370
13
48
1
60
0
100
AcDbHatch
10
0
20
0
30
0
210
0
220
0
230
1
2
ANSI31
70
0
71
0
91
1
92
5
93
3
72
1
10
56
20
-2.50010000000015
11
56.4607837415528
21
-6.00009830744696
72
1
10
56.4607837415528
20
-6.00009830744696
11
55.5392162584472
21
-6.00010169255333
72
1
10
55.5392162584472
20
-6.00010169255333
11
56
21
-2.50010000000015
97
0
75
0
76
1
52
0
41
0.0062
77
0
78
1
53
45
43
0
44
0
45
-0.0139193969876572
46
0.0139193969876572
79
0
47
0
98
1
10
0
20
0
0
HATCH
5
19C
100
AcDbEntity
8
SK2
62
256
6
ByLayer
370
13
48
1
60
0
100
AcDbHatch
10
0
20
0
30
0
210
0
220
0
230
1
2
ANSI31
70
0
71
0
91
1
92
5
93
3
72
1
10
-36
20
-47.1000000000001
11
-32.5000016925532
21
-46.6392162584474
72
1
10
-32.5000016925532
20
-46.6392162584474
11
-32.4999983074468
21
-47.5607837415529
72
1
10
-32.4999983074468
20
-47.5607837415529
11
-36
21
-47.1000000000001
97
0
75
0
76
1
52
0
41
0.0062
77
0
78
1
53
45
43
0
44
0
45
-0.0139193969876572
46
0.0139193969876572
79
0
47
0
98
1
10
0
20
0
0
HATCH
5
1A0
100
AcDbEntity
8
SK2
62
256
6
ByLayer
370
13
48
1
60
0
100
AcDbHatch
10
0
20
0
30
0
210
0
220
0
230
1
2
ANSI31
70
0
71
0
91
1
92
5
93
3
72
1
10
44
20
-47.1000000000001
11
40.5000016925532
21
-47.5607837415529
72
1
10
40.5000016925532
20
-47.5607837415529
11
40.4999983074468
21
-46.6392162584474
72
1
10
40.4999983074468
20
-46.6392162584474
11
44
21
-47.1000000000001
97
0
75
0
76
1
52
0
41
0.0062
77
0
78
1
53
45
43
0
44
0
45
-0.0139193969876572
46
0.0139193969876572
79
0
47
0
98
1
10
0
20
0
0
HATCH
5
1A6
100
AcDbEntity
8
SK2
62
256
6
ByLayer
370
13
48
1
60
0
100
AcDbHatch
10
0
20
0
30
0
210
0
220
0
230
1
2
ANSI31
70
0
71
0
91
1
92
5
93
3
72
1
10
43.0738082464171
20
-1.94245401580321
11
45.6351592175779
21
-4.37181422193652
72
1
10
45.6351592175779
20
-4.37181422193652
11
44.9191203652244
21
-4.95196505391846
72
1
10
44.9191203652244
20
-4.95196505391846
11
43.0738082464171
21
-1.94245401580321
97
0
75
0
76
1
52
0
41
0.0062
77
0
78
1
53
45
43
0
44
0
45
-0.0139193969876572
46
0.0139193969876572
79
0
47
0
98
1
10
0
20
0
0
DIMENSION
5
1AA
100
AcDbEntity
8
SK2
62
256
6
ByLayer
370
18
48
1
60
0
100
AcDbDimension
2
_U0
10
0
20
-37.1
30
0
11
22
21
-37.1
31
0
70
32
71
1
72
1
41
1
210
0
220
0
230
1
3
Standard
100
AcDbAlignedDimension
13
44
23
0
33
0
14
0
24
0
34
0
50
0
100
AcDbRotatedDimension
1001
ACAD
1000
DSTYLE
1002
{
1070
   371
1070
    13
1070
   372
1070
    13
1070
   170
1070
     0
1070
   144
1040
1.0
1070
   277
1070
     2
1070
   284
1070
     8
1070
   278
1070
    46
1070
   146
1040
1.0
1070
   345
1005
16
1070
   347
1005
16
1070
   346
1005
16
1070
   344
1005
0
1070
   343
1005
0
1070
   172
1070
     1
1070
    76
1070
     0
1070
    75
1070
     0
1070
   282
1070
     0
1070
   281
1070
     0
1070
    71
1070
     0
1070
    74
1070
     0
1070
   279
1070
     0
1070
   173
1070
     1
1070
   340
1005
183
1070
   271
1070
     2
1070
   272
1070
     2
1070
    77
1070
     1
1070
    73
1070
     1
1070
   171
1070
     3
1070
   274
1070
     4
1070
   177
1070
     2
1070
   176
1070
     2
1070
   178
1070
     2
1070
    78
1070
     8
1070
    48
1040
-0.1
1070
    41
1040
3.5
1070
   147
1040
1.75
1070
    42
1040
1.5875
1070
    44
1040
2.0
1070
   140
1040
3.5
1002
}
1001
ACAD_DSTYLE_DIM_LINETYPE
1070
   380
1005
16
1001
ACAD_DSTYLE_DIM_EXT1_LINETYPE
1070
   381
1005
16
1001
ACAD_DSTYLE_DIM_EXT2_LINETYPE
1070
   382
1005
16
0
DIMENSION
5
1C3
100
AcDbEntity
8
2
62
256
6
ByLayer
370
18
48
1
60
0
100
AcDbDimension
2
_U1
10
36.5
20
-20.6
30
0
11
59.916667
21
-20.6
31
0
70
32
71
1
72
1
41
1
210
0
220
0
230
1
3
Standard
100
AcDbAlignedDimension
13
44
23
0
33
0
14
36.5
24
0
34
0
50
0
100
AcDbRotatedDimension
1001
ACAD
1000
DSTYLE
1002
{
1070
   371
1070
    13
1070
   372
1070
    13
1070
   170
1070
     0
1070
   144
1040
1.0
1070
   277
1070
     2
1070
   284
1070
     8
1070
   278
1070
    46
1070
   146
1040
1.0
1070
   345
1005
16
1070
   347
1005
16
1070
   346
1005
16
1070
   344
1005
0
1070
   343
1005
0
1070
   172
1070
     1
1070
    76
1070
     0
1070
    75
1070
     0
1070
   282
1070
     0
1070
   281
1070
     0
1070
    71
1070
     0
1070
    74
1070
     0
1070
   279
1070
     0
1070
   173
1070
     1
1070
   340
1005
183
1070
   271
1070
     2
1070
   272
1070
     2
1070
    77
1070
     1
1070
    73
1070
     1
1070
   171
1070
     3
1070
   274
1070
     4
1070
   177
1070
     2
1070
   176
1070
     2
1070
   178
1070
     2
1070
    78
1070
     8
1070
    48
1040
-0.1
1070
    41
1040
3.5
1070
   147
1040
1.75
1070
    42
1040
1.5875
1070
    44
1040
2.0
1070
   140
1040
3.5
1002
}
1001
ACAD_DSTYLE_DIM_LINETYPE
1070
   380
1005
16
1001
ACAD_DSTYLE_DIM_EXT1_LINETYPE
1070
   381
1005
16
1001
ACAD_DSTYLE_DIM_EXT2_LINETYPE
1070
   382
1005
16
0
ENDSEC
0
SECTION
2
OBJECTS
0
DICTIONARY
5
24d
330
0
100
AcDbDictionary
280
0
281
1
3
ACAD_GROUP
350
24e
3
ACAD_MLINESTYLE
350
24f
0
DICTIONARY
5
24e
330
0
100
AcDbDictionary
280
0
281
1
0
DICTIONARY
5
24f
330
0
100
AcDbDictionary
280
0
281
1
3
Standard
350
18
0
MLINESTYLE
5
18
330
24f
100
AcDbMlineStyle
2
Standard
70
0
3

62
256
51
90
52
90
71
2
49
-0.5
62
256
6
ByLayer
49
0.5
62
256
6
ByLayer
0
RASTERVARIABLES
5
23b
330

100
AcDbRasterVariables
90
0
70
1
71
1
72
1
0
ENDSEC
0
EOF
