0
SECTION
2
HEADER
9
$ACADVER
1
AC1015
9
$DWGCODEPAGE
3
ANSI_1252
9
$HANDSEED
5
254
9
$ANGBASE
50
0
9
$ANGDIR
70
0
9
$ATTMODE
70
1
9
$AUNITS
70
0
9
$AUPREC
70
0
9
$CECOLOR
62
256
9
$CELTSCALE
40
1
9
$CELTYPE
6
ByLayer
9
$CELWEIGHT
370
18
9
$CLAYER
8
0
9
$CMLJUST
70
0
9
$CMLSCALE
40
1
9
$CMLSTYLE
2
Standard
9
$DIMSTYLE
2
Standard
9
$TEXTSIZE
40
0.2
9
$TEXTSTYLE
7
Standard
9
$LUNITS
70
2
9
$LUPREC
70
4
9
$EXTNAMES
290
1
9
$INSUNITS
70
4
9
$LTSCALE
40
1
9
$LWDISPLAY
290
1
9
$PDMODE
70
0
9
$PDSIZE
40
0
9
$PLINEGEN
70
0
0
ENDSEC
0
SECTION
2
CLASSES
0
CLASS
1
RASTERVARIABLES
2
AcDbRasterVariables
3
ISM
90
0
280
0
281
0
0
ENDSEC
0
SECTION
2
TABLES
0
TABLE
2
VPORT
5
24a
100
AcDbSymbolTable
0
VPORT
5
1
100
AcDbSymbolTableRecord
100
AcDbViewportTableRecord
2
*Active
70
0
10
0
20
0
11
1
21
1
12
-1
22
1
13
0
23
0
14
0.5
24
0.5
15
10
25
10
16
0
26
0
36
1
17
0
27
0
37
0
0
ENDTAB
0
TABLE
2
LTYPE
5
24b
100
AcDbSymbolTable
0
LTYPE
5
14
100
AcDbSymbolTableRecord
100
AcDbLinetypeTableRecord
70
0
2
ByBlock
3

72
65
73
0
40
0
0
LTYPE
5
15
100
AcDbSymbolTableRecord
100
AcDbLinetypeTableRecord
70
0
2
ByLayer
3

72
65
73
0
40
0
0
LTYPE
5
16
100
AcDbSymbolTableRecord
100
AcDbLinetypeTableRecord
70
0
2
Continuous
3
Solid line
72
65
73
0
40
0
0
LTYPE
5
6E
100
AcDbSymbolTableRecord
100
AcDbLinetypeTableRecord
70
0
2
CENTER
3
____ _ ____ _ ____ _ ____
72
65
73
4
40
47.5
49
22
74
0
49
-8.5
74
0
49
8.5
74
0
49
-8.5
74
0
0
LTYPE
5
6F
100
AcDbSymbolTableRecord
100
AcDbLinetypeTableRecord
70
0
2
DASHED
3
__ __ __ __ __ __ __ __ __
72
65
73
2
40
25.72
49
12.86
74
0
49
-12.86
74
0
0
ENDTAB
0
TABLE
2
LAYER
5
24c
100
AcDbSymbolTable
0
LAYER
5
10
100
AcDbSymbolTableRecord
100
AcDbLayerTableRecord
2
0
70
0
62
7
6
Continuous
290
1
370
-3
390
0
0
LAYER
5
71
100
AcDbSymbolTableRecord
100
AcDbLayerTableRecord
2
80
70
0
62
-6
6
Continuous
290
1
370
-3
390
0
0
LAYER
5
73
100
AcDbSymbolTableRecord
100
AcDbLayerTableRecord
2
81
70
0
62
-3
6
Continuous
290
1
370
-3
390
0
0
LAYER
5
75
100
AcDbSymbolTableRecord
100
AcDbLayerTableRecord
2
1
70
0
62
4
6
Continuous
290
1
370
-3
390
0
0
LAYER
5
7E
100
AcDbSymbolTableRecord
100
AcDbLayerTableRecord
2
4
70
0
62
-2
6
CENTER
290
1
370
-3
390
0
0
LAYER
5
C3
100
AcDbSymbolTableRecord
100
AcDbLayerTableRecord
2
2
70
0
62
7
6
Continuous
290
1
370
-3
390
0
0
LAYER
5
1A7
100
AcDbSymbolTableRecord
100
AcDbLayerTableRecord
2
Defpoints
70
0
62
7
6
Continuous
290
0
370
-3
390
0
0
LAYER
5
236
100
AcDbSymbolTableRecord
100
AcDbLayerTableRecord
2
SK4
70
0
62
2
6
CENTER
290
1
370
-3
390
0
0
LAYER
5
237
100
AcDbSymbolTableRecord
100
AcDbLayerTableRecord
2
SK1
70
0
62
4
6
Continuous
290
1
370
-3
390
0
0
LAYER
5
238
100
AcDbSymbolTableRecord
100
AcDbLayerTableRecord
2
SK2
70
0
62
7
6
Continuous
290
1
370
-3
390
0
0
LAYER
5
239
100
AcDbSymbolTableRecord
100
AcDbLayerTableRecord
2
SK6
70
0
62
5
6
Continuous
290
1
370
-3
390
0
0
ENDTAB
0
TABLE
2
STYLE
5
24d
100
AcDbSymbolTable
0
STYLE
5
11
100
AcDbSymbolTableRecord
100
AcDbTextStyleTableRecord
2
Standard
3
txt
70
0
71
0
40
0
41
1
42
0
50
0
0
STYLE
5
17D
100
AcDbSymbolTableRecord
100
AcDbTextStyleTableRecord
2
iso_b_vert
3
simplex.shx
70
0
71
0
40
0
41
1
42
0
50
0
0
STYLE
5
17E
100
AcDbSymbolTableRecord
100
AcDbTextStyleTableRecord
2
DWGDirectTextStyle
3
simplex
70
0
71
0
40
0
41
1
42
0
50
0
0
ENDTAB
0
TABLE
2
DIMSTYLE
5
24e
100
AcDbSymbolTable
100
AcDbDimStyleTable
0
DIMSTYLE
105
27
100
AcDbSymbolTableRecord
100
AcDbDimStyleTableRecord
2
Standard
70
0
3
<>
41
0.18
42
0.0625
44
0.18
140
0.18
147
0.09
73
0
74
0
77
1
271
2
275
0
278
52
280
0
340
11
0
ENDTAB
0
TABLE
2
VIEW
5
24f
100
AcDbSymbolTable
0
ENDTAB
0
TABLE
2
UCS
5
250
100
AcDbSymbolTable
0
ENDTAB
0
TABLE
2
APPID
5
251
100
AcDbSymbolTable
0
APPID
5
12
100
AcDbSymbolTableRecord
100
AcDbRegAppTableRecord
2
ACAD
70
0
0
APPID
5
1A3
100
AcDbSymbolTableRecord
100
AcDbRegAppTableRecord
2
ACAD_DSTYLE_DIMBREAK
70
0
0
APPID
5
1F5
100
AcDbSymbolTableRecord
100
AcDbRegAppTableRecord
2
ACAD_DSTYLE_DIM_LINETYPE
70
0
0
APPID
5
1F6
100
AcDbSymbolTableRecord
100
AcDbRegAppTableRecord
2
ACAD_DSTYLE_DIM_EXT1_LINETYPE
70
0
0
APPID
5
1F7
100
AcDbSymbolTableRecord
100
AcDbRegAppTableRecord
2
ACAD_DSTYLE_DIM_EXT2_LINETYPE
70
0
0
APPID
5
232
100
AcDbSymbolTableRecord
100
AcDbRegAppTableRecord
2
ACAD_MLEADERVER
70
0
0
ENDTAB
0
TABLE
2
BLOCK_RECORD
5
252
100
AcDbSymbolTable
0
BLOCK_RECORD
5
1F
100
AcDbSymbolTableRecord
100
AcDbBlockTableRecord
2
*Model_Space
340
0
70
0
0
BLOCK_RECORD
5
1B
100
AcDbSymbolTableRecord
100
AcDbBlockTableRecord
2
*Paper_Space
340
0
70
0
0
BLOCK_RECORD
5
23
100
AcDbSymbolTableRecord
100
AcDbBlockTableRecord
2
*Paper_Space0
340
0
70
0
0
BLOCK_RECORD
5
1A8
100
AcDbSymbolTableRecord
100
AcDbBlockTableRecord
2
*D1
340
0
70
0
0
BLOCK_RECORD
5
1B4
100
AcDbSymbolTableRecord
100
AcDbBlockTableRecord
2
_U0
340
0
70
0
0
BLOCK_RECORD
5
1C0
100
AcDbSymbolTableRecord
100
AcDbBlockTableRecord
2
*D3
340
0
70
0
0
BLOCK_RECORD
5
1CE
100
AcDbSymbolTableRecord
100
AcDbBlockTableRecord
2
_U1
340
0
70
0
0
ENDTAB
0
ENDSEC
0
SECTION
2
BLOCKS
0
BLOCK
5
20
100
AcDbEntity
8
0
100
AcDbBlockBegin
2
*Model_Space
70
0
10
0
20
0
30
0
3
*Model_Space
0
ENDBLK
5
21
100
AcDbEntity
8
0
100
AcDbBlockEnd
0
BLOCK
5
1C
100
AcDbEntity
8
0
100
AcDbBlockBegin
2
*Paper_Space
70
0
10
0
20
0
30
0
3
*Paper_Space
0
ENDBLK
5
1D
100
AcDbEntity
8
0
100
AcDbBlockEnd
0
BLOCK
5
24
100
AcDbEntity
8
0
100
AcDbBlockBegin
2
*Paper_Space0
70
0
10
0
20
0
30
0
3
*Paper_Space0
0
ENDBLK
5
25
100
AcDbEntity
8
0
100
AcDbBlockEnd
0
BLOCK
5
1A9
100
AcDbEntity
8
0
100
AcDbBlockBegin
2
*D1
70
1
10
0
20
0
30
0
3
*D1
0
LINE
5
1AB
100
AcDbEntity
8
0
62
256
6
ByLayer
370
-2
48
1
60
0
100
AcDbLine
10
44
20
-1.5875
30
0
11
44
21
-40.154182
31
0
39
0
210
0
220
0
230
1
0
LINE
5
1AC
100
AcDbEntity
8
0
62
256
6
ByLayer
370
-2
48
1
60
0
100
AcDbLine
10
0
20
-1.5875
30
0
11
0
21
-40.154182
31
0
39
0
210
0
220
0
230
1
0
LINE
5
1AD
100
AcDbEntity
8
0
62
256
6
ByLayer
370
-2
48
1
60
0
100
AcDbLine
10
40.5
20
-38.154182
30
0
11
3.5
21
-38.154182
31
0
39
0
210
0
220
0
230
1
0
SOLID
5
1AE
100
AcDbEntity
8
0
62
256
6
ByLayer
370
-1
48
1
60
0
100
AcDbTrace
10
40.5
20
-38.737515
30
0
11
40.5
21
-37.570849
31
0
12
44
22
-38.154182
32
0
13
44
23
-38.154182
33
0
39
0
210
0
220
0
230
1
0
SOLID
5
1AF
100
AcDbEntity
8
0
62
256
6
ByLayer
370
-1
48
1
60
0
100
AcDbTrace
10
3.5
20
-37.570849
30
0
11
3.5
21
-38.737515
31
0
12
0
22
-38.154182
32
0
13
0
23
-38.154182
33
0
39
0
210
0
220
0
230
1
0
MTEXT
5
1B0
100
AcDbEntity
8
0
62
256
6
ByLayer
370
18
48
1
60
0
100
AcDbMText
10
22
20
-31.154182
30
0
210
0
220
0
230
1
1
\A1;44
40
3.5
41
0
44
1
50
0
71
5
72
5
7
iso_b_vert
0
POINT
5
1B1
100
AcDbEntity
8
Defpoints
62
0
6
ByLayer
370
-1
48
1
60
0
100
AcDbPoint
10
44
20
0
30
0
39
0
210
0
220
0
230
1
50
360
0
POINT
5
1B2
100
AcDbEntity
8
Defpoints
62
0
6
ByLayer
370
-1
48
1
60
0
100
AcDbPoint
10
0
20
0
30
0
39
0
210
0
220
0
230
1
50
360
0
POINT
5
1B3
100
AcDbEntity
8
Defpoints
62
0
6
ByLayer
370
-1
48
1
60
0
100
AcDbPoint
10
0
20
-38.154182
30
0
39
0
210
0
220
0
230
1
50
360
0
ENDBLK
5
1AA
100
AcDbEntity
8
0
100
AcDbBlockEnd
0
BLOCK
5
1BB
100
AcDbEntity
8
0
100
AcDbBlockBegin
2
_U0
70
0
10
0
20
0
30
0
3
_U0
0
MTEXT
5
1B5
100
AcDbEntity
8
SK2
62
256
6
ByLayer
370
18
48
1
60
0
100
AcDbMText
10
19.7265
20
-37.121549
30
0
210
0
220
0
230
1
1
\W0.7685;44
40
3.5
41
0
44
1.084337
50
0
71
7
72
5
7
iso_b_vert
0
LINE
5
1B6
100
AcDbEntity
8
SK2
62
256
6
ByLayer
370
13
48
1
60
0
100
AcDbLine
10
44
20
-1.5875
30
0
11
44
21
-40.154182
31
0
39
0
210
0
220
0
230
1
0
LINE
5
1B7
100
AcDbEntity
8
SK2
62
256
6
ByLayer
370
13
48
1
60
0
100
AcDbLine
10
0
20
-1.5875
30
0
11
0
21
-40.154182
31
0
39
0
210
0
220
0
230
1
0
LINE
5
1B8
100
AcDbEntity
8
SK2
62
256
6
ByLayer
370
13
48
1
60
0
100
AcDbLine
10
44
20
-38.154182
30
0
11
0
21
-38.154182
31
0
39
0
210
0
220
0
230
1
0
SOLID
5
1B9
100
AcDbEntity
8
SK2
62
256
6
ByLayer
370
18
48
1
60
0
100
AcDbTrace
10
44
20
-38.154182
30
0
11
40.500002
21
-38.614966
31
0
12
40.499998
22
-37.693398
32
0
13
40.499998
23
-37.693398
33
0
39
0
210
0
220
0
230
1
0
SOLID
5
1BA
100
AcDbEntity
8
SK2
62
256
6
ByLayer
370
18
48
1
60
0
100
AcDbTrace
10
0
20
-38.154182
30
0
11
3.499998
21
-37.693398
31
0
12
3.500002
22
-38.614966
32
0
13
3.500002
23
-38.614966
33
0
39
0
210
0
220
0
230
1
0
ENDBLK
5
1BC
100
AcDbEntity
8
0
100
AcDbBlockEnd
0
BLOCK
5
1C1
100
AcDbEntity
8
0
100
AcDbBlockBegin
2
*D3
70
1
10
0
20
0
30
0
3
*D3
0
LINE
5
1C3
100
AcDbEntity
8
0
62
256
6
ByLayer
370
-2
48
1
60
0
100
AcDbLine
10
44
20
-1.5875
30
0
11
44
21
-23.654182
31
0
39
0
210
0
220
0
230
1
0
LINE
5
1C4
100
AcDbEntity
8
0
62
256
6
ByLayer
370
-2
48
1
60
0
100
AcDbLine
10
32
20
-1.5875
30
0
11
32
21
-23.654182
31
0
39
0
210
0
220
0
230
1
0
LINE
5
1C5
100
AcDbEntity
8
0
62
256
6
ByLayer
370
-2
48
1
60
0
100
AcDbLine
10
44
20
-21.654182
30
0
11
66.666667
21
-21.654182
31
0
39
0
210
0
220
0
230
1
0
LINE
5
1C6
100
AcDbEntity
8
0
62
256
6
ByLayer
370
-2
48
1
60
0
100
AcDbLine
10
47.5
20
-21.654182
30
0
11
51
21
-21.654182
31
0
39
0
210
0
220
0
230
1
0
LINE
5
1C7
100
AcDbEntity
8
0
62
256
6
ByLayer
370
-2
48
1
60
0
100
AcDbLine
10
28.5
20
-21.654182
30
0
11
25
21
-21.654182
31
0
39
0
210
0
220
0
230
1
0
SOLID
5
1C8
100
AcDbEntity
8
0
62
256
6
ByLayer
370
-1
48
1
60
0
100
AcDbTrace
10
47.5
20
-21.070849
30
0
11
47.5
21
-22.237515
31
0
12
44
22
-21.654182
32
0
13
44
23
-21.654182
33
0
39
0
210
0
220
0
230
1
0
SOLID
5
1C9
100
AcDbEntity
8
0
62
256
6
ByLayer
370
-1
48
1
60
0
100
AcDbTrace
10
28.5
20
-22.237515
30
0
11
28.5
21
-21.070849
31
0
12
32
22
-21.654182
32
0
13
32
23
-21.654182
33
0
39
0
210
0
220
0
230
1
0
MTEXT
5
1CA
100
AcDbEntity
8
0
62
256
6
ByLayer
370
18
48
1
60
0
100
AcDbMText
10
58.833333
20
-14.654182
30
0
210
0
220
0
230
1
1
\A1;12
40
3.5
41
0
44
1
50
0
71
5
72
5
7
iso_b_vert
0
POINT
5
1CB
100
AcDbEntity
8
Defpoints
62
0
6
ByLayer
370
-1
48
1
60
0
100
AcDbPoint
10
44
20
0
30
0
39
0
210
0
220
0
230
1
50
360
0
POINT
5
1CC
100
AcDbEntity
8
Defpoints
62
0
6
ByLayer
370
-1
48
1
60
0
100
AcDbPoint
10
32
20
0
30
0
39
0
210
0
220
0
230
1
50
360
0
POINT
5
1CD
100
AcDbEntity
8
Defpoints
62
0
6
ByLayer
370
-1
48
1
60
0
100
AcDbPoint
10
32
20
-21.654182
30
0
39
0
210
0
220
0
230
1
50
360
0
ENDBLK
5
1C2
100
AcDbEntity
8
0
100
AcDbBlockEnd
0
BLOCK
5
1D5
100
AcDbEntity
8
0
100
AcDbBlockBegin
2
_U1
70
0
10
0
20
0
30
0
3
_U1
0
MTEXT
5
1CF
100
AcDbEntity
8
2
62
256
6
ByLayer
370
18
48
1
60
0
100
AcDbMText
10
55.593864
20
-20.621549
30
0
210
0
220
0
230
1
1
\W0.5321;12
40
3.5
41
0
44
1.084337
50
0
71
7
72
5
7
iso_b_vert
0
LINE
5
1D0
100
AcDbEntity
8
2
62
256
6
ByLayer
370
13
48
1
60
0
100
AcDbLine
10
44
20
-1.5875
30
0
11
44
21
-23.654182
31
0
39
0
210
0
220
0
230
1
0
LINE
5
1D1
100
AcDbEntity
8
2
62
256
6
ByLayer
370
13
48
1
60
0
100
AcDbLine
10
32
20
-1.5875
30
0
11
32
21
-23.654182
31
0
39
0
210
0
220
0
230
1
0
LINE
5
1D2
100
AcDbEntity
8
2
62
256
6
ByLayer
370
13
48
1
60
0
100
AcDbLine
10
32
20
-21.654182
30
0
11
58.71443
21
-21.654182
31
0
39
0
210
0
220
0
230
1
0
SOLID
5
1D3
100
AcDbEntity
8
2
62
256
6
ByLayer
370
18
48
1
60
0
100
AcDbTrace
10
44
20
-21.654182
30
0
11
40.500002
21
-22.114966
31
0
12
40.499998
22
-21.193398
32
0
13
40.499998
23
-21.193398
33
0
39
0
210
0
220
0
230
1
0
SOLID
5
1D4
100
AcDbEntity
8
2
62
256
6
ByLayer
370
18
48
1
60
0
100
AcDbTrace
10
32
20
-21.654182
30
0
11
35.499998
21
-21.193398
31
0
12
35.500002
22
-22.114966
32
0
13
35.500002
23
-22.114966
33
0
39
0
210
0
220
0
230
1
0
ENDBLK
5
1D6
100
AcDbEntity
8
0
100
AcDbBlockEnd
0
ENDSEC
0
SECTION
2
ENTITIES
0
ELLIPSE
5
D9
100
AcDbEntity
8
1
62
256
6
ByLayer
370
18
48
1
60
0
100
AcDbEllipse
10
32.138564
20
-7.652145
30
0
11
1.98121531574327
21
3.55656535613096
31
0
210
0
220
0
230
1
40
0.820013
41
0.636028562012905
42
0.689061564899284
0
ELLIPSE
5
DA
100
AcDbEntity
8
1
62
256
6
ByLayer
370
18
48
1
60
0
100
AcDbEllipse
10
44.191998
20
-0.366767
30
0
11
0.249431865815991
21
0.17727994479142
31
0
210
0
220
0
230
1
40
0.729272
41
2.07688763865593
42
2.89153475837455
0
ELLIPSE
5
DB
100
AcDbEntity
8
1
62
256
6
ByLayer
370
18
48
1
60
0
100
AcDbEllipse
10
43.722331
20
0.331863
30
0
11
0.00180011023783445
21
-0.279699683533776
31
0
210
0
220
0
230
1
40
0.436777
41
-2.60658835558066
42
-0.46856002188515
0
ELLIPSE
5
DC
100
AcDbEntity
8
1
62
256
6
ByLayer
370
18
48
1
60
0
100
AcDbEllipse
10
32.138564
20
7.565619
30
0
11
-2.1300883732331
21
3.46945165436612
31
0
210
0
220
0
230
1
40
0.809793
41
2.35670166977256
42
2.45357653849569
0
ELLIPSE
5
DD
100
AcDbEntity
8
1
62
256
6
ByLayer
370
18
48
1
60
0
100
AcDbEllipse
10
32.138564
20
-6.044281
30
0
11
-3.00697776716355
21
2.74453201248424
31
0
210
0
220
0
230
1
40
0.670747
41
-0.982140008285138
42
-0.885265139562854
0
ELLIPSE
5
DE
100
AcDbEntity
8
1
62
256
6
ByLayer
370
18
48
1
60
0
100
AcDbEllipse
10
32.138564
20
1.794641
30
0
11
-3.50845560496496
21
2.06521440237007
31
0
210
0
220
0
230
1
40
0.168793
41
1.53364371620508
42
1.63051858492786
0
ELLIPSE
5
DF
100
AcDbEntity
8
1
62
256
6
ByLayer
370
18
48
1
60
0
100
AcDbEllipse
10
33.090872
20
0
30
0
11
8.90878618795302
21
-2.45252197016397
31
0
210
0
220
0
230
1
40
0.354698
41
-1.66763722642556
42
-1.59563231729288
0
ELLIPSE
5
E0
100
AcDbEntity
8
1
62
256
6
ByLayer
370
18
48
1
60
0
100
AcDbEllipse
10
33.160496
20
0
30
0
11
9.52187844158989
21
-3.99208628719704
31
0
210
0
220
0
230
1
40
0.026412
41
1.70404237465251
42
1.76814276016707
0
ELLIPSE
5
E1
100
AcDbEntity
8
1
62
256
6
ByLayer
370
18
48
1
60
0
100
AcDbEllipse
10
33.090872
20
0
30
0
11
8.91350440510345
21
-2.17960334496936
31
0
210
0
220
0
230
1
40
0.376283
41
1.78472288175312
42
1.85672779120244
0
POINT
5
70
100
AcDbEntity
8
80
62
256
6
ByLayer
370
18
48
1
60
0
100
AcDbPoint
10
0
20
0
30
0
39
0
210
0
220
0
230
1
50
360
0
POINT
5
72
100
AcDbEntity
8
81
62
256
6
ByLayer
370
18
48
1
60
0
100
AcDbPoint
10
44.05
20
0
30
0
39
0
210
0
220
0
230
1
50
360
0
POINT
5
74
100
AcDbEntity
8
1
62
256
6
ByLayer
370
18
48
1
60
1
100
AcDbPoint
10
44
20
0
30
0
39
0
210
0
220
0
230
1
50
360
0
POINT
5
76
100
AcDbEntity
8
1
62
256
6
ByLayer
370
18
48
1
60
1
100
AcDbPoint
10
0
20
0
30
0
39
0
210
0
220
0
230
1
50
360
0
POINT
5
77
100
AcDbEntity
8
1
62
256
6
ByLayer
370
18
48
1
60
1
100
AcDbPoint
10
44
20
0
30
0
39
0
210
0
220
0
230
1
50
360
0
POINT
5
78
100
AcDbEntity
8
1
62
256
6
ByLayer
370
18
48
1
60
1
100
AcDbPoint
10
32
20
0
30
0
39
0
210
0
220
0
230
1
50
360
0
SPLINE
5
E2
100
AcDbEntity
8
1
62
256
6
ByLayer
370
18
48
1
60
0
100
AcDbSpline
70
4
71
3
72
8
73
4
40
0
40
0
40
0
40
0
40
1
40
1
40
1
40
1
41
1
10
43.9994207293446
20
-0.0299621557677199
30
0
41
1
10
43.9993995715207
20
-0.0329538066292514
30
0
41
1
10
43.9993750744382
20
-0.0359454253942033
30
0
41
1
10
43.9993472350183
20
-0.0389370009938546
30
0
0
SPLINE
5
E3
100
AcDbEntity
8
1
62
256
6
ByLayer
370
18
48
1
60
0
100
AcDbSpline
70
4
71
3
72
8
73
4
40
0
40
0
40
0
40
0
40
1
40
1
40
1
40
1
41
1
10
43.9994207293446
20
-0.0299621557645366
30
0
41
1
10
43.9994182571002
20
-0.030142329166722
30
0
41
1
10
43.9994157791901
20
-0.0303225025518259
30
0
41
1
10
43.999413295612
20
-0.0305026759236284
30
0
0
SPLINE
5
E4
100
AcDbEntity
8
1
62
256
6
ByLayer
370
18
48
1
60
0
100
AcDbSpline
70
4
71
3
72
8
73
4
40
0
40
0
40
0
40
0
40
1
40
1
40
1
40
1
41
1
10
43.9993158080699
20
0.0314533844679374
30
0
41
1
10
43.9993258001846
20
0.0332900137722447
30
0
41
1
10
43.9993347023251
20
0.0351266493129856
30
0
41
1
10
43.9993425142204
20
0.0369632891556648
30
0
0
SPLINE
5
E5
100
AcDbEntity
8
1
62
256
6
ByLayer
370
13
48
1
60
0
100
AcDbSpline
70
4
71
3
72
8
73
4
40
0
40
0
40
0
40
0
40
1
40
1
40
1
40
1
41
1
10
41.335755007791
20
3.43729948821905
30
0
41
1
10
41.3027880096469
20
3.43051826211169
30
0
41
1
10
41.2698210115028
20
3.42362011098217
30
0
41
1
10
41.2368540133586
20
3.41660547931625
30
0
0
SPLINE
5
E6
100
AcDbEntity
8
1
62
256
6
ByLayer
370
18
48
1
60
0
100
AcDbSpline
70
4
71
3
72
13
73
9
40
0
40
0
40
0
40
0
40
0.5
40
0.5
40
0.625
40
0.625
40
0.75
40
1
40
1
40
1
40
1
41
1
10
43.9993425142205
20
0.0369632891551817
30
0
41
1
10
43.9938515405522
20
0.233223144337643
30
0
41
1
10
43.9758248326106
20
0.428202779978165
30
0
41
1
10
43.9375242996633
20
0.670317094878271
30
0
41
1
10
43.9290713210526
20
0.718683509137009
30
0
41
1
10
43.9106553445632
20
0.815003241832358
30
0
41
1
10
43.8807560558642
20
0.958943448574928
30
0
41
1
10
43.8439618801377
20
1.10124914127613
30
0
41
1
10
43.8163481261926
20
1.19538843267489
30
0
0
SPLINE
5
E7
100
AcDbEntity
8
1
62
256
6
ByLayer
370
18
48
1
60
0
100
AcDbSpline
70
4
71
3
72
8
73
4
40
0
40
0
40
0
40
0
40
1
40
1
40
1
40
1
41
1
10
43.9863684404517
20
0.0311574692538272
30
0
41
1
10
43.9861428252932
20
0.0322377588536256
30
0
41
1
10
43.9859172307958
20
0.0333180527838692
30
0
41
1
10
43.9856916570043
20
0.0343983510528005
30
0
0
SPLINE
5
E8
100
AcDbEntity
8
1
62
256
6
ByLayer
370
18
48
1
60
0
100
AcDbSpline
70
4
71
3
72
8
73
4
40
0
40
0
40
0
40
0
40
1
40
1
40
1
40
1
41
1
10
43.6691289543463
20
1.12372429518174
30
0
41
1
10
43.7181015264654
20
1.14780987636718
30
0
41
1
10
43.7671837984018
20
1.1716798078821
30
0
41
1
10
43.8163481261926
20
1.19538843267489
30
0
0
SPLINE
5
E9
100
AcDbEntity
8
1
62
256
6
ByLayer
370
18
48
1
60
0
100
AcDbSpline
70
4
71
3
72
28
73
24
40
0
40
0
40
0
40
0
40
0.0625000000000021
40
0.0625000000000021
40
0.0937500000000031
40
0.0937500000000031
40
0.125000000000004
40
0.125000000000004
40
0.250000000000008
40
0.250000000000008
40
0.375000000000012
40
0.375000000000012
40
0.500000000000017
40
0.500000000000017
40
0.53125000000002
40
0.53125000000002
40
0.562500000000023
40
0.62500000000002
40
0.62500000000002
40
0.750000000000013
40
0.875000000000007
40
0.875000000000007
40
1
40
1
40
1
40
1
41
1
10
43.8163481261925
20
1.19538843267489
30
0
41
1
10
43.7995962767424
20
1.24853130450589
30
0
41
1
10
43.7817030552915
20
1.3012549703104
30
0
41
1
10
43.7531390412831
20
1.37970574584881
30
0
41
1
10
43.7433292214299
20
1.40575069832804
30
0
41
1
10
43.7232228435078
20
1.45740666079718
30
0
41
1
10
43.712916176698
20
1.48304610199162
30
0
41
1
10
43.6601352217969
20
1.61031433493025
30
0
41
1
10
43.6139441897845
20
1.70917228361063
30
0
41
1
10
43.5137545825157
20
1.90108806431792
30
0
41
1
10
43.4597569435867
20
1.99414635247874
30
0
41
1
10
43.3439078266208
20
2.17443925566775
30
0
41
1
10
43.2820519543465
20
2.26167137391971
30
0
41
1
10
43.199663642534
20
2.36695890969145
30
0
41
1
10
43.1829238814119
20
2.38783691166518
30
0
41
1
10
43.1491281841832
20
2.42897930880289
30
0
41
1
10
43.097891369855
20
2.48986192554759
30
0
41
1
10
43.0450483771942
20
2.54828737271984
30
0
41
1
10
42.9372532004662
20
2.66191675688756
30
0
41
1
10
42.7879088132784
20
2.80484490921918
30
0
41
1
10
42.6274856220608
20
2.93086104455639
30
0
41
1
10
42.4614689616467
20
3.04831294131307
30
0
41
1
10
42.3756651320718
20
3.10275850707697
30
0
41
1
10
42.2869603329487
20
3.152738258292
30
0
0
SPLINE
5
EA
100
AcDbEntity
8
1
62
256
6
ByLayer
370
18
48
1
60
0
100
AcDbSpline
70
4
71
3
72
10
73
6
40
0
40
0
40
0
40
0
40
0.5
40
0.5
40
1
40
1
40
1
40
1
41
1
10
42.2869603329486
20
3.15273825829209
30
0
41
1
10
42.1546868573974
20
3.22716568116309
30
0
41
1
10
42.0176968800886
20
3.29094437664631
30
0
41
1
10
41.7361531744652
20
3.39480604940735
30
0
41
1
10
41.5915583512885
20
3.434843283509
30
0
41
1
10
41.4439241816628
20
3.46162022060045
30
0
0
SPLINE
5
EB
100
AcDbEntity
8
1
62
256
6
ByLayer
370
18
48
1
60
0
100
AcDbSpline
70
4
71
3
72
10
73
6
40
0
40
0
40
0
40
0
40
0.656841709380671
40
0.656841709380671
40
1
40
1
40
1
40
1
41
1
10
41.4439241816617
20
3.46162022060065
30
0
41
1
10
41.3502744536032
20
3.4788779916816
30
0
41
1
10
41.2564793804475
20
3.49084197772262
30
0
41
1
10
41.1131201459482
20
3.50153119366823
30
0
41
1
10
41.0638244687318
20
3.50384791430437
30
0
41
1
10
41.0144079628695
20
3.50485832098724
30
0
0
SPLINE
5
EC
100
AcDbEntity
8
1
62
256
6
ByLayer
370
18
48
1
60
0
100
AcDbSpline
70
4
71
3
72
10
73
6
40
0
40
0
40
0
40
0
40
0.163244538040433
40
0.163244538040433
40
1
40
1
40
1
40
1
41
1
10
41.0764214477962
20
3.47351947479044
30
0
41
1
10
41.0906251992172
20
3.47227915434331
30
0
41
1
10
41.1048167654677
20
3.47092276327669
30
0
41
1
10
41.1916179842874
20
3.4618985399274
30
0
41
1
10
41.263860111897
20
3.45128213143772
30
0
41
1
10
41.3357550077916
20
3.43729948821917
30
0
0
SPLINE
5
ED
100
AcDbEntity
8
1
62
256
6
ByLayer
370
18
48
1
60
0
100
AcDbSpline
70
4
71
3
72
28
73
24
40
0
40
0
40
0
40
0
40
0.203458662807181
40
0.203458662807181
40
0.305187994210771
40
0.305187994210771
40
0.406917325614362
40
0.406917325614362
40
0.610375988421543
40
0.610375988421543
40
0.661240654123338
40
0.661240654123338
40
0.712105319825134
40
0.712105319825134
40
0.813834651228727
40
0.813834651228727
40
0.864699316930523
40
0.864699316930523
40
0.91556398263232
40
0.91556398263232
40
0.966428648334117
40
0.966428648334117
40
1
40
1
40
1
40
1
41
1
10
41.335755007791
20
3.43729948821908
30
0
41
1
10
41.3687508641655
20
3.43088239176055
30
0
41
1
10
41.4012620765864
20
3.42309163127081
30
0
41
1
10
41.449022346152
20
3.40874920407777
30
0
41
1
10
41.4647744594917
20
3.40352646853893
30
0
41
1
10
41.4958775283452
20
3.39206898563356
30
0
41
1
10
41.5112475428146
20
3.38582390029023
30
0
41
1
10
41.5561887006945
20
3.36548762166586
30
0
41
1
10
41.5847773519616
20
3.34983344402468
30
0
41
1
10
41.6176531211775
20
3.32619994873832
30
0
41
1
10
41.6240803223506
20
3.32126359326924
30
0
41
1
10
41.6365814115063
20
3.31089843044799
30
0
41
1
10
41.6426762469453
20
3.30544958271872
30
0
41
1
10
41.6601597823286
20
3.28835672366563
30
0
41
1
10
41.6706709649402
20
3.27608887256983
30
0
41
1
10
41.683991908235
20
3.25587657940338
30
0
41
1
10
41.6880204300377
20
3.24883447673591
30
0
41
1
10
41.6950382492349
20
3.23399107260724
30
0
41
1
10
41.6980398375886
20
3.22612110011821
30
0
41
1
10
41.7025368240071
20
3.20997659341532
30
0
41
1
10
41.7040608284988
20
3.20166600454064
30
0
41
1
10
41.7051862064933
20
3.18741467450326
30
0
41
1
10
41.7052530376888
20
3.18161768986391
30
0
41
1
10
41.7049273846868
20
3.17580464192108
30
0
0
SPLINE
5
EE
100
AcDbEntity
8
1
62
256
6
ByLayer
370
18
48
1
60
0
100
AcDbSpline
70
4
71
3
72
14
73
10
40
0
40
0
40
0
40
0
40
0.237020126056831
40
0.237020126056831
40
0.474040252113661
40
0.474040252113661
40
0.948080504228555
40
0.948080504228555
40
1
40
1
40
1
40
1
41
1
10
43.6691289543413
20
1.12372429519152
30
0
41
1
10
43.6666867193774
20
1.12252316063902
30
0
41
1
10
43.6641241085879
20
1.12181376108799
30
0
41
1
10
43.6588795845002
20
1.12088231249155
30
0
41
1
10
43.6561781241068
20
1.12067453439283
30
0
41
1
10
43.6481819910363
20
1.12052271813977
30
0
41
1
10
43.642912325267
20
1.12101383580287
30
0
41
1
10
43.6370948398396
20
1.12184325602439
30
0
41
1
10
43.6365208908821
20
1.12192828861529
30
0
41
1
10
43.6359472766088
20
1.12201636064145
30
0
0
SPLINE
5
EF
100
AcDbEntity
8
1
62
256
6
ByLayer
370
13
48
1
60
0
100
AcDbSpline
70
4
71
3
72
8
73
4
40
0
40
0
40
0
40
0
40
1
40
1
40
1
40
1
41
1
10
43.6151095984962
20
1.16262255030801
30
0
41
1
10
43.6331018809228
20
1.1496514902901
30
0
41
1
10
43.6511088478732
20
1.13668587645103
30
0
41
1
10
43.6691289543413
20
1.12372429519155
30
0
0
SPLINE
5
F0
100
AcDbEntity
8
1
62
256
6
ByLayer
370
18
48
1
60
0
100
AcDbSpline
70
4
71
3
72
10
73
6
40
0
40
0
40
0
40
0
40
0.357068404265472
40
0.357068404265472
40
1
40
1
40
1
40
1
41
1
10
33.6591580340267
20
-3.61572798289421
30
0
41
1
10
33.4771569976209
20
-3.6490460693999
30
0
41
1
10
33.2952466171346
20
-3.67858498478594
30
0
41
1
10
32.7856049163873
20
-3.7506027901315
30
0
41
1
10
32.4577257337202
20
-3.78452593927554
30
0
41
1
10
32.1289223409093
20
-3.80565712775967
30
0
0
SPLINE
5
F1
100
AcDbEntity
8
1
62
256
6
ByLayer
370
18
48
1
60
0
100
AcDbSpline
70
4
71
3
72
12
73
8
40
0
40
0
40
0
40
0
40
0.5
40
0.5
40
0.75
40
0.75
40
1
40
1
40
1
40
1
41
1
10
31.9999999999999
20
3.79818220130591
30
0
41
1
10
31.9181485619156
20
3.8239085205233
30
0
41
1
10
31.8363686796777
20
3.85204718625849
30
0
41
1
10
31.7136892254944
20
3.89770728184416
30
0
41
1
10
31.6727459674251
20
3.91352282143765
30
0
41
1
10
31.5910974517004
20
3.94617599875761
30
0
41
1
10
31.5504071572104
20
3.96300599476135
30
0
41
1
10
31.5098393263533
20
3.98031711333917
30
0
0
SPLINE
5
F2
100
AcDbEntity
8
1
62
256
6
ByLayer
370
18
48
1
60
0
100
AcDbSpline
70
4
71
3
72
8
73
4
40
0
40
0
40
0
40
0
40
1
40
1
40
1
40
1
41
1
10
39.4281252708188
20
3.80042778080832
30
0
41
1
10
39.6187501805459
20
3.77133889743942
30
0
41
1
10
39.8093750902729
20
3.73796873877848
30
0
41
1
10
40
20
3.70042145481585
30
0
0
SPLINE
5
F3
100
AcDbEntity
8
1
62
256
6
ByLayer
370
18
48
1
60
0
100
AcDbSpline
70
4
71
3
72
8
73
4
40
0
40
0
40
0
40
0
40
1
40
1
40
1
40
1
41
1
10
40.8165394248929
20
-3.44193623282484
30
0
41
1
10
40.8173455042716
20
-3.44193067617641
30
0
41
1
10
40.8181510070639
20
-3.44192597616745
30
0
41
1
10
40.8189559345966
20
-3.44192212852042
30
0
0
SPLINE
5
F4
100
AcDbEntity
8
1
62
256
6
ByLayer
370
18
48
1
60
0
100
AcDbSpline
70
4
71
3
72
34
73
30
40
0
40
0
40
0
40
0
40
0.125000000000018
40
0.125000000000018
40
0.156250000000019
40
0.156250000000019
40
0.187500000000021
40
0.187500000000021
40
0.250000000000024
40
0.250000000000024
40
0.37500000000003
40
0.37500000000003
40
0.437500000000028
40
0.437500000000028
40
0.468750000000027
40
0.468750000000027
40
0.500000000000025
40
0.500000000000025
40
0.624999999999999
40
0.624999999999999
40
0.68749999999999
40
0.68749999999999
40
0.718749999999986
40
0.718749999999986
40
0.749999999999982
40
0.749999999999982
40
0.874999999999991
40
0.874999999999991
40
1
40
1
40
1
40
1
41
1
10
41.5554170248671
20
3.27589562663246
30
0
41
1
10
41.6459039277875
20
3.21866048615396
30
0
41
1
10
41.7373461382339
20
3.15776369574172
30
0
41
1
10
41.8528959127547
20
3.07686296998168
30
0
41
1
10
41.8760686367153
20
3.06044223391538
30
0
41
1
10
41.9225426628167
20
3.02710792751492
30
0
41
1
10
41.9457716143883
20
3.01024559233926
30
0
41
1
10
42.0150995219071
20
2.95931904133718
30
0
41
1
10
42.0609770715134
20
2.9248176209679
30
0
41
1
10
42.1975960025409
20
2.81967744838346
30
0
41
1
10
42.287328884698
20
2.74741120621368
30
0
41
1
10
42.419851718025
20
2.63566085740953
30
0
41
1
10
42.4636786303818
20
2.59785017184095
30
0
41
1
10
42.5288783712378
20
2.54026169255982
30
0
41
1
10
42.5505649924986
20
2.5208804257681
30
0
41
1
10
42.5935389973992
20
2.48201408940193
30
0
41
1
10
42.6147826862249
20
2.46256961042224
30
0
41
1
10
42.7198017100142
20
2.36529145868079
30
0
41
1
10
42.8000042200022
20
2.28729169782275
30
0
41
1
10
42.9146340661176
20
2.17002829595711
30
0
41
1
10
42.9518942430953
20
2.13089634378014
30
0
41
1
10
43.0063340863007
20
2.07213099047348
30
0
41
1
10
43.024238763186
20
2.05253129254527
30
0
41
1
10
43.0595575289819
20
2.01330909097493
30
0
41
1
10
43.077003909472
20
1.99364960360754
30
0
41
1
10
43.1626002922007
20
1.89573839342259
30
0
41
1
10
43.2252253782255
20
1.81938454274925
30
0
41
1
10
43.3394206350527
20
1.67040798990288
30
0
41
1
10
43.3909664649418
20
1.59779350304046
30
0
41
1
10
43.4367501196592
20
1.52712381003823
30
0
0
SPLINE
5
F5
100
AcDbEntity
8
1
62
256
6
ByLayer
370
18
48
1
60
0
100
AcDbSpline
70
4
71
3
72
42
73
38
40
0
40
0
40
0
40
0
40
0.0624999999999994
40
0.0624999999999994
40
0.124999999999999
40
0.124999999999999
40
0.250000000000019
40
0.250000000000019
40
0.312500000000018
40
0.312500000000018
40
0.375000000000017
40
0.375000000000017
40
0.390625000000006
40
0.390625000000006
40
0.406249999999994
40
0.406249999999994
40
0.410156249999997
40
0.410156249999997
40
0.4140625
40
0.4140625
40
0.417968750000002
40
0.417968750000002
40
0.421875000000005
40
0.421875000000005
40
0.437500000000016
40
0.437500000000016
40
0.468750000000015
40
0.468750000000015
40
0.500000000000014
40
0.500000000000014
40
0.562500000000012
40
0.562500000000012
40
0.62500000000001
40
0.62500000000001
40
0.750000000000007
40
0.750000000000007
40
1
40
1
40
1
40
1
41
1
10
39.9999993428449
20
3.75081448115634
30
0
41
1
10
40.0312426897938
20
3.74720115282216
30
0
41
1
10
40.0624584095596
20
3.7435258122492
30
0
41
1
10
40.1251727321448
20
3.73481487113642
30
0
41
1
10
40.1566435835411
20
3.72989474741024
30
0
41
1
10
40.2513752133193
20
3.71369192811733
30
0
41
1
10
40.314968056595
20
3.7009195143651
30
0
41
1
10
40.4110934024661
20
3.67910635035625
30
0
41
1
10
40.4432579407367
20
3.67139185571853
30
0
41
1
10
40.5078434125157
20
3.65512487892531
30
0
41
1
10
40.5402631734905
20
3.64657824208189
30
0
41
1
10
40.5808791351133
20
3.63563149268754
30
0
41
1
10
40.5890030627294
20
3.63344076004168
30
0
41
1
10
40.6052801642362
20
3.6289705675311
30
0
41
1
10
40.6134329615301
20
3.62669204320895
30
0
41
1
10
40.6236971913769
20
3.62362064362998
30
0
41
1
10
40.6257544703737
20
3.62299283149361
30
0
41
1
10
40.6298817086316
20
3.62169853310761
30
0
41
1
10
40.6319615395722
20
3.62100161982269
30
0
41
1
10
40.6360754388049
20
3.61974953183125
30
0
41
1
10
40.6380831713191
20
3.61927539154834
30
0
41
1
10
40.6421202243197
20
3.61826035764725
30
0
41
1
10
40.6441462648438
20
3.61772969295009
30
0
41
1
10
40.6543052131958
20
3.61498840825084
30
0
41
1
10
40.6625134306308
20
3.61254810192725
30
0
41
1
10
40.6871342486455
20
3.60524956762282
30
0
41
1
10
40.7035913669778
20
3.60026397716192
30
0
41
1
10
40.7365568545878
20
3.59016794695739
30
0
41
1
10
40.7530712829359
20
3.5850390031589
30
0
41
1
10
40.8027197817041
20
3.56939071234396
30
0
41
1
10
40.8360426839585
20
3.55857472713171
30
0
41
1
10
40.9024757048493
20
3.53636829980204
30
0
41
1
10
40.9356035739838
20
3.524977460933
30
0
41
1
10
41.0347360625725
20
3.48997588658176
30
0
41
1
10
41.1004889651163
20
3.46553374151213
30
0
41
1
10
41.2968836977436
20
3.38924387337119
30
0
41
1
10
41.4266752206971
20
3.33447182956081
30
0
41
1
10
41.5554170248671
20
3.27589562663238
30
0
0
SPLINE
5
F6
100
AcDbEntity
8
1
62
256
6
ByLayer
370
18
48
1
60
0
100
AcDbSpline
70
4
71
3
72
8
73
4
40
0
40
0
40
0
40
0
40
1
40
1
40
1
40
1
41
1
10
43.4367501196593
20
1.52712381003806
30
0
41
1
10
43.5072158887201
20
1.3785678551516
30
0
41
1
10
43.5793547828688
20
1.2326656428697
30
0
41
1
10
43.6526582010978
20
1.08875169462351
30
0
0
SPLINE
5
F7
100
AcDbEntity
8
1
62
256
6
ByLayer
370
18
48
1
60
0
100
AcDbSpline
70
4
71
3
72
8
73
4
40
0
40
0
40
0
40
0
40
1
40
1
40
1
40
1
41
1
10
41.9620203052776
20
1.42634595984035
30
0
41
1
10
42.0256030830776
20
1.36014504280851
30
0
41
1
10
42.0911655728006
20
1.29475229843439
30
0
41
1
10
42.1588204369544
20
1.2302137186409
30
0
0
SPLINE
5
F8
100
AcDbEntity
8
1
62
256
6
ByLayer
370
18
48
1
60
0
100
AcDbSpline
70
4
71
3
72
12
73
8
40
0
40
0
40
0
40
0
40
0.249999999999954
40
0.249999999999954
40
0.499999999999908
40
0.499999999999908
40
1
40
1
40
1
40
1
41
1
10
43.3023409711718
20
0.404660777536861
30
0
41
1
10
43.3025256315106
20
0.403934181919965
30
0
41
1
10
43.3021623501475
20
0.403748073961822
30
0
41
1
10
43.3006966412544
20
0.404136660425451
30
0
41
1
10
43.2995804817503
20
0.404715231646378
30
0
41
1
10
43.2955360828698
20
0.407198280509107
30
0
41
1
10
43.2919372607789
20
0.409811744834826
30
0
41
1
10
43.2878619085135
20
0.412931064442404
30
0
0
SPLINE
5
F9
100
AcDbEntity
8
1
62
256
6
ByLayer
370
18
48
1
60
0
100
AcDbSpline
70
4
71
3
72
26
73
22
40
0
40
0
40
0
40
0
40
0.0051218205672063
40
0.0110939845584366
40
0.0144745161215346
40
0.0364459367035942
40
0.115417002897648
40
0.144906690871002
40
0.152818398880409
40
0.156687977872495
40
0.157826649620613
40
0.158979531605726
40
0.164727899562305
40
0.171395577003352
40
0.204718471344818
40
0.315406534680477
40
0.485311671213231
40
0.745983421749079
40
0.870560349961778
40
0.949052256127093
40
1
40
1
40
1
40
1
41
1
10
39.9999998462871
20
3.70041575920825
30
0
41
1
10
40.0075683233575
20
3.6989064628545
30
0
41
1
10
40.0239862446242
20
3.69561404097073
30
0
41
1
10
40.0454850924
20
3.6912499421918
30
0
41
1
10
40.0919119004922
20
3.68156880232547
30
0
41
1
10
40.2463395817908
20
3.64602270293221
30
0
41
1
10
40.4384564808455
20
3.58705198542151
30
0
41
1
10
40.6076916587659
20
3.52418300297697
30
0
41
1
10
40.6678237145601
20
3.50081859358292
30
0
41
1
10
40.6865410195836
20
3.49328690366147
30
0
41
1
10
40.6953568419879
20
3.48963916960392
30
0
41
1
10
40.7073024263339
20
3.48496546052385
30
0
41
1
10
40.7271597918078
20
3.47687219946442
30
0
41
1
10
40.7937476551734
20
3.44916013504451
30
0
41
1
10
41.0120633671692
20
3.35441685115441
30
0
41
1
10
41.4524427927629
20
3.13370646705735
30
0
41
1
10
42.1776435334645
20
2.68085549377469
30
0
41
1
10
42.8652757887341
20
2.10196809981412
30
0
41
1
10
43.3357152219064
20
1.56149665422629
30
0
41
1
10
43.5526704765468
20
1.25382403513731
30
0
41
1
10
43.6476669150674
20
1.09406737279656
30
0
41
1
10
43.6822692734103
20
1.03084484309889
30
0
0
SPLINE
5
FA
100
AcDbEntity
8
1
62
256
6
ByLayer
370
18
48
1
60
0
100
AcDbSpline
70
4
71
3
72
8
73
4
40
0
40
0
40
0
40
0
40
1
40
1
40
1
40
1
41
1
10
41.7780622942207
20
-1.03511475874404
30
0
41
1
10
41.7953553724974
20
-1.02655122145271
30
0
41
1
10
41.8128020092739
20
-1.01801758184811
30
0
41
1
10
41.8304052302423
20
-1.00951442902954
30
0
0
SPLINE
5
FB
100
AcDbEntity
8
1
62
256
6
ByLayer
370
18
48
1
60
0
100
AcDbSpline
70
4
71
3
72
18
73
14
40
0
40
0
40
0
40
0
40
0.249999999999996
40
0.249999999999996
40
0.499999999999992
40
0.499999999999992
40
0.562499999999995
40
0.562499999999995
40
0.624999999999998
40
0.624999999999998
40
0.750000000000004
40
0.750000000000004
40
1
40
1
40
1
40
1
41
1
10
41.8304052302423
20
-1.00951442902962
30
0
41
1
10
41.9458312495863
20
-1.06424875805516
30
0
41
1
10
42.0642098644629
20
-1.10702932723126
30
0
41
1
10
42.3062986677284
20
-1.17100527090307
30
0
41
1
10
42.4300100810469
20
-1.19219568619783
30
0
41
1
10
42.5877306872213
20
-1.20620871769805
30
0
41
1
10
42.6194292454102
20
-1.20838607674017
30
0
41
1
10
42.6831303658751
20
-1.21151001607058
30
0
41
1
10
42.7150392671076
20
-1.21245111847716
30
0
41
1
10
42.8107076358436
20
-1.21347596844836
30
0
41
1
10
42.8745066944192
20
-1.21175539986035
30
0
41
1
10
43.0659587514635
20
-1.20004533412251
30
0
41
1
10
43.1936658600548
20
-1.18359949486927
30
0
41
1
10
43.3214259987769
20
-1.16082617659089
30
0
0
SPLINE
5
FC
100
AcDbEntity
8
1
62
256
6
ByLayer
370
18
48
1
60
0
100
AcDbSpline
70
4
71
3
72
8
73
4
40
0
40
0
40
0
40
0
40
1
40
1
40
1
40
1
41
1
10
43.2101503714179
20
-1.02130994923965
30
0
41
1
10
43.2470607618493
20
-1.06800119939382
30
0
41
1
10
43.2841567805011
20
-1.11450236621542
30
0
41
1
10
43.3214259987764
20
-1.16082617658989
30
0
0
SPLINE
5
FD
100
AcDbEntity
8
1
62
256
6
ByLayer
370
18
48
1
60
0
100
AcDbSpline
70
4
71
3
72
8
73
4
40
0
40
0
40
0
40
0
40
1
40
1
40
1
40
1
41
1
10
43.2101503714179
20
-1.02130994923965
30
0
41
1
10
43.2363571034317
20
-0.980934661764394
30
0
41
1
10
43.2622463334928
20
-0.940168035474727
30
0
41
1
10
43.2878586749121
20
-0.899060128535098
30
0
0
SPLINE
5
FE
100
AcDbEntity
8
1
62
256
6
ByLayer
370
18
48
1
60
0
100
AcDbSpline
70
4
71
3
72
8
73
4
40
0
40
0
40
0
40
0
40
1
40
1
40
1
40
1
41
1
10
41.9620203052659
20
1.42634595983503
30
0
41
1
10
41.901805788358
20
1.42323172868291
30
0
41
1
10
41.8415159120076
20
1.42076065850449
30
0
41
1
10
41.7811559152773
20
1.41888803611596
30
0
0
SPLINE
5
FF
100
AcDbEntity
8
1
62
256
6
ByLayer
370
18
48
1
60
0
100
AcDbSpline
70
4
71
3
72
10
73
6
40
0
40
0
40
0
40
0
40
0.5
40
0.5
40
1
40
1
40
1
40
1
41
1
10
41.6525407839695
20
1.71431454716756
30
0
41
1
10
41.7025571914746
20
1.66419879867442
30
0
41
1
10
41.7532762062921
20
1.61514781662558
30
0
41
1
10
41.8563887366208
20
1.51919524084627
30
0
41
1
10
41.908774778309
20
1.47228439269208
30
0
41
1
10
41.9620203052735
20
1.42634595984319
30
0
0
SPLINE
5
100
100
AcDbEntity
8
1
62
256
6
ByLayer
370
13
48
1
60
0
100
AcDbSpline
70
4
71
3
72
10
73
6
40
0
40
0
40
0
40
0
40
0.17306685339576
40
0.775156930490781
40
1
40
1
40
1
40
1
41
1
10
38.1032522209646
20
2.22762043732757
30
0
41
1
10
38.3188348139764
20
2.19097983942601
30
0
41
1
10
39.2844174069882
20
2.01240054561546
30
0
41
1
10
40.5300781951856
20
1.70191571044538
30
0
41
1
10
41.5601563903712
20
1.39341888746785
30
0
41
1
10
41.8402345855567
20
1.30634398613458
30
0
0
SPLINE
5
101
100
AcDbEntity
8
1
62
256
6
ByLayer
370
18
48
1
60
0
100
AcDbSpline
70
4
71
3
72
8
73
4
40
0
40
0
40
0
40
0
40
1
40
1
40
1
40
1
41
1
10
43.9580040238922
20
-0.293603783026384
30
0
41
1
10
43.9663765044879
20
-0.185705215079338
30
0
41
1
10
43.9708136978388
20
-0.0773595369179247
30
0
41
1
10
43.9713506474166
20
0.0314292699710563
30
0
0
SPLINE
5
102
100
AcDbEntity
8
1
62
256
6
ByLayer
370
18
48
1
60
0
100
AcDbSpline
70
4
71
3
72
26
73
22
40
0
40
0
40
0
40
0
40
0.0625000000000135
40
0.0625000000000135
40
0.125000000000027
40
0.125000000000027
40
0.250000000000027
40
0.250000000000027
40
0.375000000000028
40
0.375000000000028
40
0.437500000000028
40
0.437500000000028
40
0.500000000000029
40
0.500000000000029
40
0.562500000000029
40
0.562500000000029
40
0.625000000000029
40
0.625000000000029
40
0.75000000000003
40
0.75000000000003
40
1
40
1
40
1
40
1
41
1
10
43.958004023892
20
-0.293603783023229
30
0
41
1
10
43.9587685544484
20
-0.295590069105771
30
0
41
1
10
43.9595090874105
20
-0.297734652718447
30
0
41
1
10
43.9609301199948
20
-0.302405863715847
30
0
41
1
10
43.9616142899465
20
-0.304948822597538
30
0
41
1
10
43.963518335826
20
-0.313145741122213
30
0
41
1
10
43.9645940722916
20
-0.319340234187507
30
0
41
1
10
43.9661810738615
20
-0.33375084675265
30
0
41
1
10
43.9666460318756
20
-0.34159831043678
30
0
41
1
10
43.9667862767986
20
-0.354393700982826
30
0
41
1
10
43.9667373893563
20
-0.358845488215138
30
0
41
1
10
43.9664592273742
20
-0.367738353468468
30
0
41
1
10
43.9662312448266
20
-0.372222271351291
30
0
41
1
10
43.9656128756578
20
-0.381257264665464
30
0
41
1
10
43.9652200634061
20
-0.385822089749098
30
0
41
1
10
43.9643128939413
20
-0.394766476826987
30
0
41
1
10
43.9637967964748
20
-0.399178742926921
30
0
41
1
10
43.9620905227461
20
-0.412266283788711
30
0
41
1
10
43.9607325270891
20
-0.42085289495617
30
0
41
1
10
43.9562743492678
20
-0.445678175668803
30
0
41
1
10
43.952819691833
20
-0.46101012640608
30
0
41
1
10
43.9490880183715
20
-0.475678731394481
30
0
0
SPLINE
5
103
100
AcDbEntity
8
1
62
256
6
ByLayer
370
18
48
1
60
0
100
AcDbSpline
70
4
71
3
72
8
73
4
40
0
40
0
40
0
40
0
40
1
40
1
40
1
40
1
41
1
10
43.9319096823925
20
-0.540558028005393
30
0
41
1
10
43.9378224578765
20
-0.519077048075474
30
0
41
1
10
43.9435504276684
20
-0.497446105053598
30
0
41
1
10
43.9490880183715
20
-0.475678731394453
30
0
0
SPLINE
5
104
100
AcDbEntity
8
1
62
256
6
ByLayer
370
18
48
1
60
0
100
AcDbSpline
70
4
71
3
72
12
73
8
40
0
40
0
40
0
40
0
40
0.25
40
0.25
40
0.5
40
0.5
40
1
40
1
40
1
40
1
41
1
10
43.8312528464643
20
-1.06013328781481
30
0
41
1
10
43.8421789843084
20
-1.01720156288775
30
0
41
1
10
43.8524888490885
20
-0.974077036092069
30
0
41
1
10
43.8718069801357
20
-0.887763386567144
30
0
41
1
10
43.8808259651264
20
-0.844533838639478
30
0
41
1
10
43.9059907015391
20
-0.714630209216921
30
0
41
1
10
43.9202408977737
20
-0.62774076298922
30
0
41
1
10
43.9319096823925
20
-0.540558028005364
30
0
0
SPLINE
5
105
100
AcDbEntity
8
1
62
256
6
ByLayer
370
18
48
1
60
0
100
AcDbSpline
70
4
71
3
72
32
73
28
40
0
40
0
40
0
40
0
40
0.25
40
0.25
40
0.375
40
0.375
40
0.5
40
0.5
40
0.5625
40
0.5625
40
0.625
40
0.625
40
0.687499999999999
40
0.687499999999999
40
0.749999999999999
40
0.749999999999999
40
0.781249999999999
40
0.781249999999999
40
0.812499999999999
40
0.812499999999999
40
0.843749999999999
40
0.843749999999999
40
0.874999999999999
40
0.874999999999999
40
0.9375
40
0.9375
40
1
40
1
40
1
40
1
41
1
10
43.8312528464643
20
-1.06013328781481
30
0
41
1
10
43.8199377361419
20
-1.10459338989372
30
0
41
1
10
43.8075435567417
20
-1.14816961538404
30
0
41
1
10
43.7870448057843
20
-1.21173119543659
30
0
41
1
10
43.7798920605305
20
-1.23261490987815
30
0
41
1
10
43.7648394421807
20
-1.27360004629429
30
0
41
1
10
43.7569433769552
20
-1.2937077811244
30
0
41
1
10
43.7443783505879
20
-1.32302018209774
30
0
41
1
10
43.7400746523116
20
-1.33262682459326
30
0
41
1
10
43.7313806225358
20
-1.35104893343467
30
0
41
1
10
43.7269705534888
20
-1.35991316449093
30
0
41
1
10
43.7180202239049
20
-1.37675643668138
30
0
41
1
10
43.7134425071896
20
-1.38479677007908
30
0
41
1
10
43.704361775635
20
-1.39932072375237
30
0
41
1
10
43.6998667768007
20
-1.40580633290421
30
0
41
1
10
43.6932545700881
20
-1.41397145552085
30
0
41
1
10
43.6910725162718
20
-1.41642535703369
30
0
41
1
10
43.6868821149941
20
-1.4206003818046
30
0
41
1
10
43.6848596305641
20
-1.42234017077234
30
0
41
1
10
43.6809820026045
20
-1.42505090114514
30
0
41
1
10
43.6791110018341
20
-1.42602501746165
30
0
41
1
10
43.6756555846267
20
-1.42708067878146
30
0
41
1
10
43.6740719194829
20
-1.42717081077078
30
0
41
1
10
43.6697528929922
20
-1.42615000798324
30
0
41
1
10
43.6674365813877
20
-1.42366473824302
30
0
41
1
10
43.664158438165
20
-1.4157965202233
30
0
41
1
10
43.6631449885872
20
-1.41039555590444
30
0
41
1
10
43.6626606913697
20
-1.40397455277997
30
0
0
SPLINE
5
106
100
AcDbEntity
8
1
62
256
6
ByLayer
370
18
48
1
60
0
100
AcDbSpline
70
4
71
3
72
9
73
5
40
0
40
0
40
0
40
0
40
0.407050688141373
40
1
40
1
40
1
40
1
41
1
10
40.754287827892
20
-3.43668875096421
30
0
41
1
10
40.7630935221703
20
-3.43751157922441
30
0
41
1
10
40.7846732401479
20
-3.43940869924248
30
0
41
1
10
40.8062066549469
20
-3.44104410489075
30
0
41
1
10
40.8189559346011
20
-3.44192212852073
30
0
0
SPLINE
5
107
100
AcDbEntity
8
1
62
256
6
ByLayer
370
18
48
1
60
0
100
AcDbSpline
70
4
71
3
72
8
73
4
40
0
40
0
40
0
40
0
40
1
40
1
40
1
40
1
41
1
10
40.8189559345965
20
-3.44192212852042
30
0
41
1
10
40.8392758259494
20
-3.44135003584646
30
0
41
1
10
40.8591521495652
20
-3.44151089416243
30
0
41
1
10
40.8785738175992
20
-3.44241945350041
30
0
0
SPLINE
5
108
100
AcDbEntity
8
1
62
256
6
ByLayer
370
18
48
1
60
0
100
AcDbSpline
70
4
71
3
72
10
73
6
40
0
40
0
40
0
40
0
40
0.5
40
0.5
40
1
40
1
40
1
40
1
41
1
10
41.4439241760445
20
-3.41100866114849
30
0
41
1
10
41.3502744488984
20
-3.42637789494501
30
0
41
1
10
41.2564793766622
20
-3.43644157581892
30
0
41
1
10
41.0681507292388
20
-3.44668962317419
30
0
41
1
10
40.9736172134917
20
-3.44686565064015
30
0
41
1
10
40.8785738175955
20
-3.44241945350024
30
0
0
SPLINE
5
109
100
AcDbEntity
8
1
62
256
6
ByLayer
370
18
48
1
60
0
100
AcDbSpline
70
4
71
3
72
10
73
6
40
0
40
0
40
0
40
0
40
0.5
40
0.5
40
1
40
1
40
1
40
1
41
1
10
42.286960341009
20
-3.1190303107972
30
0
41
1
10
42.1546868634707
20
-3.19080558582198
30
0
41
1
10
42.0176968839945
20
-3.25184128760839
30
0
41
1
10
41.7361531737844
20
-3.35006200163065
30
0
41
1
10
41.5915583481848
20
-3.38720015479041
30
0
41
1
10
41.4439241760451
20
-3.41100866114837
30
0
0
SPLINE
5
10A
100
AcDbEntity
8
1
62
256
6
ByLayer
370
18
48
1
60
0
100
AcDbSpline
70
4
71
3
72
28
73
24
40
0
40
0
40
0
40
0
40
0.0624999999999939
40
0.0624999999999939
40
0.0937499999999934
40
0.0937499999999934
40
0.124999999999993
40
0.124999999999993
40
0.249999999999996
40
0.249999999999996
40
0.375
40
0.375
40
0.500000000000003
40
0.500000000000003
40
0.531249999999997
40
0.531249999999997
40
0.562499999999991
40
0.624999999999988
40
0.624999999999988
40
0.749999999999992
40
0.874999999999996
40
0.874999999999996
40
1
40
1
40
1
40
1
41
1
10
43.8163481261933
20
-1.19311977949684
30
0
41
1
10
43.7995962768088
20
-1.24589847573699
30
0
41
1
10
43.7817030554326
20
-1.29823574817368
30
0
41
1
10
43.7531390415497
20
-1.37607304906686
30
0
41
1
10
43.74332922174
20
-1.40190784072811
30
0
41
1
10
43.7232228439088
20
-1.45313403893439
30
0
41
1
10
43.7129161771463
20
-1.47855365915947
30
0
41
1
10
43.6601352224914
20
-1.60469837197593
30
0
41
1
10
43.6139441907062
20
-1.70257952001958
30
0
41
1
10
43.513754583953
20
-1.89239036177565
30
0
41
1
10
43.459756945312
20
-1.98432050372344
30
0
41
1
10
43.3439078289855
20
-2.16220605819277
30
0
41
1
10
43.2820519570627
20
-2.24815897226713
30
0
41
1
10
43.1996636457324
20
-2.35175063797087
30
0
41
1
10
43.1829238847013
20
-2.37228444607283
30
0
41
1
10
43.1491281876527
20
-2.41273269570357
30
0
41
1
10
43.0978913735972
20
-2.4725640328333
30
0
41
1
10
43.0450483812176
20
-2.52990844323898
30
0
41
1
10
42.9372532050634
20
-2.64133694919974
30
0
41
1
10
42.7879088186702
20
-2.78122736640367
30
0
41
1
10
42.6274856283057
20
-2.90400243217502
30
0
41
1
10
42.4614689687756
20
-3.0181092525354
30
0
41
1
10
42.375665139658
20
-3.07083029154785
30
0
41
1
10
42.2869603410099
20
-3.11903031079672
30
0
0
SPLINE
5
10B
100
AcDbEntity
8
1
62
256
6
ByLayer
370
18
48
1
60
0
100
AcDbSpline
70
4
71
3
72
8
73
4
40
0
40
0
40
0
40
0
40
1
40
1
40
1
40
1
41
1
10
43.9993472343324
20
-0.0389370882339222
30
0
41
1
10
43.9962520350035
20
-0.149302923955389
30
0
41
1
10
43.9891632792824
20
-0.25925874531211
30
0
41
1
10
43.9780669299435
20
-0.36880311127635
30
0
0
SPLINE
5
10C
100
AcDbEntity
8
1
62
256
6
ByLayer
370
18
48
1
60
0
100
AcDbSpline
70
4
71
3
72
13
73
9
40
0
40
0
40
0
40
0
40
0.262009198425593
40
0.262009198425593
40
0.446506898819192
40
0.446506898819192
40
0.631004599212791
40
1
40
1
40
1
40
1
41
1
10
43.9730656334295
20
-0.415728311954126
30
0
41
1
10
43.9653643268701
20
-0.484568992482508
30
0
41
1
10
43.9560761402981
20
-0.553246749729624
30
0
41
1
10
43.937537276694
20
-0.670006718539895
30
0
41
1
10
43.9290838640638
20
-0.718195280365819
30
0
41
1
10
43.9106665534658
20
-0.814159409512598
30
0
41
1
10
43.8807646213747
20
-0.957565946862559
30
0
41
1
10
43.8439658374675
20
-1.0993371655419
30
0
41
1
10
43.8163481261934
20
-1.19311977949684
30
0
0
SPLINE
5
10D
100
AcDbEntity
8
1
62
256
6
ByLayer
370
18
48
1
60
0
100
AcDbSpline
70
4
71
3
72
8
73
4
40
0
40
0
40
0
40
0
40
1
40
1
40
1
40
1
41
1
10
43.999347234816
20
-0.0389370237072342
30
0
41
1
10
43.9993721834723
20
-0.0361276750131196
30
0
41
1
10
43.999394207343
20
-0.0333162283419313
30
0
41
1
10
43.9994132955541
20
-0.0305026801466681
30
0
0
SPLINE
5
10E
100
AcDbEntity
8
1
62
256
6
ByLayer
370
18
48
1
60
0
100
AcDbSpline
70
4
71
3
72
8
73
4
40
0
40
0
40
0
40
0
40
1
40
1
40
1
40
1
41
1
10
43.999413295637
20
-0.0305026718946806
30
0
41
1
10
43.9946748899825
20
-0.0450691190880832
30
0
41
1
10
43.9899046871039
20
-0.0596321438699761
30
0
41
1
10
43.9851012685594
20
-0.074191576717169
30
0
0
SPLINE
5
10F
100
AcDbEntity
8
1
62
256
6
ByLayer
370
18
48
1
60
0
100
AcDbSpline
70
4
71
3
72
8
73
4
40
0
40
0
40
0
40
0
40
1
40
1
40
1
40
1
41
1
10
43.9852260353635
20
0.0268263103757249
30
0
41
1
10
43.9855547782476
20
-0.0068449633048715
30
0
41
1
10
43.9855130917103
20
-0.0405174962134254
30
0
41
1
10
43.9851012685596
20
-0.0741915767172259
30
0
0
SPLINE
5
110
100
AcDbEntity
8
1
62
256
6
ByLayer
370
18
48
1
60
0
100
AcDbSpline
70
4
71
3
72
22
73
18
40
0
40
0
40
0
40
0
40
0.250000000000012
40
0.250000000000012
40
0.375000000000016
40
0.375000000000016
40
0.500000000000021
40
0.500000000000021
40
0.625000000000026
40
0.625000000000026
40
0.687500000000021
40
0.687500000000021
40
0.750000000000017
40
0.750000000000017
40
0.875000000000009
40
0.875000000000009
40
1
40
1
40
1
40
1
41
1
10
41.9407783197851
20
-1.32064821658679
30
0
41
1
10
41.9486812192587
20
-1.3334822979767
30
0
41
1
10
41.9558156085513
20
-1.34688122748707
30
0
41
1
10
41.9649040774165
20
-1.36816523712596
30
0
41
1
10
41.9676620752855
20
-1.37545945004615
30
0
41
1
10
41.9724980340909
20
-1.39054769457235
30
0
41
1
10
41.9745875442925
20
-1.39839157088539
30
0
41
1
10
41.977822097159
20
-1.41450264558392
30
0
41
1
10
41.9789531633302
20
-1.42267743799945
30
0
41
1
10
41.9797718302881
20
-1.43515496118604
30
0
41
1
10
41.9798978046702
20
-1.43935017001397
30
0
41
1
10
41.9798214428437
20
-1.44782111394477
30
0
41
1
10
41.9796159148868
20
-1.45211642376478
30
0
41
1
10
41.9784755696877
20
-1.46485569738107
30
0
41
1
10
41.9770237038191
20
-1.47322310577113
30
0
41
1
10
41.9726424327805
20
-1.48968994399544
30
0
41
1
10
41.9696996244158
20
-1.49777004799051
30
0
41
1
10
41.9661206370423
20
-1.5054227281604
30
0
0
SPLINE
5
111
100
AcDbEntity
8
1
62
256
6
ByLayer
370
18
48
1
60
0
100
AcDbSpline
70
4
71
3
72
8
73
4
40
0
40
0
40
0
40
0
40
1
40
1
40
1
40
1
41
1
10
32.127370956386
20
-3.80577507523262
30
0
41
1
10
32.0848027454849
20
-3.80853517074976
30
0
41
1
10
32.0423441139313
20
-3.81104146759111
30
0
41
1
10
32.0000000000001
20
-3.81328174601282
30
0
0
SPLINE
5
112
100
AcDbEntity
8
1
62
256
6
ByLayer
370
18
48
1
60
0
100
AcDbSpline
70
4
71
3
72
35
73
31
40
0
40
0
40
0
40
0
40
0.033703646308003
40
0.0685290971428022
40
0.10447522578969
40
0.141540781998904
40
0.179724398921028
40
0.219024599095908
40
0.259439799660025
40
0.300968316906656
40
0.328528525994771
40
0.357060049071383
40
0.386566727563006
40
0.417052081633425
40
0.448519349077619
40
0.48097151818663
40
0.514411355553117
40
0.548841429611239
40
0.584264130562946
40
0.620681687228647
40
0.658096181267817
40
0.696509559140208
40
0.73592364211705
40
0.776340134601493
40
0.817760630976519
40
0.860186621164424
40
0.903619495053999
40
0.94806054592808
40
0.993510973004775
40
1
40
1
40
1
40
1
41
1
10
32.1291866145867
20
-3.80674595206898
30
0
41
1
10
32.1274921957825
20
-3.79972930292411
30
0
41
1
10
32.1240469605169
20
-3.78546245991041
30
0
41
1
10
32.118606640611
20
-3.76354980884179
30
0
41
1
10
32.1128622074625
20
-3.74079725410445
30
0
41
1
10
32.1067982756044
20
-3.71717553388135
30
0
41
1
10
32.1004209669416
20
-3.69266866924042
30
0
41
1
10
32.0937214782025
20
-3.66726018694689
30
0
41
1
10
32.0867298157889
20
-3.64091903642515
30
0
41
1
10
32.0802260610767
20
-3.61697138452379
30
0
41
1
10
32.0745777295387
20
-3.59538454709522
30
0
41
1
10
32.0700006645201
20
-3.5761812464377
30
0
41
1
10
32.065551881126
20
-3.55608056357528
30
0
41
1
10
32.0612536320528
20
-3.53506248987137
30
0
41
1
10
32.0570996720102
20
-3.51311852939372
30
0
41
1
10
32.0530917772035
20
-3.49023669642435
30
0
41
1
10
32.0492294673024
20
-3.46640575362648
30
0
41
1
10
32.0455128940778
20
-3.44161403760626
30
0
41
1
10
32.0419420307
20
-3.41584980604242
30
0
41
1
10
32.0385168990675
20
-3.38910115869663
30
0
41
1
10
32.035237506242
20
-3.36135607867419
30
0
41
1
10
32.0321038623115
20
-3.33260244086631
30
0
41
1
10
32.029115975486
20
-3.30282803041854
30
0
41
1
10
32.026273853552
20
-3.27202055925861
30
0
41
1
10
32.0235775035492
20
-3.24016768403504
30
0
41
1
10
32.0210269319398
20
-3.20725702454161
30
0
41
1
10
32.0186221446371
20
-3.17327618289463
30
0
41
1
10
32.0163631470688
20
-3.13821276339803
30
0
41
1
10
32.0148694324399
20
-3.11265426726172
30
0
41
1
10
32.0141050648255
20
-3.0988169012592
30
0
41
1
10
32.0140101970426
20
-3.09708714408109
30
0
0
SPLINE
5
113
100
AcDbEntity
8
1
62
256
6
ByLayer
370
18
48
1
60
0
100
AcDbSpline
70
4
71
3
72
12
73
8
40
0
40
0
40
0
40
0
40
0.499999999999965
40
0.499999999999965
40
0.749999999999982
40
0.749999999999982
40
1
40
1
40
1
40
1
41
1
10
32
20
-3.81328174601293
30
0
41
1
10
31.9182293549325
20
-3.83793492098008
30
0
41
1
10
31.8364924824334
20
-3.86519869215059
30
0
41
1
10
31.7138296866629
20
-3.90989869924212
30
0
41
1
10
31.6728911653761
20
-3.92545020209246
30
0
41
1
10
31.5912481171459
20
-3.95770014672755
30
0
41
1
10
31.550531854535
20
-3.97440142586319
30
0
41
1
10
31.5099102978995
20
-3.99166337691858
30
0
0
SPLINE
5
114
100
AcDbEntity
8
1
62
256
6
ByLayer
370
18
48
1
60
0
100
AcDbSpline
70
4
71
3
72
33
73
29
40
0
40
0
40
0
40
0
40
0.124999999999961
40
0.124999999999961
40
0.156249999999954
40
0.156249999999954
40
0.187499999999947
40
0.187499999999947
40
0.249999999999934
40
0.249999999999934
40
0.374999999999907
40
0.374999999999907
40
0.437499999999893
40
0.437499999999893
40
0.468749999999893
40
0.468749999999893
40
0.499999999999892
40
0.499999999999892
40
0.6249999999999
40
0.6249999999999
40
0.749999999999907
40
0.749999999999907
40
0.781249999999916
40
0.781249999999916
40
0.812499999999924
40
0.874999999999949
40
0.874999999999949
40
1
40
1
40
1
40
1
41
1
10
41.5554170248672
20
-2.63734976042946
30
0
41
1
10
41.6448299475537
20
-2.64600162156739
30
0
41
1
10
41.7351757989541
20
-2.64686604480238
30
0
41
1
10
41.8493246811086
20
-2.63779151390591
30
0
41
1
10
41.8722156832002
20
-2.63546553863529
30
0
41
1
10
41.9181230393511
20
-2.62976723733672
30
0
41
1
10
41.9410955008572
20
-2.62639815525876
30
0
41
1
10
42.0096366201699
20
-2.61479890787729
30
0
41
1
10
42.0549974752441
20
-2.60505892162757
30
0
41
1
10
42.1900901299481
20
-2.56987630493273
30
0
41
1
10
42.2788369804919
20
-2.5385009013952
30
0
41
1
10
42.4099336317067
20
-2.47924863247786
30
0
41
1
10
42.4532940216977
20
-2.45745898236817
30
0
41
1
10
42.5178086415094
20
-2.42160639213449
30
0
41
1
10
42.5392348734433
20
-2.40912141926671
30
0
41
1
10
42.5818703423281
20
-2.38309222719315
30
0
41
1
10
42.6029498107595
20
-2.36962771939687
30
0
41
1
10
42.7071731964363
20
-2.30008842770502
30
0
41
1
10
42.7868199921321
20
-2.23741011650299
30
0
41
1
10
42.9387373000484
20
-2.09812504218348
30
0
41
1
10
43.0110033662489
20
-2.02150988375735
30
0
41
1
10
43.0965083898915
20
-1.916625176395
30
0
41
1
10
43.1132905010404
20
-1.89528250067198
30
0
41
1
10
43.1461091674044
20
-1.85202471079995
30
0
41
1
10
43.1942757106699
20
-1.78620911197996
30
0
41
1
10
43.2393102831817
20
-1.71765262635006
30
0
41
1
10
43.3253089629705
20
-1.57697746203382
30
0
41
1
10
43.3772318627437
20
-1.47845994761485
30
0
41
1
10
43.4235526280272
20
-1.37503982785972
30
0
0
SPLINE
5
115
100
AcDbEntity
8
1
62
256
6
ByLayer
370
18
48
1
60
0
100
AcDbSpline
70
4
71
3
72
26
73
22
40
0
40
0
40
0
40
0
40
0.005170854285832
40
0.0112001927533618
40
0.014613087815036
40
0.0367948516595833
40
0.116521946880118
40
0.146293954203626
40
0.154281404901996
40
0.158188029285137
40
0.159337602100779
40
0.16050152119482
40
0.166304921117652
40
0.173036431528798
40
0.206678342399896
40
0.318426077248224
40
0.4899577995896
40
0.753125089572168
40
0.878894654262618
40
0.958138002222681
40
1
40
1
40
1
40
1
41
1
10
39.9999998462871
20
-3.03360817863165
30
0
41
1
10
40.0075683233575
20
-3.03640214659021
30
0
41
1
10
40.0239862446244
20
-3.04246093055474
30
0
41
1
10
40.0454850924002
20
-3.05039127591212
30
0
41
1
10
40.0919119004908
20
-3.06751806275562
30
0
41
1
10
40.246339581783
20
-3.12125716984983
30
0
41
1
10
40.4384564808294
20
-3.17288482340842
30
0
41
1
10
40.6076916587423
20
-3.20536577738542
30
0
41
1
10
40.6678237145341
20
-3.21552891097647
30
0
41
1
10
40.6865410195576
20
-3.21841784222991
30
0
41
1
10
40.6953568419615
20
-3.21966056578239
30
0
41
1
10
40.7073024263088
20
-3.22176140733373
30
0
41
1
10
40.7271597917827
20
-3.22490649948182
30
0
41
1
10
40.7937476551483
20
-3.23450206082902
30
0
41
1
10
41.0120633671457
20
-3.25852033719693
30
0
41
1
10
41.452442792739
20
-3.25117872150204
30
0
41
1
10
42.1776435334505
20
-3.07046243992133
30
0
41
1
10
42.8652757887214
20
-2.6171779555732
30
0
41
1
10
43.3357152218994
20
-2.03467708226003
30
0
41
1
10
43.5445713041711
20
-1.67000718325855
30
0
41
1
10
43.6336645932814
20
-1.47389156428613
30
0
41
1
10
43.6626606913698
20
-1.40397455277994
30
0
0
SPLINE
5
116
100
AcDbEntity
8
1
62
256
6
ByLayer
370
18
48
1
60
0
100
AcDbSpline
70
4
71
3
72
14
73
10
40
0
40
0
40
0
40
0
40
0.25
40
0.25
40
0.5
40
0.5
40
0.75
40
0.75
40
1
40
1
40
1
40
1
41
1
10
43.6626606913698
20
-1.40397455277997
30
0
41
1
10
43.6613327728778
20
-1.39238613854187
30
0
41
1
10
43.6606968289867
20
-1.38009112531046
30
0
41
1
10
43.6603160612085
20
-1.35454938620975
30
0
41
1
10
43.6605792399196
20
-1.3412947135256
30
0
41
1
10
43.6617623204018
20
-1.31404037288152
30
0
41
1
10
43.6626877396285
20
-1.30001576892789
30
0
41
1
10
43.6650195210963
20
-1.27164542734778
30
0
41
1
10
43.6664277748826
20
-1.25726208324372
30
0
41
1
10
43.6680219028061
20
-1.24271081570546
30
0
0
SPLINE
5
117
100
AcDbEntity
8
1
62
256
6
ByLayer
370
18
48
1
60
0
100
AcDbSpline
70
4
71
3
72
8
73
4
40
0
40
0
40
0
40
0
40
1
40
1
40
1
40
1
41
1
10
43.6874569771916
20
-1.05097563705118
30
0
41
1
10
43.681490782067
20
-1.11521164374074
30
0
41
1
10
43.6749896471623
20
-1.17910894864437
30
0
41
1
10
43.6680219028061
20
-1.24271081570546
30
0
0
SPLINE
5
118
100
AcDbEntity
8
1
62
256
6
ByLayer
370
18
48
1
60
0
100
AcDbSpline
70
4
71
3
72
10
73
6
40
0
40
0
40
0
40
0
40
0.5
40
0.5
40
1
40
1
40
1
40
1
41
1
10
43.4235526280266
20
-1.37503982786009
30
0
41
1
10
43.4706067936196
20
-1.32566742188919
30
0
41
1
10
43.5162094250821
20
-1.27385806486007
30
0
41
1
10
43.6042322917439
20
-1.1657487725617
30
0
41
1
10
43.6466425030926
20
-1.10947030622697
30
0
41
1
10
43.6874569771916
20
-1.05097563705115
30
0
0
SPLINE
5
119
100
AcDbEntity
8
1
62
256
6
ByLayer
370
13
48
1
60
0
100
AcDbSpline
70
4
71
3
72
10
73
6
40
0
40
0
40
0
40
0
40
0.104222797542623
40
0.402815198361748
40
1
40
1
40
1
40
1
41
1
10
37.0235705794423
20
-2.03161136064449
30
0
41
1
10
36.8490470529615
20
-1.9920141914011
30
0
41
1
10
36.1745235264808
20
-1.83157185888226
30
0
41
1
10
34.5000000000001
20
-1.36647257061034
30
0
41
1
10
32.9999999999999
20
-0.843508647443116
30
0
41
1
10
32
20
-0.479221884964289
30
0
0
SPLINE
5
11A
100
AcDbEntity
8
1
62
256
6
ByLayer
370
18
48
1
60
0
100
AcDbSpline
70
4
71
3
72
37
73
33
40
0
40
0
40
0
40
0
40
0.0838521395770356
40
0.0838521395770356
40
0.167704279154071
40
0.167704279154071
40
0.335408558308142
40
0.335408558308142
40
0.419260697885178
40
0.419260697885178
40
0.503112837462213
40
0.503112837462213
40
0.545038907250714
40
0.566001942144965
40
0.566001942144965
40
0.586964977039215
40
0.586964977039215
40
0.592205735762794
40
0.592205735762794
40
0.597446494486373
40
0.597446494486373
40
0.607928011933531
40
0.607928011933531
40
0.628891046827847
40
0.628891046827847
40
0.670817116616446
40
0.670817116616446
40
0.754669256193644
40
0.754669256193644
40
0.838521395770841
40
0.838521395770841
40
1
40
1
40
1
40
1
41
1
10
39.9999993564411
20
-3.72377116745639
30
0
41
1
10
40.0292254142361
20
-3.71993201318398
30
0
41
1
10
40.0584213861039
20
-3.71604983117601
30
0
41
1
10
40.1171061963956
20
-3.70717543490761
30
0
41
1
10
40.1465725398737
20
-3.70225820500985
30
0
41
1
10
40.2353087944927
20
-3.68629738756951
30
0
41
1
10
40.2949286896365
20
-3.67400740217118
30
0
41
1
10
40.3851188411382
20
-3.65335377071426
30
0
41
1
10
40.4153088520499
20
-3.64609915098029
30
0
41
1
10
40.4759523561916
20
-3.63088866528534
30
0
41
1
10
40.5064140851941
20
-3.62291268032195
30
0
41
1
10
40.5522517478873
20
-3.6105989271085
30
0
41
1
10
40.5752055584179
20
-3.60435749960308
30
0
41
1
10
40.5981936961826
20
-3.59803873159731
30
0
41
1
10
40.6135882315765
20
-3.59365873245088
30
0
41
1
10
40.6213154909082
20
-3.5913961116357
30
0
41
1
10
40.6311087371842
20
-3.5882447007663
30
0
41
1
10
40.6330462891861
20
-3.58766618276948
30
0
41
1
10
40.636843625584
20
-3.58669861164057
30
0
41
1
10
40.6387378695584
20
-3.5862255468154
30
0
41
1
10
40.6444586342754
20
-3.58471383271527
30
0
41
1
10
40.6483014045931
20
-3.58363578789576
30
0
41
1
10
40.6598693602307
20
-3.58030707481598
30
0
41
1
10
40.6676169081507
20
-3.57800365845739
30
0
41
1
10
40.6908780717067
20
-3.57105663186047
30
0
41
1
10
40.7064184089343
20
-3.56635586198288
30
0
41
1
10
40.7531311657327
20
-3.55207044687057
30
0
41
1
10
40.7844765969222
20
-3.54226224717601
30
0
41
1
10
40.8470761914633
20
-3.52217558753796
30
0
41
1
10
40.8782991317015
20
-3.51191196302469
30
0
41
1
10
40.9694359173641
20
-3.48126654500234
30
0
41
1
10
41.0291512863314
20
-3.46031243761635
30
0
41
1
10
41.0886282539681
20
-3.43866243257122
30
0
0
SPLINE
5
11B
100
AcDbEntity
8
1
62
256
6
ByLayer
370
18
48
1
60
0
100
AcDbSpline
70
4
71
3
72
11
73
7
40
0
40
0
40
0
40
0
40
0.418921265410552
40
0.698202109017586
40
0.837842530821104
40
1
40
1
40
1
40
1
41
1
10
32
20
-2.84294769531516
30
0
41
1
10
32.9999999999999
20
-3.23766242171877
30
0
41
1
10
34.6666666666668
20
-3.74505721249452
30
0
41
1
10
36.6666666666667
20
-3.9595101173897
30
0
41
1
10
38.0537500700838
20
-3.93831042328114
30
0
41
1
10
38.7741668068341
20
-3.86262673214119
30
0
41
1
10
39.1612502102512
20
-3.80426568430258
30
0
0
SPLINE
5
11C
100
AcDbEntity
8
1
62
256
6
ByLayer
370
18
48
1
60
0
100
AcDbSpline
70
4
71
3
72
34
73
30
40
0
40
0
40
0
40
0
40
0.125000000000006
40
0.125000000000006
40
0.156250000000007
40
0.156250000000007
40
0.187500000000007
40
0.187500000000007
40
0.250000000000012
40
0.250000000000012
40
0.375000000000022
40
0.375000000000022
40
0.437500000000027
40
0.437500000000027
40
0.468750000000028
40
0.468750000000028
40
0.500000000000028
40
0.500000000000028
40
0.625000000000022
40
0.625000000000022
40
0.687500000000021
40
0.687500000000021
40
0.718750000000021
40
0.718750000000021
40
0.75000000000002
40
0.75000000000002
40
0.87500000000001
40
0.87500000000001
40
1
40
1
40
1
40
1
41
1
10
40
20
-3.72377656562537
30
0
41
1
10
39.6713272364406
20
-3.76605083886722
30
0
41
1
10
39.3431651295195
20
-3.79564188209241
30
0
41
1
10
38.9323164396316
20
-3.81663949210284
30
0
41
1
10
38.8501151503843
20
-3.82003960644343
30
0
41
1
10
38.6856204484913
20
-3.82523747085045
30
0
41
1
10
38.6032984404853
20
-3.82703552871683
30
0
41
1
10
38.3565020791877
20
-3.83001067142462
30
0
41
1
10
38.1921363810737
20
-3.82877520877909
30
0
41
1
10
37.6994143223114
20
-3.8153354840118
30
0
41
1
10
37.3714363140128
20
-3.79338629828737
30
0
41
1
10
36.8790796450195
20
-3.741627839226
30
0
41
1
10
36.7148967597
20
-3.72123078004341
30
0
41
1
10
36.4683855054628
20
-3.68596263223503
30
0
41
1
10
36.3861753123239
20
-3.67342783895506
30
0
41
1
10
36.2216557912252
20
-3.64680150215585
30
0
41
1
10
36.1393545545594
20
-3.63271032180529
30
0
41
1
10
35.7282818997147
20
-3.55849918925335
30
0
41
1
10
35.4002414786059
20
-3.48703614337364
30
0
41
1
10
34.9083704539658
20
-3.36200040972517
30
0
41
1
10
34.7444470272781
20
-3.31733046838528
30
0
41
1
10
34.498402913584
20
-3.24606163889436
30
0
41
1
10
34.4163616110926
20
-3.22159533766285
30
0
41
1
10
34.2521918279152
20
-3.17128118303935
30
0
41
1
10
34.1700336680725
20
-3.14542369674621
30
0
41
1
10
33.7593059854634
20
-3.01289404699696
30
0
41
1
10
33.4314137199937
20
-2.89669466421981
30
0
41
1
10
32.7751114612714
20
-2.64659068533203
30
0
41
1
10
32.4467023767123
20
-2.51269803074692
30
0
41
1
10
32.1173082104154
20
-2.37084030070301
30
0
0
SPLINE
5
11D
100
AcDbEntity
8
1
62
256
6
ByLayer
370
18
48
1
60
0
100
AcDbSpline
70
4
71
3
72
12
73
8
40
0
40
0
40
0
40
0
40
0.250000000000002
40
0.250000000000002
40
0.500000000000004
40
0.500000000000004
40
1
40
1
40
1
40
1
41
1
10
43.3023379715297
20
-0.850816925029221
30
0
41
1
10
43.3025230194775
20
-0.855735091048416
30
0
41
1
10
43.3021660318132
20
-0.860384887186683
30
0
41
1
10
43.3006946114802
20
-0.869309457193339
30
0
41
1
10
43.2995810279202
20
-0.873534494358978
30
0
41
1
10
43.2955573595877
20
-0.885425926412097
30
0
41
1
10
43.2919361047232
20
-0.892515837934269
30
0
41
1
10
43.2878586749115
20
-0.899060128535837
30
0
0
SPLINE
5
11E
100
AcDbEntity
8
1
62
256
6
ByLayer
370
13
48
1
60
0
100
AcDbSpline
70
4
71
3
72
19
73
15
40
0
40
0
40
0
40
0
40
0.249999999999982
40
0.249999999999982
40
0.312499999999978
40
0.312499999999978
40
0.374999999999974
40
0.499999999999979
40
0.499999999999979
40
0.74999999999999
40
0.74999999999999
40
0.874999999999995
40
0.874999999999995
40
1
40
1
40
1
40
1
41
1
10
43.2878586749125
20
-0.899060128535609
30
0
41
1
10
43.1407155835147
20
-0.92460296347906
30
0
41
1
10
42.9949147450823
20
-0.945496879426571
30
0
41
1
10
42.8151510675667
20
-0.96453425341889
30
0
41
1
10
42.7792905437489
20
-0.967998272372199
30
0
41
1
10
42.7080139991274
20
-0.974174949801608
30
0
41
1
10
42.6017719568256
20
-0.982316347560328
30
0
41
1
10
42.4975370293196
20
-0.986969115227907
30
0
41
1
10
42.2917949303937
20
-0.991452530816957
30
0
41
1
10
42.1582567407596
20
-0.987992170886002
30
0
41
1
10
41.9639304116977
20
-0.972969599969446
30
0
41
1
10
41.9001556769117
20
-0.966328933679961
30
0
41
1
10
41.774743223234
20
-0.94983167661627
30
0
41
1
10
41.7131463269854
20
-0.940005679314851
30
0
41
1
10
41.6525420664484
20
-0.928660903116196
30
0
0
SPLINE
5
11F
100
AcDbEntity
8
1
62
256
6
ByLayer
370
18
48
1
60
0
100
AcDbSpline
70
4
71
3
72
8
73
4
40
0
40
0
40
0
40
0
40
1
40
1
40
1
40
1
41
1
10
41.7811559152733
20
1.41888803611229
30
0
41
1
10
41.8019044706596
20
1.38145134242654
30
0
41
1
10
41.8216976355258
20
1.34394405624749
30
0
41
1
10
41.8402346023035
20
1.30634398092809
30
0
0
SPLINE
5
120
100
AcDbEntity
8
1
62
256
6
ByLayer
370
18
48
1
60
0
100
AcDbSpline
70
4
71
3
72
16
73
12
40
0
40
0
40
0
40
0
40
0.249999999999995
40
0.249999999999995
40
0.499999999999991
40
0.499999999999991
40
0.624999999999993
40
0.624999999999993
40
0.749999999999994
40
0.749999999999994
40
1
40
1
40
1
40
1
41
1
10
41.8402345863034
20
1.30634398978995
30
0
41
1
10
41.8457048239429
20
1.29525233614132
30
0
41
1
10
41.8504771788142
20
1.28436577233904
30
0
41
1
10
41.8581706504373
20
1.26313665827357
30
0
41
1
10
41.8611085999464
20
1.25277770721715
30
0
41
1
10
41.8634520410072
20
1.23788041368564
30
0
41
1
10
41.8638663470488
20
1.23312752612964
30
0
41
1
10
41.8638625567616
20
1.2241047921492
30
0
41
1
10
41.8634395763821
20
1.21981231722287
30
0
41
1
10
41.8607500164431
20
1.2079294953615
30
0
41
1
10
41.8571446553898
20
1.20156084945086
30
0
41
1
10
41.85164749184
20
1.19681355777217
30
0
0
SPLINE
5
121
100
AcDbEntity
8
1
62
256
6
ByLayer
370
18
48
1
60
0
100
AcDbSpline
70
4
71
3
72
16
73
12
40
0
40
0
40
0
40
0
40
0.25
40
0.25
40
0.5
40
0.5
40
0.625
40
0.625
40
0.75
40
0.75
40
1
40
1
40
1
40
1
41
1
10
42.1588204369541
20
1.23021371864107
30
0
41
1
10
42.2473785108499
20
1.15480822477352
30
0
41
1
10
42.3370784029817
20
1.08220818740986
30
0
41
1
10
42.5185837983567
20
0.942181615959697
30
0
41
1
10
42.610389554772
20
0.874755703919419
30
0
41
1
10
42.7495758083062
20
0.777247357297199
30
0
41
1
10
42.7962177999685
20
0.745350408924025
30
0
41
1
10
42.8899813862577
20
0.682734900483268
30
0
41
1
10
42.937175449913
20
0.651975409851588
30
0
41
1
10
43.0786751349642
20
0.561827479690578
30
0
41
1
10
43.1730202576666
20
0.5044722359753
30
0
41
1
10
43.267374911976
20
0.449296178518864
30
0
0
SPLINE
5
122
100
AcDbEntity
8
1
62
256
6
ByLayer
370
13
48
1
60
0
100
AcDbSpline
70
4
71
3
72
10
73
6
40
0
40
0
40
0
40
0
40
0.661863331133438
40
0.992794996700157
40
1
40
1
40
1
40
1
41
1
10
32
20
-0.324615555402744
30
0
41
1
10
32.9999999999999
20
-0.685060683566576
30
0
41
1
10
34.5000000000001
20
-1.21074353288282
30
0
41
1
10
36.0108859381702
20
-1.64347549334903
30
0
41
1
10
36.5217718763404
20
-1.77540141298678
30
0
41
1
10
36.5326578145106
20
-1.77820592109905
30
0
0
SPLINE
5
123
100
AcDbEntity
8
1
62
256
6
ByLayer
370
18
48
1
60
0
100
AcDbSpline
70
4
71
3
72
8
73
4
40
0
40
0
40
0
40
0
40
1
40
1
40
1
40
1
41
1
10
41.7780622942212
20
-1.03511475874413
30
0
41
1
10
41.7626857990135
20
-1.0344431919512
30
0
41
1
10
41.7472989617555
20
-1.03379588419656
30
0
41
1
10
41.7319021081946
20
-1.03317207138514
30
0
0
SPLINE
5
124
100
AcDbEntity
8
1
62
256
6
ByLayer
370
18
48
1
60
0
100
AcDbSpline
70
4
71
3
72
8
73
4
40
0
40
0
40
0
40
0
40
1
40
1
40
1
40
1
41
1
10
41.652542046531
20
-0.928660988435752
30
0
41
1
10
41.6938769800335
20
-0.964213331993932
30
0
41
1
10
41.7356915448472
20
-0.999747715669685
30
0
41
1
10
41.7780622942208
20
-1.03511475874433
30
0
0
SPLINE
5
125
100
AcDbEntity
8
1
62
256
6
ByLayer
370
18
48
1
60
0
100
AcDbSpline
70
4
71
3
72
36
73
32
40
0
40
0
40
0
40
0
40
0.124999999999989
40
0.124999999999989
40
0.249999999999977
40
0.249999999999977
40
0.312499999999972
40
0.312499999999972
40
0.374999999999966
40
0.374999999999966
40
0.499999999999973
40
0.499999999999973
40
0.624999999999979
40
0.624999999999979
40
0.749999999999985
40
0.749999999999985
40
0.812499999999988
40
0.812499999999988
40
0.874999999999991
40
0.874999999999991
40
0.906249999999993
40
0.906249999999993
40
0.937499999999994
40
0.937499999999994
40
0.953124999999996
40
0.953124999999996
40
0.968749999999997
40
0.968749999999997
40
0.984374999999999
40
0.984374999999999
40
1
40
1
40
1
40
1
41
1
10
41.6525419141982
20
-0.928660874615815
30
0
41
1
10
41.6276544854431
20
-0.907255095887336
30
0
41
1
10
41.6049860848914
20
-0.885159302147116
30
0
41
1
10
41.563523897449
20
-0.840243215549094
30
0
41
1
10
41.5447358998441
20
-0.817420420364044
30
0
41
1
10
41.5191989850982
20
-0.783119858820584
30
0
41
1
10
41.511174520664
20
-0.771735107668491
30
0
41
1
10
41.4961305618833
20
-0.749294935213925
30
0
41
1
10
41.4890924569713
20
-0.738214622583968
30
0
41
1
10
41.4693139601802
20
-0.705493305185399
30
0
41
1
10
41.4579008467392
20
-0.684371611024261
30
0
41
1
10
41.4381851702725
20
-0.644034832460875
30
0
41
1
10
41.4298576270702
20
-0.624752576859891
30
0
41
1
10
41.4165242003882
20
-0.589457581951677
30
0
41
1
10
41.4114077911507
20
-0.573315519580433
30
0
41
1
10
41.4067315691252
20
-0.551909277911619
30
0
41
1
10
41.4056818898945
20
-0.54523374162099
30
0
41
1
10
41.4051302161928
20
-0.533221744064321
30
0
41
1
10
41.4055879420782
20
-0.527837118594476
30
0
41
1
10
41.408465197415
20
-0.521328096222504
30
0
41
1
10
41.4097933347884
20
-0.519416926963999
30
0
41
1
10
41.4137172423455
20
-0.516348671895372
30
0
41
1
10
41.4162786863316
20
-0.515201103579443
30
0
41
1
10
41.4218032899995
20
-0.514486066597271
30
0
41
1
10
41.423900502128
20
-0.514423569409786
30
0
41
1
10
41.4287848641607
20
-0.514742959853095
30
0
41
1
10
41.4316173053846
20
-0.515134279298223
30
0
41
1
10
41.4380253120549
20
-0.516460832809713
30
0
41
1
10
41.441550107145
20
-0.517381372614352
30
0
41
1
10
41.4493019790043
20
-0.519755788975232
30
0
41
1
10
41.4533741540124
20
-0.521161730923126
30
0
41
1
10
41.4575978690344
20
-0.522738137740305
30
0
0
SPLINE
5
126
100
AcDbEntity
8
1
62
256
6
ByLayer
370
13
48
1
60
0
100
AcDbSpline
70
4
71
3
72
12
73
8
40
0
40
0
40
0
40
0
40
0.301787234736326
40
0.452680852104489
40
0.679021278156733
40
0.905361704208977
40
1
40
1
40
1
40
1
41
1
10
32
20
1.94725618435899
30
0
41
1
10
32.9999999999999
20
1.71724621176256
30
0
41
1
10
34.5000000000001
20
1.27699461462043
30
0
41
0.999999999999999
10
36.75
20
0.502155052794024
30
0
41
1
10
38.75
20
-0.233769253827518
30
0
41
1
10
40.5635927729803
20
-0.880571988776893
30
0
41
1
10
41.6271855459606
20
-1.22354572468586
30
0
41
1
10
41.9407783189409
20
-1.32064821670696
30
0
0
SPLINE
5
127
100
AcDbEntity
8
1
62
256
6
ByLayer
370
18
48
1
60
0
100
AcDbSpline
70
4
71
3
72
10
73
6
40
0
40
0
40
0
40
0
40
0.5
40
0.5
40
1
40
1
40
1
40
1
41
1
10
41.7319021081945
20
-1.03317207138514
30
0
41
1
10
41.7691799320934
20
-1.07792726563957
30
0
41
1
10
41.8054295964203
20
-1.12399939721001
30
0
41
1
10
41.8753047009424
20
-1.21950494665268
30
0
41
1
10
41.9089406789257
20
-1.2689248898721
30
0
41
1
10
41.9407783366451
20
-1.32064822218899
30
0
0
SPLINE
5
128
100
AcDbEntity
8
1
62
256
6
ByLayer
370
18
48
1
60
0
100
AcDbSpline
70
4
71
3
72
19
73
15
40
0
40
0
40
0
40
0
40
0.250000000000003
40
0.250000000000003
40
0.375000000000004
40
0.375000000000004
40
0.500000000000004
40
0.500000000000004
40
0.749999999999997
40
0.749999999999997
40
0.812499999999998
40
0.812499999999998
40
0.874999999999999
40
1
40
1
40
1
40
1
41
1
10
41.8516474734448
20
1.19681356561767
30
0
41
1
10
41.8064108064469
20
1.15776463541903
30
0
41
1
10
41.7632867321916
20
1.11662549489085
30
0
41
1
10
41.702679236298
20
1.05088136039637
30
0
41
1
10
41.6831596942635
20
1.02829092616247
30
0
41
1
10
41.6456876745103
20
0.981559591689233
30
0
41
1
10
41.6277531631234
20
0.957438554697404
30
0
41
1
10
41.5768217376602
20
0.882651099620063
30
0
41
1
10
41.5466159306849
20
0.829532240270709
30
0
41
1
10
41.5151165430731
20
0.757690351164769
30
0
41
1
10
41.5091255597885
20
0.743029181086769
30
0
41
1
10
41.497862481025
20
0.713212149915307
30
0
41
1
10
41.4820525627209
20
0.667767787855723
30
0
41
1
10
41.4696823393879
20
0.62004398839909
30
0
41
1
10
41.4631561304296
20
0.58708790034413
30
0
0
SPLINE
5
129
100
AcDbEntity
8
1
62
256
6
ByLayer
370
13
48
1
60
0
100
AcDbSpline
70
4
71
3
72
10
73
6
40
0
40
0
40
0
40
0
40
0.264680741822994
40
0.963950892967294
40
1
40
1
40
1
40
1
41
1
10
41.8516474900683
20
1.19681355624218
30
0
41
1
10
41.5677649933789
20
1.28989121261796
30
0
41
1
10
40.5338824966894
20
1.61791852872733
30
0
41
1
10
39.4613356436989
20
1.90721728721584
30
0
41
1
10
38.6726712873979
20
2.07941447367923
30
0
41
1
10
38.6340069310968
20
2.08775814744339
30
0
0
SPLINE
5
12A
100
AcDbEntity
8
1
62
256
6
ByLayer
370
18
48
1
60
0
100
AcDbSpline
70
4
71
3
72
12
73
8
40
0
40
0
40
0
40
0
40
0.499999999999964
40
0.499999999999964
40
0.749999999999982
40
0.749999999999982
40
1
40
1
40
1
40
1
41
1
10
32
20
1.5827160381404
30
0
41
1
10
31.9182293549326
20
1.61762179828816
30
0
41
1
10
31.8364924824334
20
1.65102765496942
30
0
41
1
10
31.713829686663
20
1.69860302420545
30
0
41
1
10
31.6728911653761
20
1.71405250496213
30
0
41
1
10
31.591248117146
20
1.74394015272989
30
0
41
1
10
31.550531854535
20
1.75838389753321
30
0
41
1
10
31.5099102978996
20
1.77229731967924
30
0
0
SPLINE
5
12B
100
AcDbEntity
8
1
62
256
6
ByLayer
370
18
48
1
60
0
100
AcDbSpline
70
4
71
3
72
32
73
28
40
0
40
0
40
0
40
0
40
0.186193980060673
40
0.186193980060673
40
0.27929097009101
40
0.27929097009101
40
0.372387960121347
40
0.372387960121347
40
0.55858194018197
40
0.55858194018197
40
0.605130435197103
40
0.605130435197103
40
0.651678930212237
40
0.651678930212237
40
0.744775920242545
40
0.744775920242545
40
0.791324415257714
40
0.791324415257714
40
0.837872910272883
40
0.837872910272883
40
0.884421405288052
40
0.884421405288052
40
0.930969900303221
40
0.930969900303221
40
0.97751839531839
40
0.97751839531839
40
1
40
1
40
1
40
1
41
1
10
41.3357663742139
20
-0.482047247328609
30
0
41
1
10
41.3687622712062
20
-0.496090366378581
30
0
41
1
10
41.4012735018048
20
-0.509570385202011
30
0
41
1
10
41.4490337621046
20
-0.528796272794608
30
0
41
1
10
41.4647858666746
20
-0.535040212972746
30
0
41
1
10
41.4958889032012
20
-0.547173469829204
30
0
41
1
10
41.5112588827112
20
-0.553069528960208
30
0
41
1
10
41.5561998966927
20
-0.570011035854208
30
0
41
1
10
41.5847884213978
20
-0.580383286014012
30
0
41
1
10
41.6176639299707
20
-0.591786592529672
30
0
41
1
10
41.6240910735382
20
-0.593987241530954
30
0
41
1
10
41.6365920326062
20
-0.598207175840344
30
0
41
1
10
41.642686813447
20
-0.600233301095869
30
0
41
1
10
41.6601699663994
20
-0.60594523927233
30
0
41
1
10
41.6706808743856
20
-0.609241237742623
30
0
41
1
10
41.6840013272538
20
-0.613175535401979
30
0
41
1
10
41.6880296721755
20
-0.614317212566249
30
0
41
1
10
41.6950470925474
20
-0.61618722263097
30
0
41
1
10
41.6980484320818
20
-0.616916916487384
30
0
41
1
10
41.7025448602696
20
-0.617824847898191
30
0
41
1
10
41.7040685763367
20
-0.618011814571901
30
0
41
1
10
41.705423824996
20
-0.617777003684409
30
0
41
1
10
41.7052276910573
20
-0.61734478027347
30
0
41
1
10
41.7030054257274
20
-0.615866131048648
30
0
41
1
10
41.7009945456138
20
-0.614821134249922
30
0
41
1
10
41.6966767294789
20
-0.612822827315313
30
0
41
1
10
41.6950533224241
20
-0.612098584082219
30
0
41
1
10
41.6932570393814
20
-0.61131980810066
30
0
0
SPLINE
5
12C
100
AcDbEntity
8
1
62
256
6
ByLayer
370
13
48
1
60
0
100
AcDbSpline
70
4
71
3
72
8
73
4
40
0
40
0
40
0
40
0
40
1
40
1
40
1
40
1
41
1
10
40.8785739591277
20
-0.267406363828769
30
0
41
1
10
40.8858853311516
20
-0.271266727167529
30
0
41
1
10
40.893203957484
20
-0.275113834467021
30
0
41
1
10
40.9005302109272
20
-0.278947078171171
30
0
0
SPLINE
5
12D
100
AcDbEntity
8
1
62
256
6
ByLayer
370
18
48
1
60
0
100
AcDbSpline
70
4
71
3
72
8
73
4
40
0
40
0
40
0
40
0
40
1
40
1
40
1
40
1
41
1
10
32.1158080114875
20
3.78936109850824
30
0
41
1
10
32.0770985165087
20
3.79251267441489
30
0
41
1
10
32.0384942806348
20
3.79545639562272
30
0
41
1
10
31.9999999999987
20
3.79818220130699
30
0
0
SPLINE
5
12E
100
AcDbEntity
8
1
62
256
6
ByLayer
370
18
48
1
60
0
100
AcDbSpline
70
4
71
3
72
34
73
30
40
0
40
0
40
0
40
0
40
0.12499999999999
40
0.12499999999999
40
0.156249999999987
40
0.156249999999987
40
0.187499999999983
40
0.187499999999983
40
0.24999999999998
40
0.24999999999998
40
0.37499999999997
40
0.37499999999997
40
0.437499999999967
40
0.437499999999967
40
0.468749999999965
40
0.468749999999965
40
0.499999999999964
40
0.499999999999964
40
0.62499999999997
40
0.62499999999997
40
0.687499999999973
40
0.687499999999973
40
0.718749999999976
40
0.718749999999976
40
0.74999999999998
40
0.74999999999998
40
0.87499999999999
40
0.87499999999999
40
1
40
1
40
1
40
1
41
1
10
40
20
1.09033814060999
30
0
41
1
10
39.6713272364401
20
1.26527209689559
30
0
41
1
10
39.3431651295186
20
1.43616857554025
30
0
41
1
10
38.9323164396302
20
1.64266032363744
30
0
41
1
10
38.8501151503827
20
1.68360347643068
30
0
41
1
10
38.6856204484895
20
1.76473217309305
30
0
41
1
10
38.6032984404834
20
1.80493043882998
30
0
41
1
10
38.3565020791855
20
1.92420365952918
30
0
41
1
10
38.1921363810712
20
2.00199142421229
30
0
41
1
10
37.6994143223083
20
2.22993191140321
30
0
41
1
10
37.3714363140093
20
2.37465994724499
30
0
41
1
10
36.8790796450153
20
2.57948045686121
30
0
41
1
10
36.7148967596956
20
2.64570704170683
30
0
41
1
10
36.468385505458
20
2.74177897153922
30
0
41
1
10
36.386175312319
20
2.77325784196603
30
0
41
1
10
36.2216557912201
20
2.83509460655904
30
0
41
1
10
36.1393545545541
20
2.86544891681308
30
0
41
1
10
35.7282818997089
20
3.01407762285766
30
0
41
1
10
35.4002414785996
20
3.12317253251933
30
0
41
1
10
34.9083704539588
20
3.27056544980067
30
0
41
1
10
34.744447027271
20
3.31697507290971
30
0
41
1
10
34.4984029135765
20
3.38234818606878
30
0
41
1
10
34.416361611085
20
3.40343274149117
30
0
41
1
10
34.2521918279073
20
3.44416514658138
30
0
41
1
10
34.1700336680645
20
3.46381975721414
30
0
41
1
10
33.7593059854548
20
3.55836177965997
30
0
41
1
10
33.4314137199846
20
3.62194691799533
30
0
41
1
10
32.7751114612615
20
3.72440315605297
30
0
41
1
10
32.4467023767019
20
3.76329214577299
30
0
41
1
10
32.1173082104045
20
3.78942116780092
30
0
0
SPLINE
5
12F
100
AcDbEntity
8
1
62
256
6
ByLayer
370
18
48
1
60
0
100
AcDbSpline
70
4
71
3
72
18
73
14
40
0
40
0
40
0
40
0
40
0.250000000000002
40
0.250000000000002
40
0.375000000000003
40
0.375000000000003
40
0.500000000000005
40
0.500000000000005
40
0.750000000000007
40
0.750000000000007
40
0.875000000000003
40
0.875000000000003
40
1
40
1
40
1
40
1
41
1
10
41.9661206197017
20
-1.50542272162019
30
0
41
1
10
41.9239159573389
20
-1.59565789245161
30
0
41
1
10
41.8830653507862
20
-1.68670189772254
30
0
41
1
10
41.8243580068871
20
-1.82480222218243
30
0
41
1
10
41.8052187138083
20
-1.87109241453723
30
0
41
1
10
41.7679153746706
20
-1.96425535616274
30
0
41
1
10
41.7497512087089
20
-2.01113015232539
30
0
41
1
10
41.6970321546048
20
-2.15246400657313
30
0
41
1
10
41.6641974429024
20
-2.24771082188946
30
0
41
1
10
41.6194943165433
20
-2.39259687356386
30
0
41
1
10
41.605336218133
20
-2.44130438602889
30
0
41
1
10
41.5789018549245
20
-2.53906888521945
30
0
41
1
10
41.5666249397544
20
-2.58811574765812
30
0
41
1
10
41.5554170248673
20
-2.63734976042974
30
0
0
SPLINE
5
130
100
AcDbEntity
8
1
62
256
6
ByLayer
370
13
48
1
60
0
100
AcDbSpline
70
4
71
3
72
12
73
8
40
0
40
0
40
0
40
0
40
0.0969404919494121
40
0.322705368962059
40
0.548470245974706
40
0.698980163983137
40
1
40
1
40
1
40
1
41
1
10
41.9661206374186
20
-1.50542272735578
30
0
41
1
10
41.6440804249457
20
-1.40774510283776
30
0
41
1
10
40.5720402124729
20
-1.06651128126182
30
0
41
1
10
38.75
20
-0.413663919161479
30
0
41
0.999999999999999
10
36.75
20
0.343673744864901
30
0
41
1
10
34.5000000000001
20
1.1551181482233
30
0
41
1
10
32.9999999999999
20
1.62909815510602
30
0
41
1
10
32
20
1.88372203031889
30
0
0
SPLINE
5
131
100
AcDbEntity
8
1
62
256
6
ByLayer
370
18
48
1
60
0
100
AcDbSpline
70
4
71
3
72
48
73
44
40
0
40
0
40
0
40
0
40
0.0194117140117034
40
0.0394695346304493
40
0.060172812921591
40
0.0815208288001131
40
0.103512795025095
40
0.12614786064903
40
0.149425114017025
40
0.173343585393266
40
0.189216968729219
40
0.205649783213086
40
0.222644241325797
40
0.24020237051604
40
0.25832603560137
40
0.277016957696806
40
0.296276730229535
40
0.316106832496769
40
0.336508641142358
40
0.35748343986197
40
0.379032427593509
40
0.401156725406194
40
0.423857382266548
40
0.447135379830578
40
0.470991636387851
40
0.495427010063498
40
0.520442301368056
40
0.546038255171576
40
0.572215562167254
40
0.598974859880432
40
0.62631673327098
40
0.654241714970498
40
0.682750285190139
40
0.711842871330217
40
0.741519847318756
40
0.771781532702725
40
0.802628191512882
40
0.834060030920687
40
0.866077199703625
40
0.898679786533573
40
0.931867818101266
40
0.965641257088678
40
1
40
1
40
1
40
1
41
1
10
32.1291866148362
20
1.51719358325448
30
0
41
1
10
32.1274921960301
20
1.5216496847905
30
0
41
1
10
32.124046960761
20
1.53071020638004
30
0
41
1
10
32.1186066408495
20
1.54430390286808
30
0
41
1
10
32.1128622076956
20
1.55815500309254
30
0
41
1
10
32.1067982758325
20
1.57222357371924
30
0
41
1
10
32.1004209671648
20
1.58648804236839
30
0
41
1
10
32.0937214784209
20
1.60092330495374
30
0
41
1
10
32.0867298160028
20
1.61549339504552
30
0
41
1
10
32.0802260612828
20
1.62842510958146
30
0
41
1
10
32.0745777297344
20
1.63969094383316
30
0
41
1
10
32.070000664704
20
1.64929824087412
30
0
41
1
10
32.0655518812982
20
1.65897967705717
30
0
41
1
10
32.0612536322137
20
1.66871242539483
30
0
41
1
10
32.0570996721602
20
1.67848199285353
30
0
41
1
10
32.053091777343
20
1.68827088172256
30
0
41
1
10
32.0492294674317
20
1.69806177864362
30
0
41
1
10
32.0455128941974
20
1.70783665646044
30
0
41
1
10
32.0419420308102
20
1.71757702469387
30
0
41
1
10
32.0385168991687
20
1.72726385803969
30
0
41
1
10
32.0352375063346
20
1.73687761546626
30
0
41
1
10
32.0321038623958
20
1.74639823436487
30
0
41
1
10
32.0291159755624
20
1.75580513213282
30
0
41
1
10
32.0262738536211
20
1.76507720618204
30
0
41
1
10
32.0235775036111
20
1.7741928349337
30
0
41
1
10
32.0210269319952
20
1.78312987912935
30
0
41
1
10
32.018622144686
20
1.79186568369013
30
0
41
1
10
32.0163631471117
20
1.8003770801067
30
0
41
1
10
32.0142499442655
20
1.80864038940751
30
0
41
1
10
32.0122825407542
20
1.81663142575221
30
0
41
1
10
32.0104609408535
20
1.82432550063316
30
0
41
1
10
32.008785148523
20
1.83169742793677
30
0
41
1
10
32.0072551675596
20
1.83872152907597
30
0
41
1
10
32.0058710012131
20
1.84537164141366
30
0
41
1
10
32.0046326538568
20
1.8516211177735
30
0
41
1
10
32.0035401247488
20
1.85744286415397
30
0
41
1
10
32.0025934321793
20
1.86280923474462
30
0
41
1
10
32.0017925209023
20
1.86769247932915
30
0
41
1
10
32.00113761761
20
1.87206307464737
30
0
41
1
10
32.0006278673214
20
1.8758961794002
30
0
41
1
10
32.0002665623861
20
1.8791469402648
30
0
41
1
10
32.0000411012913
20
1.88184520031149
30
0
41
1
10
32.0000137786707
20
1.88309284759043
30
0
41
1
10
32
20
1.88372203031889
30
0
0
SPLINE
5
132
100
AcDbEntity
8
1
62
256
6
ByLayer
370
18
48
1
60
0
100
AcDbSpline
70
4
71
3
72
42
73
38
40
0
40
0
40
0
40
0
40
0.0624999999999175
40
0.0624999999999175
40
0.124999999999835
40
0.124999999999835
40
0.249999999999648
40
0.249999999999648
40
0.312499999999555
40
0.312499999999555
40
0.374999999999462
40
0.374999999999462
40
0.39062499999945
40
0.39062499999945
40
0.406249999999438
40
0.406249999999438
40
0.410156249999429
40
0.410156249999429
40
0.414062499999421
40
0.414062499999421
40
0.417968749999412
40
0.417968749999412
40
0.421874999999403
40
0.421874999999403
40
0.437499999999414
40
0.437499999999414
40
0.468749999999435
40
0.468749999999435
40
0.499999999999456
40
0.499999999999456
40
0.562499999999521
40
0.562499999999521
40
0.624999999999586
40
0.624999999999586
40
0.749999999999717
40
0.749999999999717
40
1
40
1
40
1
40
1
41
1
10
39.9999993428471
20
-2.55183772468249
30
0
41
1
10
40.0312421888232
20
-2.56463509263651
30
0
41
1
10
40.0624574083289
20
-2.57743174394747
30
0
41
1
10
40.1251708027661
20
-2.60103692519613
30
0
41
1
10
40.1566412213771
20
-2.61202251495126
30
0
41
1
10
40.2513716343509
20
-2.64282863023362
30
0
41
1
10
40.3149637778007
20
-2.66042240351504
30
0
41
1
10
40.4110882386557
20
-2.68252480841619
30
0
41
1
10
40.4432525091123
20
-2.68917638419845
30
0
41
1
10
40.5078375014021
20
-2.70107248588383
30
0
41
1
10
40.5402570526572
20
-2.70632544724651
30
0
41
1
10
40.5808727757949
20
-2.71242562353717
30
0
41
1
10
40.5889966581084
20
-2.71364263208022
30
0
41
1
10
40.6052736558817
20
-2.71592311453986
30
0
41
1
10
40.61342640362
20
-2.71698831213826
30
0
41
1
10
40.623690553006
20
-2.71793420838253
30
0
41
1
10
40.6257478148409
20
-2.71810002720542
30
0
41
1
10
40.6298750174211
20
-2.71836486898479
30
0
41
1
10
40.6319548144744
20
-2.7184116478256
30
0
41
1
10
40.6360688393744
20
-2.7187474344106
30
0
41
1
10
40.6380766279028
20
-2.7191764470744
30
0
41
1
10
40.6421136201344
20
-2.71992074560069
30
0
41
1
10
40.6441396336796
20
-2.72025306050824
30
0
41
1
10
40.6542984631983
20
-2.72176282134893
30
0
41
1
10
40.6625066458569
20
-2.72254321765632
30
0
41
1
10
40.6871273563928
20
-2.72491531348589
30
0
41
1
10
40.7035844246007
20
-2.72628077583795
30
0
41
1
10
40.7365498112644
20
-2.72877316147603
30
0
41
1
10
40.7530641948924
20
-2.72986810755592
30
0
41
1
10
40.8027125784265
20
-2.73265798439692
30
0
41
1
10
40.8360357085691
20
-2.73384470557252
30
0
41
1
10
40.9024716370494
20
-2.73474255077502
30
0
41
1
10
40.9356007837197
20
-2.73446524572088
30
0
41
1
10
41.0347365826894
20
-2.73144811326623
30
0
41
1
10
41.1004909942059
20
-2.72651447259656
30
0
41
1
10
41.2968882737257
20
-2.70319714511569
30
0
41
1
10
41.4266788657116
20
-2.67636187631538
30
0
41
1
10
41.5554170248671
20
-2.63734976042912
30
0
0
SPLINE
5
133
100
AcDbEntity
8
1
62
256
6
ByLayer
370
18
48
1
60
0
100
AcDbSpline
70
4
71
3
72
8
73
4
40
0
40
0
40
0
40
0
40
1
40
1
40
1
40
1
41
1
10
40.8165453030151
20
-0.240505236415316
30
0
41
1
10
40.8173515798545
20
-0.240796890698164
30
0
41
1
10
40.8181572714138
20
-0.241090544430819
30
0
41
1
10
40.8189623790816
20
-0.241386191396657
30
0
0
SPLINE
5
134
100
AcDbEntity
8
1
62
256
6
ByLayer
370
18
48
1
60
0
100
AcDbSpline
70
4
71
3
72
37
73
33
40
0
40
0
40
0
40
0
40
0.125000000000015
40
0.125000000000015
40
0.187500000000017
40
0.187500000000017
40
0.250000000000019
40
0.250000000000019
40
0.375000000000024
40
0.375000000000024
40
0.437500000000031
40
0.437500000000031
40
0.46875000000003
40
0.46875000000003
40
0.500000000000029
40
0.500000000000029
40
0.625000000000014
40
0.625000000000014
40
0.687500000000007
40
0.687500000000007
40
0.718750000000003
40
0.718750000000003
40
0.75
40
0.8125
40
0.8125
40
0.875
40
0.875
40
0.9375
40
0.9375
40
0.96875
40
0.96875
40
1
40
1
40
1
40
1
41
1
10
41.4631561304459
20
0.58708790033333
30
0
41
1
10
41.5616664213389
20
0.512432338769713
30
0
41
1
10
41.6613210588292
20
0.443220506973404
30
0
41
1
10
41.8125726535026
20
0.347821042223586
30
0
41
1
10
41.8633292527153
20
0.317403232201571
30
0
41
1
10
41.9652844069092
20
0.259623355955824
30
0
41
1
10
42.0158486948459
20
0.232618359792809
30
0
41
1
10
42.1663215793345
20
0.157167490657883
30
0
41
1
10
42.2650176534888
20
0.114251727271579
30
0
41
1
10
42.4105745693839
20
0.0612217594577089
30
0
41
1
10
42.4586771649496
20
0.0454441258521854
30
0
41
1
10
42.5301813102277
20
0.0247410665072323
30
0
41
1
10
42.5539658695859
20
0.0183205232501393
30
0
41
1
10
42.601000440342
20
0.0065711061344871
30
0
41
1
10
42.6242255513094
20
0.001245582404124
30
0
41
1
10
42.7389120437723
20
-0.022677106612548
30
0
41
1
10
42.8260904694994
20
-0.0332238258659743
30
0
41
1
10
42.9500139981142
20
-0.0361793922498634
30
0
41
1
10
42.9901757213028
20
-0.0350102803338075
30
0
41
1
10
43.048656699134
20
-0.0299454127970193
30
0
41
1
10
43.0678682539806
20
-0.0277030336099244
30
0
41
1
10
43.1056441626615
20
-0.0221004559590483
30
0
41
1
10
43.160980351785
20
-0.0120731967197969
30
0
41
1
10
43.2124151522221
20
0.0027244253098502
30
0
41
1
10
43.2776334689912
20
0.02656470894172
30
0
41
1
10
43.3085708680556
20
0.0405289686592312
30
0
41
1
10
43.3670771991477
20
0.0725762291639001
30
0
41
1
10
43.3946418712857
20
0.0906644386654705
30
0
41
1
10
43.4334011301344
20
0.120960883498356
30
0
41
1
10
43.4459063997091
20
0.131603254984526
30
0
41
1
10
43.4699629643955
20
0.153879971405189
30
0
41
1
10
43.4814915616989
20
0.165490297720453
30
0
41
1
10
43.4925301951389
20
0.177563410186167
30
0
0
SPLINE
5
135
100
AcDbEntity
8
1
62
256
6
ByLayer
370
18
48
1
60
0
100
AcDbSpline
70
4
71
3
72
40
73
36
40
0
40
0
40
0
40
0
40
0.0624999999999784
40
0.0624999999999784
40
0.124999999999957
40
0.124999999999957
40
0.24999999999989
40
0.24999999999989
40
0.312499999999857
40
0.312499999999857
40
0.374999999999823
40
0.374999999999823
40
0.406249999999806
40
0.406249999999806
40
0.42187499999981
40
0.42187499999981
40
0.437499999999814
40
0.437499999999814
40
0.441406249999827
40
0.441406249999827
40
0.44531249999984
40
0.44531249999984
40
0.453124999999842
40
0.453124999999842
40
0.468749999999846
40
0.468749999999846
40
0.499999999999854
40
0.499999999999854
40
0.562499999999869
40
0.562499999999869
40
0.624999999999884
40
0.624999999999884
40
0.749999999999915
40
0.749999999999915
40
1
40
1
40
1
40
1
41
1
10
40.0000013119754
20
1.09034275839392
30
0
41
1
10
40.0292273290422
20
1.07486505982018
30
0
41
1
10
40.0584232624032
20
1.05931944281994
30
0
41
1
10
40.1171080013199
20
1.02892401724392
30
0
41
1
10
40.14657430834
20
1.01402098909116
30
0
41
1
10
40.2353104527847
20
0.970111520784002
30
0
41
1
10
40.29493027365
20
0.941934761178373
30
0
41
1
10
40.3851203121358
20
0.901460958966453
30
0
41
1
10
40.4153102851101
20
0.888268046047841
30
0
41
1
10
40.4759537127953
20
0.86250147125719
30
0
41
1
10
40.5064154031279
20
0.849947124509129
30
0
41
1
10
40.5522530058103
20
0.831455728227809
30
0
41
1
10
40.567555525832
20
0.825346606594621
30
0
41
1
10
40.5905321987727
20
0.816236513608459
30
0
41
1
10
40.5981948943194
20
0.813208726839122
30
0
41
1
10
40.6135894154462
20
0.807315248078623
30
0
41
1
10
40.621316689798
20
0.804438885886299
30
0
41
1
10
40.6311099118219
20
0.801157903240011
30
0
41
1
10
40.6330474339452
20
0.800452163197178
30
0
41
1
10
40.6368447516755
20
0.798858401552906
30
0
41
1
10
40.6387390017607
20
0.798051182723128
30
0
41
1
10
40.6444597670385
20
0.795718674602909
30
0
41
1
10
40.6483025361985
20
0.794231499186338
30
0
41
1
10
40.6598704833492
20
0.789862889096923
30
0
41
1
10
40.6676180203756
20
0.787033850828038
30
0
41
1
10
40.6908791546416
20
0.778589987153993
30
0
41
1
10
40.7064194710573
20
0.773037642892291
30
0
41
1
10
40.7531321670596
20
0.756594856784631
30
0
41
1
10
40.7844775583008
20
0.745910150259846
30
0
41
1
10
40.8470770625825
20
0.72540207886675
30
0
41
1
10
40.8782999579389
20
0.715582669699245
30
0
41
1
10
40.9717493569131
20
0.687467755349815
30
0
41
1
10
41.0337560406181
20
0.670521601753507
30
0
41
1
10
41.2190088171229
20
0.625190897671786
30
0
41
1
10
41.3415251503316
20
0.602157861531623
30
0
41
1
10
41.4631561304299
20
0.587087900345466
30
0
0
SPLINE
5
136
100
AcDbEntity
8
1
62
256
6
ByLayer
370
18
48
1
60
0
100
AcDbSpline
70
4
71
3
72
8
73
4
40
0
40
0
40
0
40
0
40
1
40
1
40
1
40
1
41
1
10
43.7866993115979
20
-0.052946381184654
30
0
41
1
10
43.798226088555
20
-0.110523032918451
30
0
41
1
10
43.8098401493345
20
-0.168063441127231
30
0
41
1
10
43.8215284953838
20
-0.225573003412592
30
0
0
SPLINE
5
137
100
AcDbEntity
8
1
62
256
6
ByLayer
370
18
48
1
60
0
100
AcDbSpline
70
4
71
3
72
10
73
6
40
0
40
0
40
0
40
0
40
0.5
40
0.5
40
1
40
1
40
1
40
1
41
1
10
43.4925301951384
20
0.177563410186536
30
0
41
1
10
43.545442254017
20
0.134880284498621
30
0
41
1
10
43.5964410626884
20
0.0943178947399304
30
0
41
1
10
43.6945032876476
20
0.0174858058431369
30
0
41
1
10
43.741618993048
20
-0.0188254470945992
30
0
41
1
10
43.7866993116018
20
-0.052946381196989
30
0
0
SPLINE
5
138
100
AcDbEntity
8
1
62
256
6
ByLayer
370
18
48
1
60
0
100
AcDbSpline
70
4
71
1
72
4
73
2
40
0
40
0
40
1
40
1
41
1
10
39.9999999992494
20
0.530727909543344
30
0
41
1
10
40.0000000007512
20
0.530715868284318
30
0
0
SPLINE
5
139
100
AcDbEntity
8
1
62
256
6
ByLayer
370
18
48
1
60
0
100
AcDbSpline
70
4
71
3
72
11
73
7
40
0
40
0
40
0
40
0
40
0.375
40
0.625
40
0.75
40
1
40
1
40
1
40
1
41
1
10
32
20
3.79010162535684
30
0
41
1
10
32.9999999999999
20
3.63211374236991
30
0
41
1
10
34.6666666666668
20
3.16835151804727
30
0
41
1
10
36.6666666666667
20
2.29652392788066
30
0
41
1
10
38.3333333333333
20
1.46009987413871
30
0
41
1
10
39.3333333333333
20
0.906887439132504
30
0
41
1
10
40
20
0.530729720863775
30
0
0
SPLINE
5
13A
100
AcDbEntity
8
1
62
256
6
ByLayer
370
18
48
1
60
0
100
AcDbSpline
70
4
71
3
72
12
73
8
40
0
40
0
40
0
40
0
40
0.500000000000036
40
0.500000000000036
40
0.750000000000018
40
0.750000000000018
40
1
40
1
40
1
40
1
41
1
10
31.9999999999999
20
-2.32000059433167
30
0
41
1
10
31.9181485619156
20
-2.31333665984968
30
0
41
1
10
31.8363686796778
20
-2.31104911784107
30
0
41
1
10
31.7136892254944
20
-2.31433483913457
30
0
41
1
10
31.6727459674252
20
-2.31655643070829
30
0
41
1
10
31.5910974517004
20
-2.32327089130803
30
0
41
1
10
31.5504071572104
20
-2.32775925103107
30
0
41
1
10
31.5098393263533
20
-2.33338844747755
30
0
0
SPLINE
5
13B
100
AcDbEntity
8
1
62
256
6
ByLayer
370
18
48
1
60
0
100
AcDbSpline
70
4
71
3
72
8
73
4
40
0
40
0
40
0
40
0
40
1
40
1
40
1
40
1
41
1
10
32.1158080114984
20
-2.37526910974114
30
0
41
1
10
32.0770985165159
20
-2.35713264459449
30
0
41
1
10
32.0384942806384
20
-2.33871416171215
30
0
41
1
10
31.9999999999987
20
-2.32000059433426
30
0
0
SPLINE
5
13C
100
AcDbEntity
8
1
62
256
6
ByLayer
370
18
48
1
60
0
100
AcDbSpline
70
4
71
3
72
45
73
41
40
0
40
0
40
0
40
0
40
0.0180785104593783
40
0.0367442304252234
40
0.0559966426176536
40
0.0758351975669031
40
0.0962593141061385
40
0.117268379754831
40
0.138861751011712
40
0.161038753572808
40
0.183798682487496
40
0.201755967386855
40
0.220429481439514
40
0.239821312542598
40
0.259933358283095
40
0.280767350262248
40
0.30232487389643
40
0.324607384509801
40
0.347616220364562
40
0.371352613143734
40
0.395817696299646
40
0.421012511601658
40
0.446938014153903
40
0.473595076104223
40
0.500984489225821
40
0.529106966521519
40
0.557963142975042
40
0.587553575553055
40
0.617878742545065
40
0.648939042314565
40
0.68073479152372
40
0.713266222884716
40
0.746533482483392
40
0.780536626714587
40
0.815275618863516
40
0.850750325363291
40
0.886960511755227
40
0.923905838375713
40
0.96158585579108
40
1
40
1
40
1
40
1
41
1
10
32.1175615030961
20
-2.3728513932621
30
0
41
1
10
32.1160811793385
20
-2.36107064383702
30
0
41
1
10
32.1130724493122
20
-2.33712649354717
30
0
41
1
10
32.108395144801
20
-2.30066368033761
30
0
41
1
10
32.1035073228722
20
-2.26307706334202
30
0
41
1
10
32.0984018156696
20
-2.22437293399355
30
0
41
1
10
32.0930802330287
20
-2.18455560984046
30
0
41
1
10
32.0875436610228
20
-2.14363037034633
30
0
41
1
10
32.0817857945455
20
-2.10160360971761
30
0
41
1
10
32.075831698767
20
-2.05847918108987
30
0
41
1
10
32.0700766337048
20
-2.0177599110182
30
0
41
1
10
32.0648250177822
20
-1.97932361681256
30
0
41
1
10
32.0602881868312
20
-1.94306169213263
30
0
41
1
10
32.055899124675
20
-1.90541774023393
30
0
41
1
10
32.051680365469
20
-1.86639636039595
30
0
41
1
10
32.0476255670623
20
-1.82600549567971
30
0
41
1
10
32.043736560537
20
-1.78425291986665
30
0
41
1
10
32.0400128626014
20
-1.74114727723682
30
0
41
1
10
32.0364546394804
20
-1.69669783555952
30
0
41
1
10
32.0330618712192
20
-1.65091460395828
30
0
41
1
10
32.0298345873933
20
-1.60380834917873
30
0
41
1
10
32.0267728011397
20
-1.55539064164904
30
0
41
1
10
32.0238765279656
20
-1.50567389425009
30
0
41
1
10
32.0211457807293
20
-1.45467140411449
30
0
41
1
10
32.0185805712754
20
-1.40239739445238
30
0
41
1
10
32.0161809101858
20
-1.34886705713919
30
0
41
1
10
32.013946807034
20
-1.29409659573796
30
0
41
1
10
32.0118782704917
20
-1.23810326895901
30
0
41
1
10
32.009975308424
20
-1.18090543431325
30
0
41
1
10
32.0082379281149
20
-1.12252259234881
30
0
41
1
10
32.0066661359039
20
-1.06297542946268
30
0
41
1
10
32.005259939066
20
-1.00228586650084
30
0
41
1
10
32.0040193389856
20
-0.940477084700319
30
0
41
1
10
32.0029443579033
20
-0.87757363817181
30
0
41
1
10
32.0020349361501
20
-0.813601231065945
30
0
41
1
10
32.0012913284957
20
-0.748587784802254
30
0
41
1
10
32.0007125782154
20
-0.682559533878333
30
0
41
1
10
32.0003023896379
20
-0.615556252049942
30
0
41
1
10
32.0000465433518
20
-0.547572891464966
30
0
41
1
10
32.0000156139157
20
-0.502151622693248
30
0
41
1
10
32
20
-0.479221884964289
30
0
0
SPLINE
5
13D
100
AcDbEntity
8
1
62
256
6
ByLayer
370
18
48
1
60
0
100
AcDbSpline
70
4
71
3
72
30
73
26
40
0
40
0
40
0
40
0
40
0.125000000000005
40
0.125000000000005
40
0.25000000000001
40
0.25000000000001
40
0.375000000000015
40
0.375000000000015
40
0.406250000000018
40
0.406250000000018
40
0.437500000000021
40
0.437500000000021
40
0.500000000000021
40
0.500000000000021
40
0.62500000000002
40
0.62500000000002
40
0.68750000000002
40
0.68750000000002
40
0.718750000000019
40
0.718750000000019
40
0.750000000000019
40
0.750000000000019
40
0.87500000000001
40
0.87500000000001
40
1
40
1
40
1
40
1
41
1
10
31.5099102978995
20
-3.99166337691858
30
0
41
1
10
31.337193091834
20
-3.99853642215086
30
0
41
1
10
31.1668905878445
20
-4.00138120861152
30
0
41
1
10
30.8318752902546
20
-3.99735812568824
30
0
41
1
10
30.6671623046872
20
-3.99049935245583
30
0
41
1
10
30.3442070380526
20
-3.96470155515848
30
0
41
1
10
30.1859646881794
20
-3.94577774935863
30
0
41
1
10
29.9928347437448
20
-3.91242158285706
30
0
41
1
10
29.9544427117255
20
-3.90526192563615
30
0
41
1
10
29.8781435184559
20
-3.88989666349201
30
0
41
1
10
29.8402071796123
20
-3.88168272985624
30
0
41
1
10
29.72775627269
20
-3.85550745744342
30
0
41
1
10
29.6544155949717
20
-3.83598100806594
30
0
41
1
10
29.4394493516241
20
-3.77054414989269
30
0
41
1
10
29.3028835550158
20
-3.71781392647205
30
0
41
1
10
29.1087858396949
20
-3.62196491997795
30
0
41
1
10
29.0458773711176
20
-3.58721441732044
30
0
41
1
10
28.9542726934135
20
-3.53040284091028
30
0
41
1
10
28.9241974334107
20
-3.51068388758387
30
0
41
1
10
28.8649779266659
20
-3.46959081348311
30
0
41
1
10
28.8359835323849
20
-3.4483191280321
30
0
41
1
10
28.6942836621019
20
-3.33842048637581
30
0
41
1
10
28.5911345731844
20
-3.23902522450922
30
0
41
1
10
28.4040098093997
20
-3.01473261361477
30
0
41
1
10
28.3200176989195
20
-2.88986473343329
30
0
41
1
10
28.2451640299836
20
-2.75041385252561
30
0
0
SPLINE
5
13E
100
AcDbEntity
8
1
62
256
6
ByLayer
370
18
48
1
60
0
100
AcDbSpline
70
4
71
3
72
24
73
20
40
0
40
0
40
0
40
0
40
0.125000000000052
40
0.125000000000052
40
0.250000000000105
40
0.250000000000105
40
0.375000000000157
40
0.375000000000157
40
0.437500000000172
40
0.437500000000172
40
0.500000000000188
40
0.500000000000188
40
0.625000000000141
40
0.625000000000141
40
0.750000000000094
40
0.750000000000094
40
0.875000000000047
40
0.875000000000047
40
1
40
1
40
1
40
1
41
1
10
28.2451640299836
20
-2.75041385252564
30
0
41
1
10
28.2422889873349
20
-2.7450577058504
30
0
41
1
10
28.2398387310908
20
-2.73960834760433
30
0
41
1
10
28.2359851364329
20
-2.72848346235366
30
0
41
1
10
28.2345758484097
20
-2.72277561248569
30
0
41
1
10
28.2331270816929
20
-2.71121860298339
30
0
41
1
10
28.233094300349
20
-2.70545870565405
30
0
41
1
10
28.2342385764421
20
-2.69685543439022
30
0
41
1
10
28.2348194805103
20
-2.69399380297497
30
0
41
1
10
28.2364151385225
20
-2.68828470051997
30
0
41
1
10
28.2374400586457
20
-2.68541864719654
30
0
41
1
10
28.2411206009112
20
-2.67706597258965
30
0
41
1
10
28.2443812719131
20
-2.67177715450873
30
0
41
1
10
28.2524294182281
20
-2.66173523535929
30
0
41
1
10
28.2572727927185
20
-2.65695335791165
30
0
41
1
10
28.2679009054966
20
-2.64829147451113
30
0
41
1
10
28.2737191890276
20
-2.6443516687618
30
0
41
1
10
28.2861837223955
20
-2.63711879622889
30
0
41
1
10
28.2928369901755
20
-2.6338287319227
30
0
41
1
10
28.2997187735885
20
-2.63086330583607
30
0
0
SPLINE
5
13F
100
AcDbEntity
8
1
62
256
6
ByLayer
370
18
48
1
60
0
100
AcDbSpline
70
4
71
3
72
34
73
30
40
0
40
0
40
0
40
0
40
0.0312500000000058
40
0.0312500000000058
40
0.0625000000000117
40
0.0625000000000117
40
0.125000000000011
40
0.125000000000011
40
0.15625000000001
40
0.15625000000001
40
0.18750000000001
40
0.18750000000001
40
0.250000000000009
40
0.250000000000009
40
0.312500000000008
40
0.312500000000008
40
0.375000000000008
40
0.375000000000008
40
0.437500000000007
40
0.437500000000007
40
0.500000000000006
40
0.500000000000006
40
0.625000000000005
40
0.625000000000005
40
0.750000000000003
40
0.750000000000003
40
0.875000000000002
40
0.875000000000002
40
1
40
1
40
1
40
1
41
1
10
28.2997187735886
20
-2.63086330583604
30
0
41
1
10
28.3288272247912
20
-2.61832019667989
30
0
41
1
10
28.3585736055369
20
-2.60722922624288
30
0
41
1
10
28.4190113392146
20
-2.58723623047789
30
0
41
1
10
28.4497058607117
20
-2.57834095455013
30
0
41
1
10
28.5429203391732
20
-2.55431414666978
30
0
41
1
10
28.6065560250676
20
-2.54180894353436
30
0
41
1
10
28.7036051552755
20
-2.52690170520882
30
0
41
1
10
28.7362684440233
20
-2.52258084153715
30
0
41
1
10
28.8018812701315
20
-2.51512405343689
30
0
41
1
10
28.8347374389876
20
-2.51199693224953
30
0
41
1
10
28.9334363705962
20
-2.50420197802117
30
0
41
1
10
28.9994086056927
20
-2.50111003539811
30
0
41
1
10
29.1316333108031
20
-2.49836086046571
30
0
41
1
10
29.1979702258195
20
-2.49871398680486
30
0
41
1
10
29.3303025633518
20
-2.50235162648102
30
0
41
1
10
29.396334521592
20
-2.50563358615892
30
0
41
1
10
29.5281639974513
20
-2.51473314888827
30
0
41
1
10
29.5940054810893
20
-2.52055751890819
30
0
41
1
10
29.725255648287
20
-2.53443454872627
30
0
41
1
10
29.7906283059461
20
-2.54248227531198
30
0
41
1
10
29.9860580378342
20
-2.56958356669165
30
0
41
1
10
30.1155087365314
20
-2.59160472670413
30
0
41
1
10
30.3718643590625
20
-2.64180326264244
30
0
41
1
10
30.4989684752056
20
-2.67002423080527
30
0
41
1
10
30.7504769857827
20
-2.73123029539718
30
0
41
1
10
30.8750216334145
20
-2.76425144619847
30
0
41
1
10
31.1213188060887
20
-2.83377723416501
30
0
41
1
10
31.2430902210545
20
-2.87028468569858
30
0
41
1
10
31.3636563465815
20
-2.90798762723233
30
0
0
SPLINE
5
140
100
AcDbEntity
8
1
62
256
6
ByLayer
370
18
48
1
60
0
100
AcDbSpline
70
4
71
3
72
21
73
17
40
0
40
0
40
0
40
0
40
0.250000000000015
40
0.250000000000015
40
0.375000000000034
40
0.375000000000034
40
0.500000000000053
40
0.500000000000053
40
0.562500000000062
40
0.562500000000062
40
0.625000000000072
40
0.625000000000072
40
0.750000000000048
40
0.875000000000024
40
0.875000000000024
40
1
40
1
40
1
40
1
41
1
10
31.6598924137682
20
-2.74549654978614
30
0
41
1
10
31.6672826272893
20
-2.78424349889292
30
0
41
1
10
31.6794755054948
20
-2.8217715497901
30
0
41
1
10
31.7062589294503
20
-2.87500454972047
30
0
41
1
10
31.7165805799855
20
-2.89220048572207
30
0
41
1
10
31.7400819181665
20
-2.92528420311797
30
0
41
1
10
31.753328732952
20
-2.94124871859461
30
0
41
1
10
31.7752391067437
20
-2.96397685784157
30
0
41
1
10
31.7828856958527
20
-2.9713581833629
30
0
41
1
10
31.7988709395708
20
-2.98573744323781
30
0
41
1
10
31.8072299565655
20
-2.99275097576529
30
0
41
1
10
31.8332033847117
20
-3.01310682959488
30
0
41
1
10
31.8700699050693
20
-3.03832572150478
30
0
41
1
10
31.9111240187811
20
-3.06007354050138
30
0
41
1
10
31.9541564035269
20
-3.08023761499223
30
0
41
1
10
31.976733291776
20
-3.08955032254951
30
0
41
1
10
32
20
-3.09804751794581
30
0
0
SPLINE
5
141
100
AcDbEntity
8
1
62
256
6
ByLayer
370
18
48
1
60
0
100
AcDbSpline
70
4
71
3
72
16
73
12
40
0
40
0
40
0
40
0
40
0.250000000000012
40
0.250000000000012
40
0.500000000000024
40
0.500000000000024
40
0.625000000000018
40
0.625000000000018
40
0.750000000000013
40
0.750000000000013
40
1
40
1
40
1
40
1
41
1
10
31.5098393263533
20
-2.33338844747755
30
0
41
1
10
31.5133290807271
20
-2.37115478428348
30
0
41
1
10
31.5188149547291
20
-2.40834201706295
30
0
41
1
10
31.5341941635321
20
-2.48115525970809
30
0
41
1
10
31.5440834722334
20
-2.51676873186082
30
0
41
1
10
31.5625385091634
20
-2.56877038360497
30
0
41
1
10
31.569282165888
20
-2.58583577863132
30
0
41
1
10
31.5840078410394
20
-2.61942294633954
30
0
41
1
10
31.5920010198032
20
-2.63596482731671
30
0
41
1
10
31.6178399142306
20
-2.68459617309091
30
0
41
1
10
31.6375357640952
20
-2.71569983293247
30
0
41
1
10
31.6598924137673
20
-2.74549654978699
30
0
0
SPLINE
5
142
100
AcDbEntity
8
1
62
256
6
ByLayer
370
18
48
1
60
0
100
AcDbSpline
70
4
71
3
72
30
73
26
40
0
40
0
40
0
40
0
40
0.12500000000001
40
0.12500000000001
40
0.250000000000021
40
0.250000000000021
40
0.375000000000031
40
0.375000000000031
40
0.437500000000037
40
0.437500000000037
40
0.468750000000039
40
0.468750000000039
40
0.500000000000042
40
0.500000000000042
40
0.625000000000036
40
0.625000000000036
40
0.687500000000032
40
0.687500000000032
40
0.718750000000031
40
0.718750000000031
40
0.750000000000029
40
0.750000000000029
40
0.875000000000015
40
0.875000000000015
40
1
40
1
40
1
40
1
41
1
10
31.5098393263533
20
-2.33338844747755
30
0
41
1
10
31.3377315382967
20
-2.24652607326846
30
0
41
1
10
31.1684858957177
20
-2.1545299233006
30
0
41
1
10
30.8367141909568
20
-1.95829163658624
30
0
41
1
10
30.6741876423714
20
-1.85405512188231
30
0
41
1
10
30.3570286323918
20
-1.63077388104554
30
0
41
1
10
30.2023956941574
20
-1.51173827040955
30
0
41
1
10
29.9773933115172
20
-1.3195540937808
30
0
41
1
10
29.9035519004926
20
-1.2532138488416
30
0
41
1
10
29.7946720614838
20
-1.14988988385241
30
0
41
1
10
29.7586926022621
20
-1.11481234198115
30
0
41
1
10
29.6873865608578
20
-1.043310552859
30
0
41
1
10
29.6519989522506
20
-1.00681872914427
30
0
41
1
10
29.4780631553673
20
-0.822203757176908
30
0
41
1
10
29.347795995248
20
-0.666929108614085
30
0
41
1
10
29.1662254768364
20
-0.421842693780377
30
0
41
1
10
29.1080045997121
20
-0.338118730469319
30
0
41
1
10
29.0241750389716
20
-0.209388183293811
30
0
41
1
10
28.9968154022795
20
-0.165953849028625
30
0
41
1
10
28.943270771129
20
-0.0780187428898387
30
0
41
1
10
28.9170643724867
20
-0.0334802525053988
30
0
41
1
10
28.7892138300171
20
0.191529269940872
30
0
41
1
10
28.6992764503843
20
0.375056258238061
30
0
41
1
10
28.5415805366157
20
0.747608727647929
30
0
41
1
10
28.4738016192999
20
0.936630556067456
30
0
41
1
10
28.4163007534673
20
1.12772727148209
30
0
0
SPLINE
5
143
100
AcDbEntity
8
1
62
256
6
ByLayer
370
18
48
1
60
0
100
AcDbSpline
70
4
71
3
72
20
73
16
40
0
40
0
40
0
40
0
40
0.249999999999999
40
0.249999999999999
40
0.374999999999999
40
0.374999999999999
40
0.499999999999999
40
0.499999999999999
40
0.624999999999999
40
0.624999999999999
40
0.749999999999999
40
0.749999999999999
40
0.875
40
0.875
40
1
40
1
40
1
40
1
41
1
10
28.4163007534673
20
1.12772727148209
30
0
41
1
10
28.4126094587519
20
1.1399948136403
30
0
41
1
10
28.4103459987565
20
1.15245029345147
30
0
41
1
10
28.4099915344316
20
1.17154130619446
30
0
41
1
10
28.4103966560206
20
1.17787867100378
30
0
41
1
10
28.4123265247486
20
1.19028141423971
30
0
41
1
10
28.4138500086322
20
1.19637928037747
30
0
41
1
10
28.418108416134
20
1.20835224402535
30
0
41
1
10
28.4208468191605
20
1.2141892244158
30
0
41
1
10
28.4272804497601
20
1.22514219080594
30
0
41
1
10
28.4309967130409
20
1.23032491549208
30
0
41
1
10
28.4393522516405
20
1.24014907547064
30
0
41
1
10
28.4439603281359
20
1.24474506560981
30
0
41
1
10
28.4537299178099
20
1.25322553456971
30
0
41
1
10
28.4589183499724
20
1.25714149708659
30
0
41
1
10
28.4643664608809
20
1.26078069086091
30
0
0
SPLINE
5
144
100
AcDbEntity
8
1
62
256
6
ByLayer
370
18
48
1
60
0
100
AcDbSpline
70
4
71
3
72
34
73
30
40
0
40
0
40
0
40
0
40
0.0312499999999883
40
0.0312499999999883
40
0.0624999999999765
40
0.0624999999999765
40
0.124999999999966
40
0.124999999999966
40
0.156249999999967
40
0.156249999999967
40
0.187499999999968
40
0.187499999999968
40
0.249999999999971
40
0.249999999999971
40
0.312499999999973
40
0.312499999999973
40
0.374999999999976
40
0.374999999999976
40
0.437499999999978
40
0.437499999999978
40
0.499999999999981
40
0.499999999999981
40
0.624999999999985
40
0.624999999999985
40
0.74999999999999
40
0.74999999999999
40
0.874999999999995
40
0.874999999999995
40
1
40
1
40
1
40
1
41
1
10
28.4643664608809
20
1.26078069086091
30
0
41
1
10
28.4905939187451
20
1.27829993798642
30
0
41
1
10
28.5176909793624
20
1.29385459897421
30
0
41
1
10
28.5731796195468
20
1.32206008422122
30
0
41
1
10
28.601575336768
20
1.33470132637265
30
0
41
1
10
28.6883158116777
20
1.36916302544032
30
0
41
1
10
28.7481931645218
20
1.38756928070094
30
0
41
1
10
28.8402091013628
20
1.41033487757014
30
0
41
1
10
28.8711514396542
20
1.41707224441848
30
0
41
1
10
28.9331829284
20
1.4290290582789
30
0
41
1
10
28.9643251946195
20
1.43426073457013
30
0
41
1
10
29.0580834692513
20
1.44800725117838
30
0
41
1
10
29.1210683115896
20
1.45459147480523
30
0
41
1
10
29.2475837966102
20
1.46358580071765
30
0
41
1
10
29.3108128396995
20
1.46597125748971
30
0
41
1
10
29.4372231851111
20
1.46723743221057
30
0
41
1
10
29.5004044178532
20
1.4661128167009
30
0
41
1
10
29.6267251575129
20
1.46079692359078
30
0
41
1
10
29.6898778231758
20
1.45660184969878
30
0
41
1
10
29.8160913973699
20
1.4454381944353
30
0
41
1
10
29.8789650194535
20
1.43848594415101
30
0
41
1
10
30.0669527110916
20
1.41388222794612
30
0
41
1
10
30.1914463111356
20
1.39250203556006
30
0
41
1
10
30.4389418620658
20
1.34096757046657
30
0
41
1
10
30.5614559174073
20
1.31090414268886
30
0
41
1
10
30.8043074652022
20
1.2429859496462
30
0
41
1
10
30.9247201875371
20
1.20509098214538
30
0
41
1
10
31.162732182016
20
1.1223433094946
30
0
41
1
10
31.2804291464174
20
1.07746459161353
30
0
41
1
10
31.3969544269343
20
1.02933284467565
30
0
0
SPLINE
5
145
100
AcDbEntity
8
1
62
256
6
ByLayer
370
18
48
1
60
0
100
AcDbSpline
70
4
71
3
72
21
73
17
40
0
40
0
40
0
40
0
40
0.250000000000016
40
0.250000000000016
40
0.375000000000012
40
0.375000000000012
40
0.500000000000009
40
0.500000000000009
40
0.562500000000008
40
0.562500000000008
40
0.625000000000007
40
0.625000000000007
40
0.750000000000004
40
0.875000000000002
40
0.875000000000002
40
1
40
1
40
1
40
1
41
1
10
31.6598924137682
20
1.27955708913635
30
0
41
1
10
31.6672826272893
20
1.22907780661703
30
0
41
1
10
31.6794755054952
20
1.17887456337778
30
0
41
1
10
31.7062589294507
20
1.10590799697454
30
0
41
1
10
31.7165805799859
20
1.08203204583217
30
0
41
1
10
31.7400819181669
20
1.03555512107033
30
0
41
1
10
31.7533287329524
20
1.01284496373208
30
0
41
1
10
31.7752391067441
20
0.980155476679499
30
0
41
1
10
31.7828856958531
20
0.969476885757615
30
0
41
1
10
31.7988709395711
20
0.948562278883543
30
0
41
1
10
31.8072299565658
20
0.938303286746503
30
0
41
1
10
31.833203384712
20
0.908374351806117
30
0
41
1
10
31.8700699050696
20
0.870877014238317
30
0
41
1
10
31.9111240187814
20
0.837927695371462
30
0
41
1
10
31.954156403527
20
0.807142866901557
30
0
41
1
10
31.9767332917761
20
0.792797281894991
30
0
41
1
10
32
20
0.779621860046348
30
0
0
SPLINE
5
146
100
AcDbEntity
8
1
62
256
6
ByLayer
370
18
48
1
60
0
100
AcDbSpline
70
4
71
3
72
16
73
12
40
0
40
0
40
0
40
0
40
0.249999999999991
40
0.249999999999991
40
0.499999999999982
40
0.499999999999982
40
0.624999999999986
40
0.624999999999986
40
0.749999999999991
40
0.749999999999991
40
1
40
1
40
1
40
1
41
1
10
31.5099102978996
20
1.77229731967924
30
0
41
1
10
31.5134210702207
20
1.73068508040007
30
0
41
1
10
31.5189225595755
20
1.6888302375028
30
0
41
1
10
31.5343205735882
20
1.605142135942
30
0
41
1
10
31.5442125710875
20
1.56332621878306
30
0
41
1
10
31.5626610236495
20
1.50099283395505
30
0
41
1
10
31.5694002466782
20
1.48032073290781
30
0
41
1
10
31.584113600012
20
1.43921433880027
30
0
41
1
10
31.592098655614
20
1.41875554862574
30
0
41
1
10
31.617906439713
20
1.35799891568337
30
0
41
1
10
31.6375735074988
20
1.31831052938546
30
0
41
1
10
31.6598924137662
20
1.27955708913768
30
0
0
SPLINE
5
147
100
AcDbEntity
8
1
62
256
6
ByLayer
370
18
48
1
60
0
100
AcDbSpline
70
4
71
3
72
30
73
26
40
0
40
0
40
0
40
0
40
0.124999999999987
40
0.124999999999987
40
0.249999999999975
40
0.249999999999975
40
0.374999999999962
40
0.374999999999962
40
0.406249999999962
40
0.406249999999962
40
0.437499999999962
40
0.437499999999962
40
0.499999999999962
40
0.499999999999962
40
0.624999999999963
40
0.624999999999963
40
0.68749999999996
40
0.68749999999996
40
0.718749999999961
40
0.718749999999961
40
0.749999999999963
40
0.749999999999963
40
0.874999999999981
40
0.874999999999981
40
1
40
1
40
1
40
1
41
1
10
31.5099102978996
20
1.77229731967924
30
0
41
1
10
31.337193091834
20
1.86778305297605
30
0
41
1
10
31.1668905878445
20
1.9640704687435
30
0
41
1
10
30.8318752902546
20
2.15829024054247
30
0
41
1
10
30.6671623046871
20
2.25622730456092
30
0
41
1
10
30.3442070380524
20
2.45355064795899
30
0
41
1
10
30.1859646881792
20
2.55294511670334
30
0
41
1
10
29.9928347437446
20
2.67770338820901
30
0
41
1
10
29.9544427117253
20
2.70267935908225
30
0
41
1
10
29.8781435184557
20
2.75266337315682
30
0
41
1
10
29.8402071796121
20
2.77769125182289
30
0
41
1
10
29.7277562726898
20
2.85238882581339
30
0
41
1
10
29.6544155949715
20
2.9017938350957
30
0
41
1
10
29.4394493516238
20
3.04844638254198
30
0
41
1
10
29.3028835550155
20
3.14416645118465
30
0
41
1
10
29.1087858396945
20
3.28259786496162
30
0
41
1
10
29.0458773711172
20
3.32787547816849
30
0
41
1
10
28.9542726934131
20
3.39414486041636
30
0
41
1
10
28.9241974334103
20
3.41595945134552
30
0
41
1
10
28.8649779266655
20
3.45897092435698
30
0
41
1
10
28.8359835323844
20
3.48005882051655
30
0
41
1
10
28.6942836621014
20
3.58310271164433
30
0
41
1
10
28.5911345731839
20
3.65808818331274
30
0
41
1
10
28.4040098093991
20
3.78942548964548
30
0
41
1
10
28.320017698919
20
3.84580223897592
30
0
41
1
10
28.245164029983
20
3.89044403832125
30
0
0
SPLINE
5
148
100
AcDbEntity
8
1
62
256
6
ByLayer
370
18
48
1
60
0
100
AcDbSpline
70
4
71
3
72
24
73
20
40
0
40
0
40
0
40
0
40
0.124999999999984
40
0.124999999999984
40
0.249999999999968
40
0.249999999999968
40
0.374999999999953
40
0.374999999999953
40
0.437499999999956
40
0.437499999999956
40
0.49999999999996
40
0.49999999999996
40
0.62499999999997
40
0.62499999999997
40
0.74999999999998
40
0.74999999999998
40
0.87499999999999
40
0.87499999999999
40
1
40
1
40
1
40
1
41
1
10
28.245164029983
20
3.89044403832122
30
0
41
1
10
28.2422889873344
20
3.89215867808244
30
0
41
1
10
28.2398387310903
20
3.89387888135866
30
0
41
1
10
28.2359851364323
20
3.89733806763363
30
0
41
1
10
28.2345758484091
20
3.8990868069867
30
0
41
1
10
28.2331270816924
20
3.90257156278733
30
0
41
1
10
28.2330943003485
20
3.9042808824052
30
0
41
1
10
28.2342385764416
20
3.90679426697309
30
0
41
1
10
28.2348194805097
20
3.90762362306748
30
0
41
1
10
28.2364151385219
20
3.90926519173033
30
0
41
1
10
28.2374400586452
20
3.91008260841304
30
0
41
1
10
28.2411206009107
20
3.91244646585432
30
0
41
1
10
28.2443812719126
20
3.91391867072869
30
0
41
1
10
28.2524294182275
20
3.91667661836212
30
0
41
1
10
28.2572727927179
20
3.91796972806699
30
0
41
1
10
28.267900905496
20
3.9202850460191
30
0
41
1
10
28.273719189027
20
3.92132388246455
30
0
41
1
10
28.2861837223949
20
3.9232130656587
30
0
41
1
10
28.292836990175
20
3.92406247869258
30
0
41
1
10
28.299718773588
20
3.9248221372082
30
0
0
SPLINE
5
149
100
AcDbEntity
8
1
62
256
6
ByLayer
370
18
48
1
60
0
100
AcDbSpline
70
4
71
3
72
34
73
30
40
0
40
0
40
0
40
0
40
0.0312499999999816
40
0.0312499999999816
40
0.0624999999999631
40
0.0624999999999631
40
0.124999999999939
40
0.124999999999939
40
0.156249999999933
40
0.156249999999933
40
0.187499999999927
40
0.187499999999927
40
0.249999999999929
40
0.249999999999929
40
0.312499999999931
40
0.312499999999931
40
0.374999999999932
40
0.374999999999932
40
0.437499999999934
40
0.437499999999934
40
0.499999999999935
40
0.499999999999935
40
0.624999999999951
40
0.624999999999951
40
0.749999999999968
40
0.749999999999968
40
0.874999999999984
40
0.874999999999984
40
1
40
1
40
1
40
1
41
1
10
28.299718773588
20
3.92482213720811
30
0
41
1
10
28.3288272247906
20
3.92803532796197
30
0
41
1
10
28.3585736055363
20
3.93076066898945
30
0
41
1
10
28.419011339214
20
3.93554659520788
30
0
41
1
10
28.4497058607112
20
3.93760404901334
30
0
41
1
10
28.5429203391726
20
3.94304101669513
30
0
41
1
10
28.606556025067
20
3.94569961592123
30
0
41
1
10
28.7036051552749
20
3.94880124449611
30
0
41
1
10
28.7362684440228
20
3.94968337938096
30
0
41
1
10
28.801881270131
20
3.95118978930029
30
0
41
1
10
28.8347374389871
20
3.95181224100531
30
0
41
1
10
28.9334363705956
20
3.95335305762418
30
0
41
1
10
28.9994086056922
20
3.95394895279901
30
0
41
1
10
29.1316333108026
20
3.95448024418727
30
0
41
1
10
29.197970225819
20
3.95441251625891
30
0
41
1
10
29.3303025633513
20
3.95370820448264
30
0
41
1
10
29.3963345215916
20
3.95307157004174
30
0
41
1
10
29.5281639974509
20
3.95126959867963
30
0
41
1
10
29.5940054810888
20
3.9501026292437
30
0
41
1
10
29.7252556482866
20
3.94724362567956
30
0
41
1
10
29.7906283059457
20
3.94555247066771
30
0
41
1
10
29.9860580378339
20
3.93966334420679
30
0
41
1
10
30.1155087365311
20
3.93464958167351
30
0
41
1
10
30.3718643590622
20
3.92214798208619
30
0
41
1
10
30.4989684752053
20
3.91464750846291
30
0
41
1
10
30.7504769857825
20
3.89673675897552
30
0
41
1
10
30.8750216334143
20
3.88631449410613
30
0
41
1
10
31.1213188060885
20
3.86209942282929
30
0
41
1
10
31.2430902210544
20
3.84830637337882
30
0
41
1
10
31.3636563465814
20
3.83258708904126
30
0
0
SPLINE
5
14A
100
AcDbEntity
8
1
62
256
6
ByLayer
370
18
48
1
60
0
100
AcDbSpline
70
4
71
3
72
21
73
17
40
0
40
0
40
0
40
0
40
0.249999999999936
40
0.249999999999936
40
0.374999999999903
40
0.374999999999903
40
0.49999999999987
40
0.49999999999987
40
0.562499999999871
40
0.562499999999871
40
0.624999999999871
40
0.624999999999871
40
0.749999999999914
40
0.874999999999957
40
0.874999999999957
40
1
40
1
40
1
40
1
41
1
10
31.6598924137648
20
3.89201136582608
30
0
41
1
10
31.6672826272857
20
3.87971497961624
30
0
41
1
10
31.6794755054942
20
3.86651862235152
30
0
41
1
10
31.7062589294496
20
3.84607940711987
30
0
41
1
10
31.7165805799848
20
3.83917729934996
30
0
41
1
10
31.7400819181658
20
3.82536717734394
30
0
41
1
10
31.7533287329513
20
3.81842577303809
30
0
41
1
10
31.775239106743
20
3.80819258243898
30
0
41
1
10
31.782885695852
20
3.80480822306851
30
0
41
1
10
31.7988709395701
20
3.79810535989751
30
0
41
1
10
31.8072299565648
20
3.79477930190214
30
0
41
1
10
31.8332033847111
20
3.78497523770753
30
0
41
1
10
31.8700699050688
20
3.77241864462493
30
0
41
1
10
31.9111240187808
20
3.76098903004512
30
0
41
1
10
31.9541564035267
20
3.75016127695898
30
0
41
1
10
31.976733291776
20
3.7450352455042
30
0
41
1
10
32.0000000000001
20
3.74027367224434
30
0
0
SPLINE
5
14B
100
AcDbEntity
8
1
62
256
6
ByLayer
370
18
48
1
60
0
100
AcDbSpline
70
4
71
3
72
16
73
12
40
0
40
0
40
0
40
0
40
0.250000000000016
40
0.250000000000016
40
0.500000000000033
40
0.500000000000033
40
0.625000000000032
40
0.625000000000032
40
0.75000000000003
40
0.75000000000003
40
1
40
1
40
1
40
1
41
1
10
31.5098393263533
20
3.98031711333917
30
0
41
1
10
31.5133290807271
20
3.97571005113977
30
0
41
1
10
31.5188149547291
20
3.97030610917099
30
0
41
1
10
31.5341941635319
20
3.95801912531823
30
0
41
1
10
31.5440834722331
20
3.95113873023502
30
0
41
1
10
31.562538509163
20
3.93984070134695
30
0
41
1
10
31.5692821658875
20
3.93591936548734
30
0
41
1
10
31.5840078410387
20
3.92778984856758
30
0
41
1
10
31.5920010198025
20
3.92357616045675
30
0
41
1
10
31.6178399142297
20
3.91058824665919
30
0
41
1
10
31.6375357640937
20
3.90146738614925
30
0
41
1
10
31.6598924137656
20
3.89201136582582
30
0
0
SPLINE
5
14C
100
AcDbEntity
8
1
62
256
6
ByLayer
370
18
48
1
60
0
100
AcDbSpline
70
4
71
3
72
8
73
4
40
0
40
0
40
0
40
0
40
1
40
1
40
1
40
1
41
1
10
32.1273709566364
20
1.51376820251261
30
0
41
1
10
32.0848027456514
20
1.5366925081947
30
0
41
1
10
32.0423441140144
20
1.55967436226049
30
0
41
1
10
32.0000000000001
20
1.58271603814043
30
0
0
SPLINE
5
14D
100
AcDbEntity
8
1
62
256
6
ByLayer
370
18
48
1
60
0
100
AcDbSpline
70
4
71
3
72
34
73
30
40
0
40
0
40
0
40
0
40
0.125000000000004
40
0.125000000000004
40
0.156250000000006
40
0.156250000000006
40
0.187500000000008
40
0.187500000000008
40
0.250000000000011
40
0.250000000000011
40
0.375000000000019
40
0.375000000000019
40
0.437500000000021
40
0.437500000000021
40
0.468750000000022
40
0.468750000000022
40
0.500000000000023
40
0.500000000000023
40
0.625000000000026
40
0.625000000000026
40
0.687500000000028
40
0.687500000000028
40
0.718750000000027
40
0.718750000000027
40
0.750000000000025
40
0.750000000000025
40
0.875000000000013
40
0.875000000000013
40
1
40
1
40
1
40
1
41
1
10
40
20
-2.55184827724656
30
0
41
1
10
39.6717750828865
20
-2.41571542705788
30
0
41
1
10
39.3440534743012
20
-2.27126106220473
30
0
41
1
10
38.933788449103
20
-2.0822030513194
30
0
41
1
10
38.8517055312756
20
-2.04396575611307
30
0
41
1
10
38.6874518170011
20
-1.96668230601154
30
0
41
1
10
38.6052521260532
20
-1.92762331112164
30
0
41
1
10
38.3588234821695
20
-1.80940694224341
30
0
41
1
10
38.1947080187763
20
-1.72918345736917
30
0
41
1
10
37.7027363956512
20
-1.48446876687001
30
0
41
1
10
37.3752584201933
20
-1.31592332407962
30
0
41
1
10
36.8836575107044
20
-1.05707386900804
30
0
41
1
10
36.719727399582
20
-0.9697823391989
30
0
41
1
10
36.4735970786245
20
-0.837575284774715
30
0
41
1
10
36.3915141860483
20
-0.79329505753293
30
0
41
1
10
36.227249318674
20
-0.704345298686263
30
0
41
1
10
36.1450720887767
20
-0.659677950672545
30
0
41
1
10
35.734618010709
20
-0.435850941841466
30
0
41
1
10
35.4070641875429
20
-0.254890592947078
30
0
41
1
10
34.9158894735672
20
0.0175020157602148
30
0
41
1
10
34.7521924058216
20
0.108462169749288
30
0
41
1
10
34.5064866549552
20
0.24477879976422
30
0
41
1
10
34.4245579321514
20
0.290196846709364
30
0
41
1
10
34.2606140574613
20
0.380931461063966
30
0
41
1
10
34.1785720179216
20
0.426262836631594
30
0
41
1
10
33.7683833509467
20
0.652347049238273
30
0
41
1
10
33.4409344204216
20
0.83099699282252
30
0
41
1
10
32.7856049166137
20
1.18073663895029
30
0
41
1
10
32.4577257339571
20
1.35183336818213
30
0
41
1
10
32.1289223411569
20
1.51788991450022
30
0
0
SPLINE
5
14E
100
AcDbEntity
8
1
62
256
6
ByLayer
370
18
48
1
60
0
100
AcDbSpline
70
4
71
1
72
4
73
2
40
0
40
0
40
1
40
1
41
1
10
39.9999999992494
20
-3.03359750359689
30
0
41
1
10
40.0000000007512
20
-3.03360823565336
30
0
0
SPLINE
5
14F
100
AcDbEntity
8
1
62
256
6
ByLayer
370
18
48
1
60
0
100
AcDbSpline
70
4
71
3
72
11
73
7
40
0
40
0
40
0
40
0
40
0.375
40
0.625
40
0.75
40
1
40
1
40
1
40
1
41
1
10
32
20
1.0802278111326
30
0
41
1
10
32.9999999999999
20
0.532631757971728
30
0
41
1
10
34.6666666666668
20
-0.437054491789382
30
0
41
1
10
36.6666666666667
20
-1.53591885046606
30
0
41
1
10
38.3333333333334
20
-2.36374270859321
30
0
41
1
10
39.3333333333333
20
-2.79077438049129
30
0
41
1
10
40
20
-3.03360014863421
30
0
0
SPLINE
5
150
100
AcDbEntity
8
1
62
256
6
ByLayer
370
18
48
1
60
0
100
AcDbSpline
70
4
71
3
72
12
73
8
40
0
40
0
40
0
40
0
40
0.25
40
0.25
40
0.5
40
0.5
40
1
40
1
40
1
40
1
41
1
10
40.9005302109287
20
-0.278947078171711
30
0
41
1
10
40.936921112605
20
-0.297222251876974
30
0
41
1
10
40.9733321071828
20
-0.315227902433264
30
0
41
1
10
41.0462181960717
20
-0.350646192720177
30
0
41
1
10
41.0826769081593
20
-0.368049854959253
30
0
41
1
10
41.1916258487547
20
-0.419022881282302
30
0
41
1
10
41.2638695367039
20
-0.451447811577566
30
0
41
1
10
41.3357663742145
20
-0.482047247328865
30
0
0
SPLINE
5
151
100
AcDbEntity
8
1
62
256
6
ByLayer
370
18
48
1
60
0
100
AcDbSpline
70
4
71
3
72
12
73
8
40
0
40
0
40
0
40
0
40
0.25
40
0.25
40
0.5
40
0.5
40
1
40
1
40
1
40
1
41
1
10
40.900530210918
20
-0.278947078166311
30
0
41
1
10
40.8929047490133
20
-0.275117641838222
30
0
41
1
10
40.8855744213463
20
-0.271599293816536
30
0
41
1
10
40.8711982913044
20
-0.264843806391696
30
0
41
1
10
40.8641615544077
20
-0.261616729872117
30
0
41
1
10
40.8433391155311
20
-0.252201235431301
30
0
41
1
10
40.8298365686349
20
-0.246273339978899
30
0
41
1
10
40.8165453030151
20
-0.240505236415316
30
0
0
SPLINE
5
152
100
AcDbEntity
8
1
62
256
6
ByLayer
370
18
48
1
60
0
100
AcDbSpline
70
4
71
3
72
8
73
4
40
0
40
0
40
0
40
0
40
1
40
1
40
1
40
1
41
1
10
40.8165453030151
20
-0.240505236415316
30
0
41
1
10
40.7958038869302
20
-0.229610295079255
30
0
41
1
10
40.7750529647905
20
-0.218638574961688
30
0
41
1
10
40.754287825271
20
-0.207588270935958
30
0
0
SPLINE
5
153
100
AcDbEntity
8
1
62
256
6
ByLayer
370
13
48
1
60
0
100
AcDbSpline
70
4
71
3
72
11
73
7
40
0
40
0
40
0
40
0
40
0.103293325895869
40
0.402195550597246
40
0.601463700398164
40
1
40
1
40
1
40
1
41
1
10
39.5275451771825
20
0.486815363419225
30
0
41
1
10
39.268363451455
20
0.624901144855499
30
0
41
1
10
38.2591817257275
20
1.15853099936956
30
0
41
0.999999999999999
10
36.75
20
1.91258423552998
30
0
41
1
10
34.5000000000001
20
2.86171116292289
30
0
41
1
10
32.9999999999999
20
3.30659213765477
30
0
41
1
10
32
20
3.49250171003547
30
0
0
SPLINE
5
154
100
AcDbEntity
8
1
62
256
6
ByLayer
370
18
48
1
60
0
100
AcDbSpline
70
4
71
3
72
8
73
4
40
0
40
0
40
0
40
0
40
1
40
1
40
1
40
1
41
1
10
40.8165394248929
20
-3.44193623282484
30
0
41
1
10
40.7957999671137
20
-3.44040559813359
30
0
41
1
10
40.7750510049225
20
-3.43866324658012
30
0
41
1
10
40.7542878278937
20
-3.43668875096438
30
0
0
SPLINE
5
155
100
AcDbEntity
8
1
62
256
6
ByLayer
370
18
48
1
60
0
100
AcDbSpline
70
4
71
3
72
16
73
12
40
0
40
0
40
0
40
0
40
0.24999999999999
40
0.24999999999999
40
0.49999999999998
40
0.49999999999998
40
0.74999999999997
40
0.74999999999997
40
0.874999999999985
40
0.874999999999985
40
1
40
1
40
1
40
1
41
1
10
40.7542878278885
20
-3.43668875096387
30
0
41
1
10
40.6913905648805
20
-3.43066591990006
30
0
41
1
10
40.6285723467816
20
-3.42280156475823
30
0
41
1
10
40.5029816944886
20
-3.40343394900424
30
0
41
1
10
40.4402082265195
20
-3.39188266852614
30
0
41
1
10
40.3145727139954
20
-3.36482771169139
30
0
41
1
10
40.2517108684219
20
-3.34932487168473
30
0
41
1
10
40.1572386091803
20
-3.32291218795851
30
0
41
1
10
40.1257543126173
20
-3.31359172474552
30
0
41
1
10
40.0628548838413
20
-3.29390490227891
30
0
41
1
10
40.0314313289086
20
-3.28345504935805
30
0
41
1
10
39.9999998667792
20
-3.2730105121135
30
0
0
SPLINE
5
156
100
AcDbEntity
8
1
62
256
6
ByLayer
370
13
48
1
60
0
100
AcDbSpline
70
4
71
3
72
8
73
4
40
0
40
0
40
0
40
0
40
1
40
1
40
1
40
1
41
1
10
32.5400152232903
20
0.472852711048404
30
0
41
1
10
32.3600101488602
20
0.568787173894805
30
0
41
1
10
32.1800050744301
20
0.664242402610512
30
0
41
1
10
32
20
0.758924111053773
30
0
0
SPLINE
5
157
100
AcDbEntity
8
1
62
256
6
ByLayer
370
18
48
1
60
0
100
AcDbSpline
70
4
71
3
72
8
73
4
40
0
40
0
40
0
40
0
40
1
40
1
40
1
40
1
41
1
10
43.8499745970777
20
-0.502585941148624
30
0
41
1
10
43.8338728705072
20
-0.528212638708084
30
0
41
1
10
43.8164888319117
20
-0.553670755131009
30
0
41
1
10
43.7978252405099
20
-0.578960653161857
30
0
0
SPLINE
5
158
100
AcDbEntity
8
1
62
256
6
ByLayer
370
18
48
1
60
0
100
AcDbSpline
70
4
71
3
72
8
73
4
40
0
40
0
40
0
40
0
40
1
40
1
40
1
40
1
41
1
10
43.8215284950653
20
-0.225573002390547
30
0
41
1
10
43.830556742946
20
-0.317934931328267
30
0
41
1
10
43.8400850627897
20
-0.410274324573464
30
0
41
1
10
43.8499745970777
20
-0.502585941148908
30
0
0
SPLINE
5
159
100
AcDbEntity
8
1
62
256
6
ByLayer
370
18
48
1
60
0
100
AcDbSpline
70
4
71
3
72
26
73
22
40
0
40
0
40
0
40
0
40
0.0047473623229925
40
0.01028289913968
40
0.0134162787576496
40
0.0337813604450798
40
0.106978822028852
40
0.134312507726504
40
0.141645787761712
40
0.145232460365653
40
0.14628788339014
40
0.147356477736029
40
0.152684580331177
40
0.158864781345633
40
0.189751426243561
40
0.292347043289304
40
0.44983035085238
40
0.69144429084776
40
0.806913352593476
40
0.879666685731549
40
1
40
1
40
1
40
1
41
1
10
39.9999998462871
20
0.530715956583919
30
0
41
1
10
40.0075683233574
20
0.526389428555376
30
0
41
1
10
40.0239862446239
20
0.516988179132682
30
0
41
1
10
40.0454850923989
20
0.504629367303693
30
0
41
1
10
40.0919119004861
20
0.477687747178862
30
0
41
1
10
40.2463395817646
20
0.388090355669903
30
0
41
1
10
40.4384564807948
20
0.277707315263257
30
0
41
1
10
40.607691658693
20
0.183027758948128
30
0
41
1
10
40.6678237144801
20
0.149786635631926
30
0
41
1
10
40.6865410195009
20
0.139465910449786
30
0
41
1
10
40.6953568419045
20
0.134626891093205
30
0
41
1
10
40.7073024262498
20
0.127908308644749
30
0
41
1
10
40.7271597917238
20
0.116776503350593
30
0
41
1
10
40.7937476550902
20
0.0798566380361478
30
0
41
1
10
41.0120633670889
20
-0.0374075211785794
30
0
41
1
10
41.4524427926885
20
-0.246051238032777
30
0
41
1
10
42.1776435334131
20
-0.505254257894705
30
0
41
1
10
42.8652757886983
20
-0.609983181101939
30
0
41
1
10
43.3357152218857
20
-0.545352324756237
30
0
41
1
10
43.620039325858
20
-0.434053171049641
30
0
41
1
10
43.7576663928595
20
-0.318988216264302
30
0
41
1
10
43.8215284918145
20
-0.225573001624468
30
0
0
SPLINE
5
15A
100
AcDbEntity
8
1
62
256
6
ByLayer
370
18
48
1
60
0
100
AcDbSpline
70
4
71
3
72
16
73
12
40
0
40
0
40
0
40
0
40
0.25
40
0.25
40
0.5
40
0.5
40
0.75
40
0.75
40
0.875
40
0.875
40
1
40
1
40
1
40
1
41
1
10
40.7542878252701
20
-0.207588270935474
30
0
41
1
10
40.6913906000076
20
-0.174109208674281
30
0
41
1
10
40.6285724195602
20
-0.140073386618241
30
0
41
1
10
40.502981842587
20
-0.0710755814785102
30
0
41
1
10
40.4402084122888
20
-0.0361039580211866
30
0
41
1
10
40.3145729753804
20
0.0346272643242855
30
0
41
1
10
40.2517111677511
20
0.0703869805345221
30
0
41
1
10
40.1572389658597
20
0.124484910649386
30
0
41
1
10
40.1257546726645
20
0.142572817131281
30
0
41
1
10
40.0628551895142
20
0.178790192459928
30
0
41
1
10
40.0314315772087
20
0.196928839424913
30
0
41
1
10
40.0000000576556
20
0.215053700166976
30
0
0
SPLINE
5
15B
100
AcDbEntity
8
1
62
256
6
ByLayer
370
18
48
1
60
0
100
AcDbSpline
70
4
71
3
72
9
73
5
40
0
40
0
40
0
40
0
40
0.407010047747926
40
1
40
1
40
1
40
1
41
1
10
40.7542878252688
20
-0.207588270934764
30
0
41
1
10
40.7630935204053
20
-0.212245186739352
30
0
41
1
10
40.7846753952357
20
-0.223598831145921
30
0
41
1
10
40.8062109576312
20
-0.234799364683141
30
0
41
1
10
40.8189623790816
20
-0.241386191396657
30
0
0
SPLINE
5
15C
100
AcDbEntity
8
1
62
256
6
ByLayer
370
18
48
1
60
0
100
AcDbSpline
70
4
71
3
72
8
73
4
40
0
40
0
40
0
40
0
40
1
40
1
40
1
40
1
41
1
10
40.8189623790817
20
-0.241386191396742
30
0
41
1
10
40.8392800867506
20
-0.248934565694412
30
0
41
1
10
40.8591543086468
20
-0.257599268954039
30
0
41
1
10
40.8785739591279
20
-0.267406363828968
30
0
0
SPLINE
5
15D
100
AcDbEntity
8
1
62
256
6
ByLayer
370
18
48
1
60
0
100
AcDbSpline
70
4
71
3
72
10
73
6
40
0
40
0
40
0
40
0
40
0.5
40
0.5
40
1
40
1
40
1
40
1
41
1
10
41.4437825723902
20
-0.527163758472483
30
0
41
1
10
41.3501558865273
20
-0.489196220671602
30
0
41
1
10
41.2563840377116
20
-0.448211589605592
30
0
41
1
10
41.0681025277472
20
-0.361311966112567
30
0
41
1
10
40.9735929403078
20
-0.315391787885318
30
0
41
1
10
40.8785739591243
20
-0.267406363827177
30
0
0
SPLINE
5
15E
100
AcDbEntity
8
1
62
256
6
ByLayer
370
18
48
1
60
0
100
AcDbSpline
70
4
71
3
72
10
73
6
40
0
40
0
40
0
40
0
40
0.5
40
0.5
40
1
40
1
40
1
40
1
41
1
10
42.2871154224286
20
-0.787603163501529
30
0
41
1
10
42.1547986954533
20
-0.760125711369056
30
0
41
1
10
42.0177616359446
20
-0.724903116570147
30
0
41
1
10
41.7361184281929
20
-0.638395073545524
30
0
41
1
10
41.5914711123852
20
-0.587058274916416
30
0
41
1
10
41.4437825723909
20
-0.527163758472739
30
0
0
SPLINE
5
15F
100
AcDbEntity
8
1
62
256
6
ByLayer
370
18
48
1
60
0
100
AcDbSpline
70
4
71
3
72
27
73
23
40
0
40
0
40
0
40
0
40
0.0625
40
0.0625
40
0.125
40
0.125
40
0.250000000000006
40
0.250000000000006
40
0.312500000000005
40
0.312500000000005
40
0.375000000000005
40
0.375000000000005
40
0.500000000000003
40
0.500000000000003
40
0.625000000000002
40
0.625000000000002
40
0.687500000000002
40
0.687500000000002
40
0.750000000000001
40
0.750000000000001
40
0.875000000000001
40
1
40
1
40
1
40
1
41
1
10
43.7978252405089
20
-0.57896065316325
30
0
41
1
10
43.7807211530983
20
-0.596269260162444
30
0
41
1
10
43.7625124197949
20
-0.612863883209371
30
0
41
1
10
43.7240092870962
20
-0.644493988561948
30
0
41
1
10
43.7037513111608
20
-0.659504497677261
30
0
41
1
10
43.6400128176047
20
-0.702151825599657
30
0
41
1
10
43.593576976325
20
-0.72741024016986
30
0
41
1
10
43.5179238167805
20
-0.760521448992904
30
0
41
1
10
43.4916918809097
20
-0.770760613922249
30
0
41
1
10
43.437651077436
20
-0.789494586791534
30
0
41
1
10
43.4097930016624
20
-0.798012405969786
30
0
41
1
10
43.3237410282484
20
-0.82106273329029
30
0
41
1
10
43.2630732713784
20
-0.833096301252681
30
0
41
1
10
43.1352332717474
20
-0.850614096473407
30
0
41
1
10
43.0680673135683
20
-0.856102143081017
30
0
41
1
10
42.9623859042487
20
-0.859382066509369
30
0
41
1
10
42.9263343618307
20
-0.859648217238401
30
0
41
1
10
42.8525533984343
20
-0.858498905602687
30
0
41
1
10
42.8147451296248
20
-0.857077022506644
30
0
41
1
10
42.6996077694779
20
-0.85028957884316
30
0
41
1
10
42.5412746954169
20
-0.83455218843136
30
0
41
1
10
42.3734384198044
20
-0.805523458026897
30
0
41
1
10
42.2871154224291
20
-0.787603163501615
30
0
0
SPLINE
5
160
100
AcDbEntity
8
1
62
256
6
ByLayer
370
18
48
1
60
0
100
AcDbSpline
70
4
71
3
72
8
73
4
40
0
40
0
40
0
40
0
40
1
40
1
40
1
40
1
41
1
10
40.8165394248909
20
3.33798089266989
30
0
41
1
10
40.8173455048086
20
3.3376773545221
30
0
41
1
10
40.8181510076002
20
3.33737266453619
30
0
41
1
10
40.8189559345964
20
3.337066824489
30
0
0
SPLINE
5
161
100
AcDbEntity
8
1
62
256
6
ByLayer
370
18
48
1
60
0
100
AcDbSpline
70
4
71
3
72
12
73
8
40
0
40
0
40
0
40
0
40
0.25
40
0.25
40
0.499999999999999
40
0.499999999999999
40
1
40
1
40
1
40
1
41
1
10
40.9005344497786
20
3.27791227753349
30
0
41
1
10
40.8929080260535
20
3.28182758560311
30
0
41
1
10
40.8855768043074
20
3.2862600314719
30
0
41
1
10
40.8711989312732
20
3.29561928577309
30
0
41
1
10
40.8641613492233
20
3.30056209446093
30
0
41
1
10
40.8433364178955
20
3.31588637211419
30
0
41
1
10
40.8298322664421
20
3.32675552769058
30
0
41
1
10
40.8165394248909
20
3.33798089266989
30
0
0
SPLINE
5
162
100
AcDbEntity
8
1
62
256
6
ByLayer
370
18
48
1
60
0
100
AcDbSpline
70
4
71
3
72
8
73
4
40
0
40
0
40
0
40
0
40
1
40
1
40
1
40
1
41
1
10
40.8165394248909
20
3.33798089266989
30
0
41
1
10
40.7957999670882
20
3.34751212905266
30
0
41
1
10
40.7750510048695
20
3.35690132695444
30
0
41
1
10
40.7542878278172
20
3.36612906233637
30
0
0
SPLINE
5
163
100
AcDbEntity
8
1
62
256
6
ByLayer
370
18
48
1
60
0
100
AcDbSpline
70
4
71
3
72
30
73
26
40
0
40
0
40
0
40
0
40
0.0474110703529987
40
0.0474110703529987
40
0.126793481156915
40
0.126793481156915
40
0.206175891960832
40
0.206175891960832
40
0.285558302764749
40
0.285558302764749
40
0.364940713568666
40
0.364940713568666
40
0.444323124372583
40
0.444323124372583
40
0.523705535176499
40
0.523705535176499
40
0.603087945980416
40
0.603087945980416
40
0.682470356784333
40
0.682470356784333
40
0.761852767588249
40
0.761852767588249
40
0.841235178392166
40
0.841235178392166
40
1
40
1
40
1
40
1
41
1
10
33.7013225374573
20
3.5583418603747
30
0
41
1
10
33.8008872268991
20
3.58460248777425
30
0
41
1
10
33.9004688350821
20
3.60977354097918
30
0
41
1
10
34.1667327606598
20
3.67407948672769
30
0
41
1
10
34.3334931882039
20
3.71121190708718
30
0
41
1
10
34.666823334747
20
3.77891309441006
30
0
41
1
10
34.8334035578928
20
3.80948737349348
30
0
41
1
10
35.166607592541
20
3.86388660436506
30
0
41
1
10
35.3332466670333
20
3.887713335912
30
0
41
1
10
35.6667203640652
20
3.92858452559392
30
0
41
1
10
35.8333963360706
20
3.94561023151618
30
0
41
1
10
36.166844467964
20
3.97283054532022
30
0
41
1
10
36.333508929533
20
3.98301483798784
30
0
41
1
10
36.6667072706715
20
3.99651224127453
30
0
41
1
10
36.8332763650236
20
3.99982859318712
30
0
41
1
10
37.1665707446521
20
3.99955942856155
30
0
41
1
10
37.3333287202807
20
3.99596991996202
30
0
41
1
10
37.6667356074358
20
3.98184320999394
30
0
41
1
10
37.8335001015716
20
3.97130105180963
30
0
41
1
10
38.1668411393704
20
3.94324822760976
30
0
41
1
10
38.3334425071073
20
3.92573950201907
30
0
41
1
10
38.6667147662385
20
3.8839258067039
30
0
41
1
10
38.8334520158865
20
3.85960942121272
30
0
41
1
10
39.3335594688866
20
3.77674281671057
30
0
41
1
10
39.6665504563322
20
3.70834907096585
30
0
41
1
10
40
20
3.62731767716482
30
0
0
SPLINE
5
164
100
AcDbEntity
8
1
62
256
6
ByLayer
370
18
48
1
60
0
100
AcDbSpline
70
4
71
3
72
40
73
36
40
0
40
0
40
0
40
0
40
0.062499999999994
40
0.062499999999994
40
0.124999999999988
40
0.124999999999988
40
0.187499999999982
40
0.187499999999982
40
0.249999999999976
40
0.249999999999976
40
0.374999999999965
40
0.374999999999965
40
0.437499999999946
40
0.437499999999946
40
0.499999999999927
40
0.499999999999927
40
0.562499999999908
40
0.562499999999908
40
0.624999999999889
40
0.624999999999889
40
0.68749999999987
40
0.68749999999987
40
0.749999999999851
40
0.749999999999851
40
0.812499999999832
40
0.812499999999832
40
0.84374999999986
40
0.84374999999986
40
0.874999999999888
40
0.874999999999888
40
0.937499999999944
40
0.937499999999944
40
0.968749999999972
40
0.968749999999972
40
1
40
1
40
1
40
1
41
1
10
43.3023409711718
20
0.404660777536776
30
0
41
1
10
43.301964141419
20
0.406143515240984
30
0
41
1
10
43.3014292827779
20
0.408517798398662
30
0
41
1
10
43.3005830982087
20
0.414799335726769
30
0
41
1
10
43.3002672574967
20
0.418738092927811
30
0
41
1
10
43.300216786198
20
0.42789170230472
30
0
41
1
10
43.3004772386669
20
0.433067689547528
30
0
41
1
10
43.3017755871093
20
0.444464741950668
30
0
41
1
10
43.3028161127504
20
0.450708510996861
30
0
41
1
10
43.3073388696645
20
0.470778572207479
30
0
41
1
10
43.3121020459494
20
0.485497716785005
30
0
41
1
10
43.322399415905
20
0.509097722689461
30
0
41
1
10
43.326370749144
20
0.517224416225133
30
0
41
1
10
43.3352039920508
20
0.533423218858474
30
0
41
1
10
43.3400905412159
20
0.541558343077867
30
0
41
1
10
43.3508683723241
20
0.557825100190115
30
0
41
1
10
43.3568079519673
20
0.566016962901585
30
0
41
1
10
43.369568743146
20
0.581997337400708
30
0
41
1
10
43.3763531996517
20
0.589752744952023
30
0
41
1
10
43.3907912029828
20
0.604697488769062
30
0
41
1
10
43.3984437285088
20
0.61188829828572
30
0
41
1
10
43.4147529050876
20
0.625537237851063
30
0
41
1
10
43.4233362514775
20
0.631922016532684
30
0
41
1
10
43.4410999197974
20
0.643351880865822
30
0
41
1
10
43.4503311463349
20
0.648443514034255
30
0
41
1
10
43.4648293048928
20
0.654914371174726
30
0
41
1
10
43.4697713130534
20
0.656875558753484
30
0
41
1
10
43.4799056108354
20
0.660348727711181
30
0
41
1
10
43.4850746159341
20
0.661848881469069
30
0
41
1
10
43.500628872505
20
0.665513377245219
30
0
41
1
10
43.5111626714946
20
0.666872442012419
30
0
41
1
10
43.5272142598868
20
0.667203353703286
30
0
41
1
10
43.5325872619191
20
0.667025746120515
30
0
41
1
10
43.5431311399409
20
0.666157754689237
30
0
41
1
10
43.5483369488207
20
0.665469064607748
30
0
41
1
10
43.5534820394251
20
0.664563033016094
30
0
0
SPLINE
5
165
100
AcDbEntity
8
1
62
256
6
ByLayer
370
18
48
1
60
0
100
AcDbSpline
70
4
71
3
72
12
73
8
40
0
40
0
40
0
40
0
40
0.25
40
0.25
40
0.5
40
0.5
40
1
40
1
40
1
40
1
41
1
10
43.6114923487024
20
0.66149644878297
30
0
41
1
10
43.6069423791259
20
0.660299205006368
30
0
41
1
10
43.6020411963314
20
0.659965294022498
30
0
41
1
10
43.5921305177879
20
0.659870270077846
30
0
41
1
10
43.5872370912025
20
0.660149089042193
30
0
41
1
10
43.5726409950851
20
0.661429263166951
30
0
41
1
10
43.5629859616065
20
0.662889427152663
30
0
41
1
10
43.5534820394245
20
0.664563033003361
30
0
0
SPLINE
5
166
100
AcDbEntity
8
1
62
256
6
ByLayer
370
13
48
1
60
0
100
AcDbSpline
70
4
71
3
72
23
73
19
40
0
40
0
40
0
40
0
40
0.0625000000000018
40
0.0625000000000018
40
0.125000000000004
40
0.250000000000008
40
0.250000000000008
40
0.375000000000012
40
0.375000000000012
40
0.500000000000016
40
0.500000000000016
40
0.625000000000019
40
0.625000000000019
40
0.687500000000016
40
0.687500000000016
40
0.750000000000013
40
0.750000000000013
40
1
40
1
40
1
40
1
41
1
10
41.4575952785331
20
2.48693704842427
30
0
41
1
10
41.4952132184646
20
2.43757657324934
30
0
41
1
10
41.5332056840089
20
2.38871410144833
30
0
41
1
10
41.6098721255695
20
2.29230044044638
30
0
41
1
10
41.7259739692214
20
2.14954272744143
30
0
41
1
10
41.8458751274205
20
2.01279988320152
30
0
41
1
10
42.010068018701
20
1.83662413639152
30
0
41
1
10
42.0944467909284
20
1.75169661327655
30
0
41
1
10
42.2676422926041
20
1.5881035429442
30
0
41
1
10
42.356409952958
20
1.50940188482207
30
0
41
1
10
42.5379340286866
20
1.35788333917887
30
0
41
1
10
42.6306895372795
20
1.28506610026494
30
0
41
1
10
42.7726467927571
20
1.18004064725449
30
0
41
1
10
42.8204375726846
20
1.14573246023139
30
0
41
1
10
42.9169506272009
20
1.07848169385537
30
0
41
1
10
42.9656900531652
20
1.04553131981643
30
0
41
1
10
43.210272875022
20
0.885022475483794
30
0
41
1
10
43.4099445720951
20
0.769370107164292
30
0
41
1
10
43.6114923487144
20
0.661496448776632
30
0
0
SPLINE
5
167
100
AcDbEntity
8
1
62
256
6
ByLayer
370
18
48
1
60
0
100
AcDbSpline
70
4
71
3
72
8
73
4
40
0
40
0
40
0
40
0
40
1
40
1
40
1
40
1
41
1
10
43.6114923487146
20
0.661496448776433
30
0
41
1
10
43.6575454547299
20
0.673614506632504
30
0
41
1
10
43.7036531018053
20
0.68566275428563
30
0
41
1
10
43.749803647898
20
0.697656093048295
30
0
0
SPLINE
5
168
100
AcDbEntity
8
1
62
256
6
ByLayer
370
18
48
1
60
0
100
AcDbSpline
70
4
71
3
72
8
73
4
40
0
40
0
40
0
40
0
40
1
40
1
40
1
40
1
41
1
10
43.7498036478981
20
0.697656093048238
30
0
41
1
10
43.7598893623832
20
0.713865568489553
30
0
41
1
10
43.7699365752813
20
0.730156338314316
30
0
41
1
10
43.7799465892372
20
0.746525652046216
30
0
0
SPLINE
5
169
100
AcDbEntity
8
1
62
256
6
ByLayer
370
13
48
1
60
0
100
AcDbSpline
70
4
71
3
72
8
73
4
40
0
40
0
40
0
40
0
40
1
40
1
40
1
40
1
41
1
10
40.8785738175987
20
3.31101055603025
30
0
41
1
10
40.8858866477925
20
3.29997111107156
30
0
41
1
10
40.8932067341756
20
3.28893824264381
30
0
41
1
10
40.9005344497879
20
3.27791227751956
30
0
0
SPLINE
5
16A
100
AcDbEntity
8
1
62
256
6
ByLayer
370
18
48
1
60
0
100
AcDbSpline
70
4
71
3
72
12
73
8
40
0
40
0
40
0
40
0
40
0.249999999999983
40
0.249999999999983
40
0.499999999999965
40
0.499999999999965
40
1
40
1
40
1
40
1
41
1
10
40.9005344497894
20
3.27791227752792
30
0
41
1
10
40.9369229940721
20
3.25923086587184
30
0
41
1
10
40.973331511916
20
3.24007129788899
30
0
41
1
10
41.0462123902229
20
3.20079609201366
30
0
41
1
10
41.0826708933659
20
3.18068641155475
30
0
41
1
10
41.191617984291
20
3.11922435218534
30
0
41
1
10
41.2638601118985
20
3.07664923439219
30
0
41
1
10
41.3357550077909
20
3.03242974312087
30
0
0
SPLINE
5
16B
100
AcDbEntity
8
1
62
256
6
ByLayer
370
18
48
1
60
0
100
AcDbSpline
70
4
71
3
72
12
73
8
40
0
40
0
40
0
40
0
40
0.260016097801009
40
0.260016097801009
40
0.520032192080207
40
0.520032192080207
40
1
40
1
40
1
40
1
41
1
10
43.6822692732355
20
1.03084484296511
30
0
41
1
10
43.6907076870584
20
1.00617521646595
30
0
41
1
10
43.6991534652158
20
0.981512817683267
30
0
41
1
10
43.7160593988878
20
0.93220220108131
30
0
41
1
10
43.7245195574437
20
0.907553974764681
30
0
41
1
10
43.748616430953
20
0.8374269899723
30
0
41
1
10
43.7642700590148
20
0.79196491560225
30
0
41
1
10
43.7799465892372
20
0.746525652046245
30
0
0
SPLINE
5
16C
100
AcDbEntity
8
1
62
256
6
ByLayer
370
18
48
1
60
0
100
AcDbSpline
70
4
71
3
72
16
73
12
40
0
40
0
40
0
40
0
40
0.25
40
0.25
40
0.5
40
0.5
40
0.75
40
0.75
40
0.875
40
0.875
40
1
40
1
40
1
40
1
41
1
10
40.7542878278221
20
3.36612906233421
30
0
41
1
10
40.691390581734
20
3.39404715488638
30
0
41
1
10
40.6285723805123
20
3.42061650323529
30
0
41
1
10
40.5029817619814
20
3.47091234048256
30
0
41
1
10
40.4402083108981
20
3.4945986781166
30
0
41
1
10
40.3145728322678
20
3.5386609876706
30
0
41
1
10
40.2517110037022
20
3.55903795016917
30
0
41
1
10
40.1572387701665
20
3.58678306678635
30
0
41
1
10
40.1257544676432
20
3.59555038935281
30
0
41
1
10
40.0628549688694
20
3.61203851757401
30
0
41
1
10
40.0314313503352
20
3.61968176495384
30
0
41
1
10
39.9999998245136
20
3.62731646773932
30
0
0
SPLINE
5
16D
100
AcDbEntity
8
1
62
256
6
ByLayer
370
18
48
1
60
0
100
AcDbSpline
70
4
71
3
72
9
73
5
40
0
40
0
40
0
40
0
40
0.407050689244449
40
1
40
1
40
1
40
1
41
1
10
40.7542878278195
20
3.36612906233535
30
0
41
1
10
40.7630935221311
20
3.362230117466
30
0
41
1
10
40.7846732401312
20
3.35261214376541
30
0
41
1
10
40.8062066549526
20
3.34287801076573
30
0
41
1
10
40.8189559345964
20
3.337066824489
30
0
0
SPLINE
5
16E
100
AcDbEntity
8
1
62
256
6
ByLayer
370
18
48
1
60
0
100
AcDbSpline
70
4
71
3
72
8
73
4
40
0
40
0
40
0
40
0
40
1
40
1
40
1
40
1
41
1
10
40.8189559345964
20
3.337066824489
30
0
41
1
10
40.8392758259495
20
3.32876226891156
30
0
41
1
10
40.8591521495651
20
3.3200806004468
30
0
41
1
10
40.8785738175992
20
3.31101055602636
30
0
0
SPLINE
5
16F
100
AcDbEntity
8
1
62
256
6
ByLayer
370
18
48
1
60
0
100
AcDbSpline
70
4
71
3
72
10
73
6
40
0
40
0
40
0
40
0
40
0.5
40
0.5
40
1
40
1
40
1
40
1
41
1
10
41.443924176028
20
3.01298468673869
30
0
41
1
10
41.3502744488846
20
3.06776537296835
30
0
41
1
10
41.2564793766512
20
3.12010510202961
30
0
41
1
10
41.0681507292334
20
3.219536455709
30
0
41
1
10
40.9736172134889
20
3.26662467624087
30
0
41
1
10
40.8785738175956
20
3.31101055602801
30
0
0
SPLINE
5
170
100
AcDbEntity
8
1
62
256
6
ByLayer
370
18
48
1
60
0
100
AcDbSpline
70
4
71
3
72
10
73
6
40
0
40
0
40
0
40
0
40
0.5
40
0.5
40
1
40
1
40
1
40
1
41
1
10
42.2869603410489
20
2.44312125867944
30
0
41
1
10
42.1546868635024
20
2.5459065533629
30
0
41
1
10
42.0176968840173
20
2.64541403328377
30
0
41
1
10
41.7361531737885
20
2.83598867871041
30
0
41
1
10
41.5915583481789
20
2.92705939710484
30
0
41
1
10
41.4439241760288
20
3.01298468673824
30
0
0
SPLINE
5
171
100
AcDbEntity
8
1
62
256
6
ByLayer
370
18
48
1
60
0
100
AcDbSpline
70
4
71
3
72
27
73
23
40
0
40
0
40
0
40
0
40
0.0624999999999972
40
0.0624999999999972
40
0.124999999999994
40
0.124999999999994
40
0.249999999999982
40
0.249999999999982
40
0.31249999999998
40
0.31249999999998
40
0.374999999999978
40
0.374999999999978
40
0.499999999999983
40
0.499999999999983
40
0.624999999999987
40
0.624999999999987
40
0.687499999999989
40
0.687499999999989
40
0.749999999999991
40
0.749999999999991
40
0.874999999999996
40
1
40
1
40
1
40
1
41
1
10
43.7799465892372
20
0.746525652046245
30
0
41
1
10
43.7624813611362
20
0.781462129125572
30
0
41
1
10
43.7439528849146
20
0.816734776284278
30
0
41
1
10
43.7050110692767
20
0.887517108175928
30
0
41
1
10
43.6845826159011
20
0.923062565446571
30
0
41
1
10
43.6204663419449
20
1.0301631169655
30
0
41
1
10
43.5739392965854
20
1.10217773643146
30
0
41
1
10
43.4983857672606
20
1.21110604209375
30
0
41
1
10
43.4723266378089
20
1.2474405847322
30
0
41
1
10
43.418664615666
20
1.31991010992553
30
0
41
1
10
43.3910341029026
20
1.3560839042969
30
0
41
1
10
43.3057746918245
20
1.46442071013519
30
0
41
1
10
43.2457815018697
20
1.5363994288208
30
0
41
1
10
43.1195658021617
20
1.67986074544117
30
0
41
1
10
43.0533496653588
20
1.75134547499454
30
0
41
1
10
42.9492891787517
20
1.85818692797324
30
0
41
1
10
42.9138110472281
20
1.89373612955541
30
0
41
1
10
42.8412438377154
20
1.96470220572615
30
0
41
1
10
42.8040966802888
20
2.00017050233728
30
0
41
1
10
42.6910998467146
20
2.1055340586926
30
0
41
1
10
42.5358279878175
20
2.24372199458989
30
0
41
1
10
42.3714521572311
20
2.37740561991848
30
0
41
1
10
42.2869603410514
20
2.44312125867748
30
0
0
SPLINE
5
172
100
AcDbEntity
8
1
62
256
6
ByLayer
370
18
48
1
60
0
100
AcDbSpline
70
4
71
3
72
36
73
32
40
0
40
0
40
0
40
0
40
0.124999999999968
40
0.124999999999968
40
0.249999999999937
40
0.249999999999937
40
0.312499999999932
40
0.312499999999932
40
0.374999999999927
40
0.374999999999927
40
0.499999999999932
40
0.499999999999932
40
0.624999999999938
40
0.624999999999938
40
0.749999999999944
40
0.749999999999944
40
0.812499999999949
40
0.812499999999949
40
0.874999999999954
40
0.874999999999954
40
0.906249999999956
40
0.906249999999956
40
0.937499999999959
40
0.937499999999959
40
0.953124999999969
40
0.953124999999969
40
0.968749999999979
40
0.968749999999979
40
0.98437499999999
40
0.98437499999999
40
1
40
1
40
1
40
1
41
1
10
41.6525406515587
20
1.71431467984135
30
0
41
1
10
41.6276531964058
20
1.73925156721515
30
0
41
1
10
41.6049847834897
20
1.76584877866847
30
0
41
1
10
41.5635225885467
20
1.82218830667341
30
0
41
1
10
41.5447345959177
20
1.8519345952993
30
0
41
1
10
41.5191976938593
20
1.89892044465873
30
0
41
1
10
41.5111732375245
20
1.9148982391483
30
0
41
1
10
41.4961292914387
20
1.9472435731719
30
0
41
1
10
41.489091192479
20
1.9636450174572
30
0
41
1
10
41.469312710258
20
2.0135117736009
30
0
41
1
10
41.4578996022551
20
2.04763596871928
30
0
41
1
10
41.4381839153486
20
2.1175875109578
30
0
41
1
10
41.4298563583264
20
2.15356957474597
30
0
41
1
10
41.4165228643114
20
2.22561939648048
30
0
41
1
10
41.4114064020206
20
2.26184716084762
30
0
41
1
10
41.4067300447762
20
2.31658307560599
30
0
41
1
10
41.4056803102032
20
2.33493482506151
30
0
41
1
10
41.4051284975187
20
2.37136393439923
30
0
41
1
10
41.4055861396953
20
2.38954723568378
30
0
41
1
10
41.4084632336248
20
2.41612302701998
30
0
41
1
10
41.4097913110713
20
2.42487734922668
30
0
41
1
10
41.413715077518
20
2.44206221456682
30
0
41
1
10
41.4162764402918
20
2.45041427673593
30
0
41
1
10
41.4218009226355
20
2.46203013978379
30
0
41
1
10
41.423898094106
20
2.46567687530438
30
0
41
1
10
41.4287823785147
20
2.47237757383493
30
0
41
1
10
41.4316147804414
20
2.47546857654362
30
0
41
1
10
41.4380227376006
20
2.48064978119743
30
0
41
1
10
41.4415475162229
20
2.48271403607467
30
0
41
1
10
41.4492993793482
20
2.48571216299717
30
0
41
1
10
41.4533715554287
20
2.48658658001477
30
0
41
1
10
41.4575952785581
20
2.48693704839161
30
0
0
SPLINE
5
173
100
AcDbEntity
8
1
62
256
6
ByLayer
370
18
48
1
60
0
100
AcDbSpline
70
4
71
3
72
48
73
44
40
0
40
0
40
0
40
0
40
0.124999999999952
40
0.124999999999952
40
0.187499999999928
40
0.187499999999928
40
0.249999999999904
40
0.249999999999904
40
0.374999999999822
40
0.374999999999822
40
0.406249999999809
40
0.406249999999809
40
0.437499999999797
40
0.437499999999797
40
0.499999999999798
40
0.499999999999798
40
0.531249999999798
40
0.531249999999798
40
0.562499999999798
40
0.562499999999798
40
0.593749999999799
40
0.593749999999799
40
0.624999999999799
40
0.624999999999799
40
0.656249999999799
40
0.656249999999799
40
0.671874999999799
40
0.671874999999799
40
0.687499999999799
40
0.687499999999799
40
0.718749999999819
40
0.718749999999819
40
0.74999999999984
40
0.74999999999984
40
0.78124999999986
40
0.78124999999986
40
0.812499999999881
40
0.812499999999881
40
0.87499999999992
40
0.87499999999992
40
0.93749999999996
40
0.93749999999996
40
1
40
1
40
1
40
1
41
1
10
41.3357550077903
20
3.03242974312101
30
0
41
1
10
41.3687508641648
20
3.01213557721277
30
0
41
1
10
41.4012620765857
20
2.99099229885292
30
0
41
1
10
41.4490223461515
20
2.95754267661968
30
0
41
1
10
41.4647744594913
20
2.94610350860373
30
0
41
1
10
41.4958775283449
20
2.92254064188157
30
0
41
1
10
41.5112475428144
20
2.91039979631202
30
0
41
1
10
41.5561887006943
20
2.87307611064378
30
0
41
1
10
41.5847773519616
20
2.84695896267243
30
0
41
1
10
41.6176531211776
20
2.81169685581162
30
0
41
1
10
41.6240803223507
20
2.80450903084514
30
0
41
1
10
41.6365814115065
20
2.78980890026935
30
0
41
1
10
41.6426762469455
20
2.78226947025232
30
0
41
1
10
41.6601597823289
20
2.75924904277596
30
0
41
1
10
41.6706709649405
20
2.74351375756163
30
0
41
1
10
41.6839919082354
20
2.71905365355764
30
0
41
1
10
41.6880204300382
20
2.71075588834915
30
0
41
1
10
41.6950382492354
20
2.69379107437538
30
0
41
1
10
41.698039837589
20
2.68505267254764
30
0
41
1
10
41.7025368240077
20
2.66770340009236
30
0
41
1
10
41.7040608284996
20
2.6590472265799
30
0
41
1
10
41.7054166948055
20
2.64177128774173
30
0
41
1
10
41.7052208942536
20
2.63313564555119
30
0
41
1
10
41.7029992518041
20
2.61666711842472
30
0
41
1
10
41.7009886744566
20
2.60873728802102
30
0
41
1
10
41.6966217342772
20
2.59729677530436
30
0
41
1
10
41.6949332999845
20
2.59354994263623
30
0
41
1
10
41.6911891857647
20
2.58635450433175
30
0
41
1
10
41.6891276267486
20
2.58288640943047
30
0
41
1
10
41.6824189111226
20
2.572840464031
30
0
41
1
10
41.6772329444617
20
2.5666032883309
30
0
41
1
10
41.6657208603897
20
2.55502694771295
30
0
41
1
10
41.65949635064
20
2.54977953246234
30
0
41
1
10
41.6463105286062
20
2.54013863717827
30
0
41
1
10
41.6393479348196
20
2.5357466527164
30
0
41
1
10
41.6248164739099
20
2.52766995168727
30
0
41
1
10
41.6172145039485
20
2.52397281871964
30
0
41
1
10
41.5939065733275
20
2.51389921291545
30
0
41
1
10
41.5777447734109
20
2.50851837794394
30
0
41
1
10
41.5445839102499
20
2.49960473223734
30
0
41
1
10
41.5275794003016
20
2.49608325016459
30
0
41
1
10
41.4929425300891
20
2.49048028957392
30
0
41
1
10
41.475276623362
20
2.48840417869832
30
0
41
1
10
41.4575952785389
20
2.48693704838959
30
0
0
SPLINE
5
174
100
AcDbEntity
8
1
62
256
6
ByLayer
370
13
48
1
60
0
100
AcDbSpline
70
4
71
3
72
12
73
8
40
0
40
0
40
0
40
0
40
0.0478449049710956
40
0.368468674348205
40
0.689092443725315
40
0.902841623310054
40
1
40
1
40
1
40
1
41
1
10
41.3357550077903
20
3.03242974312101
30
0
41
1
10
41.2238366718602
20
3.06733068729619
30
0
41
1
10
40.3619183359301
20
3.32697991549017
30
0
41
1
10
38.75
20
3.67573259496507
30
0
41
0.999999999999999
10
36.75
20
3.76406092794093
30
0
41
1
10
35.2727280711002
20
3.61603360004844
30
0
41
1
10
34.5454561422004
20
3.48341900456791
30
0
41
1
10
34.3181842133006
20
3.43643398046214
30
0
0
SPLINE
5
175
100
AcDbEntity
8
1
62
256
6
ByLayer
370
18
48
1
60
0
100
AcDbSpline
70
4
71
3
72
32
73
28
40
0
40
0
40
0
40
0
40
0.0807216452783588
40
0.0807216452783588
40
0.161443290556718
40
0.161443290556718
40
0.242164935835077
40
0.242164935835077
40
0.322886581113435
40
0.322886581113435
40
0.403608226391794
40
0.403608226391794
40
0.484329871670153
40
0.484329871670153
40
0.565051516948512
40
0.565051516948512
40
0.645773162226871
40
0.645773162226871
40
0.726494807505229
40
0.726494807505229
40
0.807216452783588
40
0.807216452783588
40
0.887938098061947
40
0.887938098061947
40
0.968659743340306
40
0.968659743340306
40
1
40
1
40
1
40
1
41
1
10
32
20
-3.09804751794579
30
0
41
1
10
32.1667343512001
20
-3.15893839148492
30
0
41
1
10
32.333407579319
20
-3.21707000854053
30
0
41
1
10
32.6668453631531
20
-3.32766610703382
30
0
41
1
10
32.8335265400571
20
-3.38010120657833
30
0
41
1
10
33.1667284249164
20
-3.47900584668022
30
0
41
1
10
33.3332946572596
20
-3.5254907440698
30
0
41
1
10
33.6665741294763
20
-3.61235594135849
30
0
41
1
10
33.8333296761341
20
-3.65274384762824
30
0
41
1
10
34.1667328252458
20
-3.72711412701079
30
0
41
1
10
34.3334932577689
20
-3.76112179036795
30
0
41
1
10
34.6668234141952
20
-3.82249589216366
30
0
41
1
10
34.8334036422934
20
-3.84986768645351
30
0
41
1
10
35.1666076868872
20
-3.89779556917665
30
0
41
1
10
35.3332467664425
20
-3.91835313418022
30
0
41
1
10
35.6667204733615
20
-3.95263424060465
30
0
41
1
10
35.8333964503296
20
-3.96634217309221
30
0
41
1
10
36.1668445922057
20
-3.98689479708756
30
0
41
1
10
36.3335090586395
20
-3.99373132254692
30
0
41
1
10
36.6667074096754
20
-4.00052310482243
30
0
41
1
10
36.8332765090031
20
-4.0004808634248
30
0
41
1
10
37.1665708986572
20
-3.9934960125091
30
0
41
1
10
37.3333288792573
20
-3.98654875398165
30
0
41
1
10
37.6667357763508
20
-3.96573140162454
30
0
41
1
10
37.8335002754687
20
-3.95185403728277
30
0
41
1
10
38.0648807909601
20
-3.92778296912323
30
0
41
1
10
38.1295803588769
20
-3.92052944065398
30
0
41
1
10
38.1942755844899
20
-3.91275958423498
30
0
0
SPLINE
5
176
100
AcDbEntity
8
1
62
256
6
ByLayer
370
18
48
1
60
0
100
AcDbSpline
70
4
71
3
72
10
73
6
40
0
40
0
40
0
40
0
40
0.865333353163176
40
0.865333353163176
40
1
40
1
40
1
40
1
41
1
10
31.5098393263533
20
3.98031711333914
30
0
41
1
10
31.3377315382967
20
3.99091333194588
30
0
41
1
10
31.1684858957177
20
3.99759287548269
30
0
41
1
10
30.9767842217049
20
3.9997558337266
30
0
41
1
10
30.951049758489
20
3.99993093762396
30
0
41
1
10
30.9253988688995
20
3.9999849288636
30
0
0
SPLINE
5
177
100
AcDbEntity
8
1
62
256
6
ByLayer
370
18
48
1
60
0
100
AcDbSpline
70
4
71
3
72
36
73
32
40
0
40
0
40
0
40
0
40
0.0625
40
0.0625
40
0.125
40
0.125
40
0.1875
40
0.1875
40
0.25
40
0.25
40
0.3125
40
0.3125
40
0.375
40
0.375
40
0.4375
40
0.4375
40
0.5
40
0.5
40
0.5625
40
0.5625
40
0.625
40
0.625
40
0.6875
40
0.6875
40
0.75
40
0.75
40
0.8125
40
0.8125
40
0.875
40
0.875
40
1
40
1
40
1
40
1
41
1
10
32.0000000000001
20
3.74027367224434
30
0
41
1
10
32.1667343512001
20
3.7061425047788
30
0
41
1
10
32.333407579319
20
3.66872851912464
30
0
41
1
10
32.6668453631532
20
3.58756453523728
30
0
41
1
10
32.8335265400571
20
3.54383297324497
30
0
41
1
10
33.1667284249165
20
3.45038089181017
30
0
41
1
10
33.3332946572597
20
3.40064934076051
30
0
41
1
10
33.6665741294763
20
3.29538062389005
30
0
41
1
10
33.8333296761341
20
3.23982687998407
30
0
41
1
10
34.1667328252458
20
3.12326174282484
30
0
41
1
10
34.3334932577689
20
3.06221114739614
30
0
41
1
10
34.6668234141952
20
2.93496482236478
30
0
41
1
10
34.8334036422934
20
2.86876781167905
30
0
41
1
10
35.1666076868872
20
2.73142180478436
30
0
41
1
10
35.3332467664425
20
2.66026600030634
30
0
41
1
10
35.6667204733615
20
2.51335652521277
30
0
41
1
10
35.8333964503296
20
2.43767328552755
30
0
41
1
10
36.1668445922058
20
2.28218132244035
30
0
41
1
10
36.3335090586395
20
2.20242197088101
30
0
41
1
10
36.6667074096754
20
2.0393163671134
30
0
41
1
10
36.8332765090031
20
1.95595297735306
30
0
41
1
10
37.1665708986572
20
1.78591756447125
30
0
41
1
10
37.3333288792573
20
1.69922698506681
30
0
41
1
10
37.6667357763507
20
1.5231059024334
30
0
41
1
10
37.8335002754687
20
1.43361445994756
30
0
41
1
10
38.1668413231005
20
1.25239041092507
30
0
41
1
10
38.3334426957892
20
1.16064818077851
30
0
41
1
10
38.6667149649041
20
0.975277298689889
30
0
41
1
10
38.8334522196584
20
0.881607304036294
30
0
41
1
10
39.3335596873045
20
0.598568268971263
30
0
41
1
10
39.6665504463954
20
0.407333113416939
30
0
41
1
10
40
20
0.215053632580464
30
0
0
SPLINE
5
178
100
AcDbEntity
8
1
62
256
6
ByLayer
370
18
48
1
60
0
100
AcDbSpline
70
4
71
3
72
36
73
32
40
0
40
0
40
0
40
0
40
0.0625000000000002
40
0.0625000000000002
40
0.125000000000001
40
0.125000000000001
40
0.187500000000001
40
0.187500000000001
40
0.250000000000001
40
0.250000000000001
40
0.312500000000001
40
0.312500000000001
40
0.375000000000002
40
0.375000000000002
40
0.437500000000002
40
0.437500000000002
40
0.500000000000002
40
0.500000000000002
40
0.562500000000002
40
0.562500000000002
40
0.625000000000002
40
0.625000000000002
40
0.687500000000003
40
0.687500000000003
40
0.750000000000003
40
0.750000000000003
40
0.812500000000003
40
0.812500000000003
40
0.875000000000003
40
0.875000000000003
40
1
40
1
40
1
40
1
41
1
10
32.0000000000001
20
0.779621860046319
30
0
41
1
10
32.1667343457561
20
0.68519689456005
30
0
41
1
10
32.333407568435
20
0.590126943173999
30
0
41
1
10
32.6668453413762
20
0.399076716709146
30
0
41
1
10
32.8335265128545
20
0.303144010072884
30
0
41
1
10
33.1667283868437
20
0.111014338245496
30
0
41
1
10
33.3332946137472
20
0.0147910878375228
30
0
41
1
10
33.6665740750536
20
-0.177596594083383
30
0
41
1
10
33.833329616262
20
-0.273785376105025
30
0
41
1
10
34.1667327544904
20
-0.46545466791838
30
0
41
1
10
34.3334931815589
20
-0.560999911145814
30
0
41
1
10
34.6668233271579
20
-0.750832704542717
30
0
41
1
10
34.8334035498306
20
-0.845126805469704
30
0
41
1
10
35.1666075835288
20
-1.0320895324646
30
0
41
1
10
35.3332466575374
20
-1.12476654570841
30
0
41
1
10
35.6667203536249
20
-1.30811612116432
30
0
41
1
10
35.8333963251563
20
-1.39870159121966
30
0
41
1
10
36.166844456096
20
-1.57735785647114
30
0
41
1
10
36.3335089172002
20
-1.66537031865121
30
0
41
1
10
36.6667072573932
20
-1.83831380767648
30
0
41
1
10
36.83327635127
20
-1.9232647568285
30
0
41
1
10
37.1665707299408
20
-2.08978281225592
30
0
41
1
10
37.3333287050944
20
-2.17136428494518
30
0
41
1
10
37.6667355913002
20
-2.33054156458323
30
0
41
1
10
37.8335000849601
20
-2.40819238195195
30
0
41
1
10
38.1668411218194
20
-2.55899915798727
30
0
41
1
10
38.3334424890832
20
-2.63216641949776
30
0
41
1
10
38.6667147472606
20
-2.77382359509252
30
0
41
1
10
38.8334519964208
20
-2.84234309493746
30
0
41
1
10
39.3335594480218
20
-3.04036630856561
30
0
41
1
10
39.6665504572815
20
-3.16224606456476
30
0
41
1
10
40
20
-3.27301185784538
30
0
0
SPLINE
5
179
100
AcDbEntity
8
1
62
256
6
ByLayer
370
18
48
1
60
0
100
AcDbSpline
70
4
71
1
72
4
73
2
40
0
40
0
40
1
40
1
41
1
10
31.8011253713904
20
-3.8784233944653
30
0
41
1
10
31.8203189488291
20
-3.87211359672688
30
0
0
SPLINE
5
17A
100
AcDbEntity
8
1
62
256
6
ByLayer
370
18
48
1
60
0
100
AcDbSpline
70
4
71
3
72
13
73
9
40
0
40
0
40
0
40
0
40
0.214140779186865
40
0.376790683901168
40
0.489157156986745
40
0.613358262342592
40
0.783639268063782
40
1
40
1
40
1
40
1
41
1
10
38.6588795906541
20
2.08237713553689
30
0
41
1
10
38.496187980543
20
2.11776936323562
30
0
41
1
10
38.2115141453689
20
2.18498837678698
30
0
41
1
10
37.8429041874252
20
2.28457140682994
30
0
41
1
10
37.5479194564849
20
2.37116140923644
30
0
41
1
10
37.2470351100051
20
2.46531601653174
30
0
41
1
10
36.8659037290265
20
2.59372161964478
30
0
41
1
10
36.5769926934561
20
2.69983384554249
30
0
41
1
10
36.4149069106479
20
2.76212257206902
30
0
0
SPLINE
5
17B
100
AcDbEntity
8
1
62
256
6
ByLayer
370
18
48
1
60
0
100
AcDbSpline
70
4
71
1
72
4
73
2
40
0
40
0
40
1
40
1
41
1
10
41.317306438976
20
-0.474154727328624
30
0
41
1
10
41.333451192353
20
-0.481091316610531
30
0
0
LINE
5
79
100
AcDbEntity
8
81
62
256
6
ByLayer
370
18
48
1
60
0
100
AcDbLine
10
44.05
20
0
30
0
11
49.05
21
0
31
0
39
0
210
0
220
0
230
1
0
LINE
5
7A
100
AcDbEntity
8
SK4
62
256
6
ByLayer
370
18
48
0.05
60
0
100
AcDbLine
10
-36
20
0
30
0
11
44.05
21
0
31
0
39
0
210
0
220
0
230
1
0
LINE
5
7C
100
AcDbEntity
8
80
62
256
6
ByLayer
370
18
48
1
60
0
100
AcDbLine
10
0
20
0
30
0
11
-5
21
0
31
0
39
0
210
0
220
0
230
1
0
LINE
5
7D
100
AcDbEntity
8
4
62
256
6
ByLayer
370
18
48
0.05
60
0
100
AcDbLine
10
0
20
0
30
0
11
44.05
21
0
31
0
39
0
210
0
220
0
230
1
0
LINE
5
7F
100
AcDbEntity
8
1
62
256
6
ByLayer
370
18
48
1
60
0
100
AcDbLine
10
0
20
4
30
0
11
0
21
0
31
0
39
0
210
0
220
0
230
1
0
LINE
5
80
100
AcDbEntity
8
1
62
256
6
ByLayer
370
18
48
1
60
0
100
AcDbLine
10
0
20
0
30
0
11
0
21
-4
31
0
39
0
210
0
220
0
230
1
0
LINE
5
81
100
AcDbEntity
8
1
62
256
6
ByLayer
370
18
48
1
60
0
100
AcDbLine
10
43.999421
20
-0.029962
30
0
11
43.984938
21
-0.030255
31
0
39
0
210
0
220
0
230
1
0
LINE
5
82
100
AcDbEntity
8
1
62
256
6
ByLayer
370
18
48
1
60
0
100
AcDbLine
10
43.999316
20
0.031453
30
0
11
43.986261
21
0.031453
31
0
39
0
210
0
220
0
230
1
0
LINE
5
83
100
AcDbEntity
8
1
62
256
6
ByLayer
370
13
48
1
60
0
100
AcDbLine
10
43.949088
20
-0.475679
30
0
11
43.918331
21
-0.493519
31
0
39
0
210
0
220
0
230
1
0
LINE
5
84
100
AcDbEntity
8
1
62
256
6
ByLayer
370
18
48
1
60
0
100
AcDbLine
10
43.986368
20
0.031157
30
0
11
43.971351
21
0.031429
31
0
39
0
210
0
220
0
230
1
0
LINE
5
85
100
AcDbEntity
8
1
62
256
6
ByLayer
370
18
48
1
60
0
100
AcDbLine
10
43.999343
20
0.036963
30
0
11
43.985692
21
0.034398
31
0
39
0
210
0
220
0
230
1
0
LINE
5
86
100
AcDbEntity
8
1
62
256
6
ByLayer
370
18
48
1
60
0
100
AcDbLine
10
43.93191
20
-0.540558
30
0
11
43.918331
21
-0.493519
31
0
39
0
210
0
220
0
230
1
0
LINE
5
87
100
AcDbEntity
8
1
62
256
6
ByLayer
370
13
48
1
60
0
100
AcDbLine
10
43.753371
20
-0.620153
30
0
11
43.831253
21
-1.060133
31
0
39
0
210
0
220
0
230
1
0
LINE
5
88
100
AcDbEntity
8
1
62
256
6
ByLayer
370
18
48
1
60
0
100
AcDbLine
10
43.603889
20
-0.675907
30
0
11
43.687457
21
-1.050976
31
0
39
0
210
0
220
0
230
1
0
LINE
5
89
100
AcDbEntity
8
1
62
256
6
ByLayer
370
13
48
1
60
0
100
AcDbLine
10
43.410924
20
-0.787833
30
0
11
43.302338
21
-0.850817
31
0
39
0
210
0
220
0
230
1
0
LINE
5
8A
100
AcDbEntity
8
1
62
256
6
ByLayer
370
18
48
1
60
0
100
AcDbLine
10
43.668767
20
0.081954
30
0
11
43.786699
21
-0.052946
31
0
39
0
210
0
220
0
230
1
0
LINE
5
8B
100
AcDbEntity
8
1
62
256
6
ByLayer
370
13
48
1
60
0
100
AcDbLine
10
43.668767
20
0.081954
30
0
11
43.302341
21
0.404661
31
0
39
0
210
0
220
0
230
1
0
LINE
5
8C
100
AcDbEntity
8
1
62
256
6
ByLayer
370
13
48
1
60
0
100
AcDbLine
10
31.363656
20
3.832587
30
0
11
32
21
3.492502
31
0
39
0
210
0
220
0
230
1
0
LINE
5
8D
100
AcDbEntity
8
1
62
256
6
ByLayer
370
13
48
1
60
0
100
AcDbLine
10
28.299719
20
3.924822
30
0
11
32
21
1.947256
31
0
39
0
210
0
220
0
230
1
0
LINE
5
8E
100
AcDbEntity
8
1
62
256
6
ByLayer
370
18
48
1
60
0
100
AcDbLine
10
40
20
3.75082
30
0
11
40
21
3.700421
31
0
39
0
210
0
220
0
230
1
0
LINE
5
8F
100
AcDbEntity
8
1
62
256
6
ByLayer
370
18
48
1
60
0
100
AcDbLine
10
43.356541
20
-1.33826
30
0
11
43.423553
21
-1.37504
31
0
39
0
210
0
220
0
230
1
0
LINE
5
90
100
AcDbEntity
8
1
62
256
6
ByLayer
370
18
48
1
60
0
100
AcDbLine
10
43.356541
20
-1.33826
30
0
11
43.321426
21
-1.160826
31
0
39
0
210
0
220
0
230
1
0
LINE
5
91
100
AcDbEntity
8
1
62
256
6
ByLayer
370
18
48
1
60
0
100
AcDbLine
10
32
20
1.883722
30
0
11
32
21
1.947256
31
0
39
0
210
0
220
0
230
1
0
LINE
5
92
100
AcDbEntity
8
1
62
256
6
ByLayer
370
13
48
1
60
0
100
AcDbLine
10
28.245164
20
-2.750414
30
0
11
30.183833
21
-2.607919
31
0
39
0
210
0
220
0
230
1
0
LINE
5
93
100
AcDbEntity
8
1
62
256
6
ByLayer
370
13
48
1
60
0
100
AcDbLine
10
28.299719
20
-2.630863
30
0
11
29.669401
21
-2.53019
31
0
39
0
210
0
220
0
230
1
0
LINE
5
94
100
AcDbEntity
8
1
62
256
6
ByLayer
370
18
48
1
60
0
100
AcDbLine
10
32
20
-2.842948
30
0
11
32
21
-2.320001
31
0
39
0
210
0
220
0
230
1
0
LINE
5
95
100
AcDbEntity
8
1
62
256
6
ByLayer
370
18
48
1
60
0
100
AcDbLine
10
43.278912
20
0.390904
30
0
11
43.49253
21
0.177563
31
0
39
0
210
0
220
0
230
1
0
LINE
5
96
100
AcDbEntity
8
1
62
256
6
ByLayer
370
18
48
1
60
0
100
AcDbLine
10
43.278912
20
0.390904
30
0
11
43.267375
21
0.449296
31
0
39
0
210
0
220
0
230
1
0
LINE
5
97
100
AcDbEntity
8
1
62
256
6
ByLayer
370
18
48
1
60
0
100
AcDbLine
10
42.15882
20
1.230214
30
0
11
41.781156
21
1.418888
31
0
39
0
210
0
220
0
230
1
0
LINE
5
98
100
AcDbEntity
8
1
62
256
6
ByLayer
370
18
48
1
60
0
100
AcDbLine
10
32
20
1.947256
30
0
11
32
21
3.492502
31
0
39
0
210
0
220
0
230
1
0
LINE
5
99
100
AcDbEntity
8
1
62
256
6
ByLayer
370
18
48
1
60
0
100
AcDbLine
10
32
20
-0.479222
30
0
11
32
21
-0.324616
31
0
39
0
210
0
220
0
230
1
0
LINE
5
9A
100
AcDbEntity
8
1
62
256
6
ByLayer
370
18
48
1
60
0
100
AcDbLine
10
28.245164
20
3.890444
30
0
11
32
21
1.883722
31
0
39
0
210
0
220
0
230
1
0
LINE
5
9B
100
AcDbEntity
8
1
62
256
6
ByLayer
370
18
48
1
60
0
100
AcDbLine
10
32
20
3.790102
30
0
11
32
21
3.798182
31
0
39
0
210
0
220
0
230
1
0
LINE
5
9C
100
AcDbEntity
8
1
62
256
6
ByLayer
370
18
48
1
60
0
100
AcDbLine
10
40
20
1.090346
30
0
11
40
21
0.53073
31
0
39
0
210
0
220
0
230
1
0
LINE
5
9D
100
AcDbEntity
8
1
62
256
6
ByLayer
370
13
48
1
60
0
100
AcDbLine
10
28.464366
20
1.260781
30
0
11
32
21
-0.324616
31
0
39
0
210
0
220
0
230
1
0
LINE
5
9E
100
AcDbEntity
8
1
62
256
6
ByLayer
370
18
48
1
60
0
100
AcDbLine
10
32
20
-0.324616
30
0
11
32
21
0.758924
31
0
39
0
210
0
220
0
230
1
0
LINE
5
9F
100
AcDbEntity
8
1
62
256
6
ByLayer
370
13
48
1
60
0
100
AcDbLine
10
31.396954
20
1.029333
30
0
11
32
21
0.758924
31
0
39
0
210
0
220
0
230
1
0
LINE
5
A0
100
AcDbEntity
8
1
62
256
6
ByLayer
370
13
48
1
60
0
100
AcDbLine
10
28.416301
20
1.127727
30
0
11
32
21
-0.479222
31
0
39
0
210
0
220
0
230
1
0
LINE
5
A1
100
AcDbEntity
8
1
62
256
6
ByLayer
370
18
48
1
60
0
100
AcDbLine
10
32
20
1.080228
30
0
11
32
21
1.582716
31
0
39
0
210
0
220
0
230
1
0
LINE
5
A2
100
AcDbEntity
8
1
62
256
6
ByLayer
370
18
48
1
60
0
100
AcDbLine
10
40
20
-2.551848
30
0
11
40
21
-3.0336
31
0
39
0
210
0
220
0
230
1
0
LINE
5
A3
100
AcDbEntity
8
1
62
256
6
ByLayer
370
18
48
1
60
0
100
AcDbLine
10
40
20
-3.03361
30
0
11
40
21
-3.273011
31
0
39
0
210
0
220
0
230
1
0
LINE
5
A4
100
AcDbEntity
8
1
62
256
6
ByLayer
370
18
48
1
60
0
100
AcDbLine
10
40
20
0.530717
30
0
11
40
21
0.215054
31
0
39
0
210
0
220
0
230
1
0
LINE
5
A5
100
AcDbEntity
8
1
62
256
6
ByLayer
370
18
48
1
60
0
100
AcDbLine
10
43.749804
20
0.697656
30
0
11
43.658497
21
0.572078
31
0
39
0
210
0
220
0
230
1
0
LINE
5
A6
100
AcDbEntity
8
1
62
256
6
ByLayer
370
13
48
1
60
0
100
AcDbLine
10
43.553482
20
0.664563
30
0
11
43.658497
21
0.572078
31
0
39
0
210
0
220
0
230
1
0
LINE
5
A7
100
AcDbEntity
8
1
62
256
6
ByLayer
370
18
48
1
60
0
100
AcDbLine
10
40
20
3.700418
30
0
11
40
21
3.627318
31
0
39
0
210
0
220
0
230
1
0
LINE
5
A8
100
AcDbEntity
8
1
62
256
6
ByLayer
370
18
48
1
60
0
100
AcDbLine
10
32
20
-3.098048
30
0
11
32
21
-2.842948
31
0
39
0
210
0
220
0
230
1
0
LINE
5
A9
100
AcDbEntity
8
1
62
256
6
ByLayer
370
18
48
1
60
0
100
AcDbLine
10
32
20
3.740274
30
0
11
32
21
3.790102
31
0
39
0
210
0
220
0
230
1
0
LINE
5
AA
100
AcDbEntity
8
1
62
256
6
ByLayer
370
18
48
1
60
0
100
AcDbLine
10
32
20
0.779622
30
0
11
32
21
1.080228
31
0
39
0
210
0
220
0
230
1
0
LINE
5
AB
100
AcDbEntity
8
1
62
256
6
ByLayer
370
18
48
1
60
0
100
AcDbLine
10
32
20
0.779622
30
0
11
32
21
0.758924
31
0
39
0
210
0
220
0
230
1
0
LINE
5
AC
100
AcDbEntity
8
1
62
256
6
ByLayer
370
18
48
1
60
0
100
AcDbLine
10
32
20
3.740274
30
0
11
32
21
3.492502
31
0
39
0
210
0
220
0
230
1
0
LINE
5
AD
100
AcDbEntity
8
SK1
62
256
6
ByLayer
370
18
48
1
60
0
100
AcDbLine
10
-36
20
-3.4
30
0
11
-36
21
3.4
31
0
39
0
210
0
220
0
230
1
0
LINE
5
AF
100
AcDbEntity
8
SK1
62
256
6
ByLayer
370
18
48
1
60
0
100
AcDbLine
10
0
20
4
30
0
11
0
21
0
31
0
39
0
210
0
220
0
230
1
0
LINE
5
B0
100
AcDbEntity
8
SK1
62
256
6
ByLayer
370
18
48
1
60
0
100
AcDbLine
10
0
20
0
30
0
11
0
21
-4
31
0
39
0
210
0
220
0
230
1
0
LINE
5
B1
100
AcDbEntity
8
SK1
62
256
6
ByLayer
370
18
48
1
60
0
100
AcDbLine
10
-35.4
20
4
30
0
11
-35.4
21
-4
31
0
39
0
210
0
220
0
230
1
0
LINE
5
B2
100
AcDbEntity
8
1
62
256
6
ByLayer
370
18
48
1
60
0
100
AcDbLine
10
30.933764
20
4
30
0
11
0
21
4
31
0
39
0
210
0
220
0
230
1
0
LINE
5
B3
100
AcDbEntity
8
1
62
256
6
ByLayer
370
18
48
1
60
0
100
AcDbLine
10
0
20
-4
30
0
11
31.122756
21
-4
31
0
39
0
210
0
220
0
230
1
0
LINE
5
B4
100
AcDbEntity
8
SK1
62
256
6
ByLayer
370
18
48
1
60
0
100
AcDbLine
10
-36
20
-3.4
30
0
11
-35.4
21
-4
31
0
39
0
210
0
220
0
230
1
0
LINE
5
B5
100
AcDbEntity
8
SK1
62
256
6
ByLayer
370
18
48
1
60
0
100
AcDbLine
10
-35.4
20
4
30
0
11
-36
21
3.4
31
0
39
0
210
0
220
0
230
1
0
LINE
5
B6
100
AcDbEntity
8
SK1
62
256
6
ByLayer
370
18
48
1
60
0
100
AcDbLine
10
0
20
4
30
0
11
-35.4
21
4
31
0
39
0
210
0
220
0
230
1
0
LINE
5
B7
100
AcDbEntity
8
SK1
62
256
6
ByLayer
370
18
48
1
60
0
100
AcDbLine
10
-35.4
20
-4
30
0
11
0
21
-4
31
0
39
0
210
0
220
0
230
1
0
LINE
5
B8
100
AcDbEntity
8
SK2
62
256
6
ByLayer
370
18
48
1
60
0
100
AcDbLine
10
-43.65
20
4
30
0
11
-43.65
21
-20.315466
31
0
39
0
210
0
220
0
230
1
0
LINE
5
BA
100
AcDbEntity
8
SK2
62
256
6
ByLayer
370
18
48
1
60
0
100
AcDbLine
10
-36.9875
20
4
30
0
11
-45.65
21
4
31
0
39
0
210
0
220
0
230
1
0
LINE
5
BB
100
AcDbEntity
8
SK2
62
256
6
ByLayer
370
18
48
1
60
0
100
AcDbLine
10
-36.9875
20
-4
30
0
11
-45.65
21
-4
31
0
39
0
210
0
220
0
230
1
0
LINE
5
BC
100
AcDbEntity
8
1
62
256
6
ByLayer
370
18
48
1
60
1
100
AcDbLine
10
-43.65
20
4
30
0
11
-43.189216
21
0.500002
31
0
39
0
210
0
220
0
230
1
0
LINE
5
BD
100
AcDbEntity
8
1
62
256
6
ByLayer
370
18
48
1
60
1
100
AcDbLine
10
-43.189216
20
0.500002
30
0
11
-44.110784
21
0.499998
31
0
39
0
210
0
220
0
230
1
0
LINE
5
BE
100
AcDbEntity
8
1
62
256
6
ByLayer
370
18
48
1
60
1
100
AcDbLine
10
-44.110784
20
0.499998
30
0
11
-43.65
21
4
31
0
39
0
210
0
220
0
230
1
0
LINE
5
BF
100
AcDbEntity
8
1
62
256
6
ByLayer
370
18
48
1
60
1
100
AcDbLine
10
-43.65
20
-4
30
0
11
-44.110784
21
-0.500002
31
0
39
0
210
0
220
0
230
1
0
LINE
5
C0
100
AcDbEntity
8
1
62
256
6
ByLayer
370
18
48
1
60
1
100
AcDbLine
10
-44.110784
20
-0.500002
30
0
11
-43.189216
21
-0.499998
31
0
39
0
210
0
220
0
230
1
0
LINE
5
C1
100
AcDbEntity
8
1
62
256
6
ByLayer
370
18
48
1
60
1
100
AcDbLine
10
-43.189216
20
-0.499998
30
0
11
-43.65
21
-4
31
0
39
0
210
0
220
0
230
1
0
LINE
5
C2
100
AcDbEntity
8
2
62
256
6
ByLayer
370
18
48
1
60
0
100
AcDbLine
10
56
20
-4.0001
30
0
11
56
21
20.315566
31
0
39
0
210
0
220
0
230
1
0
LINE
5
C4
100
AcDbEntity
8
2
62
256
6
ByLayer
370
18
48
1
60
0
100
AcDbLine
10
42.221298
20
4.0001
30
0
11
58
21
4.0001
31
0
39
0
210
0
220
0
230
1
0
LINE
5
C5
100
AcDbEntity
8
2
62
256
6
ByLayer
370
18
48
1
60
0
100
AcDbLine
10
42.221298
20
-4.0001
30
0
11
58
21
-4.0001
31
0
39
0
210
0
220
0
230
1
0
LINE
5
C6
100
AcDbEntity
8
1
62
256
6
ByLayer
370
18
48
1
60
1
100
AcDbLine
10
56
20
4.0001
30
0
11
56.460784
21
0.500102
31
0
39
0
210
0
220
0
230
1
0
LINE
5
C7
100
AcDbEntity
8
1
62
256
6
ByLayer
370
18
48
1
60
1
100
AcDbLine
10
56.460784
20
0.500102
30
0
11
55.539216
21
0.500098
31
0
39
0
210
0
220
0
230
1
0
LINE
5
C8
100
AcDbEntity
8
1
62
256
6
ByLayer
370
18
48
1
60
1
100
AcDbLine
10
55.539216
20
0.500098
30
0
11
56
21
4.0001
31
0
39
0
210
0
220
0
230
1
0
LINE
5
C9
100
AcDbEntity
8
1
62
256
6
ByLayer
370
18
48
1
60
1
100
AcDbLine
10
56
20
-4.0001
30
0
11
55.539216
21
-0.500102
31
0
39
0
210
0
220
0
230
1
0
LINE
5
CA
100
AcDbEntity
8
1
62
256
6
ByLayer
370
18
48
1
60
1
100
AcDbLine
10
55.539216
20
-0.500102
30
0
11
56.460784
21
-0.500098
31
0
39
0
210
0
220
0
230
1
0
LINE
5
CB
100
AcDbEntity
8
1
62
256
6
ByLayer
370
18
48
1
60
1
100
AcDbLine
10
56.460784
20
-0.500098
30
0
11
56
21
-4.0001
31
0
39
0
210
0
220
0
230
1
0
LINE
5
CC
100
AcDbEntity
8
SK2
62
256
6
ByLayer
370
18
48
1
60
0
100
AcDbLine
10
44
20
-48.154182
30
0
11
-36
21
-48.154182
31
0
39
0
210
0
220
0
230
1
0
LINE
5
CD
100
AcDbEntity
8
SK2
62
256
6
ByLayer
370
18
48
1
60
0
100
AcDbLine
10
-36
20
-4.9875
30
0
11
-36
21
-50.154182
31
0
39
0
210
0
220
0
230
1
0
LINE
5
CE
100
AcDbEntity
8
SK2
62
256
6
ByLayer
370
18
48
1
60
0
100
AcDbLine
10
44
20
-1.5875
30
0
11
44
21
-50.154182
31
0
39
0
210
0
220
0
230
1
0
LINE
5
CF
100
AcDbEntity
8
1
62
256
6
ByLayer
370
18
48
1
60
1
100
AcDbLine
10
-36
20
-48.154182
30
0
11
-32.500002
21
-47.693398
31
0
39
0
210
0
220
0
230
1
0
LINE
5
D0
100
AcDbEntity
8
1
62
256
6
ByLayer
370
18
48
1
60
1
100
AcDbLine
10
-32.500002
20
-47.693398
30
0
11
-32.499998
21
-48.614966
31
0
39
0
210
0
220
0
230
1
0
LINE
5
D1
100
AcDbEntity
8
1
62
256
6
ByLayer
370
18
48
1
60
1
100
AcDbLine
10
-32.499998
20
-48.614966
30
0
11
-36
21
-48.154182
31
0
39
0
210
0
220
0
230
1
0
LINE
5
D2
100
AcDbEntity
8
1
62
256
6
ByLayer
370
18
48
1
60
1
100
AcDbLine
10
44
20
-48.154182
30
0
11
40.500002
21
-48.614966
31
0
39
0
210
0
220
0
230
1
0
LINE
5
D3
100
AcDbEntity
8
1
62
256
6
ByLayer
370
18
48
1
60
1
100
AcDbLine
10
40.500002
20
-48.614966
30
0
11
40.499998
21
-47.693398
31
0
39
0
210
0
220
0
230
1
0
LINE
5
D4
100
AcDbEntity
8
1
62
256
6
ByLayer
370
18
48
1
60
1
100
AcDbLine
10
40.499998
20
-47.693398
30
0
11
44
21
-48.154182
31
0
39
0
210
0
220
0
230
1
0
LINE
5
D5
100
AcDbEntity
8
SK2
62
256
6
ByLayer
370
13
48
1
60
0
100
AcDbLine
10
42.592522
20
-3.046117
30
0
11
54.075688
21
-16.538411
31
0
39
0
210
0
220
0
230
1
0
LINE
5
D6
100
AcDbEntity
8
1
62
256
6
ByLayer
370
18
48
1
60
1
100
AcDbLine
10
42.592522
20
-3.046117
30
0
11
45.211878
21
-5.41282
31
0
39
0
210
0
220
0
230
1
0
LINE
5
D7
100
AcDbEntity
8
1
62
256
6
ByLayer
370
18
48
1
60
1
100
AcDbLine
10
45.211878
20
-5.41282
30
0
11
44.51008
21
-6.010119
31
0
39
0
210
0
220
0
230
1
0
LINE
5
D8
100
AcDbEntity
8
1
62
256
6
ByLayer
370
18
48
1
60
1
100
AcDbLine
10
44.51008
20
-6.010119
30
0
11
42.592522
21
-3.046117
31
0
39
0
210
0
220
0
230
1
0
LINE
5
180
100
AcDbEntity
8
1
62
256
6
ByLayer
370
18
48
1
60
1
100
AcDbLine
10
-43.65
20
4
30
0
11
-43.189216
21
0.500002
31
0
39
0
210
0
220
0
230
1
0
LINE
5
181
100
AcDbEntity
8
1
62
256
6
ByLayer
370
18
48
1
60
1
100
AcDbLine
10
-43.189216
20
0.500002
30
0
11
-44.110784
21
0.499998
31
0
39
0
210
0
220
0
230
1
0
LINE
5
182
100
AcDbEntity
8
1
62
256
6
ByLayer
370
18
48
1
60
1
100
AcDbLine
10
-44.110784
20
0.499998
30
0
11
-43.65
21
4
31
0
39
0
210
0
220
0
230
1
0
LINE
5
184
100
AcDbEntity
8
1
62
256
6
ByLayer
370
18
48
1
60
1
100
AcDbLine
10
-43.65
20
-4
30
0
11
-44.110784
21
-0.500002
31
0
39
0
210
0
220
0
230
1
0
LINE
5
185
100
AcDbEntity
8
1
62
256
6
ByLayer
370
18
48
1
60
1
100
AcDbLine
10
-44.110784
20
-0.500002
30
0
11
-43.189216
21
-0.499998
31
0
39
0
210
0
220
0
230
1
0
LINE
5
186
100
AcDbEntity
8
1
62
256
6
ByLayer
370
18
48
1
60
1
100
AcDbLine
10
-43.189216
20
-0.499998
30
0
11
-43.65
21
-4
31
0
39
0
210
0
220
0
230
1
0
LINE
5
18A
100
AcDbEntity
8
1
62
256
6
ByLayer
370
18
48
1
60
1
100
AcDbLine
10
56
20
4.0001
30
0
11
56.460784
21
0.500102
31
0
39
0
210
0
220
0
230
1
0
LINE
5
18B
100
AcDbEntity
8
1
62
256
6
ByLayer
370
18
48
1
60
1
100
AcDbLine
10
56.460784
20
0.500102
30
0
11
55.539216
21
0.500098
31
0
39
0
210
0
220
0
230
1
0
LINE
5
18C
100
AcDbEntity
8
1
62
256
6
ByLayer
370
18
48
1
60
1
100
AcDbLine
10
55.539216
20
0.500098
30
0
11
56
21
4.0001
31
0
39
0
210
0
220
0
230
1
0
LINE
5
18E
100
AcDbEntity
8
1
62
256
6
ByLayer
370
18
48
1
60
1
100
AcDbLine
10
56
20
-4.0001
30
0
11
55.539216
21
-0.500102
31
0
39
0
210
0
220
0
230
1
0
LINE
5
18F
100
AcDbEntity
8
1
62
256
6
ByLayer
370
18
48
1
60
1
100
AcDbLine
10
55.539216
20
-0.500102
30
0
11
56.460784
21
-0.500098
31
0
39
0
210
0
220
0
230
1
0
LINE
5
190
100
AcDbEntity
8
1
62
256
6
ByLayer
370
18
48
1
60
1
100
AcDbLine
10
56.460784
20
-0.500098
30
0
11
56
21
-4.0001
31
0
39
0
210
0
220
0
230
1
0
LINE
5
193
100
AcDbEntity
8
1
62
256
6
ByLayer
370
18
48
1
60
1
100
AcDbLine
10
-36
20
-48.154182
30
0
11
-32.500002
21
-47.693398
31
0
39
0
210
0
220
0
230
1
0
LINE
5
194
100
AcDbEntity
8
1
62
256
6
ByLayer
370
18
48
1
60
1
100
AcDbLine
10
-32.500002
20
-47.693398
30
0
11
-32.499998
21
-48.614966
31
0
39
0
210
0
220
0
230
1
0
LINE
5
195
100
AcDbEntity
8
1
62
256
6
ByLayer
370
18
48
1
60
1
100
AcDbLine
10
-32.499998
20
-48.614966
30
0
11
-36
21
-48.154182
31
0
39
0
210
0
220
0
230
1
0
LINE
5
197
100
AcDbEntity
8
1
62
256
6
ByLayer
370
18
48
1
60
1
100
AcDbLine
10
44
20
-48.154182
30
0
11
40.500002
21
-48.614966
31
0
39
0
210
0
220
0
230
1
0
LINE
5
198
100
AcDbEntity
8
1
62
256
6
ByLayer
370
18
48
1
60
1
100
AcDbLine
10
40.500002
20
-48.614966
30
0
11
40.499998
21
-47.693398
31
0
39
0
210
0
220
0
230
1
0
LINE
5
199
100
AcDbEntity
8
1
62
256
6
ByLayer
370
18
48
1
60
1
100
AcDbLine
10
40.499998
20
-47.693398
30
0
11
44
21
-48.154182
31
0
39
0
210
0
220
0
230
1
0
LINE
5
19D
100
AcDbEntity
8
1
62
256
6
ByLayer
370
18
48
1
60
1
100
AcDbLine
10
42.592522
20
-3.046117
30
0
11
45.211878
21
-5.41282
31
0
39
0
210
0
220
0
230
1
0
LINE
5
19E
100
AcDbEntity
8
1
62
256
6
ByLayer
370
18
48
1
60
1
100
AcDbLine
10
45.211878
20
-5.41282
30
0
11
44.51008
21
-6.010119
31
0
39
0
210
0
220
0
230
1
0
LINE
5
19F
100
AcDbEntity
8
1
62
256
6
ByLayer
370
18
48
1
60
1
100
AcDbLine
10
44.51008
20
-6.010119
30
0
11
42.592522
21
-3.046117
31
0
39
0
210
0
220
0
230
1
0
MTEXT
5
17C
100
AcDbEntity
8
SK2
62
256
6
ByLayer
370
18
48
1
60
0
100
AcDbMText
10
-45.214634
20
-18.380622
30
0
210
0
220
0
230
1
1
%%c
40
3.5
41
0
44
1.084337
50
90
71
7
72
5
7
iso_b_vert
0
MTEXT
5
17F
100
AcDbEntity
8
SK2
62
256
6
ByLayer
370
18
48
1
60
0
100
AcDbMText
10
-45.214634
20
-11.407966
30
0
210
0
220
0
230
1
1
\W0.5404;8
40
3.5
41
0
44
1.084337
50
90
71
7
72
5
7
iso_b_vert
0
MTEXT
5
188
100
AcDbEntity
8
2
62
256
6
ByLayer
370
18
48
1
60
0
100
AcDbMText
10
54.435366
20
11.934944
30
0
210
0
220
0
230
1
1
%%c
40
3.5
41
0
44
1.084337
50
90
71
7
72
5
7
iso_b_vert
0
MTEXT
5
189
100
AcDbEntity
8
2
62
256
6
ByLayer
370
18
48
1
60
0
100
AcDbMText
10
54.435366
20
18.9076
30
0
210
0
220
0
230
1
1
\W0.5404;8
40
3.5
41
0
44
1.084337
50
90
71
7
72
5
7
iso_b_vert
0
MTEXT
5
192
100
AcDbEntity
8
SK2
62
256
6
ByLayer
370
18
48
1
60
0
100
AcDbMText
10
2.095034
20
-47.121549
30
0
210
0
220
0
230
1
1
\W0.6740;80
40
3.5
41
0
44
1.084337
50
0
71
7
72
5
7
iso_b_vert
0
MTEXT
5
19B
100
AcDbEntity
8
SK2
62
256
6
ByLayer
370
18
48
1
60
0
100
AcDbMText
10
51.286431
20
-11.535439
30
0
210
0
220
0
230
1
1
\W0.6380;R
40
3.5
41
0
44
1.084337
50
310.400798784691
71
7
72
5
7
iso_b_vert
0
MTEXT
5
19C
100
AcDbEntity
8
SK2
62
256
6
ByLayer
370
18
48
1
60
0
100
AcDbMText
10
53.674144
20
-14.340912
30
0
210
0
220
0
230
1
1
\W0.6380;4
40
3.5
41
0
44
1.084337
50
310.400798784691
71
7
72
5
7
iso_b_vert
0
MTEXT
5
1A1
100
AcDbEntity
8
SK6
62
256
6
ByLayer
370
18
48
1
60
0
100
AcDbMText
10
-21.7121
20
-62.112524
30
0
210
0
220
0
230
1
1
\W0.7415;2B286-0800-TA       T2CH
40
3
41
0
44
1.084337
50
0
71
7
72
5
7
iso_b_vert
0
HATCH
5
183
100
AcDbEntity
8
SK2
62
256
6
ByLayer
370
13
48
1
60
0
100
AcDbHatch
10
0
20
0
30
0
210
0
220
0
230
1
2
ANSI31
70
0
71
0
91
1
92
5
93
3
72
1
10
-43.65
20
3.99999999999989
11
-43.1892162584472
21
0.50000169255307
72
1
10
-43.1892162584472
20
0.50000169255307
11
-44.1107837415528
21
0.499998307446702
72
1
10
-44.1107837415528
20
0.499998307446702
11
-43.65
21
3.99999999999989
97
0
75
0
76
1
52
0
41
0.0062
77
0
78
1
53
45
43
0
44
0
45
-0.0139193969876572
46
0.0139193969876572
79
0
47
0
98
1
10
0
20
0
0
HATCH
5
187
100
AcDbEntity
8
SK2
62
256
6
ByLayer
370
13
48
1
60
0
100
AcDbHatch
10
0
20
0
30
0
210
0
220
0
230
1
2
ANSI31
70
0
71
0
91
1
92
5
93
3
72
1
10
-43.65
20
-4.00000000000011
11
-44.1107837415528
21
-0.500001692553298
72
1
10
-44.1107837415528
20
-0.500001692553298
11
-43.1892162584472
21
-0.49999830744693
72
1
10
-43.1892162584472
20
-0.49999830744693
11
-43.65
21
-4.00000000000011
97
0
75
0
76
1
52
0
41
0.0062
77
0
78
1
53
45
43
0
44
0
45
-0.0139193969876572
46
0.0139193969876572
79
0
47
0
98
1
10
0
20
0
0
HATCH
5
18D
100
AcDbEntity
8
2
62
256
6
ByLayer
370
13
48
1
60
0
100
AcDbHatch
10
0
20
0
30
0
210
0
220
0
230
1
2
ANSI31
70
0
71
0
91
1
92
5
93
3
72
1
10
56
20
4.00009999999983
11
56.4607837415528
21
0.500101692553017
72
1
10
56.4607837415528
20
0.500101692553017
11
55.5392162584472
21
0.500098307446649
72
1
10
55.5392162584472
20
0.500098307446649
11
56
21
4.00009999999983
97
0
75
0
76
1
52
0
41
0.0062
77
0
78
1
53
45
43
0
44
0
45
-0.0139193969876572
46
0.0139193969876572
79
0
47
0
98
1
10
0
20
0
0
HATCH
5
191
100
AcDbEntity
8
2
62
256
6
ByLayer
370
13
48
1
60
0
100
AcDbHatch
10
0
20
0
30
0
210
0
220
0
230
1
2
ANSI31
70
0
71
0
91
1
92
5
93
3
72
1
10
56
20
-4.00010000000015
11
55.5392162584472
21
-0.500101692553329
72
1
10
55.5392162584472
20
-0.500101692553329
11
56.4607837415528
21
-0.500098307446962
72
1
10
56.4607837415528
20
-0.500098307446962
11
56
21
-4.00010000000015
97
0
75
0
76
1
52
0
41
0.0062
77
0
78
1
53
45
43
0
44
0
45
-0.0139193969876572
46
0.0139193969876572
79
0
47
0
98
1
10
0
20
0
0
HATCH
5
196
100
AcDbEntity
8
SK2
62
256
6
ByLayer
370
13
48
1
60
0
100
AcDbHatch
10
0
20
0
30
0
210
0
220
0
230
1
2
ANSI31
70
0
71
0
91
1
92
5
93
3
72
1
10
-36
20
-48.1541821388481
11
-32.5000016925532
21
-47.6933983972953
72
1
10
-32.5000016925532
20
-47.6933983972953
11
-32.4999983074468
21
-48.6149658804009
72
1
10
-32.4999983074468
20
-48.6149658804009
11
-36
21
-48.1541821388481
97
0
75
0
76
1
52
0
41
0.0062
77
0
78
1
53
45
43
0
44
0
45
-0.0139193969876572
46
0.0139193969876572
79
0
47
0
98
1
10
0
20
0
0
HATCH
5
19A
100
AcDbEntity
8
SK2
62
256
6
ByLayer
370
13
48
1
60
0
100
AcDbHatch
10
0
20
0
30
0
210
0
220
0
230
1
2
ANSI31
70
0
71
0
91
1
92
5
93
3
72
1
10
44
20
-48.1541821388481
11
40.5000016925532
21
-48.6149658804009
72
1
10
40.5000016925532
20
-48.6149658804009
11
40.4999983074468
21
-47.6933983972953
72
1
10
40.4999983074468
20
-47.6933983972953
11
44
21
-48.1541821388481
97
0
75
0
76
1
52
0
41
0.0062
77
0
78
1
53
45
43
0
44
0
45
-0.0139193969876572
46
0.0139193969876572
79
0
47
0
98
1
10
0
20
0
0
HATCH
5
1A0
100
AcDbEntity
8
SK2
62
256
6
ByLayer
370
13
48
1
60
0
100
AcDbHatch
10
0
20
0
30
0
210
0
220
0
230
1
2
ANSI31
70
0
71
0
91
1
92
5
93
3
72
1
10
42.5925220717109
20
-3.04611708699662
11
45.2118780946011
21
-5.41282024412448
72
1
10
45.2118780946011
20
-5.41282024412448
11
44.5100796743148
21
-6.0101188321126
72
1
10
44.5100796743148
20
-6.0101188321126
11
42.5925220717109
21
-3.04611708699662
97
0
75
0
76
1
52
0
41
0.0062
77
0
78
1
53
45
43
0
44
0
45
-0.0139193969876572
46
0.0139193969876572
79
0
47
0
98
1
10
0
20
0
0
DIMENSION
5
1A4
100
AcDbEntity
8
SK2
62
256
6
ByLayer
370
18
48
1
60
0
100
AcDbDimension
2
_U0
10
0
20
-38.154182
30
0
11
22
21
-38.154182
31
0
70
32
71
1
72
1
41
1
210
0
220
0
230
1
3
Standard
100
AcDbAlignedDimension
13
44
23
0
33
0
14
0
24
0
34
0
50
0
100
AcDbRotatedDimension
1001
ACAD
1000
DSTYLE
1002
{
1070
   371
1070
    13
1070
   372
1070
    13
1070
   170
1070
     0
1070
   144
1040
1.0
1070
   277
1070
     2
1070
   284
1070
     8
1070
   278
1070
    46
1070
   146
1040
1.0
1070
   345
1005
16
1070
   347
1005
16
1070
   346
1005
16
1070
   344
1005
0
1070
   343
1005
0
1070
   172
1070
     1
1070
    76
1070
     0
1070
    75
1070
     0
1070
   282
1070
     0
1070
   281
1070
     0
1070
    71
1070
     0
1070
    74
1070
     0
1070
   279
1070
     0
1070
   173
1070
     1
1070
   340
1005
17D
1070
   271
1070
     2
1070
   272
1070
     2
1070
    77
1070
     1
1070
    73
1070
     1
1070
   171
1070
     3
1070
   274
1070
     4
1070
   177
1070
     2
1070
   176
1070
     2
1070
   178
1070
     2
1070
    78
1070
     8
1070
    48
1040
-0.1
1070
    41
1040
3.5
1070
   147
1040
1.75
1070
    42
1040
1.5875
1070
    44
1040
2.0
1070
   140
1040
3.5
1002
}
1001
ACAD_DSTYLE_DIM_LINETYPE
1070
   380
1005
16
1001
ACAD_DSTYLE_DIM_EXT1_LINETYPE
1070
   381
1005
16
1001
ACAD_DSTYLE_DIM_EXT2_LINETYPE
1070
   382
1005
16
0
DIMENSION
5
1BD
100
AcDbEntity
8
2
62
256
6
ByLayer
370
18
48
1
60
0
100
AcDbDimension
2
_U1
10
32
20
-21.654182
30
0
11
58.833333
21
-21.654182
31
0
70
32
71
1
72
1
41
1
210
0
220
0
230
1
3
Standard
100
AcDbAlignedDimension
13
44
23
0
33
0
14
32
24
0
34
0
50
0
100
AcDbRotatedDimension
1001
ACAD
1000
DSTYLE
1002
{
1070
   371
1070
    13
1070
   372
1070
    13
1070
   170
1070
     0
1070
   144
1040
1.0
1070
   277
1070
     2
1070
   284
1070
     8
1070
   278
1070
    46
1070
   146
1040
1.0
1070
   345
1005
16
1070
   347
1005
16
1070
   346
1005
16
1070
   344
1005
0
1070
   343
1005
0
1070
   172
1070
     1
1070
    76
1070
     0
1070
    75
1070
     0
1070
   282
1070
     0
1070
   281
1070
     0
1070
    71
1070
     0
1070
    74
1070
     0
1070
   279
1070
     0
1070
   173
1070
     1
1070
   340
1005
17D
1070
   271
1070
     2
1070
   272
1070
     2
1070
    77
1070
     1
1070
    73
1070
     1
1070
   171
1070
     3
1070
   274
1070
     4
1070
   177
1070
     2
1070
   176
1070
     2
1070
   178
1070
     2
1070
    78
1070
     8
1070
    48
1040
-0.1
1070
    41
1040
3.5
1070
   147
1040
1.75
1070
    42
1040
1.5875
1070
    44
1040
2.0
1070
   140
1040
3.5
1002
}
1001
ACAD_DSTYLE_DIM_LINETYPE
1070
   380
1005
16
1001
ACAD_DSTYLE_DIM_EXT1_LINETYPE
1070
   381
1005
16
1001
ACAD_DSTYLE_DIM_EXT2_LINETYPE
1070
   382
1005
16
0
ENDSEC
0
SECTION
2
OBJECTS
0
DICTIONARY
5
247
330
0
100
AcDbDictionary
280
0
281
1
3
ACAD_GROUP
350
248
3
ACAD_MLINESTYLE
350
249
0
DICTIONARY
5
248
330
0
100
AcDbDictionary
280
0
281
1
0
DICTIONARY
5
249
330
0
100
AcDbDictionary
280
0
281
1
3
Standard
350
18
0
MLINESTYLE
5
18
330
249
100
AcDbMlineStyle
2
Standard
70
0
3

62
256
51
90
52
90
71
2
49
-0.5
62
256
6
ByLayer
49
0.5
62
256
6
ByLayer
0
RASTERVARIABLES
5
235
330

100
AcDbRasterVariables
90
0
70
1
71
1
72
1
0
ENDSEC
0
EOF
