0
SECTION
2
HEADER
9
$ACADVER
1
AC1015
9
$DWGCODEPAGE
3
ANSI_1252
9
$HANDSEED
5
234
9
$ANGBASE
50
0
9
$ANGDIR
70
0
9
$ATTMODE
70
1
9
$AUNITS
70
0
9
$AUPREC
70
0
9
$CECOLOR
62
256
9
$CELTSCALE
40
1
9
$CELTYPE
6
ByLayer
9
$CELWEIGHT
370
18
9
$CLAYER
8
0
9
$CMLJUST
70
0
9
$CMLSCALE
40
1
9
$CMLSTYLE
2
Standard
9
$DIMSTYLE
2
Standard
9
$TEXTSIZE
40
0.2
9
$TEXTSTYLE
7
Standard
9
$LUNITS
70
2
9
$LUPREC
70
4
9
$EXTNAMES
290
1
9
$INSUNITS
70
4
9
$LTSCALE
40
1
9
$LWDISPLAY
290
1
9
$PDMODE
70
0
9
$PDSIZE
40
0
9
$PLINEGEN
70
0
0
ENDSEC
0
SECTION
2
CLASSES
0
CLASS
1
RASTERVARIABLES
2
AcDbRasterVariables
3
ISM
90
0
280
0
281
0
0
ENDSEC
0
SECTION
2
TABLES
0
TABLE
2
VPORT
5
22a
100
AcDbSymbolTable
0
VPORT
5
1
100
AcDbSymbolTableRecord
100
AcDbViewportTableRecord
2
*Active
70
0
10
0
20
0
11
1
21
1
12
-1
22
1
13
0
23
0
14
0.5
24
0.5
15
10
25
10
16
0
26
0
36
1
17
0
27
0
37
0
0
ENDTAB
0
TABLE
2
LTYPE
5
22b
100
AcDbSymbolTable
0
LTYPE
5
14
100
AcDbSymbolTableRecord
100
AcDbLinetypeTableRecord
70
0
2
ByBlock
3

72
65
73
0
40
0
0
LTYPE
5
15
100
AcDbSymbolTableRecord
100
AcDbLinetypeTableRecord
70
0
2
ByLayer
3

72
65
73
0
40
0
0
LTYPE
5
16
100
AcDbSymbolTableRecord
100
AcDbLinetypeTableRecord
70
0
2
Continuous
3
Solid line
72
65
73
0
40
0
0
LTYPE
5
6E
100
AcDbSymbolTableRecord
100
AcDbLinetypeTableRecord
70
0
2
CENTER
3
____ _ ____ _ ____ _ ____
72
65
73
4
40
47.5
49
22
74
0
49
-8.5
74
0
49
8.5
74
0
49
-8.5
74
0
0
LTYPE
5
6F
100
AcDbSymbolTableRecord
100
AcDbLinetypeTableRecord
70
0
2
DASHED
3
__ __ __ __ __ __ __ __ __
72
65
73
2
40
25.72
49
12.86
74
0
49
-12.86
74
0
0
ENDTAB
0
TABLE
2
LAYER
5
22c
100
AcDbSymbolTable
0
LAYER
5
10
100
AcDbSymbolTableRecord
100
AcDbLayerTableRecord
2
0
70
0
62
7
6
Continuous
290
1
370
-3
390
0
0
LAYER
5
71
100
AcDbSymbolTableRecord
100
AcDbLayerTableRecord
2
80
70
0
62
-6
6
Continuous
290
1
370
-3
390
0
0
LAYER
5
73
100
AcDbSymbolTableRecord
100
AcDbLayerTableRecord
2
81
70
0
62
-3
6
Continuous
290
1
370
-3
390
0
0
LAYER
5
75
100
AcDbSymbolTableRecord
100
AcDbLayerTableRecord
2
1
70
0
62
4
6
Continuous
290
1
370
-3
390
0
0
LAYER
5
7A
100
AcDbSymbolTableRecord
100
AcDbLayerTableRecord
2
4
70
0
62
-2
6
CENTER
290
1
370
-3
390
0
0
LAYER
5
BF
100
AcDbSymbolTableRecord
100
AcDbLayerTableRecord
2
2
70
0
62
7
6
Continuous
290
1
370
-3
390
0
0
LAYER
5
188
100
AcDbSymbolTableRecord
100
AcDbLayerTableRecord
2
Defpoints
70
0
62
7
6
Continuous
290
0
370
-3
390
0
0
LAYER
5
216
100
AcDbSymbolTableRecord
100
AcDbLayerTableRecord
2
SK4
70
0
62
2
6
CENTER
290
1
370
-3
390
0
0
LAYER
5
217
100
AcDbSymbolTableRecord
100
AcDbLayerTableRecord
2
SK1
70
0
62
4
6
Continuous
290
1
370
-3
390
0
0
LAYER
5
218
100
AcDbSymbolTableRecord
100
AcDbLayerTableRecord
2
SK2
70
0
62
7
6
Continuous
290
1
370
-3
390
0
0
LAYER
5
219
100
AcDbSymbolTableRecord
100
AcDbLayerTableRecord
2
SK6
70
0
62
5
6
Continuous
290
1
370
-3
390
0
0
ENDTAB
0
TABLE
2
STYLE
5
22d
100
AcDbSymbolTable
0
STYLE
5
11
100
AcDbSymbolTableRecord
100
AcDbTextStyleTableRecord
2
Standard
3
txt
70
0
71
0
40
0
41
1
42
0
50
0
0
STYLE
5
15E
100
AcDbSymbolTableRecord
100
AcDbTextStyleTableRecord
2
iso_b_vert
3
simplex.shx
70
0
71
0
40
0
41
1
42
0
50
0
0
STYLE
5
15F
100
AcDbSymbolTableRecord
100
AcDbTextStyleTableRecord
2
DWGDirectTextStyle
3
simplex
70
0
71
0
40
0
41
1
42
0
50
0
0
ENDTAB
0
TABLE
2
DIMSTYLE
5
22e
100
AcDbSymbolTable
100
AcDbDimStyleTable
0
DIMSTYLE
105
27
100
AcDbSymbolTableRecord
100
AcDbDimStyleTableRecord
2
Standard
70
0
3
<>
41
0.18
42
0.0625
44
0.18
140
0.18
147
0.09
73
0
74
0
77
1
271
2
275
0
278
52
280
0
340
11
0
ENDTAB
0
TABLE
2
VIEW
5
22f
100
AcDbSymbolTable
0
ENDTAB
0
TABLE
2
UCS
5
230
100
AcDbSymbolTable
0
ENDTAB
0
TABLE
2
APPID
5
231
100
AcDbSymbolTable
0
APPID
5
12
100
AcDbSymbolTableRecord
100
AcDbRegAppTableRecord
2
ACAD
70
0
0
APPID
5
184
100
AcDbSymbolTableRecord
100
AcDbRegAppTableRecord
2
ACAD_DSTYLE_DIMBREAK
70
0
0
APPID
5
1D5
100
AcDbSymbolTableRecord
100
AcDbRegAppTableRecord
2
ACAD_DSTYLE_DIM_LINETYPE
70
0
0
APPID
5
1D6
100
AcDbSymbolTableRecord
100
AcDbRegAppTableRecord
2
ACAD_DSTYLE_DIM_EXT1_LINETYPE
70
0
0
APPID
5
1D7
100
AcDbSymbolTableRecord
100
AcDbRegAppTableRecord
2
ACAD_DSTYLE_DIM_EXT2_LINETYPE
70
0
0
APPID
5
212
100
AcDbSymbolTableRecord
100
AcDbRegAppTableRecord
2
ACAD_MLEADERVER
70
0
0
ENDTAB
0
TABLE
2
BLOCK_RECORD
5
232
100
AcDbSymbolTable
0
BLOCK_RECORD
5
1F
100
AcDbSymbolTableRecord
100
AcDbBlockTableRecord
2
*Model_Space
340
0
70
0
0
BLOCK_RECORD
5
1B
100
AcDbSymbolTableRecord
100
AcDbBlockTableRecord
2
*Paper_Space
340
0
70
0
0
BLOCK_RECORD
5
23
100
AcDbSymbolTableRecord
100
AcDbBlockTableRecord
2
*Paper_Space0
340
0
70
0
0
BLOCK_RECORD
5
189
100
AcDbSymbolTableRecord
100
AcDbBlockTableRecord
2
*D1
340
0
70
0
0
BLOCK_RECORD
5
195
100
AcDbSymbolTableRecord
100
AcDbBlockTableRecord
2
_U0
340
0
70
0
0
BLOCK_RECORD
5
1A1
100
AcDbSymbolTableRecord
100
AcDbBlockTableRecord
2
*D3
340
0
70
0
0
BLOCK_RECORD
5
1AE
100
AcDbSymbolTableRecord
100
AcDbBlockTableRecord
2
_U1
340
0
70
0
0
ENDTAB
0
ENDSEC
0
SECTION
2
BLOCKS
0
BLOCK
5
20
100
AcDbEntity
8
0
100
AcDbBlockBegin
2
*Model_Space
70
0
10
0
20
0
30
0
3
*Model_Space
0
ENDBLK
5
21
100
AcDbEntity
8
0
100
AcDbBlockEnd
0
BLOCK
5
1C
100
AcDbEntity
8
0
100
AcDbBlockBegin
2
*Paper_Space
70
0
10
0
20
0
30
0
3
*Paper_Space
0
ENDBLK
5
1D
100
AcDbEntity
8
0
100
AcDbBlockEnd
0
BLOCK
5
24
100
AcDbEntity
8
0
100
AcDbBlockBegin
2
*Paper_Space0
70
0
10
0
20
0
30
0
3
*Paper_Space0
0
ENDBLK
5
25
100
AcDbEntity
8
0
100
AcDbBlockEnd
0
BLOCK
5
18A
100
AcDbEntity
8
0
100
AcDbBlockBegin
2
*D1
70
1
10
0
20
0
30
0
3
*D1
0
LINE
5
18C
100
AcDbEntity
8
0
62
256
6
ByLayer
370
-2
48
1
60
0
100
AcDbLine
10
60
20
-1.5875
30
0
11
60
21
-42.15
31
0
39
0
210
0
220
0
230
1
0
LINE
5
18D
100
AcDbEntity
8
0
62
256
6
ByLayer
370
-2
48
1
60
0
100
AcDbLine
10
0
20
-1.5875
30
0
11
0
21
-42.15
31
0
39
0
210
0
220
0
230
1
0
LINE
5
18E
100
AcDbEntity
8
0
62
256
6
ByLayer
370
-2
48
1
60
0
100
AcDbLine
10
56.5
20
-40.15
30
0
11
3.5
21
-40.15
31
0
39
0
210
0
220
0
230
1
0
SOLID
5
18F
100
AcDbEntity
8
0
62
256
6
ByLayer
370
-1
48
1
60
0
100
AcDbTrace
10
56.5
20
-40.733333
30
0
11
56.5
21
-39.566667
31
0
12
60
22
-40.15
32
0
13
60
23
-40.15
33
0
39
0
210
0
220
0
230
1
0
SOLID
5
190
100
AcDbEntity
8
0
62
256
6
ByLayer
370
-1
48
1
60
0
100
AcDbTrace
10
3.5
20
-39.566667
30
0
11
3.5
21
-40.733333
31
0
12
0
22
-40.15
32
0
13
0
23
-40.15
33
0
39
0
210
0
220
0
230
1
0
MTEXT
5
191
100
AcDbEntity
8
0
62
256
6
ByLayer
370
18
48
1
60
0
100
AcDbMText
10
30
20
-33.15
30
0
210
0
220
0
230
1
1
\A1;60
40
3.5
41
0
44
1
50
0
71
5
72
5
7
iso_b_vert
0
POINT
5
192
100
AcDbEntity
8
Defpoints
62
0
6
ByLayer
370
-1
48
1
60
0
100
AcDbPoint
10
60
20
0
30
0
39
0
210
0
220
0
230
1
50
360
0
POINT
5
193
100
AcDbEntity
8
Defpoints
62
0
6
ByLayer
370
-1
48
1
60
0
100
AcDbPoint
10
0
20
0
30
0
39
0
210
0
220
0
230
1
50
360
0
POINT
5
194
100
AcDbEntity
8
Defpoints
62
0
6
ByLayer
370
-1
48
1
60
0
100
AcDbPoint
10
0
20
-40.15
30
0
39
0
210
0
220
0
230
1
50
360
0
ENDBLK
5
18B
100
AcDbEntity
8
0
100
AcDbBlockEnd
0
BLOCK
5
19C
100
AcDbEntity
8
0
100
AcDbBlockBegin
2
_U0
70
0
10
0
20
0
30
0
3
_U0
0
MTEXT
5
196
100
AcDbEntity
8
SK2
62
256
6
ByLayer
370
18
48
1
60
0
100
AcDbMText
10
28.095034
20
-39.117366
30
0
210
0
220
0
230
1
1
\W0.6740;60
40
3.5
41
0
44
1.084337
50
0
71
7
72
5
7
iso_b_vert
0
LINE
5
197
100
AcDbEntity
8
SK2
62
256
6
ByLayer
370
13
48
1
60
0
100
AcDbLine
10
60
20
-1.5875
30
0
11
60
21
-42.15
31
0
39
0
210
0
220
0
230
1
0
LINE
5
198
100
AcDbEntity
8
SK2
62
256
6
ByLayer
370
13
48
1
60
0
100
AcDbLine
10
0
20
-1.5875
30
0
11
0
21
-42.15
31
0
39
0
210
0
220
0
230
1
0
LINE
5
199
100
AcDbEntity
8
SK2
62
256
6
ByLayer
370
13
48
1
60
0
100
AcDbLine
10
60
20
-40.15
30
0
11
0
21
-40.15
31
0
39
0
210
0
220
0
230
1
0
SOLID
5
19A
100
AcDbEntity
8
SK2
62
256
6
ByLayer
370
18
48
1
60
0
100
AcDbTrace
10
60
20
-40.15
30
0
11
56.500002
21
-40.610784
31
0
12
56.499998
22
-39.689216
32
0
13
56.499998
23
-39.689216
33
0
39
0
210
0
220
0
230
1
0
SOLID
5
19B
100
AcDbEntity
8
SK2
62
256
6
ByLayer
370
18
48
1
60
0
100
AcDbTrace
10
0
20
-40.15
30
0
11
3.499998
21
-39.689216
31
0
12
3.500002
22
-40.610784
32
0
13
3.500002
23
-40.610784
33
0
39
0
210
0
220
0
230
1
0
ENDBLK
5
19D
100
AcDbEntity
8
0
100
AcDbBlockEnd
0
BLOCK
5
1A2
100
AcDbEntity
8
0
100
AcDbBlockBegin
2
*D3
70
1
10
0
20
0
30
0
3
*D3
0
LINE
5
1A4
100
AcDbEntity
8
0
62
256
6
ByLayer
370
-2
48
1
60
0
100
AcDbLine
10
60
20
-1.5875
30
0
11
60
21
-25.65
31
0
39
0
210
0
220
0
230
1
0
LINE
5
1A5
100
AcDbEntity
8
0
62
256
6
ByLayer
370
-2
48
1
60
0
100
AcDbLine
10
42
20
-1.5875
30
0
11
42
21
-25.65
31
0
39
0
210
0
220
0
230
1
0
LINE
5
1A6
100
AcDbEntity
8
0
62
256
6
ByLayer
370
-2
48
1
60
0
100
AcDbLine
10
60
20
-23.65
30
0
11
80.900946
21
-23.65
31
0
39
0
210
0
220
0
230
1
0
LINE
5
1A7
100
AcDbEntity
8
0
62
256
6
ByLayer
370
-2
48
1
60
0
100
AcDbLine
10
56.5
20
-23.65
30
0
11
45.5
21
-23.65
31
0
39
0
210
0
220
0
230
1
0
SOLID
5
1A8
100
AcDbEntity
8
0
62
256
6
ByLayer
370
-1
48
1
60
0
100
AcDbTrace
10
56.5
20
-24.233333
30
0
11
56.5
21
-23.066667
31
0
12
60
22
-23.65
32
0
13
60
23
-23.65
33
0
39
0
210
0
220
0
230
1
0
SOLID
5
1A9
100
AcDbEntity
8
0
62
256
6
ByLayer
370
-1
48
1
60
0
100
AcDbTrace
10
45.5
20
-23.066667
30
0
11
45.5
21
-24.233333
31
0
12
42
22
-23.65
32
0
13
42
23
-23.65
33
0
39
0
210
0
220
0
230
1
0
MTEXT
5
1AA
100
AcDbEntity
8
0
62
256
6
ByLayer
370
18
48
1
60
0
100
AcDbMText
10
73.067612
20
-16.65
30
0
210
0
220
0
230
1
1
\A1;18
40
3.5
41
0
44
1
50
0
71
5
72
5
7
iso_b_vert
0
POINT
5
1AB
100
AcDbEntity
8
Defpoints
62
0
6
ByLayer
370
-1
48
1
60
0
100
AcDbPoint
10
60
20
0
30
0
39
0
210
0
220
0
230
1
50
360
0
POINT
5
1AC
100
AcDbEntity
8
Defpoints
62
0
6
ByLayer
370
-1
48
1
60
0
100
AcDbPoint
10
42
20
0
30
0
39
0
210
0
220
0
230
1
50
360
0
POINT
5
1AD
100
AcDbEntity
8
Defpoints
62
0
6
ByLayer
370
-1
48
1
60
0
100
AcDbPoint
10
42
20
-23.65
30
0
39
0
210
0
220
0
230
1
50
360
0
ENDBLK
5
1A3
100
AcDbEntity
8
0
100
AcDbBlockEnd
0
BLOCK
5
1B5
100
AcDbEntity
8
0
100
AcDbBlockBegin
2
_U1
70
0
10
0
20
0
30
0
3
_U1
0
MTEXT
5
1AF
100
AcDbEntity
8
2
62
256
6
ByLayer
370
18
48
1
60
0
100
AcDbMText
10
71.600079
20
-22.617366
30
0
210
0
220
0
230
1
1
\W0.5321;18
40
3.5
41
0
44
1.084337
50
0
71
7
72
5
7
iso_b_vert
0
LINE
5
1B0
100
AcDbEntity
8
2
62
256
6
ByLayer
370
13
48
1
60
0
100
AcDbLine
10
60
20
-1.5875
30
0
11
60
21
-25.65
31
0
39
0
210
0
220
0
230
1
0
LINE
5
1B1
100
AcDbEntity
8
2
62
256
6
ByLayer
370
13
48
1
60
0
100
AcDbLine
10
42
20
-1.5875
30
0
11
42
21
-25.65
31
0
39
0
210
0
220
0
230
1
0
LINE
5
1B2
100
AcDbEntity
8
2
62
256
6
ByLayer
370
13
48
1
60
0
100
AcDbLine
10
42
20
-23.65
30
0
11
74.720645
21
-23.65
31
0
39
0
210
0
220
0
230
1
0
SOLID
5
1B3
100
AcDbEntity
8
2
62
256
6
ByLayer
370
18
48
1
60
0
100
AcDbTrace
10
60
20
-23.65
30
0
11
56.500002
21
-24.110784
31
0
12
56.499998
22
-23.189216
32
0
13
56.499998
23
-23.189216
33
0
39
0
210
0
220
0
230
1
0
SOLID
5
1B4
100
AcDbEntity
8
2
62
256
6
ByLayer
370
18
48
1
60
0
100
AcDbTrace
10
42
20
-23.65
30
0
11
45.499998
21
-23.189216
31
0
12
45.500002
22
-24.110784
32
0
13
45.500002
23
-24.110784
33
0
39
0
210
0
220
0
230
1
0
ENDBLK
5
1B6
100
AcDbEntity
8
0
100
AcDbBlockEnd
0
ENDSEC
0
SECTION
2
ENTITIES
0
ELLIPSE
5
D5
100
AcDbEntity
8
1
62
256
6
ByLayer
370
18
48
1
60
0
100
AcDbEllipse
10
60.017909
20
-0.143615
30
0
11
0.610918927485761
21
-0.0168467229502877
31
0
210
0
220
0
230
1
40
0.329202
41
1.62778395646518
42
1.67124354378589
0
ELLIPSE
5
D6
100
AcDbEntity
8
1
62
256
6
ByLayer
370
18
48
1
60
0
100
AcDbEllipse
10
60.540744
20
-3.097152
30
0
11
1.11580050523338
21
-3.12444245982828
31
0
210
0
220
0
230
1
40
0.070364
41
-2.38363242480203
42
-2.36580459904333
0
ELLIPSE
5
D7
100
AcDbEntity
8
1
62
256
6
ByLayer
370
18
48
1
60
0
100
AcDbEllipse
10
59.847303
20
-0.646313
30
0
11
0.0504803548533911
21
-0.602738934458449
31
0
210
0
220
0
230
1
40
0.506499
41
-2.99718523587168
42
-1.63200583079391
0
ELLIPSE
5
D8
100
AcDbEntity
8
1
62
256
6
ByLayer
370
18
48
1
60
0
100
AcDbEllipse
10
42.207846
20
-11.916993
30
0
11
-0.953986913971485
21
6.03176958300351
31
0
210
0
220
0
230
1
40
0.862407
41
-0.142067593434102
42
-0.0451927247113025
0
ELLIPSE
5
D9
100
AcDbEntity
8
1
62
256
6
ByLayer
370
18
48
1
60
0
100
AcDbEllipse
10
42.207846
20
2.282008
30
0
11
-5.27119030319134
21
3.08332419995311
31
0
210
0
220
0
230
1
40
0.139046
41
1.51576533015582
42
1.61264019887846
0
ELLIPSE
5
DA
100
AcDbEntity
8
1
62
256
6
ByLayer
370
18
48
1
60
0
100
AcDbEllipse
10
49.373877
20
0
30
0
11
14.7402650044072
21
1.1773719534683
31
0
210
0
220
0
230
1
40
0.399135
41
-2.68811850886304
42
-2.18495810427409
0
ELLIPSE
5
DB
100
AcDbEntity
8
1
62
256
6
ByLayer
370
18
48
1
60
0
100
AcDbEllipse
10
45.482168
20
8E-06
30
0
11
28.5730452619396
21
-5.99577427635172
31
0
210
0
220
0
230
1
40
0.007858
41
1.69461786120505
42
1.72501749666318
0
ELLIPSE
5
DC
100
AcDbEntity
8
1
62
256
6
ByLayer
370
18
48
1
60
0
100
AcDbEllipse
10
49.373877
20
0
30
0
11
14.7463985879781
21
-5.97970655689957
31
0
210
0
220
0
230
1
40
0.033436
41
-2.64269102976127
42
-2.13953062516754
0
ELLIPSE
5
DD
100
AcDbEntity
8
1
62
256
6
ByLayer
370
18
48
1
60
0
100
AcDbEllipse
10
44.689873
20
0
30
0
11
22.071707812923
21
-0.199055452053611
31
0
210
0
220
0
230
1
40
0.271692
41
1.69541963819811
42
1.73680791657249
0
ELLIPSE
5
DE
100
AcDbEntity
8
1
62
256
6
ByLayer
370
18
48
1
60
0
100
AcDbEllipse
10
44.689873
20
0
30
0
11
22.0717083411725
21
0.199055500489114
31
0
210
0
220
0
230
1
40
0.271692
41
-1.73680792000791
42
-1.69541964260448
0
POINT
5
70
100
AcDbEntity
8
80
62
256
6
ByLayer
370
18
48
1
60
0
100
AcDbPoint
10
0
20
0
30
0
39
0
210
0
220
0
230
1
50
360
0
POINT
5
72
100
AcDbEntity
8
81
62
256
6
ByLayer
370
18
48
1
60
0
100
AcDbPoint
10
60.05
20
0
30
0
39
0
210
0
220
0
230
1
50
360
0
POINT
5
74
100
AcDbEntity
8
1
62
256
6
ByLayer
370
18
48
1
60
1
100
AcDbPoint
10
60
20
0
30
0
39
0
210
0
220
0
230
1
50
360
0
POINT
5
76
100
AcDbEntity
8
1
62
256
6
ByLayer
370
18
48
1
60
1
100
AcDbPoint
10
0
20
0
30
0
39
0
210
0
220
0
230
1
50
360
0
POINT
5
77
100
AcDbEntity
8
1
62
256
6
ByLayer
370
18
48
1
60
1
100
AcDbPoint
10
60
20
0
30
0
39
0
210
0
220
0
230
1
50
360
0
POINT
5
78
100
AcDbEntity
8
1
62
256
6
ByLayer
370
18
48
1
60
1
100
AcDbPoint
10
42
20
0
30
0
39
0
210
0
220
0
230
1
50
360
0
SPLINE
5
DF
100
AcDbEntity
8
1
62
256
6
ByLayer
370
18
48
1
60
0
100
AcDbSpline
70
4
71
3
72
27
73
23
40
0
40
0
40
0
40
0
40
0.0367156003400648
40
0.0732643645175784
40
0.109646735154878
40
0.145863168243802
40
0.181914133404036
40
0.217800114142755
40
0.253521608115906
40
0.289079127390873
40
0.324473198710483
40
0.35970436375837
40
0.394773179425507
40
0.429680218077892
40
0.464426067825345
40
0.499011332791342
40
0.624840432913916
40
0.74894992626906
40
0.811914526966299
40
0.874315380138592
40
0.946115685844446
40
1
40
1
40
1
40
1
41
1
10
54.9160027578579
20
5.23026749036782
30
0
41
1
10
54.9047914452243
20
5.22888792764925
30
0
41
1
10
54.8824197643066
20
5.22613507096295
30
0
41
1
10
54.8489332336151
20
5.22171766859742
30
0
41
1
10
54.8155957538149
20
5.21710264492543
30
0
41
1
10
54.7824069221935
20
5.21227031601589
30
0
41
1
10
54.7493668457236
20
5.2072278145277
30
0
41
1
10
54.716475495746
20
5.20197513829942
30
0
41
1
10
54.6837328796714
20
5.19651418506658
30
0
41
1
10
54.6511389953941
20
5.19084634795968
30
0
41
1
10
54.6186938430307
20
5.18497315462315
30
0
41
1
10
54.5863974232524
20
5.17889609833657
30
0
41
1
10
54.55424973233
20
5.17261667696005
30
0
41
1
10
54.5222507834638
20
5.16613640324448
30
0
41
1
10
54.4904005269429
20
5.15945672393931
30
0
41
1
10
54.4307719416014
20
5.14652071624167
30
0
41
1
10
54.3438495811269
20
5.12619648983261
30
0
41
1
10
54.2483065664617
20
5.10129544414281
30
0
41
1
10
54.1721813021055
20
5.07988873359298
30
0
41
1
10
54.1120459823469
20
5.06217378885256
30
0
41
1
10
54.0547249278333
20
5.04431490159422
30
0
41
1
10
54.0164215818033
20
5.03226227388276
30
0
41
1
10
53.9999999262899
20
5.02709499423693
30
0
0
SPLINE
5
E0
100
AcDbEntity
8
1
62
256
6
ByLayer
370
18
48
1
60
0
100
AcDbSpline
70
4
71
3
72
12
73
8
40
0
40
0
40
0
40
0
40
0.195947372311815
40
0.393916965031589
40
0.593912945570685
40
0.795939332517807
40
1
40
1
40
1
40
1
41
1
10
55.0763044259817
20
5.2470429532278
30
0
41
1
10
55.0658382699809
20
5.24610519162934
30
0
41
1
10
55.0447979449245
20
5.24421999052439
30
0
41
1
10
55.0130671274174
20
5.24110191266578
30
0
41
1
10
54.9810065049383
20
5.23774768458847
30
0
41
1
10
54.9486157309613
20
5.23415430287338
30
0
41
1
10
54.9269099936321
20
5.23156741418262
30
0
41
1
10
54.9160027578577
20
5.23026749036779
30
0
0
SPLINE
5
E1
100
AcDbEntity
8
1
62
256
6
ByLayer
370
18
48
1
60
0
100
AcDbSpline
70
4
71
3
72
12
73
8
40
0
40
0
40
0
40
0
40
0.5
40
0.5
40
0.75
40
0.75
40
1
40
1
40
1
40
1
41
1
10
55.7278350112518
20
5.25476823779485
30
0
41
1
10
55.619910659186
20
5.26193838577433
30
0
41
1
10
55.5115681016302
20
5.2647834165781
30
0
41
1
10
55.3482496320906
20
5.26276918043291
30
0
41
1
10
55.293735501086
20
5.26104967021348
30
0
41
1
10
55.1849429640584
20
5.2555649147312
30
0
41
1
10
55.1306038254243
20
5.25179859476609
30
0
41
1
10
55.0763044259812
20
5.24704295322761
30
0
0
SPLINE
5
E2
100
AcDbEntity
8
1
62
256
6
ByLayer
370
18
48
1
60
0
100
AcDbSpline
70
4
71
3
72
8
73
4
40
0
40
0
40
0
40
0
40
1
40
1
40
1
40
1
41
1
10
54
20
5.02709614231188
30
0
41
1
10
53.6569999324241
20
4.91892574624714
30
0
41
1
10
53.3139998648483
20
4.80257871202647
30
0
41
1
10
52.9709997972723
20
4.67864651288764
30
0
0
SPLINE
5
E3
100
AcDbEntity
8
1
62
256
6
ByLayer
370
18
48
1
60
0
100
AcDbSpline
70
4
71
3
72
8
73
4
40
0
40
0
40
0
40
0
40
1
40
1
40
1
40
1
41
1
10
55.8487284934878
20
5.23882254355431
30
0
41
1
10
55.8697596856317
20
5.23596776558006
30
0
41
1
10
55.8906405883358
20
5.23326243754286
30
0
41
1
10
55.9113734113317
20
5.23070123886558
30
0
0
SPLINE
5
E4
100
AcDbEntity
8
1
62
256
6
ByLayer
370
18
48
1
60
0
100
AcDbSpline
70
4
71
3
72
8
73
4
40
0
40
0
40
0
40
0
40
1
40
1
40
1
40
1
41
1
10
55.7278350112518
20
5.25476823779488
30
0
41
1
10
55.7687511897672
20
5.24915447652384
30
0
41
1
10
55.8090293150873
20
5.24387536227769
30
0
41
1
10
55.8487284934877
20
5.23882254355433
30
0
0
SPLINE
5
E5
100
AcDbEntity
8
1
62
256
6
ByLayer
370
18
48
1
60
0
100
AcDbSpline
70
4
71
3
72
12
73
8
40
0
40
0
40
0
40
0
40
0.250000000000025
40
0.250000000000025
40
0.50000000000005
40
0.50000000000005
40
1
40
1
40
1
40
1
41
1
10
55.9855694679135
20
5.15230137561196
30
0
41
1
10
55.9623898306621
20
5.15774928201085
30
0
41
1
10
55.9399108291254
20
5.16454000200937
30
0
41
1
10
55.8957786243904
20
5.17961566666955
30
0
41
1
10
55.8741376008705
20
5.18792575310508
30
0
41
1
10
55.8101091772514
20
5.21438328906598
30
0
41
1
10
55.7686019256744
20
5.23402783741813
30
0
41
1
10
55.7278350112332
20
5.25476823774645
30
0
0
SPLINE
5
E6
100
AcDbEntity
8
1
62
256
6
ByLayer
370
18
48
1
60
0
100
AcDbSpline
70
4
71
3
72
16
73
12
40
0
40
0
40
0
40
0
40
0.25
40
0.25
40
0.499999999999999
40
0.499999999999999
40
0.624999999999999
40
0.624999999999999
40
0.749999999999999
40
0.749999999999999
40
1
40
1
40
1
40
1
41
1
10
59.9984752342127
20
0.0580469135264536
30
0
41
1
10
59.9941662433832
20
0.208278475713286
30
0
41
1
10
59.9849457313949
20
0.358031971911032
30
0
41
1
10
59.9567474123119
20
0.65658923187442
30
0
41
1
10
59.9377911085081
20
0.805395088676335
30
0
41
1
10
59.9018915974687
20
1.02787725804146
30
0
41
1
10
59.8886867013513
20
1.10187523065409
30
0
41
1
10
59.8598766095143
20
1.24919656688965
30
0
41
1
10
59.8442632589156
20
1.32257020809814
30
0
41
1
10
59.7938444481142
20
1.54184101490031
30
0
41
1
10
59.7554782309458
20
1.68689233996781
30
0
41
1
10
59.7123220864053
20
1.83080584104783
30
0
0
SPLINE
5
E7
100
AcDbEntity
8
1
62
256
6
ByLayer
370
18
48
1
60
0
100
AcDbSpline
70
4
71
3
72
8
73
4
40
0
40
0
40
0
40
0
40
1
40
1
40
1
40
1
41
1
10
55.9869558268741
20
5.15197699959563
30
0
41
1
10
55.9864935706796
20
5.15208465213521
30
0
41
1
10
55.9860314514332
20
5.15219277997687
30
0
41
1
10
55.9855694679188
20
5.15230137561309
30
0
0
SPLINE
5
E8
100
AcDbEntity
8
1
62
256
6
ByLayer
370
13
48
1
60
0
100
AcDbSpline
70
4
71
3
72
9
73
5
40
0
40
0
40
0
40
0
40
0.207298854090599
40
1
40
1
40
1
40
1
41
1
10
55.9855694679135
20
5.15230137561198
30
0
41
1
10
55.823712978609
20
5.11885296439027
30
0
41
1
10
55.042924826091
20
4.94839553524955
30
0
41
1
10
54.262136673573
20
4.73450712783583
30
0
41
1
10
53.6432050103596
20
4.54097434862734
30
0
0
SPLINE
5
E9
100
AcDbEntity
8
1
62
256
6
ByLayer
370
18
48
1
60
0
100
AcDbSpline
70
4
71
3
72
8
73
4
40
0
40
0
40
0
40
0
40
1
40
1
40
1
40
1
41
1
10
56.9762192087414
20
3.77858516347632
30
0
41
1
10
56.9781484000404
20
3.77569630219304
30
0
41
1
10
56.9800786217646
20
3.77280814133039
30
0
41
1
10
56.982009873994
20
3.7699206809427
30
0
0
SPLINE
5
EA
100
AcDbEntity
8
1
62
256
6
ByLayer
370
18
48
1
60
0
100
AcDbSpline
70
4
71
3
72
8
73
4
40
0
40
0
40
0
40
0
40
1
40
1
40
1
40
1
41
1
10
56.9762192087414
20
3.77858516347632
30
0
41
1
10
56.9744859455866
20
3.77866152179755
30
0
41
1
10
56.9727527465695
20
3.77873964473804
30
0
41
1
10
56.9710196116608
20
3.7788195314854
30
0
0
SPLINE
5
EB
100
AcDbEntity
8
1
62
256
6
ByLayer
370
18
48
1
60
0
100
AcDbSpline
70
4
71
3
72
8
73
4
40
0
40
0
40
0
40
0
40
1
40
1
40
1
40
1
41
1
10
59.6775732035773
20
1.81551442143584
30
0
41
1
10
59.6891553159406
20
1.82061347873736
30
0
41
1
10
59.700738287046
20
1.8257105956443
30
0
41
1
10
59.712322086405
20
1.83080584104778
30
0
0
SPLINE
5
EC
100
AcDbEntity
8
1
62
256
6
ByLayer
370
18
48
1
60
0
100
AcDbSpline
70
4
71
3
72
39
73
35
40
0
40
0
40
0
40
0
40
0.0624999999999998
40
0.0624999999999998
40
0.0937499999999997
40
0.0937499999999997
40
0.125
40
0.187499999999999
40
0.218750000000001
40
0.218750000000001
40
0.250000000000003
40
0.250000000000003
40
0.375000000000009
40
0.375000000000009
40
0.43750000000001
40
0.43750000000001
40
0.500000000000011
40
0.500000000000011
40
0.531250000000011
40
0.531250000000011
40
0.562500000000012
40
0.625000000000012
40
0.625000000000012
40
0.750000000000014
40
0.750000000000014
40
0.812500000000015
40
0.812500000000015
40
0.843750000000012
40
0.843750000000012
40
0.87500000000001
40
0.87500000000001
40
0.937500000000005
40
0.937500000000005
40
1
40
1
40
1
40
1
41
1
10
59.7123220864052
20
1.83080584104786
30
0
41
1
10
59.6755716013753
20
1.94468481261057
30
0
41
1
10
59.6353697536203
20
2.05713404016484
30
0
41
1
10
59.5698355312242
20
2.22362642974261
30
0
41
1
10
59.5471017223746
20
2.27879676626702
30
0
41
1
10
59.5000751231299
20
2.38797237796513
30
0
41
1
10
59.4271443905481
20
2.55013619641895
30
0
41
1
10
59.3203612026725
20
2.75998213849934
30
0
41
1
10
59.2331213642206
20
2.91261530986455
30
0
41
1
10
59.1733685582167
20
3.01331634238679
30
0
41
1
10
59.1427083028226
20
3.06311314217467
30
0
41
1
10
58.9859898486906
20
3.30851743710824
30
0
41
1
10
58.8492854044467
20
3.49415418099133
30
0
41
1
10
58.6271868658768
20
3.75644286596329
30
0
41
1
10
58.5507022251712
20
3.84070922954862
30
0
41
1
10
58.3929658574128
20
4.00282256083722
30
0
41
1
10
58.3116960646011
20
4.0806845839644
30
0
41
1
10
58.1861698190127
20
4.19268365228885
30
0
41
1
10
58.143675030904
20
4.22925748280986
30
0
41
1
10
58.0576976626003
20
4.30060900379604
30
0
41
1
10
57.9274772636343
20
4.40476172055079
30
0
41
1
10
57.7935573454953
20
4.50043617302222
30
0
41
1
10
57.5208812661489
20
4.68068902849373
30
0
41
1
10
57.3326685637223
20
4.7861266573471
30
0
41
1
10
57.040702450381
20
4.92209357550308
30
0
41
1
10
56.9417695214496
20
4.96370661391433
30
0
41
1
10
56.7908923811656
20
5.02039999300632
30
0
41
1
10
56.7401092535724
20
5.03836466576971
30
0
41
1
10
56.6382239550099
20
5.07216872985055
30
0
41
1
10
56.5870967213251
20
5.08802130105036
30
0
41
1
10
56.433168105015
20
5.13244203842825
30
0
41
1
10
56.32982130919
20
5.15786948131972
30
0
41
1
10
56.1216843485393
20
5.20047187648561
30
0
41
1
10
56.0168516177845
20
5.21767114436744
30
0
41
1
10
55.9113734113314
20
5.23070123886561
30
0
0
SPLINE
5
ED
100
AcDbEntity
8
1
62
256
6
ByLayer
370
13
48
1
60
0
100
AcDbSpline
70
4
71
3
72
8
73
4
40
0
40
0
40
0
40
0
40
1
40
1
40
1
40
1
41
1
10
55.9113734113315
20
5.23070123886583
30
0
41
1
10
55.9364773175184
20
5.20453948060498
30
0
41
1
10
55.9616687767824
20
5.17829818733281
30
0
41
1
10
55.9869558816808
20
5.15197694254792
30
0
0
SPLINE
5
EE
100
AcDbEntity
8
1
62
256
6
ByLayer
370
18
48
1
60
0
100
AcDbSpline
70
4
71
3
72
35
73
31
40
0
40
0
40
0
40
0
40
0.12500000000003
40
0.12500000000003
40
0.25000000000006
40
0.25000000000006
40
0.312500000000075
40
0.312500000000075
40
0.37500000000009
40
0.37500000000009
40
0.500000000000086
40
0.500000000000086
40
0.625000000000082
40
0.625000000000082
40
0.687500000000068
40
0.687500000000068
40
0.750000000000054
40
0.750000000000054
40
0.781250000000047
40
0.781250000000047
40
0.81250000000004
40
0.843750000000033
40
0.843750000000033
40
0.875000000000026
40
0.875000000000026
40
0.937500000000013
40
0.937500000000013
40
0.968750000000007
40
0.968750000000007
40
1
40
1
40
1
40
1
41
1
10
55.9869559022413
20
5.15197698203633
30
0
41
1
10
56.02020168375
20
5.14423453622317
30
0
41
1
10
56.0530805415726
20
5.13554166443882
30
0
41
1
10
56.1179493452249
20
5.11596138118287
30
0
41
1
10
56.1499412313829
20
5.10507767491345
30
0
41
1
10
56.1970779793211
20
5.08675530277682
30
0
41
1
10
56.2126696660371
20
5.08030268483498
30
0
41
1
10
56.2433435189823
20
5.06672127826198
30
0
41
1
10
56.2584392656914
20
5.05958866368334
30
0
41
1
10
56.3028974553117
20
5.03704027433062
30
0
41
1
10
56.3314512390757
20
5.02049852028443
30
0
41
1
10
56.3854752659382
20
4.98330770431801
30
0
41
1
10
56.410987494904
20
4.96270922637862
30
0
41
1
10
56.4454671612801
20
4.92696184090778
30
0
41
1
10
56.4563538659207
20
4.91414408581909
30
0
41
1
10
56.4757024378847
20
4.88713050723641
30
0
41
1
10
56.4842485815947
20
4.87287160071773
30
0
41
1
10
56.4948106473682
20
4.85000432693869
30
0
41
1
10
56.497962592189
20
4.84210141588784
30
0
41
1
10
56.5033151625638
20
4.82585520277496
30
0
41
1
10
56.5076786678114
20
4.8093018117398
30
0
41
1
10
56.5098730090581
20
4.79208156677657
30
0
41
1
10
56.5108613918474
20
4.77449378652184
30
0
41
1
10
56.5107411855828
20
4.76544881056608
30
0
41
1
10
56.5084415359415
20
4.73847953981291
30
0
41
1
10
56.5043733223462
20
4.7205805344754
30
0
41
1
10
56.4945449971519
20
4.69385784767709
30
0
41
1
10
56.4906433256313
20
4.68499022530125
30
0
41
1
10
56.4818927663055
20
4.66777882994742
30
0
41
1
10
56.4770218409985
20
4.6593695382719
30
0
41
1
10
56.4717079451293
20
4.65113570184462
30
0
0
SPLINE
5
EF
100
AcDbEntity
8
1
62
256
6
ByLayer
370
13
48
1
60
0
100
AcDbSpline
70
4
71
3
72
24
73
20
40
0
40
0
40
0
40
0
40
0.249999999999993
40
0.249999999999993
40
0.312499999999988
40
0.312499999999988
40
0.374999999999983
40
0.374999999999983
40
0.49999999999998
40
0.49999999999998
40
0.624999999999977
40
0.624999999999977
40
0.687499999999978
40
0.687499999999978
40
0.74999999999998
40
0.74999999999998
40
0.87499999999999
40
0.87499999999999
40
1
40
1
40
1
40
1
41
1
10
56.4717079452965
20
4.65113570177843
30
0
41
1
10
56.696936345142
20
4.42088496242047
30
0
41
1
10
56.9298518386694
20
4.18724470691072
30
0
41
1
10
57.2351375954565
20
3.89298621957624
30
0
41
1
10
57.2969045318686
20
3.83402932783051
30
0
41
1
10
57.4219909808989
20
3.71598127401788
30
0
41
1
10
57.4853286476081
20
3.65690655421639
30
0
41
1
10
57.6776981108579
20
3.47942310290048
30
0
41
1
10
57.8090871268627
20
3.36070500519935
30
0
41
1
10
58.0774205897208
20
3.12180806400323
30
0
41
1
10
58.214336126157
20
3.00166252839577
30
0
41
1
10
58.4233759876628
20
2.82035917497194
30
0
41
1
10
58.4936920944055
20
2.75972685947684
30
0
41
1
10
58.6354125110305
20
2.63819783295796
30
0
41
1
10
58.7065927389263
20
2.57750115397462
30
0
41
1
10
58.9211082705206
20
2.39565797698714
30
0
41
1
10
59.065406207125
20
2.27473473669781
30
0
41
1
10
59.3560926361123
20
2.03315944431205
30
0
41
1
10
59.5024460352803
20
1.91246544809465
30
0
41
1
10
59.6494302235772
20
1.79162167953009
30
0
0
SPLINE
5
F0
100
AcDbEntity
8
1
62
256
6
ByLayer
370
18
48
1
60
0
100
AcDbSpline
70
4
71
3
72
38
73
34
40
0
40
0
40
0
40
0
40
0.0735387179382853
40
0.0735387179382853
40
0.166184846144462
40
0.166184846144462
40
0.212507910247549
40
0.212507910247549
40
0.258830974350635
40
0.258830974350635
40
0.444123230762978
40
0.444123230762978
40
0.53676935896915
40
0.53676935896915
40
0.583092423072236
40
0.583092423072236
40
0.629415487175322
40
0.629415487175322
40
0.722061615381493
40
0.722061615381493
40
0.768384679484577
40
0.768384679484577
40
0.814707743587662
40
0.814707743587662
40
0.861030807690746
40
0.861030807690746
40
0.907353871793831
40
0.907353871793831
40
0.953676935896916
40
0.953676935896916
40
0.976838467948458
40
0.976838467948458
40
1
40
1
40
1
40
1
41
1
10
56.4882207243202
20
3.87994471347224
30
0
41
1
10
56.4804312410067
20
3.88853017670641
30
0
41
1
10
56.4734302157284
20
3.89784611467002
30
0
41
1
10
56.4591902332174
20
3.92067073479049
30
0
41
1
10
56.45236613312
20
3.93463709382039
30
0
41
1
10
56.4435687257523
20
3.95759417688379
30
0
41
1
10
56.4408762618763
20
3.96558106072081
30
0
41
1
10
56.4359350703605
20
3.98224764262446
30
0
41
1
10
56.4336849355134
20
3.99093864884682
30
0
41
1
10
56.4235336239708
20
4.03579711243196
30
0
41
1
10
56.4187948775438
20
4.07641649106785
30
0
41
1
10
56.4148830959087
20
4.14450869094804
30
0
41
1
10
56.4141209923832
20
4.16840083440894
30
0
41
1
10
56.4136528246809
20
4.20606602273386
30
0
41
1
10
56.4136100095425
20
4.21892586165279
30
0
41
1
10
56.4137395446354
20
4.24526600972416
30
0
41
1
10
56.4139122646524
20
4.25875817642427
30
0
41
1
10
56.4147467358101
20
4.29995183452954
30
0
41
1
10
56.4157111894834
20
4.3284318643795
30
0
41
1
10
56.4179119905628
20
4.37273871097267
30
0
41
1
10
56.4187737516554
20
4.38777296206973
30
0
41
1
10
56.4208337419213
20
4.41840101131069
30
0
41
1
10
56.4220311727785
20
4.43399522368523
30
0
41
1
10
56.4248970289489
20
4.46558265032292
30
0
41
1
10
56.4265628850155
20
4.48159807179653
30
0
41
1
10
56.4306596379748
20
4.51411476269902
30
0
41
1
10
56.4330781065817
20
4.53061416260175
30
0
41
1
10
56.4393301701434
20
4.56419524128347
30
0
41
1
10
56.4431066796951
20
4.58126838983247
30
0
41
1
10
56.4512033157172
20
4.60752051735182
30
0
41
1
10
56.4543492024737
20
4.61643924260483
30
0
41
1
10
56.4618705072151
20
4.63398619081278
30
0
41
1
10
56.466240122147
20
4.6426633566625
30
0
41
1
10
56.4717079451694
20
4.65113570190826
30
0
0
SPLINE
5
F1
100
AcDbEntity
8
1
62
256
6
ByLayer
370
18
48
1
60
0
100
AcDbSpline
70
4
71
3
72
9
73
5
40
0
40
0
40
0
40
0
40
0.0083054670697193
40
1
40
1
40
1
40
1
41
1
10
45.0251250767064
20
-5.88033297969449
30
0
41
1
10
45.0167500511376
20
-5.88128938974972
30
0
41
1
10
44.0083750255688
20
-5.99575765878433
30
0
41
1
10
43.0000000000001
20
-6.02760326616246
30
0
41
1
10
42
20
-5.97493293395101
30
0
0
SPLINE
5
F2
100
AcDbEntity
8
1
62
256
6
ByLayer
370
18
48
1
60
0
100
AcDbSpline
70
4
71
3
72
17
73
13
40
0
40
0
40
0
40
0
40
0.0967541473389847
40
0.194097646576104
40
0.29208182036207
40
0.390756991569053
40
0.490172433636638
40
0.590376327842651
40
0.691415727404009
40
0.793336528234449
40
0.896183446117907
40
1
40
1
40
1
40
1
41
1
10
59.9009058437138
20
-0.710177455533795
30
0
41
1
10
59.9010328767597
20
-0.706707942060149
30
0
41
1
10
59.901287716639
20
-0.699747781503561
30
0
41
1
10
59.9019696649123
20
-0.689303572005059
30
0
41
1
10
59.9028729859636
20
-0.678818505614998
30
0
41
1
10
59.9040205936829
20
-0.668293857068477
30
0
41
1
10
59.9054076978813
20
-0.657728562193626
30
0
41
1
10
59.9070375134084
20
-0.64712225371872
30
0
41
1
10
59.9089095383487
20
-0.636473889323753
30
0
41
1
10
59.9110304406437
20
-0.625784210142939
30
0
41
1
10
59.9133818918011
20
-0.615047191758521
30
0
41
1
10
59.9151452944822
20
-0.607905013088526
30
0
41
1
10
59.9160311326416
20
-0.604317168703687
30
0
0
SPLINE
5
F3
100
AcDbEntity
8
1
62
256
6
ByLayer
370
18
48
1
60
0
100
AcDbSpline
70
4
71
3
72
10
73
6
40
0
40
0
40
0
40
0
40
0.5
40
0.5
40
1
40
1
40
1
40
1
41
1
10
59.6775732035773
20
1.81551442143584
30
0
41
1
10
59.6717913712432
20
1.8129689536097
30
0
41
1
10
59.6666710779871
20
1.80947678280711
30
0
41
1
10
59.6573064252035
20
1.80123876085293
30
0
41
1
10
59.6531487464446
20
1.79654893541729
30
0
41
1
10
59.6494302235779
20
1.79162167953083
30
0
0
SPLINE
5
F4
100
AcDbEntity
8
1
62
256
6
ByLayer
370
18
48
1
60
0
100
AcDbSpline
70
4
71
3
72
24
73
20
40
0
40
0
40
0
40
0
40
0.074245649576695
40
0.074245649576695
40
0.259396519661372
40
0.259396519661372
40
0.444547389746049
40
0.444547389746049
40
0.629698259830726
40
0.629698259830726
40
0.722273694873064
40
0.722273694873064
40
0.814849129915402
40
0.814849129915402
40
0.90742456495774
40
0.90742456495774
40
0.95371228247887
40
0.95371228247887
40
1
40
1
40
1
40
1
41
1
10
59.3376293308891
20
1.59501953729844
30
0
41
1
10
59.3447460993074
20
1.59839387569406
30
0
41
1
10
59.35200025841
20
1.60188259999046
30
0
41
1
10
59.3776122717245
20
1.61437700671738
30
0
41
1
10
59.3963643644626
20
1.62383084595197
30
0
41
1
10
59.4347117512548
20
1.64384324644615
30
0
41
1
10
59.4543093090133
20
1.65439863637917
30
0
41
1
10
59.494234557219
20
1.67678056670502
30
0
41
1
10
59.5146579796984
20
1.68865106880634
30
0
41
1
10
59.54517507247
20
1.7074877400394
30
0
41
1
10
59.5553349188793
20
1.7139447520097
30
0
41
1
10
59.5755368722212
20
1.72734946294949
30
0
41
1
10
59.5855977919109
20
1.73430593762873
30
0
41
1
10
59.6052443035228
20
1.74885546603559
30
0
41
1
10
59.614855278673
20
1.7564475053066
30
0
41
1
10
59.6285765565667
20
1.76873609188661
30
0
41
1
10
59.6330317194125
20
1.77298547178845
30
0
41
1
10
59.6415771636025
20
1.78193479422512
30
0
41
1
10
59.6456941288257
20
1.78667113988948
30
0
41
1
10
59.6494302235776
20
1.791621679531
30
0
0
SPLINE
5
F5
100
AcDbEntity
8
1
62
256
6
ByLayer
370
18
48
1
60
0
100
AcDbSpline
70
4
71
3
72
14
73
10
40
0
40
0
40
0
40
0
40
0.500000000000018
40
0.500000000000018
40
0.625000000000022
40
0.625000000000022
40
0.750000000000026
40
0.750000000000026
40
1
40
1
40
1
40
1
41
1
10
59.5394997359714
20
-0.634962773769246
30
0
41
1
10
59.5416879223074
20
-0.676584163551098
30
0
41
1
10
59.5462766566953
20
-0.718243338590128
30
0
41
1
10
59.5546896703878
20
-0.770506626576434
30
0
41
1
10
59.556518236373
20
-0.781008173116021
30
0
41
1
10
59.5604170275874
20
-0.801794920734864
30
0
41
1
10
59.5624854412271
20
-0.812077850668231
30
0
41
1
10
59.5690491151062
20
-0.842603539477921
30
0
41
1
10
59.5738993411904
20
-0.86252365680096
30
0
41
1
10
59.5792729374781
20
-0.882030540056235
30
0
0
SPLINE
5
F6
100
AcDbEntity
8
1
62
256
6
ByLayer
370
18
48
1
60
0
100
AcDbSpline
70
4
71
3
72
10
73
6
40
0
40
0
40
0
40
0
40
0.655576505060081
40
0.983364757590122
40
1
40
1
40
1
40
1
41
1
10
42
20
-5.82950135021733
30
0
41
1
10
43.0000000000001
20
-5.92725738559207
30
0
41
1
10
44.5
20
-5.95061538912466
30
0
41
1
10
46.0253749826015
20
-5.78859494656078
30
0
41
1
10
46.5507499652031
20
-5.71052862149048
30
0
41
1
10
46.5761249478046
20
-5.70670635654076
30
0
0
SPLINE
5
F7
100
AcDbEntity
8
1
62
256
6
ByLayer
370
18
48
1
60
0
100
AcDbSpline
70
4
71
3
72
25
73
21
40
0
40
0
40
0
40
0
40
0.0329568119650325
40
0.0329568119650325
40
0.0716385394864303
40
0.0716385394864303
40
0.226365449572025
40
0.226365449572025
40
0.381092359657619
40
0.381092359657619
40
0.419774087179019
40
0.419774087179019
40
0.458455814700418
40
0.535819269743217
40
0.535819269743217
40
0.690546179828811
40
0.690546179828811
40
0.845273089914406
40
0.845273089914406
40
1
40
1
40
1
40
1
41
1
10
51.6886037502761
20
-4.8860129350422
30
0
41
1
10
51.5817038844943
20
-4.9165138881572
30
0
41
1
10
51.4747427109093
20
-4.94624684668028
30
0
41
1
10
51.2423541437513
20
-5.00910086716371
30
0
41
1
10
51.1169503767754
20
-5.04191340008961
30
0
41
1
10
50.4902177083
20
-5.20025360021035
30
0
41
1
10
49.9897397440732
20
-5.30866701990948
30
0
41
1
10
48.98859327839
20
-5.48850357741736
30
0
41
1
10
48.4879579800029
20
-5.55993133294814
30
0
41
1
10
47.8607114141891
20
-5.62509458498343
30
0
41
1
10
47.7352274520392
20
-5.63691220927834
30
0
41
1
10
47.4846969612312
20
-5.65804992870926
30
0
41
1
10
47.1093323606538
20
-5.68603414667626
30
0
41
1
10
46.7350916474771
20
-5.70280317848727
30
0
41
1
10
45.9876451273084
20
-5.72122490835255
30
0
41
1
10
45.4907112189925
20
-5.71337565405193
30
0
41
1
10
44.496669810048
20
-5.6587282555854
30
0
41
1
10
43.9995644790946
20
-5.6119303931728
30
0
41
1
10
43.0025180852966
20
-5.48033611842965
30
0
41
1
10
42.5025769454972
20
-5.39555547673899
30
0
41
1
10
42.0000000000001
20
-5.29191224472316
30
0
0
SPLINE
5
F8
100
AcDbEntity
8
1
62
256
6
ByLayer
370
13
48
1
60
0
100
AcDbSpline
70
4
71
3
72
10
73
6
40
0
40
0
40
0
40
0
40
0.104102678520103
40
0.402735119013402
40
1
40
1
40
1
40
1
41
1
10
49.5343455529592
20
-5.15839263986763
30
0
41
1
10
49.2728970353061
20
-5.19876073087411
30
0
41
1
10
48.2614485176531
20
-5.33611869683841
30
0
41
1
10
45.7500000000001
20
-5.49301311616037
30
0
41
1
10
43.5000000000002
20
-5.24771717312404
30
0
41
1
10
42.0000000000001
20
-4.92741248988733
30
0
0
SPLINE
5
F9
100
AcDbEntity
8
1
62
256
6
ByLayer
370
18
48
1
60
0
100
AcDbSpline
70
4
71
3
72
8
73
4
40
0
40
0
40
0
40
0
40
1
40
1
40
1
40
1
41
1
10
55.7278350112663
20
-5.25476823779093
30
0
41
1
10
55.7687511889807
20
-5.24915447662974
30
0
41
1
10
55.809029313479
20
-5.24387536248665
30
0
41
1
10
55.8487284910426
20
-5.23882254386334
30
0
0
SPLINE
5
FA
100
AcDbEntity
8
1
62
256
6
ByLayer
370
13
48
1
60
0
100
AcDbSpline
70
4
71
3
72
9
73
5
40
0
40
0
40
0
40
0
40
0.162079016361987
40
1
40
1
40
1
40
1
41
1
10
47.370434787851
20
-5.26880540155889
30
0
41
1
10
47.0802898585673
20
-5.27653018955888
30
0
41
1
10
45.2901449292836
20
-5.28614765158627
30
0
41
1
10
43.5
20
-5.05744320587269
30
0
41
1
10
42
20
-4.71579549199109
30
0
0
SPLINE
5
FB
100
AcDbEntity
8
1
62
256
6
ByLayer
370
18
48
1
60
0
100
AcDbSpline
70
4
71
3
72
10
73
6
40
0
40
0
40
0
40
0
40
0.5
40
0.5
40
1
40
1
40
1
40
1
41
1
10
59.9621646704967
20
0.0581758571435103
30
0
41
1
10
59.9607614958707
20
-0.053209494182596
30
0
41
1
10
59.9563886563589
20
-0.164232661875786
30
0
41
1
10
59.9412053621975
20
-0.385209721322212
30
0
41
1
10
59.9304033782563
20
-0.495169692034494
30
0
41
1
10
59.9160311326398
20
-0.604317168704597
30
0
0
SPLINE
5
FC
100
AcDbEntity
8
1
62
256
6
ByLayer
370
18
48
1
60
0
100
AcDbSpline
70
4
71
3
72
16
73
12
40
0
40
0
40
0
40
0
40
0.250000000000026
40
0.250000000000026
40
0.375000000000021
40
0.375000000000021
40
0.500000000000017
40
0.500000000000017
40
0.750000000000009
40
0.750000000000009
40
1
40
1
40
1
40
1
41
1
10
59.9160311326385
20
-0.604317168704256
30
0
41
1
10
59.9156856876913
20
-0.613468929437147
30
0
41
1
10
59.9150880768085
20
-0.622749638698451
30
0
41
1
10
59.9138123907766
20
-0.636612418674531
30
0
41
1
10
59.9133234836631
20
-0.64123695385274
30
0
41
1
10
59.9122166448922
20
-0.650493296380034
30
0
41
1
10
59.9115959577787
20
-0.655138268539304
30
0
41
1
10
59.9095935581512
20
-0.668739527458342
30
0
41
1
10
59.9080601037193
20
-0.677479395723736
30
0
41
1
10
59.9046652920277
20
-0.694417687909606
30
0
41
1
10
59.9028222753121
20
-0.702515327175661
30
0
41
1
10
59.9009058437106
20
-0.710177455528793
30
0
0
SPLINE
5
FD
100
AcDbEntity
8
1
62
256
6
ByLayer
370
18
48
1
60
0
100
AcDbSpline
70
4
71
3
72
16
73
12
40
0
40
0
40
0
40
0
40
0.25
40
0.25
40
0.5
40
0.5
40
0.75
40
0.75
40
0.875
40
0.875
40
1
40
1
40
1
40
1
41
1
10
59.9009058437114
20
-0.710177455533426
30
0
41
1
10
59.8926151831805
20
-0.763884852060585
30
0
41
1
10
59.8833842368347
20
-0.817407678403072
30
0
41
1
10
59.8631032726434
20
-0.922668011716496
30
0
41
1
10
59.8520375535586
20
-0.974535060311865
30
0
41
1
10
59.827903892105
20
-1.07624068850146
30
0
41
1
10
59.8148403407254
20
-1.12609315828388
30
0
41
1
10
59.7935336905185
20
-1.19866438836104
30
0
41
1
10
59.7861216697528
20
-1.22254751945661
30
0
41
1
10
59.7708497483974
20
-1.26879155996156
30
0
41
1
10
59.7629787192406
20
-1.29120152906853
30
0
41
1
10
59.7548664569124
20
-1.31268823191027
30
0
0
SPLINE
5
FE
100
AcDbEntity
8
1
62
256
6
ByLayer
370
18
48
1
60
0
100
AcDbSpline
70
4
71
3
72
11
73
7
40
0
40
0
40
0
40
0
40
0.0349546655359747
40
0.126646636991623
40
0.408522116379091
40
1
40
1
40
1
40
1
41
1
10
55.076304489471
20
-5.24704295879073
30
0
41
1
10
55.0854974442543
20
-5.24783857319412
30
0
41
1
10
55.118814374603
20
-5.25060440634525
30
0
41
1
10
55.2262146230392
20
-5.25817435906808
30
0
41
1
10
55.4775719208323
20
-5.26650029452725
30
0
41
1
10
55.700126688454
20
-5.25489790772775
30
0
41
1
10
55.8487284910431
20
-5.23882254386331
30
0
0
SPLINE
5
FF
100
AcDbEntity
8
1
62
256
6
ByLayer
370
18
48
1
60
0
100
AcDbSpline
70
4
71
3
72
8
73
4
40
0
40
0
40
0
40
0
40
1
40
1
40
1
40
1
41
1
10
55.8487284910425
20
-5.23882254386336
30
0
41
1
10
55.8697596840222
20
-5.23596776576545
30
0
41
1
10
55.8906405875504
20
-5.23326243761656
30
0
41
1
10
55.9113734113591
20
-5.2307012388388
30
0
0
SPLINE
5
100
100
AcDbEntity
8
1
62
256
6
ByLayer
370
18
48
1
60
0
100
AcDbSpline
70
4
71
3
72
39
73
35
40
0
40
0
40
0
40
0
40
0.0624999999999983
40
0.0624999999999983
40
0.0937499999999975
40
0.0937499999999975
40
0.124999999999997
40
0.187499999999995
40
0.218749999999996
40
0.218749999999996
40
0.249999999999997
40
0.249999999999997
40
0.375
40
0.375
40
0.437500000000001
40
0.437500000000001
40
0.500000000000003
40
0.500000000000003
40
0.531250000000006
40
0.531250000000006
40
0.562500000000009
40
0.62500000000001
40
0.62500000000001
40
0.750000000000013
40
0.750000000000013
40
0.812500000000014
40
0.812500000000014
40
0.843750000000012
40
0.843750000000012
40
0.875000000000009
40
0.875000000000009
40
0.937500000000005
40
0.937500000000005
40
1
40
1
40
1
40
1
41
1
10
59.7123220864038
20
-1.83080584104857
30
0
41
1
10
59.6755716013734
20
-1.94468481261188
30
0
41
1
10
59.6353697536177
20
-2.05713404016674
30
0
41
1
10
59.5698355312207
20
-2.22362642974531
30
0
41
1
10
59.5471017223709
20
-2.27879676627001
30
0
41
1
10
59.5000751231254
20
-2.38797237796862
30
0
41
1
10
59.4271443905426
20
-2.55013619642318
30
0
41
1
10
59.3203612026656
20
-2.75998213850443
30
0
41
1
10
59.2331213642125
20
-2.91261530987023
30
0
41
1
10
59.1733685582077
20
-3.01331634239278
30
0
41
1
10
59.1427083028133
20
-3.06311314218084
30
0
41
1
10
58.985989848679
20
-3.308517437115
30
0
41
1
10
58.8492854044328
20
-3.49415418099821
30
0
41
1
10
58.6271868658596
20
-3.75644286597009
30
0
41
1
10
58.550702225153
20
-3.8407092295553
30
0
41
1
10
58.3929658573926
20
-4.00282256084378
30
0
41
1
10
58.3116960645798
20
-4.08068458397091
30
0
41
1
10
58.1861698189898
20
-4.19268365229519
30
0
41
1
10
58.1436750308807
20
-4.22925748281614
30
0
41
1
10
58.0576976625759
20
-4.30060900380201
30
0
41
1
10
57.9274772636084
20
-4.40476172055619
30
0
41
1
10
57.7935573454675
20
-4.50043617302643
30
0
41
1
10
57.5208812661172
20
-4.68068902849527
30
0
41
1
10
57.332668563688
20
-4.7861266573465
30
0
41
1
10
57.0407024503435
20
-4.92209357549984
30
0
41
1
10
56.9417695214112
20
-4.96370661391035
30
0
41
1
10
56.7908923811257
20
-5.02039999300126
30
0
41
1
10
56.7401092535319
20
-5.03836466576436
30
0
41
1
10
56.6382239549699
20
-5.07216872984384
30
0
41
1
10
56.5870967212863
20
-5.08802130104263
30
0
41
1
10
56.4331681049823
20
-5.1324420384168
30
0
41
1
10
56.329821309165
20
-5.15786948130477
30
0
41
1
10
56.121684348537
20
-5.20047187646375
30
0
41
1
10
56.0168516178317
20
-5.21767114433797
30
0
41
1
10
55.9113734113589
20
-5.23070123883883
30
0
0
SPLINE
5
101
100
AcDbEntity
8
1
62
256
6
ByLayer
370
18
48
1
60
0
100
AcDbSpline
70
4
71
3
72
16
73
12
40
0
40
0
40
0
40
0
40
0.249999999999998
40
0.249999999999998
40
0.499999999999997
40
0.499999999999997
40
0.624999999999998
40
0.624999999999998
40
0.749999999999998
40
0.749999999999998
40
1
40
1
40
1
40
1
41
1
10
59.9984752342131
20
-0.0580469135269084
30
0
41
1
10
59.9941662433834
20
-0.208278475713797
30
0
41
1
10
59.9849457313952
20
-0.358031971911629
30
0
41
1
10
59.9567474123122
20
-0.656589231875159
30
0
41
1
10
59.9377911085083
20
-0.805395088677102
30
0
41
1
10
59.9018915974685
20
-1.02787725804225
30
0
41
1
10
59.888686701351
20
-1.10187523065491
30
0
41
1
10
59.8598766095138
20
-1.2491965668905
30
0
41
1
10
59.844263258915
20
-1.32257020809902
30
0
41
1
10
59.7938444481133
20
-1.54184101490122
30
0
41
1
10
59.7554782309447
20
-1.68689233996861
30
0
41
1
10
59.7123220864038
20
-1.83080584104854
30
0
0
SPLINE
5
102
100
AcDbEntity
8
1
62
256
6
ByLayer
370
18
48
1
60
0
100
AcDbSpline
70
4
71
3
72
8
73
4
40
0
40
0
40
0
40
0
40
1
40
1
40
1
40
1
41
1
10
59.9984752342131
20
-0.0580469135274768
30
0
41
1
10
59.9922329224061
20
-0.0667369784895584
30
0
41
1
10
59.9860228972696
20
-0.0754292415419968
30
0
41
1
10
59.9798465157419
20
-0.0841237950656648
30
0
0
SPLINE
5
103
100
AcDbEntity
8
1
62
256
6
ByLayer
370
18
48
1
60
0
100
AcDbSpline
70
4
71
3
72
8
73
4
40
0
40
0
40
0
40
0
40
1
40
1
40
1
40
1
41
1
10
59.9801160576471
20
0.0581483963881055
30
0
41
1
10
59.9805183210796
20
0.0107243325590787
30
0
41
1
10
59.9804284737779
20
-0.0366997312095805
30
0
41
1
10
59.979846515742
20
-0.0841237950656648
30
0
0
SPLINE
5
104
100
AcDbEntity
8
1
62
256
6
ByLayer
370
18
48
1
60
0
100
AcDbSpline
70
4
71
3
72
11
73
7
40
0
40
0
40
0
40
0
40
0.176707103893583
40
0.382530327920187
40
0.588353551946791
40
1
40
1
40
1
40
1
41
1
10
52.9317109895682
20
-4.67044302541328
30
0
41
1
10
52.2878073263788
20
-4.78174979840676
30
0
41
1
10
50.8939036631894
20
-4.96445753512614
30
0
41
1
10
48.75
20
-5.03706331247196
30
0
41
1
10
45.75
20
-4.82711200999492
30
0
41
1
10
43.5000000000001
20
-4.33122709123327
30
0
41
1
10
42
20
-3.86998718002704
30
0
0
SPLINE
5
105
100
AcDbEntity
8
1
62
256
6
ByLayer
370
13
48
1
60
0
100
AcDbSpline
70
4
71
3
72
10
73
6
40
0
40
0
40
0
40
0
40
0.0068900989875395
40
0.33792673265836
40
1
40
1
40
1
40
1
41
1
10
48.7968308372703
20
-2.84081572340983
30
0
41
1
10
48.7812205581802
20
-2.83704489996961
30
0
41
1
10
48.0156102790901
20
-2.65163722746905
30
0
41
1
10
45.75
20
-2.03552796427596
30
0
41
1
10
43.5000000000001
20
-1.26519277134193
30
0
41
1
10
42.0000000000001
20
-0.728108167100316
30
0
0
SPLINE
5
106
100
AcDbEntity
8
1
62
256
6
ByLayer
370
18
48
1
60
0
100
AcDbSpline
70
4
71
3
72
9
73
5
40
0
40
0
40
0
40
0
40
0.124549188450539
40
1
40
1
40
1
40
1
41
1
10
55.7923252053721
20
4.0072370560469
30
0
41
1
10
55.694883470248
20
4.03526795944714
30
0
41
1
10
54.912528030311
20
4.25612802085774
30
0
41
1
10
54.1301725903739
20
4.44254977999208
30
0
41
1
10
53.4452588855608
20
4.57600346130107
30
0
0
SPLINE
5
107
100
AcDbEntity
8
1
62
256
6
ByLayer
370
18
48
1
60
0
100
AcDbSpline
70
4
71
3
72
8
73
4
40
0
40
0
40
0
40
0
40
1
40
1
40
1
40
1
41
1
10
56.971019611661
20
3.7788195314854
30
0
41
1
10
56.9684560643583
20
3.7794153417041
30
0
41
1
10
56.9656879995857
20
3.78020238994628
30
0
41
1
10
56.9627188450534
20
3.78117747023055
30
0
0
SPLINE
5
108
100
AcDbEntity
8
1
62
256
6
ByLayer
370
18
48
1
60
0
100
AcDbSpline
70
4
71
3
72
20
73
16
40
0
40
0
40
0
40
0
40
0.250000000000005
40
0.250000000000005
40
0.375000000000004
40
0.375000000000004
40
0.500000000000003
40
0.500000000000003
40
0.625000000000003
40
0.625000000000003
40
0.750000000000002
40
0.750000000000002
40
0.875000000000001
40
0.875000000000001
40
1
40
1
40
1
40
1
41
1
10
56.9627188333179
20
3.78117747425284
30
0
41
1
10
56.8428706117185
20
3.82054679048258
30
0
41
1
10
56.726569698219
20
3.85653359932138
30
0
41
1
10
56.5589908777051
20
3.9039605248708
30
0
41
1
10
56.5043021221542
20
3.9186655561748
30
0
41
1
10
56.397702221195
20
3.94551799286163
30
0
41
1
10
56.345777671293
20
3.95766974370957
30
0
41
1
10
56.2451150128248
20
3.97902063947009
30
0
41
1
10
56.1963737342466
20
3.988218138425
30
0
41
1
10
56.1029310067159
20
4.0031172734856
30
0
41
1
10
56.058188059166
20
4.00882923430112
30
0
41
1
10
55.9733210605842
20
4.01619646374417
30
0
41
1
10
55.9331950709515
20
4.01785343500936
30
0
41
1
10
55.8583992036016
20
4.01637537440712
30
0
41
1
10
55.8237262835253
20
4.01324301458803
30
0
41
1
10
55.792325205183
20
4.00723705611821
30
0
0
SPLINE
5
109
100
AcDbEntity
8
1
62
256
6
ByLayer
370
18
48
1
60
0
100
AcDbSpline
70
4
71
3
72
24
73
20
40
0
40
0
40
0
40
0
40
0.124999999999989
40
0.124999999999989
40
0.249999999999978
40
0.249999999999978
40
0.281249999999978
40
0.281249999999978
40
0.312499999999979
40
0.312499999999979
40
0.37499999999998
40
0.37499999999998
40
0.499999999999984
40
0.499999999999984
40
0.624999999999988
40
0.624999999999988
40
0.749999999999992
40
0.749999999999992
40
1
40
1
40
1
40
1
41
1
10
55.7923252053588
20
4.00723705599728
30
0
41
1
10
55.7898370266458
20
3.99556190194787
30
0
41
1
10
55.7916184228697
20
3.98090592258754
30
0
41
1
10
55.8022984409847
20
3.94662503706166
30
0
41
1
10
55.8112052476008
20
3.92699441662137
30
0
41
1
10
55.8262079020115
20
3.89975487720858
30
0
41
1
10
55.8294027601967
20
3.89417129874104
30
0
41
1
10
55.8361695747508
20
3.88274086880949
30
0
41
1
10
55.839745458802
20
3.87688841025843
30
0
41
1
10
55.8509332322594
20
3.85908610281035
30
0
41
1
10
55.8590280466815
20
3.84685011426365
30
0
41
1
10
55.8850115507781
20
3.80916008376187
30
0
41
1
10
55.9045897911923
20
3.78272947382075
30
0
41
1
10
55.9474513684792
20
3.72772669139081
30
0
41
1
10
55.9707392653508
20
3.69915188320172
30
0
41
1
10
56.0204821863416
20
3.64017165291858
30
0
41
1
10
56.0470146416943
20
3.60968484066643
30
0
41
1
10
56.1296569831619
20
3.51705318063844
30
0
41
1
10
56.1890471604171
20
3.45340936745339
30
0
41
1
10
56.2516181561257
20
3.38836640242855
30
0
0
SPLINE
5
10A
100
AcDbEntity
8
1
62
256
6
ByLayer
370
18
48
1
60
0
100
AcDbSpline
70
4
71
3
72
14
73
10
40
0
40
0
40
0
40
0
40
0.25
40
0.25
40
0.5
40
0.5
40
0.75
40
0.75
40
1
40
1
40
1
40
1
41
1
10
56.982009873994
20
3.76992068094273
30
0
41
1
10
57.1580486705378
20
3.6051287989024
30
0
41
1
10
57.337465661141
20
3.43995929194014
30
0
41
1
10
57.702261460475
20
3.10895384764905
30
0
41
1
10
57.8876421498815
20
2.94311770009253
30
0
41
1
10
58.2638054325919
20
2.61084156354778
30
0
41
1
10
58.4545885297564
20
2.44440151823642
30
0
41
1
10
58.841189907703
20
2.11095857930269
30
0
41
1
10
59.0370329426547
20
1.94395291858311
30
0
41
1
10
59.2349490158033
20
1.77671552727801
30
0
0
SPLINE
5
10B
100
AcDbEntity
8
1
62
256
6
ByLayer
370
18
48
1
60
0
100
AcDbSpline
70
4
71
3
72
14
73
10
40
0
40
0
40
0
40
0
40
0.25
40
0.25
40
0.5
40
0.5
40
0.75
40
0.75
40
1
40
1
40
1
40
1
41
1
10
56.8953958008942
20
-0.326506934552043
30
0
41
1
10
57.0820317134061
20
-0.443852091002384
30
0
41
1
10
57.2723461937101
20
-0.549681468780989
30
0
41
1
10
57.6593405627557
20
-0.741413274810611
30
0
41
1
10
57.8560229998712
20
-0.82730772536226
30
0
41
1
10
58.2550760129156
20
-0.981289873584018
30
0
41
1
10
58.4574473885504
20
-1.04937506777043
30
0
41
1
10
58.8674575958198
20
-1.16905565334793
30
0
41
1
10
59.0751277846073
20
-1.22055288098306
30
0
41
1
10
59.2849591321133
20
-1.26528458820789
30
0
0
SPLINE
5
10C
100
AcDbEntity
8
1
62
256
6
ByLayer
370
18
48
1
60
0
100
AcDbSpline
70
4
71
3
72
15
73
11
40
0
40
0
40
0
40
0
40
0.249999999999966
40
0.249999999999966
40
0.499999999999933
40
0.499999999999933
40
0.624999999999936
40
0.624999999999936
40
0.74999999999994
40
1
40
1
40
1
40
1
41
1
10
56.8922266476051
20
-0.362472872673749
30
0
41
1
10
56.8895386340582
20
-0.388888180942644
30
0
41
1
10
56.8855538153387
20
-0.415154616668417
30
0
41
1
10
56.8747525632277
20
-0.467362420253579
30
0
41
1
10
56.8679700460347
20
-0.493115532665513
30
0
41
1
10
56.8556587568746
20
-0.531023352734678
30
0
41
1
10
56.8511962647763
20
-0.543540544213585
30
0
41
1
10
56.8416404898132
20
-0.568098271632806
30
0
41
1
10
56.8263303375975
20
-0.604315732693578
30
0
41
1
10
56.8081282846532
20
-0.638699623402687
30
0
41
1
10
56.7947209417945
20
-0.660815316544756
30
0
0
SPLINE
5
10D
100
AcDbEntity
8
1
62
256
6
ByLayer
370
13
48
1
60
0
100
AcDbSpline
70
4
71
3
72
9
73
5
40
0
40
0
40
0
40
0
40
0.470789864060589
40
1
40
1
40
1
40
1
41
1
10
56.1840473618359
20
3.27866776847552
30
0
41
1
10
55.9560315745572
20
3.36919932337969
30
0
41
1
10
55.471705541469
20
3.55658165466164
30
0
41
1
10
54.9873795083806
20
3.73275274677829
30
0
41
1
10
54.7310692625709
20
3.82255547049993
30
0
0
SPLINE
5
10E
100
AcDbEntity
8
1
62
256
6
ByLayer
370
18
48
1
60
0
100
AcDbSpline
70
4
71
3
72
42
73
38
40
0
40
0
40
0
40
0
40
0.12500000000002
40
0.12500000000002
40
0.187500000000026
40
0.187500000000026
40
0.250000000000032
40
0.250000000000032
40
0.312500000000038
40
0.312500000000038
40
0.375000000000045
40
0.375000000000045
40
0.437500000000051
40
0.437500000000051
40
0.468750000000054
40
0.484375000000053
40
0.484375000000053
40
0.500000000000051
40
0.500000000000051
40
0.562500000000045
40
0.562500000000045
40
0.625000000000038
40
0.625000000000038
40
0.687500000000032
40
0.718750000000029
40
0.718750000000029
40
0.750000000000025
40
0.750000000000025
40
0.812500000000019
40
0.812500000000019
40
0.875000000000013
40
0.875000000000013
40
0.937500000000006
40
0.937500000000006
40
0.968750000000003
40
0.968750000000003
40
1
40
1
40
1
40
1
41
1
10
56.2516141185932
20
-3.77840873069943
30
0
41
1
10
56.408296670033
20
-3.80000674553403
30
0
41
1
10
56.5656555869679
20
-3.80463967316715
30
0
41
1
10
56.8027050516131
20
-3.78622819493901
30
0
41
1
10
56.8818909635021
20
-3.77584142873701
30
0
41
1
10
57.0406124673325
20
-3.74629696903813
30
0
41
1
10
57.1201479844674
20
-3.72714115189288
30
0
41
1
10
57.2795883156383
20
-3.67956654635862
30
0
41
1
10
57.3582008662634
20
-3.65152837507617
30
0
41
1
10
57.5131442658701
20
-3.58715690592115
30
0
41
1
10
57.5894937555138
20
-3.55081743388644
30
0
41
1
10
57.7399468408071
20
-3.4698255602585
30
0
41
1
10
57.8140518390829
20
-3.42517835033027
30
0
41
1
10
57.9234836751385
20
-3.35182018975431
30
0
41
1
10
57.9777669420081
20
-3.31353969879893
30
0
41
1
10
58.0313853838318
20
-3.27279843106936
30
0
41
1
10
58.0669810970884
20
-3.2450826934201
30
0
41
1
10
58.0847284985694
20
-3.23092699075909
30
0
41
1
10
58.1726655695187
20
-3.15908723020814
30
0
41
1
10
58.2405943724954
20
-3.09813654551141
30
0
41
1
10
58.3717540102247
20
-2.96948398353416
30
0
41
1
10
58.4349895574579
20
-2.90178887830078
30
0
41
1
10
58.5567782964145
20
-2.75966991142602
30
0
41
1
10
58.6446038980109
20
-2.64802810350883
30
0
41
1
10
58.7270756262929
20
-2.52869253775992
30
0
41
1
10
58.7808364395862
20
-2.44738181180296
30
0
41
1
10
58.806950839195
20
-2.40608064276108
30
0
41
1
10
58.8827416648473
20
-2.28073642453799
30
0
41
1
10
58.9299977789063
20
-2.19505750804547
30
0
41
1
10
59.0181942952995
20
-2.01961398749827
30
0
41
1
10
59.0591535381534
20
-1.92986157153598
30
0
41
1
10
59.1348001280524
20
-1.7462993969375
30
0
41
1
10
59.1694747411048
20
-1.65248140057329
30
0
41
1
10
59.2166677506504
20
-1.50863701219364
30
0
41
1
10
59.2315521899415
20
-1.46029512480882
30
0
41
1
10
59.259553145617
20
-1.36318783815051
30
0
41
1
10
59.2726906741288
20
-1.31436949958518
30
0
41
1
10
59.2849591321133
20
-1.26528458820786
30
0
0
SPLINE
5
10F
100
AcDbEntity
8
1
62
256
6
ByLayer
370
18
48
1
60
0
100
AcDbSpline
70
4
71
3
72
33
73
29
40
0
40
0
40
0
40
0
40
0.0015911455001134
40
0.003081198610693
40
0.0077553549187731
40
0.0102393423949007
40
0.0122907064498104
40
0.0193125226417966
40
0.0753928818499723
40
0.117190757807943
40
0.136215517929361
40
0.138799924920719
40
0.139998743938691
40
0.140594231828425
40
0.141032568254817
40
0.141960198832714
40
0.145571867241387
40
0.149590434080698
40
0.159020346050605
40
0.188009372187804
40
0.288518122373687
40
0.403397575590749
40
0.562619884002041
40
0.681941624930605
40
0.79710926628874
40
0.869803735596733
40
0.970483542343244
40
1
40
1
40
1
40
1
41
1
10
53.9999982106064
20
-4.67962404017834
30
0
41
1
10
54.0037749688047
20
-4.68096099833753
30
0
41
1
10
54.0111077598804
20
-4.68355794127183
30
0
41
1
10
54.0296637379906
20
-4.69013604358958
30
0
41
1
10
54.0502443273604
20
-4.6973942037385
30
0
41
1
10
54.0721616375903
20
-4.70510581258947
30
0
41
1
10
54.099977311915
20
-4.7149601206722
30
0
41
1
10
54.2566360550008
20
-4.76908274678644
30
0
41
1
10
54.506926257806
20
-4.84144987560055
30
0
41
1
10
54.7845347449761
20
-4.89986921599916
30
0
41
1
10
54.9337445517009
20
-4.92442955365914
30
0
41
1
10
54.9873732138019
20
-4.93253592322813
30
0
41
1
10
54.9976341196799
20
-4.93398325201275
30
0
41
1
10
55.0028203151851
20
-4.93470703281992
30
0
41
1
10
55.0075588612291
20
-4.93546372961524
30
0
41
1
10
55.019690077677
20
-4.93738426017688
30
0
41
1
10
55.0402909311638
20
-4.94038366411846
30
0
41
1
10
55.0814102306014
20
-4.94605123600968
30
0
41
1
10
55.1836169916251
20
-4.95898942817396
30
0
41
1
10
55.5156730644018
20
-4.98842969196679
30
0
41
1
10
56.084494250446
20
-4.96828557631468
30
0
41
1
10
56.9212825378802
20
-4.77325712944304
30
0
41
1
10
57.7532519107204
20
-4.35256632244977
30
0
41
1
10
58.4992386659103
20
-3.71617754531522
30
0
41
1
10
59.004452782358
20
-3.07952613720499
30
0
41
1
10
59.4034584628953
20
-2.37436029809177
30
0
41
1
10
59.6262242541137
20
-1.80644765824422
30
0
41
1
10
59.7327741387994
20
-1.40551487439978
30
0
41
1
10
59.7548664569124
20
-1.31268823191027
30
0
0
SPLINE
5
110
100
AcDbEntity
8
1
62
256
6
ByLayer
370
18
48
1
60
0
100
AcDbSpline
70
4
71
3
72
36
73
32
40
0
40
0
40
0
40
0
40
0.062499999999963
40
0.062499999999963
40
0.124999999999926
40
0.124999999999926
40
0.187499999999889
40
0.187499999999889
40
0.21874999999988
40
0.21874999999988
40
0.249999999999871
40
0.249999999999871
40
0.312499999999871
40
0.312499999999871
40
0.343749999999871
40
0.343749999999871
40
0.374999999999872
40
0.374999999999872
40
0.437499999999884
40
0.437499999999884
40
0.499999999999897
40
0.499999999999897
40
0.562499999999909
40
0.562499999999909
40
0.624999999999922
40
0.624999999999922
40
0.749999999999948
40
0.749999999999948
40
0.874999999999974
40
0.874999999999974
40
1
40
1
40
1
40
1
41
1
10
59.7548664569124
20
-1.31268823191013
30
0
41
1
10
59.7480435838582
20
-1.32433120927592
30
0
41
1
10
59.7411065705291
20
-1.33507413028704
30
0
41
1
10
59.726997776033
20
-1.35436799944009
30
0
41
1
10
59.7198205781579
20
-1.36292971358191
30
0
41
1
10
59.7052361534949
20
-1.37722303400182
30
0
41
1
10
59.6980432176131
20
-1.3827386883093
30
0
41
1
10
59.6874547903902
20
-1.38825625116667
30
0
41
1
10
59.6839588860845
20
-1.38963479181947
30
0
41
1
10
59.6770441197981
20
-1.39139806541519
30
0
41
1
10
59.6736762361644
20
-1.39176666582736
30
0
41
1
10
59.66392606354
20
-1.39136467899755
30
0
41
1
10
59.6578578870279
20
-1.38910131049391
30
0
41
1
10
59.6493860855752
20
-1.38284428186569
30
0
41
1
10
59.646685390683
20
-1.38028847379039
30
0
41
1
10
59.6415924298775
20
-1.37439600722573
30
0
41
1
10
59.6391863279069
20
-1.37104959598645
30
0
41
1
10
59.6323495113984
20
-1.35991909162624
30
0
41
1
10
59.6282773347652
20
-1.35096778797924
30
0
41
1
10
59.6211696507935
20
-1.33117308790054
30
0
41
1
10
59.6181042655044
20
-1.32030782861304
30
0
41
1
10
59.6127254299583
20
-1.29704408401776
30
0
41
1
10
59.6104135124984
20
-1.28464253722865
30
0
41
1
10
59.6063938550597
20
-1.25855615350065
30
0
41
1
10
59.6047082248757
20
-1.24500882455737
30
0
41
1
10
59.6004218339834
20
-1.20336687576614
30
0
41
1
10
59.598564071844
20
-1.17418260474688
30
0
41
1
10
59.5960950489857
20
-1.11377571890785
30
0
41
1
10
59.5954925441568
20
-1.08247390044423
30
0
41
1
10
59.5951122457226
20
-1.01857792579511
30
0
41
1
10
59.5953355367001
20
-0.98606267850343
30
0
41
1
10
59.5958116796827
20
-0.953088951522375
30
0
0
SPLINE
5
111
100
AcDbEntity
8
1
62
256
6
ByLayer
370
18
48
1
60
0
100
AcDbSpline
70
4
71
3
72
8
73
4
40
0
40
0
40
0
40
0
40
1
40
1
40
1
40
1
41
1
10
59.5959649293794
20
-0.942214177435858
30
0
41
1
10
59.5959150945158
20
-0.945840245550414
30
0
41
1
10
59.5958640073956
20
-0.94946516668486
30
0
41
1
10
59.5958116796827
20
-0.953088951522403
30
0
0
SPLINE
5
112
100
AcDbEntity
8
1
62
256
6
ByLayer
370
18
48
1
60
0
100
AcDbSpline
70
4
71
3
72
8
73
4
40
0
40
0
40
0
40
0
40
1
40
1
40
1
40
1
41
1
10
59.4839242928277
20
-0.996252822233885
30
0
41
1
10
59.5205464238503
20
-0.976642080776259
30
0
41
1
10
59.5579417433641
20
-0.95867719748739
30
0
41
1
10
59.5959649293778
20
-0.942214177425797
30
0
0
SPLINE
5
113
100
AcDbEntity
8
1
62
256
6
ByLayer
370
18
48
1
60
0
100
AcDbSpline
70
4
71
3
72
8
73
4
40
0
40
0
40
0
40
0
40
1
40
1
40
1
40
1
41
1
10
59.2849591321133
20
-1.26528458820789
30
0
41
1
10
59.350634690548
20
-1.17946488422376
30
0
41
1
10
59.4157286085432
20
-1.09162688242552
30
0
41
1
10
59.4800284450769
20
-1.00175582907156
30
0
0
SPLINE
5
114
100
AcDbEntity
8
1
62
256
6
ByLayer
370
18
48
1
60
0
100
AcDbSpline
70
4
71
3
72
8
73
4
40
0
40
0
40
0
40
0
40
1
40
1
40
1
40
1
41
1
10
42
20
-5.29191224472314
30
0
41
1
10
41.750877055583
20
-5.33969583219405
30
0
41
1
10
41.5054218737259
20
-5.40482998665973
30
0
41
1
10
41.2635035199959
20
-5.48669531506752
30
0
0
SPLINE
5
115
100
AcDbEntity
8
1
62
256
6
ByLayer
370
18
48
1
60
0
100
AcDbSpline
70
4
71
3
72
10
73
6
40
0
40
0
40
0
40
0
40
0.5
40
0.5
40
1
40
1
40
1
40
1
41
1
10
59.4576148487529
20
-0.874290461528773
30
0
41
1
10
59.465506735973
20
-0.896092016957425
30
0
41
1
10
59.4717816844935
20
-0.917460335884556
30
0
41
1
10
59.480748173863
20
-0.95923684890306
30
0
41
1
10
59.4831890341346
20
-0.978484350918933
30
0
41
1
10
59.4839242928258
20
-0.996252822232293
30
0
0
SPLINE
5
116
100
AcDbEntity
8
1
62
256
6
ByLayer
370
18
48
1
60
0
100
AcDbSpline
70
4
71
3
72
42
73
38
40
0
40
0
40
0
40
0
40
0.0625000000000095
40
0.0625000000000095
40
0.09375000000001
40
0.09375000000001
40
0.12500000000001
40
0.12500000000001
40
0.250000000000002
40
0.250000000000002
40
0.374999999999994
40
0.374999999999994
40
0.406249999999991
40
0.406249999999991
40
0.437499999999989
40
0.437499999999989
40
0.499999999999985
40
0.499999999999985
40
0.56249999999998
40
0.56249999999998
40
0.624999999999976
40
0.624999999999976
40
0.687499999999972
40
0.687499999999972
40
0.749999999999968
40
0.749999999999968
40
0.781249999999965
40
0.781249999999965
40
0.812499999999963
40
0.812499999999963
40
0.874999999999975
40
0.874999999999975
40
0.937499999999987
40
0.937499999999987
40
0.968749999999994
40
0.968749999999994
40
1
40
1
40
1
40
1
41
1
10
59.4576148487529
20
-0.874290461528773
30
0
41
1
10
59.4494383080973
20
-0.851702543157899
30
0
41
1
10
59.4424690817991
20
-0.828549693323794
30
0
41
1
10
59.4338186769394
20
-0.792949759662349
30
0
41
1
10
59.4312342559069
20
-0.780912933193946
30
0
41
1
10
59.426732723928
20
-0.756872181198986
30
0
41
1
10
59.4248053065202
20
-0.744831545975273
30
0
41
1
10
59.4167333490943
20
-0.684531118878994
30
0
41
1
10
59.4152180089944
20
-0.635960402518663
30
0
41
1
10
59.4218947385801
20
-0.538328087450594
30
0
41
1
10
59.4299495335779
20
-0.491271200425132
30
0
41
1
10
59.4453249776657
20
-0.434597097110782
30
0
41
1
10
59.4486688934225
20
-0.423371068354555
30
0
41
1
10
59.4558924295947
20
-0.401141157398598
30
0
41
1
10
59.4597825763587
20
-0.390114563328581
30
0
41
1
10
59.472084841171
20
-0.357809623900209
30
0
41
1
10
59.4811661243693
20
-0.337168021012104
30
0
41
1
10
59.5009049125925
20
-0.297619996825773
30
0
41
1
10
59.5115640235131
20
-0.278713765445588
30
0
41
1
10
59.5343001587774
20
-0.242654207365263
30
0
41
1
10
59.5464432682886
20
-0.225439011040208
30
0
41
1
10
59.5712559114162
20
-0.193664236723834
30
0
41
1
10
59.5839903213807
20
-0.178990329967661
30
0
41
1
10
59.6096799972248
20
-0.151994135868023
30
0
41
1
10
59.6226429319297
20
-0.139672813275439
30
0
41
1
10
59.6417395927921
20
-0.122949787053358
30
0
41
1
10
59.6480607440403
20
-0.117657168122861
30
0
41
1
10
59.6602616312692
20
-0.10780438424473
30
0
41
1
10
59.6661615077054
20
-0.103225613134242
30
0
41
1
10
59.6830154132863
20
-0.0904824668357662
30
0
41
1
10
59.6931616948602
20
-0.0833025573795965
30
0
41
1
10
59.7094064972339
20
-0.0713260285920398
30
0
41
1
10
59.7151929877056
20
-0.0667124702751209
30
0
41
1
10
59.719734055358
20
-0.0611881348946497
30
0
41
1
10
59.7205647250279
20
-0.0595720828931974
30
0
41
1
10
59.7208520153478
20
-0.0567328901232429
30
0
41
1
10
59.7203177218449
20
-0.0555179371905297
30
0
41
1
10
59.7192033820426
20
-0.0544443608513347
30
0
0
SPLINE
5
117
100
AcDbEntity
8
1
62
256
6
ByLayer
370
13
48
1
60
0
100
AcDbSpline
70
4
71
3
72
22
73
18
40
0
40
0
40
0
40
0
40
0.125000000000002
40
0.125000000000002
40
0.250000000000004
40
0.250000000000004
40
0.375000000000006
40
0.375000000000006
40
0.437500000000007
40
0.437500000000007
40
0.500000000000008
40
0.500000000000008
40
0.750000000000004
40
0.750000000000004
40
0.875000000000002
40
0.875000000000002
40
1
40
1
40
1
40
1
41
1
10
59.4800281571726
20
-1.0017555639144
30
0
41
1
10
59.3606017929718
20
-0.988352620758434
30
0
41
1
10
59.2415784381533
20
-0.972892972596725
30
0
41
1
10
59.0044198618786
20
-0.937014883211077
30
0
41
1
10
58.8862769379419
20
-0.916575925094293
30
0
41
1
10
58.6510312092827
20
-0.870043831338535
30
0
41
1
10
58.5339471751542
20
-0.843952287540986
30
0
41
1
10
58.3592155864629
20
-0.80025302691692
30
0
41
1
10
58.3011183026138
20
-0.784928655110633
30
0
41
1
10
58.1852310884942
20
-0.752734830045114
30
0
41
1
10
58.1274008489029
20
-0.735856309609829
30
0
41
1
10
57.8395390825173
20
-0.647643446233758
30
0
41
1
10
57.6143864214265
20
-0.565176304601891
30
0
41
1
10
57.2849892842706
20
-0.421684894633245
30
0
41
1
10
57.1765768839951
20
-0.370520058411756
30
0
41
1
10
56.9627547188133
20
-0.261478470909793
30
0
41
1
10
56.8573741083063
20
-0.20363069920586
30
0
41
1
10
56.7536154249791
20
-0.142590350031583
30
0
0
SPLINE
5
118
100
AcDbEntity
8
1
62
256
6
ByLayer
370
18
48
1
60
0
100
AcDbSpline
70
4
71
3
72
8
73
4
40
0
40
0
40
0
40
0
40
1
40
1
40
1
40
1
41
1
10
59.4839242928276
20
-0.996252822232407
30
0
41
1
10
59.4826269219629
20
-0.998104886921055
30
0
41
1
10
59.4813283248828
20
-0.999939003708107
30
0
41
1
10
59.4800285992885
20
-1.00175561353203
30
0
0
SPLINE
5
119
100
AcDbEntity
8
1
62
256
6
ByLayer
370
18
48
1
60
0
100
AcDbSpline
70
4
71
3
72
14
73
10
40
0
40
0
40
0
40
0
40
0.25
40
0.25
40
0.5
40
0.5
40
0.75
40
0.75
40
1
40
1
40
1
40
1
41
1
10
56.7947209287234
20
-0.660815311371124
30
0
41
1
10
56.7071940071584
20
-0.805165770432211
30
0
41
1
10
56.6209829675902
20
-0.950638881566732
30
0
41
1
10
56.4517536122316
20
-1.24430900218059
30
0
41
1
10
56.3687628227007
20
-1.39245348447039
30
0
41
1
10
56.2068178587017
20
-1.69190275071645
30
0
41
1
10
56.1278986863473
20
-1.84313763874496
30
0
41
1
10
55.9753375145352
20
-2.14909814270391
30
0
41
1
10
55.9016696600436
20
-2.30385602466066
30
0
41
1
10
55.8313404997575
20
-2.46088546153979
30
0
0
SPLINE
5
11A
100
AcDbEntity
8
1
62
256
6
ByLayer
370
13
48
1
60
0
100
AcDbSpline
70
4
71
3
72
13
73
9
40
0
40
0
40
0
40
0
40
0.0907216398843809
40
0.2483800843798
40
0.40603852887522
40
0.563696973370639
40
0.721355417866058
40
1
40
1
40
1
40
1
41
1
10
56.7947209418001
20
-0.660815316546831
30
0
41
1
10
56.3631472945334
20
-0.503547088887785
30
0
41
1
10
55.1815736472667
20
-0.0683284810479279
30
0
41
1
10
53.2499999999999
20
0.649146621828834
30
0
41
1
10
51
20
1.45273723077548
30
0
41
1
10
48.75
20
2.19208371117477
30
0
41
1
10
45.9244545319516
20
2.98794597766891
30
0
41
1
10
43.8489090639034
20
3.40576861815595
30
0
41
1
10
42.523363595855
20
3.58290847348735
30
0
0
SPLINE
5
11B
100
AcDbEntity
8
1
62
256
6
ByLayer
370
18
48
1
60
0
100
AcDbSpline
70
4
71
3
72
23
73
19
40
0
40
0
40
0
40
0
40
0.202480383947266
40
0.202480383947266
40
0.303720575920899
40
0.303720575920899
40
0.354340671907713
40
0.354340671907713
40
0.404960767894527
40
0.404960767894527
40
0.607441151841785
40
0.607441151841785
40
0.809921535789042
40
0.809921535789042
40
0.860541631775856
40
0.860541631775856
40
0.91116172776267
40
1
40
1
40
1
40
1
41
1
10
54.0000000000001
20
4.11067537940124
30
0
41
1
10
53.4982631823566
20
4.30263554018174
30
0
41
1
10
52.9975025065321
20
4.47984862258107
30
0
41
1
10
52.2458277213258
20
4.72136774284422
30
0
41
1
10
51.9951863504221
20
4.79782757175562
30
0
41
1
10
51.6188652504372
20
4.90615958635649
30
0
41
1
10
51.493313209053
20
4.94122409661966
30
0
41
1
10
51.2423535793575
20
5.00910101645403
30
0
41
1
10
51.1169498202048
20
5.04191354400101
30
0
41
1
10
50.4902171906754
20
5.20025371779676
30
0
41
1
10
49.9897392571136
20
5.3086671186679
30
0
41
1
10
48.9885928522002
20
5.4885036426839
30
0
41
1
10
48.4879575839191
20
5.55993138356274
30
0
41
1
10
47.8607110555216
20
5.62509461986821
30
0
41
1
10
47.7352271013979
20
5.63691224109488
30
0
41
1
10
47.4846966263488
20
5.65804995471251
30
0
41
1
10
47.1399868137527
20
5.68374878797158
30
0
41
1
10
46.7962248158001
20
5.69998945034712
30
0
41
1
10
46.5775205140017
20
5.70646036249204
30
0
0
SPLINE
5
11C
100
AcDbEntity
8
1
62
256
6
ByLayer
370
18
48
1
60
0
100
AcDbSpline
70
4
71
3
72
46
73
42
40
0
40
0
40
0
40
0
40
0.0625000000000074
40
0.125000000000015
40
0.187500000000022
40
0.187500000000022
40
0.218750000000026
40
0.234375000000028
40
0.234375000000028
40
0.25000000000003
40
0.25000000000003
40
0.31250000000005
40
0.37500000000007
40
0.37500000000007
40
0.43750000000009
40
0.43750000000009
40
0.468750000000097
40
0.468750000000097
40
0.484375000000098
40
0.484375000000098
40
0.500000000000099
40
0.562500000000101
40
0.562500000000101
40
0.625000000000103
40
0.625000000000103
40
0.687500000000106
40
0.687500000000106
40
0.703125000000104
40
0.703125000000104
40
0.718750000000102
40
0.750000000000095
40
0.812500000000075
40
0.812500000000075
40
0.875000000000055
40
0.875000000000055
40
0.906250000000045
40
0.906250000000045
40
0.921875000000039
40
0.921875000000039
40
0.937500000000032
40
1
40
1
40
1
40
1
41
1
10
56.2516181561257
20
3.38836640242855
30
0
41
1
10
56.3326984114348
20
3.32278561007851
30
0
41
1
10
56.4952231102711
20
3.19357801567526
30
0
41
1
10
56.7400888940222
20
3.00555439694722
30
0
41
1
10
56.9040596518085
20
2.88410538729244
30
0
41
1
10
57.0273198939054
20
2.79453258562617
30
0
41
1
10
57.089020665688
20
2.75012524936002
30
0
41
1
10
57.1508302672342
20
2.70630182078389
30
0
41
1
10
57.1920612581702
20
2.67721813471192
30
0
41
1
10
57.2127100930747
20
2.6627277217267
30
0
41
1
10
57.3154544581022
20
2.59100219866014
30
0
41
1
10
57.4774022151242
20
2.4803489609061
30
0
41
1
10
57.6345493780069
20
2.3777665721725
30
0
41
1
10
57.7892844181484
20
2.27923948949052
30
0
41
1
10
57.8654482566361
20
2.23199960023174
30
0
41
1
10
57.9778240656519
20
2.1642835592414
30
0
41
1
10
58.0149702748779
20
2.14223674786626
30
0
41
1
10
58.0702078132508
20
2.10997650076482
30
0
41
1
10
58.0885630971512
20
2.09934503770992
30
0
41
1
10
58.1249150995612
20
2.07846806513399
30
0
41
1
10
58.2149832678906
20
2.02719048669047
30
0
41
1
10
58.3010409958597
20
1.98043223938859
30
0
41
1
10
58.4337308618146
20
1.91125631706248
30
0
41
1
10
58.4975732055566
20
1.87948850242961
30
0
41
1
10
58.6202175300572
20
1.82163281535196
30
0
41
1
10
58.6790248995032
20
1.79553887044139
30
0
41
1
10
58.7493021493542
20
1.76656350975062
30
0
41
1
10
58.7632139340892
20
1.76094422202641
30
0
41
1
10
58.7905781265929
20
1.75012763013325
30
0
41
1
10
58.8309570404465
20
1.73452571044871
30
0
41
1
10
58.9205540555603
20
1.70243423957547
30
0
41
1
10
58.9895904574672
20
1.68217188899496
30
0
41
1
10
59.0749650747649
20
1.66138526138258
30
0
41
1
10
59.1143084185708
20
1.65411340689875
30
0
41
1
10
59.1682180140169
20
1.64797133367301
30
0
41
1
10
59.1853360582601
20
1.6467191171578
30
0
41
1
10
59.2097228087162
20
1.64604525140604
30
0
41
1
10
59.2176301188638
20
1.64602199834977
30
0
41
1
10
59.2329494079948
20
1.64637388072816
30
0
41
1
10
59.2700506014514
20
1.64824877603451
30
0
41
1
10
59.3012750090174
20
1.65500952872529
30
0
41
1
10
59.3225148919785
20
1.66352720497983
30
0
0
SPLINE
5
11D
100
AcDbEntity
8
1
62
256
6
ByLayer
370
18
48
1
60
0
100
AcDbSpline
70
4
71
3
72
8
73
4
40
0
40
0
40
0
40
0
40
1
40
1
40
1
40
1
41
1
10
56.1840473618359
20
3.27866776847552
30
0
41
1
10
56.1987048129611
20
3.3199090964813
30
0
41
1
10
56.2214456652628
20
3.35633674939331
30
0
41
1
10
56.2516181561257
20
3.38836640242849
30
0
0
SPLINE
5
11E
100
AcDbEntity
8
1
62
256
6
ByLayer
370
18
48
1
60
0
100
AcDbSpline
70
4
71
3
72
30
73
26
40
0
40
0
40
0
40
0
40
0.249999999999858
40
0.249999999999858
40
0.374999999999788
40
0.374999999999788
40
0.499999999999717
40
0.499999999999717
40
0.562499999999729
40
0.562499999999729
40
0.624999999999742
40
0.624999999999742
40
0.749999999999768
40
0.749999999999768
40
0.812499999999825
40
0.812499999999825
40
0.843749999999854
40
0.843749999999854
40
0.874999999999883
40
0.874999999999883
40
0.906249999999912
40
0.906249999999912
40
0.937499999999941
40
0.937499999999941
40
1
40
1
40
1
40
1
41
1
10
55.8344022317573
20
3.32193658537093
30
0
41
1
10
55.8653436310738
20
3.30832931612903
30
0
41
1
10
55.896346645684
20
3.29546667481708
30
0
41
1
10
55.9430794875436
20
3.2780090297102
30
0
41
1
10
55.9586959127973
20
3.2724998976762
30
0
41
1
10
55.9900493750128
20
3.26232986075692
30
0
41
1
10
56.0057854807499
20
3.25766400201198
30
0
41
1
10
56.0295362467506
20
3.25159958202846
30
0
41
1
10
56.0374779131632
20
3.24973548462981
30
0
41
1
10
56.0534271842117
20
3.24640946486178
30
0
41
1
10
56.0614558568887
20
3.24494539142032
30
0
41
1
10
56.0852773044198
20
3.24140720552614
30
0
41
1
10
56.1009198267206
20
3.24010115152996
30
0
41
1
10
56.1237831990133
20
3.24106418250292
30
0
41
1
10
56.1312645905236
20
3.24189418699242
30
0
41
1
10
56.1418884664674
20
3.24415368342272
30
0
41
1
10
56.1453419931048
20
3.24507739404231
30
0
41
1
10
56.1520412721067
20
3.24733215748606
30
0
41
1
10
56.1552796814246
20
3.24866497026781
30
0
41
1
10
56.161351602079
20
3.25173026958916
30
0
41
1
10
56.1642056185859
20
3.25346879531898
30
0
41
1
10
56.1695117326231
20
3.25740300408279
30
0
41
1
10
56.1719826185415
20
3.25962168735529
30
0
41
1
10
56.1785539477129
20
3.26685476063875
30
0
41
1
10
56.1818257684529
20
3.27241190932074
30
0
41
1
10
56.1840473618359
20
3.27866776847552
30
0
0
SPLINE
5
11F
100
AcDbEntity
8
1
62
256
6
ByLayer
370
18
48
1
60
0
100
AcDbSpline
70
4
71
3
72
42
73
38
40
0
40
0
40
0
40
0
40
0.0312500000000126
40
0.0312500000000126
40
0.0625000000000251
40
0.0625000000000251
40
0.12500000000005
40
0.12500000000005
40
0.2500000000001
40
0.2500000000001
40
0.375000000000149
40
0.375000000000149
40
0.437500000000165
40
0.437500000000165
40
0.468750000000173
40
0.468750000000173
40
0.47656250000017
40
0.47656250000017
40
0.484375000000167
40
0.484375000000167
40
0.488281250000166
40
0.488281250000166
40
0.492187500000164
40
0.492187500000164
40
0.500000000000161
40
0.500000000000161
40
0.515625000000154
40
0.515625000000154
40
0.531250000000148
40
0.531250000000148
40
0.562500000000134
40
0.562500000000134
40
0.625000000000126
40
0.625000000000126
40
0.75000000000009
40
0.75000000000009
40
1
40
1
40
1
40
1
41
1
10
53.9999996645835
20
4.11067478984538
30
0
41
1
10
54.0186400524365
20
4.10353011320675
30
0
41
1
10
54.0372789349672
20
4.09636333569398
30
0
41
1
10
54.0745462597433
20
4.08200620242999
30
0
41
1
10
54.0931833531696
20
4.07479203931683
30
0
41
1
10
54.149148788713
20
4.05293821124653
30
0
41
1
10
54.1865130100313
20
4.03813655497879
30
0
41
1
10
54.2987800192375
20
3.99310434824091
30
0
41
1
10
54.3738591867288
20
3.96224354049448
30
0
41
1
10
54.5245435098622
20
3.89919766368476
30
0
41
1
10
54.6001447531927
20
3.8670193577768
30
0
41
1
10
54.7139935654067
20
3.81796775316317
30
0
41
1
10
54.7520235232881
20
3.80147634935307
30
0
41
1
10
54.8091656870643
20
3.77660400484086
30
0
41
1
10
54.828227188311
20
3.76829424329574
30
0
41
1
10
54.8520621876654
20
3.75790102894311
30
0
41
1
10
54.8568293989485
20
3.75582239838354
30
0
41
1
10
54.8663651717527
20
3.75166364051435
30
0
41
1
10
54.8711352318061
20
3.74958094812999
30
0
41
1
10
54.8783208342318
20
3.74640778120897
30
0
41
1
10
54.8807209091846
20
3.74534225558096
30
0
41
1
10
54.8855175119378
20
3.74321741338329
30
0
41
1
10
54.8879004606104
20
3.74218022721047
30
0
41
1
10
54.8950257277504
20
3.73910700276201
30
0
41
1
10
54.8997899430368
20
3.73703545727815
30
0
41
1
10
54.9141332852712
20
3.73074071360179
30
0
41
1
10
54.9237288231349
20
3.72649308219044
30
0
41
1
10
54.9429045187299
20
3.71802845042504
30
0
41
1
10
54.9524912935281
20
3.71380056192652
30
0
41
1
10
54.9812568246628
20
3.70111674124411
30
0
41
1
10
55.0004459220479
20
3.69265248061626
30
0
41
1
10
55.058100034859
20
3.66716505730423
30
0
41
1
10
55.0966357931026
20
3.65007261757054
30
0
41
1
10
55.2125536385149
20
3.59855131660271
30
0
41
1
10
55.290372469544
20
3.5638239831498
30
0
41
1
10
55.5234336546625
20
3.45977848888671
30
0
41
1
10
55.6787396132802
20
3.39038763082877
30
0
41
1
10
55.8344022317573
20
3.32193658537099
30
0
0
SPLINE
5
120
100
AcDbEntity
8
1
62
256
6
ByLayer
370
18
48
1
60
0
100
AcDbSpline
70
4
71
3
72
16
73
12
40
0
40
0
40
0
40
0
40
0.249999999999995
40
0.249999999999995
40
0.374999999999996
40
0.374999999999996
40
0.499999999999996
40
0.499999999999996
40
0.749999999999998
40
0.749999999999998
40
1
40
1
40
1
40
1
41
1
10
59.3225148919786
20
1.66352720497889
30
0
41
1
10
59.3481139399042
20
1.55025211113329
30
0
41
1
10
59.3751484074705
20
1.43815874879166
30
0
41
1
10
59.4172509959564
20
1.27129549718956
30
0
41
1
10
59.4315489626174
20
1.2158900740595
30
0
41
1
10
59.4605316217025
20
1.10566025678335
30
0
41
1
10
59.4752238852102
20
1.05080524338004
30
0
41
1
10
59.5198111339889
20
0.886900448274758
30
0
41
1
10
59.5502120158661
20
0.778505011479069
30
0
41
1
10
59.6120218275491
20
0.563017983418121
30
0
41
1
10
59.6434326725224
20
0.455928868560989
30
0
41
1
10
59.6752373218635
20
0.349349115205854
30
0
0
SPLINE
5
121
100
AcDbEntity
8
1
62
256
6
ByLayer
370
18
48
1
60
0
100
AcDbSpline
70
4
71
3
72
12
73
8
40
0
40
0
40
0
40
0
40
0.154083654775847
40
0.323266923820678
40
0.492450192865508
40
0.661633461910339
40
1
40
1
40
1
40
1
41
1
10
45.1338750665557
20
5.86793894227918
30
0
41
1
10
45.5892500443705
20
5.8347581213927
30
0
41
1
10
46.5446250221853
20
5.72984257929744
30
0
41
1
10
48.0000000000001
20
5.45787206238259
30
0
41
1
10
49.5
20
5.06478907450233
30
0
41
1
10
51.5000000000001
20
4.40122042865804
30
0
41
1
10
53.0000000000001
20
3.75918736747539
30
0
41
1
10
54.0000000000001
20
3.28577785686099
30
0
0
SPLINE
5
122
100
AcDbEntity
8
1
62
256
6
ByLayer
370
18
48
1
60
0
100
AcDbSpline
70
4
71
3
72
26
73
22
40
0
40
0
40
0
40
0
40
0.124999999999999
40
0.124999999999999
40
0.187500000000001
40
0.187500000000001
40
0.250000000000002
40
0.250000000000002
40
0.375000000000003
40
0.375000000000003
40
0.500000000000004
40
0.500000000000004
40
0.625000000000005
40
0.625000000000005
40
0.6875
40
0.6875
40
0.749999999999995
40
0.749999999999995
40
0.874999999999997
40
0.874999999999997
40
1
40
1
40
1
40
1
41
1
10
55.8313404998579
20
-2.46088546189037
30
0
41
1
10
55.8134156121503
20
-2.52488498252239
30
0
41
1
10
55.801646972358
20
-2.58939945955746
30
0
41
1
10
55.7927631790242
20
-2.68690469632611
30
0
41
1
10
55.79126697605
20
-2.71953166077071
30
0
41
1
10
55.7911672595702
20
-2.78501685920389
30
0
41
1
10
55.7925622169072
20
-2.81730151390451
30
0
41
1
10
55.8006427352879
20
-2.91292072533648
30
0
41
1
10
55.8112122466918
20
-2.97506748694923
30
0
41
1
10
55.8410260000083
20
-3.09643676696419
30
0
41
1
10
55.8598844464801
20
-3.15419730088627
30
0
41
1
10
55.9036717376519
20
-3.26522635941848
30
0
41
1
10
55.9286166629562
20
-3.31848298460736
30
0
41
1
10
55.9697737413796
20
-3.3956006040421
30
0
41
1
10
55.984143154162
20
-3.42088020190638
30
0
41
1
10
56.0139335227388
20
-3.47041635404591
30
0
41
1
10
56.0292898759241
20
-3.49457117314515
30
0
41
1
10
56.0765894395571
20
-3.56539932060579
30
0
41
1
10
56.1097562285386
20
-3.61044554863605
30
0
41
1
10
56.1787697999084
20
-3.69697418101112
30
0
41
1
10
56.2146199352544
20
-3.73845212663224
30
0
41
1
10
56.2516141185933
20
-3.77840873069937
30
0
0
SPLINE
5
123
100
AcDbEntity
8
1
62
256
6
ByLayer
370
18
48
1
60
0
100
AcDbSpline
70
4
71
3
72
13
73
9
40
0
40
0
40
0
40
0
40
0.0239557763670168
40
0.186629813639181
40
0.349303850911345
40
0.511977888183508
40
0.674651925455672
40
1
40
1
40
1
40
1
41
1
10
55.8313404998709
20
-2.46088546188903
30
0
41
1
10
55.7208936665806
20
-2.41597967793155
30
0
41
1
10
54.8604468332903
20
-2.06290603292021
30
0
41
1
10
53.2499999999999
20
-1.357545448091
30
0
41
1
10
51
20
-0.311497001960504
30
0
41
1
10
48.75
20
0.750020280572073
30
0
41
1
10
45.75
20
2.12260090002269
30
0
41
1
10
43.5000000000001
20
3.0275873491037
30
0
41
1
10
42.0000000000001
20
3.5146337818195
30
0
0
SPLINE
5
124
100
AcDbEntity
8
1
62
256
6
ByLayer
370
18
48
1
60
0
100
AcDbSpline
70
4
71
3
72
8
73
4
40
0
40
0
40
0
40
0
40
1
40
1
40
1
40
1
41
1
10
56.184047361835
20
-3.894865847284
30
0
41
1
10
56.198703388542
20
-3.85534839427226
30
0
41
1
10
56.2214428418792
20
-3.81653991900322
30
0
41
1
10
56.2516141185934
20
-3.77840873069943
30
0
0
SPLINE
5
125
100
AcDbEntity
8
1
62
256
6
ByLayer
370
18
48
1
60
0
100
AcDbSpline
70
4
71
3
72
8
73
4
40
0
40
0
40
0
40
0
40
1
40
1
40
1
40
1
41
1
10
56.8953958008941
20
-0.326506934552015
30
0
41
1
10
56.8945038785177
20
-0.33848037478171
30
0
41
1
10
56.8934498705009
20
-0.350468801104796
30
0
41
1
10
56.8922266475999
20
-0.362472872671731
30
0
0
SPLINE
5
126
100
AcDbEntity
8
1
62
256
6
ByLayer
370
18
48
1
60
0
100
AcDbSpline
70
4
71
3
72
8
73
4
40
0
40
0
40
0
40
0
40
1
40
1
40
1
40
1
41
1
10
56.7536154233384
20
-0.142590351893318
30
0
41
1
10
56.8008277896315
20
-0.203823613287824
30
0
41
1
10
56.8480922858226
20
-0.265126518482759
30
0
41
1
10
56.8953958008941
20
-0.326506934551986
30
0
0
SPLINE
5
127
100
AcDbEntity
8
1
62
256
6
ByLayer
370
18
48
1
60
0
100
AcDbSpline
70
4
71
3
72
45
73
41
40
0
40
0
40
0
40
0
40
0.124999999999999
40
0.124999999999999
40
0.187500000000003
40
0.218750000000005
40
0.218750000000005
40
0.250000000000007
40
0.250000000000007
40
0.375000000000009
40
0.375000000000009
40
0.437500000000008
40
0.437500000000008
40
0.468750000000007
40
0.468750000000007
40
0.500000000000006
40
0.500000000000006
40
0.625000000000004
40
0.625000000000004
40
0.687500000000003
40
0.687500000000003
40
0.718750000000003
40
0.718750000000003
40
0.750000000000003
40
0.750000000000003
40
0.812500000000004
40
0.812500000000004
40
0.843750000000004
40
0.843750000000004
40
0.875000000000004
40
0.875000000000004
40
0.906250000000005
40
0.906250000000005
40
0.937500000000005
40
0.937500000000005
40
0.968750000000005
40
0.968750000000005
40
0.984375000000003
40
0.984375000000003
40
1
40
1
40
1
40
1
41
1
10
56.7536154193494
20
-0.142590346719686
30
0
41
1
10
56.7044916000092
20
-0.0788779784035682
30
0
41
1
10
56.6616044866513
20
-0.0121111369440428
30
0
41
1
10
56.6058366671655
20
0.0917716356289588
30
0
41
1
10
56.5800948735519
20
0.144645863217676
30
0
41
1
10
56.5574175430128
20
0.198751069652815
30
0
41
1
10
56.5429629169805
20
0.235074986190227
30
0
41
1
10
56.5360521840325
20
0.253407823963215
30
0
41
1
10
56.5033253195507
20
0.345048572763204
30
0
41
1
10
56.4830061094999
20
0.418068703295461
30
0
41
1
10
56.4591902332157
20
0.526145506503525
30
0
41
1
10
56.4523661331201
20
0.561930937599556
30
0
41
1
10
56.4435687257525
20
0.61513637513977
30
0
41
1
10
56.4408762618765
20
0.632792813459844
30
0
41
1
10
56.4359350703608
20
0.667930270012107
30
0
41
1
10
56.4336849355138
20
0.685429891725875
30
0
41
1
10
56.4235336239713
20
0.77172947965704
30
0
41
1
10
56.4187948775442
20
0.837491252553491
30
0
41
1
10
56.4148830959093
20
0.931069490203299
30
0
41
1
10
56.4141209923839
20
0.961418004502548
30
0
41
1
10
56.4136528246817
20
1.00564156488946
30
0
41
1
10
56.4136100095433
20
1.02016605121619
30
0
41
1
10
56.4137395446362
20
1.04877303595242
30
0
41
1
10
56.4139122646533
20
1.06286610969093
30
0
41
1
10
56.4147467358112
20
1.1042338991858
30
0
41
1
10
56.4157111894846
20
1.13067794406305
30
0
41
1
10
56.4179119905642
20
1.16856987990533
30
0
41
1
10
56.4187737516567
20
1.18090381353062
30
0
41
1
10
56.4208337419228
20
1.20494304658493
30
0
41
1
10
56.42203117278
20
1.21664731296085
30
0
41
1
10
56.4248970289504
20
1.23921672933858
30
0
41
1
10
56.4265628850171
20
1.25010216792171
30
0
41
1
10
56.4306596379764
20
1.2709363067091
30
0
41
1
10
56.4330781065835
20
1.28089091302604
30
0
41
1
10
56.4393301701453
20
1.29955655639421
30
0
41
1
10
56.4431066796971
20
1.30829463342667
30
0
41
1
10
56.4512033157193
20
1.31981849707967
30
0
41
1
10
56.4543492024757
20
1.32340701250908
30
0
41
1
10
56.4618705072173
20
1.32952846421901
30
0
41
1
10
56.4662401221494
20
1.33209482922686
30
0
41
1
10
56.4717079451719
20
1.33385200078899
30
0
0
SPLINE
5
128
100
AcDbEntity
8
1
62
256
6
ByLayer
370
18
48
1
60
0
100
AcDbSpline
70
4
71
3
72
8
73
4
40
0
40
0
40
0
40
0
40
1
40
1
40
1
40
1
41
1
10
55.9869558268886
20
1.78544271668684
30
0
41
1
10
55.9864935706864
20
1.78571866899722
30
0
41
1
10
55.9860314514349
20
1.78599463118365
30
0
41
1
10
55.9855694679129
20
1.78627060208831
30
0
0
SPLINE
5
129
100
AcDbEntity
8
1
62
256
6
ByLayer
370
13
48
1
60
0
100
AcDbSpline
70
4
71
3
72
13
73
9
40
0
40
0
40
0
40
0
40
0.302171065918258
40
0.453256598877387
40
0.604342131836516
40
0.755427664795645
40
0.906513197754774
40
1
40
1
40
1
40
1
41
1
10
42.0000000000001
20
3.67707506321722
30
0
41
1
10
43.5000000000001
20
3.5519647683989
30
0
41
1
10
45.75
20
3.18508664877933
30
0
41
1
10
48.75
20
2.41775084251847
30
0
41
1
10
51
20
1.72804174039405
30
0
41
1
10
53.2499999999999
20
0.959263398610517
30
0
41
1
10
55.2140755491982
20
0.247581525962829
30
0
41
1
10
56.4281510983965
20
-0.194553416740035
30
0
41
1
10
56.8922266475947
20
-0.362472872669855
30
0
0
SPLINE
5
12A
100
AcDbEntity
8
1
62
256
6
ByLayer
370
18
48
1
60
0
100
AcDbSpline
70
4
71
3
72
8
73
4
40
0
40
0
40
0
40
0
40
1
40
1
40
1
40
1
41
1
10
55.7278350112547
20
1.95256140329619
30
0
41
1
10
55.7687528474237
20
1.934968529804
30
0
41
1
10
55.8090308585496
20
1.91588548581666
30
0
41
1
10
55.8487284908903
20
1.89547833746036
30
0
0
SPLINE
5
12B
100
AcDbEntity
8
1
62
256
6
ByLayer
370
18
48
1
60
0
100
AcDbSpline
70
4
71
3
72
8
73
4
40
0
40
0
40
0
40
0
40
1
40
1
40
1
40
1
41
1
10
59.7173413675725
20
-0.0472559301506408
30
0
41
1
10
59.7297170829085
20
-0.0491933905258861
30
0
41
1
10
59.7417392346692
20
-0.051271738925891
30
0
41
1
10
59.7534151123852
20
-0.0535269113395884
30
0
0
SPLINE
5
12C
100
AcDbEntity
8
1
62
256
6
ByLayer
370
18
48
1
60
0
100
AcDbSpline
70
4
71
3
72
8
73
4
40
0
40
0
40
0
40
0
40
1
40
1
40
1
40
1
41
1
10
59.6752373223204
20
0.349349112059826
30
0
41
1
10
59.7004554179132
20
0.214606450772692
30
0
41
1
10
59.7265780850721
20
0.0803235289866961
30
0
41
1
10
59.7534151123853
20
-0.0535269113396168
30
0
0
SPLINE
5
12D
100
AcDbEntity
8
1
62
256
6
ByLayer
370
18
48
1
60
0
100
AcDbSpline
70
4
71
3
72
32
73
28
40
0
40
0
40
0
40
0
40
0.0016442179249892
40
0.0031839715386101
40
0.0080140336451677
40
0.0105808741593757
40
0.0127006611600978
40
0.0199566889961452
40
0.0779076003123569
40
0.121099638255571
40
0.140758966439581
40
0.143429575943004
40
0.144668381379359
40
0.145283731685787
40
0.145736688817406
40
0.146695260380661
40
0.150427395472948
40
0.15458000100107
40
0.164324446303448
40
0.194280397154793
40
0.298141601965844
40
0.416852842501095
40
0.581385987674802
40
0.704687687793372
40
0.823696728960652
40
0.89881591164667
40
1
40
1
40
1
40
1
41
1
10
53.9999982106064
20
3.28577458581003
30
0
41
1
10
54.0037749688047
20
3.28396014094764
30
0
41
1
10
54.0111077598802
20
3.28043239323924
30
0
41
1
10
54.0296637379903
20
3.27148045699374
30
0
41
1
10
54.0502443273596
20
3.2615440486527
30
0
41
1
10
54.0721616375848
20
3.2509681585438
30
0
41
1
10
54.0999773118911
20
3.23733780665484
30
0
41
1
10
54.2566360548287
20
3.15997107473365
30
0
41
1
10
54.5069262574301
20
3.02994687153813
30
0
41
1
10
54.7845347443447
20
2.87818435727553
30
0
41
1
10
54.9337445509198
20
2.79486047602117
30
0
41
1
10
54.987373212974
20
2.76480228800861
30
0
41
1
10
54.9976341187793
20
2.75899879369376
30
0
41
1
10
55.002820314404
20
2.75608344627605
30
0
41
1
10
55.0075588606227
20
2.75336942446572
30
0
41
1
10
55.0196900769981
20
2.74643823152098
30
0
41
1
10
55.0402909306099
20
2.73457698183017
30
0
41
1
10
55.0814102301317
20
2.71092072004524
30
0
41
1
10
55.1836169910588
20
2.65231707556367
30
0
41
1
10
55.5156730638836
20
2.46272782119274
30
0
41
1
10
56.0844942498674
20
2.14289605144449
30
0
41
1
10
56.9212825373866
20
1.68394271609725
30
0
41
1
10
57.7532519102936
20
1.24345353393235
30
0
41
1
10
58.4992386655769
20
0.86656771270674
30
0
41
1
10
59.0044527821269
20
0.625671855014019
30
0
41
1
10
59.3996394054315
20
0.451220077398432
30
0
41
1
10
59.5877392469779
20
0.378242233622046
30
0
41
1
10
59.6752373254845
20
0.349349112837814
30
0
0
SPLINE
5
12E
100
AcDbEntity
8
1
62
256
6
ByLayer
370
18
48
1
60
0
100
AcDbSpline
70
4
71
3
72
11
73
7
40
0
40
0
40
0
40
0
40
0.0349546626861045
40
0.126646634373451
40
0.408522114413234
40
1
40
1
40
1
40
1
41
1
10
55.0763044911081
20
2.33112348570762
30
0
41
1
10
55.0854974451581
20
2.32587623053445
30
0
41
1
10
55.118814374843
20
2.30686680843007
30
0
41
1
10
55.2262146224386
20
2.24568853434118
30
0
41
1
10
55.4775719204196
20
2.10315538589401
30
0
41
1
10
55.7001266881716
20
1.97827840546992
30
0
41
1
10
55.8487284908906
20
1.89547833746016
30
0
0
SPLINE
5
12F
100
AcDbEntity
8
1
62
256
6
ByLayer
370
18
48
1
60
0
100
AcDbSpline
70
4
71
3
72
8
73
4
40
0
40
0
40
0
40
0
40
1
40
1
40
1
40
1
41
1
10
55.84872849089
20
1.8954783374605
30
0
41
1
10
55.8697596839216
20
1.88456625981615
30
0
41
1
10
55.8906405875009
20
1.87333498529955
30
0
41
1
10
55.9113734113601
20
1.8617901618438
30
0
0
SPLINE
5
130
100
AcDbEntity
8
1
62
256
6
ByLayer
370
13
48
1
60
0
100
AcDbSpline
70
4
71
3
72
13
73
9
40
0
40
0
40
0
40
0
40
0.0347193204410921
40
0.19559943370091
40
0.356479546960728
40
0.517359660220546
40
0.678239773480364
40
1
40
1
40
1
40
1
41
1
10
55.9855694679074
20
1.78627060209112
30
0
41
1
10
55.8237129786049
20
1.86865467810568
30
0
41
1
10
54.9118564893025
20
2.32908769736997
30
0
41
1
10
53.25
20
3.1248199368878
30
0
41
1
10
51
20
4.0581061865847
30
0
41
1
10
48.75
20
4.79953669615946
30
0
41
1
10
45.75
20
5.49299928973119
30
0
41
1
10
43.5000000000001
20
5.63589461580824
30
0
41
1
10
42
20
5.55513125066949
30
0
0
SPLINE
5
131
100
AcDbEntity
8
1
62
256
6
ByLayer
370
18
48
1
60
0
100
AcDbSpline
70
4
71
3
72
12
73
8
40
0
40
0
40
0
40
0
40
0.250000000000024
40
0.250000000000024
40
0.500000000000048
40
0.500000000000048
40
1
40
1
40
1
40
1
41
1
10
55.9855694679075
20
1.78627060209118
30
0
41
1
10
55.962389830657
20
1.80011681693853
30
0
41
1
10
55.939910829121
20
1.81391482540241
30
0
41
1
10
55.8957786243876
20
1.84152065302348
30
0
41
1
10
55.8741376008684
20
1.85532627959972
30
0
41
1
10
55.8101091772516
20
1.896822716386
30
0
41
1
10
55.7686019256772
20
1.92459588164249
30
0
41
1
10
55.7278350112361
20
1.95256140330616
30
0
0
SPLINE
5
132
100
AcDbEntity
8
1
62
256
6
ByLayer
370
18
48
1
60
0
100
AcDbSpline
70
4
71
3
72
12
73
8
40
0
40
0
40
0
40
0
40
0.500000000000023
40
0.500000000000023
40
0.750000000000012
40
0.750000000000012
40
1
40
1
40
1
40
1
41
1
10
55.7278350112547
20
1.95256140329622
30
0
41
1
10
55.619910942315
20
2.01577096381456
30
0
41
1
10
55.5115686700835
20
2.07917067600272
30
0
41
1
10
55.3482506332053
20
2.17421368814229
30
0
41
1
10
55.2937365940546
20
2.20585088172663
30
0
41
1
10
55.1849437980146
20
2.26873722255044
30
0
41
1
10
55.1306043583805
20
2.30002146576442
30
0
41
1
10
55.0763044911099
20
2.33112348570847
30
0
0
SPLINE
5
133
100
AcDbEntity
8
1
62
256
6
ByLayer
370
18
48
1
60
0
100
AcDbSpline
70
4
71
3
72
12
73
8
40
0
40
0
40
0
40
0
40
0.195947385428708
40
0.393916984690813
40
0.593912965214187
40
0.795939345603255
40
1
40
1
40
1
40
1
41
1
10
55.0763044911103
20
2.33112348571032
30
0
41
1
10
55.065838302931
20
2.33711497806223
30
0
41
1
10
55.044797913544
20
2.34915979609286
30
0
41
1
10
55.0130669995321
20
2.36727980022181
30
0
41
1
10
54.9810062805935
20
2.38555355717097
30
0
41
1
10
54.9486154102006
20
2.40398016271664
30
0
41
1
10
54.9269096085989
20
2.41629598423319
30
0
41
1
10
54.9160023406991
20
2.42248474275741
30
0
0
SPLINE
5
134
100
AcDbEntity
8
1
62
256
6
ByLayer
370
18
48
1
60
0
100
AcDbSpline
70
4
71
3
72
27
73
23
40
0
40
0
40
0
40
0
40
0.0367152507555598
40
0.0732636686246111
40
0.109645696216505
40
0.145861789509575
40
0.181912418109411
40
0.217798065508638
40
0.253519229347932
40
0.289076421678965
40
0.324470169228199
40
0.359701013662312
40
0.394769511854624
40
0.429676236152933
40
0.464421774648239
40
0.499006731444394
40
0.624836388586497
40
0.748946416770096
40
0.811911747904796
40
0.874313348904568
40
0.946114784258469
40
1
40
1
40
1
40
1
41
1
10
54.9160023406993
20
2.42248474275732
30
0
41
1
10
54.904791139905
20
2.42883780510749
30
0
41
1
10
54.8824196816425
20
2.44151506170238
30
0
41
1
10
54.8489334835094
20
2.46043178347497
30
0
41
1
10
54.8155963332727
20
2.47921831059608
30
0
41
1
10
54.7824078282282
20
2.49786890541671
30
0
41
1
10
54.7493680753466
20
2.51638267219957
30
0
41
1
10
54.716477045969
20
2.53475745633907
30
0
41
1
10
54.6837347475061
20
2.5529914678248
30
0
41
1
10
54.6511411778524
20
2.57108284910814
30
0
41
1
10
54.6186963371242
20
2.58902979012706
30
0
41
1
10
54.5864002259929
20
2.6068304972188
30
0
41
1
10
54.5542528407295
20
2.62448320278205
30
0
41
1
10
54.5222541945335
20
2.64198615716154
30
0
41
1
10
54.4904042376954
20
2.65933765095224
30
0
41
1
10
54.4307756981583
20
2.69168697062679
30
0
41
1
10
54.3438531367431
20
2.73836782116811
30
0
41
1
10
54.2483096072519
20
2.78876062974896
30
0
41
1
10
54.1721837615801
20
2.82829697244438
30
0
41
1
10
54.1120476724501
20
2.85919889301115
30
0
41
1
10
54.0547257964624
20
2.88824169091006
30
0
41
1
10
54.0164218489075
20
2.90757862472174
30
0
41
1
10
53.9999999261355
20
2.91586888340189
30
0
0
SPLINE
5
135
100
AcDbEntity
8
1
62
256
6
ByLayer
370
18
48
1
60
0
100
AcDbSpline
70
4
71
3
72
30
73
26
40
0
40
0
40
0
40
0
40
0.249999999999995
40
0.249999999999995
40
0.374999999999994
40
0.374999999999994
40
0.499999999999992
40
0.499999999999992
40
0.562499999999943
40
0.562499999999943
40
0.624999999999894
40
0.624999999999894
40
0.749999999999891
40
0.749999999999891
40
0.812499999999842
40
0.812499999999842
40
0.843749999999861
40
0.843749999999861
40
0.874999999999879
40
0.874999999999879
40
0.906249999999897
40
0.906249999999897
40
0.937499999999915
40
0.937499999999915
40
1
40
1
40
1
40
1
41
1
10
55.8344022317617
20
-4.01977376436096
30
0
41
1
10
55.865343631078
20
-4.01799442806546
30
0
41
1
10
55.8963466456879
20
-4.01515882453859
30
0
41
1
10
55.9430794875471
20
-4.00869702740675
30
0
41
1
10
55.9586959128008
20
-4.00617151643095
30
0
41
1
10
55.990049375016
20
-4.00017902803754
30
0
41
1
10
56.0057854807527
20
-3.99671637155623
30
0
41
1
10
56.0295362467532
20
-3.99055667358863
30
0
41
1
10
56.0374779131657
20
-3.98834105174171
30
0
41
1
10
56.0534271842141
20
-3.98350885714194
30
0
41
1
10
56.061455856891
20
-3.98088379600441
30
0
41
1
10
56.0852773044218
20
-3.97238409227191
30
0
41
1
10
56.1009198267224
20
-3.96589835240675
30
0
41
1
10
56.1237831990148
20
-3.95403973317249
30
0
41
1
10
56.1312645905251
20
-3.94973374513967
30
0
41
1
10
56.1418884664685
20
-3.94274856326371
30
0
41
1
10
56.1453419931058
20
-3.94032556590739
30
0
41
1
10
56.1520412721077
20
-3.93525650796434
30
0
41
1
10
56.1552796814254
20
-3.93261265654672
30
0
41
1
10
56.1613516020795
20
-3.92720798558568
30
0
41
1
10
56.1642056185863
20
-3.92443233772144
30
0
41
1
10
56.1695117326232
20
-3.91872048159254
30
0
41
1
10
56.1719826185416
20
-3.91575694629333
30
0
41
1
10
56.1785539477125
20
-3.90683266308722
30
0
41
1
10
56.1818257684517
20
-3.9008593492747
30
0
41
1
10
56.1840473618345
20
-3.89486584728383
30
0
0
SPLINE
5
136
100
AcDbEntity
8
1
62
256
6
ByLayer
370
13
48
1
60
0
100
AcDbSpline
70
4
71
3
72
13
73
9
40
0
40
0
40
0
40
0
40
0.0482265283233358
40
0.206855440269446
40
0.365484352215557
40
0.524113264161668
40
0.682742176107779
40
1
40
1
40
1
40
1
41
1
10
56.184047361835
20
-3.89486584728402
30
0
41
1
10
55.9560315745567
20
-3.81691372446301
30
0
41
1
10
54.9780157872783
20
-3.4703512361537
30
0
41
1
10
53.2499999999999
20
-2.76949413971866
30
0
41
1
10
51
20
-1.727846667856
30
0
41
1
10
48.75
20
-0.612506258695163
30
0
41
1
10
45.75
20
0.922137545008411
30
0
41
1
10
43.5000000000001
20
2.03885571865032
30
0
41
1
10
42
20
2.6892222363586
30
0
0
SPLINE
5
137
100
AcDbEntity
8
1
62
256
6
ByLayer
370
13
48
1
60
0
100
AcDbSpline
70
4
71
3
72
9
73
5
40
0
40
0
40
0
40
0
40
0.692754229948046
40
1
40
1
40
1
40
1
41
1
10
42.0000000000001
20
-0.61744772462103
30
0
41
1
10
43.5000000000001
20
-1.1553517425711
30
0
41
1
10
45.6652700700398
20
-1.90419210030615
30
0
41
1
10
47.8305401400796
20
-2.51222003678055
30
0
41
1
10
48.4958102101194
20
-2.6826426783056
30
0
0
SPLINE
5
138
100
AcDbEntity
8
1
62
256
6
ByLayer
370
18
48
1
60
0
100
AcDbSpline
70
4
71
3
72
10
73
6
40
0
40
0
40
0
40
0
40
0.5
40
0.5
40
1
40
1
40
1
40
1
41
1
10
59.7173413675825
20
-0.0472559301494471
30
0
41
1
10
59.716432698158
20
-0.0484346247594658
30
0
41
1
10
59.716314761995
20
-0.0496336004932232
30
0
41
1
10
59.7170719863485
20
-0.0520377900241158
30
0
41
1
10
59.7179569845793
20
-0.0532435576304238
30
0
41
1
10
59.7192033820409
20
-0.0544443608516474
30
0
0
SPLINE
5
139
100
AcDbEntity
8
1
62
256
6
ByLayer
370
18
48
1
60
0
100
AcDbSpline
70
4
71
3
72
39
73
35
40
0
40
0
40
0
40
0
40
0.0624999999999955
40
0.0624999999999955
40
0.0937499999999919
40
0.0937499999999919
40
0.124999999999988
40
0.124999999999988
40
0.249999999999977
40
0.249999999999977
40
0.374999999999966
40
0.374999999999966
40
0.390624999999965
40
0.390624999999965
40
0.406249999999964
40
0.437499999999967
40
0.437499999999967
40
0.499999999999972
40
0.499999999999972
40
0.624999999999988
40
0.624999999999988
40
0.687499999999993
40
0.687499999999993
40
0.749999999999998
40
0.749999999999998
40
0.812500000000003
40
0.812500000000003
40
0.843750000000002
40
0.843750000000002
40
0.875000000000002
40
0.875000000000002
40
0.937500000000001
40
0.937500000000001
40
1
40
1
40
1
40
1
41
1
10
59.7173413675722
20
-0.0472559301489355
30
0
41
1
10
59.6807187969279
20
-0.0346911896504594
30
0
41
1
10
59.6406108887049
20
-0.020067577973407
30
0
41
1
10
59.5751656943926
20
0.0050758350741376
30
0
41
1
10
59.5524368588056
20
0.0140034506297297
30
0
41
1
10
59.5054775982999
20
0.0328255165766791
30
0
41
1
10
59.4812302312575
20
0.0427262792879901
30
0
41
1
10
59.3561984154878
20
0.0946335476918421
30
0
41
1
10
59.2440681255032
20
0.14382760323835
30
0
41
1
10
58.9961994880094
20
0.256517320707559
30
0
41
1
10
58.8604158500548
20
0.320066957357056
30
0
41
1
10
58.6938439511206
20
0.400130327004206
30
0
41
1
10
58.6751265432745
20
0.409154130688137
30
0
41
1
10
58.6374368669833
20
0.427379353535514
30
0
41
1
10
58.5804909201471
20
0.454997426340782
30
0
41
1
10
58.5223192928471
20
0.483451539094489
30
0
41
1
10
58.4043602435164
20
0.541466116208568
30
0
41
1
10
58.3235682500534
20
0.581624238256722
30
0
41
1
10
58.074821680689
20
0.706407196700326
30
0
41
1
10
57.9005274646973
20
0.795279317186896
30
0
41
1
10
57.6262482935871
20
0.93718914091707
30
0
41
1
10
57.5326744626501
20
0.985932310994258
30
0
41
1
10
57.3411152634115
20
1.08638128064115
30
0
41
1
10
57.2439287430479
20
1.13766840193122
30
0
41
1
10
57.0469144309404
20
1.24229440583835
30
0
41
1
10
56.9470657404431
20
1.29564573515253
30
0
41
1
10
56.7952710392863
20
1.37726161858015
30
0
41
1
10
56.7442896477369
20
1.4047561009103
30
0
41
1
10
56.6418627711718
20
1.46016511086211
30
0
41
1
10
56.5904666577089
20
1.48805276759637
30
0
41
1
10
56.4357374115338
20
1.57227145212741
30
0
41
1
10
56.3318650021879
20
1.62916297869873
30
0
41
1
10
56.1226943089161
20
1.74439926993983
30
0
41
1
10
56.017403595474
20
1.8027485298455
30
0
41
1
10
55.9113734113599
20
1.86179016184391
30
0
0
SPLINE
5
13A
100
AcDbEntity
8
1
62
256
6
ByLayer
370
13
48
1
60
0
100
AcDbSpline
70
4
71
3
72
8
73
4
40
0
40
0
40
0
40
0
40
1
40
1
40
1
40
1
41
1
10
55.91137341136
20
1.86179016184397
30
0
41
1
10
55.9364773175392
20
1.8361872415625
30
0
41
1
10
55.9616687767953
20
1.81073561536593
30
0
41
1
10
55.9869558816858
20
1.785442661877
30
0
0
SPLINE
5
13B
100
AcDbEntity
8
1
62
256
6
ByLayer
370
18
48
1
60
0
100
AcDbSpline
70
4
71
3
72
35
73
31
40
0
40
0
40
0
40
0
40
0.125000000000018
40
0.125000000000018
40
0.250000000000035
40
0.250000000000035
40
0.312500000000044
40
0.312500000000044
40
0.375000000000053
40
0.375000000000053
40
0.500000000000038
40
0.500000000000038
40
0.625000000000024
40
0.625000000000024
40
0.687500000000016
40
0.687500000000016
40
0.750000000000008
40
0.750000000000008
40
0.781250000000005
40
0.781250000000005
40
0.812500000000002
40
0.843749999999999
40
0.843749999999999
40
0.874999999999996
40
0.874999999999996
40
0.93749999999999
40
0.93749999999999
40
0.968749999999995
40
0.968749999999995
40
1
40
1
40
1
40
1
41
1
10
55.9869559022463
20
1.78544267170071
30
0
41
1
10
56.0202016837549
20
1.76559599283266
30
0
41
1
10
56.0530805415775
20
1.74571120110622
30
0
41
1
10
56.1179493452295
20
1.70578899717609
30
0
41
1
10
56.1499412313875
20
1.68575252399558
30
0
41
1
10
56.1970779793257
20
1.65549343265363
30
0
41
1
10
56.2126696660418
20
1.6453576608906
30
0
41
1
10
56.2433435189869
20
1.62511265807319
30
0
41
1
10
56.258439265696
20
1.61499524174715
30
0
41
1
10
56.3028974553163
20
1.58463812409948
30
0
41
1
10
56.3314512390804
20
1.56439704184169
30
0
41
1
10
56.3854752659428
20
1.52374157630112
30
0
41
1
10
56.4109874949088
20
1.50333437264075
30
0
41
1
10
56.4454671612848
20
1.47233297698477
30
0
41
1
10
56.4563538659253
20
1.46188074899675
30
0
41
1
10
56.475702437889
20
1.44141543855207
30
0
41
1
10
56.4842485815991
20
1.43133769021261
30
0
41
1
10
56.4948106473724
20
1.41649598846891
30
0
41
1
10
56.4979625921932
20
1.4115758350288
30
0
41
1
10
56.5033151625677
20
1.401926482254
30
0
41
1
10
56.5076786678148
20
1.39254456727824
30
0
41
1
10
56.5098730090616
20
1.38373728728976
30
0
41
1
10
56.5108613918507
20
1.37524389726485
30
0
41
1
10
56.5107411855862
20
1.37112767449699
30
0
41
1
10
56.5084415359446
20
1.35962293794719
30
0
41
1
10
56.5043733223492
20
1.35299279056397
30
0
41
1
10
56.4945449971546
20
1.34455836002641
30
0
41
1
10
56.4906433256338
20
1.34200938220061
30
0
41
1
10
56.4818927663079
20
1.33752078705788
30
0
41
1
10
56.4770218410009
20
1.33555970540596
30
0
41
1
10
56.4717079451316
20
1.33385200077538
30
0
0
SPLINE
5
13C
100
AcDbEntity
8
1
62
256
6
ByLayer
370
13
48
1
60
0
100
AcDbSpline
70
4
71
3
72
26
73
22
40
0
40
0
40
0
40
0
40
0.250000000000006
40
0.250000000000006
40
0.312500000000005
40
0.312500000000005
40
0.375000000000004
40
0.375000000000004
40
0.499999999999995
40
0.499999999999995
40
0.624999999999986
40
0.624999999999986
40
0.656249999999988
40
0.656249999999988
40
0.687499999999989
40
0.687499999999989
40
0.749999999999991
40
0.749999999999991
40
0.874999999999996
40
0.874999999999996
40
1
40
1
40
1
40
1
41
1
10
56.4717079452988
20
1.33385200067991
30
0
41
1
10
56.7013879952456
20
1.13653631624018
30
0
41
1
10
56.9390595347757
20
0.956952154847642
30
0
41
1
10
57.2509543333759
20
0.758781245497119
30
0
41
1
10
57.3140760921845
20
0.720458169675709
30
0
41
1
10
57.441950288881
20
0.64653133255382
30
0
41
1
10
57.506719225859
20
0.61093053677331
30
0
41
1
10
57.703454861192
20
0.508339773350485
30
0
41
1
10
57.8378656277419
20
0.445655827542765
30
0
41
1
10
58.1123888078184
20
0.331440862378514
30
0
41
1
10
58.2524770262835
20
0.27981943278499
30
0
41
1
10
58.4307365843079
20
0.221586581502919
30
0
41
1
10
58.4665468279407
20
0.210255088029328
30
0
41
1
10
58.5384776594424
20
0.18820980717544
30
0
41
1
10
58.5746151087046
20
0.177491542579986
30
0
41
1
10
58.6832162083268
20
0.14632059868967
30
0
41
1
10
58.7559595250559
20
0.126827184797662
30
0
41
1
10
58.9751710198183
20
0.0721139919455709
30
0
41
1
10
59.1226395116308
20
0.0406884671147054
30
0
41
1
10
59.4196275746315
20
-0.0131649019040196
30
0
41
1
10
59.5691022395843
20
-0.0355916253916462
30
0
41
1
10
59.7192033820409
20
-0.054444360851619
30
0
0
SPLINE
5
13D
100
AcDbEntity
8
1
62
256
6
ByLayer
370
18
48
1
60
0
100
AcDbSpline
70
4
71
3
72
8
73
4
40
0
40
0
40
0
40
0
40
1
40
1
40
1
40
1
41
1
10
42.0000000000001
20
2.52086165586627
30
0
41
1
10
41.7507497927911
20
2.61878598731786
30
0
41
1
10
41.5052999035084
20
2.71346413527775
30
0
41
1
10
41.2635035200096
20
2.80502150482025
30
0
0
SPLINE
5
13E
100
AcDbEntity
8
1
62
256
6
ByLayer
370
18
48
1
60
0
100
AcDbSpline
70
4
71
3
72
23
73
19
40
0
40
0
40
0
40
0
40
0.125
40
0.125
40
0.25
40
0.25
40
0.374999999999999
40
0.374999999999999
40
0.5
40
0.5
40
0.5625
40
0.5625
40
0.625
40
0.625
40
0.75
40
0.875
40
0.875
40
1
40
1
40
1
40
1
41
1
10
41.4898386206495
20
-5.85421326948776
30
0
41
1
10
41.4953812807902
20
-5.86296834690543
30
0
41
1
10
41.5027155900389
20
-5.87127469744559
30
0
41
1
10
41.5213242068705
20
-5.88694482229218
30
0
41
1
10
41.5326049702196
20
-5.89431055806577
30
0
41
1
10
41.5593883941749
20
-5.90805882349136
30
0
41
1
10
41.5748708699777
20
-5.91443033260384
30
0
41
1
10
41.6101228772492
20
-5.92617437305026
30
0
41
1
10
41.6299930994275
20
-5.9315728271531
30
0
41
1
10
41.662858660115
20
-5.93891851161811
30
0
41
1
10
41.6743285437785
20
-5.94124508954235
30
0
41
1
10
41.6983064093557
20
-5.94567092817027
30
0
41
1
10
41.7108449348477
20
-5.94777471565317
30
0
41
1
10
41.7498050770671
20
-5.95373479924197
30
0
41
1
10
41.8051048576036
20
-5.96072133244209
30
0
41
1
10
41.8666860281715
20
-5.96616388120148
30
0
41
1
10
41.9312346052902
20
-5.97098685595495
30
0
41
1
10
41.965099937664
20
-5.97309299835072
30
0
41
1
10
42
20
-5.97493293395101
30
0
0
SPLINE
5
13F
100
AcDbEntity
8
1
62
256
6
ByLayer
370
18
48
1
60
0
100
AcDbSpline
70
4
71
3
72
20
73
16
40
0
40
0
40
0
40
0
40
0.124999999999997
40
0.124999999999997
40
0.249999999999994
40
0.374999999999992
40
0.374999999999992
40
0.43749999999999
40
0.43749999999999
40
0.499999999999988
40
0.624999999999991
40
0.624999999999991
40
0.749999999999994
40
0.749999999999994
40
1
40
1
40
1
40
1
41
1
10
41.2635035200237
20
-5.48669531505681
30
0
41
1
10
41.2602792790247
20
-5.50712407284411
30
0
41
1
10
41.2583488681401
20
-5.52702619617091
30
0
41
1
10
41.2572878494701
20
-5.56558217112277
30
0
41
1
10
41.2590179674085
20
-5.60289994768527
30
0
41
1
10
41.2667503563802
20
-5.63775427735121
30
0
41
1
10
41.2750075808999
20
-5.6629743712781
30
0
41
1
10
41.2781727843357
20
-5.67123112610653
30
0
41
1
10
41.2853331752193
20
-5.68737397735219
30
0
41
1
10
41.2973262677355
20
-5.7110564148548
30
0
41
1
10
41.3132030924127
20
-5.73316379252051
30
0
41
1
10
41.3381124277906
20
-5.76127480009285
30
0
41
1
10
41.3524833289416
20
-5.77467662945296
30
0
41
1
10
41.4012436483661
20
-5.81252817016241
30
0
41
1
10
41.441287844024
20
-5.83471845580192
30
0
41
1
10
41.4898386206492
20
-5.8542132694877
30
0
0
SPLINE
5
140
100
AcDbEntity
8
1
62
256
6
ByLayer
370
18
48
1
60
0
100
AcDbSpline
70
4
71
3
72
38
73
34
40
0
40
0
40
0
40
0
40
0.125000000000059
40
0.125000000000059
40
0.250000000000118
40
0.250000000000118
40
0.375000000000177
40
0.375000000000177
40
0.437500000000176
40
0.437500000000176
40
0.500000000000175
40
0.500000000000175
40
0.562500000000174
40
0.562500000000174
40
0.593750000000161
40
0.593750000000161
40
0.625000000000148
40
0.625000000000148
40
0.656250000000135
40
0.656250000000135
40
0.687500000000121
40
0.687500000000121
40
0.718750000000108
40
0.718750000000108
40
0.750000000000095
40
0.750000000000095
40
0.812500000000072
40
0.812500000000072
40
0.875000000000048
40
0.875000000000048
40
0.937500000000024
40
0.937500000000024
40
1
40
1
40
1
40
1
41
1
10
36.3292747328291
20
-3.63581894083427
30
0
41
1
10
36.316622311898
20
-3.62704147871602
30
0
41
1
10
36.3041966119516
20
-3.61805770757152
30
0
41
1
10
36.2799637392768
20
-3.5995345873869
30
0
41
1
10
36.2681430291071
20
-3.58999044808172
30
0
41
1
10
36.2454587084113
20
-3.57012397331835
30
0
41
1
10
36.2346370135023
20
-3.55985787498193
30
0
41
1
10
36.2197246667635
20
-3.54362784236969
30
0
41
1
10
36.2149770602358
20
-3.53807742360283
30
0
41
1
10
36.2061204487442
20
-3.52657789349638
30
0
41
1
10
36.2019823078803
20
-3.52058927035543
30
0
41
1
10
36.194849998376
20
-3.50822140798277
30
0
41
1
10
36.1918461770504
20
-3.50186374831651
30
0
41
1
10
36.1887646343975
20
-3.49189284213202
30
0
41
1
10
36.1879792077388
20
-3.48847255448561
30
0
41
1
10
36.187104995094
20
-3.48163275704252
30
0
41
1
10
36.1870072332675
20
-3.47819835289027
30
0
41
1
10
36.1876941254633
20
-3.47129323214742
30
0
41
1
10
36.1884845582072
20
-3.46788320236769
30
0
41
1
10
36.1910132700207
20
-3.46136156118746
30
0
41
1
10
36.1927824419244
20
-3.45818443319757
30
0
41
1
10
36.1972220743017
20
-3.45226451543184
30
0
41
1
10
36.199843882255
20
-3.44956231921654
30
0
41
1
10
36.2057705966546
20
-3.44459701701405
30
0
41
1
10
36.2090562888751
20
-3.44235776654588
30
0
41
1
10
36.2193662888704
20
-3.43639371681729
30
0
41
1
10
36.2270334734154
20
-3.43328452370054
30
0
41
1
10
36.2427422669928
20
-3.4283078556299
30
0
41
1
10
36.2508036886601
20
-3.4264227197886
30
0
41
1
10
36.267183312416
20
-3.42340196500757
30
0
41
1
10
36.2755247441853
20
-3.42227235840826
30
0
41
1
10
36.2922636253587
20
-3.42056349808783
30
0
41
1
10
36.3006667620748
20
-3.41998370758998
30
0
41
1
10
36.3090946291691
20
-3.41960561875044
30
0
0
SPLINE
5
141
100
AcDbEntity
8
1
62
256
6
ByLayer
370
18
48
1
60
0
100
AcDbSpline
70
4
71
3
72
32
73
28
40
0
40
0
40
0
40
0
40
0.124999999999969
40
0.124999999999969
40
0.249999999999938
40
0.249999999999938
40
0.312499999999938
40
0.312499999999938
40
0.374999999999937
40
0.374999999999937
40
0.499999999999907
40
0.499999999999907
40
0.624999999999877
40
0.624999999999877
40
0.656249999999886
40
0.656249999999886
40
0.687499999999894
40
0.74999999999991
40
0.781249999999925
40
0.781249999999925
40
0.812499999999939
40
0.812499999999939
40
0.874999999999959
40
0.874999999999959
40
0.93749999999998
40
0.93749999999998
40
1
40
1
40
1
40
1
41
1
10
36.3090946291691
20
-3.41960561875044
30
0
41
1
10
36.3656575741662
20
-3.41706810623444
30
0
41
1
10
36.4219876358479
20
-3.41316644378307
30
0
41
1
10
36.5340296177995
20
-3.40172574015659
30
0
41
1
10
36.5897438416258
20
-3.39420105246046
30
0
41
1
10
36.6726659731399
20
-3.3790652531986
30
0
41
1
10
36.700254061731
20
-3.37335638136452
30
0
41
1
10
36.7546354080724
20
-3.36048176532188
30
0
41
1
10
36.7814748349674
20
-3.35331107344379
30
0
41
1
10
36.8607380605564
20
-3.32916168686978
30
0
41
1
10
36.9119444355521
20
-3.30963052727665
30
0
41
1
10
37.0093644112058
20
-3.25991871545907
30
0
41
1
10
37.0537356065942
20
-3.23060213073515
30
0
41
1
10
37.1020529840887
20
-3.18651506499779
30
0
41
1
10
37.1113928046911
20
-3.17727877047281
30
0
41
1
10
37.1290066530172
20
-3.15832422709116
30
0
41
1
10
37.1539146053497
20
-3.12911005735688
30
0
41
1
10
37.18114801326
20
-3.08703426057664
30
0
41
1
10
37.1971989731164
20
-3.05313955245515
30
0
41
1
10
37.2069391260223
20
-3.03002351881031
30
0
41
1
10
37.2112929461984
20
-3.0182833285364
30
0
41
1
10
37.2228004035364
20
-2.98288378443539
30
0
41
1
10
37.2284666681878
20
-2.9589038231785
30
0
41
1
10
37.2364061030143
20
-2.91026023795598
30
0
41
1
10
37.2386774678866
20
-2.88559637706658
30
0
41
1
10
37.2402900870269
20
-2.83564155430372
30
0
41
1
10
37.2396222193975
20
-2.81047902856787
30
0
41
1
10
37.2377245994574
20
-2.7853068443803
30
0
0
SPLINE
5
142
100
AcDbEntity
8
1
62
256
6
ByLayer
370
18
48
1
60
0
100
AcDbSpline
70
4
71
3
72
12
73
8
40
0
40
0
40
0
40
0
40
0.500000000000002
40
0.500000000000002
40
0.750000000000001
40
0.750000000000001
40
1
40
1
40
1
40
1
41
1
10
36.9726842331252
20
0.416939125375535
30
0
41
1
10
36.9753222210747
20
0.43517045401191
30
0
41
1
10
36.9798363587887
20
0.452781215348011
30
0
41
1
10
36.9892472652658
20
0.478325439624626
30
0
41
1
10
36.9928249809459
20
0.486694597643464
30
0
41
1
10
37.0008415381682
20
0.503148685003595
30
0
41
1
10
37.0052844077165
20
0.511233414598536
30
0
41
1
10
37.0100825745174
20
0.519081529295079
30
0
0
SPLINE
5
143
100
AcDbEntity
8
1
62
256
6
ByLayer
370
18
48
1
60
0
100
AcDbSpline
70
4
71
3
72
40
73
36
40
0
40
0
40
0
40
0
40
0.0312499999999863
40
0.0312499999999863
40
0.0624999999999726
40
0.0624999999999726
40
0.0781249999999693
40
0.0781249999999693
40
0.093749999999966
40
0.093749999999966
40
0.124999999999967
40
0.124999999999967
40
0.18749999999997
40
0.18749999999997
40
0.218749999999971
40
0.218749999999971
40
0.249999999999972
40
0.249999999999972
40
0.312499999999974
40
0.312499999999974
40
0.374999999999977
40
0.374999999999977
40
0.437499999999979
40
0.437499999999979
40
0.499999999999981
40
0.499999999999981
40
0.624999999999986
40
0.624999999999986
40
0.749999999999991
40
0.749999999999991
40
0.812499999999993
40
0.812499999999993
40
0.874999999999995
40
0.874999999999995
40
1
40
1
40
1
40
1
41
1
10
37.0100825745174
20
0.519081529295079
30
0
41
1
10
37.0340494868097
20
0.558282975263637
30
0
41
1
10
37.0611544080815
20
0.594566340378663
30
0
41
1
10
37.1201792694503
20
0.662665369397416
30
0
41
1
10
37.152110505324
20
0.694470453647568
30
0
41
1
10
37.2029443742244
20
0.739459019174006
30
0
41
1
10
37.220381645094
20
0.753999086433566
30
0
41
1
10
37.2561565695662
20
0.782246561385904
30
0
41
1
10
37.2744232346249
20
0.795895252558239
30
0
41
1
10
37.3298853327051
20
0.835325400902207
30
0
41
1
10
37.3678861740602
20
0.859718618116972
30
0
41
1
10
37.4843500482577
20
0.928367949000858
30
0
41
1
10
37.565242412229
20
0.96815341824427
30
0
41
1
10
37.6900575680556
20
1.02146697890171
30
0
41
1
10
37.7323231173596
20
1.0381829428122
30
0
41
1
10
37.8175261772996
20
1.0695870644951
30
0
41
1
10
37.8604227401477
20
1.08426465467187
30
0
41
1
10
37.9898844775947
20
1.12562392082529
30
0
41
1
10
38.0772159445043
20
1.14965246857139
30
0
41
1
10
38.253528319349
20
1.19202771035108
30
0
41
1
10
38.3426259643615
20
1.21037999439142
30
0
41
1
10
38.521443018262
20
1.24210805460251
30
0
41
1
10
38.6112122706257
20
1.25549817906844
30
0
41
1
10
38.7913806502783
20
1.277975121792
30
0
41
1
10
38.8818330686548
20
1.28706233196988
30
0
41
1
10
39.1536733184556
20
1.30846137163107
30
0
41
1
10
39.335229911192
20
1.31494669855709
30
0
41
1
10
39.698913744061
20
1.31448374615115
30
0
41
1
10
39.8805029251992
20
1.30750992027433
30
0
41
1
10
40.1524323849463
20
1.28773835358359
30
0
41
1
10
40.2429784029425
20
1.27958795515843
30
0
41
1
10
40.4235113533447
20
1.26028111498135
30
0
41
1
10
40.5135503751158
20
1.2491209480213
30
0
41
1
10
40.7829986750053
20
1.21119420833932
30
0
41
1
10
40.961740814543
20
1.17999346683973
30
0
41
1
10
41.1396047601358
20
1.14289725209684
30
0
0
SPLINE
5
144
100
AcDbEntity
8
1
62
256
6
ByLayer
370
18
48
1
60
0
100
AcDbSpline
70
4
71
3
72
23
73
19
40
0
40
0
40
0
40
0
40
0.125000000000011
40
0.125000000000011
40
0.250000000000021
40
0.250000000000021
40
0.375000000000032
40
0.375000000000032
40
0.500000000000043
40
0.500000000000043
40
0.562500000000048
40
0.562500000000048
40
0.625000000000053
40
0.625000000000053
40
0.750000000000035
40
0.875000000000018
40
0.875000000000018
40
1
40
1
40
1
40
1
41
1
10
41.4898386206498
20
1.71977222405974
30
0
41
1
10
41.4953812807906
20
1.68148972257217
30
0
41
1
10
41.5027155900389
20
1.64334586790784
30
0
41
1
10
41.5213242068705
20
1.56774922379603
30
0
41
1
10
41.5326049702194
20
1.53028450126215
30
0
41
1
10
41.5593883941749
20
1.45661228610001
30
0
41
1
10
41.5748708699776
20
1.42046522044268
30
0
41
1
10
41.6101228772492
20
1.35012446133968
30
0
41
1
10
41.6299930994275
20
1.31576558166586
30
0
41
1
10
41.662858660115
20
1.26632358689667
30
0
41
1
10
41.6743285437785
20
1.25017505955896
30
0
41
1
10
41.6983064093557
20
1.21855187498997
30
0
41
1
10
41.7108449348477
20
1.2030424892057
30
0
41
1
10
41.749805077067
20
1.15780261216935
30
0
41
1
10
41.8051048576036
20
1.10113938468058
30
0
41
1
10
41.8666860281715
20
1.05137323431586
30
0
41
1
10
41.9312346052902
20
1.00488549295034
30
0
41
1
10
41.965099937664
20
0.983227384432212
30
0
41
1
10
42.0000000000001
20
0.963339231447918
30
0
0
SPLINE
5
145
100
AcDbEntity
8
1
62
256
6
ByLayer
370
18
48
1
60
0
100
AcDbSpline
70
4
71
3
72
20
73
16
40
0
40
0
40
0
40
0
40
0.125000000000002
40
0.125000000000002
40
0.250000000000005
40
0.375000000000007
40
0.375000000000007
40
0.437500000000009
40
0.437500000000009
40
0.50000000000001
40
0.625000000000008
40
0.625000000000008
40
0.750000000000005
40
0.750000000000005
40
1
40
1
40
1
40
1
41
1
10
41.2635035200236
20
2.80502150481652
30
0
41
1
10
41.2602792790246
20
2.76039879147186
30
0
41
1
10
41.2583488681401
20
2.71535139225878
30
0
41
1
10
41.2572878494701
20
2.62483740870275
30
0
41
1
10
41.2590179674084
20
2.53389113328171
30
0
41
1
10
41.2667503563803
20
2.4421057944366
30
0
41
1
10
41.2750075809001
20
2.37296324916844
30
0
41
1
10
41.2781727843359
20
2.34985411116472
30
0
41
1
10
41.2853331752195
20
2.30372386665644
30
0
41
1
10
41.2973262677357
20
2.23459601727237
30
0
41
1
10
41.3132030924129
20
2.16570608233181
30
0
41
1
10
41.3381124277909
20
2.07414033670767
30
0
41
1
10
41.352483328942
20
2.02839006626061
30
0
41
1
10
41.4012436483665
20
1.89302293242406
30
0
41
1
10
41.441287844023
20
1.8050153576545
30
0
41
1
10
41.4898386206481
20
1.7197722240623
30
0
0
SPLINE
5
146
100
AcDbEntity
8
1
62
256
6
ByLayer
370
18
48
1
60
0
100
AcDbSpline
70
4
71
3
72
38
73
34
40
0
40
0
40
0
40
0
40
0.125000000000004
40
0.125000000000004
40
0.250000000000008
40
0.250000000000008
40
0.375000000000013
40
0.375000000000013
40
0.437500000000044
40
0.437500000000044
40
0.500000000000076
40
0.500000000000076
40
0.562500000000108
40
0.562500000000108
40
0.593750000000123
40
0.593750000000123
40
0.625000000000139
40
0.625000000000139
40
0.656250000000155
40
0.656250000000155
40
0.687500000000171
40
0.687500000000171
40
0.718750000000187
40
0.718750000000187
40
0.750000000000203
40
0.750000000000203
40
0.812500000000152
40
0.812500000000152
40
0.875000000000101
40
0.875000000000101
40
0.937500000000051
40
0.937500000000051
40
1
40
1
40
1
40
1
41
1
10
36.3292747328285
20
5.01492109455575
30
0
41
1
10
36.3166223118974
20
5.02097883256093
30
0
41
1
10
36.304196611951
20
5.02714101009596
30
0
41
1
10
36.2799637392762
20
5.03976041965561
30
0
41
1
10
36.2681430291064
20
5.04622104703049
30
0
41
1
10
36.2454587084107
20
5.05957073483083
30
0
41
1
10
36.2346370135017
20
5.06642241819472
30
0
41
1
10
36.2197246667629
20
5.07716770449866
30
0
41
1
10
36.2149770602352
20
5.0808286134743
30
0
41
1
10
36.2061204487435
20
5.08838129644781
30
0
41
1
10
36.2019823078797
20
5.0922988428438
30
0
41
1
10
36.1948499983754
20
5.10035233524769
30
0
41
1
10
36.1918461770497
20
5.10447454136076
30
0
41
1
10
36.1887646343969
20
5.11090773280208
30
0
41
1
10
36.1879792077382
20
5.11310925917337
30
0
41
1
10
36.1871049950933
20
5.11750079460919
30
0
41
1
10
36.1870072332667
20
5.11970047186801
30
0
41
1
10
36.1876941254626
20
5.12411206037183
30
0
41
1
10
36.1884845582065
20
5.12628508888099
30
0
41
1
10
36.1910132700201
20
5.13043146298784
30
0
41
1
10
36.1927824419237
20
5.13244644749051
30
0
41
1
10
36.1972220743011
20
5.1361932912524
30
0
41
1
10
36.1998438822544
20
5.13789963081607
30
0
41
1
10
36.2057705966538
20
5.14102999413385
30
0
41
1
10
36.2090562888744
20
5.1424389441068
30
0
41
1
10
36.2193662888697
20
5.1461868490394
30
0
41
1
10
36.2270334734147
20
5.14813406748732
30
0
41
1
10
36.2427422669921
20
5.15124711047477
30
0
41
1
10
36.2508036886594
20
5.15242377964665
30
0
41
1
10
36.2671833124152
20
5.1543079998614
30
0
41
1
10
36.2755247441846
20
5.15501166430926
30
0
41
1
10
36.292263625358
20
5.15607578749604
30
0
41
1
10
36.3006667620742
20
5.15643654144509
30
0
41
1
10
36.3090946291685
20
5.1566717754487
30
0
0
SPLINE
5
147
100
AcDbEntity
8
1
62
256
6
ByLayer
370
18
48
1
60
0
100
AcDbSpline
70
4
71
3
72
44
73
40
40
0
40
0
40
0
40
0
40
0.124999999999997
40
0.124999999999997
40
0.187499999999984
40
0.187499999999984
40
0.218749999999989
40
0.218749999999989
40
0.249999999999995
40
0.249999999999995
40
0.312500000000006
40
0.312500000000006
40
0.375000000000017
40
0.375000000000017
40
0.406250000000033
40
0.406250000000033
40
0.43750000000005
40
0.43750000000005
40
0.500000000000062
40
0.500000000000062
40
0.531250000000077
40
0.531250000000077
40
0.562500000000092
40
0.625000000000107
40
0.640625000000106
40
0.640625000000106
40
0.656250000000105
40
0.656250000000105
40
0.687500000000096
40
0.687500000000096
40
0.750000000000079
40
0.750000000000079
40
0.78125000000007
40
0.78125000000007
40
0.81250000000006
40
0.81250000000006
40
0.87500000000004
40
0.87500000000004
40
1
40
1
40
1
40
1
41
1
10
36.3090946291684
20
5.15667177544873
30
0
41
1
10
36.3776942924484
20
5.15858649162308
30
0
41
1
10
36.4459536484254
20
5.16174045260402
30
0
41
1
10
36.5476173305825
20
5.16907386376047
30
0
41
1
10
36.5813832616844
20
5.17195555535673
30
0
41
1
10
36.6318069667226
20
5.17707580953379
30
0
41
1
10
36.6485771989494
20
5.17891594784831
30
0
41
1
10
36.6820331736125
20
5.18289324894005
30
0
41
1
10
36.6987329572525
20
5.18503280420552
30
0
41
1
10
36.7483869650287
20
5.1919064629173
30
0
41
1
10
36.7809864968197
20
5.19710244107245
30
0
41
1
10
36.8449423825435
20
5.20897883904502
30
0
41
1
10
36.8763004893995
20
5.21565763220573
30
0
41
1
10
36.9221522707932
20
5.22705560371634
30
0
41
1
10
36.9372376862309
20
5.23108580912736
30
0
41
1
10
36.966953571162
20
5.2396674166892
30
0
41
1
10
36.9815305910614
20
5.24420632494548
30
0
41
1
10
37.0238243029823
20
5.25846255098287
30
0
41
1
10
37.0503022707929
20
5.26887297527196
30
0
41
1
10
37.0869868052245
20
5.28601209904457
30
0
41
1
10
37.098726082995
20
5.2919892065143
30
0
41
1
10
37.1210257129318
20
5.30444147153787
30
0
41
1
10
37.1522395981973
20
5.32360174641261
30
0
41
1
10
37.1809471399305
20
5.34753140366638
30
0
41
1
10
37.1969986572735
20
5.3654240660868
30
0
41
1
10
37.2030654641015
20
5.37264224703634
30
0
41
1
10
37.2059256072432
20
5.37628814437034
30
0
41
1
10
37.2138999541226
20
5.3871972491188
30
0
41
1
10
37.2184407619826
20
5.39446616169727
30
0
41
1
10
37.2299735932448
20
5.41623593548209
30
0
41
1
10
37.2348857040452
20
5.43069889536523
30
0
41
1
10
37.2388170330999
20
5.45223719497181
30
0
41
1
10
37.2395521364253
20
5.45939570771063
30
0
41
1
10
37.2399653574254
20
5.47363039970764
30
0
41
1
10
37.2396431714848
20
5.48064500776567
30
0
41
1
10
37.2372919399183
20
5.50139908955606
30
0
41
1
10
37.2338874556957
20
5.51484963231124
30
0
41
1
10
37.2193224177462
20
5.55415294236036
30
0
41
1
10
37.2038716599268
20
5.57896295173481
30
0
41
1
10
37.1844430844191
20
5.60255176982778
30
0
0
SPLINE
5
148
100
AcDbEntity
8
1
62
256
6
ByLayer
370
18
48
1
60
0
100
AcDbSpline
70
4
71
3
72
16
73
12
40
0
40
0
40
0
40
0
40
0.0563120787365086
40
0.0563120787365086
40
0.213593398947091
40
0.213593398947091
40
0.370874719157673
40
0.370874719157673
40
0.685437359578836
40
0.685437359578836
40
1
40
1
40
1
40
1
41
1
10
36.583808973787
20
5.99437386450623
30
0
41
1
10
36.584291964133
20
5.99416110354994
30
0
41
1
10
36.5848647687935
20
5.99394273496802
30
0
41
1
10
36.5873816000981
20
5.99309347267152
30
0
41
1
10
36.5899435701082
20
5.99242496643183
30
0
41
1
10
36.5965368493869
20
5.99100513967807
30
0
41
1
10
36.6005941062972
20
5.99025045952556
30
0
41
1
10
36.6146722435054
20
5.98792642777531
30
0
41
1
10
36.6266424162074
20
5.98628320640969
30
0
41
1
10
36.6551553337705
20
5.9828799122989
30
0
41
1
10
36.6717806860036
20
5.98111360452805
30
0
41
1
10
36.6900367797593
20
5.97935658902193
30
0
0
SPLINE
5
149
100
AcDbEntity
8
1
62
256
6
ByLayer
370
18
48
1
60
0
100
AcDbSpline
70
4
71
3
72
40
73
36
40
0
40
0
40
0
40
0
40
0.0312500000000001
40
0.0312500000000001
40
0.0625000000000002
40
0.0625000000000002
40
0.0781250000000041
40
0.0781250000000041
40
0.0937500000000079
40
0.0937500000000079
40
0.125000000000008
40
0.125000000000008
40
0.187500000000007
40
0.187500000000007
40
0.250000000000007
40
0.250000000000007
40
0.281250000000006
40
0.281250000000006
40
0.312500000000006
40
0.312500000000006
40
0.375000000000006
40
0.375000000000006
40
0.437500000000005
40
0.437500000000005
40
0.500000000000004
40
0.500000000000004
40
0.562500000000004
40
0.562500000000004
40
0.625000000000003
40
0.625000000000003
40
0.750000000000002
40
0.750000000000002
40
0.875000000000001
40
0.875000000000001
40
1
40
1
40
1
40
1
41
1
10
36.6900367797593
20
5.9793565890219
30
0
41
1
10
36.7216559520109
20
5.97631347494288
30
0
41
1
10
36.7558784642446
20
5.97322066787143
30
0
41
1
10
36.8281379249009
20
5.96706421848708
30
0
41
1
10
36.8661883976621
20
5.96399923175866
30
0
41
1
10
36.9255255566321
20
5.95947770779108
30
0
41
1
10
36.9456846684812
20
5.95798289882501
30
0
41
1
10
36.986689345783
20
5.95502463618107
30
0
41
1
10
37.00756718144
20
5.95355898599854
30
0
41
1
10
37.0709216021091
20
5.94923203647082
30
0
41
1
10
37.1138303999692
20
5.94645972668431
30
0
41
1
10
37.2441606763787
20
5.93848669570573
30
0
41
1
10
37.3331647165532
20
5.93363040390514
30
0
41
1
10
37.5141747269605
20
5.924840177834
30
0
41
1
10
37.6061972582107
20
5.92090567300713
30
0
41
1
10
37.7460208331229
20
5.9156865731436
30
0
41
1
10
37.7928308430681
20
5.91406446618379
30
0
41
1
10
37.8865758331855
20
5.91105649192431
30
0
41
1
10
37.9335501018584
20
5.90966915361128
30
0
41
1
10
38.0747495283443
20
5.90584555882933
30
0
41
1
10
38.1692499146629
20
5.90374754434583
30
0
41
1
10
38.3588782509227
20
5.90039863406346
30
0
41
1
10
38.4540201455574
20
5.89914776889333
30
0
41
1
10
38.6448095406246
20
5.89744305817209
30
0
41
1
10
38.7401781548819
20
5.89699153486262
30
0
41
1
10
38.9308683481121
20
5.89682578766573
30
0
41
1
10
39.0261899043254
20
5.89711167535503
30
0
41
1
10
39.2167894483414
20
5.89835772597917
30
0
41
1
10
39.3121051376105
20
5.89931849074378
30
0
41
1
10
39.5977393855291
20
5.90311147895153
30
0
41
1
10
39.7873183181486
20
5.90684946874987
30
0
41
1
10
40.1649367092123
20
5.91612955568093
30
0
41
1
10
40.3530944963701
20
5.92167827430609
30
0
41
1
10
40.7264239894642
20
5.93382611054577
30
0
41
1
10
40.9117732666715
20
5.94042951624223
30
0
41
1
10
41.0958588286381
20
5.94714668075977
30
0
0
SPLINE
5
14A
100
AcDbEntity
8
1
62
256
6
ByLayer
370
18
48
1
60
0
100
AcDbSpline
70
4
71
3
72
28
73
24
40
0
40
0
40
0
40
0
40
0.124999999999999
40
0.124999999999999
40
0.249999999999999
40
0.249999999999999
40
0.374999999999999
40
0.374999999999999
40
0.437499999999997
40
0.437499999999997
40
0.468749999999997
40
0.468749999999997
40
0.499999999999997
40
0.499999999999997
40
0.624999999999998
40
0.624999999999998
40
0.749999999999999
40
0.749999999999999
40
0.875
40
0.875
40
0.9375
40
0.9375
40
1
40
1
40
1
40
1
41
1
10
37.2377245994573
20
-2.78530684438036
30
0
41
1
10
37.1876560785097
20
-2.6681602062657
30
0
41
1
10
37.1437100059208
20
-2.54824329590454
30
0
41
1
10
37.0668543573979
20
-2.30298514450297
30
0
41
1
10
37.0339442710104
20
-2.17764436920382
30
0
41
1
10
36.9781719280025
20
-1.9215909538897
30
0
41
1
10
36.9553093218728
20
-1.79087883654702
30
0
41
1
10
36.9279848596805
20
-1.59076170451476
30
0
41
1
10
36.9200401306961
20
-1.52338050171568
30
0
41
1
10
36.9098144957605
20
-1.42128624137015
30
0
41
1
10
36.9066857723563
20
-1.3870502238031
30
0
41
1
10
36.9010119024244
20
-1.31859075549639
30
0
41
1
10
36.8984625275749
20
-1.28433102338525
30
0
41
1
10
36.8871034005969
20
-1.11288272650572
30
0
41
1
10
36.8824414295594
20
-0.97524567794045
30
0
41
1
10
36.8809487035755
20
-0.699016985362817
30
0
41
1
10
36.884120583153
20
-0.560425353320312
30
0
41
1
10
36.8976281821402
20
-0.282278728200453
30
0
41
1
10
36.9079654274311
20
-0.142723771014374
30
0
41
1
10
36.9285557392213
20
0.0673465198608483
30
0
41
1
10
36.9362769179964
20
0.137544397571759
30
0
41
1
10
36.9532979597945
20
0.277468988857635
30
0
41
1
10
36.9626046931353
20
0.347278683565037
30
0
41
1
10
36.9726842331252
20
0.416939125375535
30
0
0
SPLINE
5
14B
100
AcDbEntity
8
1
62
256
6
ByLayer
370
13
48
1
60
0
100
AcDbSpline
70
4
71
3
72
8
73
4
40
0
40
0
40
0
40
0
40
1
40
1
40
1
40
1
41
1
10
42.4057997879763
20
0.731399885026377
30
0
41
1
10
42.2705331919842
20
0.803448835116598
30
0
41
1
10
42.1352665959921
20
0.875310493026518
30
0
41
1
10
42
20
0.946929207607354
30
0
0
SPLINE
5
14C
100
AcDbEntity
8
1
62
256
6
ByLayer
370
18
48
1
60
0
100
AcDbSpline
70
4
71
3
72
12
73
8
40
0
40
0
40
0
40
0
40
0.500000000000024
40
0.500000000000024
40
0.750000000000012
40
0.750000000000012
40
1
40
1
40
1
40
1
41
1
10
55.7278350112664
20
-5.25476823779093
30
0
41
1
10
55.6199106697141
20
-5.2619383850728
30
0
41
1
10
55.5115681227535
20
-5.26478341602245
30
0
41
1
10
55.3482496692801
20
-5.26276918129801
30
0
41
1
10
55.2937355435262
20
-5.26104967175186
30
0
41
1
10
55.1849430170296
20
-5.25556491799901
30
0
41
1
10
55.1306038836548
20
-5.25179859906774
30
0
41
1
10
55.0763044894705
20
-5.24704295879053
30
0
0
SPLINE
5
14D
100
AcDbEntity
8
1
62
256
6
ByLayer
370
18
48
1
60
0
100
AcDbSpline
70
4
71
3
72
12
73
8
40
0
40
0
40
0
40
0
40
0.19594738192712
40
0.393916979438923
40
0.593912959962823
40
0.795939342102732
40
1
40
1
40
1
40
1
41
1
10
55.076304489471
20
-5.24704295879073
30
0
41
1
10
55.0658383041461
20
-5.24610519466205
30
0
41
1
10
55.0447979204018
20
-5.24421998849417
30
0
41
1
10
55.0130670147581
20
-5.24110190151771
30
0
41
1
10
54.9810063039922
20
-5.23774766317743
30
0
41
1
10
54.9486154415764
20
-5.23415427004613
30
0
41
1
10
54.9269096452284
20
-5.23156737274377
30
0
41
1
10
54.9160023799226
20
-5.23026744461657
30
0
0
SPLINE
5
14E
100
AcDbEntity
8
1
62
256
6
ByLayer
370
18
48
1
60
0
100
AcDbSpline
70
4
71
3
72
27
73
23
40
0
40
0
40
0
40
0
40
0.0367155996217282
40
0.0732643631915826
40
0.109646733331599
40
0.14586316603331
40
0.181914130916058
40
0.217800111486668
40
0.253521605400748
40
0.289079124725233
40
0.324473196202596
40
0.359704361515973
40
0.394773177555896
40
0.429680216687872
40
0.464426067021214
40
0.499011332678832
40
0.624840432402619
40
0.748949926446392
40
0.811914526513621
40
0.874315380246356
40
0.946115685859185
40
1
40
1
40
1
40
1
41
1
10
54.9160023799226
20
-5.23026744461657
30
0
41
1
10
54.904791073836
20
-5.22888788184076
30
0
41
1
10
54.8824194059498
20
-5.2261350250362
30
0
41
1
10
54.8489328947223
20
-5.22171762280843
30
0
41
1
10
54.8155954342062
20
-5.21710259949543
30
0
41
1
10
54.7824066216896
20
-5.21227027118638
30
0
41
1
10
54.749366564145
20
-5.20722777053163
30
0
41
1
10
54.7164752329135
20
-5.20197509536888
30
0
41
1
10
54.6837326354054
20
-5.1965141434307
30
0
41
1
10
54.6511387695155
20
-5.19084630784525
30
0
41
1
10
54.6186936353599
20
-5.18497311625435
30
0
41
1
10
54.5863972336099
20
-5.17889606193512
30
0
41
1
10
54.5542495605367
20
-5.17261664274517
30
0
41
1
10
54.52225062934
20
-5.16613637143288
30
0
41
1
10
54.4904003903095
20
-5.15945669474519
30
0
41
1
10
54.4307718384521
20
-5.14652069256982
30
0
41
1
10
54.343849526891
20
-5.12619647584555
30
0
41
1
10
54.2483065664083
20
-5.10129544379535
30
0
41
1
10
54.1721813449223
20
-5.07988874575233
30
0
41
1
10
54.112046059202
20
-5.06217381198908
30
0
41
1
10
54.0547250369357
20
-5.04431493580529
30
0
41
1
10
54.0164217126156
20
-5.03226231508324
30
0
41
1
10
54.0000000664002
20
-5.02709503843093
30
0
0
SPLINE
5
14F
100
AcDbEntity
8
1
62
256
6
ByLayer
370
18
48
1
60
0
100
AcDbSpline
70
4
71
3
72
13
73
9
40
0
40
0
40
0
40
0
40
0.25
40
0.375
40
0.5
40
0.625
40
0.75
40
1
40
1
40
1
40
1
41
1
10
42.0000000000001
20
1.42073089506269
30
0
41
1
10
43
20
0.867993270509004
30
0
41
1
10
44.5
20
0.0090138746437844
30
0
41
1
10
46.5
20
-1.12480264275439
30
0
41
1
10
48
20
-1.9513282778689
30
0
41
1
10
49.5
20
-2.73776754543124
30
0
41
1
10
51.5
20
-3.71090433294498
30
0
41
1
10
53
20
-4.33088402069069
30
0
41
1
10
54
20
-4.67962313539152
30
0
0
SPLINE
5
150
100
AcDbEntity
8
1
62
256
6
ByLayer
370
18
48
1
60
0
100
AcDbSpline
70
4
71
3
72
29
73
25
40
0
40
0
40
0
40
0
40
0.12500000000001
40
0.12500000000001
40
0.187500000000014
40
0.187500000000014
40
0.218750000000015
40
0.218750000000015
40
0.250000000000016
40
0.250000000000016
40
0.375000000000013
40
0.375000000000013
40
0.50000000000001
40
0.50000000000001
40
0.53125000000001
40
0.53125000000001
40
0.562500000000009
40
0.625000000000008
40
0.625000000000008
40
0.750000000000005
40
0.750000000000005
40
0.875000000000003
40
0.875000000000003
40
1
40
1
40
1
40
1
41
1
10
54
20
-3.6728109283689
30
0
41
1
10
53.4982631823573
20
-3.46081796873275
30
0
41
1
10
52.9975025065326
20
-3.23651123015608
30
0
41
1
10
52.2458277213262
20
-2.88464501971154
30
0
41
1
10
51.9951863504224
20
-2.76477715182594
30
0
41
1
10
51.6188652504376
20
-2.58144336428344
30
0
41
1
10
51.4933132090535
20
-2.51971750030464
30
0
41
1
10
51.2423535793581
20
-2.39529413228573
30
0
41
1
10
51.1169498202054
20
-2.33259912747482
30
0
41
1
10
50.4902171906762
20
-2.01686302768874
30
0
41
1
10
49.9897392571141
20
-1.75706924954045
30
0
41
1
10
48.9885928522001
20
-1.22683695128444
30
0
41
1
10
48.487957583919
20
-0.956335185388582
30
0
41
1
10
47.8607110555217
20
-0.613851492605562
30
0
41
1
10
47.735227101398
20
-0.545161251878369
30
0
41
1
10
47.4846966263488
20
-0.407761411506357
30
0
41
1
10
47.1093320493052
20
-0.201510261633246
30
0
41
1
10
46.7350913593801
20
0.0048736447690487
30
0
41
1
10
45.9876448854142
20
0.41693404955015
30
0
41
1
10
45.4907110074586
20
0.690672314888985
30
0
41
1
10
44.4966696589226
20
1.23108079764307
30
0
41
1
10
43.9995643580148
20
1.49775507094458
30
0
41
1
10
43.0025180244996
20
2.01928361544728
30
0
41
1
10
42.5025769149375
20
2.27414047660548
30
0
41
1
10
42.0000000000001
20
2.52086165586621
30
0
0
SPLINE
5
151
100
AcDbEntity
8
1
62
256
6
ByLayer
370
18
48
1
60
0
100
AcDbSpline
70
4
71
3
72
42
73
38
40
0
40
0
40
0
40
0
40
0.0312500000000353
40
0.0312500000000353
40
0.0625000000000707
40
0.0625000000000707
40
0.125000000000141
40
0.125000000000141
40
0.250000000000282
40
0.250000000000282
40
0.375000000000422
40
0.375000000000422
40
0.437500000000502
40
0.437500000000502
40
0.468750000000552
40
0.468750000000552
40
0.476562500000563
40
0.476562500000563
40
0.484375000000575
40
0.484375000000575
40
0.488281250000572
40
0.488281250000572
40
0.492187500000569
40
0.492187500000569
40
0.500000000000562
40
0.500000000000562
40
0.515625000000549
40
0.515625000000549
40
0.531250000000535
40
0.531250000000535
40
0.562500000000489
40
0.562500000000489
40
0.625000000000416
40
0.625000000000416
40
0.750000000000271
40
0.750000000000271
40
1
40
1
40
1
40
1
41
1
10
53.9999996645835
20
-3.6728080375577
30
0
41
1
10
54.0186400524365
20
-3.68063403878836
30
0
41
1
10
54.0372789349676
20
-3.688429352686
30
0
41
1
10
54.0745462597433
20
-3.70402367736116
30
0
41
1
10
54.0931833531698
20
-3.7117472633895
30
0
41
1
10
54.1491487887132
20
-3.73434185434005
30
0
41
1
10
54.1865130100313
20
-3.74879445005635
30
0
41
1
10
54.2987800192374
20
-3.79038605702101
30
0
41
1
10
54.3738591867288
20
-3.81574545722535
30
0
41
1
10
54.5245435098641
20
-3.86208416541612
30
0
41
1
10
54.6001447531971
20
-3.88309089955743
30
0
41
1
10
54.7139935654083
20
-3.91144858009684
30
0
41
1
10
54.7520235232852
20
-3.9203345662736
30
0
41
1
10
54.8091656870608
20
-3.93303678050407
30
0
41
1
10
54.8282271883091
20
-3.93718095845406
30
0
41
1
10
54.8520621876717
20
-3.94231764264436
30
0
41
1
10
54.8568293989569
20
-3.94334412810178
30
0
41
1
10
54.8663651717652
20
-3.94538903150769
30
0
41
1
10
54.8711352318198
20
-3.94639698685151
30
0
41
1
10
54.8783208342466
20
-3.94770106146024
30
0
41
1
10
54.8807209092003
20
-3.94810262345825
30
0
41
1
10
54.8855175119559
20
-3.9489307425591
30
0
41
1
10
54.8879004606169
20
-3.94945024930112
30
0
41
1
10
54.8950257277371
20
-3.9511700118465
30
0
41
1
10
54.8997899430365
20
-3.95222068164583
30
0
41
1
10
54.9141332852673
20
-3.95502987084041
30
0
41
1
10
54.9237288231301
20
-3.95667991702015
30
0
41
1
10
54.9429045187298
20
-3.96009457799937
30
0
41
1
10
54.9524912935294
20
-3.9618137250599
30
0
41
1
10
54.9812568246657
20
-3.96694943298374
30
0
41
1
10
55.0004459220493
20
-3.97030944046591
30
0
41
1
10
55.0581000348594
20
-3.97987339094024
30
0
41
1
10
55.096635793103
20
-3.98566991587666
30
0
41
1
10
55.212553638516
20
-4.00137129202972
30
0
41
1
10
55.2903724695456
20
-4.00961770891641
30
0
41
1
10
55.5234336546651
20
-4.02694566122753
30
0
41
1
10
55.6787396132838
20
-4.02873015575304
30
0
41
1
10
55.8344022317617
20
-4.01977376436091
30
0
0
SPLINE
5
152
100
AcDbEntity
8
1
62
256
6
ByLayer
370
13
48
1
60
0
100
AcDbSpline
70
4
71
3
72
13
73
9
40
0
40
0
40
0
40
0
40
0.0241717875597063
40
0.186809822966422
40
0.349447858373138
40
0.512085893779853
40
0.674723929186569
40
1
40
1
40
1
40
1
41
1
10
55.8344022317617
20
-4.01977376436091
30
0
41
1
10
55.7229348211745
20
-3.981083232853
30
0
41
1
10
54.8614674105873
20
-3.67659611985871
30
0
41
1
10
53.2500000000001
20
-3.02946798951399
30
0
41
1
10
51.0000000000001
20
-1.98469182618263
30
0
41
1
10
48.7500000000001
20
-0.854289961408625
30
0
41
1
10
45.7500000000001
20
0.715615862525027
30
0
41
1
10
43.5000000000002
20
1.87385121143671
30
0
41
1
10
42.0000000000001
20
2.55622119796192
30
0
0
SPLINE
5
153
100
AcDbEntity
8
1
62
256
6
ByLayer
370
18
48
1
60
0
100
AcDbSpline
70
4
71
3
72
13
73
9
40
0
40
0
40
0
40
0
40
0.25
40
0.375
40
0.5
40
0.625
40
0.75
40
1
40
1
40
1
40
1
41
1
10
54.0000000000001
20
2.91586931698555
30
0
41
1
10
53.0000000000001
20
3.42030029331062
30
0
41
1
10
51.5000000000001
20
4.11665571365157
30
0
41
1
10
49.5
20
4.86362284828337
30
0
41
1
10
48.0000000000001
20
5.32346686680458
30
0
41
1
10
46.5000000000001
20
5.67330160016937
30
0
41
1
10
44.5000000000001
20
5.98023159399565
30
0
41
1
10
43.0000000000001
20
6.02760326618463
30
0
41
1
10
42.0000000000001
20
5.9749329339507
30
0
0
SPLINE
5
154
100
AcDbEntity
8
1
62
256
6
ByLayer
370
18
48
1
60
0
100
AcDbSpline
70
4
71
3
72
8
73
4
40
0
40
0
40
0
40
0
40
1
40
1
40
1
40
1
41
1
10
36.5707076293086
20
-6.00000156616426
30
0
41
1
10
36.5668434661948
20
-6.0000025492561
30
0
41
1
10
36.5632727454108
20
-5.99963872839336
30
0
41
1
10
36.5599899933019
20
-5.99890712842577
30
0
0
SPLINE
5
155
100
AcDbEntity
8
1
62
256
6
ByLayer
370
18
48
1
60
0
100
AcDbSpline
70
4
71
3
72
19
73
15
40
0
40
0
40
0
40
0
40
0.250000000000061
40
0.250000000000061
40
0.375000000000092
40
0.375000000000092
40
0.437500000000108
40
0.437500000000108
40
0.500000000000123
40
0.750000000000087
40
0.750000000000087
40
0.875000000000043
40
0.875000000000043
40
1
40
1
40
1
40
1
41
1
10
36.5599899933019
20
-5.99890712842577
30
0
41
1
10
36.5570052304596
20
-5.99824193887559
30
0
41
1
10
36.5574281227397
20
-5.99727877563794
30
0
41
1
10
36.5635412585316
20
-5.99541190303063
30
0
41
1
10
36.5664932680755
20
-5.99471927343669
30
0
41
1
10
36.5723510725838
20
-5.99357811355043
30
0
41
1
10
36.5745501076599
20
-5.99317936164391
30
0
41
1
10
36.5793930281589
20
-5.99235551696682
30
0
41
1
10
36.5925908001902
20
-5.99023294777686
30
0
41
1
10
36.6110286033163
20
-5.98782564417374
30
0
41
1
10
36.6376134838134
20
-5.98475177532421
30
0
41
1
10
36.6472538960432
20
-5.98369264076686
30
0
41
1
10
36.6677717282431
20
-5.98154316257725
30
0
41
1
10
36.6786320871627
20
-5.98045420727536
30
0
41
1
10
36.6900367797596
20
-5.97935658902233
30
0
0
SPLINE
5
156
100
AcDbEntity
8
1
62
256
6
ByLayer
370
18
48
1
60
0
100
AcDbSpline
70
4
71
3
72
40
73
36
40
0
40
0
40
0
40
0
40
0.0312499999999889
40
0.0312499999999889
40
0.0624999999999779
40
0.0624999999999779
40
0.0781249999999723
40
0.0781249999999723
40
0.0937499999999667
40
0.0937499999999667
40
0.124999999999964
40
0.124999999999964
40
0.187499999999957
40
0.187499999999957
40
0.249999999999951
40
0.249999999999951
40
0.281249999999947
40
0.281249999999947
40
0.312499999999944
40
0.312499999999944
40
0.374999999999947
40
0.374999999999947
40
0.437499999999949
40
0.437499999999949
40
0.499999999999952
40
0.499999999999952
40
0.562499999999955
40
0.562499999999955
40
0.624999999999957
40
0.624999999999957
40
0.749999999999971
40
0.749999999999971
40
0.874999999999986
40
0.874999999999986
40
1
40
1
40
1
40
1
41
1
10
36.6900367797597
20
-5.97935658902219
30
0
41
1
10
36.7216559520113
20
-5.97631347494317
30
0
41
1
10
36.755878464245
20
-5.97322066787169
30
0
41
1
10
36.8281379249014
20
-5.96706421848734
30
0
41
1
10
36.8661883976625
20
-5.96399923175892
30
0
41
1
10
36.9255255566325
20
-5.95947770779134
30
0
41
1
10
36.9456846684816
20
-5.95798289882526
30
0
41
1
10
36.9866893457834
20
-5.95502463618132
30
0
41
1
10
37.0075671814404
20
-5.9535589859988
30
0
41
1
10
37.0709216021095
20
-5.94923203647107
30
0
41
1
10
37.1138303999696
20
-5.94645972668457
30
0
41
1
10
37.2441606763791
20
-5.93848669570596
30
0
41
1
10
37.3331647165536
20
-5.9336304039054
30
0
41
1
10
37.5141747269609
20
-5.92484017783426
30
0
41
1
10
37.606197258211
20
-5.92090567300738
30
0
41
1
10
37.7460208331232
20
-5.91568657314386
30
0
41
1
10
37.7928308430684
20
-5.91406446618404
30
0
41
1
10
37.8865758331858
20
-5.91105649192457
30
0
41
1
10
37.9335501018587
20
-5.90966915361153
30
0
41
1
10
38.0747495283446
20
-5.90584555882958
30
0
41
1
10
38.1692499146631
20
-5.90374754434609
30
0
41
1
10
38.3588782509229
20
-5.90039863406372
30
0
41
1
10
38.4540201455576
20
-5.89914776889358
30
0
41
1
10
38.6448095406249
20
-5.89744305817234
30
0
41
1
10
38.7401781548821
20
-5.89699153486288
30
0
41
1
10
38.9308683481124
20
-5.89682578766599
30
0
41
1
10
39.0261899043256
20
-5.89711167535532
30
0
41
1
10
39.2167894483416
20
-5.89835772597942
30
0
41
1
10
39.3121051376108
20
-5.89931849074407
30
0
41
1
10
39.5977393855293
20
-5.90311147895181
30
0
41
1
10
39.7873183181488
20
-5.90684946875015
30
0
41
1
10
40.1649367092125
20
-5.91612955568121
30
0
41
1
10
40.3530944963702
20
-5.92167827430637
30
0
41
1
10
40.7264239894643
20
-5.93382611054608
30
0
41
1
10
40.9117732666716
20
-5.94042951624252
30
0
41
1
10
41.0958588286382
20
-5.94714668076006
30
0
0
SPLINE
5
157
100
AcDbEntity
8
1
62
256
6
ByLayer
370
18
48
1
60
0
100
AcDbSpline
70
4
71
3
72
16
73
12
40
0
40
0
40
0
40
0
40
0.270942523783679
40
0.270942523783679
40
0.541885047567359
40
0.541885047567359
40
0.677356309459199
40
0.677356309459199
40
0.812827571351038
40
0.812827571351038
40
1
40
1
40
1
40
1
41
1
10
37.1844430844192
20
5.60255176982776
30
0
41
1
10
37.0944200762677
20
5.66966223509704
30
0
41
1
10
37.0154407710815
20
5.72950761517214
30
0
41
1
10
36.8775992821571
20
5.83289085879974
30
0
41
1
10
36.8187306748785
20
5.87643547625475
30
0
41
1
10
36.7444054188632
20
5.92798139168721
30
0
41
1
10
36.7219605160008
20
5.94286777897309
30
0
41
1
10
36.6816343272133
20
5.9677292275573
30
0
41
1
10
36.6639324591011
20
5.97759284691267
30
0
41
1
10
36.6272480493055
20
5.99490216349756
30
0
41
1
10
36.610338134197
20
5.99999763004175
30
0
41
1
10
36.5975195411391
20
6.00000346519218
30
0
0
SPLINE
5
158
100
AcDbEntity
8
1
62
256
6
ByLayer
370
18
48
1
60
0
100
AcDbSpline
70
4
71
3
72
13
73
9
40
0
40
0
40
0
40
0
40
0.25
40
0.375
40
0.5
40
0.625
40
0.75
40
1
40
1
40
1
40
1
41
1
10
54
20
-5.02709614237335
30
0
41
1
10
53
20
-4.71173061830234
30
0
41
1
10
51.5
20
-4.13443195692923
30
0
41
1
10
49.5
20
-3.20017140638598
30
0
41
1
10
48
20
-2.43328353200542
30
0
41
1
10
46.5
20
-1.61627523531729
30
0
41
1
10
44.5
20
-0.481532996209069
30
0
41
1
10
43
20
0.393471107332459
30
0
41
1
10
42.0000000000001
20
0.963339231448003
30
0
0
SPLINE
5
159
100
AcDbEntity
8
1
62
256
6
ByLayer
370
18
48
1
60
0
100
AcDbSpline
70
4
71
3
72
19
73
15
40
0
40
0
40
0
40
0
40
0.140859666448583
40
0.255652039893093
40
0.345631903870233
40
0.422553797152153
40
0.490741413130839
40
0.568880806106685
40
0.65590285475927
40
0.741256643256805
40
0.820329199854245
40
0.903047860095634
40
0.991711094769559
40
1
40
1
40
1
40
1
41
1
10
47.3496664677686
20
-5.26934780319218
30
0
41
1
10
47.6169754270451
20
-5.26239168712564
30
0
41
1
10
48.0994865363294
20
-5.24424799420956
30
0
41
1
10
48.7496012550768
20
-5.20578158359345
30
0
41
1
10
49.2690416671815
20
-5.16616566411054
30
0
41
1
10
49.708250250306
20
-5.12667959499612
30
0
41
1
10
50.1355641812905
20
-5.08373835086695
30
0
41
1
10
50.5776587875835
20
-5.0335952662212
30
0
41
1
10
51.0484444588765
20
-4.9740540278471
30
0
41
1
10
51.5214563061213
20
-4.90772410219336
30
0
41
1
10
51.9844173599171
20
-4.83697839533193
30
0
41
1
10
52.4422113126282
20
-4.76083211307179
30
0
41
1
10
52.7718913261853
20
-4.70120589189145
30
0
41
1
10
52.9546055844444
20
-4.66755923149447
30
0
41
1
10
52.9702610891245
20
-4.6646718487753
30
0
0
SPLINE
5
15A
100
AcDbEntity
8
1
62
256
6
ByLayer
370
18
48
1
60
0
100
AcDbSpline
70
4
71
3
72
12
73
8
40
0
40
0
40
0
40
0
40
0.0675518806886567
40
0.203986538152969
40
0.40480545327581
40
0.670113250336503
40
1
40
1
40
1
40
1
41
1
10
56.1822237639642
20
3.99032369857173
30
0
41
1
10
56.149254464719
20
3.99602331836843
30
0
41
1
10
56.0489953327315
20
4.01362818297531
30
0
41
1
10
55.8436857078419
20
4.05140866125407
30
0
41
1
10
55.5356167309077
20
4.11166814753008
30
0
41
1
10
55.1259442362771
20
4.19857375327248
30
0
41
1
10
54.8189147009244
20
4.270024470865
30
0
41
1
10
54.6483487441069
20
4.31166085173001
30
0
0
SPLINE
5
15B
100
AcDbEntity
8
1
62
256
6
ByLayer
370
18
48
1
60
0
100
AcDbSpline
70
4
71
3
72
11
73
7
40
0
40
0
40
0
40
0
40
0.335395629167801
40
0.621031469214351
40
0.888041967589382
40
1
40
1
40
1
40
1
41
1
10
53.5232506479004
20
4.5606785668937
30
0
41
1
10
53.3074023742712
20
4.60209849366032
30
0
41
1
10
52.9155377968032
20
4.67528467048146
30
0
41
1
10
52.3873460897845
20
4.77055602241742
30
0
41
1
10
51.9891984712647
20
4.83580170693702
30
0
41
1
10
51.7584508548133
20
4.87133526450879
30
0
41
1
10
51.6900883658699
20
4.88166672047211
30
0
0
SPLINE
5
15C
100
AcDbEntity
8
1
62
256
6
ByLayer
370
18
48
1
60
0
100
AcDbSpline
70
4
71
1
72
4
73
2
40
0
40
0
40
1
40
1
41
1
10
42.6069752399887
20
3.57161622892392
30
0
41
1
10
42.0000000000001
20
3.66474481876895
30
0
0
LINE
5
79
100
AcDbEntity
8
4
62
256
6
ByLayer
370
18
48
0.05
60
0
100
AcDbLine
10
0
20
0
30
0
11
60.05
21
0
31
0
39
0
210
0
220
0
230
1
0
LINE
5
7B
100
AcDbEntity
8
81
62
256
6
ByLayer
370
18
48
1
60
0
100
AcDbLine
10
60.05
20
0
30
0
11
65.05
21
0
31
0
39
0
210
0
220
0
230
1
0
LINE
5
7C
100
AcDbEntity
8
SK4
62
256
6
ByLayer
370
18
48
0.05
60
0
100
AcDbLine
10
-45
20
0
30
0
11
60.05
21
0
31
0
39
0
210
0
220
0
230
1
0
LINE
5
7E
100
AcDbEntity
8
80
62
256
6
ByLayer
370
18
48
1
60
0
100
AcDbLine
10
0
20
0
30
0
11
-5
21
0
31
0
39
0
210
0
220
0
230
1
0
LINE
5
7F
100
AcDbEntity
8
1
62
256
6
ByLayer
370
18
48
1
60
0
100
AcDbLine
10
0
20
6
30
0
11
0
21
0
31
0
39
0
210
0
220
0
230
1
0
LINE
5
80
100
AcDbEntity
8
1
62
256
6
ByLayer
370
18
48
1
60
0
100
AcDbLine
10
0
20
0
30
0
11
0
21
-6
31
0
39
0
210
0
220
0
230
1
0
LINE
5
81
100
AcDbEntity
8
1
62
256
6
ByLayer
370
18
48
1
60
0
100
AcDbLine
10
59.998475
20
-0.058047
30
0
11
59.98865
21
-0.058133
31
0
39
0
210
0
220
0
230
1
0
LINE
5
82
100
AcDbEntity
8
1
62
256
6
ByLayer
370
18
48
1
60
0
100
AcDbLine
10
59.998475
20
0.058047
30
0
11
59.98865
21
0.058133
31
0
39
0
210
0
220
0
230
1
0
LINE
5
83
100
AcDbEntity
8
1
62
256
6
ByLayer
370
13
48
1
60
0
100
AcDbLine
10
41.095859
20
5.947147
30
0
11
42
21
5.555131
31
0
39
0
210
0
220
0
230
1
0
LINE
5
84
100
AcDbEntity
8
1
62
256
6
ByLayer
370
13
48
1
60
0
100
AcDbLine
10
59.677573
20
1.815514
30
0
11
59.98865
21
0.058133
31
0
39
0
210
0
220
0
230
1
0
LINE
5
85
100
AcDbEntity
8
1
62
256
6
ByLayer
370
13
48
1
60
0
100
AcDbLine
10
36.690037
20
5.979357
30
0
11
42
21
3.677075
31
0
39
0
210
0
220
0
230
1
0
LINE
5
86
100
AcDbEntity
8
1
62
256
6
ByLayer
370
18
48
1
60
0
100
AcDbLine
10
59.590254
20
-0.921689
30
0
11
59.595965
21
-0.942214
31
0
39
0
210
0
220
0
230
1
0
LINE
5
87
100
AcDbEntity
8
1
62
256
6
ByLayer
370
18
48
1
60
0
100
AcDbLine
10
42
20
-5.974933
30
0
11
42
21
-5.829501
31
0
39
0
210
0
220
0
230
1
0
LINE
5
88
100
AcDbEntity
8
1
62
256
6
ByLayer
370
13
48
1
60
0
100
AcDbLine
10
59.579273
20
-0.882031
30
0
11
59.457615
21
-0.87429
31
0
39
0
210
0
220
0
230
1
0
LINE
5
89
100
AcDbEntity
8
1
62
256
6
ByLayer
370
18
48
1
60
0
100
AcDbLine
10
42
20
-5.829501
30
0
11
42
21
-5.291912
31
0
39
0
210
0
220
0
230
1
0
LINE
5
8A
100
AcDbEntity
8
1
62
256
6
ByLayer
370
18
48
1
60
0
100
AcDbLine
10
59.234949
20
1.776716
30
0
11
59.322515
21
1.663527
31
0
39
0
210
0
220
0
230
1
0
LINE
5
8B
100
AcDbEntity
8
1
62
256
6
ByLayer
370
18
48
1
60
0
100
AcDbLine
10
56.98201
20
3.769921
30
0
11
56.97102
21
3.77882
31
0
39
0
210
0
220
0
230
1
0
LINE
5
8C
100
AcDbEntity
8
1
62
256
6
ByLayer
370
18
48
1
60
0
100
AcDbLine
10
37.184443
20
5.602552
30
0
11
42
21
3.514634
31
0
39
0
210
0
220
0
230
1
0
LINE
5
8D
100
AcDbEntity
8
1
62
256
6
ByLayer
370
13
48
1
60
0
100
AcDbLine
10
36.309095
20
5.156672
30
0
11
42
21
2.689222
31
0
39
0
210
0
220
0
230
1
0
LINE
5
8E
100
AcDbEntity
8
1
62
256
6
ByLayer
370
18
48
1
60
0
100
AcDbLine
10
42
20
-4.927412
30
0
11
42
21
-5.291912
31
0
39
0
210
0
220
0
230
1
0
LINE
5
8F
100
AcDbEntity
8
1
62
256
6
ByLayer
370
18
48
1
60
0
100
AcDbLine
10
42
20
3.664745
30
0
11
42
21
3.514634
31
0
39
0
210
0
220
0
230
1
0
LINE
5
90
100
AcDbEntity
8
1
62
256
6
ByLayer
370
13
48
1
60
0
100
AcDbLine
10
36.329275
20
-3.635819
30
0
11
42
21
-4.927412
31
0
39
0
210
0
220
0
230
1
0
LINE
5
91
100
AcDbEntity
8
1
62
256
6
ByLayer
370
18
48
1
60
0
100
AcDbLine
10
42
20
-4.927412
30
0
11
42
21
-4.715795
31
0
39
0
210
0
220
0
230
1
0
LINE
5
92
100
AcDbEntity
8
1
62
256
6
ByLayer
370
18
48
1
60
0
100
AcDbLine
10
54
20
4.110677
30
0
11
54
21
3.285778
31
0
39
0
210
0
220
0
230
1
0
LINE
5
93
100
AcDbEntity
8
1
62
256
6
ByLayer
370
18
48
1
60
0
100
AcDbLine
10
42
20
2.689222
30
0
11
42
21
3.514634
31
0
39
0
210
0
220
0
230
1
0
LINE
5
94
100
AcDbEntity
8
1
62
256
6
ByLayer
370
13
48
1
60
0
100
AcDbLine
10
36.329275
20
5.014921
30
0
11
42
21
2.556221
31
0
39
0
210
0
220
0
230
1
0
LINE
5
95
100
AcDbEntity
8
1
62
256
6
ByLayer
370
13
48
1
60
0
100
AcDbLine
10
36.309095
20
-3.419606
30
0
11
42
21
-4.715795
31
0
39
0
210
0
220
0
230
1
0
LINE
5
96
100
AcDbEntity
8
1
62
256
6
ByLayer
370
18
48
1
60
0
100
AcDbLine
10
42
20
-4.715795
30
0
11
42
21
-3.869987
31
0
39
0
210
0
220
0
230
1
0
LINE
5
97
100
AcDbEntity
8
1
62
256
6
ByLayer
370
18
48
1
60
0
100
AcDbLine
10
42
20
3.677075
30
0
11
42
21
5.555131
31
0
39
0
210
0
220
0
230
1
0
LINE
5
98
100
AcDbEntity
8
1
62
256
6
ByLayer
370
18
48
1
60
0
100
AcDbLine
10
54
20
3.285778
30
0
11
54
21
2.915869
31
0
39
0
210
0
220
0
230
1
0
LINE
5
99
100
AcDbEntity
8
1
62
256
6
ByLayer
370
18
48
1
60
0
100
AcDbLine
10
42
20
5.974933
30
0
11
42
21
5.555131
31
0
39
0
210
0
220
0
230
1
0
LINE
5
9A
100
AcDbEntity
8
1
62
256
6
ByLayer
370
18
48
1
60
0
100
AcDbLine
10
42
20
2.556221
30
0
11
42
21
2.689222
31
0
39
0
210
0
220
0
230
1
0
LINE
5
9B
100
AcDbEntity
8
1
62
256
6
ByLayer
370
18
48
1
60
0
100
AcDbLine
10
42
20
1.420731
30
0
11
42
21
2.520862
31
0
39
0
210
0
220
0
230
1
0
LINE
5
9C
100
AcDbEntity
8
1
62
256
6
ByLayer
370
18
48
1
60
0
100
AcDbLine
10
54
20
-3.67281
30
0
11
54
21
-4.679623
31
0
39
0
210
0
220
0
230
1
0
LINE
5
9D
100
AcDbEntity
8
1
62
256
6
ByLayer
370
18
48
1
60
0
100
AcDbLine
10
42
20
-0.617448
30
0
11
42
21
0.946929
31
0
39
0
210
0
220
0
230
1
0
LINE
5
9E
100
AcDbEntity
8
1
62
256
6
ByLayer
370
13
48
1
60
0
100
AcDbLine
10
41.139605
20
1.142897
30
0
11
42
21
0.946929
31
0
39
0
210
0
220
0
230
1
0
LINE
5
9F
100
AcDbEntity
8
1
62
256
6
ByLayer
370
18
48
1
60
0
100
AcDbLine
10
42
20
-0.728108
30
0
11
42
21
-0.617448
31
0
39
0
210
0
220
0
230
1
0
LINE
5
A0
100
AcDbEntity
8
1
62
256
6
ByLayer
370
13
48
1
60
0
100
AcDbLine
10
37.010083
20
0.519082
30
0
11
42
21
-0.617448
31
0
39
0
210
0
220
0
230
1
0
LINE
5
A1
100
AcDbEntity
8
1
62
256
6
ByLayer
370
18
48
1
60
0
100
AcDbLine
10
37.237725
20
-2.785307
30
0
11
42
21
-3.869987
31
0
39
0
210
0
220
0
230
1
0
LINE
5
A2
100
AcDbEntity
8
1
62
256
6
ByLayer
370
18
48
1
60
0
100
AcDbLine
10
42
20
-3.869987
30
0
11
42
21
-0.728108
31
0
39
0
210
0
220
0
230
1
0
LINE
5
A3
100
AcDbEntity
8
1
62
256
6
ByLayer
370
13
48
1
60
0
100
AcDbLine
10
36.972684
20
0.416939
30
0
11
42
21
-0.728108
31
0
39
0
210
0
220
0
230
1
0
LINE
5
A4
100
AcDbEntity
8
1
62
256
6
ByLayer
370
18
48
1
60
0
100
AcDbLine
10
54
20
-4.679623
30
0
11
54
21
-5.027096
31
0
39
0
210
0
220
0
230
1
0
LINE
5
A5
100
AcDbEntity
8
1
62
256
6
ByLayer
370
18
48
1
60
0
100
AcDbLine
10
42
20
2.556221
30
0
11
42
21
2.520862
31
0
39
0
210
0
220
0
230
1
0
LINE
5
A6
100
AcDbEntity
8
1
62
256
6
ByLayer
370
18
48
1
60
0
100
AcDbLine
10
42
20
0.963339
30
0
11
42
21
0.946929
31
0
39
0
210
0
220
0
230
1
0
LINE
5
A7
100
AcDbEntity
8
1
62
256
6
ByLayer
370
18
48
1
60
0
100
AcDbLine
10
42
20
0.963339
30
0
11
42
21
1.420731
31
0
39
0
210
0
220
0
230
1
0
LINE
5
A8
100
AcDbEntity
8
SK1
62
256
6
ByLayer
370
18
48
1
60
0
100
AcDbLine
10
-45
20
-5.2
30
0
11
-45
21
5.2
31
0
39
0
210
0
220
0
230
1
0
LINE
5
AA
100
AcDbEntity
8
SK1
62
256
6
ByLayer
370
18
48
1
60
0
100
AcDbLine
10
0
20
6
30
0
11
0
21
0
31
0
39
0
210
0
220
0
230
1
0
LINE
5
AB
100
AcDbEntity
8
SK1
62
256
6
ByLayer
370
18
48
1
60
0
100
AcDbLine
10
0
20
0
30
0
11
0
21
-6
31
0
39
0
210
0
220
0
230
1
0
LINE
5
AC
100
AcDbEntity
8
SK1
62
256
6
ByLayer
370
18
48
1
60
0
100
AcDbLine
10
-44.2
20
6
30
0
11
-44.2
21
-6
31
0
39
0
210
0
220
0
230
1
0
LINE
5
AD
100
AcDbEntity
8
1
62
256
6
ByLayer
370
18
48
1
60
0
100
AcDbLine
10
36.607443
20
6
30
0
11
0
21
6
31
0
39
0
210
0
220
0
230
1
0
LINE
5
AE
100
AcDbEntity
8
1
62
256
6
ByLayer
370
18
48
1
60
0
100
AcDbLine
10
0
20
-6
30
0
11
36.576687
21
-6
31
0
39
0
210
0
220
0
230
1
0
LINE
5
AF
100
AcDbEntity
8
1
62
256
6
ByLayer
370
18
48
1
60
0
100
AcDbLine
10
41.999974
20
3.664756
30
0
11
36.659864
21
5.980109
31
0
39
0
210
0
220
0
230
1
0
LINE
5
B0
100
AcDbEntity
8
SK1
62
256
6
ByLayer
370
18
48
1
60
0
100
AcDbLine
10
-45
20
-5.2
30
0
11
-44.2
21
-6
31
0
39
0
210
0
220
0
230
1
0
LINE
5
B1
100
AcDbEntity
8
SK1
62
256
6
ByLayer
370
18
48
1
60
0
100
AcDbLine
10
-44.2
20
6
30
0
11
-45
21
5.2
31
0
39
0
210
0
220
0
230
1
0
LINE
5
B2
100
AcDbEntity
8
SK1
62
256
6
ByLayer
370
18
48
1
60
0
100
AcDbLine
10
0
20
6
30
0
11
-44.2
21
6
31
0
39
0
210
0
220
0
230
1
0
LINE
5
B3
100
AcDbEntity
8
SK1
62
256
6
ByLayer
370
18
48
1
60
0
100
AcDbLine
10
-44.2
20
-6
30
0
11
0
21
-6
31
0
39
0
210
0
220
0
230
1
0
LINE
5
B4
100
AcDbEntity
8
SK2
62
256
6
ByLayer
370
18
48
1
60
0
100
AcDbLine
10
-52.45
20
6
30
0
11
-52.45
21
-24.056066
31
0
39
0
210
0
220
0
230
1
0
LINE
5
B6
100
AcDbEntity
8
SK2
62
256
6
ByLayer
370
18
48
1
60
0
100
AcDbLine
10
-45.7875
20
6
30
0
11
-54.45
21
6
31
0
39
0
210
0
220
0
230
1
0
LINE
5
B7
100
AcDbEntity
8
SK2
62
256
6
ByLayer
370
18
48
1
60
0
100
AcDbLine
10
-45.7875
20
-6
30
0
11
-54.45
21
-6
31
0
39
0
210
0
220
0
230
1
0
LINE
5
B8
100
AcDbEntity
8
1
62
256
6
ByLayer
370
18
48
1
60
1
100
AcDbLine
10
-52.45
20
6
30
0
11
-51.989216
21
2.500002
31
0
39
0
210
0
220
0
230
1
0
LINE
5
B9
100
AcDbEntity
8
1
62
256
6
ByLayer
370
18
48
1
60
1
100
AcDbLine
10
-51.989216
20
2.500002
30
0
11
-52.910784
21
2.499998
31
0
39
0
210
0
220
0
230
1
0
LINE
5
BA
100
AcDbEntity
8
1
62
256
6
ByLayer
370
18
48
1
60
1
100
AcDbLine
10
-52.910784
20
2.499998
30
0
11
-52.45
21
6
31
0
39
0
210
0
220
0
230
1
0
LINE
5
BB
100
AcDbEntity
8
1
62
256
6
ByLayer
370
18
48
1
60
1
100
AcDbLine
10
-52.45
20
-6
30
0
11
-52.910784
21
-2.500002
31
0
39
0
210
0
220
0
230
1
0
LINE
5
BC
100
AcDbEntity
8
1
62
256
6
ByLayer
370
18
48
1
60
1
100
AcDbLine
10
-52.910784
20
-2.500002
30
0
11
-51.989216
21
-2.499998
31
0
39
0
210
0
220
0
230
1
0
LINE
5
BD
100
AcDbEntity
8
1
62
256
6
ByLayer
370
18
48
1
60
1
100
AcDbLine
10
-51.989216
20
-2.499998
30
0
11
-52.45
21
-6
31
0
39
0
210
0
220
0
230
1
0
LINE
5
BE
100
AcDbEntity
8
2
62
256
6
ByLayer
370
18
48
1
60
0
100
AcDbLine
10
72
20
-6.0001
30
0
11
72
21
24.056166
31
0
39
0
210
0
220
0
230
1
0
LINE
5
C0
100
AcDbEntity
8
2
62
256
6
ByLayer
370
18
48
1
60
0
100
AcDbLine
10
56.362935
20
6.0001
30
0
11
74
21
6.0001
31
0
39
0
210
0
220
0
230
1
0
LINE
5
C1
100
AcDbEntity
8
2
62
256
6
ByLayer
370
18
48
1
60
0
100
AcDbLine
10
56.362935
20
-6.0001
30
0
11
74
21
-6.0001
31
0
39
0
210
0
220
0
230
1
0
LINE
5
C2
100
AcDbEntity
8
1
62
256
6
ByLayer
370
18
48
1
60
1
100
AcDbLine
10
72
20
6.0001
30
0
11
72.460784
21
2.500102
31
0
39
0
210
0
220
0
230
1
0
LINE
5
C3
100
AcDbEntity
8
1
62
256
6
ByLayer
370
18
48
1
60
1
100
AcDbLine
10
72.460784
20
2.500102
30
0
11
71.539216
21
2.500098
31
0
39
0
210
0
220
0
230
1
0
LINE
5
C4
100
AcDbEntity
8
1
62
256
6
ByLayer
370
18
48
1
60
1
100
AcDbLine
10
71.539216
20
2.500098
30
0
11
72
21
6.0001
31
0
39
0
210
0
220
0
230
1
0
LINE
5
C5
100
AcDbEntity
8
1
62
256
6
ByLayer
370
18
48
1
60
1
100
AcDbLine
10
72
20
-6.0001
30
0
11
71.539216
21
-2.500102
31
0
39
0
210
0
220
0
230
1
0
LINE
5
C6
100
AcDbEntity
8
1
62
256
6
ByLayer
370
18
48
1
60
1
100
AcDbLine
10
71.539216
20
-2.500102
30
0
11
72.460784
21
-2.500098
31
0
39
0
210
0
220
0
230
1
0
LINE
5
C7
100
AcDbEntity
8
1
62
256
6
ByLayer
370
18
48
1
60
1
100
AcDbLine
10
72.460784
20
-2.500098
30
0
11
72
21
-6.0001
31
0
39
0
210
0
220
0
230
1
0
LINE
5
C8
100
AcDbEntity
8
SK2
62
256
6
ByLayer
370
18
48
1
60
0
100
AcDbLine
10
60
20
-50.15
30
0
11
-45
21
-50.15
31
0
39
0
210
0
220
0
230
1
0
LINE
5
C9
100
AcDbEntity
8
SK2
62
256
6
ByLayer
370
18
48
1
60
0
100
AcDbLine
10
-45
20
-6.7875
30
0
11
-45
21
-52.15
31
0
39
0
210
0
220
0
230
1
0
LINE
5
CA
100
AcDbEntity
8
SK2
62
256
6
ByLayer
370
18
48
1
60
0
100
AcDbLine
10
60
20
-1.5875
30
0
11
60
21
-52.15
31
0
39
0
210
0
220
0
230
1
0
LINE
5
CB
100
AcDbEntity
8
1
62
256
6
ByLayer
370
18
48
1
60
1
100
AcDbLine
10
-45
20
-50.15
30
0
11
-41.500002
21
-49.689216
31
0
39
0
210
0
220
0
230
1
0
LINE
5
CC
100
AcDbEntity
8
1
62
256
6
ByLayer
370
18
48
1
60
1
100
AcDbLine
10
-41.500002
20
-49.689216
30
0
11
-41.499998
21
-50.610784
31
0
39
0
210
0
220
0
230
1
0
LINE
5
CD
100
AcDbEntity
8
1
62
256
6
ByLayer
370
18
48
1
60
1
100
AcDbLine
10
-41.499998
20
-50.610784
30
0
11
-45
21
-50.15
31
0
39
0
210
0
220
0
230
1
0
LINE
5
CE
100
AcDbEntity
8
1
62
256
6
ByLayer
370
18
48
1
60
1
100
AcDbLine
10
60
20
-50.15
30
0
11
56.500002
21
-50.610784
31
0
39
0
210
0
220
0
230
1
0
LINE
5
CF
100
AcDbEntity
8
1
62
256
6
ByLayer
370
18
48
1
60
1
100
AcDbLine
10
56.500002
20
-50.610784
30
0
11
56.499998
21
-49.689216
31
0
39
0
210
0
220
0
230
1
0
LINE
5
D0
100
AcDbEntity
8
1
62
256
6
ByLayer
370
18
48
1
60
1
100
AcDbLine
10
56.499998
20
-49.689216
30
0
11
60
21
-50.15
31
0
39
0
210
0
220
0
230
1
0
LINE
5
D1
100
AcDbEntity
8
SK2
62
256
6
ByLayer
370
13
48
1
60
0
100
AcDbLine
10
57.932208
20
-4.531859
30
0
11
70.092787
21
-18.546894
31
0
39
0
210
0
220
0
230
1
0
LINE
5
D2
100
AcDbEntity
8
1
62
256
6
ByLayer
370
18
48
1
60
1
100
AcDbLine
10
57.932208
20
-4.531859
30
0
11
60.574029
21
-6.873459
31
0
39
0
210
0
220
0
230
1
0
LINE
5
D3
100
AcDbEntity
8
1
62
256
6
ByLayer
370
18
48
1
60
1
100
AcDbLine
10
60.574029
20
-6.873459
30
0
11
59.877962
21
-7.477427
31
0
39
0
210
0
220
0
230
1
0
LINE
5
D4
100
AcDbEntity
8
1
62
256
6
ByLayer
370
18
48
1
60
1
100
AcDbLine
10
59.877962
20
-7.477427
30
0
11
57.932208
21
-4.531859
31
0
39
0
210
0
220
0
230
1
0
LINE
5
161
100
AcDbEntity
8
1
62
256
6
ByLayer
370
18
48
1
60
1
100
AcDbLine
10
-52.45
20
6
30
0
11
-51.989216
21
2.500002
31
0
39
0
210
0
220
0
230
1
0
LINE
5
162
100
AcDbEntity
8
1
62
256
6
ByLayer
370
18
48
1
60
1
100
AcDbLine
10
-51.989216
20
2.500002
30
0
11
-52.910784
21
2.499998
31
0
39
0
210
0
220
0
230
1
0
LINE
5
163
100
AcDbEntity
8
1
62
256
6
ByLayer
370
18
48
1
60
1
100
AcDbLine
10
-52.910784
20
2.499998
30
0
11
-52.45
21
6
31
0
39
0
210
0
220
0
230
1
0
LINE
5
165
100
AcDbEntity
8
1
62
256
6
ByLayer
370
18
48
1
60
1
100
AcDbLine
10
-52.45
20
-6
30
0
11
-52.910784
21
-2.500002
31
0
39
0
210
0
220
0
230
1
0
LINE
5
166
100
AcDbEntity
8
1
62
256
6
ByLayer
370
18
48
1
60
1
100
AcDbLine
10
-52.910784
20
-2.500002
30
0
11
-51.989216
21
-2.499998
31
0
39
0
210
0
220
0
230
1
0
LINE
5
167
100
AcDbEntity
8
1
62
256
6
ByLayer
370
18
48
1
60
1
100
AcDbLine
10
-51.989216
20
-2.499998
30
0
11
-52.45
21
-6
31
0
39
0
210
0
220
0
230
1
0
LINE
5
16B
100
AcDbEntity
8
1
62
256
6
ByLayer
370
18
48
1
60
1
100
AcDbLine
10
72
20
6.0001
30
0
11
72.460784
21
2.500102
31
0
39
0
210
0
220
0
230
1
0
LINE
5
16C
100
AcDbEntity
8
1
62
256
6
ByLayer
370
18
48
1
60
1
100
AcDbLine
10
72.460784
20
2.500102
30
0
11
71.539216
21
2.500098
31
0
39
0
210
0
220
0
230
1
0
LINE
5
16D
100
AcDbEntity
8
1
62
256
6
ByLayer
370
18
48
1
60
1
100
AcDbLine
10
71.539216
20
2.500098
30
0
11
72
21
6.0001
31
0
39
0
210
0
220
0
230
1
0
LINE
5
16F
100
AcDbEntity
8
1
62
256
6
ByLayer
370
18
48
1
60
1
100
AcDbLine
10
72
20
-6.0001
30
0
11
71.539216
21
-2.500102
31
0
39
0
210
0
220
0
230
1
0
LINE
5
170
100
AcDbEntity
8
1
62
256
6
ByLayer
370
18
48
1
60
1
100
AcDbLine
10
71.539216
20
-2.500102
30
0
11
72.460784
21
-2.500098
31
0
39
0
210
0
220
0
230
1
0
LINE
5
171
100
AcDbEntity
8
1
62
256
6
ByLayer
370
18
48
1
60
1
100
AcDbLine
10
72.460784
20
-2.500098
30
0
11
72
21
-6.0001
31
0
39
0
210
0
220
0
230
1
0
LINE
5
174
100
AcDbEntity
8
1
62
256
6
ByLayer
370
18
48
1
60
1
100
AcDbLine
10
-45
20
-50.15
30
0
11
-41.500002
21
-49.689216
31
0
39
0
210
0
220
0
230
1
0
LINE
5
175
100
AcDbEntity
8
1
62
256
6
ByLayer
370
18
48
1
60
1
100
AcDbLine
10
-41.500002
20
-49.689216
30
0
11
-41.499998
21
-50.610784
31
0
39
0
210
0
220
0
230
1
0
LINE
5
176
100
AcDbEntity
8
1
62
256
6
ByLayer
370
18
48
1
60
1
100
AcDbLine
10
-41.499998
20
-50.610784
30
0
11
-45
21
-50.15
31
0
39
0
210
0
220
0
230
1
0
LINE
5
178
100
AcDbEntity
8
1
62
256
6
ByLayer
370
18
48
1
60
1
100
AcDbLine
10
60
20
-50.15
30
0
11
56.500002
21
-50.610784
31
0
39
0
210
0
220
0
230
1
0
LINE
5
179
100
AcDbEntity
8
1
62
256
6
ByLayer
370
18
48
1
60
1
100
AcDbLine
10
56.500002
20
-50.610784
30
0
11
56.499998
21
-49.689216
31
0
39
0
210
0
220
0
230
1
0
LINE
5
17A
100
AcDbEntity
8
1
62
256
6
ByLayer
370
18
48
1
60
1
100
AcDbLine
10
56.499998
20
-49.689216
30
0
11
60
21
-50.15
31
0
39
0
210
0
220
0
230
1
0
LINE
5
17E
100
AcDbEntity
8
1
62
256
6
ByLayer
370
18
48
1
60
1
100
AcDbLine
10
57.932208
20
-4.531859
30
0
11
60.574029
21
-6.873459
31
0
39
0
210
0
220
0
230
1
0
LINE
5
17F
100
AcDbEntity
8
1
62
256
6
ByLayer
370
18
48
1
60
1
100
AcDbLine
10
60.574029
20
-6.873459
30
0
11
59.877962
21
-7.477427
31
0
39
0
210
0
220
0
230
1
0
LINE
5
180
100
AcDbEntity
8
1
62
256
6
ByLayer
370
18
48
1
60
1
100
AcDbLine
10
59.877962
20
-7.477427
30
0
11
57.932208
21
-4.531859
31
0
39
0
210
0
220
0
230
1
0
MTEXT
5
15D
100
AcDbEntity
8
SK2
62
256
6
ByLayer
370
18
48
1
60
0
100
AcDbMText
10
-54.014634
20
-22.121222
30
0
210
0
220
0
230
1
1
%%c
40
3.5
41
0
44
1.084337
50
90
71
7
72
5
7
iso_b_vert
0
MTEXT
5
160
100
AcDbEntity
8
SK2
62
256
6
ByLayer
370
18
48
1
60
0
100
AcDbMText
10
-54.014634
20
-15.148566
30
0
210
0
220
0
230
1
1
\W0.5321;12
40
3.5
41
0
44
1.084337
50
90
71
7
72
5
7
iso_b_vert
0
MTEXT
5
169
100
AcDbEntity
8
2
62
256
6
ByLayer
370
18
48
1
60
0
100
AcDbMText
10
70.435366
20
13.934944
30
0
210
0
220
0
230
1
1
%%c
40
3.5
41
0
44
1.084337
50
90
71
7
72
5
7
iso_b_vert
0
MTEXT
5
16A
100
AcDbEntity
8
2
62
256
6
ByLayer
370
18
48
1
60
0
100
AcDbMText
10
70.435366
20
20.9076
30
0
210
0
220
0
230
1
1
\W0.5321;12
40
3.5
41
0
44
1.084337
50
90
71
7
72
5
7
iso_b_vert
0
MTEXT
5
173
100
AcDbEntity
8
SK2
62
256
6
ByLayer
370
18
48
1
60
0
100
AcDbMText
10
4.724734
20
-49.117366
30
0
210
0
220
0
230
1
1
\W0.6217;105
40
3.5
41
0
44
1.084337
50
0
71
7
72
5
7
iso_b_vert
0
MTEXT
5
17C
100
AcDbEntity
8
SK2
62
256
6
ByLayer
370
18
48
1
60
0
100
AcDbMText
10
67.498952
20
-13.850886
30
0
210
0
220
0
230
1
1
\W0.6380;R
40
3.5
41
0
44
1.084337
50
310.947554600857
71
7
72
5
7
iso_b_vert
0
MTEXT
5
17D
100
AcDbEntity
8
SK2
62
256
6
ByLayer
370
18
48
1
60
0
100
AcDbMText
10
69.913328
20
-16.633447
30
0
210
0
220
0
230
1
1
\W0.5404;6
40
3.5
41
0
44
1.084337
50
310.947554600857
71
7
72
5
7
iso_b_vert
0
MTEXT
5
182
100
AcDbEntity
8
SK6
62
256
6
ByLayer
370
18
48
1
60
0
100
AcDbMText
10
-17.991993
20
-62.114886
30
0
210
0
220
0
230
1
1
\W0.7348;2B284-1200-TA       T2CH
40
3
41
0
44
1.084337
50
0
71
7
72
5
7
iso_b_vert
0
HATCH
5
164
100
AcDbEntity
8
SK2
62
256
6
ByLayer
370
13
48
1
60
0
100
AcDbHatch
10
0
20
0
30
0
210
0
220
0
230
1
2
ANSI31
70
0
71
0
91
1
92
5
93
3
72
1
10
-52.45
20
5.99999999999986
11
-51.9892162584472
21
2.50000169255304
72
1
10
-51.9892162584472
20
2.50000169255304
11
-52.9107837415528
21
2.49999830744667
72
1
10
-52.9107837415528
20
2.49999830744667
11
-52.45
21
5.99999999999986
97
0
75
0
76
1
52
0
41
0.0062
77
0
78
1
53
45
43
0
44
0
45
-0.0139193969876572
46
0.0139193969876572
79
0
47
0
98
1
10
0
20
0
0
HATCH
5
168
100
AcDbEntity
8
SK2
62
256
6
ByLayer
370
13
48
1
60
0
100
AcDbHatch
10
0
20
0
30
0
210
0
220
0
230
1
2
ANSI31
70
0
71
0
91
1
92
5
93
3
72
1
10
-52.45
20
-6.00000000000017
11
-52.9107837415528
21
-2.50000169255335
72
1
10
-52.9107837415528
20
-2.50000169255335
11
-51.9892162584472
21
-2.49999830744699
72
1
10
-51.9892162584472
20
-2.49999830744699
11
-52.45
21
-6.00000000000017
97
0
75
0
76
1
52
0
41
0.0062
77
0
78
1
53
45
43
0
44
0
45
-0.0139193969876572
46
0.0139193969876572
79
0
47
0
98
1
10
0
20
0
0
HATCH
5
16E
100
AcDbEntity
8
2
62
256
6
ByLayer
370
13
48
1
60
0
100
AcDbHatch
10
0
20
0
30
0
210
0
220
0
230
1
2
ANSI31
70
0
71
0
91
1
92
5
93
3
72
1
10
72
20
6.0000999999998
11
72.4607837415528
21
2.50010169255299
72
1
10
72.4607837415528
20
2.50010169255299
11
71.5392162584472
21
2.50009830744662
72
1
10
71.5392162584472
20
2.50009830744662
11
72
21
6.0000999999998
97
0
75
0
76
1
52
0
41
0.0062
77
0
78
1
53
45
43
0
44
0
45
-0.0139193969876572
46
0.0139193969876572
79
0
47
0
98
1
10
0
20
0
0
HATCH
5
172
100
AcDbEntity
8
2
62
256
6
ByLayer
370
13
48
1
60
0
100
AcDbHatch
10
0
20
0
30
0
210
0
220
0
230
1
2
ANSI31
70
0
71
0
91
1
92
5
93
3
72
1
10
72
20
-6.0001000000002
11
71.5392162584472
21
-2.50010169255339
72
1
10
71.5392162584472
20
-2.50010169255339
11
72.4607837415528
21
-2.50009830744702
72
1
10
72.4607837415528
20
-2.50009830744702
11
72
21
-6.0001000000002
97
0
75
0
76
1
52
0
41
0.0062
77
0
78
1
53
45
43
0
44
0
45
-0.0139193969876572
46
0.0139193969876572
79
0
47
0
98
1
10
0
20
0
0
HATCH
5
177
100
AcDbEntity
8
SK2
62
256
6
ByLayer
370
13
48
1
60
0
100
AcDbHatch
10
0
20
0
30
0
210
0
220
0
230
1
2
ANSI31
70
0
71
0
91
1
92
5
93
3
72
1
10
-45
20
-50.1500000000002
11
-41.5000016925532
21
-49.6892162584475
72
1
10
-41.5000016925532
20
-49.6892162584475
11
-41.4999983074468
21
-50.610783741553
72
1
10
-41.4999983074468
20
-50.610783741553
11
-45
21
-50.1500000000002
97
0
75
0
76
1
52
0
41
0.0062
77
0
78
1
53
45
43
0
44
0
45
-0.0139193969876572
46
0.0139193969876572
79
0
47
0
98
1
10
0
20
0
0
HATCH
5
17B
100
AcDbEntity
8
SK2
62
256
6
ByLayer
370
13
48
1
60
0
100
AcDbHatch
10
0
20
0
30
0
210
0
220
0
230
1
2
ANSI31
70
0
71
0
91
1
92
5
93
3
72
1
10
60
20
-50.1500000000002
11
56.5000016925532
21
-50.610783741553
72
1
10
56.5000016925532
20
-50.610783741553
11
56.4999983074468
21
-49.6892162584475
72
1
10
56.4999983074468
20
-49.6892162584475
11
60
21
-50.1500000000002
97
0
75
0
76
1
52
0
41
0.0062
77
0
78
1
53
45
43
0
44
0
45
-0.0139193969876572
46
0.0139193969876572
79
0
47
0
98
1
10
0
20
0
0
HATCH
5
181
100
AcDbEntity
8
SK2
62
256
6
ByLayer
370
13
48
1
60
0
100
AcDbHatch
10
0
20
0
30
0
210
0
220
0
230
1
2
ANSI31
70
0
71
0
91
1
92
5
93
3
72
1
10
57.9322076081147
20
-4.53185870550777
11
60.5740287386886
21
-6.87345878294695
72
1
10
60.5740287386886
20
-6.87345878294695
11
59.8779620203414
21
-7.4774271178274
72
1
10
59.8779620203414
20
-7.4774271178274
11
57.9322076081147
21
-4.53185870550777
97
0
75
0
76
1
52
0
41
0.0062
77
0
78
1
53
45
43
0
44
0
45
-0.0139193969876572
46
0.0139193969876572
79
0
47
0
98
1
10
0
20
0
0
DIMENSION
5
185
100
AcDbEntity
8
SK2
62
256
6
ByLayer
370
18
48
1
60
0
100
AcDbDimension
2
_U0
10
0
20
-40.15
30
0
11
30
21
-40.15
31
0
70
32
71
1
72
1
41
1
210
0
220
0
230
1
3
Standard
100
AcDbAlignedDimension
13
60
23
0
33
0
14
0
24
0
34
0
50
0
100
AcDbRotatedDimension
1001
ACAD
1000
DSTYLE
1002
{
1070
   371
1070
    13
1070
   372
1070
    13
1070
   170
1070
     0
1070
   144
1040
1.0
1070
   277
1070
     2
1070
   284
1070
     8
1070
   278
1070
    46
1070
   146
1040
1.0
1070
   345
1005
16
1070
   347
1005
16
1070
   346
1005
16
1070
   344
1005
0
1070
   343
1005
0
1070
   172
1070
     1
1070
    76
1070
     0
1070
    75
1070
     0
1070
   282
1070
     0
1070
   281
1070
     0
1070
    71
1070
     0
1070
    74
1070
     0
1070
   279
1070
     0
1070
   173
1070
     1
1070
   340
1005
15E
1070
   271
1070
     2
1070
   272
1070
     2
1070
    77
1070
     1
1070
    73
1070
     1
1070
   171
1070
     3
1070
   274
1070
     4
1070
   177
1070
     2
1070
   176
1070
     2
1070
   178
1070
     2
1070
    78
1070
     8
1070
    48
1040
-0.1
1070
    41
1040
3.5
1070
   147
1040
1.75
1070
    42
1040
1.5875
1070
    44
1040
2.0
1070
   140
1040
3.5
1002
}
1001
ACAD_DSTYLE_DIM_LINETYPE
1070
   380
1005
16
1001
ACAD_DSTYLE_DIM_EXT1_LINETYPE
1070
   381
1005
16
1001
ACAD_DSTYLE_DIM_EXT2_LINETYPE
1070
   382
1005
16
0
DIMENSION
5
19E
100
AcDbEntity
8
2
62
256
6
ByLayer
370
18
48
1
60
0
100
AcDbDimension
2
_U1
10
42
20
-23.65
30
0
11
73.067612
21
-23.65
31
0
70
32
71
1
72
1
41
1
210
0
220
0
230
1
3
Standard
100
AcDbAlignedDimension
13
60
23
0
33
0
14
42
24
0
34
0
50
0
100
AcDbRotatedDimension
1001
ACAD
1000
DSTYLE
1002
{
1070
   371
1070
    13
1070
   372
1070
    13
1070
   170
1070
     0
1070
   144
1040
1.0
1070
   277
1070
     2
1070
   284
1070
     8
1070
   278
1070
    46
1070
   146
1040
1.0
1070
   345
1005
16
1070
   347
1005
16
1070
   346
1005
16
1070
   344
1005
0
1070
   343
1005
0
1070
   172
1070
     1
1070
    76
1070
     0
1070
    75
1070
     0
1070
   282
1070
     0
1070
   281
1070
     0
1070
    71
1070
     0
1070
    74
1070
     0
1070
   279
1070
     0
1070
   173
1070
     1
1070
   340
1005
15E
1070
   271
1070
     2
1070
   272
1070
     2
1070
    77
1070
     1
1070
    73
1070
     1
1070
   171
1070
     3
1070
   274
1070
     4
1070
   177
1070
     2
1070
   176
1070
     2
1070
   178
1070
     2
1070
    78
1070
     8
1070
    48
1040
-0.1
1070
    41
1040
3.5
1070
   147
1040
1.75
1070
    42
1040
1.5875
1070
    44
1040
2.0
1070
   140
1040
3.5
1002
}
1001
ACAD_DSTYLE_DIM_LINETYPE
1070
   380
1005
16
1001
ACAD_DSTYLE_DIM_EXT1_LINETYPE
1070
   381
1005
16
1001
ACAD_DSTYLE_DIM_EXT2_LINETYPE
1070
   382
1005
16
0
ENDSEC
0
SECTION
2
OBJECTS
0
DICTIONARY
5
227
330
0
100
AcDbDictionary
280
0
281
1
3
ACAD_GROUP
350
228
3
ACAD_MLINESTYLE
350
229
0
DICTIONARY
5
228
330
0
100
AcDbDictionary
280
0
281
1
0
DICTIONARY
5
229
330
0
100
AcDbDictionary
280
0
281
1
3
Standard
350
18
0
MLINESTYLE
5
18
330
229
100
AcDbMlineStyle
2
Standard
70
0
3

62
256
51
90
52
90
71
2
49
-0.5
62
256
6
ByLayer
49
0.5
62
256
6
ByLayer
0
RASTERVARIABLES
5
215
330

100
AcDbRasterVariables
90
0
70
1
71
1
72
1
0
ENDSEC
0
EOF
