0
SECTION
2
HEADER
9
$ACADVER
1
AC1015
9
$DWGCODEPAGE
3
ANSI_1252
9
$HANDSEED
5
236
9
$ANGBASE
50
0
9
$ANGDIR
70
0
9
$ATTMODE
70
1
9
$AUNITS
70
0
9
$AUPREC
70
0
9
$CECOLOR
62
256
9
$CELTSCALE
40
1
9
$CELTYPE
6
ByLayer
9
$CELWEIGHT
370
18
9
$CLAYER
8
0
9
$CMLJUST
70
0
9
$CMLSCALE
40
1
9
$CMLSTYLE
2
Standard
9
$DIMSTYLE
2
Standard
9
$TEXTSIZE
40
0.2
9
$TEXTSTYLE
7
Standard
9
$LUNITS
70
2
9
$LUPREC
70
4
9
$EXTNAMES
290
1
9
$INSUNITS
70
4
9
$LTSCALE
40
1
9
$LWDISPLAY
290
1
9
$PDMODE
70
0
9
$PDSIZE
40
0
9
$PLINEGEN
70
0
0
ENDSEC
0
SECTION
2
CLASSES
0
CLASS
1
RASTERVARIABLES
2
AcDbRasterVariables
3
ISM
90
0
280
0
281
0
0
ENDSEC
0
SECTION
2
TABLES
0
TABLE
2
VPORT
5
22c
100
AcDbSymbolTable
0
VPORT
5
1
100
AcDbSymbolTableRecord
100
AcDbViewportTableRecord
2
*Active
70
0
10
0
20
0
11
1
21
1
12
-1
22
1
13
0
23
0
14
0.5
24
0.5
15
10
25
10
16
0
26
0
36
1
17
0
27
0
37
0
0
ENDTAB
0
TABLE
2
LTYPE
5
22d
100
AcDbSymbolTable
0
LTYPE
5
14
100
AcDbSymbolTableRecord
100
AcDbLinetypeTableRecord
70
0
2
ByBlock
3

72
65
73
0
40
0
0
LTYPE
5
15
100
AcDbSymbolTableRecord
100
AcDbLinetypeTableRecord
70
0
2
ByLayer
3

72
65
73
0
40
0
0
LTYPE
5
16
100
AcDbSymbolTableRecord
100
AcDbLinetypeTableRecord
70
0
2
Continuous
3
Solid line
72
65
73
0
40
0
0
LTYPE
5
6E
100
AcDbSymbolTableRecord
100
AcDbLinetypeTableRecord
70
0
2
CENTER
3
____ _ ____ _ ____ _ ____
72
65
73
4
40
47.5
49
22
74
0
49
-8.5
74
0
49
8.5
74
0
49
-8.5
74
0
0
LTYPE
5
6F
100
AcDbSymbolTableRecord
100
AcDbLinetypeTableRecord
70
0
2
DASHED
3
__ __ __ __ __ __ __ __ __
72
65
73
2
40
25.72
49
12.86
74
0
49
-12.86
74
0
0
ENDTAB
0
TABLE
2
LAYER
5
22e
100
AcDbSymbolTable
0
LAYER
5
10
100
AcDbSymbolTableRecord
100
AcDbLayerTableRecord
2
0
70
0
62
7
6
Continuous
290
1
370
-3
390
0
0
LAYER
5
71
100
AcDbSymbolTableRecord
100
AcDbLayerTableRecord
2
81
70
0
62
-3
6
Continuous
290
1
370
-3
390
0
0
LAYER
5
73
100
AcDbSymbolTableRecord
100
AcDbLayerTableRecord
2
80
70
0
62
-6
6
Continuous
290
1
370
-3
390
0
0
LAYER
5
75
100
AcDbSymbolTableRecord
100
AcDbLayerTableRecord
2
1
70
0
62
4
6
Continuous
290
1
370
-3
390
0
0
LAYER
5
7E
100
AcDbSymbolTableRecord
100
AcDbLayerTableRecord
2
4
70
0
62
-2
6
CENTER
290
1
370
-3
390
0
0
LAYER
5
B8
100
AcDbSymbolTableRecord
100
AcDbLayerTableRecord
2
2
70
0
62
7
6
Continuous
290
1
370
-3
390
0
0
LAYER
5
189
100
AcDbSymbolTableRecord
100
AcDbLayerTableRecord
2
Defpoints
70
0
62
7
6
Continuous
290
0
370
-3
390
0
0
LAYER
5
218
100
AcDbSymbolTableRecord
100
AcDbLayerTableRecord
2
SK4
70
0
62
2
6
CENTER
290
1
370
-3
390
0
0
LAYER
5
219
100
AcDbSymbolTableRecord
100
AcDbLayerTableRecord
2
SK1
70
0
62
4
6
Continuous
290
1
370
-3
390
0
0
LAYER
5
21a
100
AcDbSymbolTableRecord
100
AcDbLayerTableRecord
2
SK2
70
0
62
7
6
Continuous
290
1
370
-3
390
0
0
LAYER
5
21b
100
AcDbSymbolTableRecord
100
AcDbLayerTableRecord
2
SK6
70
0
62
5
6
Continuous
290
1
370
-3
390
0
0
ENDTAB
0
TABLE
2
STYLE
5
22f
100
AcDbSymbolTable
0
STYLE
5
11
100
AcDbSymbolTableRecord
100
AcDbTextStyleTableRecord
2
Standard
3
txt
70
0
71
0
40
0
41
1
42
0
50
0
0
STYLE
5
15F
100
AcDbSymbolTableRecord
100
AcDbTextStyleTableRecord
2
iso_b_vert
3
simplex.shx
70
0
71
0
40
0
41
1
42
0
50
0
0
STYLE
5
160
100
AcDbSymbolTableRecord
100
AcDbTextStyleTableRecord
2
DWGDirectTextStyle
3
simplex
70
0
71
0
40
0
41
1
42
0
50
0
0
ENDTAB
0
TABLE
2
DIMSTYLE
5
230
100
AcDbSymbolTable
100
AcDbDimStyleTable
0
DIMSTYLE
105
27
100
AcDbSymbolTableRecord
100
AcDbDimStyleTableRecord
2
Standard
70
0
3
<>
41
0.18
42
0.0625
44
0.18
140
0.18
147
0.09
73
0
74
0
77
1
271
2
275
0
278
52
280
0
340
11
0
ENDTAB
0
TABLE
2
VIEW
5
231
100
AcDbSymbolTable
0
ENDTAB
0
TABLE
2
UCS
5
232
100
AcDbSymbolTable
0
ENDTAB
0
TABLE
2
APPID
5
233
100
AcDbSymbolTable
0
APPID
5
12
100
AcDbSymbolTableRecord
100
AcDbRegAppTableRecord
2
ACAD
70
0
0
APPID
5
185
100
AcDbSymbolTableRecord
100
AcDbRegAppTableRecord
2
ACAD_DSTYLE_DIMBREAK
70
0
0
APPID
5
1D7
100
AcDbSymbolTableRecord
100
AcDbRegAppTableRecord
2
ACAD_DSTYLE_DIM_LINETYPE
70
0
0
APPID
5
1D8
100
AcDbSymbolTableRecord
100
AcDbRegAppTableRecord
2
ACAD_DSTYLE_DIM_EXT1_LINETYPE
70
0
0
APPID
5
1D9
100
AcDbSymbolTableRecord
100
AcDbRegAppTableRecord
2
ACAD_DSTYLE_DIM_EXT2_LINETYPE
70
0
0
APPID
5
214
100
AcDbSymbolTableRecord
100
AcDbRegAppTableRecord
2
ACAD_MLEADERVER
70
0
0
ENDTAB
0
TABLE
2
BLOCK_RECORD
5
234
100
AcDbSymbolTable
0
BLOCK_RECORD
5
1F
100
AcDbSymbolTableRecord
100
AcDbBlockTableRecord
2
*Model_Space
340
0
70
0
0
BLOCK_RECORD
5
1B
100
AcDbSymbolTableRecord
100
AcDbBlockTableRecord
2
*Paper_Space
340
0
70
0
0
BLOCK_RECORD
5
23
100
AcDbSymbolTableRecord
100
AcDbBlockTableRecord
2
*Paper_Space0
340
0
70
0
0
BLOCK_RECORD
5
18A
100
AcDbSymbolTableRecord
100
AcDbBlockTableRecord
2
*D1
340
0
70
0
0
BLOCK_RECORD
5
196
100
AcDbSymbolTableRecord
100
AcDbBlockTableRecord
2
_U0
340
0
70
0
0
BLOCK_RECORD
5
1A2
100
AcDbSymbolTableRecord
100
AcDbBlockTableRecord
2
*D3
340
0
70
0
0
BLOCK_RECORD
5
1B0
100
AcDbSymbolTableRecord
100
AcDbBlockTableRecord
2
_U1
340
0
70
0
0
ENDTAB
0
ENDSEC
0
SECTION
2
BLOCKS
0
BLOCK
5
20
100
AcDbEntity
8
0
100
AcDbBlockBegin
2
*Model_Space
70
0
10
0
20
0
30
0
3
*Model_Space
0
ENDBLK
5
21
100
AcDbEntity
8
0
100
AcDbBlockEnd
0
BLOCK
5
1C
100
AcDbEntity
8
0
100
AcDbBlockBegin
2
*Paper_Space
70
0
10
0
20
0
30
0
3
*Paper_Space
0
ENDBLK
5
1D
100
AcDbEntity
8
0
100
AcDbBlockEnd
0
BLOCK
5
24
100
AcDbEntity
8
0
100
AcDbBlockBegin
2
*Paper_Space0
70
0
10
0
20
0
30
0
3
*Paper_Space0
0
ENDBLK
5
25
100
AcDbEntity
8
0
100
AcDbBlockEnd
0
BLOCK
5
18B
100
AcDbEntity
8
0
100
AcDbBlockBegin
2
*D1
70
1
10
0
20
0
30
0
3
*D1
0
LINE
5
18D
100
AcDbEntity
8
0
62
256
6
ByLayer
370
-2
48
1
60
0
100
AcDbLine
10
34
20
-1.5875
30
0
11
34
21
-39.1
31
0
39
0
210
0
220
0
230
1
0
LINE
5
18E
100
AcDbEntity
8
0
62
256
6
ByLayer
370
-2
48
1
60
0
100
AcDbLine
10
0
20
-1.5875
30
0
11
0
21
-39.1
31
0
39
0
210
0
220
0
230
1
0
LINE
5
18F
100
AcDbEntity
8
0
62
256
6
ByLayer
370
-2
48
1
60
0
100
AcDbLine
10
30.5
20
-37.1
30
0
11
3.5
21
-37.1
31
0
39
0
210
0
220
0
230
1
0
SOLID
5
190
100
AcDbEntity
8
0
62
256
6
ByLayer
370
-1
48
1
60
0
100
AcDbTrace
10
30.5
20
-37.683333
30
0
11
30.5
21
-36.516667
31
0
12
34
22
-37.1
32
0
13
34
23
-37.1
33
0
39
0
210
0
220
0
230
1
0
SOLID
5
191
100
AcDbEntity
8
0
62
256
6
ByLayer
370
-1
48
1
60
0
100
AcDbTrace
10
3.5
20
-36.516667
30
0
11
3.5
21
-37.683333
31
0
12
0
22
-37.1
32
0
13
0
23
-37.1
33
0
39
0
210
0
220
0
230
1
0
MTEXT
5
192
100
AcDbEntity
8
0
62
256
6
ByLayer
370
18
48
1
60
0
100
AcDbMText
10
17
20
-30.1
30
0
210
0
220
0
230
1
1
\A1;34
40
3.5
41
0
44
1
50
0
71
5
72
5
7
iso_b_vert
0
POINT
5
193
100
AcDbEntity
8
Defpoints
62
0
6
ByLayer
370
-1
48
1
60
0
100
AcDbPoint
10
34
20
0
30
0
39
0
210
0
220
0
230
1
50
360
0
POINT
5
194
100
AcDbEntity
8
Defpoints
62
0
6
ByLayer
370
-1
48
1
60
0
100
AcDbPoint
10
0
20
0
30
0
39
0
210
0
220
0
230
1
50
360
0
POINT
5
195
100
AcDbEntity
8
Defpoints
62
0
6
ByLayer
370
-1
48
1
60
0
100
AcDbPoint
10
0
20
-37.1
30
0
39
0
210
0
220
0
230
1
50
360
0
ENDBLK
5
18C
100
AcDbEntity
8
0
100
AcDbBlockEnd
0
BLOCK
5
19D
100
AcDbEntity
8
0
100
AcDbBlockBegin
2
_U0
70
0
10
0
20
0
30
0
3
_U0
0
MTEXT
5
197
100
AcDbEntity
8
SK2
62
256
6
ByLayer
370
18
48
1
60
0
100
AcDbMText
10
14.910767
20
-36.067366
30
0
210
0
220
0
230
1
1
\W0.7167;34
40
3.5
41
0
44
1.084337
50
0
71
7
72
5
7
iso_b_vert
0
LINE
5
198
100
AcDbEntity
8
SK2
62
256
6
ByLayer
370
13
48
1
60
0
100
AcDbLine
10
34
20
-1.5875
30
0
11
34
21
-39.1
31
0
39
0
210
0
220
0
230
1
0
LINE
5
199
100
AcDbEntity
8
SK2
62
256
6
ByLayer
370
13
48
1
60
0
100
AcDbLine
10
0
20
-1.5875
30
0
11
0
21
-39.1
31
0
39
0
210
0
220
0
230
1
0
LINE
5
19A
100
AcDbEntity
8
SK2
62
256
6
ByLayer
370
13
48
1
60
0
100
AcDbLine
10
34
20
-37.1
30
0
11
0
21
-37.1
31
0
39
0
210
0
220
0
230
1
0
SOLID
5
19B
100
AcDbEntity
8
SK2
62
256
6
ByLayer
370
18
48
1
60
0
100
AcDbTrace
10
34
20
-37.1
30
0
11
30.500002
21
-37.560784
31
0
12
30.499998
22
-36.639216
32
0
13
30.499998
23
-36.639216
33
0
39
0
210
0
220
0
230
1
0
SOLID
5
19C
100
AcDbEntity
8
SK2
62
256
6
ByLayer
370
18
48
1
60
0
100
AcDbTrace
10
0
20
-37.1
30
0
11
3.499998
21
-36.639216
31
0
12
3.500002
22
-37.560784
32
0
13
3.500002
23
-37.560784
33
0
39
0
210
0
220
0
230
1
0
ENDBLK
5
19E
100
AcDbEntity
8
0
100
AcDbBlockEnd
0
BLOCK
5
1A3
100
AcDbEntity
8
0
100
AcDbBlockBegin
2
*D3
70
1
10
0
20
0
30
0
3
*D3
0
LINE
5
1A5
100
AcDbEntity
8
0
62
256
6
ByLayer
370
-2
48
1
60
0
100
AcDbLine
10
34
20
-1.5875
30
0
11
34
21
-22.6
31
0
39
0
210
0
220
0
230
1
0
LINE
5
1A6
100
AcDbEntity
8
0
62
256
6
ByLayer
370
-2
48
1
60
0
100
AcDbLine
10
29.5
20
-1.5875
30
0
11
29.5
21
-22.6
31
0
39
0
210
0
220
0
230
1
0
LINE
5
1A7
100
AcDbEntity
8
0
62
256
6
ByLayer
370
-2
48
1
60
0
100
AcDbLine
10
34
20
-20.6
30
0
11
58.833333
21
-20.6
31
0
39
0
210
0
220
0
230
1
0
LINE
5
1A8
100
AcDbEntity
8
0
62
256
6
ByLayer
370
-2
48
1
60
0
100
AcDbLine
10
37.5
20
-20.6
30
0
11
41
21
-20.6
31
0
39
0
210
0
220
0
230
1
0
LINE
5
1A9
100
AcDbEntity
8
0
62
256
6
ByLayer
370
-2
48
1
60
0
100
AcDbLine
10
26
20
-20.6
30
0
11
22.5
21
-20.6
31
0
39
0
210
0
220
0
230
1
0
SOLID
5
1AA
100
AcDbEntity
8
0
62
256
6
ByLayer
370
-1
48
1
60
0
100
AcDbTrace
10
37.5
20
-20.016667
30
0
11
37.5
21
-21.183333
31
0
12
34
22
-20.6
32
0
13
34
23
-20.6
33
0
39
0
210
0
220
0
230
1
0
SOLID
5
1AB
100
AcDbEntity
8
0
62
256
6
ByLayer
370
-1
48
1
60
0
100
AcDbTrace
10
26
20
-21.183333
30
0
11
26
21
-20.016667
31
0
12
29.5
22
-20.6
32
0
13
29.5
23
-20.6
33
0
39
0
210
0
220
0
230
1
0
MTEXT
5
1AC
100
AcDbEntity
8
0
62
256
6
ByLayer
370
18
48
1
60
0
100
AcDbMText
10
49.916667
20
-13.6
30
0
210
0
220
0
230
1
1
\A1;4.5
40
3.5
41
0
44
1
50
0
71
5
72
5
7
iso_b_vert
0
POINT
5
1AD
100
AcDbEntity
8
Defpoints
62
0
6
ByLayer
370
-1
48
1
60
0
100
AcDbPoint
10
34
20
0
30
0
39
0
210
0
220
0
230
1
50
360
0
POINT
5
1AE
100
AcDbEntity
8
Defpoints
62
0
6
ByLayer
370
-1
48
1
60
0
100
AcDbPoint
10
29.5
20
0
30
0
39
0
210
0
220
0
230
1
50
360
0
POINT
5
1AF
100
AcDbEntity
8
Defpoints
62
0
6
ByLayer
370
-1
48
1
60
0
100
AcDbPoint
10
29.5
20
-20.6
30
0
39
0
210
0
220
0
230
1
50
360
0
ENDBLK
5
1A4
100
AcDbEntity
8
0
100
AcDbBlockEnd
0
BLOCK
5
1B7
100
AcDbEntity
8
0
100
AcDbBlockBegin
2
_U1
70
0
10
0
20
0
30
0
3
_U1
0
MTEXT
5
1B1
100
AcDbEntity
8
2
62
256
6
ByLayer
370
18
48
1
60
0
100
AcDbMText
10
45.5858
20
-19.567366
30
0
210
0
220
0
230
1
1
\W0.7610;4.5
40
3.5
41
0
44
1.084337
50
0
71
7
72
5
7
iso_b_vert
0
LINE
5
1B2
100
AcDbEntity
8
2
62
256
6
ByLayer
370
13
48
1
60
0
100
AcDbLine
10
34
20
-1.5875
30
0
11
34
21
-22.6
31
0
39
0
210
0
220
0
230
1
0
LINE
5
1B3
100
AcDbEntity
8
2
62
256
6
ByLayer
370
13
48
1
60
0
100
AcDbLine
10
29.5
20
-1.5875
30
0
11
29.5
21
-22.6
31
0
39
0
210
0
220
0
230
1
0
LINE
5
1B4
100
AcDbEntity
8
2
62
256
6
ByLayer
370
13
48
1
60
0
100
AcDbLine
10
20.75
20
-20.6
30
0
11
51.367765
21
-20.6
31
0
39
0
210
0
220
0
230
1
0
SOLID
5
1B5
100
AcDbEntity
8
2
62
256
6
ByLayer
370
18
48
1
60
0
100
AcDbTrace
10
34
20
-20.6
30
0
11
37.499998
21
-20.139216
31
0
12
37.500002
22
-21.060784
32
0
13
37.500002
23
-21.060784
33
0
39
0
210
0
220
0
230
1
0
SOLID
5
1B6
100
AcDbEntity
8
2
62
256
6
ByLayer
370
18
48
1
60
0
100
AcDbTrace
10
29.5
20
-20.6
30
0
11
26.000002
21
-21.060784
31
0
12
25.999998
22
-20.139216
32
0
13
25.999998
23
-20.139216
33
0
39
0
210
0
220
0
230
1
0
ENDBLK
5
1B8
100
AcDbEntity
8
0
100
AcDbBlockEnd
0
ENDSEC
0
SECTION
2
ENTITIES
0
ARC
5
CE
100
AcDbEntity
8
1
62
256
6
ByLayer
370
18
48
1
60
0
100
AcDbCircle
39
0
10
32.5
20
0
30
0
40
1.49786514746822
210
0
220
0
230
1
100
AcDbArc
50
1.010531
51
3.676471
0
ARC
5
CF
100
AcDbEntity
8
1
62
256
6
ByLayer
370
18
48
1
60
0
100
AcDbCircle
39
0
10
32.5
20
0
30
0
40
1.5
210
0
220
0
230
1
100
AcDbArc
50
355.219808
51
0.882125
0
ARC
5
D0
100
AcDbEntity
8
1
62
256
6
ByLayer
370
18
48
1
60
0
100
AcDbCircle
39
0
10
18.997679
20
2.525
30
0
40
1
210
0
220
0
230
1
100
AcDbArc
50
240
51
270
0
ARC
5
D1
100
AcDbEntity
8
1
62
256
6
ByLayer
370
18
48
1
60
0
100
AcDbCircle
39
0
10
18.997679
20
-2.525
30
0
40
1
210
0
220
0
230
1
100
AcDbArc
50
90
51
120
0
ELLIPSE
5
D2
100
AcDbEntity
8
1
62
256
6
ByLayer
370
18
48
1
60
0
100
AcDbEllipse
10
32.5
20
0.076085
30
0
11
1.49786514746822
21
0
31
0
210
0
220
0
230
1
40
0.309017
41
0.0176370942835702
42
0.0431402003376326
0
ELLIPSE
5
D3
100
AcDbEntity
8
1
62
256
6
ByLayer
370
18
48
1
60
0
100
AcDbEllipse
10
32.5
20
-0.077274
30
0
11
-1.49786514746822
21
1.83429517675867E-16
31
0
210
0
220
0
230
1
40
0.258819
41
-3.12395555930521
42
-3.07742612628367
0
ELLIPSE
5
D4
100
AcDbEntity
8
1
62
256
6
ByLayer
370
18
48
1
60
0
100
AcDbEllipse
10
29.5
20
-1.3508
30
0
11
-1.25961558587828
21
0.81447441691713
31
0
210
0
220
0
230
1
40
0.389942
41
-1.32380556121006
42
-1.15997245295479
0
ELLIPSE
5
D5
100
AcDbEntity
8
1
62
256
6
ByLayer
370
18
48
1
60
0
100
AcDbEllipse
10
29.551962
20
-1.27044
30
0
11
-1.28202521125991
21
0.828964604852762
31
0
210
0
220
0
230
1
40
0.389942
41
-1.28449463167039
42
-1.11916136497587
0
ELLIPSE
5
D6
100
AcDbEntity
8
1
62
256
6
ByLayer
370
18
48
1
60
0
100
AcDbEllipse
10
29.955347
20
-0.000104
30
0
11
3.78852067282349
21
-1.30538440014332
31
0
210
0
220
0
230
1
40
0.208162
41
1.82602368151075
42
1.83466829923472
0
ELLIPSE
5
D7
100
AcDbEntity
8
1
62
256
6
ByLayer
370
18
48
1
60
0
100
AcDbEllipse
10
29.551962
20
-2.955366
30
0
11
0.508235159289095
21
1.43960688428024
31
0
210
0
220
0
230
1
40
0.847845
41
0.433869586449145
42
0.599202853142744
0
ELLIPSE
5
D8
100
AcDbEntity
8
1
62
256
6
ByLayer
370
18
48
1
60
0
100
AcDbEllipse
10
29.551962
20
2.083313
30
0
11
-1.20388924620627
21
0.938840583525005
31
0
210
0
220
0
230
1
40
0.582166
41
1.79232421114035
42
1.95765747783448
0
ELLIPSE
5
D9
100
AcDbEntity
8
1
62
256
6
ByLayer
370
18
48
1
60
0
100
AcDbEllipse
10
29.5
20
2.016682
30
0
11
-1.18284542680905
21
0.922429778507237
31
0
210
0
220
0
230
1
40
0.582166
41
1.83313529911886
42
1.99696840737413
0
POINT
5
70
100
AcDbEntity
8
81
62
256
6
ByLayer
370
18
48
1
60
0
100
AcDbPoint
10
34.05
20
0
30
0
39
0
210
0
220
0
230
1
50
360
0
POINT
5
72
100
AcDbEntity
8
80
62
256
6
ByLayer
370
18
48
1
60
0
100
AcDbPoint
10
0
20
0
30
0
39
0
210
0
220
0
230
1
50
360
0
POINT
5
74
100
AcDbEntity
8
1
62
256
6
ByLayer
370
18
48
1
60
1
100
AcDbPoint
10
34
20
0
30
0
39
0
210
0
220
0
230
1
50
360
0
POINT
5
76
100
AcDbEntity
8
1
62
256
6
ByLayer
370
18
48
1
60
1
100
AcDbPoint
10
0
20
0
30
0
39
0
210
0
220
0
230
1
50
360
0
POINT
5
77
100
AcDbEntity
8
1
62
256
6
ByLayer
370
18
48
1
60
1
100
AcDbPoint
10
34
20
0
30
0
39
0
210
0
220
0
230
1
50
360
0
POINT
5
78
100
AcDbEntity
8
1
62
256
6
ByLayer
370
18
48
1
60
1
100
AcDbPoint
10
29.5
20
0
30
0
39
0
210
0
220
0
230
1
50
360
0
SPLINE
5
DA
100
AcDbEntity
8
1
62
256
6
ByLayer
370
18
48
1
60
0
100
AcDbSpline
70
4
71
3
72
10
73
6
40
0
40
0
40
0
40
0
40
0.28722573489664
40
0.28722573489664
40
1
40
1
40
1
40
1
41
1
10
29.32749027291
20
1.31609604483674
30
0
41
1
10
29.3439729594664
20
1.31680874555536
30
0
41
1
10
29.3604777312292
20
1.3177997749246
30
0
41
1
10
29.417986013276
20
1.32222032867747
30
0
41
1
10
29.4589874566176
20
1.32707807715192
30
0
41
1
10
29.5
20
1.33365513524612
30
0
0
SPLINE
5
DB
100
AcDbEntity
8
1
62
256
6
ByLayer
370
18
48
1
60
0
100
AcDbSpline
70
4
71
3
72
8
73
4
40
0
40
0
40
0
40
0
40
1
40
1
40
1
40
1
41
1
10
32.812749600268
20
1.31366249994338
30
0
41
1
10
32.8218536384161
20
1.31318004392267
30
0
41
1
10
32.8307667986679
20
1.31299021186237
30
0
41
1
10
32.8394872421497
20
1.31309398697042
30
0
0
SPLINE
5
DC
100
AcDbEntity
8
1
62
256
6
ByLayer
370
18
48
1
60
0
100
AcDbSpline
70
4
71
3
72
8
73
4
40
0
40
0
40
0
40
0
40
1
40
1
40
1
40
1
41
1
10
32.8029866852911
20
1.31403071835459
30
0
41
1
10
32.8062642140464
20
1.31388115809116
30
0
41
1
10
32.809518246839
20
1.31375905640246
30
0
41
1
10
32.8127496002671
20
1.31366249994335
30
0
0
SPLINE
5
DD
100
AcDbEntity
8
1
62
256
6
ByLayer
370
18
48
1
60
0
100
AcDbSpline
70
4
71
3
72
12
73
8
40
0
40
0
40
0
40
0
40
0.249999999999999
40
0.249999999999999
40
0.499999999999999
40
0.499999999999999
40
1
40
1
40
1
40
1
41
1
10
32.8599726370252
20
1.29315529301891
30
0
41
1
10
32.8547046588593
20
1.29371100425081
30
0
41
1
10
32.8497044990448
20
1.29490648749263
30
0
41
1
10
32.8399182270909
20
1.29777815670562
30
0
41
1
10
32.8351447861018
20
1.29948574076872
30
0
41
1
10
32.8210421904502
20
1.30507144332307
30
0
41
1
10
32.8119150059394
20
1.30941415609269
30
0
41
1
10
32.802986685291
20
1.31403071835447
30
0
0
SPLINE
5
DE
100
AcDbEntity
8
1
62
256
6
ByLayer
370
18
48
1
60
0
100
AcDbSpline
70
4
71
3
72
8
73
4
40
0
40
0
40
0
40
0
40
1
40
1
40
1
40
1
41
1
10
32.802986685291
20
1.31403071835459
30
0
41
1
10
32.7691920979772
20
1.31206881191437
30
0
41
1
10
32.7354767870056
20
1.30853854383796
30
0
41
1
10
32.7017748819198
20
1.30354197221303
30
0
0
SPLINE
5
DF
100
AcDbEntity
8
1
62
256
6
ByLayer
370
18
48
1
60
0
100
AcDbSpline
70
4
71
3
72
8
73
4
40
0
40
0
40
0
40
0
40
1
40
1
40
1
40
1
41
1
10
32.9591901142869
20
1.2777946248691
30
0
41
1
10
32.9212112176699
20
1.26963318266385
30
0
41
1
10
32.883232321053
20
1.26107591618018
30
0
41
1
10
32.845253424436
20
1.25213146215989
30
0
0
SPLINE
5
E0
100
AcDbEntity
8
1
62
256
6
ByLayer
370
18
48
1
60
0
100
AcDbSpline
70
4
71
3
72
17
73
13
40
0
40
0
40
0
40
0
40
0.109635638873553
40
0.208752552829659
40
0.29734089618637
40
0.375395577731619
40
0.442917767062897
40
0.499917794857345
40
0.550738700172127
40
0.651025855659626
40
0.8007813538707
40
1
40
1
40
1
40
1
41
1
10
32.7017748870007
20
-1.47437600186777
30
0
41
1
10
32.6943950187095
20
-1.47586514958203
30
0
41
1
10
32.6803433256546
20
-1.4787005723523
30
0
41
1
10
32.6603311067636
20
-1.48245096991187
30
0
41
1
10
32.6424441260711
20
-1.48557742506208
30
0
41
1
10
32.6266820638627
20
-1.48809684781935
30
0
41
1
10
32.6130457837363
20
-1.48999707894524
30
0
41
1
10
32.6012399737869
20
-1.49143865797552
30
0
41
1
10
32.5872464521515
20
-1.49234610519531
30
0
41
1
10
32.5670259910266
20
-1.4934726379488
30
0
41
1
10
32.5368356651697
20
-1.49487718141452
30
0
41
1
10
32.513386441872
20
-1.4956865036898
30
0
41
1
10
32.4999999987962
20
-1.49614852097841
30
0
0
SPLINE
5
E1
100
AcDbEntity
8
1
62
256
6
ByLayer
370
18
48
1
60
0
100
AcDbSpline
70
4
71
3
72
11
73
7
40
0
40
0
40
0
40
0
40
0.0884768042984019
40
0.490604715374092
40
0.790152259643167
40
1
40
1
40
1
40
1
41
1
10
32.7017748870007
20
-1.47437600186774
30
0
41
1
10
32.7050868647791
20
-1.47369710825552
30
0
41
1
10
32.7234596620371
20
-1.46986175398109
30
0
41
1
10
32.7528774202599
20
-1.46303982359996
30
0
41
1
10
32.7864621435131
20
-1.45421041573309
30
0
41
1
10
32.8050955382741
20
-1.44888931340685
30
0
41
1
10
32.8127496001801
20
-1.44663268398696
30
0
0
SPLINE
5
E2
100
AcDbEntity
8
1
62
256
6
ByLayer
370
18
48
1
60
0
100
AcDbSpline
70
4
71
3
72
8
73
4
40
0
40
0
40
0
40
0
40
1
40
1
40
1
40
1
41
1
10
32.8127496002112
20
-1.4466326839779
30
0
41
1
10
32.8218536383797
20
-1.44387346152652
30
0
41
1
10
32.8307667986739
20
-1.44111780200848
30
0
41
1
10
32.8394872421742
20
-1.43836430019795
30
0
0
SPLINE
5
E3
100
AcDbEntity
8
1
62
256
6
ByLayer
370
18
48
1
60
0
100
AcDbSpline
70
4
71
3
72
8
73
4
40
0
40
0
40
0
40
0
40
1
40
1
40
1
40
1
41
1
10
33.0436252234225
20
-1.35706160251255
30
0
41
1
10
32.9760100487776
20
-1.3896716427777
30
0
41
1
10
32.9080776612646
20
-1.41670670409229
30
0
41
1
10
32.8394872423109
20
-1.43836430015475
30
0
0
SPLINE
5
E4
100
AcDbEntity
8
1
62
256
6
ByLayer
370
18
48
1
60
0
100
AcDbSpline
70
4
71
3
72
18
73
14
40
0
40
0
40
0
40
0
40
0.221257122479749
40
0.221257122479749
40
0.442514244959498
40
0.442514244959498
40
0.553142806199373
40
0.553142806199373
40
0.663771367439247
40
0.663771367439247
40
0.885028489918997
40
0.885028489918997
40
1
40
1
40
1
40
1
41
1
10
33.9746028051602
20
-0.229175017588005
30
0
41
1
10
33.9669804759987
20
-0.264705021653413
30
0
41
1
10
33.9576351556447
20
-0.300488858780938
30
0
41
1
10
33.9355574320899
20
-0.372393412320406
30
0
41
1
10
33.9228933664228
20
-0.408267140026851
30
0
41
1
10
33.9014512240473
20
-0.461947275551779
30
0
41
1
10
33.8938965625186
20
-0.479819203758439
30
0
41
1
10
33.8779698604238
20
-0.515519799699405
30
0
41
1
10
33.8695936392264
20
-0.533354354754408
30
0
41
1
10
33.8433798775285
20
-0.586516532422962
30
0
41
1
10
33.8244317629228
20
-0.621601496292101
30
0
41
1
10
33.7933741473664
20
-0.674361788245733
30
0
41
1
10
33.782334821608
20
-0.692320423691314
30
0
41
1
10
33.770932439764
20
-0.710112555751579
30
0
0
SPLINE
5
E5
100
AcDbEntity
8
1
62
256
6
ByLayer
370
18
48
1
60
0
100
AcDbSpline
70
4
71
3
72
8
73
4
40
0
40
0
40
0
40
0
40
1
40
1
40
1
40
1
41
1
10
33.9746028051641
20
-0.229175017587295
30
0
41
1
10
33.9758713056114
20
-0.22326214960512
30
0
41
1
10
33.9771570641698
20
-0.217229649607276
30
0
41
1
10
33.9784599665762
20
-0.211079037409149
30
0
0
SPLINE
5
E6
100
AcDbEntity
8
1
62
256
6
ByLayer
370
18
48
1
60
0
100
AcDbSpline
70
4
71
3
72
8
73
4
40
0
40
0
40
0
40
0
40
1
40
1
40
1
40
1
41
1
10
33.9784599665814
20
-0.211079037384508
30
0
41
1
10
33.9793245276737
20
-0.206730884716677
30
0
41
1
10
33.9801660561452
20
-0.202372349623545
30
0
41
1
10
33.9809840650776
20
-0.198003504187312
30
0
0
SPLINE
5
E7
100
AcDbEntity
8
1
62
256
6
ByLayer
370
18
48
1
60
0
100
AcDbSpline
70
4
71
3
72
8
73
4
40
0
40
0
40
0
40
0
40
1
40
1
40
1
40
1
41
1
10
33.0436252223365
20
1.29534254026731
30
0
41
1
10
32.9760100480435
20
1.30824970302498
30
0
41
1
10
32.90807766089
20
1.31391022738364
30
0
41
1
10
32.8394872423083
20
1.31309398697229
30
0
0
SPLINE
5
E8
100
AcDbEntity
8
1
62
256
6
ByLayer
370
18
48
1
60
0
100
AcDbSpline
70
4
71
3
72
8
73
4
40
0
40
0
40
0
40
0
40
1
40
1
40
1
40
1
41
1
10
33.4978344205631
20
1.08542991462082
30
0
41
1
10
33.3624707396205
20
1.19094682119487
30
0
41
1
10
33.2072763448498
20
1.2641152568192
30
0
41
1
10
33.0436252220382
20
1.29534254032526
30
0
0
SPLINE
5
E9
100
AcDbEntity
8
1
62
256
6
ByLayer
370
18
48
1
60
0
100
AcDbSpline
70
4
71
3
72
22
73
18
40
0
40
0
40
0
40
0
40
0.125000000000011
40
0.125000000000011
40
0.250000000000022
40
0.250000000000022
40
0.31250000000002
40
0.31250000000002
40
0.375000000000018
40
0.375000000000018
40
0.500000000000015
40
0.500000000000015
40
0.625000000000011
40
0.625000000000011
40
0.750000000000008
40
0.750000000000008
40
1
40
1
40
1
40
1
41
1
10
33.9746028051596
20
0.273223769997884
30
0
41
1
10
33.9669804760056
20
0.314076181299839
30
0
41
1
10
33.9576351556625
20
0.354550292065397
30
0
41
1
10
33.9355574321354
20
0.434545676887865
30
0
41
1
10
33.9228933664854
20
0.473793062427205
30
0
41
1
10
33.9014512241404
20
0.531540439527589
30
0
41
1
10
33.8938965626225
20
0.550602338954803
30
0
41
1
10
33.8779698605512
20
0.58835048618235
30
0
41
1
10
33.869593639366
20
0.607042345727251
30
0
41
1
10
33.8433798777066
20
0.662265627892936
30
0
41
1
10
33.8244317631293
20
0.698051733465576
30
0
41
1
10
33.7835564897407
20
0.767549619275286
30
0
41
1
10
33.7615657956231
20
0.801313517799315
30
0
41
1
10
33.7152806886476
20
0.865715450810541
30
0
41
1
10
33.6909177061412
20
0.896489460369537
30
0
41
1
10
33.6143210885828
20
0.984682415803945
30
0
41
1
10
33.5585701449296
20
1.0379785111904
30
0
41
1
10
33.4978344205777
20
1.08542991460936
30
0
0
SPLINE
5
EA
100
AcDbEntity
8
1
62
256
6
ByLayer
370
18
48
1
60
0
100
AcDbSpline
70
4
71
3
72
28
73
24
40
0
40
0
40
0
40
0
40
0.125000000000013
40
0.125000000000013
40
0.250000000000026
40
0.250000000000026
40
0.375000000000039
40
0.375000000000039
40
0.437500000000045
40
0.437500000000045
40
0.500000000000051
40
0.500000000000051
40
0.625000000000062
40
0.625000000000062
40
0.687500000000068
40
0.687500000000068
40
0.750000000000074
40
0.750000000000074
40
0.81250000000008
40
0.81250000000008
40
0.875000000000087
40
0.875000000000087
40
1
40
1
40
1
40
1
41
1
10
32.9591901142864
20
1.27779462486899
30
0
41
1
10
32.9694112222024
20
1.27569748534006
30
0
41
1
10
32.9795018320217
20
1.27324110532834
30
0
41
1
10
32.9993388567652
20
1.26743612229265
30
0
41
1
10
33.0091191946792
20
1.26407706940134
30
0
41
1
10
33.0280158251069
20
1.25623350849313
30
0
41
1
10
33.0371197648618
20
1.2517639043638
30
0
41
1
10
33.0500088773509
20
1.24391129288463
30
0
41
1
10
33.0541759636087
20
1.24110042545371
30
0
41
1
10
33.0621696358817
20
1.2349841363615
30
0
41
1
10
33.066011585504
20
1.23166235241931
30
0
41
1
10
33.0765933374902
20
1.22091843934018
30
0
41
1
10
33.0825797806779
20
1.21257027550382
30
0
41
1
10
33.0875121610134
20
1.19810209197095
30
0
41
1
10
33.0884707286699
20
1.19284997689067
30
0
41
1
10
33.0884745968294
20
1.18215202835375
30
0
41
1
10
33.0875048918086
20
1.17656191915984
30
0
41
1
10
33.0837741476162
20
1.16581652505062
30
0
41
1
10
33.0809829148753
20
1.16052392908938
30
0
41
1
10
33.074278628463
20
1.15071899377526
30
0
41
1
10
33.0703486254093
20
1.1461276781894
30
0
41
1
10
33.057417326257
20
1.13317928231118
30
0
41
1
10
33.047692896773
20
1.12594149780304
30
0
41
1
10
33.0374051371474
20
1.11941438168441
30
0
0
SPLINE
5
EB
100
AcDbEntity
8
1
62
256
6
ByLayer
370
13
48
1
60
0
100
AcDbSpline
70
4
71
3
72
8
73
4
40
0
40
0
40
0
40
0
40
1
40
1
40
1
40
1
41
1
10
32.8394872423159
20
1.31309398697724
30
0
41
1
10
32.8462987413322
20
1.30646555530342
30
0
41
1
10
32.8531267131713
20
1.29982000873656
30
0
41
1
10
32.8599726370264
20
1.29315529301769
30
0
0
SPLINE
5
EC
100
AcDbEntity
8
1
62
256
6
ByLayer
370
18
48
1
60
0
100
AcDbSpline
70
4
71
3
72
8
73
4
40
0
40
0
40
0
40
0
40
1
40
1
40
1
40
1
41
1
10
32.8599726370267
20
1.29315529301877
30
0
41
1
10
32.8931030730427
20
1.28966041228219
30
0
41
1
10
32.926159038452
20
1.28458639182733
30
0
41
1
10
32.9591901142868
20
1.27779462486907
30
0
0
SPLINE
5
ED
100
AcDbEntity
8
1
62
256
6
ByLayer
370
18
48
1
60
0
100
AcDbSpline
70
4
71
3
72
8
73
4
40
0
40
0
40
0
40
0
40
1
40
1
40
1
40
1
41
1
10
33.9992842714881
20
0.0960468635615257
30
0
41
1
10
33.9986251410837
20
0.106838392046399
30
0
41
1
10
33.9978548373593
20
0.117619804601816
30
0
41
1
10
33.9969746298099
20
0.128391216742216
30
0
0
SPLINE
5
EE
100
AcDbEntity
8
1
62
256
6
ByLayer
370
18
48
1
60
0
100
AcDbSpline
70
4
71
3
72
8
73
4
40
0
40
0
40
0
40
0
40
1
40
1
40
1
40
1
41
1
10
33.9965553359174
20
-0.149262144012596
30
0
41
1
10
33.9974147877092
20
-0.141092071169425
30
0
41
1
10
33.9981771104979
20
-0.132913503180362
30
0
41
1
10
33.9988414469513
20
-0.124726365061065
30
0
0
SPLINE
5
EF
100
AcDbEntity
8
1
62
256
6
ByLayer
370
18
48
1
60
0
100
AcDbSpline
70
4
71
3
72
14
73
10
40
0
40
0
40
0
40
0
40
0.166544129584328
40
0.166544129584328
40
0.444362753056219
40
0.444362753056219
40
0.722181376528109
40
0.722181376528109
40
1
40
1
40
1
40
1
41
1
10
33.9982901307544
20
-0.125000668303699
30
0
41
1
10
33.9980186194119
20
-0.125001758775625
30
0
41
1
10
33.9977530422484
20
-0.124799955935401
30
0
41
1
10
33.9970679032496
20
-0.123723726538458
30
0
41
1
10
33.9966638048539
20
-0.122475831377443
30
0
41
1
10
33.9959526026519
20
-0.118932104481161
30
0
41
1
10
33.9956417894314
20
-0.116634499955921
30
0
41
1
10
33.9951267211832
20
-0.110977898541591
30
0
41
1
10
33.9949226519973
20
-0.107600495465476
30
0
41
1
10
33.9947830431177
20
-0.103747277911282
30
0
0
SPLINE
5
F0
100
AcDbEntity
8
1
62
256
6
ByLayer
370
18
48
1
60
0
100
AcDbSpline
70
4
71
3
72
8
73
4
40
0
40
0
40
0
40
0
40
1
40
1
40
1
40
1
41
1
10
33.9973499521392
20
-0.0432670492261025
30
0
41
1
10
33.9982725928289
20
-0.046313558171903
30
0
41
1
10
33.9990657772107
20
-0.0493629626722338
30
0
41
1
10
33.9997274547724
20
-0.052415308591037
30
0
0
SPLINE
5
F1
100
AcDbEntity
8
1
62
256
6
ByLayer
370
18
48
1
60
0
100
AcDbSpline
70
4
71
3
72
14
73
10
40
0
40
0
40
0
40
0
40
0.25
40
0.25
40
0.5
40
0.5
40
0.75
40
0.75
40
1
40
1
40
1
40
1
41
1
10
33.9997274547724
20
-0.052415308591037
30
0
41
1
10
33.9991902187441
20
-0.0451940328803744
30
0
41
1
10
33.9986516031602
20
-0.0377436359651142
30
0
41
1
10
33.9976142263765
20
-0.0223896984237513
30
0
41
1
10
33.9971114907305
20
-0.0144075758052793
30
0
41
1
10
33.9962236706523
20
0.0014189645002887
30
0
41
1
10
33.9958344111887
20
0.0093118503869505
30
0
41
1
10
33.9951943356628
20
0.0250578603353517
30
0
41
1
10
33.994945178702
20
0.0329070204467143
30
0
41
1
10
33.9947830431178
20
0.0404968991175565
30
0
0
SPLINE
5
F2
100
AcDbEntity
8
1
62
256
6
ByLayer
370
18
48
1
60
0
100
AcDbSpline
70
4
71
3
72
8
73
4
40
0
40
0
40
0
40
0
40
1
40
1
40
1
40
1
41
1
10
33.9619674504339
20
0.158676590191931
30
0
41
1
10
33.9736227708651
20
0.148565544864709
30
0
41
1
10
33.9852929840197
20
0.13847175687053
30
0
41
1
10
33.9969746298099
20
0.128391216742216
30
0
0
SPLINE
5
F3
100
AcDbEntity
8
1
62
256
6
ByLayer
370
18
48
1
60
0
100
AcDbSpline
70
4
71
3
72
20
73
16
40
0
40
0
40
0
40
0
40
0.25
40
0.25
40
0.375
40
0.375
40
0.5
40
0.5
40
0.625
40
0.625
40
0.75
40
0.75
40
0.875
40
0.875
40
1
40
1
40
1
40
1
41
1
10
33.9784599665867
20
0.252947416354203
30
0
41
1
10
33.9807751472257
20
0.239668706017682
30
0
41
1
10
33.9828736449983
20
0.226726324144636
30
0
41
1
10
33.985735475812
20
0.207915549748037
30
0
41
1
10
33.9866418451603
20
0.201746804980246
30
0
41
1
10
33.9883676910831
20
0.189648444355782
30
0
41
1
10
33.989191417848
20
0.1836863373737
30
0
41
1
10
33.9907420579571
20
0.172213226175273
30
0
41
1
10
33.9914631768017
20
0.166747001919532
30
0
41
1
10
33.9928144933376
20
0.156452618622552
30
0
41
1
10
33.9934496567014
20
0.151585589907427
30
0
41
1
10
33.994620653124
20
0.142860266398657
30
0
41
1
10
33.9951540995836
20
0.1390187839541
30
0
41
1
10
33.9961367554731
20
0.13259862238786
30
0
41
1
10
33.9965853216256
20
0.130040309331889
30
0
41
1
10
33.9969746298098
20
0.128391216741505
30
0
0
SPLINE
5
F4
100
AcDbEntity
8
1
62
256
6
ByLayer
370
18
48
1
60
0
100
AcDbSpline
70
4
71
3
72
8
73
4
40
0
40
0
40
0
40
0
40
1
40
1
40
1
40
1
41
1
10
33.9746028051635
20
0.27322376999723
30
0
41
1
10
33.9758713056139
20
0.266425152266265
30
0
41
1
10
33.977157064177
20
0.259666528803706
30
0
41
1
10
33.9784599665867
20
0.252947416354232
30
0
0
SPLINE
5
F5
100
AcDbEntity
8
1
62
256
6
ByLayer
370
13
48
1
60
0
100
AcDbSpline
70
4
71
3
72
8
73
4
40
0
40
0
40
0
40
0
40
1
40
1
40
1
40
1
41
1
10
33.8752193464311
20
0.358591112465035
30
0
41
1
10
33.908226659548
20
0.330153328880641
30
0
41
1
10
33.9413581738131
20
0.301690757843545
30
0
41
1
10
33.9746028051634
20
0.273223770003511
30
0
0
SPLINE
5
F6
100
AcDbEntity
8
1
62
256
6
ByLayer
370
18
48
1
60
0
100
AcDbSpline
70
4
71
3
72
37
73
33
40
0
40
0
40
0
40
0
40
0.003758604792992
40
0.0075345451579631
40
0.015093919548415
40
0.0307289656713944
40
0.048265216531383
40
0.0506460693485516
40
0.0525519960364218
40
0.0534502477932366
40
0.0567625618021266
40
0.0649702677428368
40
0.0888652946280213
40
0.107227374114175
40
0.118824946748113
40
0.121159863623205
40
0.123444954550402
40
0.124948917333029
40
0.126274167576543
40
0.127615387830772
40
0.13486868633513
40
0.161762527607163
40
0.181795914713893
40
0.248731676503413
40
0.423987220630295
40
0.549349813507393
40
0.629589720687161
40
0.71021131808218
40
0.806183964033529
40
0.899738115190756
40
0.989161430488277
40
1
40
1
40
1
40
1
41
1
10
32.4999999753565
20
-1.47670411375401
30
0
41
1
10
32.5018890236773
20
-1.47673285589272
30
0
41
1
10
32.5056858768681
20
-1.47678857684505
30
0
41
1
10
32.5132277831959
20
-1.47688966130619
30
0
41
1
10
32.5267296805511
20
-1.47704725982138
30
0
41
1
10
32.5470340521813
20
-1.47720672802768
30
0
41
1
10
32.5647587918378
20
-1.47725815160263
30
0
41
1
10
32.5756646513254
20
-1.47725819844422
30
0
41
1
10
32.578203544398
20
-1.47725205486333
30
0
41
1
10
32.5813524552485
20
-1.47725109992277
30
0
41
1
10
32.5877455095707
20
-1.47718893665424
30
0
41
1
10
32.6060028869384
20
-1.47654859720387
30
0
41
1
10
32.6317511292169
20
-1.47413650546596
30
0
41
1
10
32.6590746025426
20
-1.47036941377797
30
0
41
1
10
32.675369026236
20
-1.46799208072531
30
0
41
1
10
32.6835650499666
20
-1.46675839213077
30
0
41
1
10
32.6866368123208
20
-1.46626954325447
30
0
41
1
10
32.6893789758485
20
-1.46587562763821
30
0
41
1
10
32.6915729936534
20
-1.4655397405534
30
0
41
1
10
32.6967909935422
20
-1.46471677440351
30
0
41
1
10
32.7154506264401
20
-1.46164497287037
30
0
41
1
10
32.7438183094173
20
-1.45637667294426
30
0
41
1
10
32.8029082026233
20
-1.44351858563991
30
0
41
1
10
32.9368773569357
20
-1.40640380461446
30
0
41
1
10
33.1181513108764
20
-1.32775368707968
30
0
41
1
10
33.2935457739628
20
-1.21752653484589
30
0
41
1
10
33.4176749240424
20
-1.12119893673261
30
0
41
1
10
33.5230517208659
20
-1.02596459457919
30
0
41
1
10
33.625917023824
20
-0.915777816656828
30
0
41
1
10
33.7223306153453
20
-0.791592025024869
30
0
41
1
10
33.7816374911951
20
-0.698035629159591
30
0
41
1
10
33.8098219050275
20
-0.647586497440983
30
0
41
1
10
33.8128386913021
20
-0.642108725755179
30
0
0
SPLINE
5
F7
100
AcDbEntity
8
1
62
256
6
ByLayer
370
18
48
1
60
0
100
AcDbSpline
70
4
71
3
72
27
73
23
40
0
40
0
40
0
40
0
40
0.124999999999966
40
0.249999999999931
40
0.249999999999931
40
0.312499999999932
40
0.312499999999932
40
0.374999999999932
40
0.374999999999932
40
0.499999999999967
40
0.499999999999967
40
0.562499999999968
40
0.562499999999968
40
0.624999999999969
40
0.624999999999969
40
0.749999999999971
40
0.749999999999971
40
0.874999999999974
40
0.874999999999974
40
0.937499999999987
40
0.937499999999987
40
1
40
1
40
1
40
1
41
1
10
33.0665767598434
20
-1.30047053751659
30
0
41
1
10
33.0973653408971
20
-1.28922093408664
30
0
41
1
10
33.1592182208329
20
-1.26292637137689
30
0
41
1
10
33.2216204687264
20
-1.22906955958965
30
0
41
1
10
33.2686379390459
20
-1.20070660027361
30
0
41
1
10
33.2844013106299
20
-1.19071759609568
30
0
41
1
10
33.3157451293985
20
-1.16985760623831
30
0
41
1
10
33.3312482030183
20
-1.15904170057502
30
0
41
1
10
33.3772541308894
20
-1.12544359836875
30
0
41
1
10
33.4072562198634
20
-1.10151679424072
30
0
41
1
10
33.4512597330767
20
-1.06334173930702
30
0
41
1
10
33.4657613009174
20
-1.05023667510864
30
0
41
1
10
33.4944197995971
20
-1.02323880413991
30
0
41
1
10
33.508624368121
20
-1.00929543759185
30
0
41
1
10
33.5503540980138
20
-0.966560626237538
30
0
41
1
10
33.5766812261308
20
-0.937205473378327
30
0
41
1
10
33.6264530636805
20
-0.876824296787248
30
0
41
1
10
33.6499126586724
20
-0.84580690186678
30
0
41
1
10
33.6828902140855
20
-0.797998659129604
30
0
41
1
10
33.6935357639191
20
-0.781798934197695
30
0
41
1
10
33.7137142288602
20
-0.749509507792908
30
0
41
1
10
33.7232911713987
20
-0.733360521225052
30
0
41
1
10
33.7323690230976
20
-0.717207371395659
30
0
0
SPLINE
5
F8
100
AcDbEntity
8
1
62
256
6
ByLayer
370
18
48
1
60
0
100
AcDbSpline
70
4
71
3
72
14
73
10
40
0
40
0
40
0
40
0
40
0.102449312696069
40
0.102449312696069
40
0.23067083945378
40
0.23067083945378
40
0.487113892969179
40
0.487113892969179
40
1
40
1
40
1
40
1
41
1
10
30.9787369129082
20
-1.28495603053713
30
0
41
1
10
30.9293408282845
20
-1.2966287365158
30
0
41
1
10
30.8798964940746
20
-1.30762439370486
30
0
41
1
10
30.7687151094315
20
-1.33076482372252
30
0
41
1
10
30.7070267725831
20
-1.34250310435823
30
0
41
1
10
30.522177712782
20
-1.37432192050457
30
0
41
1
10
30.3992309230912
20
-1.39100953431816
30
0
41
1
10
30.030325754392
20
-1.42723365439343
30
0
41
1
10
29.7843028545061
20
-1.4330146497264
30
0
41
1
10
29.5360603628551
20
-1.41872207417362
30
0
0
SPLINE
5
F9
100
AcDbEntity
8
1
62
256
6
ByLayer
370
18
48
1
60
0
100
AcDbSpline
70
4
71
3
72
12
73
8
40
0
40
0
40
0
40
0
40
0.5
40
0.5
40
0.75
40
0.75
40
1
40
1
40
1
40
1
41
1
10
33.2560181277493
20
-0.821212557546147
30
0
41
1
10
33.3303842647421
20
-0.816589904284172
30
0
41
1
10
33.4075797446804
20
-0.804811594795694
30
0
41
1
10
33.5268717787367
20
-0.778295323001657
30
0
41
1
10
33.567221895053
20
-0.767974254925889
30
0
41
1
10
33.649003541772
20
-0.744597127792332
30
0
41
1
10
33.6904684264302
20
-0.731529037971399
30
0
41
1
10
33.7323690230973
20
-0.717207371396256
30
0
0
SPLINE
5
FA
100
AcDbEntity
8
1
62
256
6
ByLayer
370
18
48
1
60
0
100
AcDbSpline
70
4
71
3
72
10
73
6
40
0
40
0
40
0
40
0
40
0.548170868441128
40
0.548170868441128
40
1
40
1
40
1
40
1
41
1
10
33.7323690230973
20
-0.717207371396285
30
0
41
1
10
33.7549859108994
20
-0.680337257746146
30
0
41
1
10
33.7767365422943
20
-0.642506097341766
30
0
41
1
10
33.8147834053856
20
-0.571740908793601
30
0
41
1
10
33.8312530260317
20
-0.539321259314818
30
0
41
1
10
33.8469891996136
20
-0.506489477384577
30
0
0
SPLINE
5
FB
100
AcDbEntity
8
1
62
256
6
ByLayer
370
18
48
1
60
0
100
AcDbSpline
70
4
71
3
72
8
73
4
40
0
40
0
40
0
40
0
40
1
40
1
40
1
40
1
41
1
10
29.7417947677257
20
-0.799418481830315
30
0
41
1
10
29.6611965118171
20
-0.782516234526184
30
0
41
1
10
29.5805982559086
20
-0.764359800546089
30
0
41
1
10
29.5
20
-0.744967153992661
30
0
0
SPLINE
5
FC
100
AcDbEntity
8
1
62
256
6
ByLayer
370
18
48
1
60
0
100
AcDbSpline
70
4
71
3
72
12
73
8
40
0
40
0
40
0
40
0
40
0.447552280272427
40
0.447552280272427
40
0.895104560544853
40
0.895104560544853
40
1
40
1
40
1
40
1
41
1
10
32.5
20
1.33621749613499
30
0
41
1
10
32.3761942981546
20
1.36005548865907
30
0
41
1
10
32.2526679811737
20
1.3794484529837
30
0
41
1
10
32.0057131078778
20
1.40876824063838
30
0
41
1
10
31.8822850519613
20
1.41869225483512
30
0
41
1
10
31.7296493085282
20
1.42463444533834
30
0
41
1
10
31.7006537602376
20
1.42548053726421
30
0
41
1
10
31.6716642003442
20
1.42604695012602
30
0
0
SPLINE
5
FD
100
AcDbEntity
8
1
62
256
6
ByLayer
370
18
48
1
60
0
100
AcDbSpline
70
4
71
3
72
20
73
16
40
0
40
0
40
0
40
0
40
0.25
40
0.25
40
0.375
40
0.375
40
0.5
40
0.5
40
0.625
40
0.625
40
0.75
40
0.75
40
0.875
40
0.875
40
1
40
1
40
1
40
1
41
1
10
33.9784599665817
20
0.0885856404160563
30
0
41
1
10
33.9808726494951
20
0.0819132035260566
30
0
41
1
10
33.9830499591709
20
0.0743112162476223
30
0
41
1
10
33.9860073776537
20
0.0612698456345413
30
0
41
1
10
33.9869418525507
20
0.0566468884825042
30
0
41
1
10
33.988717693997
20
0.0467542794459348
30
0
41
1
10
33.9895647911184
20
0.0414419122255367
30
0
41
1
10
33.991143188441
20
0.0302665838095493
30
0
41
1
10
33.9918751314846
20
0.0244121602381711
30
0
41
1
10
33.9932442516243
20
0.0120663662082734
30
0
41
1
10
33.993885819452
20
0.0055161569040934
30
0
41
1
10
33.9950524661493
20
-0.0079034975592549
30
0
41
1
10
33.9955825810759
20
-0.0148039107002944
30
0
41
1
10
33.9965554810965
20
-0.0290826117814618
30
0
41
1
10
33.9969816910802
20
-0.0362157700977548
30
0
41
1
10
33.997349952139
20
-0.0432670492217255
30
0
0
SPLINE
5
FE
100
AcDbEntity
8
1
62
256
6
ByLayer
370
18
48
1
60
0
100
AcDbSpline
70
4
71
3
72
16
73
12
40
0
40
0
40
0
40
0
40
0.250000000000006
40
0.250000000000006
40
0.500000000000012
40
0.500000000000012
40
0.750000000000018
40
0.750000000000018
40
0.875000000000009
40
0.875000000000009
40
1
40
1
40
1
40
1
41
1
10
33.9784599665768
20
-0.206172021458428
30
0
41
1
10
33.9806759757421
20
-0.196773000220532
30
0
41
1
10
33.9826935118624
20
-0.188137980562459
30
0
41
1
10
33.9863771061749
20
-0.172645651753896
30
0
41
1
10
33.9880431093981
20
-0.165772724593523
30
0
41
1
10
33.991083662791
20
-0.154500904847993
30
0
41
1
10
33.9923998446702
20
-0.150302672497645
30
0
41
1
10
33.994159753232
20
-0.147102576627219
30
0
41
1
10
33.9946963941484
20
-0.14659193382596
30
0
41
1
10
33.9956871524653
20
-0.146871863176841
30
0
41
1
10
33.9961469731059
20
-0.14768413286626
30
0
41
1
10
33.9965553359174
20
-0.149262144012482
30
0
0
SPLINE
5
FF
100
AcDbEntity
8
1
62
256
6
ByLayer
370
18
48
1
60
0
100
AcDbSpline
70
4
71
3
72
31
73
27
40
0
40
0
40
0
40
0
40
0.124999999999968
40
0.249999999999936
40
0.249999999999936
40
0.281249999999936
40
0.281249999999936
40
0.312499999999936
40
0.312499999999936
40
0.374999999999967
40
0.374999999999967
40
0.499999999999997
40
0.499999999999997
40
0.562499999999998
40
0.562499999999998
40
0.624999999999998
40
0.624999999999998
40
0.749999999999999
40
0.749999999999999
40
0.812499999999999
40
0.812499999999999
40
0.843749999999999
40
0.843749999999999
40
0.874999999999999
40
0.874999999999999
40
1
40
1
40
1
40
1
41
1
10
33.0462802419299
20
1.17417463953097
30
0
41
1
10
33.0798210835698
20
1.15018599770343
30
0
41
1
10
33.1472333709198
20
1.10107853254806
30
0
41
1
10
33.2152983334298
20
1.04973987468077
30
0
41
1
10
33.2580524022719
20
1.01692346822236
30
0
41
1
10
33.2666139614238
20
1.01032345346451
30
0
41
1
10
33.2837592208102
20
0.9970477338872
30
0
41
1
10
33.2923633327317
20
0.990356026419306
30
0
41
1
10
33.3180136346491
20
0.970317179133843
30
0
41
1
10
33.3349126872135
20
0.95699551529259
30
0
41
1
10
33.3850106910184
20
0.9171424251698
30
0
41
1
10
33.4176143651418
20
0.890722176241297
30
0
41
1
10
33.4653259775395
20
0.851314782203474
30
0
41
1
10
33.4810306538837
20
0.838216186884949
30
0
41
1
10
33.512020207975
20
0.812097400230243
30
0
41
1
10
33.5273335424432
20
0.799051134189256
30
0
41
1
10
33.5717255219016
20
0.760801813749396
30
0
41
1
10
33.5995606159827
20
0.736235328113224
30
0
41
1
10
33.6387541449957
20
0.700742649180114
30
0
41
1
10
33.651393851184
20
0.689137021585623
30
0
41
1
10
33.6696956527624
20
0.672077376855242
30
0
41
1
10
33.6756863027491
20
0.666449133336215
30
0
41
1
10
33.6874427392684
20
0.655311887202288
30
0
41
1
10
33.693205952186
20
0.649805024930885
30
0
41
1
10
33.7211819211914
20
0.622834384350739
30
0
41
1
10
33.7411108901926
20
0.602840072197665
30
0
41
1
10
33.7587269904577
20
0.584338301187842
30
0
0
SPLINE
5
100
100
AcDbEntity
8
1
62
256
6
ByLayer
370
18
48
1
60
0
100
AcDbSpline
70
4
71
3
72
38
73
34
40
0
40
0
40
0
40
0
40
0.125000000000197
40
0.125000000000197
40
0.156250000000277
40
0.156250000000277
40
0.187500000000357
40
0.187500000000357
40
0.250000000000453
40
0.250000000000453
40
0.281250000000501
40
0.281250000000501
40
0.296875000000557
40
0.296875000000557
40
0.304687500000586
40
0.304687500000586
40
0.312500000000614
40
0.312500000000614
40
0.328125000000606
40
0.328125000000606
40
0.343750000000598
40
0.343750000000598
40
0.375000000000582
40
0.375000000000582
40
0.500000000000518
40
0.500000000000518
40
0.562500000000453
40
0.562500000000453
40
0.625000000000388
40
0.625000000000388
40
0.750000000000259
40
0.750000000000259
40
1
40
1
40
1
40
1
41
1
10
32.4999999772358
20
1.33621749788509
30
0
41
1
10
32.5217737544936
20
1.3320032849511
30
0
41
1
10
32.543521179264
20
1.3276812642506
30
0
41
1
10
32.5706600161878
20
1.32216388299076
30
0
41
1
10
32.5760716783191
20
1.32108081731232
30
0
41
1
10
32.5869977883728
20
1.31869828348016
30
0
41
1
10
32.5925012260561
20
1.31742112571746
30
0
41
1
10
32.6091017954607
20
1.31340411017374
30
0
41
1
10
32.6203076777644
20
1.31044611451705
30
0
41
1
10
32.6371717673233
20
1.30590052177817
30
0
41
1
10
32.6427918191107
20
1.30438561198116
30
0
41
1
10
32.6512099481658
20
1.30213073103107
30
0
41
1
10
32.6540164216372
20
1.30137768434332
30
0
41
1
10
32.6582344682232
20
1.30023267968102
30
0
41
1
10
32.6596397627908
20
1.2998521091225
30
0
41
1
10
32.6624723966194
20
1.29905239353786
30
0
41
1
10
32.6638992732415
20
1.29863421479703
30
0
41
1
10
32.6680765988764
20
1.29755848381828
30
0
41
1
10
32.6709157790871
20
1.29674652991159
30
0
41
1
10
32.6765752450872
20
1.29515532701589
30
0
41
1
10
32.6794075655166
20
1.29435506653468
30
0
41
1
10
32.6879010486399
20
1.29195960338603
30
0
41
1
10
32.6935633403007
20
1.29036171653533
30
0
41
1
10
32.7219135807786
20
1.28230374537571
30
0
41
1
10
32.7447773359875
20
1.27553929518453
30
0
41
1
10
32.7794222769576
20
1.26490149763254
30
0
41
1
10
32.7910262686234
20
1.26127789841789
30
0
41
1
10
32.8143472401936
20
1.25388931427099
30
0
41
1
10
32.8260897108221
20
1.25011673151783
30
0
41
1
10
32.8613009529077
20
1.23865880502916
30
0
41
1
10
32.8846607484584
20
1.23086430969607
30
0
41
1
10
32.9544288485073
20
1.20711066096607
30
0
41
1
10
33.0005290955858
20
1.19078909312353
30
0
41
1
10
33.0462802419285
20
1.17417463952549
30
0
0
SPLINE
5
101
100
AcDbEntity
8
1
62
256
6
ByLayer
370
18
48
1
60
0
100
AcDbSpline
70
4
71
3
72
10
73
6
40
0
40
0
40
0
40
0
40
0.706339646620306
40
0.706339646620306
40
1
40
1
40
1
40
1
41
1
10
33.7587269904578
20
0.584338301187842
30
0
41
1
10
33.7962300617905
20
0.518201855722225
30
0
41
1
10
33.8311368129418
20
0.452372079967091
30
0
41
1
10
33.8766577615918
20
0.359538071829178
30
0
41
1
10
33.8895022044718
20
0.332420526944247
30
0
41
1
10
33.9018218634892
20
0.305434581160568
30
0
0
SPLINE
5
102
100
AcDbEntity
8
1
62
256
6
ByLayer
370
18
48
1
60
0
100
AcDbSpline
70
4
71
3
72
12
73
8
40
0
40
0
40
0
40
0
40
0.5
40
0.5
40
0.75
40
0.75
40
1
40
1
40
1
40
1
41
1
10
29.4999999999999
20
1.2474035737107
30
0
41
1
10
29.4601197552707
20
1.26318328352366
30
0
41
1
10
29.420507796016
20
1.27908671057827
30
0
41
1
10
29.3613919923393
20
1.30284180763977
30
0
41
1
10
29.3417091288162
20
1.31075392232415
30
0
41
1
10
29.3026986557773
20
1.32637654448226
30
0
41
1
10
29.2833438464553
20
1.33409802912047
30
0
41
1
10
29.2641295496983
20
1.3416987412692
30
0
0
SPLINE
5
103
100
AcDbEntity
8
1
62
256
6
ByLayer
370
18
48
1
60
0
100
AcDbSpline
70
4
71
3
72
16
73
12
40
0
40
0
40
0
40
0
40
0.250000000000016
40
0.250000000000016
40
0.500000000000033
40
0.500000000000033
40
0.625000000000024
40
0.625000000000024
40
0.750000000000016
40
0.750000000000016
40
1
40
1
40
1
40
1
41
1
10
33.2560181277492
20
-0.821212557546147
30
0
41
1
10
33.2575722353956
20
-0.825608090137649
30
0
41
1
10
33.2587153046906
20
-0.830364476854754
30
0
41
1
10
33.2598987147666
20
-0.840448477148442
30
0
41
1
10
33.2599527347562
20
-0.845792922783232
30
0
41
1
10
33.2590348777885
20
-0.854371460777003
30
0
41
1
10
33.2585561208384
20
-0.857346671286052
30
0
41
1
10
33.2572477209444
20
-0.863382942752139
30
0
41
1
10
33.256421141991
20
-0.866442507158979
30
0
41
1
10
33.2534144704387
20
-0.875747841123058
30
0
41
1
10
33.2506792371321
20
-0.882172649913485
30
0
41
1
10
33.2472750593292
20
-0.888636162248673
30
0
0
SPLINE
5
104
100
AcDbEntity
8
1
62
256
6
ByLayer
370
18
48
1
60
0
100
AcDbSpline
70
4
71
3
72
8
73
4
40
0
40
0
40
0
40
0
40
1
40
1
40
1
40
1
41
1
10
33.2373750177851
20
-0.80759684073135
30
0
41
1
10
33.2436490611675
20
-0.811947303012573
30
0
41
1
10
33.2498668012437
20
-0.816480011650128
30
0
41
1
10
33.2560181277493
20
-0.821212557546147
30
0
0
SPLINE
5
105
100
AcDbEntity
8
1
62
256
6
ByLayer
370
18
48
1
60
0
100
AcDbSpline
70
4
71
3
72
8
73
4
40
0
40
0
40
0
40
0
40
1
40
1
40
1
40
1
41
1
10
33.9746028051638
20
0.0975891978319794
30
0
41
1
10
33.9758713056128
20
0.0948205941758999
30
0
41
1
10
33.9771570641735
20
0.0918184275764418
30
0
41
1
10
33.9784599665817
20
0.0885856404160563
30
0
0
SPLINE
5
106
100
AcDbEntity
8
1
62
256
6
ByLayer
370
18
48
1
60
0
100
AcDbSpline
70
4
71
3
72
9
73
5
40
0
40
0
40
0
40
0
40
0.597068593305765
40
1
40
1
40
1
40
1
41
1
10
33.9784599665816
20
0.0885856404160563
30
0
41
1
10
33.9826840421763
20
0.0787813534070381
30
0
41
1
10
33.9888378781049
20
0.0625706823499854
30
0
41
1
10
33.9932901210663
20
0.0467844617089668
30
0
41
1
10
33.9947830431177
20
0.0404968991178407
30
0
0
SPLINE
5
107
100
AcDbEntity
8
1
62
256
6
ByLayer
370
18
48
1
60
0
100
AcDbSpline
70
4
71
3
72
8
73
4
40
0
40
0
40
0
40
0
40
1
40
1
40
1
40
1
41
1
10
33.9947830431178
20
0.0404968991178407
30
0
41
1
10
33.9959074555041
20
0.0357613449404823
30
0
41
1
10
33.9968611096546
20
0.0310673145492615
30
0
41
1
10
33.9976334244772
20
0.0264166409452855
30
0
0
SPLINE
5
108
100
AcDbEntity
8
1
62
256
6
ByLayer
370
18
48
1
60
0
100
AcDbSpline
70
4
71
3
72
12
73
8
40
0
40
0
40
0
40
0
40
0.563696867002465
40
0.563696867002465
40
0.89956014920313
40
0.89956014920313
40
1
40
1
40
1
40
1
41
1
10
33.9708829618004
20
0.136479188590044
30
0
41
1
10
33.9748523831012
20
0.119715630670868
30
0
41
1
10
33.9788705216691
20
0.102963547987514
30
0
41
1
10
33.9853527012947
20
0.0762472602761193
30
0
41
1
10
33.9877884970462
20
0.0662761161048309
30
0
41
1
10
33.9909717540534
20
0.0533277997332107
30
0
41
1
10
33.991705871886
20
0.0503473333598095
30
0
41
1
10
33.9924412779726
20
0.0473671844840169
30
0
0
SPLINE
5
109
100
AcDbEntity
8
1
62
256
6
ByLayer
370
18
48
1
60
0
100
AcDbSpline
70
4
71
3
72
23
73
19
40
0
40
0
40
0
40
0
40
0.124999999999999
40
0.124999999999999
40
0.249999999999997
40
0.249999999999997
40
0.312500000000004
40
0.312500000000004
40
0.37500000000001
40
0.37500000000001
40
0.500000000000006
40
0.500000000000006
40
0.562500000000014
40
0.562500000000014
40
0.625000000000022
40
0.750000000000015
40
0.750000000000015
40
1
40
1
40
1
40
1
41
1
10
33.9746028051604
20
0.0975891978320647
30
0
41
1
10
33.9669797246148
20
0.114227180644491
30
0
41
1
10
33.957627958448
20
0.131663550580924
30
0
41
1
10
33.9355515755161
20
0.168008356472285
30
0
41
1
10
33.9228871389344
20
0.186806164558419
30
0
41
1
10
33.9014409967638
20
0.215919504904065
30
0
41
1
10
33.8938844274773
20
0.225777138113301
30
0
41
1
10
33.8779524396094
20
0.245799519004237
30
0
41
1
10
33.8695763450321
20
0.255963872672936
30
0
41
1
10
33.8433623976024
20
0.28675773344176
30
0
41
1
10
33.8244121232357
20
0.307742121586244
30
0
41
1
10
33.7937475876043
20
0.33989108234465
30
0
41
1
10
33.7831328208883
20
0.350737966089668
30
0
41
1
10
33.7612320331995
20
0.372568067790581
30
0
41
1
10
33.7274433930631
20
0.405450720359113
30
0
41
1
10
33.6909069157921
20
0.438739103803471
30
0
41
1
10
33.6143227195234
20
0.505878952583146
30
0
41
1
10
33.558575365318
20
0.551362848726228
30
0
41
1
10
33.4978344198787
20
0.597610185899725
30
0
0
SPLINE
5
10A
100
AcDbEntity
8
1
62
256
6
ByLayer
370
18
48
1
60
0
100
AcDbSpline
70
4
71
3
72
8
73
4
40
0
40
0
40
0
40
0
40
1
40
1
40
1
40
1
41
1
10
33.4978344198645
20
0.597610185910554
30
0
41
1
10
33.3624707393888
20
0.700504521085179
30
0
41
1
10
33.2072763452617
20
0.803972587041699
30
0
41
1
10
33.0436252231355
20
0.900429257803438
30
0
0
SPLINE
5
10B
100
AcDbEntity
8
1
62
256
6
ByLayer
370
18
48
1
60
0
100
AcDbSpline
70
4
71
3
72
8
73
4
40
0
40
0
40
0
40
0
40
1
40
1
40
1
40
1
41
1
10
33.0436252234339
20
0.900429257628076
30
0
41
1
10
32.9760100487852
20
0.940286248250345
30
0
41
1
10
32.9080776612683
20
0.978369371923549
30
0
41
1
10
32.8394872423107
20
1.01422833888501
30
0
0
SPLINE
5
10C
100
AcDbEntity
8
1
62
256
6
ByLayer
370
18
48
1
60
0
100
AcDbSpline
70
4
71
3
72
8
73
4
40
0
40
0
40
0
40
0
40
1
40
1
40
1
40
1
41
1
10
32.8029866852919
20
-0.744223875035487
30
0
41
1
10
32.8062642140374
20
-0.744773696973652
30
0
41
1
10
32.8095182468198
20
-0.74538326428015
30
0
41
1
10
32.8127496002373
20
-0.74604962652873
30
0
0
SPLINE
5
10D
100
AcDbEntity
8
1
62
256
6
ByLayer
370
18
48
1
60
0
100
AcDbSpline
70
4
71
3
72
11
73
7
40
0
40
0
40
0
40
0
40
0.0884768282797131
40
0.49060472708489
40
0.790152262299105
40
1
40
1
40
1
40
1
41
1
10
32.7017748836192
20
-0.704268345814256
30
0
41
1
10
32.7050868624002
20
-0.705669787107894
30
0
41
1
10
32.7234596606969
20
-0.713372266073065
30
0
41
1
10
32.7528774198883
20
-0.724999865195088
30
0
41
1
10
32.7864621432869
20
-0.737195420955345
30
0
41
1
10
32.805095538193
20
-0.743523664678975
30
0
41
1
10
32.8127496002378
20
-0.746049626528901
30
0
0
SPLINE
5
10E
100
AcDbEntity
8
1
62
256
6
ByLayer
370
18
48
1
60
0
100
AcDbSpline
70
4
71
3
72
8
73
4
40
0
40
0
40
0
40
0
40
1
40
1
40
1
40
1
41
1
10
32.8127496002382
20
-0.746049626528929
30
0
41
1
10
32.821853638397
20
-0.747840023189895
30
0
41
1
10
32.8307667986275
20
-0.750091893628138
30
0
41
1
10
32.8394872421197
20
-0.752808101580513
30
0
0
SPLINE
5
10F
100
AcDbEntity
8
1
62
256
6
ByLayer
370
18
48
1
60
0
100
AcDbSpline
70
4
71
3
72
8
73
4
40
0
40
0
40
0
40
0
40
1
40
1
40
1
40
1
41
1
10
33.0436252223722
20
-0.799948139967
30
0
41
1
10
32.976010048068
20
-0.790232302080909
30
0
41
1
10
32.9080776609032
20
-0.774172363809754
30
0
41
1
10
32.8394872423096
20
-0.752808101639687
30
0
0
SPLINE
5
110
100
AcDbEntity
8
1
62
256
6
ByLayer
370
18
48
1
60
0
100
AcDbSpline
70
4
71
3
72
8
73
4
40
0
40
0
40
0
40
0
40
1
40
1
40
1
40
1
41
1
10
33.4978344204097
20
-0.760168234110125
30
0
41
1
10
33.3624707395953
20
-0.808410617893202
30
0
41
1
10
33.2072763449991
20
-0.823470221142458
30
0
41
1
10
33.0436252223724
20
-0.799948139967029
30
0
0
SPLINE
5
111
100
AcDbEntity
8
1
62
256
6
ByLayer
370
18
48
1
60
0
100
AcDbSpline
70
4
71
3
72
23
73
19
40
0
40
0
40
0
40
0
40
0.124999999999998
40
0.124999999999998
40
0.249999999999996
40
0.249999999999996
40
0.312499999999988
40
0.312499999999988
40
0.37499999999998
40
0.37499999999998
40
0.499999999999981
40
0.499999999999981
40
0.562499999999972
40
0.562499999999972
40
0.624999999999962
40
0.749999999999966
40
0.749999999999966
40
1
40
1
40
1
40
1
41
1
10
33.9746028051599
20
-0.221609342505303
30
0
41
1
10
33.9669797246201
20
-0.253576521752763
30
0
41
1
10
33.9576279584617
20
-0.284723234972887
30
0
41
1
10
33.9355515755512
20
-0.345145582134961
30
0
41
1
10
33.9228871389828
20
-0.374241990750505
30
0
41
1
10
33.9014409968357
20
-0.416227654556991
30
0
41
1
10
33.8938844275576
20
-0.429946204225075
30
0
41
1
10
33.8779524397077
20
-0.456828178157394
30
0
41
1
10
33.8695763451398
20
-0.469989404728722
30
0
41
1
10
33.8433623977397
20
-0.50843762982791
30
0
41
1
10
33.8244121233948
20
-0.532768448719992
30
0
41
1
10
33.7937475878
20
-0.567305622209602
30
0
41
1
10
33.7831328210972
20
-0.578508677791348
30
0
41
1
10
33.7612320334333
20
-0.600164229244029
30
0
41
1
10
33.7274433933353
20
-0.631459098065562
30
0
41
1
10
33.6909069161051
20
-0.659267170972356
30
0
41
1
10
33.614322719922
20
-0.710374210088844
30
0
41
1
10
33.5585753657803
20
-0.738455149048264
30
0
41
1
10
33.4978344204097
20
-0.760168234110125
30
0
0
SPLINE
5
112
100
AcDbEntity
8
1
62
256
6
ByLayer
370
18
48
1
60
0
100
AcDbSpline
70
4
71
3
72
8
73
4
40
0
40
0
40
0
40
0
40
1
40
1
40
1
40
1
41
1
10
33.9746028051638
20
-0.221609342504848
30
0
41
1
10
33.9758713056109
20
-0.216289920657829
30
0
41
1
10
33.9771570641692
20
-0.211144872253129
30
0
41
1
10
33.9784599665753
20
-0.206172021460162
30
0
0
SPLINE
5
113
100
AcDbEntity
8
1
62
256
6
ByLayer
370
18
48
1
60
0
100
AcDbSpline
70
4
71
3
72
9
73
5
40
0
40
0
40
0
40
0
40
0.597068592942845
40
1
40
1
40
1
40
1
41
1
10
33.9784599665838
20
-0.206172021427875
30
0
41
1
10
33.9826840421751
20
-0.186832901027003
30
0
41
1
10
33.9888378781034
20
-0.153427052200982
30
0
41
1
10
33.993290121065
20
-0.118243324693623
30
0
41
1
10
33.9947830431177
20
-0.103747277912078
30
0
0
SPLINE
5
114
100
AcDbEntity
8
1
62
256
6
ByLayer
370
18
48
1
60
0
100
AcDbSpline
70
4
71
3
72
8
73
4
40
0
40
0
40
0
40
0
40
1
40
1
40
1
40
1
41
1
10
33.9947830431177
20
-0.103747277912049
30
0
41
1
10
33.995907455504
20
-0.092829404118703
30
0
41
1
10
33.9968611096545
20
-0.0817303394614157
30
0
41
1
10
33.9976334244772
20
-0.0704369367915092
30
0
0
SPLINE
5
115
100
AcDbEntity
8
1
62
256
6
ByLayer
370
18
48
1
60
0
100
AcDbSpline
70
4
71
3
72
14
73
10
40
0
40
0
40
0
40
0
40
0.25
40
0.25
40
0.5
40
0.5
40
0.75
40
0.75
40
1
40
1
40
1
40
1
41
1
10
33.2472750432665
20
-0.888636162196434
30
0
41
1
10
33.2289681220766
20
-0.923221518497002
30
0
41
1
10
33.2112118167848
20
-0.957792353752126
30
0
41
1
10
33.1770916627029
20
-1.02689728911088
30
0
41
1
10
33.1607115280471
20
-1.06146405206044
30
0
41
1
10
33.1298259133619
20
-1.13039004698436
30
0
41
1
10
33.115332345363
20
-1.16471437898954
30
0
41
1
10
33.0888374299443
20
-1.2329989779121
30
0
41
1
10
33.0768112066828
20
-1.26704362987533
30
0
41
1
10
33.0665767598556
20
-1.30047053751267
30
0
0
SPLINE
5
116
100
AcDbEntity
8
1
62
256
6
ByLayer
370
18
48
1
60
0
100
AcDbSpline
70
4
71
3
72
9
73
5
40
0
40
0
40
0
40
0
40
0.399563692433255
40
1
40
1
40
1
40
1
41
1
10
33.2472750592283
20
-0.888636162440349
30
0
41
1
10
32.7481833728189
20
-0.809668982159025
30
0
41
1
10
31.4990916864094
20
-0.492240986737272
30
0
41
1
10
30.25
20
0.0237584824832311
30
0
41
1
10
29.5
20
0.290056758897038
30
0
0
SPLINE
5
117
100
AcDbEntity
8
1
62
256
6
ByLayer
370
18
48
1
60
0
100
AcDbSpline
70
4
71
3
72
30
73
26
40
0
40
0
40
0
40
0
40
0.12500000000011
40
0.12500000000011
40
0.156250000000138
40
0.156250000000138
40
0.187500000000165
40
0.187500000000165
40
0.25000000000022
40
0.25000000000022
40
0.312500000000276
40
0.312500000000276
40
0.343750000000303
40
0.343750000000303
40
0.375000000000331
40
0.375000000000331
40
0.500000000000315
40
0.500000000000315
40
0.562500000000276
40
0.562500000000276
40
0.625000000000237
40
0.625000000000237
40
0.750000000000158
40
0.750000000000158
40
1
40
1
40
1
40
1
41
1
10
32.4999999767237
20
-1.37416603064733
30
0
41
1
10
32.5226590771709
20
-1.37734892182618
30
0
41
1
10
32.5452887212778
20
-1.38043944595316
30
0
41
1
10
32.5735331278174
20
-1.38420770786854
30
0
41
1
10
32.579175635373
20
-1.38497486181845
30
0
41
1
10
32.590570728855
20
-1.38598228106517
30
0
41
1
10
32.5963041543812
20
-1.38631145813307
30
0
41
1
10
32.6135901886046
20
-1.38689289103147
30
0
41
1
10
32.6252488258272
20
-1.3866523608838
30
0
41
1
10
32.6485746283061
20
-1.38611972056611
30
0
41
1
10
32.6601940955069
20
-1.38602647559085
30
0
41
1
10
32.6777845279907
20
-1.38517985697274
30
0
41
1
10
32.6836604617215
20
-1.38484311314011
30
0
41
1
10
32.6954061422167
20
-1.38419410881932
30
0
41
1
10
32.701282198061
20
-1.38385476985766
30
0
41
1
10
32.730718886395
20
-1.38191907022013
30
0
41
1
10
32.7544719420295
20
-1.37951133147715
30
0
41
1
10
32.7904383972533
20
-1.37464054809928
30
0
41
1
10
32.8024830543158
20
-1.37280824817356
30
0
41
1
10
32.8266859030022
20
-1.36874271189262
30
0
41
1
10
32.8388755394215
20
-1.36650162209344
30
0
41
1
10
32.8753344390682
20
-1.35921234312246
30
0
41
1
10
32.8995106012399
20
-1.35360016531925
30
0
41
1
10
32.9716848668751
20
-1.33455872098224
30
0
41
1
10
33.0193331467947
20
-1.31894021785661
30
0
41
1
10
33.0665767598423
20
-1.3004705375173
30
0
0
SPLINE
5
118
100
AcDbEntity
8
1
62
256
6
ByLayer
370
18
48
1
60
0
100
AcDbSpline
70
4
71
3
72
8
73
4
40
0
40
0
40
0
40
0
40
1
40
1
40
1
40
1
41
1
10
29.5347373582975
20
-1.41894724600192
30
0
41
1
10
29.5231290422244
20
-1.41819376051981
30
0
41
1
10
29.5115495891077
20
-1.41738035378057
30
0
41
1
10
29.4999999999973
20
-1.41650474232813
30
0
0
SPLINE
5
119
100
AcDbEntity
8
1
62
256
6
ByLayer
370
18
48
1
60
0
100
AcDbSpline
70
4
71
3
72
57
73
53
40
0
40
0
40
0
40
0
40
0.0084815996181457
40
0.0168196210410857
40
0.0254068322951652
40
0.0342990782054127
40
0.0434977986544793
40
0.0530042720640315
40
0.0628196338075111
40
0.0729448919902629
40
0.08338094102032
40
0.0941285733188583
40
0.105188489459011
40
0.116561306972428
40
0.128247568022802
40
0.140247746112658
40
0.152562251962655
40
0.165191438680478
40
0.178135606317918
40
0.191395005899603
40
0.204969842994179
40
0.218860280888153
40
0.233066443413864
40
0.247588417475618
40
0.262426255311792
40
0.277579976525536
40
0.293049569912154
40
0.308834995107596
40
0.324936184079225
40
0.341353042477247
40
0.358085450862973
40
0.375133265827965
40
0.392496321016433
40
0.410174428061784
40
0.428167377446872
40
0.446474939296453
40
0.465096864109376
40
0.484032883437114
40
0.503282710514595
40
0.52284604084865
40
0.584657742808096
40
0.64243597264833
40
0.696188196145872
40
0.745921906712383
40
0.791644544128479
40
0.833363435002007
40
0.87108576187068
40
0.904818574082147
40
0.934568866366487
40
0.960343779422395
40
0.982151046280437
40
1
40
1
40
1
40
1
41
1
10
29.5359977992586
20
-1.41922078971564
30
0
41
1
10
29.5362320413684
20
-1.41751052067033
30
0
41
1
10
29.5366965602914
20
-1.41411893435233
30
0
41
1
10
29.5376581949874
20
-1.4089421216687
30
0
41
1
10
29.5384898387477
20
-1.4036904050364
30
0
41
1
10
29.539269103204
20
-1.39826125643282
30
0
41
1
10
29.5399808577808
20
-1.39264463994982
30
0
41
1
10
29.5406298588815
20
-1.38683786599674
30
0
41
1
10
29.5412147610751
20
-1.38083920506176
30
0
41
1
10
29.5417359377027
20
-1.37464658010444
30
0
41
1
10
29.5421932789947
20
-1.36825793655356
30
0
41
1
10
29.5425868111793
20
-1.36167114024553
30
0
41
1
10
29.5429165226565
20
-1.35488400817616
30
0
41
1
10
29.5431824127411
20
-1.34789430209514
30
0
41
1
10
29.5433844780021
20
-1.34069973263846
30
0
41
1
10
29.5435227160696
20
-1.33329796062884
30
0
41
1
10
29.5435971245539
20
-1.32568659928612
30
0
41
1
10
29.543607701329
20
-1.31786321630017
30
0
41
1
10
29.5435544444336
20
-1.30982533605936
30
0
41
1
10
29.543437352079
20
-1.30157044195263
30
0
41
1
10
29.5432564226274
20
-1.29309597876866
30
0
41
1
10
29.5430116545787
20
-1.28439935518676
30
0
41
1
10
29.5427030465564
20
-1.27547794636163
30
0
41
1
10
29.5423305972929
20
-1.26632909660256
30
0
41
1
10
29.5418943056175
20
-1.25695012214837
30
0
41
1
10
29.5413941704427
20
-1.24733831403881
30
0
41
1
10
29.5408301907537
20
-1.23749094108365
30
0
41
1
10
29.5402023655937
20
-1.22740525293085
30
0
41
1
10
29.5395106940614
20
-1.21707848323251
30
0
41
1
10
29.5387551752705
20
-1.20650785291991
30
0
41
1
10
29.5379358084518
20
-1.19569057354832
30
0
41
1
10
29.5370525925121
20
-1.1846238508673
30
0
41
1
10
29.5361055276784
20
-1.17330488802406
30
0
41
1
10
29.5350946091445
20
-1.16173089067667
30
0
41
1
10
29.5340198513809
20
-1.1498990652901
30
0
41
1
10
29.5328811949373
20
-1.13780664406696
30
0
41
1
10
29.5316788633507
20
-1.12545080836779
30
0
41
1
10
29.5304119967477
20
-1.11282900129478
30
0
41
1
10
29.5290838804425
20
-1.09993775148723
30
0
41
1
10
29.5266802296588
20
-1.07737365431777
30
0
41
1
10
29.52334018321
20
-1.04582256256799
30
0
41
1
10
29.5193045864072
20
-1.00587793765433
30
0
41
1
10
29.5156453891652
20
-0.96818297109337
30
0
41
1
10
29.5123718841215
20
-0.932859290479314
30
0
41
1
10
29.5094815632848
20
-0.900015450435347
30
0
41
1
10
29.5069749178471
20
-0.869745388932131
30
0
41
1
10
29.5048507752102
20
-0.842130533482589
30
0
41
1
10
29.503110787453
20
-0.817240244464983
30
0
41
1
10
29.5017473391972
20
-0.795134733945929
30
0
41
1
10
29.5007796757787
20
-0.775860444227732
30
0
41
1
10
29.500144414125
20
-0.759467523221957
30
0
41
1
10
29.500044824506
20
-0.749467904098253
30
0
41
1
10
29.5
20
-0.744967153992661
30
0
0
SPLINE
5
11A
100
AcDbEntity
8
1
62
256
6
ByLayer
370
18
48
1
60
0
100
AcDbSpline
70
4
71
3
72
12
73
8
40
0
40
0
40
0
40
0
40
0.5
40
0.5
40
0.75
40
0.75
40
1
40
1
40
1
40
1
41
1
10
29.5
20
-1.41650474232526
30
0
41
1
10
29.4601197552707
20
-1.42916798208867
30
0
41
1
10
29.420507796016
20
-1.4435042495862
30
0
41
1
10
29.3613919923393
20
-1.46738760466207
30
0
41
1
10
29.3417091288163
20
-1.47575937557778
30
0
41
1
10
29.3026986557773
20
-1.49315497543691
30
0
41
1
10
29.2833438464554
20
-1.50218866700917
30
0
41
1
10
29.2641295496983
20
-1.51153834637015
30
0
0
SPLINE
5
11B
100
AcDbEntity
8
1
62
256
6
ByLayer
370
18
48
1
60
0
100
AcDbSpline
70
4
71
3
72
14
73
10
40
0
40
0
40
0
40
0
40
0.082503736609605
40
0.082503736609605
40
0.335231039624739
40
0.335231039624739
40
0.840685645655003
40
0.840685645655003
40
1
40
1
40
1
40
1
41
1
10
33.0514347895334
20
-0.691223945152643
30
0
41
1
10
33.0506062782975
20
-0.690656541470332
30
0
41
1
10
33.0497970976149
20
-0.690102645279069
30
0
41
1
10
33.0465907807998
20
-0.687912806581522
30
0
41
1
10
33.0443604254237
20
-0.686401317039781
30
0
41
1
10
33.0381702154468
20
-0.682317747867472
30
0
41
1
10
33.0347078037092
20
-0.680196243823872
30
0
41
1
10
33.0308688297183
20
-0.678307683965301
30
0
41
1
10
33.0300016153345
20
-0.677923036943042
30
0
41
1
10
33.029186715269
20
-0.677609562948959
30
0
0
SPLINE
5
11C
100
AcDbEntity
8
1
62
256
6
ByLayer
370
18
48
1
60
0
100
AcDbSpline
70
4
71
3
72
8
73
4
40
0
40
0
40
0
40
0
40
1
40
1
40
1
40
1
41
1
10
31.0960375484509
20
0.182596469863512
30
0
41
1
10
30.5640250323006
20
0.465389272637651
30
0
41
1
10
30.0320125161503
20
0.737883558701299
30
0
41
1
10
29.5
20
0.947756841642871
30
0
0
SPLINE
5
11D
100
AcDbEntity
8
1
62
256
6
ByLayer
370
13
48
1
60
0
100
AcDbSpline
70
4
71
3
72
9
73
5
40
0
40
0
40
0
40
0
40
0.725716152532934
40
1
40
1
40
1
40
1
41
1
10
29.5
20
0.378312283616083
30
0
41
1
10
30.25
20
0.131224690970754
30
0
41
1
10
31.2834619084642
20
-0.283549747684646
30
0
41
1
10
32.3169238169285
20
-0.591569496837678
30
0
41
1
10
32.6003857253926
20
-0.664525937408342
30
0
0
SPLINE
5
11E
100
AcDbEntity
8
1
62
256
6
ByLayer
370
18
48
1
60
0
100
AcDbSpline
70
4
71
3
72
12
73
8
40
0
40
0
40
0
40
0
40
0.5
40
0.5
40
0.75
40
0.75
40
1
40
1
40
1
40
1
41
1
10
29.5
20
-0.210679727349657
30
0
41
1
10
29.4603155283371
20
-0.202998541274979
30
0
41
1
10
29.4208379673847
20
-0.197534561168936
30
0
41
1
10
29.3618391939209
20
-0.192915509522152
30
0
41
1
10
29.3421866697981
20
-0.191975040983323
30
0
41
1
10
29.3031754462624
20
-0.191352897583812
30
0
41
1
10
29.2837918024576
20
-0.191667898894679
30
0
41
1
10
29.2645212820744
20
-0.192630554648787
30
0
0
SPLINE
5
11F
100
AcDbEntity
8
1
62
256
6
ByLayer
370
18
48
1
60
0
100
AcDbSpline
70
4
71
3
72
8
73
4
40
0
40
0
40
0
40
0
40
1
40
1
40
1
40
1
41
1
10
29.2881253573083
20
-0.575220095690185
30
0
41
1
10
29.2766284813266
20
-0.586485552776139
30
0
41
1
10
29.2653771042054
20
-0.597909911449051
30
0
41
1
10
29.2544036102769
20
-0.609494570047076
30
0
0
SPLINE
5
120
100
AcDbEntity
8
1
62
256
6
ByLayer
370
18
48
1
60
0
100
AcDbSpline
70
4
71
3
72
10
73
6
40
0
40
0
40
0
40
0
40
0.5
40
0.5
40
1
40
1
40
1
40
1
41
1
10
29.2832759812065
20
-0.458856971884615
30
0
41
1
10
29.2813698441692
20
-0.478525925188393
30
0
41
1
10
29.280615072919
20
-0.498174190833197
30
0
41
1
10
29.2820110412493
20
-0.537117209285157
30
0
41
1
10
29.284162853883
20
-0.556389661109023
30
0
41
1
10
29.2881253573083
20
-0.575220095690185
30
0
0
SPLINE
5
121
100
AcDbEntity
8
1
62
256
6
ByLayer
370
18
48
1
60
0
100
AcDbSpline
70
4
71
3
72
12
73
8
40
0
40
0
40
0
40
0
40
0.5
40
0.5
40
0.75
40
0.75
40
1
40
1
40
1
40
1
41
1
10
29.2645212820745
20
-0.192630554648815
30
0
41
1
10
29.2590475309607
20
-0.237912634749477
30
0
41
1
10
29.257127015023
20
-0.283384198170154
30
0
41
1
10
29.2612046672197
20
-0.350561465551067
30
0
41
1
10
29.2637375885668
20
-0.372811285000353
30
0
41
1
10
29.2714325062776
20
-0.416442910717933
30
0
41
1
10
29.2765895538398
20
-0.437863901722636
30
0
41
1
10
29.2832759812076
20
-0.458856971885183
30
0
0
SPLINE
5
122
100
AcDbEntity
8
1
62
256
6
ByLayer
370
18
48
1
60
0
100
AcDbSpline
70
4
71
3
72
33
73
29
40
0
40
0
40
0
40
0
40
0.124999999999981
40
0.124999999999981
40
0.249999999999962
40
0.249999999999962
40
0.312499999999952
40
0.312499999999952
40
0.343749999999947
40
0.343749999999947
40
0.374999999999942
40
0.374999999999942
40
0.499999999999923
40
0.499999999999923
40
0.624999999999904
40
0.624999999999904
40
0.656249999999909
40
0.656249999999909
40
0.687499999999914
40
0.749999999999935
40
0.749999999999935
40
0.874999999999979
40
0.874999999999979
40
0.906249999999986
40
0.906249999999986
40
0.937499999999993
40
0.937499999999993
40
1
40
1
40
1
40
1
41
1
10
29.2645212820745
20
-0.192630554648815
30
0
41
1
10
29.1999619839657
20
-0.152597028745646
30
0
41
1
10
29.1364320151369
20
-0.111023298947686
30
0
41
1
10
29.0118264975098
20
-0.0241958265442292
30
0
41
1
10
28.9507506041766
20
0.021057194415306
30
0
41
1
10
28.8613346331756
20
0.0922444059414147
30
0
41
1
10
28.8318962849129
20
0.116525851636425
30
0
41
1
10
28.7883402469268
20
0.153855877240034
30
0
41
1
10
28.7739218607841
20
0.166450607458671
30
0
41
1
10
28.7452947463357
20
0.191957053273541
30
0
41
1
10
28.731065256739
20
0.204888362175211
30
0
41
1
10
28.6608071963474
20
0.270054461446222
30
0
41
1
10
28.6073679198675
20
0.323883026181875
30
0
41
1
10
28.5065238390978
20
0.434967247469871
30
0
41
1
10
28.4591188330714
20
0.492224762395864
30
0
41
1
10
28.4039074446213
20
0.565834548446759
30
0
41
1
10
28.3930433923298
20
0.580692112972599
30
0
41
1
10
28.3718850693888
20
0.610378540482031
30
0
41
1
10
28.3409799779419
20
0.654888676807673
30
0
41
1
10
28.3125259711422
20
0.699273968344443
30
0
41
1
10
28.2587622332161
20
0.787688765532238
30
0
41
1
10
28.2271057481157
20
0.846163189353319
30
0
41
1
10
28.1924031537602
20
0.91796534077352
30
0
41
1
10
28.1857065205294
20
0.932260779175323
30
0
41
1
10
28.172794388718
20
0.960702001403718
30
0
41
1
10
28.1665684037547
20
0.97487280364038
30
0
41
1
10
28.1486883111693
20
1.01693008147734
30
0
41
1
10
28.1378467235618
20
1.04431544388231
30
0
41
1
10
28.1280127048541
20
1.07098589326051
30
0
0
SPLINE
5
123
100
AcDbEntity
8
1
62
256
6
ByLayer
370
18
48
1
60
0
100
AcDbSpline
70
4
71
3
72
20
73
16
40
0
40
0
40
0
40
0
40
0.25
40
0.25
40
0.375
40
0.375
40
0.5
40
0.5
40
0.625
40
0.625
40
0.75
40
0.75
40
0.875
40
0.875
40
1
40
1
40
1
40
1
41
1
10
28.1280127048538
20
1.07098589326071
30
0
41
1
10
28.1256118240583
20
1.07749722617785
30
0
41
1
10
28.1242358178794
20
1.08403427782025
30
0
41
1
10
28.124249128803
20
1.0939141797422
30
0
41
1
10
28.1246123653092
20
1.09721248004098
30
0
41
1
10
28.126083563767
20
1.10359779029164
30
0
41
1
10
28.1271898623561
20
1.10671421774202
30
0
41
1
10
28.1301718739581
20
1.11279349686094
30
0
41
1
10
28.1320727215848
20
1.11578298645586
30
0
41
1
10
28.1365213929078
20
1.12141991508327
30
0
41
1
10
28.139066076213
20
1.12408054976592
30
0
41
1
10
28.1447306529238
20
1.12912272242772
30
0
41
1
10
28.1478692853115
20
1.13151530156051
30
0
41
1
10
28.1545583700744
20
1.13597632783495
30
0
41
1
10
28.158108709599
20
1.13804957351567
30
0
41
1
10
28.161835269473
20
1.13998976295173
30
0
0
SPLINE
5
124
100
AcDbEntity
8
1
62
256
6
ByLayer
370
18
48
1
60
0
100
AcDbSpline
70
4
71
3
72
28
73
24
40
0
40
0
40
0
40
0
40
0.0625
40
0.0625
40
0.125
40
0.125
40
0.1875
40
0.1875
40
0.25
40
0.25
40
0.3125
40
0.3125
40
0.375
40
0.375
40
0.5
40
0.5
40
0.625
40
0.625
40
0.75
40
0.75
40
0.875
40
0.875
40
1
40
1
40
1
40
1
41
1
10
28.1618352694739
20
1.13998976295045
30
0
41
1
10
28.180220912319
20
1.14956203100158
30
0
41
1
10
28.199999977408
20
1.15709535717616
30
0
41
1
10
28.2412239247992
20
1.16983256690781
30
0
41
1
10
28.2626932653779
20
1.1749978810976
30
0
41
1
10
28.306868383814
20
1.18366079770226
30
0
41
1
10
28.3292980664174
20
1.18709530511651
30
0
41
1
10
28.3745226846639
20
1.19264758581102
30
0
41
1
10
28.3973786568361
20
1.19476656993979
30
0
41
1
10
28.4432876398637
20
1.19794957472965
30
0
41
1
10
28.4662959702589
20
1.19901024790678
30
0
41
1
10
28.5124027644505
20
1.20025383275325
30
0
41
1
10
28.5355304699587
20
1.20043458764792
30
0
41
1
10
28.6047241488294
20
1.19982694972569
30
0
41
1
10
28.6506559108977
20
1.19790791799949
30
0
41
1
10
28.742199864271
20
1.19156083329392
30
0
41
1
10
28.7878858896715
20
1.18711213101704
30
0
41
1
10
28.8783841371379
20
1.17595129764442
30
0
41
1
10
28.9232477530537
20
1.16923616231634
30
0
41
1
10
29.0122855395411
20
1.15361400981624
30
0
41
1
10
29.0564325809722
20
1.14470639608308
30
0
41
1
10
29.1436754213286
20
1.12479462955747
30
0
41
1
10
29.1868265790701
20
1.11378009733838
30
0
41
1
10
29.2295489584302
20
1.10169638505431
30
0
0
SPLINE
5
125
100
AcDbEntity
8
1
62
256
6
ByLayer
370
18
48
1
60
0
100
AcDbSpline
70
4
71
3
72
8
73
4
40
0
40
0
40
0
40
0
40
1
40
1
40
1
40
1
41
1
10
29.5432675635362
20
-0.236361934798879
30
0
41
1
10
29.5288065636687
20
-0.227878286944076
30
0
41
1
10
29.5143835362142
20
-0.219318580528267
30
0
41
1
10
29.4999999999988
20
-0.21067972735176
30
0
0
SPLINE
5
126
100
AcDbEntity
8
1
62
256
6
ByLayer
370
18
48
1
60
0
100
AcDbSpline
70
4
71
3
72
23
73
19
40
0
40
0
40
0
40
0
40
0.124999999999999
40
0.124999999999999
40
0.249999999999997
40
0.249999999999997
40
0.312499999999997
40
0.312499999999997
40
0.374999999999996
40
0.500000000000005
40
0.500000000000005
40
0.562500000000005
40
0.562500000000005
40
0.625000000000004
40
0.625000000000004
40
0.750000000000003
40
0.750000000000003
40
1
40
1
40
1
40
1
41
1
10
32.5
20
-1.37416604000745
30
0
41
1
10
32.3763761495273
20
-1.35648126562066
30
0
41
1
10
32.2530324882144
20
-1.33435398937243
30
0
41
1
10
32.0064395268701
20
-1.28118762342811
30
0
41
1
10
31.8831906838934
20
-1.25014558287231
30
0
41
1
10
31.6979754189096
20
-1.1968280988612
30
0
41
1
10
31.6361709642215
20
-1.17792214602386
30
0
41
1
10
31.5128210648641
20
-1.13812058332101
30
0
41
1
10
31.328013734517
20
-1.07538625151557
30
0
41
1
10
31.1434934600515
20
-1.00415351457113
30
0
41
1
10
30.9586670536322
20
-0.928052311260217
30
0
41
1
10
30.8969412250369
20
-0.901843188243305
30
0
41
1
10
30.7736709980713
20
-0.848075284559911
30
0
41
1
10
30.7121500178901
20
-0.820528135666677
30
0
41
1
10
30.5278078915464
20
-0.736107088195354
30
0
41
1
10
30.4052055686939
20
-0.677458559929875
30
0
41
1
10
30.0373724612123
20
-0.495925837786501
30
0
41
1
10
29.7921144250851
20
-0.367492136812416
30
0
41
1
10
29.5447183210839
20
-0.234714611643767
30
0
0
SPLINE
5
127
100
AcDbEntity
8
1
62
256
6
ByLayer
370
18
48
1
60
0
100
AcDbSpline
70
4
71
3
72
8
73
4
40
0
40
0
40
0
40
0
40
1
40
1
40
1
40
1
41
1
10
29.534737358179
20
1.2370067268067
30
0
41
1
10
29.5231290421455
20
1.24049674612934
30
0
41
1
10
29.5115495890683
20
1.24396269968403
30
0
41
1
10
29.4999999999972
20
1.2474035737105
30
0
0
SPLINE
5
128
100
AcDbEntity
8
1
62
256
6
ByLayer
370
18
48
1
60
0
100
AcDbSpline
70
4
71
3
72
10
73
6
40
0
40
0
40
0
40
0
40
0.0740384865749844
40
0.382692324383323
40
1
40
1
40
1
40
1
41
1
10
31.2850466961215
20
1.46564813244097
30
0
41
1
10
31.3150311307477
20
1.46352321314026
30
0
41
1
10
31.4700155653738
20
1.45102884134079
30
0
41
1
10
31.875
20
1.39788866894247
30
0
41
1
10
32.25
20
1.30214293526535
30
0
41
1
10
32.5
20
1.22162963600488
30
0
0
SPLINE
5
129
100
AcDbEntity
8
1
62
256
6
ByLayer
370
13
48
1
60
0
100
AcDbSpline
70
4
71
3
72
18
73
14
40
0
40
0
40
0
40
0
40
0.250000000000013
40
0.250000000000013
40
0.500000000000025
40
0.500000000000025
40
0.625000000000019
40
0.625000000000019
40
0.750000000000013
40
0.750000000000013
40
0.875000000000006
40
0.875000000000006
40
1
40
1
40
1
40
1
41
1
10
33.9454951683457
20
-0.0788511270062031
30
0
41
1
10
33.8717235782125
20
-0.0512316290673027
30
0
41
1
10
33.7985705804449
20
-0.0210057426406536
30
0
41
1
10
33.6534192677625
20
0.0468912688499188
30
0
41
1
10
33.5813984465972
20
0.0846085454653291
30
0
41
1
10
33.4742629365943
20
0.148786503787591
30
0
41
1
10
33.4387041420396
20
0.171443057673514
30
0
41
1
10
33.368006174988
20
0.21949621205664
30
0
41
1
10
33.3327923895327
20
0.244957394492246
30
0
41
1
10
33.2638096465447
20
0.298122185296734
30
0
41
1
10
33.2299465648141
20
0.325883371472031
30
0
41
1
10
33.1636216070851
20
0.3838052113164
30
0
41
1
10
33.1311506284899
20
0.413962372917297
30
0
41
1
10
33.0992554109098
20
0.445251868161819
30
0
0
SPLINE
5
12A
100
AcDbEntity
8
1
62
256
6
ByLayer
370
18
48
1
60
0
100
AcDbSpline
70
4
71
3
72
8
73
4
40
0
40
0
40
0
40
0
40
1
40
1
40
1
40
1
41
1
10
33.9597653322255
20
-0.034781035519984
30
0
41
1
10
33.9722574183591
20
-0.0376204868793764
30
0
41
1
10
33.9847879752082
20
-0.0404484566968506
30
0
41
1
10
33.9973499521388
20
-0.0432670492261593
30
0
0
SPLINE
5
12B
100
AcDbEntity
8
1
62
256
6
ByLayer
370
18
48
1
60
0
100
AcDbSpline
70
4
71
3
72
8
73
4
40
0
40
0
40
0
40
0
40
1
40
1
40
1
40
1
41
1
10
32.8029866852924
20
1.03087954657011
30
0
41
1
10
32.8062642140189
20
1.02965419214098
30
0
41
1
10
32.8095182467847
20
1.02837320770041
30
0
41
1
10
32.8127496001815
20
1.02703835198071
30
0
0
SPLINE
5
12C
100
AcDbEntity
8
1
62
256
6
ByLayer
370
18
48
1
60
0
100
AcDbSpline
70
4
71
3
72
12
73
8
40
0
40
0
40
0
40
0
40
0.25000000000011
40
0.25000000000011
40
0.500000000000221
40
0.500000000000221
40
1
40
1
40
1
40
1
41
1
10
32.8599726370247
20
0.985878459060814
30
0
41
1
10
32.854704658859
20
0.989114689385389
30
0
41
1
10
32.8497044990446
20
0.992612489398965
30
0
41
1
10
32.839918227091
20
0.999821991924307
30
0
41
1
10
32.835144786102
20
1.00354589118277
30
0
41
1
10
32.8210421904508
20
1.01493928840952
30
0
41
1
10
32.8119150059404
20
1.02284077883974
30
0
41
1
10
32.8029866852923
20
1.03087954657005
30
0
0
SPLINE
5
12D
100
AcDbEntity
8
1
62
256
6
ByLayer
370
18
48
1
60
0
100
AcDbSpline
70
4
71
3
72
8
73
4
40
0
40
0
40
0
40
0
40
1
40
1
40
1
40
1
41
1
10
32.8029866852923
20
1.03087954657008
30
0
41
1
10
32.7691920996875
20
1.04878296818569
30
0
41
1
10
32.7354767904173
20
1.06585699084493
30
0
41
1
10
32.7017748870342
20
1.08204851023703
30
0
0
SPLINE
5
12E
100
AcDbEntity
8
1
62
256
6
ByLayer
370
18
48
1
60
0
100
AcDbSpline
70
4
71
3
72
12
73
8
40
0
40
0
40
0
40
0
40
0.25
40
0.375
40
0.5625
40
0.75
40
1
40
1
40
1
40
1
41
1
10
32.5
20
1.16616197992752
30
0
41
1
10
32.25
20
1.2572187278127
30
0
41
1
10
31.875
20
1.36985227956131
30
0
41
1
10
31.3125
20
1.47001239781781
30
0
41
1
10
30.8125
20
1.50830093797657
30
0
41
1
10
30.1875
20
1.4805269266003
30
0
41
1
10
29.75
20
1.39970824213566
30
0
41
1
10
29.5
20
1.33365513524612
30
0
0
SPLINE
5
12F
100
AcDbEntity
8
1
62
256
6
ByLayer
370
18
48
1
60
0
100
AcDbSpline
70
4
71
3
72
11
73
7
40
0
40
0
40
0
40
0
40
0.0884768040558292
40
0.490604715254979
40
0.790152259614472
40
1
40
1
40
1
40
1
41
1
10
32.7017748870341
20
1.08204851023703
30
0
41
1
10
32.7050868648026
20
1.08046374357238
30
0
41
1
10
32.7234596620505
20
1.07164600192198
30
0
41
1
10
32.7528774202631
20
1.05726694104217
30
0
41
1
10
32.7864621435151
20
1.040453262836
30
0
41
1
10
32.8050955382749
20
1.03096351967901
30
0
41
1
10
32.8127496001796
20
1.02703835198167
30
0
0
SPLINE
5
130
100
AcDbEntity
8
1
62
256
6
ByLayer
370
18
48
1
60
0
100
AcDbSpline
70
4
71
3
72
8
73
4
40
0
40
0
40
0
40
0
40
1
40
1
40
1
40
1
41
1
10
32.812749600179
20
1.02703835198199
30
0
41
1
10
32.8218536366989
20
1.02305629301813
30
0
41
1
10
32.8307667955622
20
1.01878737507064
30
0
41
1
10
32.8394872375601
20
1.01422834136861
30
0
0
SPLINE
5
131
100
AcDbEntity
8
1
62
256
6
ByLayer
370
18
48
1
60
0
100
AcDbSpline
70
4
71
3
72
40
73
36
40
0
40
0
40
0
40
0
40
0.0029259453018717
40
0.0058653857537709
40
0.0117501002159457
40
0.0239214489657379
40
0.0375728205896342
40
0.0394262330920039
40
0.0409099318432791
40
0.0416091901193092
40
0.0441877133073171
40
0.0505771317111701
40
0.0691785930262281
40
0.0834728439959124
40
0.0925011577003938
40
0.094318810642733
40
0.0960976757884776
40
0.0972684593852093
40
0.0983001213814474
40
0.0993442154848793
40
0.104990660336308
40
0.125926596103371
40
0.141521902903118
40
0.193629104517111
40
0.330059552570773
40
0.427650044218898
40
0.49011406807002
40
0.552875224701445
40
0.627586647688533
40
0.700415355181036
40
0.770028348214981
40
0.835442867553306
40
0.886131531194578
40
0.961376863495395
40
1
40
1
40
1
40
1
41
1
10
32.4999999753564
20
1.22162963882155
30
0
41
1
10
32.5018890236773
20
1.22101121374715
30
0
41
1
10
32.5056858768681
20
1.21976496149131
30
0
41
1
10
32.513227783196
20
1.21728344572031
30
0
41
1
10
32.526729680551
20
1.21282175027213
30
0
41
1
10
32.5470340521814
20
1.20605220085449
30
0
41
1
10
32.5647587918378
20
1.20007293594833
30
0
41
1
10
32.5756646513253
20
1.19636464894415
30
0
41
1
10
32.578203544398
20
1.19550930645596
30
0
41
1
10
32.5813524552487
20
1.19440047376844
30
0
41
1
10
32.5877455095708
20
1.19210018062708
30
0
41
1
10
32.6060028869396
20
1.18523193724238
30
0
41
1
10
32.6317511292183
20
1.17458268373744
30
0
41
1
10
32.6590746025452
20
1.16256231106598
30
0
41
1
10
32.6753690262387
20
1.15536793923485
30
0
41
1
10
32.6835650499696
20
1.15173098927755
30
0
41
1
10
32.6866368123241
20
1.15036044844817
30
0
41
1
10
32.6893789758516
20
1.14911242213353
30
0
41
1
10
32.6915729936565
20
1.14810869282908
30
0
41
1
10
32.6967909935453
20
1.1457063407768
30
0
41
1
10
32.7154506264434
20
1.13704181500739
30
0
41
1
10
32.7438183094203
20
1.12369049886252
30
0
41
1
10
32.8029082026263
20
1.0951424621197
30
0
41
1
10
32.9368773569382
20
1.02733522794324
30
0
41
1
10
33.118151310879
20
0.924759260573552
30
0
41
1
10
33.2935457739652
20
0.81245358606904
30
0
41
1
10
33.4176749240443
20
0.725982442091038
30
0
41
1
10
33.5230517208672
20
0.647430843452923
30
0
41
1
10
33.6259170238249
20
0.564176734038028
30
0
41
1
10
33.722330615346
20
0.478157968021009
30
0
41
1
10
33.8040337699241
20
0.396231189099922
30
0
41
1
10
33.8667625096303
20
0.323915943961765
30
0
41
1
10
33.9202094639041
20
0.250927983633773
30
0
41
1
10
33.9543205179919
20
0.189809666266171
30
0
41
1
10
33.96773254081
20
0.149770209407677
30
0
41
1
10
33.970882961818
20
0.136479188515523
30
0
0
SPLINE
5
132
100
AcDbEntity
8
1
62
256
6
ByLayer
370
18
48
1
60
0
100
AcDbSpline
70
4
71
3
72
17
73
13
40
0
40
0
40
0
40
0
40
0.109635638864979
40
0.208752552816063
40
0.297340896171099
40
0.375395577718126
40
0.442917767054679
40
0.499917794857686
40
0.550738700186348
40
0.651025855678426
40
0.800781353884741
40
1
40
1
40
1
40
1
41
1
10
32.7017748870341
20
1.08204851023703
30
0
41
1
10
32.6943950187423
20
1.08557914185275
30
0
41
1
10
32.6803433256861
20
1.09230166721466
30
0
41
1
10
32.6603311067928
20
1.10170851436652
30
0
41
1
10
32.6424441260976
20
1.10997708123799
30
0
41
1
10
32.6266820638863
20
1.11711402530116
30
0
41
1
10
32.6130457837566
20
1.12310438498528
30
0
41
1
10
32.6012399738033
20
1.12815525047492
30
0
41
1
10
32.5872464521638
20
1.1335951767787
30
0
41
1
10
32.5670259910346
20
1.1413245885434
30
0
41
1
10
32.5368356651736
20
1.15266407900316
30
0
41
1
10
32.5133864418733
20
1.16125670875368
30
0
41
1
10
32.4999999987962
20
1.16616197779246
30
0
0
SPLINE
5
133
100
AcDbEntity
8
1
62
256
6
ByLayer
370
13
48
1
60
0
100
AcDbSpline
70
4
71
3
72
20
73
16
40
0
40
0
40
0
40
0
40
0.250000000000015
40
0.250000000000015
40
0.375000000000012
40
0.375000000000012
40
0.437500000000011
40
0.437500000000011
40
0.50000000000001
40
0.50000000000001
40
0.625000000000007
40
0.625000000000007
40
0.750000000000005
40
0.750000000000005
40
1
40
1
40
1
40
1
41
1
10
33.0374051371468
20
0.755274225368339
30
0
41
1
10
33.1041137401201
20
0.674908236993303
30
0
41
1
10
33.1732599769144
20
0.599970734795733
30
0
41
1
10
33.2829464483318
20
0.497533410532071
30
0
41
1
10
33.3205536222173
20
0.465057348182796
30
0
41
1
10
33.3785376565821
20
0.418880452668702
30
0
41
1
10
33.3981188126522
20
0.403906790396263
30
0
41
1
10
33.4377579892224
20
0.374787362090188
30
0
41
1
10
33.4578065900924
20
0.360651456366213
30
0
41
1
10
33.5181338016835
20
0.319786682078302
30
0
41
1
10
33.5587545677485
20
0.294488626942723
30
0
41
1
10
33.6406014870853
20
0.24737846797629
30
0
41
1
10
33.6818262260571
20
0.225559187870289
30
0
41
1
10
33.8062044809231
20
0.164389117439612
30
0
41
1
10
33.8900376795508
20
0.129228884019369
30
0
41
1
10
33.974602805165
20
0.0975891978334289
30
0
0
SPLINE
5
134
100
AcDbEntity
8
1
62
256
6
ByLayer
370
13
48
1
60
0
100
AcDbSpline
70
4
71
3
72
8
73
4
40
0
40
0
40
0
40
0
40
1
40
1
40
1
40
1
41
1
10
32.8394872423183
20
1.01422833888535
30
0
41
1
10
32.8462987413336
20
1.00475538016218
30
0
41
1
10
32.8531267131717
20
0.995304668137152
30
0
41
1
10
32.8599726370259
20
0.985878459059109
30
0
0
SPLINE
5
135
100
AcDbEntity
8
1
62
256
6
ByLayer
370
18
48
1
60
0
100
AcDbSpline
70
4
71
3
72
8
73
4
40
0
40
0
40
0
40
0
40
1
40
1
40
1
40
1
41
1
10
32.8599726370262
20
0.985878459059904
30
0
41
1
10
32.8931030730425
20
0.965525732011542
30
0
41
1
10
32.9261590384522
20
0.944644628127207
30
0
41
1
10
32.9591901142873
20
0.923277906244692
30
0
0
SPLINE
5
136
100
AcDbEntity
8
1
62
256
6
ByLayer
370
18
48
1
60
0
100
AcDbSpline
70
4
71
3
72
10
73
6
40
0
40
0
40
0
40
0
40
0.5
40
0.5
40
1
40
1
40
1
40
1
41
1
10
29.261805083793
20
1.09253947834574
30
0
41
1
10
29.3012733508294
20
1.07651922129935
30
0
41
1
10
29.3409457500813
20
1.06145574732923
30
0
41
1
10
29.4204593823211
20
1.03334546002117
30
0
41
1
10
29.4602251731082
20
1.02032320994718
30
0
41
1
10
29.5
20
1.0083409242832
30
0
0
SPLINE
5
137
100
AcDbEntity
8
1
62
256
6
ByLayer
370
18
48
1
60
0
100
AcDbSpline
70
4
71
3
72
8
73
4
40
0
40
0
40
0
40
0
40
1
40
1
40
1
40
1
41
1
10
33.0992554104601
20
0.445251868144283
30
0
41
1
10
33.1410470474307
20
0.389855033040476
30
0
41
1
10
33.1829697348531
20
0.335248947326136
30
0
41
1
10
33.2249376038936
20
0.281308946576047
30
0
0
SPLINE
5
138
100
AcDbEntity
8
1
62
256
6
ByLayer
370
18
48
1
60
0
100
AcDbSpline
70
4
71
3
72
32
73
28
40
0
40
0
40
0
40
0
40
0.249999999999966
40
0.249999999999966
40
0.31249999999997
40
0.31249999999997
40
0.374999999999974
40
0.374999999999974
40
0.499999999999982
40
0.499999999999982
40
0.62499999999999
40
0.62499999999999
40
0.749999999999998
40
0.749999999999998
40
0.812499999999999
40
0.812499999999999
40
0.874999999999999
40
0.874999999999999
40
0.90625
40
0.90625
40
0.9375
40
0.9375
40
0.96875
40
0.96875
40
0.984375
40
0.984375
40
1
40
1
40
1
40
1
41
1
10
33.0992554091287
20
0.445251869908873
30
0
41
1
10
33.0817566156565
20
0.468447366594603
30
0
41
1
10
33.0678935938772
20
0.493680090520684
30
0
41
1
10
33.0540307698274
20
0.527305045112371
30
0
41
1
10
33.0514252006804
20
0.534159315086185
30
0
41
1
10
33.0465907807998
20
0.547927370579004
30
0
41
1
10
33.0443604254236
20
0.554839745475135
30
0
41
1
10
33.0381702154466
20
0.575643509434485
30
0
41
1
10
33.0347078037092
20
0.589600750994151
30
0
41
1
10
33.0288699045238
20
0.617612347235053
30
0
41
1
10
33.0264825375671
20
0.631734535303508
30
0
41
1
10
33.0227393077475
20
0.659686132745406
30
0
41
1
10
33.0213700402124
20
0.673457623523177
30
0
41
1
10
33.0202379836026
20
0.693763458878436
30
0
41
1
10
33.0200171640711
20
0.700489783863816
30
0
41
1
10
33.0200443989741
20
0.713694092384088
30
0
41
1
10
33.0202814973792
20
0.720204555156812
30
0
41
1
10
33.0212968286223
20
0.729608394029754
30
0
41
1
10
33.0217466414299
20
0.732681694081606
30
0
41
1
10
33.0230123273567
20
0.738655567819933
30
0
41
1
10
33.0238300209022
20
0.741576473262086
30
0
41
1
10
33.0261049988685
20
0.746981367706354
30
0
41
1
10
33.0275819337658
20
0.74950344903317
30
0
41
1
10
33.0306063670031
20
0.752456037277994
30
0
41
1
10
33.0317758430188
20
0.753317296218768
30
0
41
1
10
33.0344023414383
20
0.754619677092933
30
0
41
1
10
33.0358386603811
20
0.755057059422711
30
0
41
1
10
33.0374051371521
20
0.755274225368481
30
0
0
SPLINE
5
139
100
AcDbEntity
8
1
62
256
6
ByLayer
370
18
48
1
60
0
100
AcDbSpline
70
4
71
3
72
28
73
24
40
0
40
0
40
0
40
0
40
0.124999999999974
40
0.124999999999974
40
0.249999999999947
40
0.249999999999947
40
0.374999999999921
40
0.374999999999921
40
0.437499999999908
40
0.437499999999908
40
0.499999999999894
40
0.499999999999894
40
0.624999999999867
40
0.624999999999867
40
0.687499999999873
40
0.687499999999873
40
0.749999999999878
40
0.749999999999878
40
0.812499999999884
40
0.812499999999884
40
0.874999999999889
40
0.874999999999889
40
1
40
1
40
1
40
1
41
1
10
32.9591901142659
20
0.923277906252451
30
0
41
1
10
32.9694112221817
20
0.916670090754508
30
0
41
1
10
32.9795018320216
20
0.909908209779417
30
0
41
1
10
32.9993388567649
20
0.895971979770195
30
0
41
1
10
33.0091191946788
20
0.888774192186105
30
0
41
1
10
33.0280158251065
20
0.873914043877136
30
0
41
1
10
33.0371197648613
20
0.866269736274234
30
0
41
1
10
33.0500088773503
20
0.854297874022421
30
0
41
1
10
33.054175963608
20
0.85022193753008
30
0
41
1
10
33.0621696358809
20
0.841839568616621
30
0
41
1
10
33.0660115855033
20
0.837513555855224
30
0
41
1
10
33.0765933374895
20
0.824325836429324
30
0
41
1
10
33.0825797806774
20
0.815060226053845
30
0
41
1
10
33.087512161013
20
0.80118581545517
30
0
41
1
10
33.0884707286696
20
0.796481304248914
30
0
41
1
10
33.0884745968293
20
0.787648369384613
30
0
41
1
10
33.0875048918085
20
0.783405741915743
30
0
41
1
10
33.0837741476162
20
0.775952326922095
30
0
41
1
10
33.0809829148754
20
0.772639640198662
30
0
41
1
10
33.0742786284633
20
0.767079322294194
30
0
41
1
10
33.0703486254097
20
0.764773304893509
30
0
41
1
10
33.0574173262575
20
0.758979257671854
30
0
41
1
10
33.0476928967735
20
0.756700452104639
30
0
41
1
10
33.037405137148
20
0.755274225367998
30
0
0
SPLINE
5
13A
100
AcDbEntity
8
1
62
256
6
ByLayer
370
18
48
1
60
0
100
AcDbSpline
70
4
71
3
72
9
73
5
40
0
40
0
40
0
40
0
40
0.349558733211294
40
1
40
1
40
1
40
1
41
1
10
32.9591901142873
20
0.923277906244635
30
0
41
1
10
32.5561267428582
20
1.08546982547827
30
0
41
1
10
31.403063371429
20
1.45685512028709
30
0
41
1
10
30.25
20
1.4223822718937
30
0
41
1
10
29.5
20
1.23513819710942
30
0
0
SPLINE
5
13B
100
AcDbEntity
8
1
62
256
6
ByLayer
370
13
48
1
60
0
100
AcDbSpline
70
4
71
3
72
9
73
5
40
0
40
0
40
0
40
0
40
0.377428549977435
40
1
40
1
40
1
40
1
41
1
10
30.8545501318383
20
0.880497429051218
30
0
41
1
10
31.1530334212256
20
0.840703222332877
30
0
41
1
10
31.9438673139056
20
0.690210383404292
30
0
41
1
10
32.7347012065856
20
0.440549025876436
30
0
41
1
10
33.2270518098784
20
0.268942831975494
30
0
0
SPLINE
5
13C
100
AcDbEntity
8
1
62
256
6
ByLayer
370
18
48
1
60
0
100
AcDbSpline
70
4
71
3
72
14
73
10
40
0
40
0
40
0
40
0
40
0.250000000000001
40
0.250000000000001
40
0.5
40
0.5
40
0.75
40
0.75
40
1
40
1
40
1
40
1
41
1
10
33.2270518035674
20
0.268942832689134
30
0
41
1
10
33.2281146343857
20
0.262143565997803
30
0
41
1
10
33.2288053203363
20
0.255410882957364
30
0
41
1
10
33.2292836132302
20
0.242107112666531
30
0
41
1
10
33.2290622669868
20
0.235590601417385
30
0
41
1
10
33.2275791356438
20
0.223132211125716
30
0
41
1
10
33.2263202108728
20
0.217152380079369
30
0
41
1
10
33.2226044467749
20
0.205770105889002
30
0
41
1
10
33.2201921048857
20
0.200518494727561
30
0
41
1
10
33.2172356191388
20
0.19574280927992
30
0
0
SPLINE
5
13D
100
AcDbEntity
8
1
62
256
6
ByLayer
370
18
48
1
60
0
100
AcDbSpline
70
4
71
3
72
10
73
6
40
0
40
0
40
0
40
0
40
0.5
40
0.5
40
1
40
1
40
1
40
1
41
1
10
33.2249376038936
20
0.28130894657599
30
0
41
1
10
33.3111099546693
20
0.197512472389718
30
0
41
1
10
33.400886552762
20
0.122342009058116
30
0
41
1
10
33.5860011264222
20
-0.0146889257420639
30
0
41
1
10
33.6813515279597
20
-0.0765196582546253
30
0
41
1
10
33.7789538635571
20
-0.132960858380386
30
0
0
SPLINE
5
13E
100
AcDbEntity
8
1
62
256
6
ByLayer
370
18
48
1
60
0
100
AcDbSpline
70
4
71
3
72
8
73
4
40
0
40
0
40
0
40
0
40
1
40
1
40
1
40
1
41
1
10
33.2249376038936
20
0.281308946576075
30
0
41
1
10
33.225700443331
20
0.277196141783151
30
0
41
1
10
33.2264068881855
20
0.273074372263835
30
0
41
1
10
33.2270517973316
20
0.268942824735433
30
0
0
SPLINE
5
13F
100
AcDbEntity
8
1
62
256
6
ByLayer
370
18
48
1
60
0
100
AcDbSpline
70
4
71
3
72
12
73
8
40
0
40
0
40
0
40
0
40
0.25
40
0.375
40
0.5625
40
0.75
40
1
40
1
40
1
40
1
41
1
10
32.5
20
-1.49614852432668
30
0
41
1
10
32.25
20
-1.50406395497939
30
0
41
1
10
31.875
20
-1.48544864492956
30
0
41
1
10
31.3125
20
-1.38522377251644
30
0
41
1
10
30.8125
20
-1.24723041554066
30
0
41
1
10
30.1875
20
-1.01184971757303
30
0
41
1
10
29.75
20
-0.804272638494638
30
0
41
1
10
29.5
20
-0.675400105920147
30
0
0
SPLINE
5
140
100
AcDbEntity
8
1
62
256
6
ByLayer
370
18
48
1
60
0
100
AcDbSpline
70
4
71
3
72
12
73
8
40
0
40
0
40
0
40
0
40
0.456278297105036
40
0.456278297105036
40
0.728139177359715
40
0.728139177359715
40
1
40
1
40
1
40
1
41
1
10
33.9708829618007
20
-0.0419506528363343
30
0
41
1
10
33.9748523831015
20
-0.046289380889533
30
0
41
1
10
33.9788705216693
20
-0.0506251389329577
30
0
41
1
10
33.9853527012949
20
-0.0575398230071471
30
0
41
1
10
33.9877884970464
20
-0.0601205450199984
30
0
41
1
10
33.9926893972562
20
-0.0652801171553108
30
0
41
1
10
33.995154507528
20
-0.067858973290015
30
0
41
1
10
33.997633424454
20
-0.0704369367070399
30
0
0
SPLINE
5
141
100
AcDbEntity
8
1
62
256
6
ByLayer
370
18
48
1
60
0
100
AcDbSpline
70
4
71
3
72
10
73
6
40
0
40
0
40
0
40
0
40
0.5
40
0.5
40
1
40
1
40
1
40
1
41
1
10
29.2544036102595
20
-0.609494570034968
30
0
41
1
10
29.2950952963851
20
-0.618396296116543
30
0
41
1
10
29.3360052850672
20
-0.628360037194653
30
0
41
1
10
29.4179860034752
20
-0.65035620413417
30
0
41
1
10
29.458987428524
20
-0.662367739207184
30
0
41
1
10
29.5
20
-0.675400105920147
30
0
0
SPLINE
5
142
100
AcDbEntity
8
1
62
256
6
ByLayer
370
18
48
1
60
0
100
AcDbSpline
70
4
71
3
72
33
73
29
40
0
40
0
40
0
40
0
40
0.0312500000000142
40
0.0312500000000142
40
0.0625000000000284
40
0.125000000000057
40
0.125000000000057
40
0.250000000000083
40
0.250000000000083
40
0.281250000000075
40
0.281250000000075
40
0.312500000000066
40
0.312500000000066
40
0.375000000000049
40
0.375000000000049
40
0.500000000000016
40
0.500000000000016
40
0.562499999999999
40
0.562499999999999
40
0.624999999999982
40
0.624999999999982
40
0.749999999999973
40
0.749999999999973
40
0.81249999999998
40
0.81249999999998
40
0.874999999999987
40
0.874999999999987
40
1
40
1
40
1
40
1
41
1
10
33.0298814886608
20
-0.274167873050402
30
0
41
1
10
33.0388020281588
20
-0.279592855579523
30
0
41
1
10
33.0477998857151
20
-0.284852245550184
30
0
41
1
10
33.0657792278182
20
-0.294938326413245
30
0
41
1
10
33.0927838260111
20
-0.309455751909383
30
0
41
1
10
33.1198942342112
20
-0.322154336127653
30
0
41
1
10
33.1742557527754
20
-0.345132877901449
30
0
41
1
10
33.2106835573235
20
-0.357241006115572
30
0
41
1
10
33.256462576776
20
-0.368177347811553
30
0
41
1
10
33.2656306765536
20
-0.370153253656554
30
0
41
1
10
33.2839922595442
20
-0.373668731946822
30
0
41
1
10
33.2932086025155
20
-0.375211036060932
30
0
41
1
10
33.320661371424
20
-0.379128408349629
30
0
41
1
10
33.3387325330725
20
-0.380805046076915
30
0
41
1
10
33.3922594598397
20
-0.383052397379004
30
0
41
1
10
33.4270342435736
20
-0.380863151346631
30
0
41
1
10
33.4778216953826
20
-0.372007643751999
30
0
41
1
10
33.4945198342665
20
-0.368119537047306
30
0
41
1
10
33.5274253836865
20
-0.358354443400515
30
0
41
1
10
33.5434569392075
20
-0.352523115952579
30
0
41
1
10
33.5899185450946
20
-0.332365409279902
30
0
41
1
10
33.6188948313607
20
-0.31534058332403
30
0
41
1
10
33.6594256207444
20
-0.284537851629239
30
0
41
1
10
33.672441663179
20
-0.273383214135208
30
0
41
1
10
33.6974380455254
20
-0.249214991181248
30
0
41
1
10
33.7092640078716
20
-0.236347354796209
30
0
41
1
10
33.742614929268
20
-0.195657455694914
30
0
41
1
10
33.7621219750797
20
-0.165698474796329
30
0
41
1
10
33.77895386356
20
-0.132960858390533
30
0
0
SPLINE
5
143
100
AcDbEntity
8
1
62
256
6
ByLayer
370
18
48
1
60
0
100
AcDbSpline
70
4
71
3
72
40
73
36
40
0
40
0
40
0
40
0
40
0.0029259453018559
40
0.005865385753657
40
0.0117501002160131
40
0.0239214489652655
40
0.0375728205894097
40
0.039426233091569
40
0.0409099318428263
40
0.0416091901172761
40
0.044187713299288
40
0.0505771316718372
40
0.0691785929122313
40
0.0834728438425185
40
0.0925011574031345
40
0.0943188103925885
40
0.0960976756253039
40
0.0972684592121953
40
0.0983001212073955
40
0.0993442153135766
40
0.104990660155342
40
0.125926595928269
40
0.141521902736916
40
0.193629104341095
40
0.330059552390989
40
0.427650044065147
40
0.490114067928875
40
0.552875224572016
40
0.627586647575664
40
0.700415355088967
40
0.770028348143798
40
0.835442867503194
40
0.886131531159252
40
0.961376863481171
40
1
40
1
40
1
40
1
41
1
10
32.4999999753565
20
-0.486397235912648
30
0
41
1
10
32.5018890236772
20
-0.487426714478914
30
0
41
1
10
32.5056858768678
20
-0.489497707268697
30
0
41
1
10
32.5132277831964
20
-0.493605218701163
30
0
41
1
10
32.5267296805496
20
-0.500950724560937
30
0
41
1
10
32.5470340521836
20
-0.511964871764008
30
0
41
1
10
32.5647587918345
20
-0.521546255469417
30
0
41
1
10
32.5756646513257
20
-0.52743621170066
30
0
41
1
10
32.578203544398
20
-0.528784657851872
30
0
41
1
10
32.5813524552409
20
-0.53054424961627
30
0
41
1
10
32.587745509522
20
-0.534095654699371
30
0
41
1
10
32.6060028868501
20
-0.543952208842484
30
0
41
1
10
32.6317511290904
20
-0.556902572754183
30
0
41
1
10
32.6590746020175
20
-0.569803973971716
30
0
41
1
10
32.6753690257916
20
-0.577324062926095
30
0
41
1
10
32.6835650495232
20
-0.581073278475856
30
0
41
1
10
32.6866368118972
20
-0.582446770440129
30
0
41
1
10
32.6893789755163
20
-0.583781679237433
30
0
41
1
10
32.6915729933092
20
-0.584823930665209
30
0
41
1
10
32.6967909931989
20
-0.587287185043436
30
0
41
1
10
32.715450626113
20
-0.596001080506852
30
0
41
1
10
32.7438183090669
20
-0.608549439670327
30
0
41
1
10
32.8029082022739
20
-0.63276224471602
30
0
41
1
10
32.9368773566185
20
-0.679468726379326
30
0
41
1
10
33.1181513106065
20
-0.71314213950177
30
0
41
1
10
33.2935457736962
20
-0.710377739472193
30
0
41
1
10
33.4176749238175
20
-0.689421876321802
30
0
41
1
10
33.5230517206799
20
-0.65768396593387
30
0
41
1
10
33.6259170236783
20
-0.608843258523308
30
0
41
1
10
33.722330615236
20
-0.541388644833916
30
0
41
1
10
33.8040337698506
20
-0.459709982317747
30
0
41
1
10
33.8667625095825
20
-0.371444675470542
30
0
41
1
10
33.9202094638829
20
-0.265353252903168
30
0
41
1
10
33.9543205179835
20
-0.158196006269151
30
0
41
1
10
33.9677325408095
20
-0.0726017349238646
30
0
41
1
10
33.9708829618183
20
-0.0419506531040668
30
0
0
SPLINE
5
144
100
AcDbEntity
8
1
62
256
6
ByLayer
370
18
48
1
60
0
100
AcDbSpline
70
4
71
3
72
8
73
4
40
0
40
0
40
0
40
0
40
1
40
1
40
1
40
1
41
1
10
33.9597653322255
20
-0.034781035519984
30
0
41
1
10
33.9634588328715
20
-0.0371721620086305
30
0
41
1
10
33.9671649930408
20
-0.0395620059255464
30
0
41
1
10
33.9708829618006
20
-0.0419506530561193
30
0
0
SPLINE
5
145
100
AcDbEntity
8
1
62
256
6
ByLayer
370
18
48
1
60
0
100
AcDbSpline
70
4
71
3
72
18
73
14
40
0
40
0
40
0
40
0
40
0.124999999999968
40
0.124999999999968
40
0.249999999999937
40
0.249999999999937
40
0.374999999999905
40
0.374999999999905
40
0.499999999999874
40
0.499999999999874
40
0.749999999999937
40
0.749999999999937
40
1
40
1
40
1
40
1
41
1
10
33.9597653322255
20
-0.034781035519984
30
0
41
1
10
33.9600076431722
20
-0.0378563631363136
30
0
41
1
10
33.9601230169556
20
-0.040888414569622
30
0
41
1
10
33.9600768128019
20
-0.0466227114110325
30
0
41
1
10
33.959916784174
20
-0.0493740467046848
30
0
41
1
10
33.959326999362
20
-0.0545520831047384
30
0
41
1
10
33.9589065038047
20
-0.0569176115546384
30
0
41
1
10
33.9578521484231
20
-0.0612713969292997
30
0
41
1
10
33.9572136546993
20
-0.0632642767005223
30
0
41
1
10
33.9550934098163
20
-0.0685892493189897
30
0
41
1
10
33.9533912262941
20
-0.0713687119999804
30
0
41
1
10
33.9496360505212
20
-0.0758707962101255
30
0
41
1
10
33.9476133191241
20
-0.0775548251366729
30
0
41
1
10
33.9454942904135
20
-0.0788507983200191
30
0
0
SPLINE
5
146
100
AcDbEntity
8
1
62
256
6
ByLayer
370
18
48
1
60
0
100
AcDbSpline
70
4
71
3
72
14
73
10
40
0
40
0
40
0
40
0
40
0.25
40
0.25
40
0.5
40
0.5
40
0.75
40
0.75
40
1
40
1
40
1
40
1
41
1
10
33.7789538635576
20
-0.132960858384422
30
0
41
1
10
33.7947173290799
20
-0.131375648820892
30
0
41
1
10
33.8100564035634
20
-0.129017201181085
30
0
41
1
10
33.8397617818523
20
-0.122823783980522
30
0
41
1
10
33.8541447179879
20
-0.118987326361406
30
0
41
1
10
33.8819612105728
20
-0.109884060946854
30
0
41
1
10
33.8953934362076
20
-0.104616169927283
30
0
41
1
10
33.9212124594732
20
-0.0927356096118785
30
0
41
1
10
33.933610568542
20
-0.086118760126169
30
0
41
1
10
33.9454945941023
20
-0.0788506125872743
30
0
0
SPLINE
5
147
100
AcDbEntity
8
1
62
256
6
ByLayer
370
18
48
1
60
0
100
AcDbSpline
70
4
71
3
72
8
73
4
40
0
40
0
40
0
40
0
40
1
40
1
40
1
40
1
41
1
10
32.8029866852919
20
-0.744223875035516
30
0
41
1
10
32.7691920985457
20
-0.731978589430128
30
0
41
1
10
32.7354767881394
20
-0.71861539142273
30
0
41
1
10
32.7017748836192
20
-0.704268345814256
30
0
0
SPLINE
5
148
100
AcDbEntity
8
1
62
256
6
ByLayer
370
18
48
1
60
0
100
AcDbSpline
70
4
71
3
72
17
73
13
40
0
40
0
40
0
40
0
40
0.109635639635987
40
0.208752554047101
40
0.297340897551266
40
0.375395578936576
40
0.44291776780101
40
0.499917794822545
40
0.550738698794548
40
0.651025853840964
40
0.80078135251137
40
1
40
1
40
1
40
1
41
1
10
32.7017748836192
20
-0.704268345814228
30
0
41
1
10
32.6943950154001
20
-0.7011077998242
30
0
41
1
10
32.6803433224984
20
-0.69508993875462
30
0
41
1
10
32.6603311038502
20
-0.686312170940454
30
0
41
1
10
32.6424441234272
20
-0.678316991855155
30
0
41
1
10
32.6266820615147
20
-0.671121616179676
30
0
41
1
10
32.613045781711
20
-0.664729825750982
30
0
41
1
10
32.6012399721333
20
-0.659076518465525
30
0
41
1
10
32.5872464509059
20
-0.651927509732985
30
0
41
1
10
32.5670259902093
20
-0.641502137028453
30
0
41
1
10
32.5368356647662
20
-0.625799733176962
30
0
41
1
10
32.5133864417391
20
-0.613482027777792
30
0
41
1
10
32.4999999987961
20
-0.60645022717938
30
0
0
SPLINE
5
149
100
AcDbEntity
8
1
62
256
6
ByLayer
370
18
48
1
60
0
100
AcDbSpline
70
4
71
3
72
18
73
14
40
0
40
0
40
0
40
0
40
0.250000000000023
40
0.250000000000023
40
0.375000000000022
40
0.375000000000022
40
0.500000000000021
40
0.500000000000021
40
0.750000000000019
40
0.750000000000019
40
0.875000000000009
40
0.875000000000009
40
1
40
1
40
1
40
1
41
1
10
33.2172356196667
20
0.195742809145628
30
0
41
1
10
33.1957812024277
20
0.161364007455205
30
0
41
1
10
33.1752608008024
20
0.126119234956604
30
0
41
1
10
33.1463041326514
20
0.0715610196006651
30
0
41
1
10
33.1369574686056
20
0.0530916497299074
30
0
41
1
10
33.1189705329424
20
0.0154979797198962
30
0
41
1
10
33.1103293785211
20
-0.0036309115110953
30
0
41
1
10
33.0857365755895
20
-0.0619241793998526
30
0
41
1
10
33.0710639277952
20
-0.102049717212765
30
0
41
1
10
33.0525669753955
20
-0.164813816355632
30
0
41
1
10
33.0469796451134
20
-0.186225091844648
30
0
41
1
10
33.0372830564234
20
-0.229679625164152
30
0
41
1
10
33.0331656303812
20
-0.25173608673532
30
0
41
1
10
33.0298814886614
20
-0.274167873050686
30
0
0
SPLINE
5
14A
100
AcDbEntity
8
1
62
256
6
ByLayer
370
18
48
1
60
0
100
AcDbSpline
70
4
71
3
72
9
73
5
40
0
40
0
40
0
40
0
40
0.627039447466016
40
1
40
1
40
1
40
1
41
1
10
33.2172356192087
20
0.195742809392783
30
0
41
1
10
32.7281570794724
20
0.373724920205291
30
0
41
1
10
31.9481765826908
20
0.637733681674547
30
0
41
1
10
31.1681960859092
20
0.812123316304138
30
0
41
1
10
30.8772941288638
20
0.861395190472138
30
0
0
SPLINE
5
14B
100
AcDbEntity
8
1
62
256
6
ByLayer
370
18
48
1
60
0
100
AcDbSpline
70
4
71
3
72
39
73
35
40
0
40
0
40
0
40
0
40
0.125000000000687
40
0.125000000000687
40
0.140625000000773
40
0.140625000000773
40
0.156250000000859
40
0.156250000000859
40
0.187500000000967
40
0.187500000000967
40
0.250000000001182
40
0.250000000001182
40
0.281250000001256
40
0.281250000001256
40
0.31250000000133
40
0.31250000000133
40
0.320312500001366
40
0.320312500001366
40
0.324218750001384
40
0.324218750001384
40
0.328125000001402
40
0.343750000001337
40
0.343750000001337
40
0.375000000001277
40
0.375000000001277
40
0.437500000001156
40
0.437500000001156
40
0.500000000001036
40
0.500000000001036
40
0.625000000000794
40
0.625000000000794
40
0.750000000000552
40
0.750000000000552
40
1
40
1
40
1
40
1
41
1
10
32.499999977693
20
-0.127950724871823
30
0
41
1
10
32.5210630627186
20
-0.139372065114486
30
0
41
1
10
32.5421008197063
20
-0.150817091056894
30
0
41
1
10
32.5657284920204
20
-0.163759583171611
30
0
41
1
10
32.5683531227205
20
-0.165198980658829
30
0
41
1
10
32.5736052769646
20
-0.168064722588383
30
0
41
1
10
32.5762229307006
20
-0.169527802865787
30
0
41
1
10
32.5841310110403
20
-0.173708659137986
30
0
41
1
10
32.5894479677359
20
-0.176324850870799
30
0
41
1
10
32.6054929196695
20
-0.183817353334149
30
0
41
1
10
32.6163307320053
20
-0.188279952548925
30
0
41
1
10
32.632680063188
20
-0.194629265152315
30
0
41
1
10
32.6381393895647
20
-0.196709757205326
30
0
41
1
10
32.6490298848328
20
-0.200971704236054
30
0
41
1
10
32.6544516349713
20
-0.203187043232816
30
0
41
1
10
32.6613054466474
20
-0.205676092788508
30
0
41
1
10
32.6626980829656
20
-0.206094310408929
30
0
41
1
10
32.6647371617146
20
-0.206902996910344
30
0
41
1
10
32.6654072363847
20
-0.207207505535337
30
0
41
1
10
32.666764180767
20
-0.207755413353709
30
0
41
1
10
32.6701817299861
20
-0.209033543914302
30
0
41
1
10
32.6736165335676
20
-0.210248764814907
30
0
41
1
10
32.6818594656954
20
-0.213167240640104
30
0
41
1
10
32.6873526798735
20
-0.215119983217676
30
0
41
1
10
32.703845651096
20
-0.220928823574241
30
0
41
1
10
32.7148685055057
20
-0.224700084701425
30
0
41
1
10
32.7370379929506
20
-0.231799672554843
30
0
41
1
10
32.7481761705857
20
-0.235158601188004
30
0
41
1
10
32.7817569390228
20
-0.24465314374001
30
0
41
1
10
32.80440114312
20
-0.250216410547495
30
0
41
1
10
32.8499989413142
20
-0.259755281149268
30
0
41
1
10
32.8726955322693
20
-0.263662969637977
30
0
41
1
10
32.9405076254156
20
-0.272740480428155
30
0
41
1
10
32.9853478021426
20
-0.275266368748134
30
0
41
1
10
33.0298814886608
20
-0.2741678730508
30
0
0
SPLINE
5
14C
100
AcDbEntity
8
1
62
256
6
ByLayer
370
18
48
1
60
0
100
AcDbSpline
70
4
71
3
72
12
73
8
40
0
40
0
40
0
40
0
40
0.25
40
0.4375
40
0.625
40
0.75
40
1
40
1
40
1
40
1
41
1
10
29.5
20
-0.556767956551084
30
0
41
1
10
29.75
20
-0.688642033172442
30
0
41
1
10
30.1875
20
-0.904385844475058
30
0
41
1
10
30.8125
20
-1.15790663775871
30
0
41
1
10
31.3125
20
-1.31408904682078
30
0
41
1
10
31.875
20
-1.43733461671354
30
0
41
1
10
32.25
20
-1.47294619273811
30
0
41
1
10
32.5
20
-1.47670411827679
30
0
0
SPLINE
5
14D
100
AcDbEntity
8
1
62
256
6
ByLayer
370
18
48
1
60
0
100
AcDbSpline
70
4
71
3
72
12
73
8
40
0
40
0
40
0
40
0
40
0.25
40
0.4375
40
0.625
40
0.75
40
1
40
1
40
1
40
1
41
1
10
29.5
20
1.08003594653823
30
0
41
1
10
29.75
20
0.982744010579609
30
0
41
1
10
30.1875
20
0.784998128320836
30
0
41
1
10
30.8125
20
0.457858544650264
30
0
41
1
10
31.3125
20
0.178016111851662
30
0
41
1
10
31.875
20
-0.141747563799953
30
0
41
1
10
32.25
20
-0.352342306347566
30
0
41
1
10
32.5
20
-0.486397247818758
30
0
0
SPLINE
5
14E
100
AcDbEntity
8
1
62
256
6
ByLayer
370
18
48
1
60
0
100
AcDbSpline
70
4
71
3
72
23
73
19
40
0
40
0
40
0
40
0
40
0.124999999999996
40
0.124999999999996
40
0.249999999999992
40
0.249999999999992
40
0.31249999999999
40
0.31249999999999
40
0.374999999999988
40
0.499999999999984
40
0.499999999999984
40
0.562499999999982
40
0.562499999999982
40
0.62499999999998
40
0.62499999999998
40
0.749999999999987
40
0.749999999999987
40
1
40
1
40
1
40
1
41
1
10
32.5
20
-0.127950743468375
30
0
41
1
10
32.3760085388058
20
-0.060447209480003
30
0
41
1
10
32.2522958556483
20
0.007284252756989
30
0
41
1
10
32.0049711711956
20
0.142340789757611
30
0
41
1
10
31.8813597099355
20
0.209666656807173
30
0
41
1
10
31.6956053812499
20
0.309568799980355
30
0
41
1
10
31.6336259089862
20
0.342687795074255
30
0
41
1
10
31.5099290000413
20
0.40818228087582
30
0
41
1
10
31.3246041074512
20
0.505402760229913
30
0
41
1
10
31.1395700309417
20
0.599005137618633
30
0
41
1
10
30.954221414694
20
0.689427519192861
30
0
41
1
10
30.8923184822039
20
0.719070144512813
30
0
41
1
10
30.7687151093606
20
0.776989389839372
30
0
41
1
10
30.7070267725097
20
0.805262122889332
30
0
41
1
10
30.5221777127012
20
0.887867469543579
30
0
41
1
10
30.3992309230057
20
0.939987255059293
30
0
41
1
10
30.0303257542919
20
1.08629204565378
30
0
41
1
10
29.7843028543945
20
1.17048281984876
30
0
41
1
10
29.5360603627328
20
1.23775548061312
30
0
0
SPLINE
5
14F
100
AcDbEntity
8
1
62
256
6
ByLayer
370
18
48
1
60
0
100
AcDbSpline
70
4
71
3
72
12
73
8
40
0
40
0
40
0
40
0
40
0.25
40
0.375
40
0.5625
40
0.75
40
1
40
1
40
1
40
1
41
1
10
32.5
20
-0.606450229282359
30
0
41
1
10
32.25
20
-0.47483229853114
30
0
41
1
10
31.875
20
-0.265345096288399
30
0
41
1
10
31.3125
20
0.0584420655372639
30
0
41
1
10
30.8125
20
0.3460246109357
30
0
41
1
10
30.1875
20
0.68871953394148
30
0
41
1
10
29.75
20
0.90147294898577
30
0
41
1
10
29.5
20
1.00834092428317
30
0
0
SPLINE
5
150
100
AcDbEntity
8
1
62
256
6
ByLayer
370
18
48
1
60
0
100
AcDbSpline
70
4
71
3
72
42
73
38
40
0
40
0
40
0
40
0
40
0.0155258242778953
40
0.0319056227715788
40
0.0491451350848797
40
0.0672490935477799
40
0.0862213883750716
40
0.106065198725339
40
0.126783097555265
40
0.148377136176961
40
0.170848912972221
40
0.194199629647558
40
0.218430137621086
40
0.243540976540611
40
0.26953240648761
40
0.296404435084877
40
0.32415684046864
40
0.352789190888761
40
0.382300861547576
40
0.412691049169228
40
0.443958784698059
40
0.476102944450772
40
0.509122259989038
40
0.57301453013035
40
0.632442945231072
40
0.6874155703757
40
0.737940290594426
40
0.784024710006925
40
0.825676062360314
40
0.862901133127857
40
0.895706194060347
40
0.924096952654566
40
0.948078522818205
40
0.967655433592636
40
0.982831727780218
40
0.993611351192992
40
1
40
1
40
1
40
1
41
1
10
29.5446442535217
20
-0.235265319376623
30
0
41
1
10
29.5450213005959
20
-0.23230055334264
30
0
41
1
10
29.5457961336418
20
-0.226207948853982
30
0
41
1
10
29.5466944107961
20
-0.216775533829775
30
0
41
1
10
29.5474453428973
20
-0.20682912554409
30
0
41
1
10
29.548024039058
20
-0.196370433668676
30
0
41
1
10
29.5484376403637
20
-0.185407898683167
30
0
41
1
10
29.5486840458589
20
-0.17394865653543
30
0
41
1
10
29.548763818455
20
-0.162000873770438
30
0
41
1
10
29.5486767611885
20
-0.149573094992093
30
0
41
1
10
29.5484228985568
20
-0.136674450295487
30
0
41
1
10
29.54800219554
20
-0.123314617482038
30
0
41
1
10
29.5474146372881
20
-0.109503855368217
30
0
41
1
10
29.5466602062049
20
-0.0952530177191591
30
0
41
1
10
29.5457388874307
20
-0.080573573326717
30
0
41
1
10
29.544650669442
20
-0.0654776253149407
30
0
41
1
10
29.5433955337079
20
-0.0499779296932275
30
0
41
1
10
29.5419734958654
20
-0.0340879201721975
30
0
41
1
10
29.5403844430831
20
-0.0178217092250463
30
0
41
1
10
29.5386287681813
20
-0.0011941828203419
30
0
41
1
10
29.5367048961954
20
0.0157792698863375
30
0
41
1
10
29.5346189151108
20
0.0330816051282454
30
0
41
1
10
29.531659106774
20
0.0560337699871809
30
0
41
1
10
29.5279985215867
20
0.0834368327630841
30
0
41
1
10
29.5238768272208
20
0.114068491723685
30
0
41
1
10
29.5200764799206
20
0.141864439545373
30
0
41
1
10
29.5166082390669
20
0.16694350635845
30
0
41
1
10
29.5134694666509
20
0.189420374887135
30
0
41
1
10
29.5106607441512
20
0.20940234151783
30
0
41
1
10
29.5081816487864
20
0.22698896589506
30
0
41
1
10
29.5060325778946
20
0.242271007746837
30
0
41
1
10
29.5042116029048
20
0.255330254240192
30
0
41
1
10
29.5027230484179
20
0.266237540187262
30
0
41
1
10
29.5015522954676
20
0.275056394058481
30
0
41
1
10
29.500733457796
20
0.281831585223642
30
0
41
1
10
29.5001739896199
20
0.286617695205365
30
0
41
1
10
29.5000471860723
20
0.289124083097619
30
0
41
1
10
29.5
20
0.290056758897038
30
0
0
SPLINE
5
151
100
AcDbEntity
8
1
62
256
6
ByLayer
370
18
48
1
60
0
100
AcDbSpline
70
4
71
3
72
12
73
8
40
0
40
0
40
0
40
0
40
0.5
40
0.5
40
0.75
40
0.75
40
1
40
1
40
1
40
1
41
1
10
29.2641295496983
20
-1.51153834637017
30
0
41
1
10
29.2588938627745
20
-1.5175200365766
30
0
41
1
10
29.2571489133792
20
-1.52155223912902
30
0
41
1
10
29.2613450639712
20
-1.52452832649496
30
0
41
1
10
29.2638931225907
20
-1.52501073646155
30
0
41
1
10
29.2715579098474
20
-1.52498889806495
30
0
41
1
10
29.2766705901516
20
-1.52448843083019
30
0
41
1
10
29.2832759812077
20
-1.52353567431865
30
0
0
SPLINE
5
152
100
AcDbEntity
8
1
62
256
6
ByLayer
370
18
48
1
60
0
100
AcDbSpline
70
4
71
3
72
30
73
26
40
0
40
0
40
0
40
0
40
0.125
40
0.125
40
0.249999999999999
40
0.249999999999999
40
0.374999999999998
40
0.374999999999998
40
0.406249999999995
40
0.406249999999995
40
0.437499999999991
40
0.499999999999997
40
0.499999999999997
40
0.62500000000001
40
0.62500000000001
40
0.656250000000011
40
0.656250000000011
40
0.687500000000011
40
0.750000000000012
40
0.750000000000012
40
0.875000000000006
40
0.875000000000006
40
0.937500000000003
40
0.937500000000003
40
1
40
1
40
1
40
1
41
1
10
29.2641295496983
20
-1.51153834637015
30
0
41
1
10
29.198496386001
20
-1.50605788829844
30
0
41
1
10
29.1341389232671
20
-1.49871885335605
30
0
41
1
10
29.008547392987
20
-1.47928329538448
30
0
41
1
10
28.947312582153
20
-1.46719478397995
30
0
41
1
10
28.8286748458609
20
-1.43670291485924
30
0
41
1
10
28.7712709577585
20
-1.41831425773589
30
0
41
1
10
28.7024552507674
20
-1.3898769653749
30
0
41
1
10
28.6888094393376
20
-1.38389964144031
30
0
41
1
10
28.6620027102843
20
-1.37142669077164
30
0
41
1
10
28.6225283400018
20
-1.35194924282374
30
0
41
1
10
28.5853013506947
20
-1.33004975065006
30
0
41
1
10
28.5139341696812
20
-1.2826683708017
30
0
41
1
10
28.4704756658286
20
-1.24632622901027
30
0
41
1
10
28.4215253372206
20
-1.19351275196038
30
0
41
1
10
28.4120014548523
20
-1.18257165186449
30
0
41
1
10
28.3936857488091
20
-1.16015530078775
30
0
41
1
10
28.3672305497106
20
-1.12564710814397
30
0
41
1
10
28.3437312513669
20
-1.08844989412975
30
0
41
1
10
28.3004321317258
20
-1.01034361170426
30
0
41
1
10
28.2764805997441
20
-0.953344154406579
30
0
41
1
10
28.2472019321886
20
-0.859678407022557
30
0
41
1
10
28.2386616343164
20
-0.827423064889302
30
0
41
1
10
28.2238625430075
20
-0.761086802941577
30
0
41
1
10
28.217591422653
20
-0.726966541440135
30
0
41
1
10
28.2123684311108
20
-0.691876187539947
30
0
0
SPLINE
5
153
100
AcDbEntity
8
1
62
256
6
ByLayer
370
18
48
1
60
0
100
AcDbSpline
70
4
71
3
72
14
73
10
40
0
40
0
40
0
40
0
40
0.25
40
0.25
40
0.5
40
0.5
40
0.75
40
0.75
40
1
40
1
40
1
40
1
41
1
10
28.2123684311108
20
-0.691876187539947
30
0
41
1
10
28.2114190604287
20
-0.685497897827958
30
0
41
1
10
28.2111794856062
20
-0.679114176171822
30
0
41
1
10
28.2123430387552
20
-0.666341995084849
30
0
41
1
10
28.2137899865951
20
-0.659889054526758
30
0
41
1
10
28.2183216165361
20
-0.64768050972009
30
0
41
1
10
28.2213990755377
20
-0.641843970046722
30
0
41
1
10
28.2290923488062
20
-0.630723796491509
30
0
41
1
10
28.2335842302871
20
-0.625610465468213
30
0
41
1
10
28.238608088009
20
-0.620868996073
30
0
0
SPLINE
5
154
100
AcDbEntity
8
1
62
256
6
ByLayer
370
18
48
1
60
0
100
AcDbSpline
70
4
71
3
72
28
73
24
40
0
40
0
40
0
40
0
40
0.062500000000032
40
0.062500000000032
40
0.0937500000000479
40
0.0937500000000479
40
0.125000000000064
40
0.125000000000064
40
0.187500000000059
40
0.187500000000059
40
0.250000000000055
40
0.250000000000055
40
0.375000000000046
40
0.375000000000046
40
0.500000000000036
40
0.500000000000036
40
0.625000000000027
40
0.625000000000027
40
0.750000000000018
40
0.750000000000018
40
0.875000000000009
40
0.875000000000009
40
1
40
1
40
1
40
1
41
1
10
28.2386080880093
20
-0.620868996073
30
0
41
1
10
28.254004398506
20
-0.60633810386625
30
0
41
1
10
28.2711965219081
20
-0.594202622274651
30
0
41
1
10
28.2986456568855
20
-0.578256776138318
30
0
41
1
10
28.3080825881216
20
-0.573331142948291
30
0
41
1
10
28.3274406737516
20
-0.564142373716976
30
0
41
1
10
28.3373890549662
20
-0.559869557337066
30
0
41
1
10
28.36766950659
20
-0.547998889302079
30
0
41
1
10
28.3883220025768
20
-0.541368006353878
30
0
41
1
10
28.430314982394
20
-0.530024798160838
30
0
41
1
10
28.4516808395302
20
-0.525320462603105
30
0
41
1
10
28.5159901916129
20
-0.513666410935826
30
0
41
1
10
28.5594214965448
20
-0.509066695952782
30
0
41
1
10
28.6467621773404
20
-0.504515358517949
30
0
41
1
10
28.6904352419471
20
-0.504597701060504
30
0
41
1
10
28.7777857665502
20
-0.508567520921616
30
0
41
1
10
28.8213270927052
20
-0.512463410649929
30
0
41
1
10
28.907943741671
20
-0.523511506625766
30
0
41
1
10
28.9510460358461
20
-0.530673810235356
30
0
41
1
10
29.0364994807638
20
-0.547839586354939
30
0
41
1
10
29.0789367084503
20
-0.557862907679493
30
0
41
1
10
29.1628721757956
20
-0.58039749622111
30
0
41
1
10
29.2044079055179
20
-0.592915678154839
30
0
41
1
10
29.2455403754872
20
-0.606557028679703
30
0
0
SPLINE
5
155
100
AcDbEntity
8
1
62
256
6
ByLayer
370
18
48
1
60
0
100
AcDbSpline
70
4
71
2
72
6
73
3
40
0
40
0
40
0
40
1
40
1
40
1
41
0.500000137730246
10
29.2455403754873
20
-0.606557028679652
30
0
41
0.499999862269754
10
29.2499711501343
20
-0.608026469977559
30
0
41
0.500000137730246
10
29.2544036102618
20
-0.60949457003306
30
0
0
SPLINE
5
156
100
AcDbEntity
8
1
62
256
6
ByLayer
370
18
48
1
60
0
100
AcDbSpline
70
4
71
3
72
8
73
4
40
0
40
0
40
0
40
0
40
1
40
1
40
1
40
1
41
1
10
29.2881253573083
20
1.11240660164583
30
0
41
1
10
29.2791988206
20
1.10594622624163
30
0
41
1
10
29.2704209033144
20
1.09932692843935
30
0
41
1
10
29.261805083793
20
1.09253947834574
30
0
0
SPLINE
5
157
100
AcDbEntity
8
1
62
256
6
ByLayer
370
18
48
1
60
0
100
AcDbSpline
70
4
71
3
72
10
73
6
40
0
40
0
40
0
40
0
40
0.5
40
0.5
40
1
40
1
40
1
40
1
41
1
10
29.2832759812071
20
1.19329423881024
30
0
41
1
10
29.2813698441697
20
1.18045193102469
30
0
41
1
10
29.280615072919
20
1.16721154081878
30
0
41
1
10
29.2820110412493
20
1.14013583833881
30
0
41
1
10
29.284162853883
20
1.1263146480776
30
0
41
1
10
29.2881253573083
20
1.11240660164583
30
0
0
SPLINE
5
158
100
AcDbEntity
8
1
62
256
6
ByLayer
370
18
48
1
60
0
100
AcDbSpline
70
4
71
3
72
12
73
8
40
0
40
0
40
0
40
0
40
0.5
40
0.5
40
0.75
40
0.75
40
1
40
1
40
1
40
1
41
1
10
29.2641295496983
20
1.3416987412692
30
0
41
1
10
29.2588938627746
20
1.32025211036608
30
0
41
1
10
29.2571489133792
20
1.29682357564454
30
0
41
1
10
29.2613450639711
20
1.25933383856662
30
0
41
1
10
29.2638931225907
20
1.246431200454
30
0
41
1
10
29.2715579098473
20
1.2201927065675
30
0
41
1
10
29.2766705901516
20
1.20683497213008
30
0
41
1
10
29.2832759812076
20
1.19329423880993
30
0
0
SPLINE
5
159
100
AcDbEntity
8
1
62
256
6
ByLayer
370
18
48
1
60
0
100
AcDbSpline
70
4
71
3
72
19
73
15
40
0
40
0
40
0
40
0
40
0.211115123455498
40
0.211115123455498
40
0.422230246910996
40
0.422230246910996
40
0.633345370366494
40
0.633345370366494
40
0.686124151230375
40
0.686124151230375
40
0.738902932094256
40
0.844460493822017
40
0.844460493822017
40
1
40
1
40
1
40
1
41
1
10
29.2641295496982
20
1.3416987412692
30
0
41
1
10
29.198496386001
20
1.36134826462927
30
0
41
1
10
29.1341389232671
20
1.38028183253655
30
0
41
1
10
29.0085473929871
20
1.41619908766725
30
0
41
1
10
28.9473125821531
20
1.43318978466502
30
0
41
1
10
28.8286748458611
20
1.46432399552097
30
0
41
1
10
28.7712709577587
20
1.47848070267926
30
0
41
1
10
28.7024552507677
20
1.49341438572011
30
0
41
1
10
28.6888094393379
20
1.49626654728988
30
0
41
1
10
28.6620027102845
20
1.50162032834788
30
0
41
1
10
28.622528340002
20
1.50912475836682
30
0
41
1
10
28.5853013506951
20
1.51493260402057
30
0
41
1
10
28.5264590110201
20
1.52234129527798
30
0
41
1
10
28.4936418746338
20
1.52486636788433
30
0
41
1
10
28.4631323150831
20
1.52499830906305
30
0
0
SPLINE
5
15A
100
AcDbEntity
8
1
62
256
6
ByLayer
370
18
48
1
60
0
100
AcDbSpline
70
4
71
2
72
6
73
3
40
0
40
0
40
0
40
1
40
1
40
1
41
1
10
33.893906191504
20
0.294632440483951
30
0
41
1
10
33.9021960388595
20
0.297980384928508
30
0
41
1
10
33.9005290197835
20
0.306398023921332
30
0
0
SPLINE
5
15B
100
AcDbEntity
8
1
62
256
6
ByLayer
370
18
48
1
60
0
100
AcDbSpline
70
4
71
2
72
6
73
3
40
0
40
0
40
0
40
1
40
1
40
1
41
1
10
33.8144107347559
20
-0.639247117724949
30
0
41
1
10
33.8158119780998
20
-0.635399579397188
30
0
41
1
10
33.816245906764
20
-0.635158636425643
30
0
0
SPLINE
5
15C
100
AcDbEntity
8
1
62
256
6
ByLayer
370
18
48
1
60
0
100
AcDbSpline
70
4
71
2
72
6
73
3
40
0
40
0
40
0
40
1
40
1
40
1
41
1
10
33.9348237557167
20
0.167956989894407
30
0
41
1
10
33.9198246470468
20
0.218870898211804
30
0
41
1
10
33.9052083025703
20
0.270382272693411
30
0
0
SPLINE
5
15D
100
AcDbEntity
8
1
62
256
6
ByLayer
370
18
48
1
60
0
100
AcDbSpline
70
4
71
2
72
6
73
3
40
0
40
0
40
0
40
1
40
1
40
1
41
1
10
30.9024995764052
20
0.857086605695827
30
0
41
1
10
30.4319768061938
20
0.939615282747383
30
0
41
1
10
29.9623203624651
20
1.10566066461036
30
0
0
LINE
5
79
100
AcDbEntity
8
81
62
256
6
ByLayer
370
18
48
1
60
0
100
AcDbLine
10
34.05
20
0
30
0
11
39.05
21
0
31
0
39
0
210
0
220
0
230
1
0
LINE
5
7A
100
AcDbEntity
8
SK4
62
256
6
ByLayer
370
18
48
0.05
60
0
100
AcDbLine
10
-36
20
0
30
0
11
34.05
21
0
31
0
39
0
210
0
220
0
230
1
0
LINE
5
7C
100
AcDbEntity
8
80
62
256
6
ByLayer
370
18
48
1
60
0
100
AcDbLine
10
0
20
0
30
0
11
-5
21
0
31
0
39
0
210
0
220
0
230
1
0
LINE
5
7D
100
AcDbEntity
8
4
62
256
6
ByLayer
370
18
48
0.05
60
0
100
AcDbLine
10
0
20
0
30
0
11
34.05
21
0
31
0
39
0
210
0
220
0
230
1
0
LINE
5
7F
100
AcDbEntity
8
1
62
256
6
ByLayer
370
18
48
1
60
0
100
AcDbLine
10
0
20
3
30
0
11
0
21
0
31
0
39
0
210
0
220
0
230
1
0
LINE
5
80
100
AcDbEntity
8
1
62
256
6
ByLayer
370
18
48
1
60
0
100
AcDbLine
10
0
20
0
30
0
11
0
21
-3
31
0
39
0
210
0
220
0
230
1
0
LINE
5
81
100
AcDbEntity
8
1
62
256
6
ByLayer
370
18
48
1
60
0
100
AcDbLine
10
33.999284
20
0.096047
30
0
11
33.994783
21
0.096047
31
0
39
0
210
0
220
0
230
1
0
LINE
5
82
100
AcDbEntity
8
1
62
256
6
ByLayer
370
18
48
1
60
0
100
AcDbLine
10
33.999727
20
-0.052415
30
0
11
33.994783
21
-0.052415
31
0
39
0
210
0
220
0
230
1
0
LINE
5
83
100
AcDbEntity
8
1
62
256
6
ByLayer
370
18
48
1
60
0
100
AcDbLine
10
29.5
20
-1.467998
30
0
11
29.5
21
-1.416505
31
0
39
0
210
0
220
0
230
1
0
LINE
5
84
100
AcDbEntity
8
1
62
256
6
ByLayer
370
18
48
1
60
0
100
AcDbLine
10
29.5
20
1.333655
30
0
11
29.5
21
1.247405
31
0
39
0
210
0
220
0
230
1
0
LINE
5
85
100
AcDbEntity
8
1
62
256
6
ByLayer
370
18
48
1
60
0
100
AcDbLine
10
29.5
20
0.290057
30
0
11
29.5
21
0.378312
31
0
39
0
210
0
220
0
230
1
0
LINE
5
86
100
AcDbEntity
8
1
62
256
6
ByLayer
370
13
48
1
60
0
100
AcDbLine
10
28.161835
20
1.13999
30
0
11
29.5
21
0.378312
31
0
39
0
210
0
220
0
230
1
0
LINE
5
87
100
AcDbEntity
8
1
62
256
6
ByLayer
370
13
48
1
60
0
100
AcDbLine
10
29.229549
20
1.101696
30
0
11
29.5
21
0.947757
31
0
39
0
210
0
220
0
230
1
0
LINE
5
88
100
AcDbEntity
8
1
62
256
6
ByLayer
370
18
48
1
60
0
100
AcDbLine
10
32.5
20
-1.476704
30
0
11
32.5
21
-1.496149
31
0
39
0
210
0
220
0
230
1
0
LINE
5
89
100
AcDbEntity
8
1
62
256
6
ByLayer
370
18
48
1
60
0
100
AcDbLine
10
29.5
20
-0.744967
30
0
11
29.5
21
-0.672878
31
0
39
0
210
0
220
0
230
1
0
LINE
5
8A
100
AcDbEntity
8
1
62
256
6
ByLayer
370
18
48
1
60
0
100
AcDbLine
10
29.5
20
0.378312
30
0
11
29.5
21
0.947757
31
0
39
0
210
0
220
0
230
1
0
LINE
5
8B
100
AcDbEntity
8
1
62
256
6
ByLayer
370
13
48
1
60
0
100
AcDbLine
10
28.128013
20
1.070986
30
0
11
29.5
21
0.290057
31
0
39
0
210
0
220
0
230
1
0
LINE
5
8C
100
AcDbEntity
8
1
62
256
6
ByLayer
370
18
48
1
60
0
100
AcDbLine
10
29.5
20
-0.556768
30
0
11
29.5
21
-0.21068
31
0
39
0
210
0
220
0
230
1
0
LINE
5
8D
100
AcDbEntity
8
1
62
256
6
ByLayer
370
18
48
1
60
0
100
AcDbLine
10
32.5
20
-1.374166
30
0
11
32.5
21
-1.476704
31
0
39
0
210
0
220
0
230
1
0
LINE
5
8E
100
AcDbEntity
8
1
62
256
6
ByLayer
370
18
48
1
60
0
100
AcDbLine
10
29.5
20
1.080036
30
0
11
29.5
21
1.247404
31
0
39
0
210
0
220
0
230
1
0
LINE
5
8F
100
AcDbEntity
8
1
62
256
6
ByLayer
370
18
48
1
60
0
100
AcDbLine
10
32.5
20
1.336218
30
0
11
32.5
21
1.22163
31
0
39
0
210
0
220
0
230
1
0
LINE
5
90
100
AcDbEntity
8
1
62
256
6
ByLayer
370
18
48
1
60
0
100
AcDbLine
10
32.5
20
1.22163
30
0
11
32.5
21
1.166162
31
0
39
0
210
0
220
0
230
1
0
LINE
5
91
100
AcDbEntity
8
1
62
256
6
ByLayer
370
18
48
1
60
0
100
AcDbLine
10
29.5
20
-0.6754
30
0
11
29.5
21
-0.556768
31
0
39
0
210
0
220
0
230
1
0
LINE
5
92
100
AcDbEntity
8
1
62
256
6
ByLayer
370
18
48
1
60
0
100
AcDbLine
10
32.5
20
-0.486397
30
0
11
32.5
21
-0.60645
31
0
39
0
210
0
220
0
230
1
0
LINE
5
93
100
AcDbEntity
8
1
62
256
6
ByLayer
370
18
48
1
60
0
100
AcDbLine
10
29.5
20
1.008341
30
0
11
29.5
21
1.080036
31
0
39
0
210
0
220
0
230
1
0
LINE
5
94
100
AcDbEntity
8
1
62
256
6
ByLayer
370
18
48
1
60
0
100
AcDbLine
10
29.5
20
1.008341
30
0
11
29.5
21
0.947757
31
0
39
0
210
0
220
0
230
1
0
LINE
5
95
100
AcDbEntity
8
1
62
256
6
ByLayer
370
18
48
1
60
0
100
AcDbLine
10
32.5
20
-0.127951
30
0
11
32.5
21
-0.486397
31
0
39
0
210
0
220
0
230
1
0
LINE
5
96
100
AcDbEntity
8
1
62
256
6
ByLayer
370
13
48
1
60
0
100
AcDbLine
10
28.238608
20
-0.620869
30
0
11
29.489929
21
-0.672463
31
0
39
0
210
0
220
0
230
1
0
LINE
5
97
100
AcDbEntity
8
1
62
256
6
ByLayer
370
13
48
1
60
0
100
AcDbLine
10
28.212368
20
-0.691876
30
0
11
29.5
21
-0.744967
31
0
39
0
210
0
220
0
230
1
0
LINE
5
98
100
AcDbEntity
8
1
62
256
6
ByLayer
370
13
48
1
60
0
100
AcDbLine
10
18.997679
20
-1.525
30
0
11
18.997679
21
0
31
0
39
0
210
0
220
0
230
1
0
LINE
5
99
100
AcDbEntity
8
1
62
256
6
ByLayer
370
13
48
1
60
0
100
AcDbLine
10
18.997679
20
0
30
0
11
18.997679
21
1.525
31
0
39
0
210
0
220
0
230
1
0
LINE
5
9A
100
AcDbEntity
8
1
62
256
6
ByLayer
370
13
48
1
60
0
100
AcDbLine
10
18.497679
20
1.658975
30
0
11
18.497679
21
0
31
0
39
0
210
0
220
0
230
1
0
LINE
5
9B
100
AcDbEntity
8
1
62
256
6
ByLayer
370
13
48
1
60
0
100
AcDbLine
10
18.497679
20
0
30
0
11
18.497679
21
-1.658975
31
0
39
0
210
0
220
0
230
1
0
LINE
5
9C
100
AcDbEntity
8
1
62
256
6
ByLayer
370
18
48
1
60
0
100
AcDbLine
10
16.174955
20
3
30
0
11
16.174955
21
0
31
0
39
0
210
0
220
0
230
1
0
LINE
5
9D
100
AcDbEntity
8
1
62
256
6
ByLayer
370
18
48
1
60
0
100
AcDbLine
10
16.174955
20
0
30
0
11
16.174955
21
-3
31
0
39
0
210
0
220
0
230
1
0
LINE
5
9E
100
AcDbEntity
8
SK1
62
256
6
ByLayer
370
18
48
1
60
0
100
AcDbLine
10
-36
20
-2.6
30
0
11
-36
21
2.6
31
0
39
0
210
0
220
0
230
1
0
LINE
5
A0
100
AcDbEntity
8
SK1
62
256
6
ByLayer
370
18
48
1
60
0
100
AcDbLine
10
0
20
3
30
0
11
0
21
0
31
0
39
0
210
0
220
0
230
1
0
LINE
5
A1
100
AcDbEntity
8
SK1
62
256
6
ByLayer
370
18
48
1
60
0
100
AcDbLine
10
0
20
0
30
0
11
0
21
-3
31
0
39
0
210
0
220
0
230
1
0
LINE
5
A2
100
AcDbEntity
8
SK1
62
256
6
ByLayer
370
18
48
1
60
0
100
AcDbLine
10
-35.6
20
3
30
0
11
-35.6
21
-3
31
0
39
0
210
0
220
0
230
1
0
LINE
5
A3
100
AcDbEntity
8
1
62
256
6
ByLayer
370
18
48
1
60
0
100
AcDbLine
10
16.174955
20
3
30
0
11
0
21
3
31
0
39
0
210
0
220
0
230
1
0
LINE
5
A4
100
AcDbEntity
8
1
62
256
6
ByLayer
370
18
48
1
60
0
100
AcDbLine
10
0
20
-3
30
0
11
16.174955
21
-3
31
0
39
0
210
0
220
0
230
1
0
LINE
5
A5
100
AcDbEntity
8
1
62
256
6
ByLayer
370
18
48
1
60
0
100
AcDbLine
10
28.470716
20
1.525
30
0
11
18.997679
21
1.525
31
0
39
0
210
0
220
0
230
1
0
LINE
5
A6
100
AcDbEntity
8
1
62
256
6
ByLayer
370
18
48
1
60
0
100
AcDbLine
10
18.997679
20
-1.525
30
0
11
29.269577
21
-1.525
31
0
39
0
210
0
220
0
230
1
0
LINE
5
A7
100
AcDbEntity
8
1
62
256
6
ByLayer
370
18
48
1
60
0
100
AcDbLine
10
18.497679
20
1.658975
30
0
11
16.174955
21
3
31
0
39
0
210
0
220
0
230
1
0
LINE
5
A8
100
AcDbEntity
8
1
62
256
6
ByLayer
370
18
48
1
60
0
100
AcDbLine
10
16.174955
20
-3
30
0
11
18.497679
21
-1.658975
31
0
39
0
210
0
220
0
230
1
0
LINE
5
A9
100
AcDbEntity
8
SK1
62
256
6
ByLayer
370
18
48
1
60
0
100
AcDbLine
10
-36
20
-2.6
30
0
11
-35.6
21
-3
31
0
39
0
210
0
220
0
230
1
0
LINE
5
AA
100
AcDbEntity
8
SK1
62
256
6
ByLayer
370
18
48
1
60
0
100
AcDbLine
10
-35.6
20
3
30
0
11
-36
21
2.6
31
0
39
0
210
0
220
0
230
1
0
LINE
5
AB
100
AcDbEntity
8
SK1
62
256
6
ByLayer
370
18
48
1
60
0
100
AcDbLine
10
0
20
3
30
0
11
-35.6
21
3
31
0
39
0
210
0
220
0
230
1
0
LINE
5
AC
100
AcDbEntity
8
SK1
62
256
6
ByLayer
370
18
48
1
60
0
100
AcDbLine
10
-35.6
20
-3
30
0
11
0
21
-3
31
0
39
0
210
0
220
0
230
1
0
LINE
5
AD
100
AcDbEntity
8
SK2
62
256
6
ByLayer
370
18
48
1
60
0
100
AcDbLine
10
-43.85
20
11.75
30
0
11
-43.85
21
-19.315466
31
0
39
0
210
0
220
0
230
1
0
LINE
5
AF
100
AcDbEntity
8
SK2
62
256
6
ByLayer
370
18
48
1
60
0
100
AcDbLine
10
-37.1875
20
3
30
0
11
-45.85
21
3
31
0
39
0
210
0
220
0
230
1
0
LINE
5
B0
100
AcDbEntity
8
SK2
62
256
6
ByLayer
370
18
48
1
60
0
100
AcDbLine
10
-37.1875
20
-3
30
0
11
-45.85
21
-3
31
0
39
0
210
0
220
0
230
1
0
LINE
5
B1
100
AcDbEntity
8
1
62
256
6
ByLayer
370
18
48
1
60
1
100
AcDbLine
10
-43.85
20
3
30
0
11
-44.310784
21
6.499998
31
0
39
0
210
0
220
0
230
1
0
LINE
5
B2
100
AcDbEntity
8
1
62
256
6
ByLayer
370
18
48
1
60
1
100
AcDbLine
10
-44.310784
20
6.499998
30
0
11
-43.389216
21
6.500002
31
0
39
0
210
0
220
0
230
1
0
LINE
5
B3
100
AcDbEntity
8
1
62
256
6
ByLayer
370
18
48
1
60
1
100
AcDbLine
10
-43.389216
20
6.500002
30
0
11
-43.85
21
3
31
0
39
0
210
0
220
0
230
1
0
LINE
5
B4
100
AcDbEntity
8
1
62
256
6
ByLayer
370
18
48
1
60
1
100
AcDbLine
10
-43.85
20
-3
30
0
11
-43.389216
21
-6.499998
31
0
39
0
210
0
220
0
230
1
0
LINE
5
B5
100
AcDbEntity
8
1
62
256
6
ByLayer
370
18
48
1
60
1
100
AcDbLine
10
-43.389216
20
-6.499998
30
0
11
-44.310784
21
-6.500002
31
0
39
0
210
0
220
0
230
1
0
LINE
5
B6
100
AcDbEntity
8
1
62
256
6
ByLayer
370
18
48
1
60
1
100
AcDbLine
10
-44.310784
20
-6.500002
30
0
11
-43.85
21
-3
31
0
39
0
210
0
220
0
230
1
0
LINE
5
B7
100
AcDbEntity
8
2
62
256
6
ByLayer
370
18
48
1
60
0
100
AcDbLine
10
46
20
17.815566
30
0
11
46
21
-10.2501
31
0
39
0
210
0
220
0
230
1
0
LINE
5
B9
100
AcDbEntity
8
2
62
256
6
ByLayer
370
18
48
1
60
0
100
AcDbLine
10
34.477628
20
1.5001
30
0
11
48
21
1.5001
31
0
39
0
210
0
220
0
230
1
0
LINE
5
BA
100
AcDbEntity
8
2
62
256
6
ByLayer
370
18
48
1
60
0
100
AcDbLine
10
34.477628
20
-1.5001
30
0
11
48
21
-1.5001
31
0
39
0
210
0
220
0
230
1
0
LINE
5
BB
100
AcDbEntity
8
1
62
256
6
ByLayer
370
18
48
1
60
1
100
AcDbLine
10
46
20
1.5001
30
0
11
45.539216
21
5.000098
31
0
39
0
210
0
220
0
230
1
0
LINE
5
BC
100
AcDbEntity
8
1
62
256
6
ByLayer
370
18
48
1
60
1
100
AcDbLine
10
45.539216
20
5.000098
30
0
11
46.460784
21
5.000102
31
0
39
0
210
0
220
0
230
1
0
LINE
5
BD
100
AcDbEntity
8
1
62
256
6
ByLayer
370
18
48
1
60
1
100
AcDbLine
10
46.460784
20
5.000102
30
0
11
46
21
1.5001
31
0
39
0
210
0
220
0
230
1
0
LINE
5
BE
100
AcDbEntity
8
1
62
256
6
ByLayer
370
18
48
1
60
1
100
AcDbLine
10
46
20
-1.5001
30
0
11
46.460784
21
-5.000098
31
0
39
0
210
0
220
0
230
1
0
LINE
5
BF
100
AcDbEntity
8
1
62
256
6
ByLayer
370
18
48
1
60
1
100
AcDbLine
10
46.460784
20
-5.000098
30
0
11
45.539216
21
-5.000102
31
0
39
0
210
0
220
0
230
1
0
LINE
5
C0
100
AcDbEntity
8
1
62
256
6
ByLayer
370
18
48
1
60
1
100
AcDbLine
10
45.539216
20
-5.000102
30
0
11
46
21
-1.5001
31
0
39
0
210
0
220
0
230
1
0
LINE
5
C1
100
AcDbEntity
8
SK2
62
256
6
ByLayer
370
18
48
1
60
0
100
AcDbLine
10
34
20
-47.1
30
0
11
-36
21
-47.1
31
0
39
0
210
0
220
0
230
1
0
LINE
5
C2
100
AcDbEntity
8
SK2
62
256
6
ByLayer
370
18
48
1
60
0
100
AcDbLine
10
-36
20
-4.1875
30
0
11
-36
21
-49.1
31
0
39
0
210
0
220
0
230
1
0
LINE
5
C3
100
AcDbEntity
8
SK2
62
256
6
ByLayer
370
18
48
1
60
0
100
AcDbLine
10
34
20
-1.5875
30
0
11
34
21
-49.1
31
0
39
0
210
0
220
0
230
1
0
LINE
5
C4
100
AcDbEntity
8
1
62
256
6
ByLayer
370
18
48
1
60
1
100
AcDbLine
10
-36
20
-47.1
30
0
11
-32.500002
21
-46.639216
31
0
39
0
210
0
220
0
230
1
0
LINE
5
C5
100
AcDbEntity
8
1
62
256
6
ByLayer
370
18
48
1
60
1
100
AcDbLine
10
-32.500002
20
-46.639216
30
0
11
-32.499998
21
-47.560784
31
0
39
0
210
0
220
0
230
1
0
LINE
5
C6
100
AcDbEntity
8
1
62
256
6
ByLayer
370
18
48
1
60
1
100
AcDbLine
10
-32.499998
20
-47.560784
30
0
11
-36
21
-47.1
31
0
39
0
210
0
220
0
230
1
0
LINE
5
C7
100
AcDbEntity
8
1
62
256
6
ByLayer
370
18
48
1
60
1
100
AcDbLine
10
34
20
-47.1
30
0
11
30.500002
21
-47.560784
31
0
39
0
210
0
220
0
230
1
0
LINE
5
C8
100
AcDbEntity
8
1
62
256
6
ByLayer
370
18
48
1
60
1
100
AcDbLine
10
30.500002
20
-47.560784
30
0
11
30.499998
21
-46.639216
31
0
39
0
210
0
220
0
230
1
0
LINE
5
C9
100
AcDbEntity
8
1
62
256
6
ByLayer
370
18
48
1
60
1
100
AcDbLine
10
30.499998
20
-46.639216
30
0
11
34
21
-47.1
31
0
39
0
210
0
220
0
230
1
0
LINE
5
CA
100
AcDbEntity
8
SK2
62
256
6
ByLayer
370
13
48
1
60
0
100
AcDbLine
10
33.397515
20
-1.201859
30
0
11
43.998131
21
-15.397101
31
0
39
0
210
0
220
0
230
1
0
LINE
5
CB
100
AcDbEntity
8
1
62
256
6
ByLayer
370
18
48
1
60
1
100
AcDbLine
10
33.397515
20
-1.201859
30
0
11
35.860915
21
-3.73049
31
0
39
0
210
0
220
0
230
1
0
LINE
5
CC
100
AcDbEntity
8
1
62
256
6
ByLayer
370
18
48
1
60
1
100
AcDbLine
10
35.860915
20
-3.73049
30
0
11
35.122521
21
-4.281906
31
0
39
0
210
0
220
0
230
1
0
LINE
5
CD
100
AcDbEntity
8
1
62
256
6
ByLayer
370
18
48
1
60
1
100
AcDbLine
10
35.122521
20
-4.281906
30
0
11
33.397515
21
-1.201859
31
0
39
0
210
0
220
0
230
1
0
LINE
5
162
100
AcDbEntity
8
1
62
256
6
ByLayer
370
18
48
1
60
1
100
AcDbLine
10
-43.85
20
3
30
0
11
-44.310784
21
6.499998
31
0
39
0
210
0
220
0
230
1
0
LINE
5
163
100
AcDbEntity
8
1
62
256
6
ByLayer
370
18
48
1
60
1
100
AcDbLine
10
-44.310784
20
6.499998
30
0
11
-43.389216
21
6.500002
31
0
39
0
210
0
220
0
230
1
0
LINE
5
164
100
AcDbEntity
8
1
62
256
6
ByLayer
370
18
48
1
60
1
100
AcDbLine
10
-43.389216
20
6.500002
30
0
11
-43.85
21
3
31
0
39
0
210
0
220
0
230
1
0
LINE
5
166
100
AcDbEntity
8
1
62
256
6
ByLayer
370
18
48
1
60
1
100
AcDbLine
10
-43.85
20
-3
30
0
11
-43.389216
21
-6.499998
31
0
39
0
210
0
220
0
230
1
0
LINE
5
167
100
AcDbEntity
8
1
62
256
6
ByLayer
370
18
48
1
60
1
100
AcDbLine
10
-43.389216
20
-6.499998
30
0
11
-44.310784
21
-6.500002
31
0
39
0
210
0
220
0
230
1
0
LINE
5
168
100
AcDbEntity
8
1
62
256
6
ByLayer
370
18
48
1
60
1
100
AcDbLine
10
-44.310784
20
-6.500002
30
0
11
-43.85
21
-3
31
0
39
0
210
0
220
0
230
1
0
LINE
5
16C
100
AcDbEntity
8
1
62
256
6
ByLayer
370
18
48
1
60
1
100
AcDbLine
10
46
20
1.5001
30
0
11
45.539216
21
5.000098
31
0
39
0
210
0
220
0
230
1
0
LINE
5
16D
100
AcDbEntity
8
1
62
256
6
ByLayer
370
18
48
1
60
1
100
AcDbLine
10
45.539216
20
5.000098
30
0
11
46.460784
21
5.000102
31
0
39
0
210
0
220
0
230
1
0
LINE
5
16E
100
AcDbEntity
8
1
62
256
6
ByLayer
370
18
48
1
60
1
100
AcDbLine
10
46.460784
20
5.000102
30
0
11
46
21
1.5001
31
0
39
0
210
0
220
0
230
1
0
LINE
5
170
100
AcDbEntity
8
1
62
256
6
ByLayer
370
18
48
1
60
1
100
AcDbLine
10
46
20
-1.5001
30
0
11
46.460784
21
-5.000098
31
0
39
0
210
0
220
0
230
1
0
LINE
5
171
100
AcDbEntity
8
1
62
256
6
ByLayer
370
18
48
1
60
1
100
AcDbLine
10
46.460784
20
-5.000098
30
0
11
45.539216
21
-5.000102
31
0
39
0
210
0
220
0
230
1
0
LINE
5
172
100
AcDbEntity
8
1
62
256
6
ByLayer
370
18
48
1
60
1
100
AcDbLine
10
45.539216
20
-5.000102
30
0
11
46
21
-1.5001
31
0
39
0
210
0
220
0
230
1
0
LINE
5
175
100
AcDbEntity
8
1
62
256
6
ByLayer
370
18
48
1
60
1
100
AcDbLine
10
-36
20
-47.1
30
0
11
-32.500002
21
-46.639216
31
0
39
0
210
0
220
0
230
1
0
LINE
5
176
100
AcDbEntity
8
1
62
256
6
ByLayer
370
18
48
1
60
1
100
AcDbLine
10
-32.500002
20
-46.639216
30
0
11
-32.499998
21
-47.560784
31
0
39
0
210
0
220
0
230
1
0
LINE
5
177
100
AcDbEntity
8
1
62
256
6
ByLayer
370
18
48
1
60
1
100
AcDbLine
10
-32.499998
20
-47.560784
30
0
11
-36
21
-47.1
31
0
39
0
210
0
220
0
230
1
0
LINE
5
179
100
AcDbEntity
8
1
62
256
6
ByLayer
370
18
48
1
60
1
100
AcDbLine
10
34
20
-47.1
30
0
11
30.500002
21
-47.560784
31
0
39
0
210
0
220
0
230
1
0
LINE
5
17A
100
AcDbEntity
8
1
62
256
6
ByLayer
370
18
48
1
60
1
100
AcDbLine
10
30.500002
20
-47.560784
30
0
11
30.499998
21
-46.639216
31
0
39
0
210
0
220
0
230
1
0
LINE
5
17B
100
AcDbEntity
8
1
62
256
6
ByLayer
370
18
48
1
60
1
100
AcDbLine
10
30.499998
20
-46.639216
30
0
11
34
21
-47.1
31
0
39
0
210
0
220
0
230
1
0
LINE
5
17F
100
AcDbEntity
8
1
62
256
6
ByLayer
370
18
48
1
60
1
100
AcDbLine
10
33.397515
20
-1.201859
30
0
11
35.860915
21
-3.73049
31
0
39
0
210
0
220
0
230
1
0
LINE
5
180
100
AcDbEntity
8
1
62
256
6
ByLayer
370
18
48
1
60
1
100
AcDbLine
10
35.860915
20
-3.73049
30
0
11
35.122521
21
-4.281906
31
0
39
0
210
0
220
0
230
1
0
LINE
5
181
100
AcDbEntity
8
1
62
256
6
ByLayer
370
18
48
1
60
1
100
AcDbLine
10
35.122521
20
-4.281906
30
0
11
33.397515
21
-1.201859
31
0
39
0
210
0
220
0
230
1
0
MTEXT
5
15E
100
AcDbEntity
8
SK2
62
256
6
ByLayer
370
18
48
1
60
0
100
AcDbMText
10
-45.414634
20
-17.380622
30
0
210
0
220
0
230
1
1
%%c
40
3.5
41
0
44
1.084337
50
90
71
7
72
5
7
iso_b_vert
0
MTEXT
5
161
100
AcDbEntity
8
SK2
62
256
6
ByLayer
370
18
48
1
60
0
100
AcDbMText
10
-45.414634
20
-10.407966
30
0
210
0
220
0
230
1
1
\W0.5404;6
40
3.5
41
0
44
1.084337
50
90
71
7
72
5
7
iso_b_vert
0
MTEXT
5
16A
100
AcDbEntity
8
2
62
256
6
ByLayer
370
18
48
1
60
0
100
AcDbMText
10
44.435366
20
9.434944
30
0
210
0
220
0
230
1
1
%%c
40
3.5
41
0
44
1.084337
50
90
71
7
72
5
7
iso_b_vert
0
MTEXT
5
16B
100
AcDbEntity
8
2
62
256
6
ByLayer
370
18
48
1
60
0
100
AcDbMText
10
44.435366
20
16.4076
30
0
210
0
220
0
230
1
1
\W0.5404;3
40
3.5
41
0
44
1.084337
50
90
71
7
72
5
7
iso_b_vert
0
MTEXT
5
174
100
AcDbEntity
8
SK2
62
256
6
ByLayer
370
18
48
1
60
0
100
AcDbMText
10
-2.904966
20
-46.067366
30
0
210
0
220
0
230
1
1
\W0.6740;70
40
3.5
41
0
44
1.084337
50
0
71
7
72
5
7
iso_b_vert
0
MTEXT
5
17D
100
AcDbEntity
8
SK2
62
256
6
ByLayer
370
18
48
1
60
0
100
AcDbMText
10
39.85391
20
-7.979096
30
0
210
0
220
0
230
1
1
\W0.6380;R
40
3.5
41
0
44
1.084337
50
306.751361641333
71
7
72
5
7
iso_b_vert
0
MTEXT
5
17E
100
AcDbEntity
8
SK2
62
256
6
ByLayer
370
18
48
1
60
0
100
AcDbMText
10
42.058208
20
-10.930863
30
0
210
0
220
0
230
1
1
\W0.6004;1.5
40
3.5
41
0
44
1.084337
50
306.751361641333
71
7
72
5
7
iso_b_vert
0
MTEXT
5
183
100
AcDbEntity
8
SK6
62
256
6
ByLayer
370
18
48
1
60
0
100
AcDbMText
10
-26.716132
20
-62.114886
30
0
210
0
220
0
230
1
1
\W0.7415;2B285-0300-TA       T2CH
40
3
41
0
44
1.084337
50
0
71
7
72
5
7
iso_b_vert
0
HATCH
5
165
100
AcDbEntity
8
SK2
62
256
6
ByLayer
370
13
48
1
60
0
100
AcDbHatch
10
0
20
0
30
0
210
0
220
0
230
1
2
ANSI31
70
0
71
0
91
1
92
5
93
3
72
1
10
-43.85
20
3
11
-44.3107837415528
21
6.49999830744682
72
1
10
-44.3107837415528
20
6.49999830744682
11
-43.3892162584472
21
6.50000169255318
72
1
10
-43.3892162584472
20
6.50000169255318
11
-43.85
21
3
97
0
75
0
76
1
52
0
41
0.0062
77
0
78
1
53
45
43
0
44
0
45
-0.0139193969876572
46
0.0139193969876572
79
0
47
0
98
1
10
0
20
0
0
HATCH
5
169
100
AcDbEntity
8
SK2
62
256
6
ByLayer
370
13
48
1
60
0
100
AcDbHatch
10
0
20
0
30
0
210
0
220
0
230
1
2
ANSI31
70
0
71
0
91
1
92
5
93
3
72
1
10
-43.85
20
-3
11
-43.3892162584472
21
-6.49999830744682
72
1
10
-43.3892162584472
20
-6.49999830744682
11
-44.3107837415528
21
-6.50000169255318
72
1
10
-44.3107837415528
20
-6.50000169255318
11
-43.85
21
-3
97
0
75
0
76
1
52
0
41
0.0062
77
0
78
1
53
45
43
0
44
0
45
-0.0139193969876572
46
0.0139193969876572
79
0
47
0
98
1
10
0
20
0
0
HATCH
5
16F
100
AcDbEntity
8
2
62
256
6
ByLayer
370
13
48
1
60
0
100
AcDbHatch
10
0
20
0
30
0
210
0
220
0
230
1
2
ANSI31
70
0
71
0
91
1
92
5
93
3
72
1
10
46
20
1.5001
11
45.5392162584472
21
5.00009830744682
72
1
10
45.5392162584472
20
5.00009830744682
11
46.4607837415528
21
5.00010169255319
72
1
10
46.4607837415528
20
5.00010169255319
11
46
21
1.5001
97
0
75
0
76
1
52
0
41
0.0062
77
0
78
1
53
45
43
0
44
0
45
-0.0139193969876572
46
0.0139193969876572
79
0
47
0
98
1
10
0
20
0
0
HATCH
5
173
100
AcDbEntity
8
2
62
256
6
ByLayer
370
13
48
1
60
0
100
AcDbHatch
10
0
20
0
30
0
210
0
220
0
230
1
2
ANSI31
70
0
71
0
91
1
92
5
93
3
72
1
10
46
20
-1.5001
11
46.4607837415528
21
-5.00009830744682
72
1
10
46.4607837415528
20
-5.00009830744682
11
45.5392162584472
21
-5.00010169255319
72
1
10
45.5392162584472
20
-5.00010169255319
11
46
21
-1.5001
97
0
75
0
76
1
52
0
41
0.0062
77
0
78
1
53
45
43
0
44
0
45
-0.0139193969876572
46
0.0139193969876572
79
0
47
0
98
1
10
0
20
0
0
HATCH
5
178
100
AcDbEntity
8
SK2
62
256
6
ByLayer
370
13
48
1
60
0
100
AcDbHatch
10
0
20
0
30
0
210
0
220
0
230
1
2
ANSI31
70
0
71
0
91
1
92
5
93
3
72
1
10
-36
20
-47.1000000000003
11
-32.5000016925532
21
-46.6392162584475
72
1
10
-32.5000016925532
20
-46.6392162584475
11
-32.4999983074468
21
-47.560783741553
72
1
10
-32.4999983074468
20
-47.560783741553
11
-36
21
-47.1000000000003
97
0
75
0
76
1
52
0
41
0.0062
77
0
78
1
53
45
43
0
44
0
45
-0.0139193969876572
46
0.0139193969876572
79
0
47
0
98
1
10
0
20
0
0
HATCH
5
17C
100
AcDbEntity
8
SK2
62
256
6
ByLayer
370
13
48
1
60
0
100
AcDbHatch
10
0
20
0
30
0
210
0
220
0
230
1
2
ANSI31
70
0
71
0
91
1
92
5
93
3
72
1
10
34
20
-47.1000000000003
11
30.5000016925532
21
-47.560783741553
72
1
10
30.5000016925532
20
-47.560783741553
11
30.4999983074468
21
-46.6392162584475
72
1
10
30.4999983074468
20
-46.6392162584475
11
34
21
-47.1000000000003
97
0
75
0
76
1
52
0
41
0.0062
77
0
78
1
53
45
43
0
44
0
45
-0.0139193969876572
46
0.0139193969876572
79
0
47
0
98
1
10
0
20
0
0
HATCH
5
182
100
AcDbEntity
8
SK2
62
256
6
ByLayer
370
13
48
1
60
0
100
AcDbHatch
10
0
20
0
30
0
210
0
220
0
230
1
2
ANSI31
70
0
71
0
91
1
92
5
93
3
72
1
10
33.3975154634475
20
-1.20185938980924
11
35.8609153764009
21
-3.73048958765767
72
1
10
35.8609153764009
20
-3.73048958765767
11
35.1225210465823
21
-4.28190634440401
72
1
10
35.1225210465823
20
-4.28190634440401
11
33.3975154634475
21
-1.20185938980924
97
0
75
0
76
1
52
0
41
0.0062
77
0
78
1
53
45
43
0
44
0
45
-0.0139193969876572
46
0.0139193969876572
79
0
47
0
98
1
10
0
20
0
0
DIMENSION
5
186
100
AcDbEntity
8
SK2
62
256
6
ByLayer
370
18
48
1
60
0
100
AcDbDimension
2
_U0
10
0
20
-37.1
30
0
11
17
21
-37.1
31
0
70
32
71
1
72
1
41
1
210
0
220
0
230
1
3
Standard
100
AcDbAlignedDimension
13
34
23
0
33
0
14
0
24
0
34
0
50
0
100
AcDbRotatedDimension
1001
ACAD
1000
DSTYLE
1002
{
1070
   371
1070
    13
1070
   372
1070
    13
1070
   170
1070
     0
1070
   144
1040
1.0
1070
   277
1070
     2
1070
   284
1070
     8
1070
   278
1070
    46
1070
   146
1040
1.0
1070
   345
1005
16
1070
   347
1005
16
1070
   346
1005
16
1070
   344
1005
0
1070
   343
1005
0
1070
   172
1070
     1
1070
    76
1070
     0
1070
    75
1070
     0
1070
   282
1070
     0
1070
   281
1070
     0
1070
    71
1070
     0
1070
    74
1070
     0
1070
   279
1070
     0
1070
   173
1070
     1
1070
   340
1005
15F
1070
   271
1070
     2
1070
   272
1070
     2
1070
    77
1070
     1
1070
    73
1070
     1
1070
   171
1070
     3
1070
   274
1070
     4
1070
   177
1070
     2
1070
   176
1070
     2
1070
   178
1070
     2
1070
    78
1070
     8
1070
    48
1040
-0.1
1070
    41
1040
3.5
1070
   147
1040
1.75
1070
    42
1040
1.5875
1070
    44
1040
2.0
1070
   140
1040
3.5
1002
}
1001
ACAD_DSTYLE_DIM_LINETYPE
1070
   380
1005
16
1001
ACAD_DSTYLE_DIM_EXT1_LINETYPE
1070
   381
1005
16
1001
ACAD_DSTYLE_DIM_EXT2_LINETYPE
1070
   382
1005
16
0
DIMENSION
5
19F
100
AcDbEntity
8
2
62
256
6
ByLayer
370
18
48
1
60
0
100
AcDbDimension
2
_U1
10
29.5
20
-20.6
30
0
11
49.916667
21
-20.6
31
0
70
32
71
1
72
1
41
1
210
0
220
0
230
1
3
Standard
100
AcDbAlignedDimension
13
34
23
0
33
0
14
29.5
24
0
34
0
50
0
100
AcDbRotatedDimension
1001
ACAD
1000
DSTYLE
1002
{
1070
   371
1070
    13
1070
   372
1070
    13
1070
   170
1070
     0
1070
   144
1040
1.0
1070
   277
1070
     2
1070
   284
1070
     8
1070
   278
1070
    46
1070
   146
1040
1.0
1070
   345
1005
16
1070
   347
1005
16
1070
   346
1005
16
1070
   344
1005
0
1070
   343
1005
0
1070
   172
1070
     1
1070
    76
1070
     0
1070
    75
1070
     0
1070
   282
1070
     0
1070
   281
1070
     0
1070
    71
1070
     0
1070
    74
1070
     0
1070
   279
1070
     0
1070
   173
1070
     1
1070
   340
1005
15F
1070
   271
1070
     2
1070
   272
1070
     2
1070
    77
1070
     1
1070
    73
1070
     1
1070
   171
1070
     3
1070
   274
1070
     4
1070
   177
1070
     2
1070
   176
1070
     2
1070
   178
1070
     2
1070
    78
1070
     8
1070
    48
1040
-0.1
1070
    41
1040
3.5
1070
   147
1040
1.75
1070
    42
1040
1.5875
1070
    44
1040
2.0
1070
   140
1040
3.5
1002
}
1001
ACAD_DSTYLE_DIM_LINETYPE
1070
   380
1005
16
1001
ACAD_DSTYLE_DIM_EXT1_LINETYPE
1070
   381
1005
16
1001
ACAD_DSTYLE_DIM_EXT2_LINETYPE
1070
   382
1005
16
0
ENDSEC
0
SECTION
2
OBJECTS
0
DICTIONARY
5
229
330
0
100
AcDbDictionary
280
0
281
1
3
ACAD_GROUP
350
22a
3
ACAD_MLINESTYLE
350
22b
0
DICTIONARY
5
22a
330
0
100
AcDbDictionary
280
0
281
1
0
DICTIONARY
5
22b
330
0
100
AcDbDictionary
280
0
281
1
3
Standard
350
18
0
MLINESTYLE
5
18
330
22b
100
AcDbMlineStyle
2
Standard
70
0
3

62
256
51
90
52
90
71
2
49
-0.5
62
256
6
ByLayer
49
0.5
62
256
6
ByLayer
0
RASTERVARIABLES
5
217
330

100
AcDbRasterVariables
90
0
70
1
71
1
72
1
0
ENDSEC
0
EOF
