0
SECTION
2
HEADER
9
$ACADVER
1
AC1015
9
$DWGCODEPAGE
3
ANSI_1252
9
$HANDSEED
5
226
9
$ANGBASE
50
0
9
$ANGDIR
70
0
9
$ATTMODE
70
1
9
$AUNITS
70
0
9
$AUPREC
70
0
9
$CECOLOR
62
256
9
$CELTSCALE
40
1
9
$CELTYPE
6
ByLayer
9
$CELWEIGHT
370
18
9
$CLAYER
8
0
9
$CMLJUST
70
0
9
$CMLSCALE
40
1
9
$CMLSTYLE
2
Standard
9
$DIMSTYLE
2
Standard
9
$TEXTSIZE
40
0.2
9
$TEXTSTYLE
7
Standard
9
$LUNITS
70
2
9
$LUPREC
70
4
9
$EXTNAMES
290
1
9
$INSUNITS
70
4
9
$LTSCALE
40
1
9
$LWDISPLAY
290
1
9
$PDMODE
70
0
9
$PDSIZE
40
0
9
$PLINEGEN
70
0
0
ENDSEC
0
SECTION
2
CLASSES
0
CLASS
1
RASTERVARIABLES
2
AcDbRasterVariables
3
ISM
90
0
280
0
281
0
0
ENDSEC
0
SECTION
2
TABLES
0
TABLE
2
VPORT
5
21c
100
AcDbSymbolTable
0
VPORT
5
1
100
AcDbSymbolTableRecord
100
AcDbViewportTableRecord
2
*Active
70
0
10
0
20
0
11
1
21
1
12
-1
22
1
13
0
23
0
14
0.5
24
0.5
15
10
25
10
16
0
26
0
36
1
17
0
27
0
37
0
0
ENDTAB
0
TABLE
2
LTYPE
5
21d
100
AcDbSymbolTable
0
LTYPE
5
14
100
AcDbSymbolTableRecord
100
AcDbLinetypeTableRecord
70
0
2
ByBlock
3

72
65
73
0
40
0
0
LTYPE
5
15
100
AcDbSymbolTableRecord
100
AcDbLinetypeTableRecord
70
0
2
ByLayer
3

72
65
73
0
40
0
0
LTYPE
5
16
100
AcDbSymbolTableRecord
100
AcDbLinetypeTableRecord
70
0
2
Continuous
3
Solid line
72
65
73
0
40
0
0
LTYPE
5
6E
100
AcDbSymbolTableRecord
100
AcDbLinetypeTableRecord
70
0
2
CENTER
3
____ _ ____ _ ____ _ ____
72
65
73
4
40
47.5
49
22
74
0
49
-8.5
74
0
49
8.5
74
0
49
-8.5
74
0
0
LTYPE
5
6F
100
AcDbSymbolTableRecord
100
AcDbLinetypeTableRecord
70
0
2
DASHED
3
__ __ __ __ __ __ __ __ __
72
65
73
2
40
25.72
49
12.86
74
0
49
-12.86
74
0
0
ENDTAB
0
TABLE
2
LAYER
5
21e
100
AcDbSymbolTable
0
LAYER
5
10
100
AcDbSymbolTableRecord
100
AcDbLayerTableRecord
2
0
70
0
62
7
6
Continuous
290
1
370
-3
390
0
0
LAYER
5
71
100
AcDbSymbolTableRecord
100
AcDbLayerTableRecord
2
80
70
0
62
-6
6
Continuous
290
1
370
-3
390
0
0
LAYER
5
73
100
AcDbSymbolTableRecord
100
AcDbLayerTableRecord
2
81
70
0
62
-3
6
Continuous
290
1
370
-3
390
0
0
LAYER
5
75
100
AcDbSymbolTableRecord
100
AcDbLayerTableRecord
2
1
70
0
62
4
6
Continuous
290
1
370
-3
390
0
0
LAYER
5
87
100
AcDbSymbolTableRecord
100
AcDbLayerTableRecord
2
4
70
0
62
-2
6
CENTER
290
1
370
-3
390
0
0
LAYER
5
A2
100
AcDbSymbolTableRecord
100
AcDbLayerTableRecord
2
2
70
0
62
7
6
Continuous
290
1
370
-3
390
0
0
LAYER
5
131
100
AcDbSymbolTableRecord
100
AcDbLayerTableRecord
2
Defpoints
70
0
62
7
6
Continuous
290
0
370
-3
390
0
0
LAYER
5
208
100
AcDbSymbolTableRecord
100
AcDbLayerTableRecord
2
SK4
70
0
62
2
6
CENTER
290
1
370
-3
390
0
0
LAYER
5
209
100
AcDbSymbolTableRecord
100
AcDbLayerTableRecord
2
SK1
70
0
62
4
6
Continuous
290
1
370
-3
390
0
0
LAYER
5
20a
100
AcDbSymbolTableRecord
100
AcDbLayerTableRecord
2
SK2
70
0
62
7
6
Continuous
290
1
370
-3
390
0
0
LAYER
5
20b
100
AcDbSymbolTableRecord
100
AcDbLayerTableRecord
2
SK6
70
0
62
5
6
Continuous
290
1
370
-3
390
0
0
ENDTAB
0
TABLE
2
STYLE
5
21f
100
AcDbSymbolTable
0
STYLE
5
11
100
AcDbSymbolTableRecord
100
AcDbTextStyleTableRecord
2
Standard
3
txt
70
0
71
0
40
0
41
1
42
0
50
0
0
STYLE
5
10D
100
AcDbSymbolTableRecord
100
AcDbTextStyleTableRecord
2
iso_b_vert
3
simplex.shx
70
0
71
0
40
0
41
1
42
0
50
0
0
STYLE
5
10E
100
AcDbSymbolTableRecord
100
AcDbTextStyleTableRecord
2
DWGDirectTextStyle
3
simplex
70
0
71
0
40
0
41
1
42
0
50
0
0
ENDTAB
0
TABLE
2
DIMSTYLE
5
220
100
AcDbSymbolTable
100
AcDbDimStyleTable
0
DIMSTYLE
105
27
100
AcDbSymbolTableRecord
100
AcDbDimStyleTableRecord
2
Standard
70
0
3
<>
41
0.18
42
0.0625
44
0.18
140
0.18
147
0.09
73
0
74
0
77
1
271
2
275
0
278
52
280
0
340
11
0
ENDTAB
0
TABLE
2
VIEW
5
221
100
AcDbSymbolTable
0
ENDTAB
0
TABLE
2
UCS
5
222
100
AcDbSymbolTable
0
ENDTAB
0
TABLE
2
APPID
5
223
100
AcDbSymbolTable
0
APPID
5
12
100
AcDbSymbolTableRecord
100
AcDbRegAppTableRecord
2
ACAD
70
0
0
APPID
5
12D
100
AcDbSymbolTableRecord
100
AcDbRegAppTableRecord
2
ACAD_DSTYLE_DIMBREAK
70
0
0
APPID
5
1C7
100
AcDbSymbolTableRecord
100
AcDbRegAppTableRecord
2
ACAD_DSTYLE_DIM_LINETYPE
70
0
0
APPID
5
1C8
100
AcDbSymbolTableRecord
100
AcDbRegAppTableRecord
2
ACAD_DSTYLE_DIM_EXT1_LINETYPE
70
0
0
APPID
5
1C9
100
AcDbSymbolTableRecord
100
AcDbRegAppTableRecord
2
ACAD_DSTYLE_DIM_EXT2_LINETYPE
70
0
0
APPID
5
204
100
AcDbSymbolTableRecord
100
AcDbRegAppTableRecord
2
ACAD_MLEADERVER
70
0
0
ENDTAB
0
TABLE
2
BLOCK_RECORD
5
224
100
AcDbSymbolTable
0
BLOCK_RECORD
5
1F
100
AcDbSymbolTableRecord
100
AcDbBlockTableRecord
2
*Model_Space
340
0
70
0
0
BLOCK_RECORD
5
1B
100
AcDbSymbolTableRecord
100
AcDbBlockTableRecord
2
*Paper_Space
340
0
70
0
0
BLOCK_RECORD
5
23
100
AcDbSymbolTableRecord
100
AcDbBlockTableRecord
2
*Paper_Space0
340
0
70
0
0
BLOCK_RECORD
5
132
100
AcDbSymbolTableRecord
100
AcDbBlockTableRecord
2
*D1
340
0
70
0
0
BLOCK_RECORD
5
13E
100
AcDbSymbolTableRecord
100
AcDbBlockTableRecord
2
_U0
340
0
70
0
0
BLOCK_RECORD
5
14A
100
AcDbSymbolTableRecord
100
AcDbBlockTableRecord
2
*D3
340
0
70
0
0
BLOCK_RECORD
5
156
100
AcDbSymbolTableRecord
100
AcDbBlockTableRecord
2
_U1
340
0
70
0
0
BLOCK_RECORD
5
162
100
AcDbSymbolTableRecord
100
AcDbBlockTableRecord
2
*D5
340
0
70
0
0
BLOCK_RECORD
5
16E
100
AcDbSymbolTableRecord
100
AcDbBlockTableRecord
2
_U2
340
0
70
0
0
BLOCK_RECORD
5
17C
100
AcDbSymbolTableRecord
100
AcDbBlockTableRecord
2
*D7
340
0
70
0
0
BLOCK_RECORD
5
188
100
AcDbSymbolTableRecord
100
AcDbBlockTableRecord
2
_U3
340
0
70
0
0
BLOCK_RECORD
5
194
100
AcDbSymbolTableRecord
100
AcDbBlockTableRecord
2
*D9
340
0
70
0
0
BLOCK_RECORD
5
1A0
100
AcDbSymbolTableRecord
100
AcDbBlockTableRecord
2
_U4
340
0
70
0
0
ENDTAB
0
ENDSEC
0
SECTION
2
BLOCKS
0
BLOCK
5
20
100
AcDbEntity
8
0
100
AcDbBlockBegin
2
*Model_Space
70
0
10
0
20
0
30
0
3
*Model_Space
0
ENDBLK
5
21
100
AcDbEntity
8
0
100
AcDbBlockEnd
0
BLOCK
5
1C
100
AcDbEntity
8
0
100
AcDbBlockBegin
2
*Paper_Space
70
0
10
0
20
0
30
0
3
*Paper_Space
0
ENDBLK
5
1D
100
AcDbEntity
8
0
100
AcDbBlockEnd
0
BLOCK
5
24
100
AcDbEntity
8
0
100
AcDbBlockBegin
2
*Paper_Space0
70
0
10
0
20
0
30
0
3
*Paper_Space0
0
ENDBLK
5
25
100
AcDbEntity
8
0
100
AcDbBlockEnd
0
BLOCK
5
133
100
AcDbEntity
8
0
100
AcDbBlockBegin
2
*D1
70
1
10
0
20
0
30
0
3
*D1
0
LINE
5
135
100
AcDbEntity
8
0
62
256
6
ByLayer
370
-2
48
1
60
0
100
AcDbLine
10
-48
20
-9.5875
30
0
11
-48
21
-67.906987
31
0
39
0
210
0
220
0
230
1
0
LINE
5
136
100
AcDbEntity
8
0
62
256
6
ByLayer
370
-2
48
1
60
0
100
AcDbLine
10
67
20
-8.9875
30
0
11
67
21
-67.906987
31
0
39
0
210
0
220
0
230
1
0
LINE
5
137
100
AcDbEntity
8
0
62
256
6
ByLayer
370
-2
48
1
60
0
100
AcDbLine
10
-44.5
20
-65.906987
30
0
11
63.5
21
-65.906987
31
0
39
0
210
0
220
0
230
1
0
SOLID
5
138
100
AcDbEntity
8
0
62
256
6
ByLayer
370
-1
48
1
60
0
100
AcDbTrace
10
-44.5
20
-65.323654
30
0
11
-44.5
21
-66.49032
31
0
12
-48
22
-65.906987
32
0
13
-48
23
-65.906987
33
0
39
0
210
0
220
0
230
1
0
SOLID
5
139
100
AcDbEntity
8
0
62
256
6
ByLayer
370
-1
48
1
60
0
100
AcDbTrace
10
63.5
20
-66.49032
30
0
11
63.5
21
-65.323654
31
0
12
67
22
-65.906987
32
0
13
67
23
-65.906987
33
0
39
0
210
0
220
0
230
1
0
MTEXT
5
13A
100
AcDbEntity
8
0
62
256
6
ByLayer
370
18
48
1
60
0
100
AcDbMText
10
9.5
20
-58.906987
30
0
210
0
220
0
230
1
1
\A1;115
40
3.5
41
0
44
1
50
0
71
5
72
5
7
iso_b_vert
0
POINT
5
13B
100
AcDbEntity
8
Defpoints
62
0
6
ByLayer
370
-1
48
1
60
0
100
AcDbPoint
10
-48
20
-8
30
0
39
0
210
0
220
0
230
1
50
360
0
POINT
5
13C
100
AcDbEntity
8
Defpoints
62
0
6
ByLayer
370
-1
48
1
60
0
100
AcDbPoint
10
67
20
-7.4
30
0
39
0
210
0
220
0
230
1
50
360
0
POINT
5
13D
100
AcDbEntity
8
Defpoints
62
0
6
ByLayer
370
-1
48
1
60
0
100
AcDbPoint
10
67
20
-65.906987
30
0
39
0
210
0
220
0
230
1
50
360
0
ENDBLK
5
134
100
AcDbEntity
8
0
100
AcDbBlockEnd
0
BLOCK
5
145
100
AcDbEntity
8
0
100
AcDbBlockBegin
2
_U0
70
0
10
0
20
0
30
0
3
_U0
0
MTEXT
5
13F
100
AcDbEntity
8
2
62
256
6
ByLayer
370
18
48
1
60
0
100
AcDbMText
10
7.162167
20
-64.874353
30
0
210
0
220
0
230
1
1
\W0.5296;115
40
3.5
41
0
44
1.084337
50
0
71
7
72
5
7
iso_b_vert
0
LINE
5
140
100
AcDbEntity
8
2
62
256
6
ByLayer
370
13
48
1
60
0
100
AcDbLine
10
-48
20
-9.5875
30
0
11
-48
21
-67.906987
31
0
39
0
210
0
220
0
230
1
0
LINE
5
141
100
AcDbEntity
8
2
62
256
6
ByLayer
370
13
48
1
60
0
100
AcDbLine
10
67
20
-8.9875
30
0
11
67
21
-67.906987
31
0
39
0
210
0
220
0
230
1
0
LINE
5
142
100
AcDbEntity
8
2
62
256
6
ByLayer
370
13
48
1
60
0
100
AcDbLine
10
-48
20
-65.906987
30
0
11
67
21
-65.906987
31
0
39
0
210
0
220
0
230
1
0
SOLID
5
143
100
AcDbEntity
8
2
62
256
6
ByLayer
370
18
48
1
60
0
100
AcDbTrace
10
-48
20
-65.906987
30
0
11
-44.500002
21
-65.446203
31
0
12
-44.499998
22
-66.367771
32
0
13
-44.499998
23
-66.367771
33
0
39
0
210
0
220
0
230
1
0
SOLID
5
144
100
AcDbEntity
8
2
62
256
6
ByLayer
370
18
48
1
60
0
100
AcDbTrace
10
67
20
-65.906987
30
0
11
63.500002
21
-66.367771
31
0
12
63.499998
22
-65.446203
32
0
13
63.499998
23
-65.446203
33
0
39
0
210
0
220
0
230
1
0
ENDBLK
5
146
100
AcDbEntity
8
0
100
AcDbBlockEnd
0
BLOCK
5
14B
100
AcDbEntity
8
0
100
AcDbBlockBegin
2
*D3
70
1
10
0
20
0
30
0
3
*D3
0
LINE
5
14D
100
AcDbEntity
8
0
62
256
6
ByLayer
370
-2
48
1
60
0
100
AcDbLine
10
67
20
-8.9875
30
0
11
67
21
-47.906987
31
0
39
0
210
0
220
0
230
1
0
LINE
5
14E
100
AcDbEntity
8
0
62
256
6
ByLayer
370
-2
48
1
60
0
100
AcDbLine
10
2
20
-8.9875
30
0
11
2
21
-47.906987
31
0
39
0
210
0
220
0
230
1
0
LINE
5
14F
100
AcDbEntity
8
0
62
256
6
ByLayer
370
-2
48
1
60
0
100
AcDbLine
10
63.5
20
-45.906987
30
0
11
5.5
21
-45.906987
31
0
39
0
210
0
220
0
230
1
0
SOLID
5
150
100
AcDbEntity
8
0
62
256
6
ByLayer
370
-1
48
1
60
0
100
AcDbTrace
10
63.5
20
-46.49032
30
0
11
63.5
21
-45.323654
31
0
12
67
22
-45.906987
32
0
13
67
23
-45.906987
33
0
39
0
210
0
220
0
230
1
0
SOLID
5
151
100
AcDbEntity
8
0
62
256
6
ByLayer
370
-1
48
1
60
0
100
AcDbTrace
10
5.5
20
-45.323654
30
0
11
5.5
21
-46.49032
31
0
12
2
22
-45.906987
32
0
13
2
23
-45.906987
33
0
39
0
210
0
220
0
230
1
0
MTEXT
5
152
100
AcDbEntity
8
0
62
256
6
ByLayer
370
18
48
1
60
0
100
AcDbMText
10
34.5
20
-38.906987
30
0
210
0
220
0
230
1
1
\A1;65
40
3.5
41
0
44
1
50
0
71
5
72
5
7
iso_b_vert
0
POINT
5
153
100
AcDbEntity
8
Defpoints
62
0
6
ByLayer
370
-1
48
1
60
0
100
AcDbPoint
10
67
20
-7.4
30
0
39
0
210
0
220
0
230
1
50
360
0
POINT
5
154
100
AcDbEntity
8
Defpoints
62
0
6
ByLayer
370
-1
48
1
60
0
100
AcDbPoint
10
2
20
-7.4
30
0
39
0
210
0
220
0
230
1
50
360
0
POINT
5
155
100
AcDbEntity
8
Defpoints
62
0
6
ByLayer
370
-1
48
1
60
0
100
AcDbPoint
10
2
20
-45.906987
30
0
39
0
210
0
220
0
230
1
50
360
0
ENDBLK
5
14C
100
AcDbEntity
8
0
100
AcDbBlockEnd
0
BLOCK
5
15D
100
AcDbEntity
8
0
100
AcDbBlockBegin
2
_U1
70
0
10
0
20
0
30
0
3
_U1
0
MTEXT
5
157
100
AcDbEntity
8
SK2
62
256
6
ByLayer
370
18
48
1
60
0
100
AcDbMText
10
32.595034
20
-44.874353
30
0
210
0
220
0
230
1
1
\W0.6740;65
40
3.5
41
0
44
1.084337
50
0
71
7
72
5
7
iso_b_vert
0
LINE
5
158
100
AcDbEntity
8
SK2
62
256
6
ByLayer
370
13
48
1
60
0
100
AcDbLine
10
67
20
-8.9875
30
0
11
67
21
-47.906987
31
0
39
0
210
0
220
0
230
1
0
LINE
5
159
100
AcDbEntity
8
SK2
62
256
6
ByLayer
370
13
48
1
60
0
100
AcDbLine
10
2
20
-8.9875
30
0
11
2
21
-47.906987
31
0
39
0
210
0
220
0
230
1
0
LINE
5
15A
100
AcDbEntity
8
SK2
62
256
6
ByLayer
370
13
48
1
60
0
100
AcDbLine
10
67
20
-45.906987
30
0
11
2
21
-45.906987
31
0
39
0
210
0
220
0
230
1
0
SOLID
5
15B
100
AcDbEntity
8
SK2
62
256
6
ByLayer
370
18
48
1
60
0
100
AcDbTrace
10
67
20
-45.906987
30
0
11
63.500002
21
-46.367771
31
0
12
63.499998
22
-45.446203
32
0
13
63.499998
23
-45.446203
33
0
39
0
210
0
220
0
230
1
0
SOLID
5
15C
100
AcDbEntity
8
SK2
62
256
6
ByLayer
370
18
48
1
60
0
100
AcDbTrace
10
2
20
-45.906987
30
0
11
5.499998
21
-45.446203
31
0
12
5.500002
22
-46.367771
32
0
13
5.500002
23
-46.367771
33
0
39
0
210
0
220
0
230
1
0
ENDBLK
5
15E
100
AcDbEntity
8
0
100
AcDbBlockEnd
0
BLOCK
5
163
100
AcDbEntity
8
0
100
AcDbBlockBegin
2
*D5
70
1
10
0
20
0
30
0
3
*D5
0
LINE
5
165
100
AcDbEntity
8
0
62
256
6
ByLayer
370
-2
48
1
60
0
100
AcDbLine
10
67
20
-8.9875
30
0
11
67
21
-37.906987
31
0
39
0
210
0
220
0
230
1
0
LINE
5
166
100
AcDbEntity
8
0
62
256
6
ByLayer
370
-2
48
1
60
0
100
AcDbLine
10
22
20
-8.9875
30
0
11
22
21
-37.906987
31
0
39
0
210
0
220
0
230
1
0
LINE
5
167
100
AcDbEntity
8
0
62
256
6
ByLayer
370
-2
48
1
60
0
100
AcDbLine
10
63.5
20
-35.906987
30
0
11
25.5
21
-35.906987
31
0
39
0
210
0
220
0
230
1
0
SOLID
5
168
100
AcDbEntity
8
0
62
256
6
ByLayer
370
-1
48
1
60
0
100
AcDbTrace
10
63.5
20
-36.49032
30
0
11
63.5
21
-35.323654
31
0
12
67
22
-35.906987
32
0
13
67
23
-35.906987
33
0
39
0
210
0
220
0
230
1
0
SOLID
5
169
100
AcDbEntity
8
0
62
256
6
ByLayer
370
-1
48
1
60
0
100
AcDbTrace
10
25.5
20
-35.323654
30
0
11
25.5
21
-36.49032
31
0
12
22
22
-35.906987
32
0
13
22
23
-35.906987
33
0
39
0
210
0
220
0
230
1
0
MTEXT
5
16A
100
AcDbEntity
8
0
62
256
6
ByLayer
370
18
48
1
60
0
100
AcDbMText
10
44.5
20
-28.906987
30
0
210
0
220
0
230
1
1
\A1;45
40
3.5
41
0
44
1
50
0
71
5
72
5
7
iso_b_vert
0
POINT
5
16B
100
AcDbEntity
8
Defpoints
62
0
6
ByLayer
370
-1
48
1
60
0
100
AcDbPoint
10
67
20
-7.4
30
0
39
0
210
0
220
0
230
1
50
360
0
POINT
5
16C
100
AcDbEntity
8
Defpoints
62
0
6
ByLayer
370
-1
48
1
60
0
100
AcDbPoint
10
22
20
-7.4
30
0
39
0
210
0
220
0
230
1
50
360
0
POINT
5
16D
100
AcDbEntity
8
Defpoints
62
0
6
ByLayer
370
-1
48
1
60
0
100
AcDbPoint
10
22
20
-35.906987
30
0
39
0
210
0
220
0
230
1
50
360
0
ENDBLK
5
164
100
AcDbEntity
8
0
100
AcDbBlockEnd
0
BLOCK
5
177
100
AcDbEntity
8
0
100
AcDbBlockBegin
2
_U2
70
0
10
0
20
0
30
0
3
_U2
0
MTEXT
5
16F
100
AcDbEntity
8
SK2
62
256
6
ByLayer
370
18
48
1
60
0
100
AcDbMText
10
42.410767
20
-34.874353
30
0
210
0
220
0
230
1
1
\W0.7361;45
40
3.5
41
0
44
1.084337
50
0
71
7
72
5
7
iso_b_vert
0
MTEXT
5
170
100
AcDbEntity
8
SK2
62
256
6
ByLayer
370
18
48
1
60
0
100
AcDbMText
10
38.542768
20
-34.874353
30
0
210
0
220
0
230
1
1
\W0.1790;(
40
3.5
41
0
44
1.084337
50
0
71
7
72
5
7
iso_b_vert
0
MTEXT
5
171
100
AcDbEntity
8
SK2
62
256
6
ByLayer
370
18
48
1
60
0
100
AcDbMText
10
50.460233
20
-34.874353
30
0
210
0
220
0
230
1
1
\W0.1969;)
40
3.5
41
0
44
1.084337
50
0
71
7
72
5
7
iso_b_vert
0
LINE
5
172
100
AcDbEntity
8
SK2
62
256
6
ByLayer
370
13
48
1
60
0
100
AcDbLine
10
67
20
-8.9875
30
0
11
67
21
-37.906987
31
0
39
0
210
0
220
0
230
1
0
LINE
5
173
100
AcDbEntity
8
SK2
62
256
6
ByLayer
370
13
48
1
60
0
100
AcDbLine
10
22
20
-8.9875
30
0
11
22
21
-37.906987
31
0
39
0
210
0
220
0
230
1
0
LINE
5
174
100
AcDbEntity
8
SK2
62
256
6
ByLayer
370
13
48
1
60
0
100
AcDbLine
10
67
20
-35.906987
30
0
11
22
21
-35.906987
31
0
39
0
210
0
220
0
230
1
0
SOLID
5
175
100
AcDbEntity
8
SK2
62
256
6
ByLayer
370
18
48
1
60
0
100
AcDbTrace
10
67
20
-35.906987
30
0
11
63.500002
21
-36.367771
31
0
12
63.499998
22
-35.446203
32
0
13
63.499998
23
-35.446203
33
0
39
0
210
0
220
0
230
1
0
SOLID
5
176
100
AcDbEntity
8
SK2
62
256
6
ByLayer
370
18
48
1
60
0
100
AcDbTrace
10
22
20
-35.906987
30
0
11
25.499998
21
-35.446203
31
0
12
25.500002
22
-36.367771
32
0
13
25.500002
23
-36.367771
33
0
39
0
210
0
220
0
230
1
0
ENDBLK
5
178
100
AcDbEntity
8
0
100
AcDbBlockEnd
0
BLOCK
5
17D
100
AcDbEntity
8
0
100
AcDbBlockBegin
2
*D7
70
1
10
0
20
0
30
0
3
*D7
0
LINE
5
17F
100
AcDbEntity
8
0
62
256
6
ByLayer
370
-2
48
1
60
0
100
AcDbLine
10
-48
20
-9.5875
30
0
11
-48
21
-47.906987
31
0
39
0
210
0
220
0
230
1
0
LINE
5
180
100
AcDbEntity
8
0
62
256
6
ByLayer
370
-2
48
1
60
0
100
AcDbLine
10
0
20
-9.5875
30
0
11
0
21
-47.906987
31
0
39
0
210
0
220
0
230
1
0
LINE
5
181
100
AcDbEntity
8
0
62
256
6
ByLayer
370
-2
48
1
60
0
100
AcDbLine
10
-44.5
20
-45.906987
30
0
11
-3.5
21
-45.906987
31
0
39
0
210
0
220
0
230
1
0
SOLID
5
182
100
AcDbEntity
8
0
62
256
6
ByLayer
370
-1
48
1
60
0
100
AcDbTrace
10
-44.5
20
-45.323654
30
0
11
-44.5
21
-46.49032
31
0
12
-48
22
-45.906987
32
0
13
-48
23
-45.906987
33
0
39
0
210
0
220
0
230
1
0
SOLID
5
183
100
AcDbEntity
8
0
62
256
6
ByLayer
370
-1
48
1
60
0
100
AcDbTrace
10
-3.5
20
-46.49032
30
0
11
-3.5
21
-45.323654
31
0
12
0
22
-45.906987
32
0
13
0
23
-45.906987
33
0
39
0
210
0
220
0
230
1
0
MTEXT
5
184
100
AcDbEntity
8
0
62
256
6
ByLayer
370
18
48
1
60
0
100
AcDbMText
10
-24
20
-38.906987
30
0
210
0
220
0
230
1
1
\A1;48
40
3.5
41
0
44
1
50
0
71
5
72
5
7
iso_b_vert
0
POINT
5
185
100
AcDbEntity
8
Defpoints
62
0
6
ByLayer
370
-1
48
1
60
0
100
AcDbPoint
10
-48
20
-8
30
0
39
0
210
0
220
0
230
1
50
360
0
POINT
5
186
100
AcDbEntity
8
Defpoints
62
0
6
ByLayer
370
-1
48
1
60
0
100
AcDbPoint
10
0
20
-8
30
0
39
0
210
0
220
0
230
1
50
360
0
POINT
5
187
100
AcDbEntity
8
Defpoints
62
0
6
ByLayer
370
-1
48
1
60
0
100
AcDbPoint
10
0
20
-45.906987
30
0
39
0
210
0
220
0
230
1
50
360
0
ENDBLK
5
17E
100
AcDbEntity
8
0
100
AcDbBlockEnd
0
BLOCK
5
18F
100
AcDbEntity
8
0
100
AcDbBlockBegin
2
_U3
70
0
10
0
20
0
30
0
3
_U3
0
MTEXT
5
189
100
AcDbEntity
8
SK2
62
256
6
ByLayer
370
18
48
1
60
0
100
AcDbMText
10
-26.089233
20
-44.874353
30
0
210
0
220
0
230
1
1
\W0.7361;48
40
3.5
41
0
44
1.084337
50
0
71
7
72
5
7
iso_b_vert
0
LINE
5
18A
100
AcDbEntity
8
SK2
62
256
6
ByLayer
370
13
48
1
60
0
100
AcDbLine
10
-48
20
-9.5875
30
0
11
-48
21
-47.906987
31
0
39
0
210
0
220
0
230
1
0
LINE
5
18B
100
AcDbEntity
8
SK2
62
256
6
ByLayer
370
13
48
1
60
0
100
AcDbLine
10
0
20
-9.5875
30
0
11
0
21
-47.906987
31
0
39
0
210
0
220
0
230
1
0
LINE
5
18C
100
AcDbEntity
8
SK2
62
256
6
ByLayer
370
13
48
1
60
0
100
AcDbLine
10
-48
20
-45.906987
30
0
11
0
21
-45.906987
31
0
39
0
210
0
220
0
230
1
0
SOLID
5
18D
100
AcDbEntity
8
SK2
62
256
6
ByLayer
370
18
48
1
60
0
100
AcDbTrace
10
-48
20
-45.906987
30
0
11
-44.500002
21
-45.446203
31
0
12
-44.499998
22
-46.367771
32
0
13
-44.499998
23
-46.367771
33
0
39
0
210
0
220
0
230
1
0
SOLID
5
18E
100
AcDbEntity
8
SK2
62
256
6
ByLayer
370
18
48
1
60
0
100
AcDbTrace
10
0
20
-45.906987
30
0
11
-3.499998
21
-46.367771
31
0
12
-3.500002
22
-45.446203
32
0
13
-3.500002
23
-45.446203
33
0
39
0
210
0
220
0
230
1
0
ENDBLK
5
190
100
AcDbEntity
8
0
100
AcDbBlockEnd
0
BLOCK
5
195
100
AcDbEntity
8
0
100
AcDbBlockBegin
2
*D9
70
1
10
0
20
0
30
0
3
*D9
0
LINE
5
197
100
AcDbEntity
8
0
62
256
6
ByLayer
370
-2
48
1
60
0
100
AcDbLine
10
0
20
-9.5875
30
0
11
0
21
-57.906987
31
0
39
0
210
0
220
0
230
1
0
LINE
5
198
100
AcDbEntity
8
0
62
256
6
ByLayer
370
-2
48
1
60
0
100
AcDbLine
10
67
20
-8.9875
30
0
11
67
21
-57.906987
31
0
39
0
210
0
220
0
230
1
0
LINE
5
199
100
AcDbEntity
8
0
62
256
6
ByLayer
370
-2
48
1
60
0
100
AcDbLine
10
3.5
20
-55.906987
30
0
11
63.5
21
-55.906987
31
0
39
0
210
0
220
0
230
1
0
SOLID
5
19A
100
AcDbEntity
8
0
62
256
6
ByLayer
370
-1
48
1
60
0
100
AcDbTrace
10
3.5
20
-55.323654
30
0
11
3.5
21
-56.49032
31
0
12
0
22
-55.906987
32
0
13
0
23
-55.906987
33
0
39
0
210
0
220
0
230
1
0
SOLID
5
19B
100
AcDbEntity
8
0
62
256
6
ByLayer
370
-1
48
1
60
0
100
AcDbTrace
10
63.5
20
-56.49032
30
0
11
63.5
21
-55.323654
31
0
12
67
22
-55.906987
32
0
13
67
23
-55.906987
33
0
39
0
210
0
220
0
230
1
0
MTEXT
5
19C
100
AcDbEntity
8
0
62
256
6
ByLayer
370
18
48
1
60
0
100
AcDbMText
10
33.5
20
-48.906987
30
0
210
0
220
0
230
1
1
\A1;67
40
3.5
41
0
44
1
50
0
71
5
72
5
7
iso_b_vert
0
POINT
5
19D
100
AcDbEntity
8
Defpoints
62
0
6
ByLayer
370
-1
48
1
60
0
100
AcDbPoint
10
0
20
-8
30
0
39
0
210
0
220
0
230
1
50
360
0
POINT
5
19E
100
AcDbEntity
8
Defpoints
62
0
6
ByLayer
370
-1
48
1
60
0
100
AcDbPoint
10
67
20
-7.4
30
0
39
0
210
0
220
0
230
1
50
360
0
POINT
5
19F
100
AcDbEntity
8
Defpoints
62
0
6
ByLayer
370
-1
48
1
60
0
100
AcDbPoint
10
67
20
-55.906987
30
0
39
0
210
0
220
0
230
1
50
360
0
ENDBLK
5
196
100
AcDbEntity
8
0
100
AcDbBlockEnd
0
BLOCK
5
1A7
100
AcDbEntity
8
0
100
AcDbBlockBegin
2
_U4
70
0
10
0
20
0
30
0
3
_U4
0
MTEXT
5
1A1
100
AcDbEntity
8
SK2
62
256
6
ByLayer
370
18
48
1
60
0
100
AcDbMText
10
31.595034
20
-54.874353
30
0
210
0
220
0
230
1
1
\W0.6740;67
40
3.5
41
0
44
1.084337
50
0
71
7
72
5
7
iso_b_vert
0
LINE
5
1A2
100
AcDbEntity
8
SK2
62
256
6
ByLayer
370
13
48
1
60
0
100
AcDbLine
10
0
20
-9.5875
30
0
11
0
21
-57.906987
31
0
39
0
210
0
220
0
230
1
0
LINE
5
1A3
100
AcDbEntity
8
SK2
62
256
6
ByLayer
370
13
48
1
60
0
100
AcDbLine
10
67
20
-8.9875
30
0
11
67
21
-57.906987
31
0
39
0
210
0
220
0
230
1
0
LINE
5
1A4
100
AcDbEntity
8
SK2
62
256
6
ByLayer
370
13
48
1
60
0
100
AcDbLine
10
0
20
-55.906987
30
0
11
67
21
-55.906987
31
0
39
0
210
0
220
0
230
1
0
SOLID
5
1A5
100
AcDbEntity
8
SK2
62
256
6
ByLayer
370
18
48
1
60
0
100
AcDbTrace
10
0
20
-55.906987
30
0
11
3.499998
21
-55.446203
31
0
12
3.500002
22
-56.367771
32
0
13
3.500002
23
-56.367771
33
0
39
0
210
0
220
0
230
1
0
SOLID
5
1A6
100
AcDbEntity
8
SK2
62
256
6
ByLayer
370
18
48
1
60
0
100
AcDbTrace
10
67
20
-55.906987
30
0
11
63.500002
21
-56.367771
31
0
12
63.499998
22
-55.446203
32
0
13
63.499998
23
-55.446203
33
0
39
0
210
0
220
0
230
1
0
ENDBLK
5
1A8
100
AcDbEntity
8
0
100
AcDbBlockEnd
0
ENDSEC
0
SECTION
2
ENTITIES
0
ARC
5
BD
100
AcDbEntity
8
1
62
256
6
ByLayer
370
18
48
1
60
0
100
AcDbCircle
39
0
10
1.279583
20
8.160607
30
0
40
0.799999999999995
210
0
220
0
230
1
100
AcDbArc
50
217.254337
51
270.03581
0
ARC
5
BE
100
AcDbEntity
8
1
62
256
6
ByLayer
370
18
48
1
60
0
100
AcDbCircle
39
0
10
1.279583
20
-8.160607
30
0
40
0.799999999999995
210
0
220
0
230
1
100
AcDbArc
50
89.96419
51
142.745663
0
ARC
5
BF
100
AcDbEntity
8
1
62
256
6
ByLayer
370
18
48
1
60
0
100
AcDbCircle
39
0
10
0
20
7.2
30
0
40
0.800000000000009
210
0
220
0
230
1
100
AcDbArc
50
37.254337
51
90
0
ARC
5
C0
100
AcDbEntity
8
1
62
256
6
ByLayer
370
18
48
1
60
0
100
AcDbCircle
39
0
10
0
20
-7.2
30
0
40
0.800000000000009
210
0
220
0
230
1
100
AcDbArc
50
270
51
322.745663
0
ARC
5
C1
100
AcDbEntity
8
SK2
62
256
6
ByLayer
370
13
48
1
60
0
100
AcDbCircle
39
0
10
67
20
0
30
0
40
35.3993750407057
210
0
220
0
230
1
100
AcDbArc
50
5.267717
51
70.002596
0
ARC
5
C2
100
AcDbEntity
8
SK2
62
256
6
ByLayer
370
13
48
1
60
0
100
AcDbCircle
39
0
10
67
20
0
30
0
40
35.3993750407057
210
0
220
0
230
1
100
AcDbArc
50
289.997404
51
354.732283
0
ELLIPSE
5
C3
100
AcDbEntity
8
1
62
256
6
ByLayer
370
13
48
1
60
0
100
AcDbEllipse
10
3.681574
20
-1.312509
30
0
11
-0.0373664440797302
21
-0.0927563952341638
31
0
210
0
220
0
230
1
40
0.48462
41
-1.55277689138158
42
-0.201789562745429
0
ELLIPSE
5
C4
100
AcDbEntity
8
1
62
256
6
ByLayer
370
13
48
1
60
0
100
AcDbEllipse
10
3.750135
20
-1.343702
30
0
11
-0.0448909486352242
21
-0.0893577233966357
31
0
210
0
220
0
230
1
40
0.085509
41
-1.74136406760856
42
-0.181408553744993
0
POINT
5
70
100
AcDbEntity
8
80
62
256
6
ByLayer
370
18
48
1
60
0
100
AcDbPoint
10
0
20
0
30
0
39
0
210
0
220
0
230
1
50
360
0
POINT
5
72
100
AcDbEntity
8
81
62
256
6
ByLayer
370
18
48
1
60
0
100
AcDbPoint
10
67
20
0
30
0
39
0
210
0
220
0
230
1
50
360
0
POINT
5
74
100
AcDbEntity
8
1
62
256
6
ByLayer
370
18
48
1
60
0
100
AcDbPoint
10
-207.475312
20
-200
30
0
39
0
210
0
220
0
230
1
50
360
0
POINT
5
76
100
AcDbEntity
8
1
62
256
6
ByLayer
370
13
48
1
60
1
100
AcDbPoint
10
-49.5
20
0
30
0
39
0
210
0
220
0
230
1
50
360
0
POINT
5
77
100
AcDbEntity
8
1
62
256
6
ByLayer
370
13
48
1
60
1
100
AcDbPoint
10
65.847534
20
0
30
0
39
0
210
0
220
0
230
1
50
360
0
POINT
5
78
100
AcDbEntity
8
1
62
256
6
ByLayer
370
18
48
1
60
1
100
AcDbPoint
10
-48
20
-8
30
0
39
0
210
0
220
0
230
1
50
360
0
POINT
5
79
100
AcDbEntity
8
1
62
256
6
ByLayer
370
18
48
1
60
1
100
AcDbPoint
10
67
20
-7.4
30
0
39
0
210
0
220
0
230
1
50
360
0
POINT
5
7A
100
AcDbEntity
8
1
62
256
6
ByLayer
370
18
48
1
60
1
100
AcDbPoint
10
67
20
-7.4
30
0
39
0
210
0
220
0
230
1
50
360
0
POINT
5
7B
100
AcDbEntity
8
1
62
256
6
ByLayer
370
18
48
1
60
1
100
AcDbPoint
10
2
20
-7.4
30
0
39
0
210
0
220
0
230
1
50
360
0
POINT
5
7C
100
AcDbEntity
8
1
62
256
6
ByLayer
370
18
48
1
60
1
100
AcDbPoint
10
67
20
-7.4
30
0
39
0
210
0
220
0
230
1
50
360
0
POINT
5
7D
100
AcDbEntity
8
1
62
256
6
ByLayer
370
18
48
1
60
1
100
AcDbPoint
10
22
20
-7.4
30
0
39
0
210
0
220
0
230
1
50
360
0
POINT
5
7E
100
AcDbEntity
8
1
62
256
6
ByLayer
370
18
48
1
60
1
100
AcDbPoint
10
-48
20
-8
30
0
39
0
210
0
220
0
230
1
50
360
0
POINT
5
7F
100
AcDbEntity
8
1
62
256
6
ByLayer
370
18
48
1
60
1
100
AcDbPoint
10
0
20
-8
30
0
39
0
210
0
220
0
230
1
50
360
0
POINT
5
80
100
AcDbEntity
8
1
62
256
6
ByLayer
370
18
48
1
60
1
100
AcDbPoint
10
0
20
-8
30
0
39
0
210
0
220
0
230
1
50
360
0
POINT
5
81
100
AcDbEntity
8
1
62
256
6
ByLayer
370
18
48
1
60
1
100
AcDbPoint
10
67
20
-7.4
30
0
39
0
210
0
220
0
230
1
50
360
0
SPLINE
5
C5
100
AcDbEntity
8
1
62
256
6
ByLayer
370
18
48
1
60
0
100
AcDbSpline
70
4
71
3
72
26
73
22
40
0
40
0
40
0
40
0
40
0.499999999999993
40
0.499999999999993
40
0.749999999999977
40
0.749999999999977
40
0.874999999999982
40
0.874999999999982
40
0.937499999999985
40
0.937499999999985
40
0.968749999999984
40
0.968749999999984
40
0.984374999999996
40
0.984374999999996
40
0.992187500000002
40
0.992187500000002
40
0.996093750000003
40
0.996093750000003
40
0.998046875000001
40
0.998046875000001
40
1
40
1
40
1
40
1
41
1
10
64.308333886799
20
7.39997207363567
30
0
41
1
10
64.3351051293496
20
7.33884729173283
30
0
41
1
10
64.3623895489353
20
7.27775686325717
30
0
41
1
10
64.404126442928
20
7.18595933121455
30
0
41
1
10
64.4181785558775
20
7.15531322190705
30
0
41
1
10
64.4394044782563
20
7.10951544313195
30
0
41
1
10
64.4464949976596
20
7.09431613496312
30
0
41
1
10
64.4572023989245
20
7.07142005282236
30
0
41
1
10
64.4607855605809
20
7.06376345859047
30
0
41
1
10
64.466191600731
20
7.05219894802136
30
0
41
1
10
64.4680039178922
20
7.04831032806288
30
0
41
1
10
64.4706915625665
20
7.042614443421
30
0
41
1
10
64.4715747135453
20
7.04076842124277
30
0
41
1
10
64.472907896585
20
7.03796870361975
30
0
41
1
10
64.4733572834675
20
7.03701670901467
30
0
41
1
10
64.4740453544694
20
7.03553112812435
30
0
41
1
10
64.4742772555611
20
7.03502535123403
30
0
41
1
10
64.4746275481492
20
7.03425659168664
30
0
41
1
10
64.4747444564471
20
7.03399976164224
30
0
41
1
10
64.4749687069528
20
7.03352644624337
30
0
41
1
10
64.4750986451391
20
7.03325798200987
30
0
41
1
10
64.4751366284826
20
7.03325311308538
30
0
0
SPLINE
5
C6
100
AcDbEntity
8
1
62
256
6
ByLayer
370
18
48
1
60
0
100
AcDbSpline
70
4
71
3
72
8
73
4
40
0
40
0
40
0
40
0
40
1
40
1
40
1
40
1
41
1
10
66.3353001991569
20
2.32561879453226
30
0
41
1
10
66.5607499310754
20
1.68880903035262
30
0
41
1
10
66.7800732474359
20
1.04979712493582
30
0
41
1
10
66.9931759717153
20
0.408549226512747
30
0
0
SPLINE
5
C7
100
AcDbEntity
8
1
62
256
6
ByLayer
370
18
48
1
60
0
100
AcDbSpline
70
4
71
3
72
20
73
16
40
0
40
0
40
0
40
0
40
0.0156874051985578
40
0.0156874051985578
40
0.261765553898919
40
0.261765553898919
40
0.384804628249099
40
0.384804628249099
40
0.507843702599279
40
0.507843702599279
40
0.630882776949459
40
0.630882776949459
40
0.753921851299639
40
0.753921851299639
40
1
40
1
40
1
40
1
41
1
10
64.5157556531396
20
1.39567542235218
30
0
41
1
10
64.5174036986178
20
1.39518684962189
30
0
41
1
10
64.5190553244366
20
1.39469316557606
30
0
41
1
10
64.5466738270563
20
1.38637130271638
30
0
41
1
10
64.573505041841
20
1.37730918985207
30
0
41
1
10
64.6148590774738
20
1.36213535603579
30
0
41
1
10
64.6288704830847
20
1.35675373452042
30
0
41
1
10
64.6568551597839
20
1.34604493256131
30
0
41
1
10
64.6707260444398
20
1.34086391959781
30
0
41
1
10
64.6986509191596
20
1.33024049130032
30
0
41
1
10
64.7127797718135
20
1.32469120168736
30
0
41
1
10
64.7414495759745
20
1.31300430768573
30
0
41
1
10
64.7559930314965
20
1.30687955424679
30
0
41
1
10
64.8000604631834
20
1.2877628716152
30
0
41
1
10
64.8299366931396
20
1.27406853537886
30
0
41
1
10
64.8602604857726
20
1.25952042258078
30
0
0
SPLINE
5
C8
100
AcDbEntity
8
1
62
256
6
ByLayer
370
18
48
1
60
0
100
AcDbSpline
70
4
71
3
72
46
73
42
40
0
40
0
40
0
40
0
40
0.150088371195186
40
0.150088371195186
40
0.187610463993987
40
0.187610463993987
40
0.206371510393379
40
0.206371510393379
40
0.225132556792771
40
0.300176742390372
40
0.300176742390372
40
0.375220927987972
40
0.375220927987972
40
0.412743020786772
40
0.412743020786772
40
0.450265113585572
40
0.450265113585572
40
0.525309299183161
40
0.525309299183161
40
0.562831391981955
40
0.581592438381357
40
0.581592438381357
40
0.600353484780759
40
0.600353484780759
40
0.675397670378384
40
0.675397670378384
40
0.75044185597601
40
0.75044185597601
40
0.787963948774823
40
0.787963948774823
40
0.806724995174231
40
0.806724995174231
40
0.82548604157364
40
0.82548604157364
40
0.900530227171267
40
0.900530227171267
40
0.975574412768895
40
0.975574412768895
40
0.994335459168301
40
0.994335459168301
40
1
40
1
40
1
40
1
41
1
10
65.1148428341496
20
2.05606235115016
30
0
41
1
10
64.9987396794216
20
2.03749178602561
30
0
41
1
10
64.8865605548945
20
2.0090415419948
30
0
41
1
10
64.7511669784728
20
1.96288681229788
30
0
41
1
10
64.7243297664781
20
1.95312893607434
30
0
41
1
10
64.6844353178131
20
1.93774216139275
30
0
41
1
10
64.671173073845
20
1.93247811048337
30
0
41
1
10
64.6449314267442
20
1.92177437549287
30
0
41
1
10
64.5800001532332
20
1.89456447926676
30
0
41
1
10
64.5183435522275
20
1.86529051848081
30
0
41
1
10
64.4235674143223
20
1.81664688940714
30
0
41
1
10
64.3781126998634
20
1.79142759863851
30
0
41
1
10
64.3127104435808
20
1.75277227500865
30
0
41
1
10
64.2913043369821
20
1.73969880835139
30
0
41
1
10
64.2498547519269
20
1.71371233515535
30
0
41
1
10
64.2297867340008
20
1.7007934973424
30
0
41
1
10
64.1714369012867
20
1.66239798091075
30
0
41
1
10
64.1350035178578
20
1.6372808473314
30
0
41
1
10
64.0838192157941
20
1.60071381118394
30
0
41
1
10
64.0590972339288
20
1.58270564267099
30
0
41
1
10
64.0356709290418
20
1.56516921244807
30
0
41
1
10
64.0203427362611
20
1.55358879496742
30
0
41
1
10
64.0128106620854
20
1.54784416727486
30
0
41
1
10
63.9760763120682
20
1.51956395164635
30
0
41
1
10
63.9496058089938
20
1.49832729519196
30
0
41
1
10
63.9021970023854
20
1.45872091374767
30
0
41
1
10
63.8812574415408
20
1.44035300639501
30
0
41
1
10
63.8539841429269
20
1.41508351701151
30
0
41
1
10
63.8455846723268
20
1.40704123570524
30
0
41
1
10
63.8340526006607
20
1.39555999708963
30
0
41
1
10
63.8303834133949
20
1.39182624147688
30
0
41
1
10
63.8234550916515
20
1.38460327637773
30
0
41
1
10
63.8201895618578
20
1.38110788257737
30
0
41
1
10
63.8048490368187
20
1.36419747092867
30
0
41
1
10
63.7957177611487
20
1.35248249750237
30
0
41
1
10
63.7838788817031
20
1.33231251831688
30
0
41
1
10
63.7811697943244
20
1.32385879078421
30
0
41
1
10
63.7821562959643
20
1.31510425857528
30
0
41
1
10
63.7825734144415
20
1.31344391184862
30
0
41
1
10
63.783411802125
20
1.31139617178439
30
0
41
1
10
63.7836269888663
20
1.31092935831541
30
0
41
1
10
63.7838628245223
20
1.3104707756963
30
0
0
SPLINE
5
C9
100
AcDbEntity
8
1
62
256
6
ByLayer
370
18
48
1
60
0
100
AcDbSpline
70
4
71
3
72
14
73
10
40
0
40
0
40
0
40
0
40
0.25
40
0.25
40
0.5
40
0.5
40
0.75
40
0.75
40
1
40
1
40
1
40
1
41
1
10
66.3353001991569
20
2.32561879453226
30
0
41
1
10
66.2352412901488
20
2.29507459183935
30
0
41
1
10
66.1346092202599
20
2.26734458717593
30
0
41
1
10
65.9325202471867
20
2.21593447781928
30
0
41
1
10
65.8310603789306
20
2.19226893151523
30
0
41
1
10
65.6274587477218
20
2.14828591581838
30
0
41
1
10
65.5253132016481
20
2.12798702140503
30
0
41
1
10
65.3204674473186
20
2.09011260270344
30
0
41
1
10
65.2177696233079
20
2.07252537186312
30
0
41
1
10
65.1148428341496
20
2.05606235115019
30
0
0
SPLINE
5
CA
100
AcDbEntity
8
1
62
256
6
ByLayer
370
18
48
1
60
0
100
AcDbSpline
70
4
71
3
72
39
73
35
40
0
40
0
40
0
40
0
40
0.0625000000000031
40
0.0625000000000031
40
0.0937500000000046
40
0.0937500000000046
40
0.125000000000006
40
0.187500000000005
40
0.187500000000005
40
0.218750000000005
40
0.218750000000005
40
0.250000000000005
40
0.250000000000005
40
0.281250000000005
40
0.281250000000005
40
0.312500000000004
40
0.312500000000004
40
0.343750000000004
40
0.343750000000004
40
0.375000000000004
40
0.375000000000004
40
0.406250000000004
40
0.406250000000004
40
0.437500000000003
40
0.437500000000003
40
0.500000000000003
40
0.500000000000003
40
0.625000000000002
40
0.625000000000002
40
0.750000000000001
40
0.750000000000001
40
0.875000000000001
40
0.875000000000001
40
1
40
1
40
1
40
1
41
1
10
66.3353001991569
20
2.32561879453226
30
0
41
1
10
66.286307176013
20
2.40842503834543
30
0
41
1
10
66.2380640091445
20
2.49366109760305
30
0
41
1
10
66.1667593149982
20
2.62534335242557
30
0
41
1
10
66.1431426006521
20
2.66992589168771
30
0
41
1
10
66.0965473287924
20
2.75981186833079
30
0
41
1
10
66.0275100689674
20
2.89590196521993
30
0
41
1
10
65.9609287954676
20
3.03574874667859
30
0
41
1
10
65.895815242187
20
3.17805217426914
30
0
41
1
10
65.8743541608484
20
3.22589391220728
30
0
41
1
10
65.8318781168569
20
3.32235865897545
30
0
41
1
10
65.8108919537958
20
3.37091590404634
30
0
41
1
10
65.769474144563
20
3.46852331486559
30
0
41
1
10
65.7490320146784
20
3.51759911095036
30
0
41
1
10
65.7086471947639
20
3.6162851602532
30
0
41
1
10
65.6886983694906
20
3.66591135033022
30
0
41
1
10
65.6493493169146
20
3.76545598929701
30
0
41
1
10
65.6299383028592
20
3.81540012712702
30
0
41
1
10
65.591595422959
20
3.91561193037185
30
0
41
1
10
65.5726512749577
20
3.96591141148682
30
0
41
1
10
65.5352554530779
20
4.06664866728906
30
0
41
1
10
65.5168083274636
20
4.11706453775631
30
0
41
1
10
65.4803627024709
20
4.21797362073309
30
0
41
1
10
65.462194439847
20
4.26843633332618
30
0
41
1
10
65.4077355157951
20
4.41982592965897
30
0
41
1
10
65.3715393852314
20
4.52076303462161
30
0
41
1
10
65.2632222067008
20
4.823579579311
30
0
41
1
10
65.1913867338288
20
5.02546690498835
30
0
41
1
10
65.0480521456234
20
5.42908806594235
30
0
41
1
10
64.976574587684
20
5.63079512042816
30
0
41
1
10
64.8337404170688
20
6.03331870153013
30
0
41
1
10
64.7623634436743
20
6.23419392602139
30
0
41
1
10
64.6191334414418
20
6.63491198670931
30
0
41
1
10
64.547351452753
20
6.83454371725216
30
0
41
1
10
64.4751366284834
20
7.03325311308461
30
0
0
SPLINE
5
CB
100
AcDbEntity
8
1
62
256
6
ByLayer
370
18
48
1
60
0
100
AcDbSpline
70
4
71
3
72
30
73
26
40
0
40
0
40
0
40
0
40
0.0955794489641398
40
0.0955794489641398
40
0.19115889792828
40
0.19115889792828
40
0.286738346892419
40
0.286738346892419
40
0.382317795856559
40
0.382317795856559
40
0.430107520338627
40
0.430107520338627
40
0.477897244820695
40
0.477897244820695
40
0.573476693784832
40
0.573476693784832
40
0.764635591713105
40
0.764635591713105
40
0.812425316195174
40
0.812425316195174
40
0.860215040677243
40
0.860215040677243
40
0.955794489641381
40
0.955794489641381
40
1
40
1
40
1
40
1
41
1
10
64.4751366284803
20
7.03325311308538
30
0
41
1
10
64.1324271732092
20
7.04152891341292
30
0
41
1
10
63.7896663700695
20
7.04326702532205
30
0
41
1
10
63.1043564005431
20
7.03382014059667
30
0
41
1
10
62.762064718657
20
7.02264887181968
30
0
41
1
10
62.0777896992533
20
6.98758807766282
30
0
41
1
10
61.7357983903415
20
6.96368496227819
30
0
41
1
10
61.0517187919302
20
6.90331589964833
30
0
41
1
10
60.709626617645
20
6.86687192619169
30
0
41
1
10
60.1961992497687
20
6.80282651926314
30
0
41
1
10
60.0250039085024
20
6.77991400549379
30
0
41
1
10
59.6824493940797
20
6.73096986028395
30
0
41
1
10
59.5110470945567
20
6.70492947090005
30
0
41
1
10
58.9972211780418
20
6.62224959986429
30
0
41
1
10
58.6549806816408
20
6.56104153203563
30
0
41
1
10
57.628655645518
20
6.35969135351709
30
0
41
1
10
56.9449904350569
20
6.20184306242268
30
0
41
1
10
56.0890539723627
20
5.97658996410252
30
0
41
1
10
55.9178006036084
20
5.93013942367693
30
0
41
1
10
55.5751199802648
20
5.83448719269791
30
0
41
1
10
55.4037700720071
20
5.78530401923427
30
0
41
1
10
54.8898997768582
20
5.63383184749856
30
0
41
1
10
54.5474206121688
20
5.52762015340699
30
0
41
1
10
54.0463888590148
20
5.36498914054752
30
0
41
1
10
53.8879087816441
20
5.31248374944005
30
0
41
1
10
53.7294135590387
20
5.25893782552942
30
0
0
SPLINE
5
CC
100
AcDbEntity
8
1
62
256
6
ByLayer
370
18
48
1
60
0
100
AcDbSpline
70
4
71
3
72
21
73
17
40
0
40
0
40
0
40
0
40
0.250000000000001
40
0.250000000000001
40
0.375000000000001
40
0.375000000000001
40
0.500000000000001
40
0.625000000000001
40
0.625000000000001
40
0.750000000000001
40
0.750000000000001
40
0.875000000000001
40
0.875000000000001
40
0.9375
40
0.9375
40
1
40
1
40
1
40
1
41
1
10
3.63595602523713
20
-1.39975396304149
30
0
41
1
10
3.61391295783923
20
-1.38999479675132
30
0
41
1
10
3.59458503002901
20
-1.37794825938334
30
0
41
1
10
3.56906290182351
20
-1.35694151068788
30
0
41
1
10
3.56111617659516
20
-1.34939244543685
30
0
41
1
10
3.54684055972015
20
-1.33380425247913
30
0
41
1
10
3.53404449517277
20
-1.3176316324554
30
0
41
1
10
3.52400344816124
20
-1.30036689540915
30
0
41
1
10
3.51531873479229
20
-1.28256287039977
30
0
41
1
10
3.51165985115421
20
-1.27337756134372
30
0
41
1
10
3.50584044662284
20
-1.25485013014105
30
0
41
1
10
3.50365186196032
20
-1.24544528560398
30
0
41
1
10
3.50145993778929
20
-1.2312082511834
30
0
41
1
10
3.50091204574903
20
-1.22644706253496
30
0
41
1
10
3.5001814482226
20
-1.21689946881713
30
0
41
1
10
3.5
20
-1.21208361841593
30
0
41
1
10
3.5
20
-1.20736629428302
30
0
0
SPLINE
5
CD
100
AcDbEntity
8
1
62
256
6
ByLayer
370
18
48
1
60
0
100
AcDbSpline
70
2053
71
3
72
117
73
113
40
0
40
0
40
0
40
0
40
0.0312500000000009
40
0.0312500000000009
40
0.0625000000000017
40
0.0625000000000017
40
0.0937500000000026
40
0.0937500000000026
40
0.125000000000003
40
0.125000000000003
40
0.156250000000004
40
0.156250000000004
40
0.187500000000005
40
0.187500000000005
40
0.203125000000006
40
0.203125000000006
40
0.218750000000006
40
0.218750000000006
40
0.250000000000008
40
0.250000000000008
40
0.281250000000009
40
0.281250000000009
40
0.29687500000001
40
0.29687500000001
40
0.304687500000011
40
0.304687500000011
40
0.312500000000011
40
0.312500000000011
40
0.343750000000013
40
0.343750000000013
40
0.351562500000013
40
0.351562500000013
40
0.359375000000013
40
0.359375000000013
40
0.375000000000013
40
0.390625000000013
40
0.390625000000013
40
0.398437500000013
40
0.398437500000013
40
0.406250000000013
40
0.406250000000013
40
0.437500000000012
40
0.437500000000012
40
0.445312500000011
40
0.445312500000011
40
0.453125000000009
40
0.468750000000009
40
0.484375000000008
40
0.484375000000008
40
0.49218750000001
40
0.49218750000001
40
0.500000000000011
40
0.500000000000011
40
0.53125000000002
40
0.53125000000002
40
0.546875000000024
40
0.546875000000024
40
0.562500000000027
40
0.562500000000027
40
0.593750000000034
40
0.593750000000034
40
0.609375000000036
40
0.609375000000036
40
0.625000000000038
40
0.625000000000038
40
0.65625000000004
40
0.65625000000004
40
0.671875000000042
40
0.671875000000042
40
0.687500000000043
40
0.687500000000043
40
0.718750000000045
40
0.718750000000045
40
0.726562500000046
40
0.726562500000046
40
0.734375000000047
40
0.734375000000047
40
0.750000000000047
40
0.765625000000047
40
0.765625000000047
40
0.773437500000047
40
0.773437500000047
40
0.781250000000047
40
0.781250000000047
40
0.812500000000047
40
0.812500000000047
40
0.820312500000046
40
0.820312500000046
40
0.828125000000046
40
0.828125000000046
40
0.843750000000044
40
0.859375000000042
40
0.859375000000042
40
0.86718750000004
40
0.86718750000004
40
0.875000000000038
40
0.875000000000038
40
0.906250000000029
40
0.906250000000029
40
0.914062500000026
40
0.914062500000026
40
0.921875000000024
40
0.937500000000019
40
0.953125000000014
40
0.953125000000014
40
0.968750000000009
40
0.968750000000009
40
0.984375000000005
40
0.984375000000005
40
0.992187500000002
40
0.992187500000002
40
1
40
1
40
1
40
1
41
1
10
64.9955641799679
20
-3.12061243723208
30
0
41
1
10
64.9705687451194
20
-3.15181114060059
30
0
41
1
10
64.9463811650126
20
-3.17729754047286
30
0
41
1
10
64.8993057853948
20
-3.21765349367084
30
0
41
1
10
64.8764161380488
20
-3.23251852423064
30
0
41
1
10
64.83170600336
20
-3.25127464431913
30
0
41
1
10
64.8105017276741
20
-3.25490699285621
30
0
41
1
10
64.7699822514903
20
-3.25110814444275
30
0
41
1
10
64.750659539669
20
-3.24367129543052
30
0
41
1
10
64.713712780921
20
-3.21710210739931
30
0
41
1
10
64.6965979788789
20
-3.19834305357187
30
0
41
1
10
64.6647453813276
20
-3.15006224521966
30
0
41
1
10
64.6500071139597
20
-3.12054755152389
30
0
41
1
10
64.6296688465073
20
-3.0675126909772
30
0
41
1
10
64.6232778472172
20
-3.04859382679274
30
0
41
1
10
64.6113051101684
20
-3.00846535932155
30
0
41
1
10
64.6057135569085
20
-2.98723036726599
30
0
41
1
10
64.5901278040206
20
-2.91996664500852
30
0
41
1
10
64.5812970724236
20
-2.87038629966477
30
0
41
1
10
64.5672319085105
20
-2.76081811080846
30
0
41
1
10
64.5622541812441
20
-2.70283314341407
30
0
41
1
10
64.5580988455452
20
-2.61097399527426
30
0
41
1
10
64.5572708178811
20
-2.57953456521363
30
0
41
1
10
64.5569491364841
20
-2.53107189731284
30
0
41
1
10
64.5569957430161
20
-2.51469992733379
30
0
41
1
10
64.5574169655867
20
-2.48150125694124
30
0
41
1
10
64.5577919445052
20
-2.4647383172925
30
0
41
1
10
64.5604863764254
20
-2.38095943479632
30
0
41
1
10
64.5652404099766
20
-2.3132578610481
30
0
41
1
10
64.5748501255336
20
-2.22778439656887
30
0
41
1
10
64.5769575050042
20
-2.21064693096011
30
0
41
1
10
64.581562697704
20
-2.17628460602026
30
0
41
1
10
64.5840706619673
20
-2.15900051572953
30
0
41
1
10
64.5921004191987
20
-2.10771932329342
30
0
41
1
10
64.6041816404379
20
-2.04057045231522
30
0
41
1
10
64.6190409710656
20
-1.97581593048582
30
0
41
1
10
64.631266769017
20
-1.92815519870925
30
0
41
1
10
64.6355225475306
20
-1.91241943884032
30
0
41
1
10
64.6444054441687
20
-1.88125499971167
30
0
41
1
10
64.6490217186845
20
-1.86587007087186
30
0
41
1
10
64.6727251827869
20
-1.790711410781
30
0
41
1
10
64.6938795521649
20
-1.73541959882036
30
0
41
1
10
64.7229683216084
20
-1.67189955201468
30
0
41
1
10
64.728936360265
20
-1.6594448762929
30
0
41
1
10
64.7410385351062
20
-1.63529707657705
30
0
41
1
10
64.7594376770294
20
-1.60021710740597
30
0
41
1
10
64.7912818711756
20
-1.54718938340554
30
0
41
1
10
64.8179351097981
20
-1.51021171811587
30
0
41
1
10
64.8383445708864
20
-1.48444913716656
30
0
41
1
10
64.8452285686912
20
-1.47617971255116
30
0
41
1
10
64.8590151919053
20
-1.46042351485414
30
0
41
1
10
64.8659301761006
20
-1.45291985377224
30
0
41
1
10
64.9006036810374
20
-1.41719977195288
30
0
41
1
10
64.9286576033938
20
-1.39432677324021
30
0
41
1
10
64.9710317727354
20
-1.36783444206887
30
0
41
1
10
64.9852558359878
20
-1.36029996821438
30
0
41
1
10
65.0133940427051
20
-1.34798755972767
30
0
41
1
10
65.0273350544965
20
-1.34318281590669
30
0
41
1
10
65.0687437532689
20
-1.33263934266694
30
0
41
1
10
65.0958014671944
20
-1.33073887507507
30
0
41
1
10
65.135373080695
20
-1.33548681220816
30
0
41
1
10
65.1484326815372
20
-1.33836454152663
30
0
41
1
10
65.1737919715088
20
-1.34660644921794
30
0
41
1
10
65.1861305181805
20
-1.35196713647619
30
0
41
1
10
65.2220836110576
20
-1.37172919389971
30
0
41
1
10
65.2446454775689
20
-1.3897752247627
30
0
41
1
10
65.2760630678833
20
-1.42460135089348
30
0
41
1
10
65.2861374403958
20
-1.43752352492788
30
0
41
1
10
65.3053516946636
20
-1.46611681191149
30
0
41
1
10
65.3143723529211
20
-1.48160849675969
30
0
41
1
10
65.3396133439882
20
-1.53173005985724
30
0
41
1
10
65.3540313530931
20
-1.56996268758706
30
0
41
1
10
65.368600476075
20
-1.62454902617549
30
0
41
1
10
65.371340148922
20
-1.63580955465494
30
0
41
1
10
65.3764533060832
20
-1.65905239603691
30
0
41
1
10
65.3788146195007
20
-1.67098449362888
30
0
41
1
10
65.3852633796336
20
-1.70751274201271
30
0
41
1
10
65.3922079235629
20
-1.7583340206572
30
0
41
1
10
65.3957508713082
20
-1.81354342770135
30
0
41
1
10
65.3970624800417
20
-1.85671091629254
30
0
41
1
10
65.3972750324146
20
-1.87139411470898
30
0
41
1
10
65.3972337559719
20
-1.90137663098912
30
0
41
1
10
65.3969785685752
20
-1.9166114512999
30
0
41
1
10
65.3945518126637
20
-1.99332177124799
30
0
41
1
10
65.3889595843847
20
-2.05702922679501
30
0
41
1
10
65.3774692157229
20
-2.13974383724266
30
0
41
1
10
65.3749442085492
20
-2.15644235696968
30
0
41
1
10
65.3694337113933
20
-2.19016137688922
30
0
41
1
10
65.3664527828284
20
-2.2071434819232
30
0
41
1
10
65.3569656131623
20
-2.25781300183368
30
0
41
1
10
65.3427910760076
20
-2.32511888192667
30
0
41
1
10
65.3257849063954
20
-2.39196226392244
30
0
41
1
10
65.3120124320905
20
-2.44193177413865
30
0
41
1
10
65.307235457013
20
-2.45861440728041
30
0
41
1
10
65.2974333036736
20
-2.49163041224168
30
0
41
1
10
65.2924137322031
20
-2.50794988786941
30
0
41
1
10
65.2667613453193
20
-2.58864326238987
30
0
41
1
10
65.2444890234923
20
-2.65033781453812
30
0
41
1
10
65.2147985462816
20
-2.72414007704907
30
0
41
1
10
65.2087901178081
20
-2.73867255888723
30
0
41
1
10
65.196714407457
20
-2.76712321441653
30
0
41
1
10
65.1784778274681
20
-2.80895855050474
30
0
41
1
10
65.1475200956953
20
-2.87464719418278
30
0
41
1
10
65.1222164723392
20
-2.92307418322588
30
0
41
1
10
65.0966570827219
20
-2.9694596870203
30
0
41
1
10
65.0839079327208
20
-2.99134289859123
30
0
41
1
10
65.0585201284885
20
-3.03254756364006
30
0
41
1
10
65.045872607509
20
-3.05188447095642
30
0
41
1
10
65.0269633524982
20
-3.0790434121572
30
0
41
1
10
65.0206705627969
20
-3.08778804476336
30
0
41
1
10
65.0081037964377
20
-3.10466224665592
30
0
41
1
10
65.00181303868
20
-3.11281276138996
30
0
41
1
10
64.9955641799679
20
-3.12061243723208
30
0
0
SPLINE
5
CE
100
AcDbEntity
8
1
62
256
6
ByLayer
370
18
48
1
60
0
100
AcDbSpline
70
4
71
3
72
8
73
4
40
0
40
0
40
0
40
0
40
1
40
1
40
1
40
1
41
1
10
66.3353001991569
20
-2.32561879453226
30
0
41
1
10
66.5607499310731
20
-1.68880903035898
30
0
41
1
10
66.7800732474315
20
-1.04979712494858
30
0
41
1
10
66.993175971709
20
-0.408549226531932
30
0
0
SPLINE
5
CF
100
AcDbEntity
8
1
62
256
6
ByLayer
370
18
48
1
60
0
100
AcDbSpline
70
4
71
3
72
8
73
4
40
0
40
0
40
0
40
0
40
1
40
1
40
1
40
1
41
1
10
66.9931759717094
20
0.408549226518488
30
0
41
1
10
67.0022717007107
20
0.136272144898527
30
0
41
1
10
67.0022776535892
20
-0.13609394782506
30
0
41
1
10
66.993175971709
20
-0.408549226531903
30
0
0
SPLINE
5
D0
100
AcDbEntity
8
1
62
256
6
ByLayer
370
18
48
1
60
0
100
AcDbSpline
70
4
71
3
72
8
73
4
40
0
40
0
40
0
40
0
40
1
40
1
40
1
40
1
41
1
10
66.9931759717042
20
0.408549226516129
30
0
41
1
10
66.9612123854002
20
0.302012117690993
30
0
41
1
10
66.9290890362427
20
0.195523653656721
30
0
41
1
10
66.896806511248
20
0.0890836556779675
30
0
0
SPLINE
5
D1
100
AcDbEntity
8
1
62
256
6
ByLayer
370
18
48
1
60
0
100
AcDbSpline
70
4
71
3
72
56
73
52
40
0
40
0
40
0
40
0
40
0.0625000000000181
40
0.0625000000000181
40
0.125000000000036
40
0.125000000000036
40
0.156250000000048
40
0.156250000000048
40
0.171875000000051
40
0.171875000000051
40
0.187500000000054
40
0.187500000000054
40
0.250000000000061
40
0.250000000000061
40
0.312500000000067
40
0.312500000000067
40
0.343750000000067
40
0.343750000000067
40
0.375000000000067
40
0.375000000000067
40
0.43750000000006
40
0.43750000000006
40
0.468750000000057
40
0.468750000000057
40
0.484375000000055
40
0.484375000000055
40
0.500000000000053
40
0.500000000000053
40
0.562500000000046
40
0.562500000000046
40
0.593750000000043
40
0.593750000000043
40
0.609375000000041
40
0.609375000000041
40
0.62500000000004
40
0.62500000000004
40
0.687500000000033
40
0.687500000000033
40
0.718750000000027
40
0.718750000000027
40
0.750000000000021
40
0.750000000000021
40
0.812500000000014
40
0.812500000000014
40
0.875000000000007
40
0.875000000000007
40
0.906250000000005
40
0.906250000000005
40
0.937500000000003
40
0.937500000000003
40
1
40
1
40
1
40
1
41
1
10
66.8968065112481
20
0.0890836556779675
30
0
41
1
10
66.8788961515631
20
0.030030695942429
30
0
41
1
10
66.8596313240903
20
-0.0283400006793784
30
0
41
1
10
66.8183970287028
20
-0.143696916388734
30
0
41
1
10
66.7964287139523
20
-0.200683774205402
30
0
41
1
10
66.7613679662865
20
-0.28506740482257
30
0
41
1
10
66.7493287022641
20
-0.313011996107804
30
0
41
1
10
66.7307202051768
20
-0.35464078659416
30
0
41
1
10
66.7244149045832
20
-0.368491531835673
30
0
41
1
10
66.7117132427925
20
-0.395887638889548
30
0
41
1
10
66.7053085235926
20
-0.409452540854517
30
0
41
1
10
66.6730196574811
20
-0.476611342216728
30
0
41
1
10
66.6463440178755
20
-0.528216732483912
30
0
41
1
10
66.5913426966756
20
-0.627052402975238
30
0
41
1
10
66.5630181478861
20
-0.674285555614688
30
0
41
1
10
66.5192302967077
20
-0.74156340435394
30
0
41
1
10
66.5043421876516
20
-0.763490996077309
30
0
41
1
10
66.4746536026502
20
-0.805313829291464
30
0
41
1
10
66.4598190061274
20
-0.825271399234964
30
0
41
1
10
66.415344589272
20
-0.882315797456954
30
0
41
1
10
66.3857358899763
20
-0.916588217771533
30
0
41
1
10
66.3413546547652
20
-0.962244162580504
30
0
41
1
10
66.326565788547
20
-0.976500621992813
30
0
41
1
10
66.3043818723012
20
-0.996394185440352
30
0
41
1
10
66.2969859762546
20
-1.00277591974569
30
0
41
1
10
66.2823379682353
20
-1.01491637542691
30
0
41
1
10
66.2750673636154
20
-1.02069211928276
30
0
41
1
10
66.2389713816189
20
-1.04812607412742
30
0
41
1
10
66.210914934711
20
-1.06547030201747
30
0
41
1
10
66.1698993760847
20
-1.08485259723304
30
0
41
1
10
66.1564061474497
20
-1.09020365589407
30
0
41
1
10
66.1364172331683
20
-1.0965659694921
30
0
41
1
10
66.1297838514638
20
-1.09841148650787
30
0
41
1
10
66.1166889232174
20
-1.10152546206692
30
0
41
1
10
66.1102210035427
20
-1.10279703735395
30
0
41
1
10
66.0782602075739
20
-1.10776773189778
30
0
41
1
10
66.0538981267395
20
-1.10732399442892
30
0
41
1
10
66.0188771165818
20
-1.10054502508334
30
0
41
1
10
66.0074582517514
20
-1.09726275017954
30
0
41
1
10
65.9850932969256
20
-1.0887010507081
30
0
41
1
10
65.9741220206592
20
-1.08340106098174
30
0
41
1
10
65.9422721496753
20
-1.06481553274941
30
0
41
1
10
65.9223251450382
20
-1.04882946743473
30
0
41
1
10
65.8845470281579
20
-1.01045742595309
30
0
41
1
10
65.8667181068197
20
-0.988066889946737
30
0
41
1
10
65.8413309863422
20
-0.950038124940562
30
0
41
1
10
65.8330955775168
20
-0.936619418178907
30
0
41
1
10
65.8170491846921
20
-0.908337402763891
30
0
41
1
10
65.8092384504186
20
-0.893469381113476
30
0
41
1
10
65.7865625964927
20
-0.847092499550001
30
0
41
1
10
65.7723908355075
20
-0.813715822942385
30
0
41
1
10
65.759038494094
20
-0.778073271419373
30
0
0
SPLINE
5
D2
100
AcDbEntity
8
1
62
256
6
ByLayer
370
18
48
1
60
0
100
AcDbSpline
70
4
71
3
72
9
73
5
40
0
40
0
40
0
40
0
40
0.5
40
1
40
1
40
1
40
1
41
1
10
65.7590384940941
20
-0.778073271419117
30
0
41
1
10
65.6391154772079
20
-0.457952464453513
30
0
41
1
10
65.3692508935557
20
0.20186198639766
30
0
41
1
10
65.0397037889352
20
0.900590916947834
30
0
41
1
10
64.8602604857726
20
1.25952042258081
30
0
0
SPLINE
5
D3
100
AcDbEntity
8
1
62
256
6
ByLayer
370
18
48
1
60
0
100
AcDbSpline
70
4
71
3
72
22
73
18
40
0
40
0
40
0
40
0
40
0.249999999999996
40
0.249999999999996
40
0.312499999999997
40
0.312499999999997
40
0.374999999999998
40
0.374999999999998
40
0.499999999999998
40
0.499999999999998
40
0.624999999999998
40
0.624999999999998
40
0.749999999999999
40
0.749999999999999
40
0.874999999999999
40
0.874999999999999
40
1
40
1
40
1
40
1
41
1
10
63.5262596116842
20
1.00993533762582
30
0
41
1
10
63.6331295394676
20
1.06082421017143
30
0
41
1
10
63.7418524165909
20
1.10375969945909
30
0
41
1
10
63.879330159529
20
1.14752190411733
30
0
41
1
10
63.9069028298212
20
1.15579928263193
30
0
41
1
10
63.9621621365044
20
1.17202440849098
30
0
41
1
10
63.9898555226794
20
1.17983935071379
30
0
41
1
10
64.0731306763673
20
1.20171695311541
30
0
41
1
10
64.1288984776794
20
1.21442421392618
30
0
41
1
10
64.240800084137
20
1.23579555243174
30
0
41
1
10
64.2969349428625
20
1.2443693400262
30
0
41
1
10
64.4094155946377
20
1.2575626375228
30
0
41
1
10
64.4657601267151
20
1.26234805603403
30
0
41
1
10
64.5785209772905
20
1.2682325792731
30
0
41
1
10
64.634936586064
20
1.26922156835764
30
0
41
1
10
64.7476968875816
20
1.26753863685599
30
0
41
1
10
64.8040479466032
20
1.26495251706893
30
0
41
1
10
64.8602604857726
20
1.25952042258081
30
0
0
SPLINE
5
D4
100
AcDbEntity
8
1
62
256
6
ByLayer
370
18
48
1
60
0
100
AcDbSpline
70
4
71
3
72
39
73
35
40
0
40
0
40
0
40
0
40
0.0624999999999995
40
0.0624999999999995
40
0.0937499999999994
40
0.0937499999999994
40
0.124999999999999
40
0.187499999999999
40
0.187499999999999
40
0.218749999999999
40
0.218749999999999
40
0.249999999999999
40
0.249999999999999
40
0.28125
40
0.28125
40
0.3125
40
0.3125
40
0.34375
40
0.34375
40
0.375
40
0.375
40
0.40625
40
0.40625
40
0.437500000000001
40
0.437500000000001
40
0.500000000000002
40
0.500000000000002
40
0.625000000000001
40
0.625000000000001
40
0.750000000000001
40
0.750000000000001
40
0.875000000000001
40
0.875000000000001
40
1
40
1
40
1
40
1
41
1
10
66.3353001991569
20
-2.32561879453223
30
0
41
1
10
66.286307176013
20
-2.40842503834548
30
0
41
1
10
66.2380640091444
20
-2.49366109760314
30
0
41
1
10
66.1667593149981
20
-2.62534335242575
30
0
41
1
10
66.1431426006519
20
-2.66992589168794
30
0
41
1
10
66.0965473287922
20
-2.7598118683311
30
0
41
1
10
66.0275100689672
20
-2.8959019652203
30
0
41
1
10
65.9609287954674
20
-3.03574874667908
30
0
41
1
10
65.8958152421866
20
-3.17805217426974
30
0
41
1
10
65.8743541608481
20
-3.22589391220788
30
0
41
1
10
65.8318781168566
20
-3.32235865897613
30
0
41
1
10
65.8108919537955
20
-3.37091590404711
30
0
41
1
10
65.7694741445626
20
-3.46852331486642
30
0
41
1
10
65.749032014678
20
-3.51759911095118
30
0
41
1
10
65.7086471947635
20
-3.61628516025408
30
0
41
1
10
65.6886983694901
20
-3.66591135033119
30
0
41
1
10
65.6493493169142
20
-3.76545598929803
30
0
41
1
10
65.6299383028587
20
-3.81540012712807
30
0
41
1
10
65.5915954229586
20
-3.91561193037299
30
0
41
1
10
65.5726512749572
20
-3.96591141148795
30
0
41
1
10
65.5352554530773
20
-4.06664866729028
30
0
41
1
10
65.5168083274631
20
-4.11706453775756
30
0
41
1
10
65.4803627024705
20
-4.21797362073443
30
0
41
1
10
65.4621944398464
20
-4.26843633332757
30
0
41
1
10
65.4077355157945
20
-4.41982592966045
30
0
41
1
10
65.3715393852308
20
-4.52076303462317
30
0
41
1
10
65.2632222067002
20
-4.82357957931274
30
0
41
1
10
65.1913867338281
20
-5.0254669049902
30
0
41
1
10
65.0480521456226
20
-5.42908806594451
30
0
41
1
10
64.9765745876832
20
-5.63079512043044
30
0
41
1
10
64.833740417068
20
-6.03331870153269
30
0
41
1
10
64.7623634436734
20
-6.23419392602412
30
0
41
1
10
64.6191334414408
20
-6.6349119867123
30
0
41
1
10
64.5473514527519
20
-6.83454371725526
30
0
41
1
10
64.4751366284823
20
-7.03325311308782
30
0
0
SPLINE
5
D5
100
AcDbEntity
8
1
62
256
6
ByLayer
370
18
48
1
60
0
100
AcDbSpline
70
4
71
3
72
8
73
4
40
0
40
0
40
0
40
0
40
1
40
1
40
1
40
1
41
1
10
31.6
20
4.96135380612529
30
0
41
1
10
31.6
20
4.91476070760976
30
0
41
1
10
31.6
20
4.86586966786294
30
0
41
1
10
31.6
20
4.81473737292347
30
0
0
SPLINE
5
D6
100
AcDbEntity
8
1
62
256
6
ByLayer
370
18
48
1
60
0
100
AcDbSpline
70
4
71
3
72
14
73
10
40
0
40
0
40
0
40
0
40
0.031985991686742
40
0.031985991686742
40
0.637021466715542
40
0.637021466715542
40
0.939539204229941
40
0.939539204229941
40
1
40
1
40
1
40
1
41
1
10
12.3501590306475
20
6.25884842194068
30
0
41
1
10
12.34536985434
20
6.24145209549425
30
0
41
1
10
12.3405447252403
20
6.22407978527713
30
0
41
1
10
12.2437728794151
20
5.87862371999651
30
0
41
1
10
12.1396963078931
20
5.5584373842604
30
0
41
1
10
11.9734262903839
20
5.08789623743172
30
0
41
1
10
11.9162435915575
20
4.93269262483244
30
0
41
1
10
11.8459841943412
20
4.74834147688173
30
0
41
1
10
11.8342047961444
20
4.71770187148553
30
0
41
1
10
11.8223382412474
20
4.68713239770978
30
0
0
SPLINE
5
D7
100
AcDbEntity
8
1
62
256
6
ByLayer
370
18
48
1
60
0
100
AcDbSpline
70
4
71
3
72
45
73
41
40
0
40
0
40
0
40
0
40
0.0306163545719376
40
0.0306163545719376
40
0.0575436780560512
40
0.0575436780560512
40
0.0844710015401649
40
0.0844710015401649
40
0.13832564850839
40
0.13832564850839
40
0.246034942444842
40
0.246034942444842
40
0.272962265928955
40
0.272962265928955
40
0.299889589413068
40
0.299889589413068
40
0.353744236381294
40
0.353744236381294
40
0.40759888334952
40
0.40759888334952
40
0.461453530317745
40
0.461453530317745
40
0.569162824254196
40
0.569162824254196
40
0.623017471222422
40
0.649944794706534
40
0.649944794706534
40
0.676872118190647
40
0.676872118190647
40
0.730726765158872
40
0.730726765158872
40
0.784581412127098
40
0.784581412127098
40
0.838436059095324
40
0.838436059095324
40
0.892290706063549
40
0.892290706063549
40
0.946145353031774
40
0.946145353031774
40
1
40
1
40
1
40
1
41
1
10
50.6774900401166
20
-4.10928152789356
30
0
41
1
10
50.4826511720776
20
-4.02896066894755
30
0
41
1
10
50.2877957444469
20
-3.94741831882922
30
0
41
1
10
49.9216019684329
20
-3.79199130430462
30
0
41
1
10
49.7502260109891
20
-3.71836825591598
30
0
41
1
10
49.4076894354229
20
-3.56955478896427
30
0
41
1
10
49.2364999694268
20
-3.49435229129261
30
0
41
1
10
48.7230997301862
20
-3.26647139596389
30
0
41
1
10
48.3810559464616
20
-3.11151587432127
30
0
41
1
10
47.3550872258205
20
-2.63843481028789
30
0
41
1
10
46.671302873064
20
-2.31217582180335
30
0
41
1
10
45.8147301046612
20
-1.89470366440148
30
0
41
1
10
45.6433467880193
20
-1.81073216602471
30
0
41
1
10
45.30073228611
20
-1.64206377422786
30
0
41
1
10
45.1294613636536
20
-1.55733529093391
30
0
41
1
10
44.6156693489039
20
-1.30213502128422
30
0
41
1
10
44.2731564214003
20
-1.1306745960639
30
0
41
1
10
43.5877677734498
20
-0.785842832548951
30
0
41
1
10
43.2450262111473
20
-0.612534054318331
30
0
41
1
10
42.5596157140556
20
-0.265025138296721
30
0
41
1
10
42.2168806531583
20
-0.0907999312062486
30
0
41
1
10
41.1889682175156
20
0.431389533785676
30
0
41
1
10
40.5050539376468
20
0.778300173635074
30
0
41
1
10
39.4791334471916
20
1.29278834498098
30
0
41
1
10
38.9661294739338
20
1.54849699003509
30
0
41
1
10
38.4526260853394
20
1.80104782617374
30
0
41
1
10
38.1101376824742
20
1.96863061029288
30
0
41
1
10
37.9387714071476
20
2.05205369245917
30
0
41
1
10
37.4247614344493
20
2.30084040313108
30
0
41
1
10
37.0822727864393
20
2.46469556271654
30
0
41
1
10
36.3972238436076
20
2.78757458572534
30
0
41
1
10
36.0546007420476
20
2.94661993221595
30
0
41
1
10
35.3691866671872
20
3.25905738122475
30
0
41
1
10
35.026449045992
20
3.41245681991364
30
0
41
1
10
34.341305456588
20
3.71263651764227
30
0
41
1
10
33.9988109740913
20
3.85941680291361
30
0
41
1
10
33.3135909314168
20
4.14571649059775
30
0
41
1
10
32.9708231415199
20
4.28525396552641
30
0
41
1
10
32.2853753736362
20
4.55625731960748
30
0
41
1
10
31.9427004113429
20
4.68772182260625
30
0
41
1
10
31.6
20
4.81473737292347
30
0
0
SPLINE
5
D8
100
AcDbEntity
8
1
62
256
6
ByLayer
370
18
48
1
60
0
100
AcDbSpline
70
4
71
3
72
26
73
22
40
0
40
0
40
0
40
0
40
0.500000000000016
40
0.500000000000016
40
0.750000000000039
40
0.750000000000039
40
0.875000000000036
40
0.875000000000036
40
0.937500000000034
40
0.937500000000034
40
0.968750000000031
40
0.968750000000031
40
0.984375000000029
40
0.984375000000029
40
0.992187500000029
40
0.992187500000029
40
0.996093750000012
40
0.996093750000012
40
0.998046875000006
40
0.998046875000006
40
1
40
1
40
1
40
1
41
1
10
64.308333886799
20
-7.39997207363575
30
0
41
1
10
64.3351051293496
20
-7.33884729173295
30
0
41
1
10
64.3623895489353
20
-7.27775686325728
30
0
41
1
10
64.404126442928
20
-7.18595933121469
30
0
41
1
10
64.4181785558775
20
-7.15531322190725
30
0
41
1
10
64.4394044782562
20
-7.10951544313215
30
0
41
1
10
64.4464949976595
20
-7.09431613496329
30
0
41
1
10
64.4572023989244
20
-7.07142005282253
30
0
41
1
10
64.4607855605809
20
-7.06376345859067
30
0
41
1
10
64.4661916007309
20
-7.05219894802156
30
0
41
1
10
64.468003917892
20
-7.04831032806302
30
0
41
1
10
64.4706915625664
20
-7.04261444342117
30
0
41
1
10
64.4715747135452
20
-7.04076842124297
30
0
41
1
10
64.4729078965849
20
-7.03796870361992
30
0
41
1
10
64.4733572834674
20
-7.03701670901484
30
0
41
1
10
64.4740453544693
20
-7.03553112812452
30
0
41
1
10
64.4742772555611
20
-7.03502535123422
30
0
41
1
10
64.4746275481491
20
-7.03425659168684
30
0
41
1
10
64.474744456447
20
-7.03399976164243
30
0
41
1
10
64.4749687069526
20
-7.03352644624354
30
0
41
1
10
64.475098645139
20
-7.03325798201001
30
0
41
1
10
64.4751366284825
20
-7.03325311308538
30
0
0
SPLINE
5
D9
100
AcDbEntity
8
1
62
256
6
ByLayer
370
18
48
1
60
0
100
AcDbSpline
70
4
71
3
72
36
73
32
40
0
40
0
40
0
40
0
40
0.0625000000000143
40
0.0625000000000143
40
0.125000000000029
40
0.125000000000029
40
0.156250000000036
40
0.156250000000036
40
0.187500000000043
40
0.187500000000043
40
0.21875000000005
40
0.21875000000005
40
0.250000000000057
40
0.250000000000057
40
0.281250000000064
40
0.281250000000064
40
0.312500000000071
40
0.312500000000071
40
0.343750000000078
40
0.343750000000078
40
0.375000000000086
40
0.375000000000086
40
0.437500000000081
40
0.437500000000081
40
0.500000000000076
40
0.500000000000076
40
0.625000000000056
40
0.625000000000056
40
0.750000000000037
40
0.750000000000037
40
1
40
1
40
1
40
1
41
1
10
3.75068535266544
20
6.96047748935163
30
0
41
1
10
3.7427200080551
20
6.96141026053758
30
0
41
1
10
3.73438319977853
20
6.96265601505974
30
0
41
1
10
3.71662550804314
20
6.96605722716896
30
0
41
1
10
3.70713831519492
20
6.9682295528398
30
0
41
1
10
3.69210247090149
20
6.97245139457971
30
0
41
1
10
3.68694436751807
20
6.97402209806754
30
0
41
1
10
3.67625055764307
20
6.97758522959458
30
0
41
1
10
3.67067077235325
20
6.97959681777221
30
0
41
1
10
3.65943647871026
20
6.98401156301696
30
0
41
1
10
3.65374820493182
20
6.98642369608677
30
0
41
1
10
3.64220177212314
20
6.99173685295818
30
0
41
1
10
3.63646928090131
20
6.99458433086849
30
0
41
1
10
3.62536836965469
20
7.00051896414325
30
0
41
1
10
3.61990079151369
20
7.00366065529673
30
0
41
1
10
3.60950822137585
20
7.01004791457248
30
0
41
1
10
3.60461648695622
20
7.01326669380194
30
0
41
1
10
3.59533352116819
20
7.01974599824928
30
0
41
1
10
3.59096342249293
20
7.0229947331282
30
0
41
1
10
3.58286195557903
20
7.02934471730288
30
0
41
1
10
3.57909268578132
20
7.03247255609944
30
0
41
1
10
3.56844948591393
20
7.04174541166446
30
0
41
1
10
3.56221822950852
20
7.04780242227528
30
0
41
1
10
3.55126081960824
20
7.05938415452761
30
0
41
1
10
3.5464772965037
20
7.06496195914968
30
0
41
1
10
3.53358860434449
20
7.08125092231288
30
0
41
1
10
3.5269054255977
20
7.09156862386948
30
0
41
1
10
3.51618012024036
20
7.11104202746208
30
0
41
1
10
3.51210929733506
20
7.12025634260976
30
0
41
1
10
3.50265938861085
20
7.14679458854991
30
0
41
1
10
3.4999999999994
20
7.16303161460763
30
0
41
1
10
3.5
20
7.17822160090944
30
0
0
SPLINE
5
DA
100
AcDbEntity
8
1
62
256
6
ByLayer
370
13
48
1
60
0
100
AcDbSpline
70
4
71
3
72
21
73
17
40
0
40
0
40
0
40
0
40
0.250000000000002
40
0.250000000000002
40
0.375000000000003
40
0.375000000000003
40
0.500000000000004
40
0.625000000000005
40
0.625000000000005
40
0.750000000000006
40
0.750000000000006
40
0.875000000000007
40
0.875000000000007
40
0.937500000000003
40
0.937500000000003
40
1
40
1
40
1
40
1
41
1
10
3.63595602523713
20
-1.29607474882184
30
0
41
1
10
3.61391802874749
20
-1.29166490191781
30
0
41
1
10
3.59458545721583
20
-1.28620620708523
30
0
41
1
10
3.56905453668853
20
-1.27663555229057
30
0
41
1
10
3.56110441024762
20
-1.27318849859779
30
0
41
1
10
3.54682450361031
20
-1.26605273446745
30
0
41
1
10
3.53402591216496
20
-1.25863227132606
30
0
41
1
10
3.52398576469244
20
-1.25067090661065
30
0
41
1
10
3.51530330094309
20
-1.24243880328942
30
0
41
1
10
3.51164640964549
20
-1.23818102959427
30
0
41
1
10
3.5058319204208
20
-1.22957066094236
30
0
41
1
10
3.50364614551953
20
-1.22518904080604
30
0
41
1
10
3.50145732839346
20
-1.2185381660596
30
0
41
1
10
3.50091035960509
20
-1.21631119946119
30
0
41
1
10
3.50018105670117
20
-1.21183960559841
30
0
41
1
10
3.5
20
-1.20958073888087
30
0
41
1
10
3.5
20
-1.20736629428302
30
0
0
SPLINE
5
DB
100
AcDbEntity
8
1
62
256
6
ByLayer
370
13
48
1
60
0
100
AcDbSpline
70
4
71
3
72
12
73
8
40
0
40
0
40
0
40
0
40
0.500000000000076
40
0.500000000000076
40
0.750000000000038
40
0.750000000000038
40
1
40
1
40
1
40
1
41
1
10
3.75022470444074
20
-1.32475138955317
30
0
41
1
10
3.73034709127168
20
-1.31884290487412
30
0
41
1
10
3.71086531728079
20
-1.31351065811677
30
0
41
1
10
3.68222207679898
20
-1.30632254754994
30
0
41
1
10
3.67277187349131
20
-1.30406301772231
30
0
41
1
10
3.65407648852559
20
-1.29982594887142
30
0
41
1
10
3.64488575613106
20
-1.29786160572391
30
0
41
1
10
3.63595602523713
20
-1.29607474882184
30
0
0
SPLINE
5
DC
100
AcDbEntity
8
1
62
256
6
ByLayer
370
18
48
1
60
0
100
AcDbSpline
70
4
71
3
72
178
73
174
40
0
40
0
40
0
40
0
40
0.0068565158983439
40
0.0068565158983439
40
0.0164059724762454
40
0.0164059724762454
40
0.0259554290541469
40
0.0259554290541469
40
0.0355048856320484
40
0.0355048856320484
40
0.0450543422099499
40
0.0450543422099499
40
0.0641532553657529
40
0.0641532553657529
40
0.0737027119436548
40
0.0737027119436548
40
0.0832521685215567
40
0.0832521685215567
40
0.102351081677361
40
0.102351081677361
40
0.121449994833166
40
0.121449994833166
40
0.14054890798897
40
0.14054890798897
40
0.150098364566872
40
0.150098364566872
40
0.159647821144774
40
0.159647821144774
40
0.169197277722676
40
0.169197277722676
40
0.178746734300578
40
0.178746734300578
40
0.188296190878479
40
0.188296190878479
40
0.197845647456381
40
0.197845647456381
40
0.216944560612184
40
0.216944560612184
40
0.236043473767987
40
0.236043473767987
40
0.245592930345888
40
0.245592930345888
40
0.255142386923789
40
0.255142386923789
40
0.264691843501691
40
0.264691843501691
40
0.274241300079592
40
0.274241300079592
40
0.293340213235394
40
0.293340213235394
40
0.302889669813295
40
0.302889669813295
40
0.312439126391196
40
0.312439126391196
40
0.331538039546998
40
0.331538039546998
40
0.341087496124898
40
0.341087496124898
40
0.350636952702799
40
0.350636952702799
40
0.369735865858601
40
0.369735865858601
40
0.37451059414755
40
0.37451059414755
40
0.3792853224365
40
0.3792853224365
40
0.388834779014399
40
0.388834779014399
40
0.407933692170197
40
0.407933692170197
40
0.417483148748096
40
0.417483148748096
40
0.427032605325995
40
0.427032605325995
40
0.446131518481794
40
0.446131518481794
40
0.455680975059693
40
0.455680975059693
40
0.465230431637592
40
0.465230431637592
40
0.474779888215491
40
0.474779888215491
40
0.48432934479339
40
0.48432934479339
40
0.48910407308234
40
0.48910407308234
40
0.49387880137129
40
0.49387880137129
40
0.503428257949189
40
0.503428257949189
40
0.522527171104989
40
0.522527171104989
40
0.532076627682888
40
0.532076627682888
40
0.541626084260788
40
0.541626084260788
40
0.551175540838688
40
0.551175540838688
40
0.560724997416587
40
0.560724997416587
40
0.579823910572387
40
0.579823910572387
40
0.598922823728187
40
0.598922823728187
40
0.603697552017137
40
0.603697552017137
40
0.608472280306087
40
0.608472280306087
40
0.618021736883988
40
0.618021736883988
40
0.627571193461888
40
0.627571193461888
40
0.637120650039789
40
0.637120650039789
40
0.64667010661769
40
0.64667010661769
40
0.65621956319559
40
0.65621956319559
40
0.675318476351392
40
0.675318476351392
40
0.694417389507193
40
0.694417389507193
40
0.703966846085094
40
0.703966846085094
40
0.713516302662995
40
0.713516302662995
40
0.718291030951945
40
0.718291030951945
40
0.723065759240895
40
0.723065759240895
40
0.732615215818795
40
0.732615215818795
40
0.742164672396694
40
0.742164672396694
40
0.751714128974594
40
0.751714128974594
40
0.761263585552494
40
0.761263585552494
40
0.770813042130394
40
0.770813042130394
40
0.789911955286195
40
0.789911955286195
40
0.809010868441995
40
0.809010868441995
40
0.818560325019896
40
0.818560325019896
40
0.828109781597796
40
0.828109781597796
40
0.837659238175696
40
0.837659238175696
40
0.847208694753596
40
0.847208694753596
40
0.866307607909397
40
0.866307607909397
40
0.875857064487298
40
0.875857064487298
40
0.885406521065198
40
0.885406521065198
40
0.904505434220998
40
0.904505434220998
40
0.923604347376799
40
0.923604347376799
40
0.933153803954699
40
0.933153803954699
40
0.942703260532599
40
0.942703260532599
40
0.952252717110499
40
0.952252717110499
40
0.961802173688399
40
0.961802173688399
40
0.9809010868442
40
0.9809010868442
40
1
40
1
40
1
40
1
41
1
10
53.5882695196047
20
-5.32763691616279
30
0
41
1
10
53.4862225794488
20
-5.36126387137332
30
0
41
1
10
53.3841934514269
20
-5.39443860909972
30
0
41
1
10
53.1400519701034
20
-5.47271747063087
30
0
41
1
10
52.9979331499268
20
-5.51738714830415
30
0
41
1
10
52.713623480106
20
-5.60498583516957
30
0
41
1
10
52.5714326081838
20
-5.64791672321985
30
0
41
1
10
52.2869817236871
20
-5.73201257159306
30
0
41
1
10
52.1446833011613
20
-5.77313535531468
30
0
41
1
10
51.8602513092433
20
-5.85383772689315
30
0
41
1
10
51.7181478084589
20
-5.8934448313571
30
0
41
1
10
51.29155998351
20
-6.00929051329953
30
0
41
1
10
51.0069719812663
20
-6.0827581317474
30
0
41
1
10
50.579647752563
20
-6.18693436497296
30
0
41
1
10
50.4371327595178
20
-6.22065064328373
30
0
41
1
10
50.1519961660355
20
-6.28602680040672
30
0
41
1
10
50.0093288305281
20
-6.31769397072773
30
0
41
1
10
49.5817945853908
20
-6.40942269290639
30
0
41
1
10
49.2971878532816
20
-6.46627790670092
30
0
41
1
10
48.7279973072233
20
-6.57245572744128
30
0
41
1
10
48.4435053261834
20
-6.62176193655711
30
0
41
1
10
47.8745596458676
20
-6.71177305995516
30
0
41
1
10
47.5900979669412
20
-6.75246187936492
30
0
41
1
10
47.1632901125868
20
-6.80706680317084
30
0
41
1
10
47.02095734267
20
-6.82419120219305
30
0
41
1
10
46.7365726684596
20
-6.85634093694614
30
0
41
1
10
46.5944707003676
20
-6.87133136607434
30
0
41
1
10
46.310153486183
20
-6.89885536149598
30
0
41
1
10
46.1679850591705
20
-6.91137071970638
30
0
41
1
10
45.8835422452151
20
-6.93402755147918
30
0
41
1
10
45.7412503781059
20
-6.9442294937013
30
0
41
1
10
45.4564133512903
20
-6.96270166232037
30
0
41
1
10
45.3138808177498
20
-6.97093850585458
30
0
41
1
10
45.0286341952442
20
-6.98539358244804
30
0
41
1
10
44.885898876314
20
-6.99160974100357
30
0
41
1
10
44.458036202063
20
-7.00708600734885
30
0
41
1
10
44.1730457698478
20
-7.01317885051486
30
0
41
1
10
43.603535429898
20
-7.01640170656367
30
0
41
1
10
43.319046410356
20
-7.01356634561617
30
0
41
1
10
42.8924548794618
20
-7.00210153569739
30
0
41
1
10
42.7502869376804
20
-6.99706455263771
30
0
41
1
10
42.4660242460106
20
-6.98440685226038
30
0
41
1
10
42.3239470380405
20
-6.97671680232796
30
0
41
1
10
42.039747678918
20
-6.95907340123276
30
0
41
1
10
41.8975763553627
20
-6.94923781797007
30
0
41
1
10
41.613386933948
20
-6.92775178286979
30
0
41
1
10
41.471273675789
20
-6.91605405979115
30
0
41
1
10
41.0446432004786
20
-6.87793994774398
30
0
41
1
10
40.7599216363421
20
-6.84852404566621
30
0
41
1
10
40.3322819918463
20
-6.79821578315361
30
0
41
1
10
40.1896481533551
20
-6.7804115429208
30
0
41
1
10
39.9042528453836
20
-6.74262592667259
30
0
41
1
10
39.7615004826128
20
-6.72264020377827
30
0
41
1
10
39.3337087806847
20
-6.65939502385558
30
0
41
1
10
39.0488927031668
20
-6.61283714932168
30
0
41
1
10
38.6222185829043
20
-6.53592971479171
30
0
41
1
10
38.4801042883569
20
-6.5090641223328
30
0
41
1
10
38.195911787726
20
-6.45332845890161
30
0
41
1
10
38.0538105577253
20
-6.42453556640396
30
0
41
1
10
37.6273938240732
20
-6.33550511476918
30
0
41
1
10
37.3430560784773
20
-6.27234745072147
30
0
41
1
10
36.9876218008688
20
-6.18811075061817
30
0
41
1
10
36.9165263286041
20
-6.17101438329337
30
0
41
1
10
36.7743761192943
20
-6.13628194860502
30
0
41
1
10
36.7033348977328
20
-6.11863204824985
30
0
41
1
10
36.4902467999837
20
-6.06491433253393
30
0
41
1
10
36.3481663872479
20
-6.02814998548743
30
0
41
1
10
35.9216301641482
20
-5.91546583224448
30
0
41
1
10
35.6369375249693
20
-5.83706867453247
30
0
41
1
10
35.2093388164692
20
-5.71433081880093
30
0
41
1
10
35.0667202725735
20
-5.67254948238642
30
0
41
1
10
34.7813579964411
20
-5.58712491473167
30
0
41
1
10
34.638667327464
20
-5.54349021847386
30
0
41
1
10
34.2110137185744
20
-5.40992911716504
30
0
41
1
10
33.9262533577756
20
-5.31735751676149
30
0
41
1
10
33.4996390254966
20
-5.17280011116563
30
0
41
1
10
33.3575448298321
20
-5.123593641074
30
0
41
1
10
33.0734709010298
20
-5.02332945565843
30
0
41
1
10
32.9314746614106
20
-4.97232075304842
30
0
41
1
10
32.6474086558288
20
-4.86898769700485
30
0
41
1
10
32.5053419537161
20
-4.81666367700578
30
0
41
1
10
32.2210795609916
20
-4.71092690743347
30
0
41
1
10
32.0788927593251
20
-4.65748221007743
30
0
41
1
10
31.8655464815874
20
-4.57637276326636
30
0
41
1
10
31.794420226911
20
-4.54917960537992
30
0
41
1
10
31.6522220386484
20
-4.49435730838454
30
0
41
1
10
31.5811565106686
20
-4.46671791119411
30
0
41
1
10
31.3679500971154
20
-4.38327085300094
30
0
41
1
10
31.2257693832795
20
-4.32698136074424
30
0
41
1
10
30.7990472854338
20
-4.15615321907538
30
0
41
1
10
30.514331830236
20
-4.03964500335235
30
0
41
1
10
30.0868134772416
20
-3.86086150261443
30
0
41
1
10
29.9442366253014
20
-3.80060733596551
30
0
41
1
10
29.6590278273013
20
-3.6784120730029
30
0
41
1
10
29.516590126799
20
-3.61645775814526
30
0
41
1
10
29.2319287404305
20
-3.49133958736445
30
0
41
1
10
29.0896596118307
20
-3.42826286524999
30
0
41
1
10
28.8051240451318
20
-3.30139300186323
30
0
41
1
10
28.662874387878
20
-3.23755474847724
30
0
41
1
10
28.2361952330408
20
-3.04477872371027
30
0
41
1
10
27.9518232614338
20
-2.91460279919673
30
0
41
1
10
27.3829013486653
20
-2.65140216594392
30
0
41
1
10
27.0983796696744
20
-2.51832666376109
30
0
41
1
10
26.7426714559036
20
-2.35000807818798
30
0
41
1
10
26.6715353197019
20
-2.31623021083524
30
0
41
1
10
26.5293427245134
20
-2.24831327341974
30
0
41
1
10
26.4582792999089
20
-2.21418702589702
30
0
41
1
10
26.2450670324601
20
-2.1115272471007
30
0
41
1
10
26.1028940930507
20
-2.04272159916275
30
0
41
1
10
25.8185120607168
20
-1.90422506445486
30
0
41
1
10
25.6763167327639
20
-1.83448368609285
30
0
41
1
10
25.3917494990422
20
-1.69452438535217
30
0
41
1
10
25.2493567328913
20
-1.62437478632978
30
0
41
1
10
24.9643538091559
20
-1.48375800050175
30
0
41
1
10
24.8217186474969
20
-1.41324202920822
30
0
41
1
10
24.5364752139296
20
-1.27173226226668
30
0
41
1
10
24.3939469718711
20
-1.20077660287637
30
0
41
1
10
23.9665947828739
20
-0.987401443892054
30
0
41
1
10
23.6819613103026
20
-0.844558206380924
30
0
41
1
10
23.1129289333204
20
-0.558291281862921
30
0
41
1
10
22.8285311828781
20
-0.41486446236101
30
0
41
1
10
22.4018823362512
20
-0.199735597126448
30
0
41
1
10
22.2596649734602
20
-0.12801274694823
30
0
41
1
10
21.9752013486747
20
0.0154058062885269
30
0
41
1
10
21.83294208503
20
0.0870756399304184
30
0
41
1
10
21.6195576108795
20
0.194611690075078
30
0
41
1
10
21.5484468166889
20
0.230495326306084
30
0
41
1
10
21.4062888320215
20
0.302396783934711
30
0
41
1
10
21.3352286945333
20
0.338388856467247
30
0
41
1
10
21.1220032171494
20
0.446287090529125
30
0
41
1
10
20.9798151538635
20
0.518159721129763
30
0
41
1
10
20.6953455309051
20
0.661751184487088
30
0
41
1
10
20.5530643812051
20
0.733470860530872
30
0
41
1
10
20.2683789266227
20
0.876698232409353
30
0
41
1
10
20.1259764538969
20
0.948210025706828
30
0
41
1
10
19.8410121354394
20
1.0909474955541
30
0
41
1
10
19.6983920976586
20
1.16217447504548
30
0
41
1
10
19.4132081960014
20
1.30408154123762
30
0
41
1
10
19.2706559945761
20
1.37476960328024
30
0
41
1
10
18.8431239714316
20
1.58599087822819
30
0
41
1
10
18.5582695259291
20
1.72567489610537
30
0
41
1
10
17.988980836716
20
2.00273783870662
30
0
41
1
10
17.7044973136271
20
2.14003160937659
30
0
41
1
10
17.2777972367629
20
2.34356009810395
30
0
41
1
10
17.1355776285566
20
2.41101760192711
30
0
41
1
10
16.8511657611217
20
2.54513176046234
30
0
41
1
10
16.7089524924578
20
2.61174427594079
30
0
41
1
10
16.4246364143318
20
2.74434095201437
30
0
41
1
10
16.2826448019409
20
2.81052776551249
30
0
41
1
10
15.9985062925134
20
2.94183887017309
30
0
41
1
10
15.8563784485869
20
3.00700715124663
30
0
41
1
10
15.4297537860516
20
3.20096581385411
30
0
41
1
10
15.1450156410421
20
3.32817941741612
30
0
41
1
10
14.7174631976763
20
3.51576521408541
30
0
41
1
10
14.5748784302953
20
3.57777393256785
30
0
41
1
10
14.2895612694785
20
3.70076293161944
30
0
41
1
10
14.1469005510743
20
3.76169943770589
30
0
41
1
10
13.7191882400508
20
3.942578586916
30
0
41
1
10
13.4342574791298
20
4.06066141532773
30
0
41
1
10
12.8648303662855
20
4.29157071380754
30
0
41
1
10
12.5802804688704
20
4.4043133485772
30
0
41
1
10
12.153516855544
20
4.56881799382941
30
0
41
1
10
12.0112801969891
20
4.62289697783336
30
0
41
1
10
11.7268386132731
20
4.72949553945881
30
0
41
1
10
11.5845968232611
20
4.78196234131747
30
0
41
1
10
11.3003511561696
20
4.88559040292861
30
0
41
1
10
11.1584076486357
20
4.93681860171225
30
0
41
1
10
10.8744372737392
20
5.0375294530362
30
0
41
1
10
10.7324325701016
20
5.08707899695997
30
0
41
1
10
10.3061416339284
20
5.23334647971689
30
0
41
1
10
10.0215889627654
20
5.3275949154355
30
0
41
1
10
9.45159641223833
20
5.50913066324676
30
0
41
1
10
9.16618918953444
20
5.59647531582442
30
0
41
1
10
8.88041532094849
20
5.68033001842414
30
0
0
SPLINE
5
DD
100
AcDbEntity
8
1
62
256
6
ByLayer
370
18
48
1
60
0
100
AcDbSpline
70
4
71
3
72
28
73
24
40
0
40
0
40
0
40
0
40
0.124999999999999
40
0.124999999999999
40
0.249999999999998
40
0.249999999999998
40
0.374999999999998
40
0.374999999999998
40
0.499999999999997
40
0.499999999999997
40
0.624999999999996
40
0.624999999999996
40
0.656249999999996
40
0.656249999999996
40
0.687499999999997
40
0.687499999999997
40
0.749999999999997
40
0.749999999999997
40
0.874999999999999
40
0.874999999999999
40
0.937499999999999
40
0.937499999999999
40
1
40
1
40
1
40
1
41
1
10
8.88017905582953
20
5.6803817013251
30
0
41
1
10
8.64249324361603
20
5.75028293305076
30
0
41
1
10
8.40670579449363
20
5.81923960134409
30
0
41
1
10
7.9393561053071
20
5.95464685937961
30
0
41
1
10
7.70779596942694
20
6.02109444400693
30
0
41
1
10
7.24946396463145
20
6.15070735689807
30
0
41
1
10
7.02273089210291
20
6.21382176490479
30
0
41
1
10
6.57407867184008
20
6.3367182114535
30
0
41
1
10
6.3522133664473
20
6.39642970942987
30
0
41
1
10
5.91440368689629
20
6.51110348271703
30
0
41
1
10
5.69843366905249
20
6.56609783377323
30
0
41
1
10
5.43288457560479
20
6.63100074033218
30
0
41
1
10
5.37999656534885
20
6.64378806492138
30
0
41
1
10
5.27468875847316
20
6.66894666878324
30
0
41
1
10
5.22222023170198
20
6.68132913349987
30
0
41
1
10
5.06605936823635
20
6.71768736679388
30
0
41
1
10
4.96354689810639
20
6.74089166483844
30
0
41
1
10
4.66124436015534
20
6.80701396301757
30
0
41
1
10
4.46664359977135
20
6.84647585272873
30
0
41
1
10
4.18758681407317
20
6.896705532949
30
0
41
1
10
4.09671837252651
20
6.91194750460511
30
0
41
1
10
3.91985857884373
20
6.93896228525475
30
0
41
1
10
3.83386486866763
20
6.95073686176377
30
0
41
1
10
3.75068534951194
20
6.96047748971921
30
0
0
SPLINE
5
DE
100
AcDbEntity
8
1
62
256
6
ByLayer
370
13
48
1
60
0
100
AcDbSpline
70
4
71
3
72
51
73
47
40
0
40
0
40
0
40
0
40
0.0624999999999999
40
0.0624999999999999
40
0.0937499999999999
40
0.0937499999999999
40
0.125
40
0.125
40
0.1875
40
0.1875
40
0.25
40
0.25
40
0.265625
40
0.265625
40
0.28125
40
0.28125
40
0.3125
40
0.3125
40
0.375
40
0.4375
40
0.4375
40
0.46875
40
0.46875
40
0.5
40
0.5
40
0.5625
40
0.625
40
0.625
40
0.640625
40
0.640625
40
0.65625
40
0.65625
40
0.6875
40
0.6875
40
0.75
40
0.8125
40
0.8125
40
0.84375
40
0.84375
40
0.859375
40
0.859375
40
0.875
40
0.875
40
0.9375
40
0.9375
40
1
40
1
40
1
40
1
41
1
10
3.7506853526634
20
6.96047748935166
30
0
41
1
10
3.75067588063936
20
6.93699626653355
30
0
41
1
10
3.75066489751808
20
6.90084823653851
30
0
41
1
10
3.75064674587978
20
6.82762456132983
30
0
41
1
10
3.75064044741399
20
6.80017201977094
30
0
41
1
10
3.75062746867192
20
6.73935333809087
30
0
41
1
10
3.7506207867167
20
6.70598054173237
30
0
41
1
10
3.75060030419584
20
6.59709842566568
30
0
41
1
10
3.75058607039497
20
6.5128484680564
30
0
41
1
10
3.75055710091289
20
6.32112665647557
30
0
41
1
10
3.75054236428247
20
6.21365629291941
30
0
41
1
10
3.75052397649753
20
6.06439401585189
30
0
41
1
10
3.75052030038427
20
6.03379338984189
30
0
41
1
10
3.75051295895273
20
5.97107737081049
30
0
41
1
10
3.75050930786586
20
5.93908294243906
30
0
41
1
10
3.75049843335452
20
5.84129651522767
30
0
41
1
10
3.750491284682
20
5.77366631427381
30
0
41
1
10
3.75047021240837
20
5.56359161507822
30
0
41
1
10
3.75044312010635
20
5.26437188279118
30
0
41
1
10
3.75041860139513
20
4.92738200954051
30
0
41
1
10
3.75040130796572
20
4.66019040351753
30
0
41
1
10
3.75039572527444
20
4.56871353459741
30
0
41
1
10
3.75038493529792
20
4.38082442138119
30
0
41
1
10
3.75037977092072
20
4.28515728561203
30
0
41
1
10
3.75036495512705
20
3.99323108462744
30
0
41
1
10
3.75034700544663
20
3.59075857763926
30
0
41
1
10
3.75033227645014
20
3.1621507131772
30
0
41
1
10
3.75032389226607
20
2.88594212923354
30
0
41
1
10
3.75032225621126
20
2.83028289728918
30
0
41
1
10
3.75031905986427
20
2.71812093713916
30
0
41
1
10
3.75031750252643
20
2.66171841894357
30
0
41
1
10
3.75031295689854
20
2.49211929918704
30
0
41
1
10
3.75031008856584
20
2.37830420390873
30
0
41
1
10
3.75030186805566
20
2.03465404300738
30
0
41
1
10
3.75029193691216
20
1.57058578354418
30
0
41
1
10
3.75028289592706
20
1.09493667103996
30
0
41
1
10
3.75027595109833
20
0.733774035430713
30
0
41
1
10
3.75027360792737
20
0.612647377176103
30
0
41
1
10
3.75026998015503
20
0.429824182873233
30
0
41
1
10
3.7502687541905
20
0.3688074055176
30
0
41
1
10
3.75026626442317
20
0.246983740158527
30
0
41
1
10
3.75026499953023
20
0.186121720462296
30
0
41
1
10
3.75025854590516
20
-0.117941127589262
30
0
41
1
10
3.75025297121221
20
-0.360402215752714
30
0
41
1
10
3.75024023366299
20
-0.843759713773409
30
0
41
1
10
3.75023307229961
20
-1.08465618912237
30
0
41
1
10
3.75022470444077
20
-1.32475138955317
30
0
0
SPLINE
5
DF
100
AcDbEntity
8
1
62
256
6
ByLayer
370
18
48
1
60
0
100
AcDbSpline
70
4
71
3
72
76
73
72
40
0
40
0
40
0
40
0
40
0.0437043825388309
40
0.0437043825388309
40
0.0655565738082464
40
0.0655565738082464
40
0.0874087650776619
40
0.0874087650776619
40
0.131113147616493
40
0.131113147616493
40
0.152965338885908
40
0.152965338885908
40
0.174817530155324
40
0.174817530155324
40
0.218521912694155
40
0.218521912694155
40
0.24037410396357
40
0.24037410396357
40
0.262226295232986
40
0.262226295232986
40
0.305930677771815
40
0.305930677771815
40
0.32778286904123
40
0.32778286904123
40
0.349635060310644
40
0.349635060310644
40
0.393339442849475
40
0.393339442849475
40
0.415191634118891
40
0.415191634118891
40
0.437043825388308
40
0.437043825388308
40
0.480748207927139
40
0.480748207927139
40
0.502600399196554
40
0.502600399196554
40
0.52445259046597
40
0.52445259046597
40
0.546304781735385
40
0.546304781735385
40
0.568156973004801
40
0.568156973004801
40
0.590009164274216
40
0.590009164274216
40
0.611861355543632
40
0.611861355543632
40
0.655565738082463
40
0.655565738082463
40
0.677417929351879
40
0.677417929351879
40
0.699270120621295
40
0.699270120621295
40
0.742974503160128
40
0.742974503160128
40
0.786678885698961
40
0.786678885698961
40
0.830383268237793
40
0.830383268237793
40
0.85223545950721
40
0.85223545950721
40
0.874087650776627
40
0.874087650776627
40
0.895939842046044
40
0.895939842046044
40
0.917792033315462
40
0.917792033315462
40
0.939644224584879
40
0.939644224584879
40
0.961496415854296
40
0.961496415854296
40
1
40
1
40
1
40
1
41
1
10
63.5262596116841
20
1.00993533762585
30
0
41
1
10
63.2423414905328
20
1.15314779829242
30
0
41
1
10
62.9582589476426
20
1.29524379466915
30
0
41
1
10
62.5318371052449
20
1.50661770628878
30
0
41
1
10
62.3896301702139
20
1.57674934876047
30
0
41
1
10
62.105195796799
20
1.71657087839873
30
0
41
1
10
61.9630955439752
20
1.78650044760136
30
0
41
1
10
61.5366066107563
20
1.99530348587487
30
0
41
1
10
61.2520435580514
20
2.13321984911283
30
0
41
1
10
60.8247235189767
20
2.33788700988671
30
0
41
1
10
60.6821988000341
20
2.40573147539331
30
0
41
1
10
60.3970058094679
20
2.54070324727996
30
0
41
1
10
60.2542923394271
20
2.60785939439813
30
0
41
1
10
59.8263386675713
20
2.80815582765109
30
0
41
1
10
59.5414586006652
20
2.93996489947534
30
0
41
1
10
59.1146892584472
20
3.13465871926897
30
0
41
1
10
58.9725539501041
20
3.1990660505958
30
0
41
1
10
58.6884599596528
20
3.32682202649809
30
0
41
1
10
58.5464696120053
20
3.39015996007603
30
0
41
1
10
58.1203364921963
20
3.57836832738329
30
0
41
1
10
57.8360787526235
20
3.70141215638853
30
0
41
1
10
57.4094749966393
20
3.88226271281303
30
0
41
1
10
57.2672092161616
20
3.94188079705396
30
0
41
1
10
56.9827551293877
20
4.06009778296215
30
0
41
1
10
56.8406616279249
20
4.11884779604091
30
0
41
1
10
56.4141403641886
20
4.29293148492164
30
0
41
1
10
56.1295992334825
20
4.40631689160702
30
0
41
1
10
55.7023905574966
20
4.57197272674955
30
0
41
1
10
55.5599195493248
20
4.62644484110336
30
0
41
1
10
55.2748508137867
20
4.73392791279943
30
0
41
1
10
55.132200501594
20
4.78696623969788
30
0
41
1
10
54.7045244705106
20
4.94376450464378
30
0
41
1
10
54.4197231719113
20
5.04518453698444
30
0
41
1
10
53.992879401068
20
5.19228124293016
30
0
41
1
10
53.8506686852816
20
5.24047922765095
30
0
41
1
10
53.5663670855284
20
5.33513375984566
30
0
41
1
10
53.4242677918889
20
5.38158960969599
30
0
41
1
10
53.1400519701032
20
5.47271747063093
30
0
41
1
10
52.9979331499266
20
5.51738714830418
30
0
41
1
10
52.7136234801059
20
5.6049858351696
30
0
41
1
10
52.5714326081836
20
5.64791672321988
30
0
41
1
10
52.2869817236871
20
5.73201257159309
30
0
41
1
10
52.1446833011612
20
5.77313535531471
30
0
41
1
10
51.8602513092432
20
5.8538377268932
30
0
41
1
10
51.7181478084588
20
5.89344483135716
30
0
41
1
10
51.29155998351
20
6.00929051329959
30
0
41
1
10
51.0069719812661
20
6.08275813174745
30
0
41
1
10
50.5796477525628
20
6.18693436497301
30
0
41
1
10
50.4371327595176
20
6.22065064328379
30
0
41
1
10
50.1519961660353
20
6.28602680040675
30
0
41
1
10
50.0093288305279
20
6.31769397072779
30
0
41
1
10
49.5817945853906
20
6.40942269290642
30
0
41
1
10
49.2971878532814
20
6.46627790670095
30
0
41
1
10
48.7279973072231
20
6.57245572744131
30
0
41
1
10
48.4435053261832
20
6.62176193655714
30
0
41
1
10
47.8745596458675
20
6.71177305995519
30
0
41
1
10
47.590097966941
20
6.75246187936494
30
0
41
1
10
47.1632901125867
20
6.80706680317084
30
0
41
1
10
47.0209573426699
20
6.82419120219305
30
0
41
1
10
46.7365726684594
20
6.85634093694614
30
0
41
1
10
46.5944707003675
20
6.87133136607437
30
0
41
1
10
46.3101534861829
20
6.89885536149598
30
0
41
1
10
46.1679850591704
20
6.91137071970641
30
0
41
1
10
45.8835422452149
20
6.9340275514792
30
0
41
1
10
45.7412503781057
20
6.9442294937013
30
0
41
1
10
45.4564133512901
20
6.96270166232037
30
0
41
1
10
45.3138808177497
20
6.9709385058546
30
0
41
1
10
45.0286341952441
20
6.98539358244804
30
0
41
1
10
44.8858988763139
20
6.99160974100357
30
0
41
1
10
44.491979823266
20
7.00585822901226
30
0
41
1
10
44.2408767504172
20
7.01166893530254
30
0
41
1
10
43.9899577651321
20
7.01402505168122
30
0
0
SPLINE
5
E0
100
AcDbEntity
8
1
62
256
6
ByLayer
370
18
48
1
60
0
100
AcDbSpline
70
4
71
3
72
8
73
4
40
0
40
0
40
0
40
0
40
1
40
1
40
1
40
1
41
1
10
9.58693210187144
20
-5.46570106420432
30
0
41
1
10
9.35169264057774
20
-5.53959441654428
30
0
41
1
10
9.11617875493175
20
-5.61114989100949
30
0
41
1
10
8.88041532094849
20
-5.68033001842414
30
0
0
SPLINE
5
E1
100
AcDbEntity
8
1
62
256
6
ByLayer
370
18
48
1
60
0
100
AcDbSpline
70
4
71
3
72
55
73
51
40
0
40
0
40
0
40
0
40
0.0624999999999997
40
0.0624999999999997
40
0.124999999999999
40
0.124999999999999
40
0.156249999999999
40
0.156249999999999
40
0.171874999999999
40
0.171874999999999
40
0.187499999999999
40
0.187499999999999
40
0.249999999999999
40
0.249999999999999
40
0.312499999999999
40
0.312499999999999
40
0.343749999999998
40
0.343749999999998
40
0.359374999999998
40
0.359374999999998
40
0.374999999999998
40
0.374999999999998
40
0.437499999999998
40
0.437499999999998
40
0.499999999999999
40
0.562499999999999
40
0.562499999999999
40
0.578124999999999
40
0.578124999999999
40
0.593749999999999
40
0.593749999999999
40
0.624999999999999
40
0.624999999999999
40
0.687499999999999
40
0.687499999999999
40
0.718749999999999
40
0.718749999999999
40
0.749999999999999
40
0.749999999999999
40
0.812499999999999
40
0.812499999999999
40
0.875
40
0.875
40
0.890625
40
0.890625
40
0.90625
40
0.90625
40
0.9375
40
0.9375
40
1
40
1
40
1
40
1
41
1
10
63.5262596116842
20
1.00993533762585
30
0
41
1
10
63.5134070478804
20
0.782379433014142
30
0
41
1
10
63.5080503228091
20
0.554466723210339
30
0
41
1
10
63.5095618317501
20
0.0979284760621226
30
0
41
1
10
63.516434320693
20
-0.130697052068257
30
0
41
1
10
63.5340890524977
20
-0.474184946724478
30
0
41
1
10
63.5412004527729
20
-0.588772674093377
30
0
41
1
10
63.5534950285996
20
-0.760795331594039
30
0
41
1
10
63.5578687914328
20
-0.818211745330984
30
0
41
1
10
63.5671057308199
20
-0.932858827203631
30
0
41
1
10
63.5719578723019
20
-0.989959740259991
30
0
41
1
10
63.5972751157241
20
-1.27437647255513
30
0
41
1
10
63.62088885345
20
-1.49843952970014
30
0
41
1
10
63.6723388108598
20
-1.9400919423947
30
0
41
1
10
63.700180222236
20
-2.1576801168024
30
0
41
1
10
63.7435737850643
20
-2.47936777464255
30
0
41
1
10
63.7583131499679
20
-2.58581272522781
30
0
41
1
10
63.7806648227758
20
-2.74430766736003
30
0
41
1
10
63.7881559628321
20
-2.79694378742823
30
0
41
1
10
63.8031927799101
20
-2.90182424322012
30
0
41
1
10
63.8107475197966
20
-2.95413053531507
30
0
41
1
10
63.8484214772851
20
-3.21349801630544
30
0
41
1
10
63.8783003541417
20
-3.41463568681823
30
0
41
1
10
63.9361817011204
20
-3.80470896402741
30
0
41
1
10
63.9921912670602
20
-4.18257645149748
30
0
41
1
10
64.0425526621108
20
-4.53619740130364
30
0
41
1
10
64.071889674215
20
-4.7494277403116
30
0
41
1
10
64.0776509919973
20
-4.79168363462045
30
0
41
1
10
64.0889555939166
20
-4.87540566602297
30
0
41
1
10
64.0944973156345
20
-4.91686136799157
30
0
41
1
10
64.1107224609533
20
-5.03951710608712
30
0
41
1
10
64.1210289776197
20
-5.11918265568326
30
0
41
1
10
64.1504447849512
20
-5.3518885829759
30
0
41
1
10
64.1680375602345
20
-5.49865406005435
30
0
41
1
10
64.1917319994396
20
-5.70605532831263
30
0
41
1
10
64.1991422578902
20
-5.77269265813547
30
0
41
1
10
64.2130894972506
20
-5.90085668284434
30
0
41
1
10
64.2196305447845
20
-5.96241897169222
30
0
41
1
10
64.2381757260971
20
-6.13964099476866
30
0
41
1
10
64.2490911706402
20
-6.24785297647725
30
0
41
1
10
64.2694406183978
20
-6.44448177272284
30
0
41
1
10
64.2788718673657
20
-6.53289919283927
30
0
41
1
10
64.2908518477747
20
-6.63074929439449
30
0
41
1
10
64.2932584402314
20
-6.64968432419369
30
0
41
1
10
64.298125283408
20
-6.68627110242088
30
0
41
1
10
64.3005878852781
20
-6.70393853873983
30
0
41
1
10
64.3080900491032
20
-6.75487272525262
30
0
41
1
10
64.3132360920696
20
-6.7860290215072
30
0
41
1
10
64.3295238841074
20
-6.87116716929467
30
0
41
1
10
64.3415058143006
20
-6.91683482555075
30
0
41
1
10
64.3558280126991
20
-6.95135553025017
30
0
0
SPLINE
5
E2
100
AcDbEntity
8
1
62
256
6
ByLayer
370
18
48
1
60
0
100
AcDbSpline
70
4
71
3
72
19
73
15
40
0
40
0
40
0
40
0
40
0.249999999999999
40
0.249999999999999
40
0.374999999999999
40
0.374999999999999
40
0.499999999999999
40
0.499999999999999
40
0.624999999999999
40
0.624999999999999
40
0.75
40
0.875
40
0.875
40
1
40
1
40
1
40
1
41
1
10
3.63273951166033
20
-1.44809933624958
30
0
41
1
10
3.61263885125879
20
-1.43763024065376
30
0
41
1
10
3.59442828096334
20
-1.42475380872736
30
0
41
1
10
3.56987104345021
20
-1.40191430736661
30
0
41
1
10
3.56211720782218
20
-1.39364979516759
30
0
41
1
10
3.54800032897688
20
-1.37637894849897
30
0
41
1
10
3.54158161341081
20
-1.36733210336501
30
0
41
1
10
3.53000681047609
20
-1.34842459524336
30
0
41
1
10
3.52484803833269
20
-1.3385582729243
30
0
41
1
10
3.51585683104884
20
-1.31799899646947
30
0
41
1
10
3.50838826007833
20
-1.29706666204353
30
0
41
1
10
3.50384418992462
20
-1.27541555276139
30
0
41
1
10
3.5007833775847
20
-1.25339916712369
30
0
41
1
10
3.49999999999977
20
-1.24217027695414
30
0
41
1
10
3.49999999999974
20
-1.23095073141499
30
0
0
SPLINE
5
E3
100
AcDbEntity
8
1
62
256
6
ByLayer
370
18
48
1
60
0
100
AcDbSpline
70
4
71
3
72
14
73
10
40
0
40
0
40
0
40
0
40
0.344708727681813
40
0.344708727681813
40
0.689417455363626
40
0.689417455363626
40
0.861771819204532
40
0.861771819204532
40
1
40
1
40
1
40
1
41
1
10
12.3501590691098
20
6.25884828805198
30
0
41
1
10
12.0388194497674
20
6.17118923415589
30
0
41
1
10
11.725817192721
20
6.08084533345428
30
0
41
1
10
11.0955746329511
20
5.89716868293513
30
0
41
1
10
10.7783411273644
20
5.80382657395509
30
0
41
1
10
10.2985875875761
20
5.66356199014933
30
0
41
1
10
10.1380215062679
20
5.6167641975706
30
0
41
1
10
9.84742587901863
20
5.53264431894851
30
0
41
1
10
9.71760763389142
20
5.49527183251121
30
0
41
1
10
9.58743387656403
20
5.45809308862266
30
0
0
SPLINE
5
E4
100
AcDbEntity
8
1
62
256
6
ByLayer
370
18
48
1
60
0
100
AcDbSpline
70
4
71
3
72
14
73
10
40
0
40
0
40
0
40
0
40
0.304105833511524
40
0.304105833511524
40
0.47807937513364
40
0.47807937513364
40
0.652052916755757
40
0.652052916755757
40
1
40
1
40
1
40
1
41
1
10
2.56135864885297
20
7.36140810521132
30
0
41
1
10
2.64013549100602
20
7.36139331037367
30
0
41
1
10
2.72491933686078
20
7.35768837706991
30
0
41
1
10
2.86637375805009
20
7.34690443662214
30
0
41
1
10
2.91955662685845
20
7.34194327266096
30
0
41
1
10
3.02910432763682
20
7.33010419445958
30
0
41
1
10
3.08556883177172
20
7.32321035566204
30
0
41
1
10
3.25792703617083
20
7.30007415083693
30
0
41
1
10
3.37716105435354
20
7.28135839102899
30
0
41
1
10
3.49999999999997
20
7.25996579481722
30
0
0
SPLINE
5
E5
100
AcDbEntity
8
1
62
256
6
ByLayer
370
18
48
1
60
0
100
AcDbSpline
70
4
71
3
72
42
73
38
40
0
40
0
40
0
40
0
40
0.062499999999999
40
0.062499999999999
40
0.124999999999998
40
0.124999999999998
40
0.187499999999997
40
0.187499999999997
40
0.218749999999997
40
0.218749999999997
40
0.234374999999996
40
0.234374999999996
40
0.249999999999996
40
0.249999999999996
40
0.312499999999997
40
0.312499999999997
40
0.374999999999998
40
0.374999999999998
40
0.437499999999998
40
0.437499999999998
40
0.468749999999999
40
0.468749999999999
40
0.484374999999999
40
0.484374999999999
40
0.499999999999999
40
0.499999999999999
40
0.624999999999999
40
0.624999999999999
40
0.749999999999999
40
0.749999999999999
40
0.812499999999999
40
0.812499999999999
40
0.874999999999999
40
0.874999999999999
40
0.937499999999999
40
0.937499999999999
40
1
40
1
40
1
40
1
41
1
10
31.6
20
4.96135380613453
30
0
41
1
10
31.1970686162529
20
5.1200403514558
30
0
41
1
10
30.7947153585824
20
5.27214831569739
30
0
41
1
10
29.9905595779393
20
5.56249311580211
30
0
41
1
10
29.5887857095851
20
5.70076249556786
30
0
41
1
10
28.7850455693191
20
5.96253765111871
30
0
41
1
10
28.3830823484268
20
6.08605108273534
30
0
41
1
10
27.7795416219893
20
6.25973013390708
30
0
41
1
10
27.5782645770907
20
6.31569365462778
30
0
41
1
10
27.2761405699141
20
6.39667069555935
30
0
41
1
10
27.1753976596873
20
6.423168168882
30
0
41
1
10
26.9738294718583
20
6.47515932456946
30
0
41
1
10
26.8730017223009
20
6.50065305132901
30
0
41
1
10
26.3691955275299
20
6.62543980296314
30
0
41
1
10
25.9667544091737
20
6.71680293061223
30
0
41
1
10
25.1624392567975
20
6.88221326410869
30
0
41
1
10
24.7605992046179
20
6.95628264759551
30
0
41
1
10
23.9568129225945
20
7.08668838241994
30
0
41
1
10
23.5548532136353
20
7.14301949499782
30
0
41
1
10
22.9513313365774
20
7.21393719991951
30
0
41
1
10
22.7500631701023
20
7.23531454343546
30
0
41
1
10
22.4479630811183
20
7.26395364575995
30
0
41
1
10
22.3472299033491
20
7.27292877300357
30
0
41
1
10
22.1456858004306
20
7.28973018859034
30
0
41
1
10
22.04483376099
20
7.2975592124408
30
0
41
1
10
21.1379910236335
20
7.36273662923856
30
0
41
1
10
20.3369808165425
20
7.38318248340948
30
0
41
1
10
18.7401174791335
20
7.35078386218521
30
0
41
1
10
17.9440950758004
20
7.29795101127684
30
0
41
1
10
16.7500578440093
20
7.16513307967932
30
0
41
1
10
16.3520288505644
20
7.11193508356507
30
0
41
1
10
15.5552454784677
20
6.98798625985899
30
0
41
1
10
15.1564928424977
20
6.91723913407196
30
0
41
1
10
14.3577388768499
20
6.75839698110517
30
0
41
1
10
13.9577047734819
20
6.67032053365421
30
0
41
1
10
13.1555998320051
20
6.47722667125225
30
0
41
1
10
12.7535295751683
20
6.37221384831398
30
0
41
1
10
12.3501590306474
20
6.25884842194048
30
0
0
SPLINE
5
E6
100
AcDbEntity
8
1
62
256
6
ByLayer
370
18
48
1
60
0
100
AcDbSpline
70
4
71
3
72
64
73
60
40
0
40
0
40
0
40
0
40
0.0312500000000027
40
0.0312500000000027
40
0.0468750000000035
40
0.0468750000000035
40
0.0625000000000044
40
0.0625000000000044
40
0.125000000000006
40
0.125000000000006
40
0.156250000000006
40
0.156250000000006
40
0.171875000000007
40
0.171875000000007
40
0.187500000000007
40
0.187500000000007
40
0.25000000000001
40
0.25000000000001
40
0.26562500000001
40
0.26562500000001
40
0.281250000000011
40
0.281250000000011
40
0.312500000000012
40
0.312500000000012
40
0.375000000000013
40
0.375000000000013
40
0.390625000000013
40
0.390625000000013
40
0.406250000000014
40
0.437500000000013
40
0.437500000000013
40
0.500000000000012
40
0.500000000000012
40
0.562500000000012
40
0.562500000000012
40
0.593750000000011
40
0.593750000000011
40
0.60937500000001
40
0.60937500000001
40
0.625000000000009
40
0.625000000000009
40
0.687500000000007
40
0.687500000000007
40
0.718750000000005
40
0.718750000000005
40
0.734375000000005
40
0.734375000000005
40
0.750000000000005
40
0.812500000000002
40
0.812500000000002
40
0.828125000000002
40
0.828125000000002
40
0.843750000000002
40
0.843750000000002
40
0.875000000000001
40
0.875000000000001
40
0.937500000000001
40
0.937500000000001
40
1
40
1
40
1
40
1
41
1
10
31.6
20
5.21192596395966
30
0
41
1
10
31.941241529322
20
5.08357806084854
30
0
41
1
10
32.2823916413023
20
4.95056485106204
30
0
41
1
10
32.7942476430653
20
4.74442130039418
30
0
41
1
10
32.9649108453111
20
4.67459370013927
30
0
41
1
10
33.306231694784
20
4.53283720455528
30
0
41
1
10
33.4767988301423
20
4.46094622202349
30
0
41
1
10
34.3292914675106
20
4.09662331571218
30
0
41
1
10
35.0101767219543
20
3.78956517736367
30
0
41
1
10
36.0323581337139
20
3.30960029256127
30
0
41
1
10
36.3732308912936
20
3.14638886282123
30
0
41
1
10
36.8850821210634
20
2.89726605503921
30
0
41
1
10
37.0557185097351
20
2.81353985793245
30
0
41
1
10
37.396751440633
20
2.64496732885442
30
0
41
1
10
37.5671967602626
20
2.56009730906518
30
0
41
1
10
38.419196797927
20
2.13306204886513
30
0
41
1
10
39.1001004289668
20
1.78289311660157
30
0
41
1
10
39.9522791070265
20
1.33798808223312
30
0
41
1
10
40.1227672043188
20
1.24864715193706
30
0
41
1
10
40.4638986218266
20
1.06933702942402
30
0
41
1
10
40.6345785765994
20
0.979348347608976
30
0
41
1
10
41.1462106294007
20
0.708963093156711
30
0
41
1
10
41.4869700026607
20
0.528033867139413
30
0
41
1
10
42.5089033332874
20
-0.0155634107359219
30
0
41
1
10
43.1897547190285
20
-0.378999276486752
30
0
41
1
10
44.042361484984
20
-0.830655056960694
30
0
41
1
10
44.2130169450741
20
-0.920891229623749
30
0
41
1
10
44.554201289268
20
-1.10085175142996
30
0
41
1
10
45.0657144817567
20
-1.36998570691856
30
0
41
1
10
45.5766553926461
20
-1.63630041698761
30
0
41
1
10
46.598385586463
20
-2.1640520448934
30
0
41
1
10
47.2793316789903
20
-2.50938888587589
30
0
41
1
10
48.6442644650598
20
-3.1807972304872
30
0
41
1
10
49.3253266894142
20
-3.50533450696432
30
0
41
1
10
50.3470782878103
20
-3.97169308397
30
0
41
1
10
50.6876876078439
20
-4.12373975059822
30
0
41
1
10
51.1989399422015
20
-4.34621044036371
30
0
41
1
10
51.3694139574302
20
-4.4194338499924
30
0
41
1
10
51.7105270600384
20
-4.5639294225507
30
0
41
1
10
51.8811425969398
20
-4.63519066211353
30
0
41
1
10
52.7335349412489
20
-4.9859110089198
30
0
41
1
10
53.4142211170186
20
-5.24900963514895
30
0
41
1
10
54.4359338116229
20
-5.61409043881764
30
0
41
1
10
54.7766133440549
20
-5.73086442074879
30
0
41
1
10
55.2881027605636
20
-5.89824616006078
30
0
41
1
10
55.4587320855225
20
-5.95275958376089
30
0
41
1
10
55.7997574509095
20
-6.05898822182707
30
0
41
1
10
56.6519194927991
20
-6.31762601920224
30
0
41
1
10
57.5027410154741
20
-6.54097654873038
30
0
41
1
10
58.3544565167601
20
-6.73430766768942
30
0
41
1
10
58.5248450144393
20
-6.7714723576116
30
0
41
1
10
58.8657643656905
20
-6.84275259033038
30
0
41
1
10
59.0363550396004
20
-6.87687940774978
30
0
41
1
10
59.5479948946981
20
-6.97453717110236
30
0
41
1
10
59.8885608629837
20
-7.03328127403111
30
0
41
1
10
60.9092434323767
20
-7.19022429475064
30
0
41
1
10
61.5883289051003
20
-7.26913361125463
30
0
41
1
10
62.9470374146174
20
-7.37430035981816
30
0
41
1
10
63.6266694054354
20
-7.40054541760213
30
0
41
1
10
64.3083338867965
20
-7.39997207362273
30
0
0
SPLINE
5
E7
100
AcDbEntity
8
1
62
256
6
ByLayer
370
18
48
1
60
0
100
AcDbSpline
70
4
71
3
72
13
73
9
40
0
40
0
40
0
40
0
40
0.250000000000003
40
0.250000000000003
40
0.375000000000003
40
0.375000000000003
40
0.500000000000003
40
1
40
1
40
1
40
1
41
1
10
64.3083338868035
20
-7.39997207362276
30
0
41
1
10
64.3007785695111
20
-7.40021240865798
30
0
41
1
10
64.2937922679158
20
-7.39884290826996
30
0
41
1
10
64.2840742926552
20
-7.39432631411384
30
0
41
1
10
64.2809607554884
20
-7.39240833443682
30
0
41
1
10
64.2749959008752
20
-7.38776531628696
30
0
41
1
10
64.2607236389362
20
-7.37413294972234
30
0
41
1
10
64.2493890096523
20
-7.35046864056625
30
0
41
1
10
64.2416084365999
20
-7.32523660212343
30
0
0
SPLINE
5
E8
100
AcDbEntity
8
1
62
256
6
ByLayer
370
18
48
1
60
0
100
AcDbSpline
70
4
71
3
72
18
73
14
40
0
40
0
40
0
40
0
40
0.0664021254884778
40
0.0664021254884778
40
0.377601416992319
40
0.377601416992319
40
0.533201062744239
40
0.533201062744239
40
0.68880070849616
40
0.68880070849616
40
0.84440035424808
40
0.84440035424808
40
1
40
1
40
1
40
1
41
1
10
20.0500214593485
20
-7.37233931156331
30
0
41
1
10
19.879397140622
20
-7.37222781364494
30
0
41
1
10
19.7089144452752
20
-7.37043969948448
30
0
41
1
10
18.7401174791335
20
-7.35078386218521
30
0
41
1
10
17.9440950758003
20
-7.29795101127684
30
0
41
1
10
16.7500578440092
20
-7.16513307967932
30
0
41
1
10
16.3520288505644
20
-7.11193508356507
30
0
41
1
10
15.5552454784677
20
-6.98798625985899
30
0
41
1
10
15.1564928424977
20
-6.91723913407196
30
0
41
1
10
14.3577388768499
20
-6.75839698110514
30
0
41
1
10
13.9577047734819
20
-6.67032053365418
30
0
41
1
10
13.1555998320051
20
-6.47722667125225
30
0
41
1
10
12.7535295751682
20
-6.37221384831398
30
0
41
1
10
12.3501590306474
20
-6.25884842194048
30
0
0
SPLINE
5
E9
100
AcDbEntity
8
1
62
256
6
ByLayer
370
18
48
1
60
0
100
AcDbSpline
70
4
71
3
72
25
73
21
40
0
40
0
40
0
40
0
40
0.0473014870875023
40
0.0473014870875023
40
0.142571338378753
40
0.142571338378753
40
0.19020626402438
40
0.19020626402438
40
0.237841189670006
40
0.428380892252507
40
0.428380892252507
40
0.476015817898134
40
0.476015817898134
40
0.52365074354376
40
0.52365074354376
40
0.618920594835009
40
0.618920594835009
40
0.809460297417504
40
0.809460297417504
40
1
40
1
40
1
40
1
41
1
10
53.5881409807114
20
5.30752403927031
30
0
41
1
10
53.7572040481958
20
5.37034029929197
30
0
41
1
10
53.9262694412967
20
5.43197595702389
30
0
41
1
10
54.435933811623
20
5.61409043881767
30
0
41
1
10
54.7766133440549
20
5.73086442074879
30
0
41
1
10
55.2881027605637
20
5.89824616006078
30
0
41
1
10
55.4587320855225
20
5.95275958376089
30
0
41
1
10
55.7997574509097
20
6.05898822182707
30
0
41
1
10
56.6519194927992
20
6.31762601920224
30
0
41
1
10
57.5027410154742
20
6.54097654873038
30
0
41
1
10
58.3544565167602
20
6.73430766768945
30
0
41
1
10
58.5248450144394
20
6.77147235761163
30
0
41
1
10
58.8657643656905
20
6.84275259033038
30
0
41
1
10
59.0363550396005
20
6.87687940774978
30
0
41
1
10
59.5479948946982
20
6.97453717110236
30
0
41
1
10
59.8885608629837
20
7.03328127403114
30
0
41
1
10
60.9092434323767
20
7.19022429475064
30
0
41
1
10
61.5883289051004
20
7.26913361125463
30
0
41
1
10
62.9470374146175
20
7.37430035981816
30
0
41
1
10
63.6266694054354
20
7.40054541760213
30
0
41
1
10
64.3083338867966
20
7.39997207362273
30
0
0
SPLINE
5
EA
100
AcDbEntity
8
1
62
256
6
ByLayer
370
13
48
1
60
0
100
AcDbSpline
70
4
71
3
72
28
73
24
40
0
40
0
40
0
40
0
40
0.156604806161238
40
0.156604806161238
40
0.234907209241857
40
0.234907209241857
40
0.313209612322475
40
0.313209612322475
40
0.469814418483712
40
0.469814418483712
40
0.548116821564331
40
0.548116821564331
40
0.62641922464495
40
0.62641922464495
40
0.783024030806188
40
0.783024030806188
40
0.822175232346498
40
0.822175232346498
40
0.861326433886808
40
0.861326433886808
40
0.939628836967427
40
0.939628836967427
40
1
40
1
40
1
40
1
41
1
10
3.75022470444074
20
-1.32475138955317
30
0
41
1
10
4.38565902008926
20
-1.63947636423822
30
0
41
1
10
5.01789749811698
20
-1.94851009782445
30
0
41
1
10
5.96323702771949
20
-2.40039486621953
30
0
41
1
10
6.27785818500297
20
-2.54906733013209
30
0
41
1
10
6.90648886739754
20
-2.8418725722895
30
0
41
1
10
7.22048355771574
20
-2.98600834612159
30
0
41
1
10
8.16183560957799
20
-3.41103549285086
30
0
41
1
10
8.78859917170641
20
-3.6844870381685
30
0
41
1
10
9.7292026662121
20
-4.07690157555456
30
0
41
1
10
10.0428160217726
20
-4.20474852567597
30
0
41
1
10
10.6705786221267
20
-4.453923154395
30
0
41
1
10
10.9847338061718
20
-4.5752331708855
30
0
41
1
10
11.9283086011384
20
-4.92873275541839
30
0
41
1
10
12.5588272276308
20
-5.15053771250834
30
0
41
1
10
13.3502938751506
20
-5.40807236067022
30
0
41
1
10
13.5087539559798
20
-5.45859213139465
30
0
41
1
10
13.8260520525278
20
-5.55759118662414
30
0
41
1
10
13.9849341432203
20
-5.60608345365884
30
0
41
1
10
14.4619368476246
20
-5.74831443931399
30
0
41
1
10
14.7792650250859
20
-5.8384701391256
30
0
41
1
10
15.3402502075627
20
-5.98966611525771
30
0
41
1
10
15.5841421768466
20
-6.05264731600826
30
0
41
1
10
15.8277919550519
20
-6.1127313409458
30
0
0
SPLINE
5
EB
100
AcDbEntity
8
1
62
256
6
ByLayer
370
18
48
1
60
0
100
AcDbSpline
70
4
71
3
72
20
73
16
40
0
40
0
40
0
40
0
40
0.0306108502839567
40
0.0306108502839567
40
0.16428281149399
40
0.16428281149399
40
0.431626733914057
40
0.431626733914057
40
0.56529869512409
40
0.56529869512409
40
0.698970656334124
40
0.698970656334124
40
0.966314578754186
40
0.966314578754186
40
1
40
1
40
1
40
1
41
1
10
15.8277920353552
20
-6.11273136074854
30
0
41
1
10
15.9001600472376
20
-6.13057730921412
30
0
41
1
10
15.9725066933098
20
-6.14816767224855
30
0
41
1
10
16.360675736523
20
-6.24119241900189
30
0
41
1
10
16.6761596339951
20
-6.31198992589265
30
0
41
1
10
17.6218674747783
20
-6.50937314269498
30
0
41
1
10
18.2513369548571
20
-6.62097349983478
30
0
41
1
10
19.1957789271237
20
-6.75737337116311
30
0
41
1
10
19.5106376237997
20
-6.79767081890696
30
0
41
1
10
20.1408113530735
20
-6.86772374139269
30
0
41
1
10
20.4561260984355
20
-6.89750713087241
30
0
41
1
10
21.4030714097966
20
-6.97070616096124
30
0
41
1
10
22.0357157779301
20
-6.99796117926738
30
0
41
1
10
22.7509884221229
20
-7.00389556085375
30
0
41
1
10
22.831095810016
20
-7.00421006794812
30
0
41
1
10
22.9112082713034
20
-7.00417493617721
30
0
0
SPLINE
5
EC
100
AcDbEntity
8
1
62
256
6
ByLayer
370
13
48
1
60
0
100
AcDbSpline
70
4
71
3
72
34
73
30
40
0
40
0
40
0
40
0
40
0.0274462146950802
40
0.0274462146950802
40
0.0989207345590573
40
0.0989207345590573
40
0.134657994491045
40
0.134657994491045
40
0.170395254423034
40
0.170395254423034
40
0.313344294150984
40
0.313344294150984
40
0.384818814014961
40
0.384818814014961
40
0.456293333878937
40
0.456293333878937
40
0.599242373606893
40
0.599242373606893
40
0.670716893470871
40
0.670716893470871
40
0.742191413334849
40
0.742191413334849
40
0.813665933198827
40
0.813665933198827
40
0.849403193130816
40
0.849403193130816
40
0.885140453062806
40
0.885140453062806
40
1
40
1
40
1
40
1
41
1
10
24.9034978956614
20
-7.01236193890915
30
0
41
1
10
24.7822368755318
20
-7.02229492658185
30
0
41
1
10
24.6609180355279
20
-7.03142549533476
30
0
41
1
10
24.2234194535832
20
-7.06141879779193
30
0
41
1
10
23.9068426255735
20
-7.07760203178907
30
0
41
1
10
23.4310833372506
20
-7.09356445198011
30
0
41
1
10
23.272348399255
20
-7.09749994440557
30
0
41
1
10
22.9545425958156
20
-7.10258397834457
30
0
41
1
10
22.7954003163905
20
-7.10373054637074
30
0
41
1
10
22.0010301734369
20
-7.10246892103712
30
0
41
1
10
21.3681899209614
20
-7.07912567686415
30
0
41
1
10
20.421008926954
20
-7.01128351158025
30
0
41
1
10
20.1056318111516
20
-6.98319658641759
30
0
41
1
10
19.4753489887207
20
-6.91633366035379
30
0
41
1
10
19.1604368105958
20
-6.87753442784879
30
0
41
1
10
18.2158347665495
20
-6.74533796201419
30
0
41
1
10
17.5862591261521
20
-6.63615367572319
30
0
41
1
10
16.6403845904447
20
-6.44181560739437
30
0
41
1
10
16.3248470044331
20
-6.37193219889727
30
0
41
1
10
15.6930425472696
20
-6.22215757021513
30
0
41
1
10
15.3767679282324
20
-6.14226271369483
30
0
41
1
10
14.7430800765909
20
-5.97269821909981
30
0
41
1
10
14.4256593628632
20
-5.88302490918124
30
0
41
1
10
13.9484940276916
20
-5.74134045869792
30
0
41
1
10
13.7895306820167
20
-5.69299360451336
30
0
41
1
10
13.4720930230046
20
-5.59423745382188
30
0
41
1
10
13.3135626436223
20
-5.54381154716955
30
0
41
1
10
12.6462131890298
20
-5.32704376501704
30
0
41
1
10
12.1389299489558
20
-5.15125302605426
30
0
41
1
10
11.6327271941752
20
-4.9659810076831
30
0
0
SPLINE
5
ED
100
AcDbEntity
8
1
62
256
6
ByLayer
370
18
48
1
60
0
100
AcDbSpline
70
4
71
3
72
22
73
18
40
0
40
0
40
0
40
0
40
0.0468247452734949
40
0.0468247452734949
40
0.165971652114308
40
0.165971652114308
40
0.285118558955122
40
0.285118558955122
40
0.52341237263675
40
0.52341237263675
40
0.642559279477562
40
0.642559279477562
40
0.761706186318374
40
0.761706186318374
40
0.880853093159188
40
0.880853093159188
40
1
40
1
40
1
40
1
41
1
10
11.6327271947776
20
-4.96598100790365
30
0
41
1
10
11.5089327080908
20
-4.92067178310367
30
0
41
1
10
11.3852028422231
20
-4.87479550936311
30
0
41
1
10
10.9468356475109
20
-4.71022670898637
30
0
41
1
10
10.6325055356316
20
-4.58849549981963
30
0
41
1
10
10.0043631203556
20
-4.33825002333495
30
0
41
1
10
9.69054682577783
20
-4.2097511614999
30
0
41
1
10
8.74927341063196
20
-3.81505509273865
30
0
41
1
10
8.12198231330899
20
-3.53965052070967
30
0
41
1
10
7.17971023804833
20
-3.11098164011531
30
0
41
1
10
6.86538690158565
20
-2.96551300036308
30
0
41
1
10
6.23603371999019
20
-2.66982218584903
30
0
41
1
10
5.92102416311721
20
-2.51958618351369
30
0
41
1
10
5.2899493738995
20
-2.21498569556161
30
0
41
1
10
4.97387476398728
20
-2.06062983253887
30
0
41
1
10
4.34034560321783
20
-1.74833058819115
30
0
41
1
10
4.02286551269938
20
-1.5903722230241
30
0
41
1
10
3.70460198063447
20
-1.43090088076948
30
0
0
SPLINE
5
EE
100
AcDbEntity
8
1
62
256
6
ByLayer
370
13
48
1
60
0
100
AcDbSpline
70
4
71
3
72
10
73
6
40
0
40
0
40
0
40
0
40
0.5
40
0.5
40
1
40
1
40
1
40
1
41
1
10
3.70460198063447
20
-1.43090088076951
30
0
41
1
10
3.69272348662364
20
-1.42494895982014
30
0
41
1
10
3.68105020155664
20
-1.41937925001258
30
0
41
1
10
3.65811201925837
20
-1.40896905402553
30
0
41
1
10
3.64676628362832
20
-1.40409786581967
30
0
41
1
10
3.63595602523713
20
-1.39975396304149
30
0
0
SPLINE
5
EF
100
AcDbEntity
8
1
62
256
6
ByLayer
370
13
48
1
60
0
100
AcDbSpline
70
4
71
3
72
10
73
6
40
0
40
0
40
0
40
0
40
0.0958634706326054
40
0.0958634706326054
40
1
40
1
40
1
40
1
41
1
10
3.63273951166033
20
-1.44809933624955
30
0
41
1
10
3.63284113071904
20
-1.44655573735088
30
0
41
1
10
3.63294286116675
20
-1.44501202030682
30
0
41
1
10
3.63400522483289
20
-1.42890749460375
30
0
41
1
10
3.63497565934046
20
-1.41433624589419
30
0
41
1
10
3.63595602523711
20
-1.39975396304149
30
0
0
SPLINE
5
F0
100
AcDbEntity
8
1
62
256
6
ByLayer
370
18
48
1
60
0
100
AcDbSpline
70
4
71
3
72
53
73
49
40
0
40
0
40
0
40
0
40
0.0254994128728624
40
0.0254994128728624
40
0.0661036040031599
40
0.0661036040031599
40
0.106707795133457
40
0.106707795133457
40
0.127009890698606
40
0.127009890698606
40
0.147311986263755
40
0.147311986263755
40
0.187916177394052
40
0.187916177394052
40
0.269124559654646
40
0.269124559654646
40
0.309728750784943
40
0.309728750784943
40
0.330030846350092
40
0.330030846350092
40
0.35033294191524
40
0.35033294191524
40
0.431541324175834
40
0.431541324175834
40
0.472145515306131
40
0.472145515306131
40
0.492447610871279
40
0.492447610871279
40
0.512749706436428
40
0.512749706436428
40
0.553353897566726
40
0.553353897566726
40
0.593958088697024
40
0.593958088697024
40
0.675166470957621
40
0.675166470957621
40
0.695468566522769
40
0.695468566522769
40
0.715770662087918
40
0.756374853218216
40
0.756374853218216
40
0.83758323547881
40
0.83758323547881
40
0.878187426609108
40
0.878187426609108
40
0.918791617739405
40
0.918791617739405
40
1
40
1
40
1
40
1
41
1
10
26.9471852637455
20
-7.02725209244466
30
0
41
1
10
26.7488886622331
20
-7.05921335522106
30
0
41
1
10
26.5506549542473
20
-7.08900457580535
30
0
41
1
10
26.0368262480915
20
-7.16056626680671
30
0
41
1
10
25.7212929959852
20
-7.19899153124129
30
0
41
1
10
25.0901072683092
20
-7.26463183732346
30
0
41
1
10
24.7744276904808
20
-7.29183508016754
30
0
41
1
10
24.300496865897
20
-7.32410461373573
30
0
41
1
10
24.1424511991844
20
-7.33343890231021
30
0
41
1
10
23.8261869345934
20
-7.34924906887647
30
0
41
1
10
23.6679415624501
20
-7.35572465192789
30
0
41
1
10
23.193619724686
20
-7.37082497780636
30
0
41
1
10
22.877726605833
20
-7.37513672517869
30
0
41
1
10
21.9305181571093
20
-7.3708609270557
30
0
41
1
10
21.2996697652354
20
-7.34505779002455
30
0
41
1
10
20.3523612168195
20
-7.27222445632313
30
0
41
1
10
20.0364274281697
20
-7.24225841893352
30
0
41
1
10
19.5620664945762
20
-7.18880201780101
30
0
41
1
10
19.4038199874443
20
-7.16955880294293
30
0
41
1
10
19.0875793017879
20
-7.1283114397215
30
0
41
1
10
18.9295403895889
20
-7.10630310654111
30
0
41
1
10
18.1396292710176
20
-6.98942057316393
30
0
41
1
10
17.508596317798
20
-6.87403493216522
30
0
41
1
10
16.5615886639978
20
-6.66945352038468
30
0
41
1
10
16.2458525306784
20
-6.59600137261433
30
0
41
1
10
15.7719231583866
20
-6.47808873701803
30
0
41
1
10
15.6138907625815
20
-6.43749682048516
30
0
41
1
10
15.2976635585532
20
-6.35377624998216
30
0
41
1
10
15.1394096564005
20
-6.31063059026221
30
0
41
1
10
14.6649500287911
20
-6.17762696529786
30
0
41
1
10
14.3489571101162
20
-6.08418428056964
30
0
41
1
10
13.7173396042459
20
-5.88807096167955
30
0
41
1
10
13.4017148680767
20
-5.7853985349517
30
0
41
1
10
12.4548308863253
20
-5.46420742809181
30
0
41
1
10
11.8235597229036
20
-5.23252068708234
30
0
41
1
10
11.0328769571299
20
-4.92292175223113
30
0
41
1
10
10.8745784782499
20
-4.8599689020935
30
0
41
1
10
10.558266056044
20
-4.7322870938944
30
0
41
1
10
10.0842626891735
20
-4.53811905420218
30
0
41
1
10
9.61147507171873
20
-4.33630978670737
30
0
41
1
10
8.66689915754378
20
-3.92353251369249
30
0
41
1
10
8.03853522281997
20
-3.63610783619686
30
0
41
1
10
7.09621636657454
20
-3.18970041027106
30
0
41
1
10
6.78213727587743
20
-3.03837115738355
30
0
41
1
10
6.15377117529897
20
-2.73110718203961
30
0
41
1
10
5.83949224010914
20
-2.57515706842406
30
0
41
1
10
4.89577806292399
20
-2.10137260040023
30
0
41
1
10
4.26545041579067
20
-1.77763631700228
30
0
41
1
10
3.63273951166033
20
-1.44809933624958
30
0
0
SPLINE
5
F1
100
AcDbEntity
8
1
62
256
6
ByLayer
370
13
48
1
60
0
100
AcDbSpline
70
4
71
3
72
38
73
34
40
0
40
0
40
0
40
0
40
0.073105654473073
40
0.073105654473073
40
0.126467447702133
40
0.126467447702133
40
0.179829240931192
40
0.179829240931192
40
0.233191034160251
40
0.259871930774781
40
0.259871930774781
40
0.273212379082045
40
0.273212379082045
40
0.286552827389309
40
0.286552827389309
40
0.339914620618367
40
0.339914620618367
40
0.393276413847425
40
0.393276413847425
40
0.50000000030554
40
0.50000000030554
40
0.71344717322177
40
0.71344717322177
40
0.820170759679886
40
0.820170759679886
40
0.873532552908943
40
0.873532552908943
40
0.886873001216207
40
0.886873001216207
40
0.900213449523471
40
0.926894346137997
40
0.926894346137997
40
1
40
1
40
1
40
1
41
1
10
40.3634291351359
20
2.13837496001079
30
0
41
1
10
40.7981627619507
20
1.92890329489265
30
0
41
1
10
41.2322811129612
20
1.71655052915091
30
0
41
1
10
41.9829296023799
20
1.34562108892581
30
0
41
1
10
42.2995536166457
20
1.18800584366107
30
0
41
1
10
42.9328249994922
20
0.871042386968924
30
0
41
1
10
43.2494758015958
20
0.711698880455401
30
0
41
1
10
43.8831387323343
20
0.391918312665012
30
0
41
1
10
44.3586561699056
20
0.151265564691386
30
0
41
1
10
44.8349306953283
20
-0.0899084694890462
30
0
41
1
10
45.0732240743055
20
-0.210523109263022
30
0
41
1
10
45.1527075321942
20
-0.250745902544764
30
0
41
1
10
45.3115861391623
20
-0.331117239284055
30
0
41
1
10
45.3909735672074
20
-0.371261849906006
30
0
41
1
10
45.7876640102416
20
-0.571755180046154
30
0
41
1
10
46.1042359492658
20
-0.73139501377932
30
0
41
1
10
46.7360370217222
20
-1.04877591181631
30
0
41
1
10
47.0512708549777
20
-1.20650300499565
30
0
41
1
10
47.9954859583991
20
-1.67575174211726
30
0
41
1
10
48.6230037435163
20
-1.98336513822409
30
0
41
1
10
50.5031522794943
20
-2.88394245618116
30
0
41
1
10
51.7530767827082
20
-3.45526596428428
30
0
41
1
10
53.637018012951
20
-4.24210411818251
30
0
41
1
10
54.2664556873228
20
-4.49280403546328
30
0
41
1
10
55.2145853559632
20
-4.84838011191914
30
0
41
1
10
55.5312940483012
20
-4.96348530201794
30
0
41
1
10
55.9281861725563
20
-5.10277664475578
30
0
41
1
10
56.007647926888
20
-5.13041628192545
30
0
41
1
10
56.1664952225968
20
-5.18516351125226
30
0
41
1
10
56.4046259705437
20
-5.2664782987558
30
0
41
1
10
56.6423587428775
20
-5.34534731187622
30
0
41
1
10
57.2345191302117
20
-5.53784430952487
30
0
41
1
10
57.6671703030209
20
-5.67054482221772
30
0
41
1
10
58.0990235190974
20
-5.79454886238034
30
0
0
SPLINE
5
F2
100
AcDbEntity
8
1
62
256
6
ByLayer
370
18
48
1
60
0
100
AcDbSpline
70
4
71
3
72
20
73
16
40
0
40
0
40
0
40
0
40
0.0950226317477272
40
0.0950226317477272
40
0.245852193123105
40
0.245852193123105
40
0.396681754498485
40
0.396681754498485
40
0.698340877249248
40
0.849170438624626
40
0.924585219312314
40
0.962292609656156
40
0.981146304828078
40
0.981146304828078
40
1
40
1
40
1
40
1
41
1
10
58.0990235191461
20
-5.79454886239429
30
0
41
1
10
58.2976129789392
20
-5.85157262517106
30
0
41
1
10
58.4960336981996
20
-5.90675738171174
30
0
41
1
10
59.0090668369952
20
-6.04468588442924
30
0
41
1
10
59.3235230552687
20
-6.12463191329039
30
0
41
1
10
59.9520156611329
20
-6.27494331392171
30
0
41
1
10
60.2660527328826
20
-6.34530409411877
30
0
41
1
10
61.2080857993701
20
-6.54159020063233
30
0
41
1
10
62.1499469193703
20
-6.70830528236999
30
0
41
1
10
63.2514289268655
20
-6.84841811189395
30
0
41
1
10
63.803199890191
20
-6.90456984044036
30
0
41
1
10
64.0793889683272
20
-6.92912809074394
30
0
41
1
10
64.197825709989
20
-6.93889476301976
30
0
41
1
10
64.2767996403976
20
-6.94523685818467
30
0
41
1
10
64.3163035004814
20
-6.94829415780816
30
0
41
1
10
64.3558280127006
20
-6.95135553025017
30
0
0
SPLINE
5
F3
100
AcDbEntity
8
1
62
256
6
ByLayer
370
18
48
1
60
0
100
AcDbSpline
70
4
71
3
72
22
73
18
40
0
40
0
40
0
40
0
40
0.125
40
0.125
40
0.25
40
0.25
40
0.375
40
0.375
40
0.5
40
0.5
40
0.625
40
0.625
40
0.75
40
0.75
40
0.875
40
0.875
40
1
40
1
40
1
40
1
41
1
10
64.3558280126991
20
-6.95135553025005
30
0
41
1
10
64.3562525977808
20
-6.95237890500161
30
0
41
1
10
64.3565066330259
20
-6.95390259440373
30
0
41
1
10
64.3566497532998
20
-6.958011563128
30
0
41
1
10
64.3565371529583
20
-6.96061712372003
30
0
41
1
10
64.355890452155
20
-6.9669782775232
30
0
41
1
10
64.3553645369349
20
-6.97067223899856
30
0
41
1
10
64.3538678424253
20
-6.97918515346632
30
0
41
1
10
64.3528819347519
20
-6.98406080055375
30
0
41
1
10
64.3505203042796
20
-6.99454485927683
30
0
41
1
10
64.3491392153573
20
-7.0001968009737
30
0
41
1
10
64.3459415373598
20
-7.01239871825689
30
0
41
1
10
64.3441874273136
20
-7.01870778646747
30
0
41
1
10
64.3404216929599
20
-7.0316014586578
30
0
41
1
10
64.3383881632859
20
-7.03825169392886
30
0
41
1
10
64.3342673892109
20
-7.05120307987599
30
0
41
1
10
64.3321461374395
20
-7.05761808412527
30
0
41
1
10
64.3300072312597
20
-7.06386497984084
30
0
0
SPLINE
5
F4
100
AcDbEntity
8
1
62
256
6
ByLayer
370
18
48
1
60
0
100
AcDbSpline
70
4
71
3
72
8
73
4
40
0
40
0
40
0
40
0
40
1
40
1
40
1
40
1
41
1
10
64.3300072312597
20
-7.06386497984096
30
0
41
1
10
64.3001751465947
20
-7.15099265455586
30
0
41
1
10
64.2707037674385
20
-7.23811180212761
30
0
41
1
10
64.2416084365999
20
-7.32523660212343
30
0
0
SPLINE
5
F5
100
AcDbEntity
8
1
62
256
6
ByLayer
370
13
48
1
60
0
100
AcDbSpline
70
4
71
3
72
25
73
21
40
0
40
0
40
0
40
0
40
0.0141338758162359
40
0.0141338758162359
40
0.0282677516324719
40
0.0565355032649429
40
0.113071006529889
40
0.226142013059781
40
0.226142013059781
40
0.452284026119567
40
0.452284026119567
40
0.56535503264946
40
0.56535503264946
40
0.678426039179352
40
0.678426039179352
40
0.904568052239133
40
0.961103555504076
40
0.989371307136545
40
0.989371307136545
40
1
40
1
40
1
40
1
41
1
10
64.3300072312597
20
-7.06386497984099
30
0
41
1
10
64.290510451363
20
-7.06100522472431
30
0
41
1
10
64.2510106808483
20
-7.05817064226838
30
0
41
1
10
64.172030331959
20
-7.05230092919189
30
0
41
1
10
64.0535843649109
20
-7.04323804430976
30
0
41
1
10
63.7773764268506
20
-7.02028864624768
30
0
41
1
10
63.2255772118811
20
-6.96722273073942
30
0
41
1
10
62.7535017048957
20
-6.90959774046183
30
0
41
1
10
61.8101109605393
20
-6.77852187318302
30
0
41
1
10
61.1821987821351
20
-6.67003709181702
30
0
41
1
10
60.2401566602149
20
-6.47714878112251
30
0
41
1
10
59.9261169037474
20
-6.40782121087466
30
0
41
1
10
59.2976151950155
20
-6.2593771980155
30
0
41
1
10
58.9831553389454
20
-6.18025760012989
30
0
41
1
10
58.0389060731042
20
-5.92851918442921
30
0
41
1
10
57.2503030148052
20
-5.69460906997293
30
0
41
1
10
56.3784188667685
20
-5.40602674302249
30
0
41
1
10
56.1402258136559
20
-5.32480942648004
30
0
41
1
10
56.0309088933555
20
-5.28717772922531
30
0
41
1
10
56.001029517254
20
-5.27685515585546
30
0
41
1
10
55.9711497969619
20
-5.26649597517184
30
0
0
SPLINE
5
F6
100
AcDbEntity
8
1
62
256
6
ByLayer
370
18
48
1
60
0
100
AcDbSpline
70
4
71
3
72
29
73
25
40
0
40
0
40
0
40
0
40
0.0127795829400524
40
0.0127795829400524
40
0.094699790889501
40
0.094699790889501
40
0.258540206788397
40
0.258540206788397
40
0.422380622687292
40
0.422380622687292
40
0.586221038586188
40
0.586221038586188
40
0.750061454485084
40
0.750061454485084
40
0.831981662434532
40
0.831981662434532
40
0.91390187038398
40
0.934381922371342
40
0.934381922371342
40
0.954861974358704
40
0.954861974358704
40
0.995822078333428
40
0.995822078333428
40
1
40
1
40
1
40
1
41
1
10
55.9711503059138
20
-5.26649615162336
30
0
41
1
10
55.9215626518061
20
-5.24930430902884
30
0
41
1
10
55.8719740496139
20
-5.23201164285143
30
0
41
1
10
55.5047579143268
20
-5.10321900576099
30
0
41
1
10
55.1879274724397
20
-4.98802518280229
30
0
41
1
10
54.2394879196543
20
-4.63187188582407
30
0
41
1
10
53.609921806696
20
-4.38036536452114
30
0
41
1
10
52.3537881737011
20
-3.85339549052344
30
0
41
1
10
51.7272552118674
20
-3.57784579192329
30
0
41
1
10
50.4748936919365
20
-3.00694664401198
30
0
41
1
10
49.8490507874351
20
-2.71162967933745
30
0
41
1
10
48.5955988168316
20
-2.10566573573468
30
0
41
1
10
47.9680497472119
20
-1.79488795744282
30
0
41
1
10
47.0237458718823
20
-1.32030502292801
30
0
41
1
10
46.7084723925457
20
-1.16070828600937
30
0
41
1
10
46.0765805477243
20
-0.83937062870794
30
0
41
1
10
45.6808027058552
20
-0.63721062046946
30
0
41
1
10
45.2837677171808
20
-0.433744752361776
30
0
41
1
10
45.124846844083
20
-0.352266251348141
30
0
41
1
10
45.045328565101
20
-0.311477884477767
30
0
41
1
10
44.8069355541609
20
-0.189156233605161
30
0
41
1
10
44.6481136249097
20
-0.107610556230753
30
0
41
1
10
44.4731871397692
20
-0.0177931589272191
30
0
41
1
10
44.4569970522104
20
-0.0094802019971496
30
0
41
1
10
44.4408078421968
20
-0.0011677205900469
30
0
0
SPLINE
5
F7
100
AcDbEntity
8
1
62
256
6
ByLayer
370
18
48
1
60
0
100
AcDbSpline
70
4
71
3
72
91
73
87
40
0
40
0
40
0
40
0
40
0.0227826763007907
40
0.0227826763007907
40
0.034174014451186
40
0.034174014451186
40
0.0455653526015813
40
0.0455653526015813
40
0.0911307052031634
40
0.0911307052031634
40
0.113913381503954
40
0.113913381503954
40
0.136696057804745
40
0.136696057804745
40
0.148087395955141
40
0.148087395955141
40
0.159478734105536
40
0.182261410406327
40
0.182261410406327
40
0.227826763007909
40
0.227826763007909
40
0.239218101158304
40
0.239218101158304
40
0.2506094393087
40
0.2506094393087
40
0.273392115609491
40
0.273392115609491
40
0.318957468211074
40
0.318957468211074
40
0.341740144511865
40
0.341740144511865
40
0.353131482662261
40
0.353131482662261
40
0.364522820812656
40
0.364522820812656
40
0.410088173414236
40
0.410088173414236
40
0.432870849715025
40
0.432870849715025
40
0.455653526015815
40
0.455653526015815
40
0.501218878617394
40
0.501218878617394
40
0.546784231218973
40
0.546784231218973
40
0.558175569369368
40
0.558175569369368
40
0.569566907519763
40
0.569566907519763
40
0.592349583820554
40
0.592349583820554
40
0.637914936422135
40
0.637914936422135
40
0.660697612722926
40
0.660697612722926
40
0.672088950873321
40
0.672088950873321
40
0.683480289023716
40
0.729045641625297
40
0.729045641625297
40
0.751828317926087
40
0.751828317926087
40
0.763219656076483
40
0.763219656076483
40
0.774610994226879
40
0.774610994226879
40
0.82017634682846
40
0.82017634682846
40
0.842959023129251
40
0.842959023129251
40
0.865741699430042
40
0.865741699430042
40
0.877133037580438
40
0.877133037580438
40
0.888524375730834
40
0.911307052031625
40
0.911307052031625
40
0.934089728332416
40
0.934089728332416
40
0.956872404633207
40
0.956872404633207
40
0.968263742783604
40
0.968263742783604
40
0.979655080934
40
0.979655080934
40
1
40
1
40
1
40
1
41
1
10
64.2416084365999
20
-7.32523660212343
30
0
41
1
10
63.9256745267555
20
-7.30110135050069
30
0
41
1
10
63.6098000878831
20
-7.27126581748649
30
0
41
1
10
63.1358633348195
20
-7.21805865944205
30
0
41
1
10
62.9778634677344
20
-7.19891386902054
30
0
41
1
10
62.6617849113764
20
-7.15782147132606
30
0
41
1
10
62.5036623601069
20
-7.13586697269025
30
0
41
1
10
61.713548854132
20
-7.01924603333231
30
0
41
1
10
61.0827571288028
20
-6.9040080968814
30
0
41
1
10
60.1366982162442
20
-6.69961727601836
30
0
41
1
10
59.8213658309759
20
-6.62622964251662
30
0
41
1
10
59.1903489434017
20
-6.46925261025242
30
0
41
1
10
58.8746870356202
20
-6.38564547374048
30
0
41
1
10
58.4007465736304
20
-6.2527214957411
30
0
41
1
10
58.2426225823606
20
-6.20715020794407
30
0
41
1
10
57.9265313983794
20
-6.11365700370348
30
0
41
1
10
57.452646306915
20
-5.9698997939463
30
0
41
1
10
56.9793425821223
20
-5.81580736244544
30
0
41
1
10
56.0330397214464
20
-5.49442797394352
30
0
41
1
10
55.40256729038
20
-5.26259053822608
30
0
41
1
10
54.6133352996868
20
-4.95288311640854
30
0
41
1
10
54.4554328532735
20
-4.88994487314886
30
0
41
1
10
54.1394720437883
20
-4.76213146352981
30
0
41
1
10
53.9813582128419
20
-4.69723313890799
30
0
41
1
10
53.5071350468294
20
-4.49989465162776
30
0
41
1
10
53.1913257989252
20
-4.36489189074899
30
0
41
1
10
52.2444453250499
20
-3.95031731508214
30
0
41
1
10
51.613926543686
20
-3.66117094828857
30
0
41
1
10
50.6673695652683
20
-3.21135798516474
30
0
41
1
10
50.3517211104218
20
-3.05873700203787
30
0
41
1
10
49.8777789824408
20
-2.82623467502734
30
0
41
1
10
49.7196799501691
20
-2.74811943162581
30
0
41
1
10
49.4034650298483
20
-2.59085489732374
30
0
41
1
10
49.24544440329
20
-2.51175330293955
30
0
41
1
10
48.4556782233326
20
-2.11407735976346
30
0
41
1
10
47.8249630970231
20
-1.7889640212251
30
0
41
1
10
46.8786591577731
20
-1.29427991146593
30
0
41
1
10
46.5631829141925
20
-1.12822157368544
30
0
41
1
10
45.9317759675974
20
-0.794463225034178
30
0
41
1
10
45.6158174771721
20
-0.626741290814579
30
0
41
1
10
44.6670076888043
20
-0.122028502277516
30
0
41
1
10
44.0359060181451
20
0.215018162086409
30
0
41
1
10
42.7740551378921
20
0.885514640775028
30
0
41
1
10
42.1432994110127
20
1.21895148924571
30
0
41
1
10
41.3533814305697
20
1.63032513015227
30
0
41
1
10
41.1953263051902
20
1.71233274793118
30
0
41
1
10
40.8790309665445
20
1.87573510420964
30
0
41
1
10
40.7209409861578
20
1.95705206371878
30
0
41
1
10
40.2469352122125
20
2.19965987020828
30
0
41
1
10
39.9312163123394
20
2.35964153847388
30
0
41
1
10
38.984454259695
20
2.83351561196474
30
0
41
1
10
38.3538130961735
20
3.14134705790968
30
0
41
1
10
37.4066542131979
20
3.58750643957461
30
0
41
1
10
37.0907500408019
20
3.73365364350082
30
0
41
1
10
36.6163457492176
20
3.9485502266802
30
0
41
1
10
36.4582099886701
20
4.01941715400301
30
0
41
1
10
36.1421704070751
20
4.15945028916758
30
0
41
1
10
35.3524500544207
20
4.50538004219732
30
0
41
1
10
34.5639990350624
20
4.82963554329342
30
0
41
1
10
33.617196079218
20
5.19527364750772
30
0
41
1
10
33.3015017491188
20
5.3132650028397
30
0
41
1
10
32.8275892053842
20
5.48408623114469
30
0
41
1
10
32.6695510499962
20
5.53999194773516
30
0
41
1
10
32.3532998175945
20
5.64967738706835
30
0
41
1
10
32.195130055635
20
5.70344158367843
30
0
41
1
10
31.4049238050642
20
5.96639190600851
30
0
41
1
10
30.7739107954654
20
6.15827033915124
30
0
41
1
10
29.827219100951
20
6.41653281431829
30
0
41
1
10
29.5116510022586
20
6.4977191359186
30
0
41
1
10
28.8802278709731
20
6.64999965759907
30
0
41
1
10
28.5643433666066
20
6.72106659293223
30
0
41
1
10
28.0899686349601
20
6.81979202059071
30
0
41
1
10
27.931755653692
20
6.85138612911888
30
0
41
1
10
27.6156004384247
20
6.91182575404531
30
0
41
1
10
27.1415890749857
20
6.99840178350536
30
0
41
1
10
26.6680656277776
20
7.07265261602038
30
0
41
1
10
26.0368262480915
20
7.16056626680674
30
0
41
1
10
25.7212929959851
20
7.19899153124126
30
0
41
1
10
25.0901072683092
20
7.26463183732346
30
0
41
1
10
24.7744276904808
20
7.29183508016754
30
0
41
1
10
24.3004968658969
20
7.3241046137357
30
0
41
1
10
24.1424511991844
20
7.33343890231021
30
0
41
1
10
23.8261869345934
20
7.34924906887647
30
0
41
1
10
23.6679415624501
20
7.35572465192789
30
0
41
1
10
23.2274548333262
20
7.36974781642368
30
0
41
1
10
22.9453317149157
20
7.37414811598037
30
0
41
1
10
22.6633478051841
20
7.37397189841801
30
0
0
SPLINE
5
F8
100
AcDbEntity
8
1
62
256
6
ByLayer
370
18
48
1
60
0
100
AcDbSpline
70
4
71
3
72
8
73
4
40
0
40
0
40
0
40
0
40
1
40
1
40
1
40
1
41
1
10
3.5
20
-7.17822160090449
30
0
41
1
10
3.5
20
-7.20526608835092
30
0
41
1
10
3.49999999999997
20
-7.23251413343934
30
0
41
1
10
3.49999999999997
20
-7.25996579481722
30
0
0
SPLINE
5
F9
100
AcDbEntity
8
1
62
256
6
ByLayer
370
18
48
1
60
0
100
AcDbSpline
70
4
71
3
72
36
73
32
40
0
40
0
40
0
40
0
40
0.0625000000000096
40
0.0625000000000096
40
0.125000000000019
40
0.125000000000019
40
0.15625000000001
40
0.15625000000001
40
0.187500000000001
40
0.187500000000001
40
0.218749999999991
40
0.218749999999991
40
0.249999999999982
40
0.249999999999982
40
0.281249999999973
40
0.281249999999973
40
0.312499999999963
40
0.312499999999963
40
0.343749999999954
40
0.343749999999954
40
0.374999999999945
40
0.374999999999945
40
0.437499999999945
40
0.437499999999945
40
0.499999999999946
40
0.499999999999946
40
0.624999999999959
40
0.624999999999959
40
0.749999999999972
40
0.749999999999972
40
1
40
1
40
1
40
1
41
1
10
3.75068535266473
20
-6.96047748935112
30
0
41
1
10
3.74272000805419
20
-6.96141026053706
30
0
41
1
10
3.73438319977822
20
-6.96265601505979
30
0
41
1
10
3.71662550804271
20
-6.96605722716905
30
0
41
1
10
3.7071383151945
20
-6.96822955283989
30
0
41
1
10
3.69210247090109
20
-6.97245139457982
30
0
41
1
10
3.6869443675177
20
-6.97402209806765
30
0
41
1
10
3.6762505576427
20
-6.97758522959469
30
0
41
1
10
3.67067077235291
20
-6.97959681777235
30
0
41
1
10
3.65943647870992
20
-6.98401156301713
30
0
41
1
10
3.65374820493148
20
-6.98642369608694
30
0
41
1
10
3.64220177212283
20
-6.99173685295835
30
0
41
1
10
3.636469280901
20
-6.99458433086866
30
0
41
1
10
3.62536836965441
20
-7.00051896414345
30
0
41
1
10
3.61990079151343
20
-7.0036606552969
30
0
41
1
10
3.60950822137565
20
-7.01004791457268
30
0
41
1
10
3.60461648695599
20
-7.01326669380214
30
0
41
1
10
3.59533352116799
20
-7.01974599824945
30
0
41
1
10
3.59096342249276
20
-7.02299473312837
30
0
41
1
10
3.58286195557886
20
-7.02934471730302
30
0
41
1
10
3.57909268578112
20
-7.03247255609958
30
0
41
1
10
3.56844948591376
20
-7.04174541166458
30
0
41
1
10
3.56221822950843
20
-7.0478024222754
30
0
41
1
10
3.55126081960822
20
-7.05938415452772
30
0
41
1
10
3.54647729650355
20
-7.06496195914977
30
0
41
1
10
3.5335886043444
20
-7.08125092231293
30
0
41
1
10
3.52690542559768
20
-7.09156862386953
30
0
41
1
10
3.51618012024036
20
-7.11104202746213
30
0
41
1
10
3.51210929733506
20
-7.12025634260982
30
0
41
1
10
3.50265938861088
20
-7.14679458854997
30
0
41
1
10
3.49999999999923
20
-7.16303161460939
30
0
41
1
10
3.5
20
-7.17822160091109
30
0
0
SPLINE
5
FA
100
AcDbEntity
8
1
62
256
6
ByLayer
370
18
48
1
60
0
100
AcDbSpline
70
4
71
3
72
28
73
24
40
0
40
0
40
0
40
0
40
0.125000000000003
40
0.125000000000003
40
0.250000000000006
40
0.250000000000006
40
0.375000000000008
40
0.375000000000008
40
0.500000000000011
40
0.500000000000011
40
0.625000000000014
40
0.625000000000014
40
0.656250000000013
40
0.656250000000013
40
0.687500000000012
40
0.687500000000012
40
0.750000000000009
40
0.750000000000009
40
0.875000000000005
40
0.875000000000005
40
0.937500000000002
40
0.937500000000002
40
1
40
1
40
1
40
1
41
1
10
8.88017905582953
20
-5.68038170132513
30
0
41
1
10
8.64249324361603
20
-5.75028293305078
30
0
41
1
10
8.40670579449363
20
-5.81923960134409
30
0
41
1
10
7.9393561053071
20
-5.95464685937964
30
0
41
1
10
7.70779596942697
20
-6.02109444400693
30
0
41
1
10
7.24946396463147
20
-6.15070735689807
30
0
41
1
10
7.02273089210286
20
-6.21382176490479
30
0
41
1
10
6.57407867184006
20
-6.3367182114535
30
0
41
1
10
6.35221336644727
20
-6.3964297094299
30
0
41
1
10
5.91440368689629
20
-6.51110348271703
30
0
41
1
10
5.69843366905246
20
-6.56609783377326
30
0
41
1
10
5.43288457560479
20
-6.63100074033218
30
0
41
1
10
5.37999656534885
20
-6.64378806492138
30
0
41
1
10
5.27468875847313
20
-6.66894666878324
30
0
41
1
10
5.22222023170195
20
-6.68132913349987
30
0
41
1
10
5.06605936823632
20
-6.71768736679388
30
0
41
1
10
4.96354689810636
20
-6.74089166483844
30
0
41
1
10
4.66124436015534
20
-6.80701396301757
30
0
41
1
10
4.46664359977135
20
-6.84647585272873
30
0
41
1
10
4.18758681407311
20
-6.896705532949
30
0
41
1
10
4.09671837252648
20
-6.91194750460511
30
0
41
1
10
3.91985857884373
20
-6.93896228525475
30
0
41
1
10
3.8338648686676
20
-6.95073686176377
30
0
41
1
10
3.75068534951191
20
-6.96047748971921
30
0
0
SPLINE
5
FB
100
AcDbEntity
8
1
62
256
6
ByLayer
370
18
48
1
60
0
100
AcDbSpline
70
4
71
3
72
8
73
4
40
0
40
0
40
0
40
0
40
1
40
1
40
1
40
1
41
1
10
9.46600887572237
20
-5.42048168312047
30
0
41
1
10
9.27050023781433
20
-5.50645063043882
30
0
41
1
10
9.07526748117263
20
-5.59308429654158
30
0
41
1
10
8.88030841967137
20
-5.68037788375852
30
0
0
SPLINE
5
FC
100
AcDbEntity
8
1
62
256
6
ByLayer
370
18
48
1
60
0
100
AcDbSpline
70
4
71
3
72
103
73
99
40
0
40
0
40
0
40
0
40
0.0624999999999366
40
0.0624999999999366
40
0.124999999999873
40
0.124999999999873
40
0.156249999999842
40
0.156249999999842
40
0.18749999999981
40
0.18749999999981
40
0.249999999999747
40
0.249999999999747
40
0.312499999999683
40
0.312499999999683
40
0.37499999999962
40
0.37499999999962
40
0.406249999999587
40
0.406249999999587
40
0.41406249999958
40
0.417968749999576
40
0.417968749999576
40
0.419921874999574
40
0.419921874999574
40
0.420898437499573
40
0.420898437499573
40
0.421874999999572
40
0.421874999999572
40
0.423828124999571
40
0.423828124999571
40
0.42480468749957
40
0.42480468749957
40
0.42578124999957
40
0.42578124999957
40
0.426757812499569
40
0.426757812499569
40
0.427734374999569
40
0.427734374999569
40
0.428222656249569
40
0.428222656249569
40
0.428710937499568
40
0.428710937499568
40
0.429687499999569
40
0.429687499999569
40
0.437499999999575
40
0.437499999999575
40
0.468749999999599
40
0.468749999999599
40
0.499999999999623
40
0.499999999999623
40
0.531249999999648
40
0.531249999999648
40
0.546874999999659
40
0.546874999999659
40
0.562499999999671
40
0.562499999999671
40
0.593749999999693
40
0.593749999999693
40
0.624999999999716
40
0.624999999999716
40
0.656249999999738
40
0.656249999999738
40
0.671874999999749
40
0.671874999999749
40
0.679687499999755
40
0.683593749999758
40
0.683593749999758
40
0.68749999999976
40
0.68749999999976
40
0.718749999999784
40
0.718749999999784
40
0.734374999999796
40
0.734374999999796
40
0.749999999999808
40
0.749999999999808
40
0.781249999999832
40
0.781249999999832
40
0.812499999999856
40
0.812499999999856
40
0.816406249999859
40
0.816406249999859
40
0.820312499999862
40
0.828124999999868
40
0.843749999999881
40
0.859374999999893
40
0.859374999999893
40
0.867187499999899
40
0.867187499999899
40
0.874999999999905
40
0.874999999999905
40
0.906249999999929
40
0.906249999999929
40
0.937499999999952
40
0.937499999999952
40
0.953124999999964
40
0.953124999999964
40
0.968749999999976
40
0.968749999999976
40
1
40
1
40
1
40
1
41
1
10
12.3501590691098
20
-6.25884828805198
30
0
41
1
10
12.0388194497666
20
-6.17118923415569
30
0
41
1
10
11.7258171927195
20
-6.08084533345382
30
0
41
1
10
11.0955746329481
20
-5.89716868293425
30
0
41
1
10
10.7783411273606
20
-5.80382657395398
30
0
41
1
10
10.2985875875711
20
-5.66356199014785
30
0
41
1
10
10.1380215062626
20
-5.61676419756901
30
0
41
1
10
9.81549581810276
20
-5.52340139649277
30
0
41
1
10
9.65347821800324
20
-5.47682259429817
30
0
41
1
10
9.16591689206814
20
-5.3381369373929
30
0
41
1
10
8.83868979804168
20
-5.24705023923818
30
0
41
1
10
8.17934296369262
20
-5.0700271763391
30
0
41
1
10
7.84722419497552
20
-4.98409093286091
30
0
41
1
10
7.17767603121882
20
-4.81957793631582
30
0
41
1
10
6.84008482252537
20
-4.74095942833887
30
0
41
1
10
6.33054989591938
20
-4.63023407941856
30
0
41
1
10
6.16015318190301
20
-4.59451567862411
30
0
41
1
10
5.9465317544277
20
-4.55149838343792
30
0
41
1
10
5.88239782755593
20
-4.53871533338378
30
0
41
1
10
5.81819432776788
20
-4.52611938078908
30
0
41
1
10
5.78608114989325
20
-4.51985264055554
30
0
41
1
10
5.77537462997086
20
-4.51776926144248
30
0
41
1
10
5.75931270581555
20
-4.51465130448628
30
0
41
1
10
5.75395751778291
20
-4.51361700977606
30
0
41
1
10
5.7432500674806
20
-4.51153536052814
30
0
41
1
10
5.73790092523305
20
-4.51047451280954
30
0
41
1
10
5.72176676501155
20
-4.50766606331317
30
0
41
1
10
5.71086547654104
20
-4.50642028689362
30
0
41
1
10
5.69423289408508
20
-4.50576460275033
30
0
41
1
10
5.68864018381339
20
-4.50574862131518
30
0
41
1
10
5.67759335060549
20
-4.50619005372923
30
0
41
1
10
5.67210814433147
20
-4.50662920167389
30
0
41
1
10
5.66122627212428
20
-4.50801337990322
30
0
41
1
10
5.65582637439982
20
-4.50893994922106
30
0
41
1
10
5.64513679136678
20
-4.51142219342947
30
0
41
1
10
5.63986537884082
20
-4.51293662565985
30
0
41
1
10
5.63232560314859
20
-4.51576590679937
30
0
41
1
10
5.62983331822946
20
-4.51674577785641
30
0
41
1
10
5.62498077631838
20
-4.51893753177245
30
0
41
1
10
5.62259386332522
20
-4.52009508876182
30
0
41
1
10
5.61551789831498
20
-4.52366147473151
30
0
41
1
10
5.61082641618069
20
-4.5260696384531
30
0
41
1
10
5.56851630890526
20
-4.5476259036152
30
0
41
1
10
5.53099877181296
20
-4.56682507929503
30
0
41
1
10
5.34389683115728
20
-4.6630037490747
30
0
41
1
10
5.19569836503979
20
-4.74056833198574
30
0
41
1
10
4.90329450173903
20
-4.896605926463
30
0
41
1
10
4.75907978543728
20
-4.97508171060812
30
0
41
1
10
4.47510780896701
20
-5.13293409515518
30
0
41
1
10
4.33534893534178
20
-5.21231089578856
30
0
41
1
10
4.12952557843761
20
-5.33204587722872
30
0
41
1
10
4.0615067654106
20
-5.3720979207107
30
0
41
1
10
3.92705430462189
20
-5.45229764864402
30
0
41
1
10
3.86076680829041
20
-5.49235749036183
30
0
41
1
10
3.6648894884332
20
-5.61237976513758
30
0
41
1
10
3.53827442800179
20
-5.69218665748926
30
0
41
1
10
3.2940969301911
20
-5.85115131573394
30
0
41
1
10
3.17652846713671
20
-5.93030996841071
30
0
41
1
10
2.95195102283793
20
-6.08768081527396
30
0
41
1
10
2.84493133687923
20
-6.16589481110091
30
0
41
1
10
2.69393347912526
20
-6.28220617913988
30
0
41
1
10
2.64519540448933
20
-6.32080740946881
30
0
41
1
10
2.57475516871583
20
-6.37840616748065
30
0
41
1
10
2.54020266334453
20
-6.40712963222364
30
0
41
1
10
2.50671255646429
20
-6.43572849694823
30
0
41
1
10
2.48462945081852
20
-6.454765404125
30
0
41
1
10
2.47370336751339
20
-6.46427508291089
30
0
41
1
10
2.37687619052713
20
-6.54939182930556
30
0
41
1
10
2.30086772391383
20
-6.62224772011803
30
0
41
1
10
2.20395307304179
20
-6.72658934175686
30
0
41
1
10
2.17450466375604
20
-6.76054415413606
30
0
41
1
10
2.12175849702021
20
-6.8266487056033
30
0
41
1
10
2.09844937794796
20
-6.85881520654115
30
0
41
1
10
2.03860732324307
20
-6.95223474210036
30
0
41
1
10
2.01325450462417
20
-7.00866831545954
30
0
41
1
10
1.99179000662267
20
-7.10961702448486
30
0
41
1
10
1.99567725969857
20
-7.15413313511829
30
0
41
1
10
2.01695176920626
20
-7.19727317813349
30
0
41
1
10
2.01955446043709
20
-7.20197524297964
30
0
41
1
10
2.02520548874099
20
-7.2111441018406
30
0
41
1
10
2.03435355988742
20
-7.22455480090659
30
0
41
1
10
2.06031644552084
20
-7.2534899063821
30
0
41
1
10
2.11014577887582
20
-7.2883200677914
30
0
41
1
10
2.16278094867775
20
-7.30966164020447
30
0
41
1
10
2.20679201601442
20
-7.32335472058489
30
0
41
1
10
2.22221864587323
20
-7.32753334100883
30
0
41
1
10
2.25454739392569
20
-7.33513880680908
30
0
41
1
10
2.2714775809259
20
-7.33857030979627
30
0
41
1
10
2.35939551136175
20
-7.35383759311583
30
0
41
1
10
2.43953248629222
20
-7.35996965389953
30
0
41
1
10
2.61579783163825
20
-7.36239598391634
30
0
41
1
10
2.71194756077895
20
-7.35867729533493
30
0
41
1
10
2.86637375805284
20
-7.34690443662188
30
0
41
1
10
2.91955662686095
20
-7.3419432726607
30
0
41
1
10
3.02910432763892
20
-7.33010419445935
30
0
41
1
10
3.0855688317736
20
-7.32321035566181
30
0
41
1
10
3.25792703617193
20
-7.30007415083676
30
0
41
1
10
3.37716105435413
20
-7.2813583910289
30
0
41
1
10
3.49999999999997
20
-7.25996579481722
30
0
0
SPLINE
5
FD
100
AcDbEntity
8
SK1
62
256
6
ByLayer
370
18
48
1
60
0
100
AcDbSpline
70
4
71
4
72
10
73
5
40
0
40
0
40
0
40
0
40
0
40
1
40
1
40
1
40
1
40
1
41
0.994813963859698
10
-47.9999996737714
20
4.68960661316842
30
0
41
0.99492443604689
10
-47.9999999584114
20
4.64507647753651
30
0
41
0.996622334406633
10
-48.0000001898467
20
4.58963570702262
30
0
41
0.999883517776293
10
-48.000000359458
20
4.52485815713573
30
0
41
1.00364291355715
10
-48.0000004687678
20
4.45398361316999
30
0
0
SPLINE
5
FE
100
AcDbEntity
8
SK1
62
256
6
ByLayer
370
18
48
1
60
0
100
AcDbSpline
70
4
71
3
72
10
73
6
40
0
40
0
40
0
40
0
40
0.0059648538780061
40
0.0059648538780061
40
1
40
1
40
1
40
1
41
1
10
-47.7648060002667
20
4.60687376309284
30
0
41
1
10
-47.7652623062812
20
4.60705975176737
30
0
41
1
10
-47.7657186884877
20
4.6072455958685
30
0
41
1
10
-47.8422433021601
20
4.63837796298094
30
0
41
1
10
-47.9203977728417
20
4.66536586918028
30
0
41
1
10
-48.0000000000012
20
4.68960667279882
30
0
0
SPLINE
5
FF
100
AcDbEntity
8
SK1
62
256
6
ByLayer
370
18
48
1
60
0
100
AcDbSpline
70
4
71
3
72
8
73
4
40
0
40
0
40
0
40
0
40
1
40
1
40
1
40
1
41
1
10
-46.5
20
6.82488790618353
30
0
41
1
10
-47.0011302763532
20
6.36239162349477
30
0
41
1
10
-47.5014428239089
20
5.8991718326557
30
0
41
1
10
-48
20
5.43439892840627
30
0
0
SPLINE
5
100
100
AcDbEntity
8
SK1
62
256
6
ByLayer
370
18
48
1
60
0
100
AcDbSpline
70
4
71
3
72
20
73
16
40
0
40
0
40
0
40
0
40
0.0625000000000015
40
0.0625000000000015
40
0.125000000000003
40
0.125000000000003
40
0.250000000000005
40
0.250000000000005
40
0.375000000000006
40
0.375000000000006
40
0.500000000000008
40
0.500000000000008
40
0.750000000000004
40
0.750000000000004
40
1
40
1
40
1
40
1
41
1
10
-46.4
20
6.89078578373
30
0
41
1
10
-46.4
20
6.89190366184911
30
0
41
1
10
-46.400255320285
20
6.89276425172866
30
0
41
1
10
-46.401238720026
20
6.89400876997775
30
0
41
1
10
-46.4019736794312
20
6.89438900979152
30
0
41
1
10
-46.4047525178022
20
6.89484497526999
30
0
41
1
10
-46.407386820202
20
6.89426824760099
30
0
41
1
10
-46.4138324199078
20
6.89172563836766
30
0
41
1
10
-46.4175513092506
20
6.88980091528833
30
0
41
1
10
-46.4257576562687
20
6.88494372600391
30
0
41
1
10
-46.4302902765822
20
6.88197584952687
30
0
41
1
10
-46.444519757331
20
6.87201033535712
30
0
41
1
10
-46.454862846528
20
6.86398011938127
30
0
41
1
10
-46.4769795344452
20
6.84562984613422
30
0
41
1
10
-46.4883400853171
20
6.83564891475109
30
0
41
1
10
-46.5
20
6.82488790618353
30
0
0
SPLINE
5
101
100
AcDbEntity
8
SK1
62
256
6
ByLayer
370
18
48
1
60
0
100
AcDbSpline
70
4
71
3
72
20
73
16
40
0
40
0
40
0
40
0
40
0.250000000000006
40
0.250000000000006
40
0.375000000000005
40
0.375000000000005
40
0.500000000000004
40
0.500000000000004
40
0.625000000000003
40
0.625000000000003
40
0.750000000000002
40
0.750000000000002
40
0.875000000000001
40
0.875000000000001
40
1
40
1
40
1
40
1
41
1
10
-46.5
20
5.7790010752839
30
0
41
1
10
-46.4883382808638
20
5.78976374919276
30
0
41
1
10
-46.4769899849393
20
5.8013884254099
30
0
41
1
10
-46.4604389640724
20
5.82013670922115
30
0
41
1
10
-46.4550533753258
20
5.82655578277885
30
0
41
1
10
-46.4447632897779
20
5.83949537527013
30
0
41
1
10
-46.4398264111653
20
5.84605143650091
30
0
41
1
10
-46.4304188308979
20
5.85935579587127
30
0
41
1
10
-46.4259311640916
20
5.86612829201374
30
0
41
1
10
-46.4176087338257
20
5.87981028027951
30
0
41
1
10
-46.4138727961238
20
5.88655285371729
30
0
41
1
10
-46.4074449634846
20
5.89979368426913
30
0
41
1
10
-46.4047607228177
20
5.90630888582862
30
0
41
1
10
-46.40105390221
20
5.91828606453012
30
0
41
1
10
-46.4
20
5.92389692432207
30
0
41
1
10
-46.4
20
5.92856989930232
30
0
0
SPLINE
5
102
100
AcDbEntity
8
SK1
62
256
6
ByLayer
370
18
48
1
60
0
100
AcDbSpline
70
4
71
3
72
8
73
4
40
0
40
0
40
0
40
0
40
1
40
1
40
1
40
1
41
1
10
-48
20
4.38851209750661
30
0
41
1
10
-47.5014320468414
20
4.85329504852544
30
0
41
1
10
-47.0011217905912
20
5.31651262415818
30
0
41
1
10
-46.5
20
5.7790010752839
30
0
0
SPLINE
5
103
100
AcDbEntity
8
1
62
256
6
ByLayer
370
18
48
1
60
0
100
AcDbSpline
70
4
71
3
72
8
73
4
40
0
40
0
40
0
40
0
40
1
40
1
40
1
40
1
41
1
10
50.8155881066956
20
-4.17191855052781
30
0
41
1
10
50.6874671504591
20
-4.11830965983836
30
0
41
1
10
50.5658071299057
20
-4.06607863654565
30
0
41
1
10
50.4498197696804
20
-4.01515342824658
30
0
0
SPLINE
5
104
100
AcDbEntity
8
1
62
256
6
ByLayer
370
18
48
1
60
0
100
AcDbSpline
70
4
71
3
72
21
73
17
40
0
40
0
40
0
40
0
40
0.0551643124996437
40
0.11345625414984
40
0.179317474861648
40
0.25828785600175
40
0.330534837552314
40
0.410090065172754
40
0.504516217870597
40
0.586232253431681
40
0.649606596152156
40
0.699629825774967
40
0.758064600363616
40
0.826400614451901
40
0.913873488062613
40
1
40
1
40
1
40
1
41
1
10
64.5189331788154
20
1.39512967116767
30
0
41
1
10
64.3776628624911
20
1.43672241171575
30
0
41
1
10
64.0874140833753
20
1.52320774499176
30
0
41
1
10
63.6297371219177
20
1.6631915661994
30
0
41
1
10
63.1123179170091
20
1.82499222116527
30
0
41
1
10
62.5607160907146
20
2.00218526413775
30
0
41
1
10
61.9757911721814
20
2.19521479152743
30
0
41
1
10
61.3533931341678
20
2.40612423669862
30
0
41
1
10
60.7091067942945
20
2.63099263262572
30
0
41
1
10
60.1077701869438
20
2.84706353021727
30
0
41
1
10
59.6196975311156
20
3.02657734354952
30
0
41
1
10
59.1910529904726
20
3.1870786943627
30
0
41
1
10
58.7509951863664
20
3.35463571606181
30
0
41
1
10
58.2191912164276
20
3.56113742167784
30
0
41
1
10
57.6207141578085
20
3.79871109619654
30
0
41
1
10
57.1932780707506
20
3.97353057279679
30
0
41
1
10
56.9816806131022
20
4.06126316834388
30
0
0
SPLINE
5
105
100
AcDbEntity
8
1
62
256
6
ByLayer
370
18
48
1
60
0
100
AcDbSpline
70
4
71
3
72
33
73
29
40
0
40
0
40
0
40
0
40
8.65557269E-07
40
1.02659296503E-05
40
2.69104312177E-05
40
0.0001035869778817
40
0.0003271830795136
40
0.0032392599298028
40
0.0211228028347772
40
0.0508007439093491
40
0.11884584629005
40
0.182715039544543
40
0.241184194570716
40
0.285184880992481
40
0.324376166213726
40
0.371025916589409
40
0.428568816810527
40
0.488095715066868
40
0.536739015744759
40
0.584893308572993
40
0.638206006209287
40
0.681474620148391
40
0.719988014141484
40
0.764141065772103
40
0.80575567662816
40
0.862145664795764
40
0.933825272133876
40
1
40
1
40
1
40
1
41
1
10
24.4058855511999
20
0.466592249961819
30
0
41
1
10
24.4058846028003
20
0.46659256735542
30
0
41
1
10
24.4058815238552
20
0.466593551044895
30
0
41
1
10
24.4058449587539
20
0.466603152509521
30
0
41
1
10
24.405681496354
20
0.466645629407566
30
0
41
1
10
24.4046488585389
20
0.466905087008314
30
0
41
1
10
24.3956261196994
20
0.469170598333903
30
0
41
1
10
24.3149580601048
20
0.488942411590926
30
0
41
1
10
24.1327589141314
20
0.533896474434414
30
0
41
1
10
23.6989657474916
20
0.642471542655954
30
0
41
1
10
23.0993073775497
20
0.797519294965838
30
0
41
1
10
22.392317829048
20
0.988002826323566
30
0
41
1
10
21.77694988099
20
1.16007781433322
30
0
41
1
10
21.254020775267
20
1.31075567148338
30
0
41
1
10
20.7757931591942
20
1.45186795446128
30
0
41
1
10
20.2488454966313
20
1.61112610901225
30
0
41
1
10
19.6487237733769
20
1.79771930260659
30
0
41
1
10
19.0430639935345
20
1.99196168064958
30
0
41
1
10
18.4731889517331
20
2.17988810580684
30
0
41
1
10
17.9273139443563
20
2.36433024649065
30
0
41
1
10
17.4024244976201
20
2.54615100206831
30
0
41
1
10
16.9138541833999
20
2.71935482852686
30
0
41
1
10
16.4595734700908
20
2.88352450946721
30
0
41
1
10
16.0123651496324
20
3.04825260262976
30
0
41
1
10
15.5020841043983
20
3.23987806085847
30
0
41
1
10
14.8945083630636
20
3.47315456016517
30
0
41
1
10
14.2013383782021
20
3.74631585225299
30
0
41
1
10
13.7118193808113
20
3.94612565580721
30
0
41
1
10
13.477342037336
20
4.04331146013706
30
0
0
SPLINE
5
106
100
AcDbEntity
8
1
62
256
6
ByLayer
370
18
48
1
60
0
100
AcDbSpline
70
4
71
1
72
4
73
2
40
0
40
0
40
1
40
1
41
1
10
50.4498197696804
20
-4.01515342824658
30
0
41
1
10
50.3914005576417
20
-3.990445093923
30
0
0
SPLINE
5
107
100
AcDbEntity
8
1
62
256
6
ByLayer
370
18
48
1
60
0
100
AcDbSpline
70
4
71
3
72
38
73
34
40
0
40
0
40
0
40
0
40
0.0155944671488929
40
0.0333301528737463
40
0.0506985129740068
40
0.0911829534020671
40
0.128235789456911
40
0.161252697098843
40
0.190972714859723
40
0.239644019898982
40
0.295618970578558
40
0.334380830754666
40
0.379155925955608
40
0.424553795682648
40
0.463382173087584
40
0.501259086913454
40
0.537259276390513
40
0.566100939811641
40
0.5905933778758
40
0.615884286655654
40
0.643424386960753
40
0.672985481657532
40
0.705097732544462
40
0.741871083177811
40
0.782677086827687
40
0.82730299950782
40
0.863624672480148
40
0.89818047050415
40
0.926020223104934
40
0.947948255634907
40
0.972009990339405
40
0.999073546862504
40
1
40
1
40
1
40
1
41
1
10
22.8148224925459
20
-7.00363839025511
30
0
41
1
10
22.9057231297034
20
-7.00311909016204
30
0
41
1
10
23.108618546073
20
-7.00183908748977
30
0
41
1
10
23.4515820886893
20
-6.99682268179265
30
0
41
1
10
23.9881864270485
20
-6.99590101660729
30
0
41
1
10
24.6323605698367
20
-7.00470338217377
30
0
41
1
10
25.3962271734236
20
-7.00556984657467
30
0
41
1
10
26.0952049784628
20
-7.00601689558943
30
0
41
1
10
26.8778482044635
20
-7.00641914213853
30
0
41
1
10
27.8215331477305
20
-7.00626405165664
30
0
41
1
10
28.8291572015213
20
-7.0061538610567
30
0
41
1
10
29.8092828959139
20
-7.00886739937292
30
0
41
1
10
30.7151239546154
20
-7.00798441756041
30
0
41
1
10
31.6214278860601
20
-7.00780069741603
30
0
41
1
10
32.4789774686281
20
-7.00768710890955
30
0
41
1
10
33.2708952877598
20
-7.01068549721842
30
0
41
1
10
33.9924215671352
20
-7.01065816193943
30
0
41
1
10
34.619881064656
20
-7.01010109917664
30
0
41
1
10
35.1727843979257
20
-7.00953982618944
30
0
41
1
10
35.7134921138842
20
-7.00941704840469
30
0
41
1
10
36.2554781016957
20
-7.00476992614915
30
0
41
1
10
36.868558340995
20
-6.99728991739974
30
0
41
1
10
37.5696696897269
20
-7.00083822891287
30
0
41
1
10
38.3100847232857
20
-7.01104247563703
30
0
41
1
10
39.1525996670029
20
-7.01430072317629
30
0
41
1
10
40.0114462266516
20
-7.01248590209246
30
0
41
1
10
40.8221496838661
20
-7.01170523396382
30
0
41
1
10
41.515853779681
20
-7.01153658845428
30
0
41
1
10
42.1081565212445
20
-7.01323228402794
30
0
41
1
10
42.6264360236327
20
-7.01534173724889
30
0
41
1
10
43.1401992665596
20
-7.01586017416051
30
0
41
1
10
43.4995350864333
20
-7.01523515272018
30
0
41
1
10
43.6945537736852
20
-7.01477256320459
30
0
41
1
10
43.7010106384477
20
-7.0147571086041
30
0
0
SPLINE
5
108
100
AcDbEntity
8
1
62
256
6
ByLayer
370
18
48
1
60
0
100
AcDbSpline
70
4
71
3
72
8
73
4
40
0
40
0
40
0
40
0
40
1
40
1
40
1
40
1
41
1
10
43.7460747077688
20
-7.01464693729295
30
0
41
1
10
43.8260904553752
20
-7.01444711338914
30
0
41
1
10
43.9063540266714
20
-7.01422373188259
30
0
41
1
10
43.9866687450656
20
-7.01396812507645
30
0
0
SPLINE
5
109
100
AcDbEntity
8
1
62
256
6
ByLayer
370
18
48
1
60
0
100
AcDbSpline
70
4
71
3
72
31
73
27
40
0
40
0
40
0
40
0
40
0.0264567657865746
40
0.0611100894517279
40
0.0909698226626665
40
0.121691117768248
40
0.159887783077767
40
0.203954556200685
40
0.248952873236988
40
0.291904482667409
40
0.331888369926124
40
0.378291159272938
40
0.418691604761819
40
0.455147248023541
40
0.489110112163487
40
0.52029097909814
40
0.550469064816258
40
0.586005611997225
40
0.642060473774107
40
0.700674826714543
40
0.766318462662949
40
0.836283001818419
40
0.894896236725575
40
0.946006540643505
40
0.991682686439492
40
1
40
1
40
1
40
1
41
1
10
43.9901689547342
20
7.01387873929286
30
0
41
1
10
43.8402467826589
20
7.01445633103358
30
0
41
1
10
43.4936504691048
20
7.01545365280691
30
0
41
1
10
42.9799318036619
20
7.0158028560837
30
0
41
1
10
42.4345810127688
20
7.01484440273379
30
0
41
1
10
41.8711006420694
20
7.01209166769218
30
0
41
1
10
41.2254132218829
20
7.01157787828382
30
0
41
1
10
40.4983292680288
20
7.01193570236424
30
0
41
1
10
39.744337448948
20
7.01296796419604
30
0
41
1
10
39.0124164478953
20
7.01401315720889
30
0
41
1
10
38.2887275037937
20
7.01069384250366
30
0
41
1
10
37.5941542927444
20
7.00105829173822
30
0
41
1
10
36.8803469799371
20
6.99721496728174
30
0
41
1
10
36.2602960640011
20
7.00467494038554
30
0
41
1
10
35.7171915048986
20
7.00941951358973
30
0
41
1
10
35.175150388633
20
7.00954153478853
30
0
41
1
10
34.6210309589374
20
7.01007984022962
30
0
41
1
10
33.9255100818981
20
7.01083306569282
30
0
41
1
10
33.0674325674186
20
7.0099188503205
30
0
41
1
10
32.0372170434988
20
7.0072342635145
30
0
41
1
10
30.927815358709
20
7.0079773124682
30
0
41
1
10
29.818110404702
20
7.00900394685715
30
0
41
1
10
28.7914671628733
20
7.0061929589535
30
0
41
1
10
27.903746178989
20
7.00625661898926
30
0
41
1
10
27.3029336304834
20
7.00637508241772
30
0
41
1
10
26.9948119580239
20
7.00631848960864
30
0
41
1
10
26.9473541399054
20
7.00630767279824
30
0
0
SPLINE
5
10A
100
AcDbEntity
8
1
62
256
6
ByLayer
370
18
48
1
60
0
100
AcDbSpline
70
4
71
2
72
6
73
3
40
0
40
0
40
0
40
1
40
1
40
1
41
1
10
44.4411862006659
20
-0.0013619710993282
30
0
41
1
10
44.4411581965676
20
-0.0013479883518528
30
0
41
1
10
44.441130192352
20
-0.0013334321471348
30
0
0
LINE
5
82
100
AcDbEntity
8
81
62
256
6
ByLayer
370
18
48
1
60
0
100
AcDbLine
10
67
20
0
30
0
11
70
21
0
31
0
39
0
210
0
220
0
230
1
0
LINE
5
83
100
AcDbEntity
8
80
62
256
6
ByLayer
370
18
48
1
60
0
100
AcDbLine
10
0
20
0
30
0
11
-3
21
0
31
0
39
0
210
0
220
0
230
1
0
LINE
5
84
100
AcDbEntity
8
SK4
62
256
6
ByLayer
370
18
48
0.05
60
0
100
AcDbLine
10
-51
20
0
30
0
11
70
21
0
31
0
39
0
210
0
220
0
230
1
0
LINE
5
86
100
AcDbEntity
8
4
62
256
6
ByLayer
370
18
48
0.05
60
0
100
AcDbLine
10
0
20
0
30
0
11
67
21
0
31
0
39
0
210
0
220
0
230
1
0
LINE
5
88
100
AcDbEntity
8
1
62
256
6
ByLayer
370
13
48
1
60
0
100
AcDbLine
10
66.896807
20
0.089084
30
0
11
65.114843
21
2.056062
31
0
39
0
210
0
220
0
230
1
0
LINE
5
89
100
AcDbEntity
8
1
62
256
6
ByLayer
370
13
48
1
60
0
100
AcDbLine
10
0.642818
20
7.676324
30
0
11
0.642818
21
-7.676324
31
0
39
0
210
0
220
0
230
1
0
LINE
5
8A
100
AcDbEntity
8
1
62
256
6
ByLayer
370
18
48
1
60
0
100
AcDbLine
10
0
20
8
30
0
11
0
21
-8
31
0
39
0
210
0
220
0
230
1
0
LINE
5
8B
100
AcDbEntity
8
1
62
256
6
ByLayer
370
13
48
1
60
0
100
AcDbLine
10
0.636765
20
7.684283
30
0
11
0.636765
21
-7.684283
31
0
39
0
210
0
220
0
230
1
0
LINE
5
8C
100
AcDbEntity
8
1
62
256
6
ByLayer
370
13
48
1
60
0
100
AcDbLine
10
1.280083
20
7.360607
30
0
11
1.280083
21
-7.360607
31
0
39
0
210
0
220
0
230
1
0
LINE
5
8D
100
AcDbEntity
8
1
62
256
6
ByLayer
370
18
48
1
60
0
100
AcDbLine
10
3.5
20
-1.230951
30
0
11
3.5
21
7.259966
31
0
39
0
210
0
220
0
230
1
0
LINE
5
8E
100
AcDbEntity
8
1
62
256
6
ByLayer
370
18
48
1
60
0
100
AcDbLine
10
31.6
20
5.211926
30
0
11
31.6
21
4.961354
31
0
39
0
210
0
220
0
230
1
0
LINE
5
8F
100
AcDbEntity
8
SK1
62
256
6
ByLayer
370
18
48
1
60
0
100
AcDbLine
10
-48
20
5.434399
30
0
11
-48
21
4.689607
31
0
39
0
210
0
220
0
230
1
0
LINE
5
91
100
AcDbEntity
8
SK1
62
256
6
ByLayer
370
13
48
1
60
0
100
AcDbLine
10
-46.5
20
5.778962
30
0
11
-46.5
21
6.824888
31
0
39
0
210
0
220
0
230
1
0
LINE
5
92
100
AcDbEntity
8
SK1
62
256
6
ByLayer
370
18
48
1
60
0
100
AcDbLine
10
-48
20
5.434399
30
0
11
-48
21
5.55
31
0
39
0
210
0
220
0
230
1
0
LINE
5
93
100
AcDbEntity
8
SK1
62
256
6
ByLayer
370
18
48
1
60
0
100
AcDbLine
10
-46.4
20
5.92857
30
0
11
-46.4
21
6.890786
31
0
39
0
210
0
220
0
230
1
0
LINE
5
94
100
AcDbEntity
8
SK1
62
256
6
ByLayer
370
18
48
1
60
0
100
AcDbLine
10
-48
20
-5.55
30
0
11
-48
21
4.388512
31
0
39
0
210
0
220
0
230
1
0
LINE
5
95
100
AcDbEntity
8
SK1
62
256
6
ByLayer
370
18
48
1
60
0
100
AcDbLine
10
-45.55
20
-8
30
0
11
-45.55
21
8
31
0
39
0
210
0
220
0
230
1
0
LINE
5
96
100
AcDbEntity
8
SK1
62
256
6
ByLayer
370
18
48
1
60
0
100
AcDbLine
10
0
20
8
30
0
11
0
21
-8
31
0
39
0
210
0
220
0
230
1
0
LINE
5
97
100
AcDbEntity
8
1
62
256
6
ByLayer
370
18
48
1
60
0
100
AcDbLine
10
0.642818
20
7.676324
30
0
11
0.636765
21
7.684283
31
0
39
0
210
0
220
0
230
1
0
LINE
5
98
100
AcDbEntity
8
1
62
256
6
ByLayer
370
18
48
1
60
0
100
AcDbLine
10
0.636765
20
-7.684283
30
0
11
0.642818
21
-7.676324
31
0
39
0
210
0
220
0
230
1
0
LINE
5
99
100
AcDbEntity
8
1
62
256
6
ByLayer
370
18
48
1
60
0
100
AcDbLine
10
1.280083
20
-7.360607
30
0
11
2.567472
21
-7.361412
31
0
39
0
210
0
220
0
230
1
0
LINE
5
9A
100
AcDbEntity
8
1
62
256
6
ByLayer
370
18
48
1
60
0
100
AcDbLine
10
20.050116
20
-7.372339
30
0
11
22.663203
21
-7.373972
31
0
39
0
210
0
220
0
230
1
0
LINE
5
9B
100
AcDbEntity
8
1
62
256
6
ByLayer
370
18
48
1
60
0
100
AcDbLine
10
22.663203
20
7.373972
30
0
11
20.050116
21
7.372339
31
0
39
0
210
0
220
0
230
1
0
LINE
5
9C
100
AcDbEntity
8
1
62
256
6
ByLayer
370
18
48
1
60
0
100
AcDbLine
10
2.567472
20
7.361412
30
0
11
1.280083
21
7.360607
31
0
39
0
210
0
220
0
230
1
0
LINE
5
9D
100
AcDbEntity
8
SK1
62
256
6
ByLayer
370
18
48
1
60
0
100
AcDbLine
10
-48
20
-5.55
30
0
11
-45.55
21
-8
31
0
39
0
210
0
220
0
230
1
0
LINE
5
9E
100
AcDbEntity
8
SK1
62
256
6
ByLayer
370
18
48
1
60
0
100
AcDbLine
10
-45.55
20
8
30
0
11
-48
21
5.55
31
0
39
0
210
0
220
0
230
1
0
LINE
5
9F
100
AcDbEntity
8
SK1
62
256
6
ByLayer
370
18
48
1
60
0
100
AcDbLine
10
-45.55
20
-8
30
0
11
0
21
-8
31
0
39
0
210
0
220
0
230
1
0
LINE
5
A0
100
AcDbEntity
8
SK1
62
256
6
ByLayer
370
18
48
1
60
0
100
AcDbLine
10
0
20
8
30
0
11
-45.55
21
8
31
0
39
0
210
0
220
0
230
1
0
LINE
5
A1
100
AcDbEntity
8
2
62
256
6
ByLayer
370
13
48
1
60
0
100
AcDbLine
10
80.75
20
-7.4
30
0
11
80.75
21
25.858065
31
0
39
0
210
0
220
0
230
1
0
LINE
5
A3
100
AcDbEntity
8
2
62
256
6
ByLayer
370
13
48
1
60
0
100
AcDbLine
10
68.5875
20
7.4
30
0
11
82.75
21
7.4
31
0
39
0
210
0
220
0
230
1
0
LINE
5
A4
100
AcDbEntity
8
2
62
256
6
ByLayer
370
13
48
1
60
0
100
AcDbLine
10
68.5875
20
-7.4
30
0
11
82.75
21
-7.4
31
0
39
0
210
0
220
0
230
1
0
LINE
5
A5
100
AcDbEntity
8
1
62
256
6
ByLayer
370
18
48
1
60
1
100
AcDbLine
10
80.75
20
7.4
30
0
11
81.210784
21
3.900002
31
0
39
0
210
0
220
0
230
1
0
LINE
5
A6
100
AcDbEntity
8
1
62
256
6
ByLayer
370
18
48
1
60
1
100
AcDbLine
10
81.210784
20
3.900002
30
0
11
80.289216
21
3.899998
31
0
39
0
210
0
220
0
230
1
0
LINE
5
A7
100
AcDbEntity
8
1
62
256
6
ByLayer
370
18
48
1
60
1
100
AcDbLine
10
80.289216
20
3.899998
30
0
11
80.75
21
7.4
31
0
39
0
210
0
220
0
230
1
0
LINE
5
A8
100
AcDbEntity
8
1
62
256
6
ByLayer
370
18
48
1
60
1
100
AcDbLine
10
80.75
20
-7.4
30
0
11
80.289216
21
-3.900002
31
0
39
0
210
0
220
0
230
1
0
LINE
5
A9
100
AcDbEntity
8
1
62
256
6
ByLayer
370
18
48
1
60
1
100
AcDbLine
10
80.289216
20
-3.900002
30
0
11
81.210784
21
-3.899998
31
0
39
0
210
0
220
0
230
1
0
LINE
5
AA
100
AcDbEntity
8
1
62
256
6
ByLayer
370
18
48
1
60
1
100
AcDbLine
10
81.210784
20
-3.899998
30
0
11
80.75
21
-7.4
31
0
39
0
210
0
220
0
230
1
0
LINE
5
AB
100
AcDbEntity
8
SK2
62
256
6
ByLayer
370
13
48
1
60
0
100
AcDbLine
10
-56.25
20
-8
30
0
11
-56.25
21
22.056066
31
0
39
0
210
0
220
0
230
1
0
LINE
5
AD
100
AcDbEntity
8
SK2
62
256
6
ByLayer
370
13
48
1
60
0
100
AcDbLine
10
-49.5875
20
8
30
0
11
-58.25
21
8
31
0
39
0
210
0
220
0
230
1
0
LINE
5
AE
100
AcDbEntity
8
SK2
62
256
6
ByLayer
370
13
48
1
60
0
100
AcDbLine
10
-49.5875
20
-8
30
0
11
-58.25
21
-8
31
0
39
0
210
0
220
0
230
1
0
LINE
5
AF
100
AcDbEntity
8
1
62
256
6
ByLayer
370
18
48
1
60
1
100
AcDbLine
10
-56.25
20
8
30
0
11
-55.789216
21
4.500002
31
0
39
0
210
0
220
0
230
1
0
LINE
5
B0
100
AcDbEntity
8
1
62
256
6
ByLayer
370
18
48
1
60
1
100
AcDbLine
10
-55.789216
20
4.500002
30
0
11
-56.710784
21
4.499998
31
0
39
0
210
0
220
0
230
1
0
LINE
5
B1
100
AcDbEntity
8
1
62
256
6
ByLayer
370
18
48
1
60
1
100
AcDbLine
10
-56.710784
20
4.499998
30
0
11
-56.25
21
8
31
0
39
0
210
0
220
0
230
1
0
LINE
5
B2
100
AcDbEntity
8
1
62
256
6
ByLayer
370
18
48
1
60
1
100
AcDbLine
10
-56.25
20
-8
30
0
11
-56.710784
21
-4.500002
31
0
39
0
210
0
220
0
230
1
0
LINE
5
B3
100
AcDbEntity
8
1
62
256
6
ByLayer
370
18
48
1
60
1
100
AcDbLine
10
-56.710784
20
-4.500002
30
0
11
-55.789216
21
-4.499998
31
0
39
0
210
0
220
0
230
1
0
LINE
5
B4
100
AcDbEntity
8
1
62
256
6
ByLayer
370
18
48
1
60
1
100
AcDbLine
10
-55.789216
20
-4.499998
30
0
11
-56.25
21
-8
31
0
39
0
210
0
220
0
230
1
0
LINE
5
B5
100
AcDbEntity
8
SK2
62
256
6
ByLayer
370
13
48
1
60
0
100
AcDbLine
10
67.542889
20
1.491787
30
0
11
79.789747
21
35.144496
31
0
39
0
210
0
220
0
230
1
0
LINE
5
B6
100
AcDbEntity
8
SK2
62
256
6
ByLayer
370
13
48
1
60
0
100
AcDbLine
10
67.542889
20
-1.491787
30
0
11
79.789747
21
-35.144496
31
0
39
0
210
0
220
0
230
1
0
LINE
5
B7
100
AcDbEntity
8
1
62
256
6
ByLayer
370
18
48
1
60
1
100
AcDbLine
10
79.105792
20
33.26508
30
0
11
82.53243
21
32.416281
31
0
39
0
210
0
220
0
230
1
0
LINE
5
B8
100
AcDbEntity
8
1
62
256
6
ByLayer
370
18
48
1
60
1
100
AcDbLine
10
82.53243
20
32.416281
30
0
11
82.195988
21
31.558322
31
0
39
0
210
0
220
0
230
1
0
LINE
5
B9
100
AcDbEntity
8
1
62
256
6
ByLayer
370
18
48
1
60
1
100
AcDbLine
10
82.195988
20
31.558322
30
0
11
79.105792
21
33.26508
31
0
39
0
210
0
220
0
230
1
0
LINE
5
BA
100
AcDbEntity
8
1
62
256
6
ByLayer
370
18
48
1
60
1
100
AcDbLine
10
79.105792
20
-33.26508
30
0
11
82.195985
21
-31.558323
31
0
39
0
210
0
220
0
230
1
0
LINE
5
BB
100
AcDbEntity
8
1
62
256
6
ByLayer
370
18
48
1
60
1
100
AcDbLine
10
82.195985
20
-31.558323
30
0
11
82.532433
21
-32.416279
31
0
39
0
210
0
220
0
230
1
0
LINE
5
BC
100
AcDbEntity
8
1
62
256
6
ByLayer
370
18
48
1
60
1
100
AcDbLine
10
82.532433
20
-32.416279
30
0
11
79.105792
21
-33.26508
31
0
39
0
210
0
220
0
230
1
0
LINE
5
10B
100
AcDbEntity
8
1
62
256
6
ByLayer
370
13
48
0.05
60
0
100
AcDbLine
10
-54.5
20
0
30
0
11
70.847534
21
0
31
0
39
0
210
0
220
0
230
1
0
LINE
5
110
100
AcDbEntity
8
1
62
256
6
ByLayer
370
18
48
1
60
1
100
AcDbLine
10
80.75
20
7.4
30
0
11
81.210784
21
3.900002
31
0
39
0
210
0
220
0
230
1
0
LINE
5
111
100
AcDbEntity
8
1
62
256
6
ByLayer
370
18
48
1
60
1
100
AcDbLine
10
81.210784
20
3.900002
30
0
11
80.289216
21
3.899998
31
0
39
0
210
0
220
0
230
1
0
LINE
5
112
100
AcDbEntity
8
1
62
256
6
ByLayer
370
18
48
1
60
1
100
AcDbLine
10
80.289216
20
3.899998
30
0
11
80.75
21
7.4
31
0
39
0
210
0
220
0
230
1
0
LINE
5
114
100
AcDbEntity
8
1
62
256
6
ByLayer
370
18
48
1
60
1
100
AcDbLine
10
80.75
20
-7.4
30
0
11
80.289216
21
-3.900002
31
0
39
0
210
0
220
0
230
1
0
LINE
5
115
100
AcDbEntity
8
1
62
256
6
ByLayer
370
18
48
1
60
1
100
AcDbLine
10
80.289216
20
-3.900002
30
0
11
81.210784
21
-3.899998
31
0
39
0
210
0
220
0
230
1
0
LINE
5
116
100
AcDbEntity
8
1
62
256
6
ByLayer
370
18
48
1
60
1
100
AcDbLine
10
81.210784
20
-3.899998
30
0
11
80.75
21
-7.4
31
0
39
0
210
0
220
0
230
1
0
LINE
5
11A
100
AcDbEntity
8
1
62
256
6
ByLayer
370
18
48
1
60
1
100
AcDbLine
10
-56.25
20
8
30
0
11
-55.789216
21
4.500002
31
0
39
0
210
0
220
0
230
1
0
LINE
5
11B
100
AcDbEntity
8
1
62
256
6
ByLayer
370
18
48
1
60
1
100
AcDbLine
10
-55.789216
20
4.500002
30
0
11
-56.710784
21
4.499998
31
0
39
0
210
0
220
0
230
1
0
LINE
5
11C
100
AcDbEntity
8
1
62
256
6
ByLayer
370
18
48
1
60
1
100
AcDbLine
10
-56.710784
20
4.499998
30
0
11
-56.25
21
8
31
0
39
0
210
0
220
0
230
1
0
LINE
5
11E
100
AcDbEntity
8
1
62
256
6
ByLayer
370
18
48
1
60
1
100
AcDbLine
10
-56.25
20
-8
30
0
11
-56.710784
21
-4.500002
31
0
39
0
210
0
220
0
230
1
0
LINE
5
11F
100
AcDbEntity
8
1
62
256
6
ByLayer
370
18
48
1
60
1
100
AcDbLine
10
-56.710784
20
-4.500002
30
0
11
-55.789216
21
-4.499998
31
0
39
0
210
0
220
0
230
1
0
LINE
5
120
100
AcDbEntity
8
1
62
256
6
ByLayer
370
18
48
1
60
1
100
AcDbLine
10
-55.789216
20
-4.499998
30
0
11
-56.25
21
-8
31
0
39
0
210
0
220
0
230
1
0
LINE
5
123
100
AcDbEntity
8
1
62
256
6
ByLayer
370
18
48
1
60
1
100
AcDbLine
10
79.105792
20
33.26508
30
0
11
82.53243
21
32.416281
31
0
39
0
210
0
220
0
230
1
0
LINE
5
124
100
AcDbEntity
8
1
62
256
6
ByLayer
370
18
48
1
60
1
100
AcDbLine
10
82.53243
20
32.416281
30
0
11
82.195988
21
31.558322
31
0
39
0
210
0
220
0
230
1
0
LINE
5
125
100
AcDbEntity
8
1
62
256
6
ByLayer
370
18
48
1
60
1
100
AcDbLine
10
82.195988
20
31.558322
30
0
11
79.105792
21
33.26508
31
0
39
0
210
0
220
0
230
1
0
LINE
5
127
100
AcDbEntity
8
1
62
256
6
ByLayer
370
18
48
1
60
1
100
AcDbLine
10
79.105792
20
-33.26508
30
0
11
82.195985
21
-31.558323
31
0
39
0
210
0
220
0
230
1
0
LINE
5
128
100
AcDbEntity
8
1
62
256
6
ByLayer
370
18
48
1
60
1
100
AcDbLine
10
82.195985
20
-31.558323
30
0
11
82.532433
21
-32.416279
31
0
39
0
210
0
220
0
230
1
0
LINE
5
129
100
AcDbEntity
8
1
62
256
6
ByLayer
370
18
48
1
60
1
100
AcDbLine
10
82.532433
20
-32.416279
30
0
11
79.105792
21
-33.26508
31
0
39
0
210
0
220
0
230
1
0
MTEXT
5
10C
100
AcDbEntity
8
2
62
256
6
ByLayer
370
18
48
1
60
0
100
AcDbMText
10
79.185366
20
11.334844
30
0
210
0
220
0
230
1
1
%%c
40
3.5
41
0
44
1.084337
50
90
71
7
72
5
7
iso_b_vert
0
MTEXT
5
10F
100
AcDbEntity
8
2
62
256
6
ByLayer
370
18
48
1
60
0
100
AcDbMText
10
79.185366
20
18.3075
30
0
210
0
220
0
230
1
1
\W0.6856;14.8
40
3.5
41
0
44
1.084337
50
90
71
7
72
5
7
iso_b_vert
0
MTEXT
5
118
100
AcDbEntity
8
SK2
62
256
6
ByLayer
370
18
48
1
60
0
100
AcDbMText
10
-57.814634
20
11.934844
30
0
210
0
220
0
230
1
1
%%c
40
3.5
41
0
44
1.084337
50
90
71
7
72
5
7
iso_b_vert
0
MTEXT
5
119
100
AcDbEntity
8
SK2
62
256
6
ByLayer
370
18
48
1
60
0
100
AcDbMText
10
-57.814634
20
18.9075
30
0
210
0
220
0
230
1
1
\W0.5321;16
40
3.5
41
0
44
1.084337
50
90
71
7
72
5
7
iso_b_vert
0
MTEXT
5
122
100
AcDbEntity
8
SK2
62
256
6
ByLayer
370
18
48
1
60
0
100
AcDbMText
10
98.327726
20
-2.467366
30
0
210
0
220
0
230
1
1
\W0.7825;140%%d
40
3.5
41
0
44
1.084337
50
0
71
7
72
5
7
iso_b_vert
0
MTEXT
5
12B
100
AcDbEntity
8
SK6
62
256
6
ByLayer
370
18
48
1
60
0
100
AcDbMText
10
-18.496508
20
-97.467366
30
0
210
0
220
0
230
1
1
\W0.7488;860.1-1480-045A1-MM M2BM
40
3.5
41
0
44
1.084337
50
0
71
7
72
5
7
iso_b_vert
0
HATCH
5
113
100
AcDbEntity
8
2
62
256
6
ByLayer
370
13
48
1
60
0
100
AcDbHatch
10
0
20
0
30
0
210
0
220
0
230
1
2
ANSI31
70
0
71
0
91
1
92
5
93
3
72
1
10
80.75
20
7.40000000000001
11
81.2107837415528
21
3.90000169255319
72
1
10
81.2107837415528
20
3.90000169255319
11
80.2892162584472
21
3.89999830744682
72
1
10
80.2892162584472
20
3.89999830744682
11
80.75
21
7.40000000000001
97
0
75
0
76
1
52
0
41
0.0062
77
0
78
1
53
45
43
0
44
0
45
-0.0139193969876572
46
0.0139193969876572
79
0
47
0
98
1
10
0
20
0
0
HATCH
5
117
100
AcDbEntity
8
2
62
256
6
ByLayer
370
13
48
1
60
0
100
AcDbHatch
10
0
20
0
30
0
210
0
220
0
230
1
2
ANSI31
70
0
71
0
91
1
92
5
93
3
72
1
10
80.75
20
-7.40000000000001
11
80.2892162584472
21
-3.90000169255319
72
1
10
80.2892162584472
20
-3.90000169255319
11
81.2107837415528
21
-3.89999830744682
72
1
10
81.2107837415528
20
-3.89999830744682
11
80.75
21
-7.40000000000001
97
0
75
0
76
1
52
0
41
0.0062
77
0
78
1
53
45
43
0
44
0
45
-0.0139193969876572
46
0.0139193969876572
79
0
47
0
98
1
10
0
20
0
0
HATCH
5
11D
100
AcDbEntity
8
SK2
62
256
6
ByLayer
370
13
48
1
60
0
100
AcDbHatch
10
0
20
0
30
0
210
0
220
0
230
1
2
ANSI31
70
0
71
0
91
1
92
5
93
3
72
1
10
-56.25
20
8
11
-55.7892162584472
21
4.50000169255318
72
1
10
-55.7892162584472
20
4.50000169255318
11
-56.7107837415528
21
4.49999830744682
72
1
10
-56.7107837415528
20
4.49999830744682
11
-56.25
21
8
97
0
75
0
76
1
52
0
41
0.0062
77
0
78
1
53
45
43
0
44
0
45
-0.0139193969876572
46
0.0139193969876572
79
0
47
0
98
1
10
0
20
0
0
HATCH
5
121
100
AcDbEntity
8
SK2
62
256
6
ByLayer
370
13
48
1
60
0
100
AcDbHatch
10
0
20
0
30
0
210
0
220
0
230
1
2
ANSI31
70
0
71
0
91
1
92
5
93
3
72
1
10
-56.25
20
-8
11
-56.7107837415528
21
-4.50000169255318
72
1
10
-56.7107837415528
20
-4.50000169255318
11
-55.7892162584472
21
-4.49999830744682
72
1
10
-55.7892162584472
20
-4.49999830744682
11
-56.25
21
-8
97
0
75
0
76
1
52
0
41
0.0062
77
0
78
1
53
45
43
0
44
0
45
-0.0139193969876572
46
0.0139193969876572
79
0
47
0
98
1
10
0
20
0
0
HATCH
5
126
100
AcDbEntity
8
SK2
62
256
6
ByLayer
370
13
48
1
60
0
100
AcDbHatch
10
0
20
0
30
0
210
0
220
0
230
1
2
ANSI31
70
0
71
0
91
1
92
5
93
3
72
1
10
79.1057919856288
20
33.2650800941952
11
82.5324301653316
21
32.4162805925384
72
1
10
82.5324301653316
20
32.4162805925384
11
82.1959877620861
21
31.5583218900198
72
1
10
82.1959877620861
20
31.5583218900198
11
79.1057919856288
21
33.2650800941952
97
0
75
0
76
1
52
0
41
0.0062
77
0
78
1
53
45
43
0
44
0
45
-0.0139193969876572
46
0.0139193969876572
79
0
47
0
98
1
10
0
20
0
0
HATCH
5
12A
100
AcDbEntity
8
SK2
62
256
6
ByLayer
370
13
48
1
60
0
100
AcDbHatch
10
0
20
0
30
0
210
0
220
0
230
1
2
ANSI31
70
0
71
0
91
1
92
5
93
3
72
1
10
79.1057919856291
20
-33.2650800941951
11
82.1959846106327
21
-31.5583231258532
72
1
10
82.1959846106327
20
-31.5583231258532
11
82.5324333167856
21
-32.4162793567047
72
1
10
82.5324333167856
20
-32.4162793567047
11
79.1057919856291
21
-33.2650800941951
97
0
75
0
76
1
52
0
41
0.0062
77
0
78
1
53
45
43
0
44
0
45
-0.0139193969876572
46
0.0139193969876572
79
0
47
0
98
1
10
0
20
0
0
DIMENSION
5
12E
100
AcDbEntity
8
2
62
256
6
ByLayer
370
18
48
1
60
0
100
AcDbDimension
2
_U0
10
67
20
-65.906987
30
0
11
9.5
21
-65.906987
31
0
70
32
71
1
72
1
41
1
210
0
220
0
230
1
3
Standard
100
AcDbAlignedDimension
13
-48
23
-8
33
0
14
67
24
-7.4
34
0
50
0
100
AcDbRotatedDimension
1001
ACAD
1000
DSTYLE
1002
{
1070
   371
1070
    13
1070
   372
1070
    13
1070
     3
1000

1070
   170
1070
     0
1070
   144
1040
1.0
1070
   277
1070
     2
1070
   284
1070
     8
1070
   278
1070
    46
1070
   146
1040
1.0
1070
   345
1005
16
1070
   347
1005
16
1070
   346
1005
16
1070
   344
1005
0
1070
   343
1005
0
1070
   172
1070
     1
1070
    76
1070
     0
1070
    75
1070
     0
1070
   282
1070
     0
1070
   281
1070
     0
1070
    71
1070
     0
1070
    74
1070
     0
1070
   279
1070
     0
1070
   173
1070
     1
1070
   340
1005
10D
1070
   271
1070
     2
1070
   272
1070
     2
1070
    77
1070
     1
1070
    73
1070
     1
1070
   171
1070
     3
1070
   274
1070
     4
1070
   177
1070
     2
1070
   176
1070
     2
1070
   178
1070
     2
1070
    78
1070
     8
1070
    48
1040
-0.1
1070
    41
1040
3.5
1070
   147
1040
1.75
1070
    42
1040
1.5875
1070
    44
1040
2.0
1070
   140
1040
3.5
1002
}
1001
ACAD_DSTYLE_DIM_LINETYPE
1070
   380
1005
16
1001
ACAD_DSTYLE_DIM_EXT1_LINETYPE
1070
   381
1005
16
1001
ACAD_DSTYLE_DIM_EXT2_LINETYPE
1070
   382
1005
16
0
DIMENSION
5
147
100
AcDbEntity
8
SK2
62
256
6
ByLayer
370
18
48
1
60
0
100
AcDbDimension
2
_U1
10
2
20
-45.906987
30
0
11
34.5
21
-45.906987
31
0
70
32
71
1
72
1
41
1
210
0
220
0
230
1
3
Standard
100
AcDbAlignedDimension
13
67
23
-7.4
33
0
14
2
24
-7.4
34
0
50
0
100
AcDbRotatedDimension
1001
ACAD
1000
DSTYLE
1002
{
1070
   371
1070
    13
1070
   372
1070
    13
1070
     3
1000

1070
   170
1070
     0
1070
   144
1040
1.0
1070
   277
1070
     2
1070
   284
1070
     8
1070
   278
1070
    46
1070
   146
1040
1.0
1070
   345
1005
16
1070
   347
1005
16
1070
   346
1005
16
1070
   344
1005
0
1070
   343
1005
0
1070
   172
1070
     1
1070
    76
1070
     0
1070
    75
1070
     0
1070
   282
1070
     0
1070
   281
1070
     0
1070
    71
1070
     0
1070
    74
1070
     0
1070
   279
1070
     0
1070
   173
1070
     1
1070
   340
1005
10D
1070
   271
1070
     2
1070
   272
1070
     2
1070
    77
1070
     1
1070
    73
1070
     1
1070
   171
1070
     3
1070
   274
1070
     4
1070
   177
1070
     2
1070
   176
1070
     2
1070
   178
1070
     2
1070
    78
1070
     8
1070
    48
1040
-0.1
1070
    41
1040
3.5
1070
   147
1040
1.75
1070
    42
1040
1.5875
1070
    44
1040
2.0
1070
   140
1040
3.5
1002
}
1001
ACAD_DSTYLE_DIM_LINETYPE
1070
   380
1005
16
1001
ACAD_DSTYLE_DIM_EXT1_LINETYPE
1070
   381
1005
16
1001
ACAD_DSTYLE_DIM_EXT2_LINETYPE
1070
   382
1005
16
0
DIMENSION
5
15F
100
AcDbEntity
8
SK2
62
256
6
ByLayer
370
18
48
1
60
0
100
AcDbDimension
2
_U2
10
22
20
-35.906987
30
0
11
44.5
21
-35.906987
31
0
70
32
71
1
72
1
41
1
210
0
220
0
230
1
3
Standard
100
AcDbAlignedDimension
13
67
23
-7.4
33
0
14
22
24
-7.4
34
0
50
0
100
AcDbRotatedDimension
1001
ACAD
1000
DSTYLE
1002
{
1070
   371
1070
    13
1070
   372
1070
    13
1070
     3
1000

1070
   170
1070
     0
1070
   144
1040
1.0
1070
   277
1070
     2
1070
   284
1070
     8
1070
   278
1070
    46
1070
   146
1040
1.0
1070
   345
1005
16
1070
   347
1005
16
1070
   346
1005
16
1070
   344
1005
0
1070
   343
1005
0
1070
   172
1070
     1
1070
    76
1070
     0
1070
    75
1070
     0
1070
   282
1070
     0
1070
   281
1070
     0
1070
    71
1070
     0
1070
    74
1070
     0
1070
   279
1070
     0
1070
   173
1070
     1
1070
   340
1005
10D
1070
   271
1070
     2
1070
   272
1070
     2
1070
    77
1070
     1
1070
    73
1070
     1
1070
   171
1070
     3
1070
   274
1070
     4
1070
   177
1070
     2
1070
   176
1070
     2
1070
   178
1070
     2
1070
    78
1070
     8
1070
    48
1040
-0.1
1070
    41
1040
3.5
1070
   147
1040
1.75
1070
    42
1040
1.5875
1070
    44
1040
2.0
1070
   140
1040
3.5
1002
}
1001
ACAD_DSTYLE_DIM_LINETYPE
1070
   380
1005
16
1001
ACAD_DSTYLE_DIM_EXT1_LINETYPE
1070
   381
1005
16
1001
ACAD_DSTYLE_DIM_EXT2_LINETYPE
1070
   382
1005
16
0
DIMENSION
5
179
100
AcDbEntity
8
SK2
62
256
6
ByLayer
370
18
48
1
60
0
100
AcDbDimension
2
_U3
10
0
20
-45.906987
30
0
11
-24
21
-45.906987
31
0
70
32
71
1
72
1
41
1
210
0
220
0
230
1
3
Standard
100
AcDbAlignedDimension
13
-48
23
-8
33
0
14
0
24
-8
34
0
50
0
100
AcDbRotatedDimension
1001
ACAD
1000
DSTYLE
1002
{
1070
   371
1070
    13
1070
   372
1070
    13
1070
     3
1000

1070
   170
1070
     0
1070
   144
1040
1.0
1070
   277
1070
     2
1070
   284
1070
     8
1070
   278
1070
    46
1070
   146
1040
1.0
1070
   345
1005
16
1070
   347
1005
16
1070
   346
1005
16
1070
   344
1005
0
1070
   343
1005
0
1070
   172
1070
     1
1070
    76
1070
     0
1070
    75
1070
     0
1070
   282
1070
     0
1070
   281
1070
     0
1070
    71
1070
     0
1070
    74
1070
     0
1070
   279
1070
     0
1070
   173
1070
     1
1070
   340
1005
10D
1070
   271
1070
     2
1070
   272
1070
     2
1070
    77
1070
     1
1070
    73
1070
     1
1070
   171
1070
     3
1070
   274
1070
     4
1070
   177
1070
     2
1070
   176
1070
     2
1070
   178
1070
     2
1070
    78
1070
     8
1070
    48
1040
-0.1
1070
    41
1040
3.5
1070
   147
1040
1.75
1070
    42
1040
1.5875
1070
    44
1040
2.0
1070
   140
1040
3.5
1002
}
1001
ACAD_DSTYLE_DIM_LINETYPE
1070
   380
1005
16
1001
ACAD_DSTYLE_DIM_EXT1_LINETYPE
1070
   381
1005
16
1001
ACAD_DSTYLE_DIM_EXT2_LINETYPE
1070
   382
1005
16
0
DIMENSION
5
191
100
AcDbEntity
8
SK2
62
256
6
ByLayer
370
18
48
1
60
0
100
AcDbDimension
2
_U4
10
67
20
-55.906987
30
0
11
33.5
21
-55.906987
31
0
70
32
71
1
72
1
41
1
210
0
220
0
230
1
3
Standard
100
AcDbAlignedDimension
13
0
23
-8
33
0
14
67
24
-7.4
34
0
50
0
100
AcDbRotatedDimension
1001
ACAD
1000
DSTYLE
1002
{
1070
   371
1070
    13
1070
   372
1070
    13
1070
     3
1000

1070
   170
1070
     0
1070
   144
1040
1.0
1070
   277
1070
     2
1070
   284
1070
     8
1070
   278
1070
    46
1070
   146
1040
1.0
1070
   345
1005
16
1070
   347
1005
16
1070
   346
1005
16
1070
   344
1005
0
1070
   343
1005
0
1070
   172
1070
     1
1070
    76
1070
     0
1070
    75
1070
     0
1070
   282
1070
     0
1070
   281
1070
     0
1070
    71
1070
     0
1070
    74
1070
     0
1070
   279
1070
     0
1070
   173
1070
     1
1070
   340
1005
10D
1070
   271
1070
     2
1070
   272
1070
     2
1070
    77
1070
     1
1070
    73
1070
     1
1070
   171
1070
     3
1070
   274
1070
     4
1070
   177
1070
     2
1070
   176
1070
     2
1070
   178
1070
     2
1070
    78
1070
     8
1070
    48
1040
-0.1
1070
    41
1040
3.5
1070
   147
1040
1.75
1070
    42
1040
1.5875
1070
    44
1040
2.0
1070
   140
1040
3.5
1002
}
1001
ACAD_DSTYLE_DIM_LINETYPE
1070
   380
1005
16
1001
ACAD_DSTYLE_DIM_EXT1_LINETYPE
1070
   381
1005
16
1001
ACAD_DSTYLE_DIM_EXT2_LINETYPE
1070
   382
1005
16
0
ENDSEC
0
SECTION
2
OBJECTS
0
DICTIONARY
5
219
330
0
100
AcDbDictionary
280
0
281
1
3
ACAD_GROUP
350
21a
3
ACAD_MLINESTYLE
350
21b
0
DICTIONARY
5
21a
330
0
100
AcDbDictionary
280
0
281
1
0
DICTIONARY
5
21b
330
0
100
AcDbDictionary
280
0
281
1
3
Standard
350
18
0
MLINESTYLE
5
18
330
21b
100
AcDbMlineStyle
2
Standard
70
0
3

62
256
51
90
52
90
71
2
49
-0.5
62
256
6
ByLayer
49
0.5
62
256
6
ByLayer
0
RASTERVARIABLES
5
207
330

100
AcDbRasterVariables
90
0
70
1
71
1
72
1
0
ENDSEC
0
EOF
