0
SECTION
2
HEADER
9
$ACADVER
1
AC1015
9
$DWGCODEPAGE
3
ANSI_1252
9
$HANDSEED
5
227
9
$ANGBASE
50
0
9
$ANGDIR
70
0
9
$ATTMODE
70
1
9
$AUNITS
70
0
9
$AUPREC
70
0
9
$CECOLOR
62
256
9
$CELTSCALE
40
1
9
$CELTYPE
6
ByLayer
9
$CELWEIGHT
370
18
9
$CLAYER
8
0
9
$CMLJUST
70
0
9
$CMLSCALE
40
1
9
$CMLSTYLE
2
Standard
9
$DIMSTYLE
2
Standard
9
$TEXTSIZE
40
0.2
9
$TEXTSTYLE
7
Standard
9
$LUNITS
70
2
9
$LUPREC
70
4
9
$EXTNAMES
290
1
9
$INSUNITS
70
4
9
$LTSCALE
40
1
9
$LWDISPLAY
290
1
9
$PDMODE
70
0
9
$PDSIZE
40
0
9
$PLINEGEN
70
0
0
ENDSEC
0
SECTION
2
CLASSES
0
CLASS
1
RASTERVARIABLES
2
AcDbRasterVariables
3
ISM
90
0
280
0
281
0
0
ENDSEC
0
SECTION
2
TABLES
0
TABLE
2
VPORT
5
21d
100
AcDbSymbolTable
0
VPORT
5
1
100
AcDbSymbolTableRecord
100
AcDbViewportTableRecord
2
*Active
70
0
10
0
20
0
11
1
21
1
12
-1
22
1
13
0
23
0
14
0.5
24
0.5
15
10
25
10
16
0
26
0
36
1
17
0
27
0
37
0
0
ENDTAB
0
TABLE
2
LTYPE
5
21e
100
AcDbSymbolTable
0
LTYPE
5
14
100
AcDbSymbolTableRecord
100
AcDbLinetypeTableRecord
70
0
2
ByBlock
3

72
65
73
0
40
0
0
LTYPE
5
15
100
AcDbSymbolTableRecord
100
AcDbLinetypeTableRecord
70
0
2
ByLayer
3

72
65
73
0
40
0
0
LTYPE
5
16
100
AcDbSymbolTableRecord
100
AcDbLinetypeTableRecord
70
0
2
Continuous
3
Solid line
72
65
73
0
40
0
0
LTYPE
5
6E
100
AcDbSymbolTableRecord
100
AcDbLinetypeTableRecord
70
0
2
CENTER
3
____ _ ____ _ ____ _ ____
72
65
73
4
40
47.5
49
22
74
0
49
-8.5
74
0
49
8.5
74
0
49
-8.5
74
0
0
LTYPE
5
6F
100
AcDbSymbolTableRecord
100
AcDbLinetypeTableRecord
70
0
2
DASHED
3
__ __ __ __ __ __ __ __ __
72
65
73
2
40
25.72
49
12.86
74
0
49
-12.86
74
0
0
ENDTAB
0
TABLE
2
LAYER
5
21f
100
AcDbSymbolTable
0
LAYER
5
10
100
AcDbSymbolTableRecord
100
AcDbLayerTableRecord
2
0
70
0
62
7
6
Continuous
290
1
370
-3
390
0
0
LAYER
5
71
100
AcDbSymbolTableRecord
100
AcDbLayerTableRecord
2
80
70
0
62
-6
6
Continuous
290
1
370
-3
390
0
0
LAYER
5
73
100
AcDbSymbolTableRecord
100
AcDbLayerTableRecord
2
81
70
0
62
-3
6
Continuous
290
1
370
-3
390
0
0
LAYER
5
7B
100
AcDbSymbolTableRecord
100
AcDbLayerTableRecord
2
1
70
0
62
4
6
Continuous
290
1
370
-3
390
0
0
LAYER
5
10E
100
AcDbSymbolTableRecord
100
AcDbLayerTableRecord
2
4
70
0
62
-2
6
CENTER
290
1
370
-3
390
0
0
LAYER
5
113
100
AcDbSymbolTableRecord
100
AcDbLayerTableRecord
2
Defpoints
70
0
62
7
6
Continuous
290
0
370
-3
390
0
0
LAYER
5
19F
100
AcDbSymbolTableRecord
100
AcDbLayerTableRecord
2
2
70
0
62
7
6
Continuous
290
1
370
-3
390
0
0
LAYER
5
208
100
AcDbSymbolTableRecord
100
AcDbLayerTableRecord
2
SK3
70
0
62
1
6
DASHED
290
1
370
-3
390
0
0
LAYER
5
209
100
AcDbSymbolTableRecord
100
AcDbLayerTableRecord
2
SK1
70
0
62
4
6
Continuous
290
1
370
-3
390
0
0
LAYER
5
20a
100
AcDbSymbolTableRecord
100
AcDbLayerTableRecord
2
SK4
70
0
62
2
6
CENTER
290
1
370
-3
390
0
0
LAYER
5
20b
100
AcDbSymbolTableRecord
100
AcDbLayerTableRecord
2
SK6
70
0
62
5
6
Continuous
290
1
370
-3
390
0
0
LAYER
5
20c
100
AcDbSymbolTableRecord
100
AcDbLayerTableRecord
2
SK2
70
0
62
7
6
Continuous
290
1
370
-3
390
0
0
ENDTAB
0
TABLE
2
STYLE
5
220
100
AcDbSymbolTable
0
STYLE
5
11
100
AcDbSymbolTableRecord
100
AcDbTextStyleTableRecord
2
Standard
3
txt
70
0
71
0
40
0
41
1
42
0
50
0
0
STYLE
5
10A
100
AcDbSymbolTableRecord
100
AcDbTextStyleTableRecord
2
iso_b_vert
3
simplex.shx
70
0
71
0
40
0
41
1
42
0
50
0
0
STYLE
5
10B
100
AcDbSymbolTableRecord
100
AcDbTextStyleTableRecord
2
DWGDirectTextStyle
3
simplex
70
0
71
0
40
0
41
1
42
0
50
0
0
ENDTAB
0
TABLE
2
DIMSTYLE
5
221
100
AcDbSymbolTable
100
AcDbDimStyleTable
0
DIMSTYLE
105
27
100
AcDbSymbolTableRecord
100
AcDbDimStyleTableRecord
2
Standard
70
0
3
<>
41
0.18
42
0.0625
44
0.18
140
0.18
147
0.09
73
0
74
0
77
1
271
2
275
0
278
52
280
0
340
11
0
ENDTAB
0
TABLE
2
VIEW
5
222
100
AcDbSymbolTable
0
ENDTAB
0
TABLE
2
UCS
5
223
100
AcDbSymbolTable
0
ENDTAB
0
TABLE
2
APPID
5
224
100
AcDbSymbolTable
0
APPID
5
12
100
AcDbSymbolTableRecord
100
AcDbRegAppTableRecord
2
ACAD
70
0
0
APPID
5
10F
100
AcDbSymbolTableRecord
100
AcDbRegAppTableRecord
2
ACAD_DSTYLE_DIMBREAK
70
0
0
APPID
5
1C7
100
AcDbSymbolTableRecord
100
AcDbRegAppTableRecord
2
ACAD_DSTYLE_DIM_LINETYPE
70
0
0
APPID
5
1C8
100
AcDbSymbolTableRecord
100
AcDbRegAppTableRecord
2
ACAD_DSTYLE_DIM_EXT1_LINETYPE
70
0
0
APPID
5
1C9
100
AcDbSymbolTableRecord
100
AcDbRegAppTableRecord
2
ACAD_DSTYLE_DIM_EXT2_LINETYPE
70
0
0
APPID
5
204
100
AcDbSymbolTableRecord
100
AcDbRegAppTableRecord
2
ACAD_MLEADERVER
70
0
0
ENDTAB
0
TABLE
2
BLOCK_RECORD
5
225
100
AcDbSymbolTable
0
BLOCK_RECORD
5
1F
100
AcDbSymbolTableRecord
100
AcDbBlockTableRecord
2
*Model_Space
340
0
70
0
0
BLOCK_RECORD
5
1B
100
AcDbSymbolTableRecord
100
AcDbBlockTableRecord
2
*Paper_Space
340
0
70
0
0
BLOCK_RECORD
5
23
100
AcDbSymbolTableRecord
100
AcDbBlockTableRecord
2
*Paper_Space0
340
0
70
0
0
BLOCK_RECORD
5
114
100
AcDbSymbolTableRecord
100
AcDbBlockTableRecord
2
*D1
340
0
70
0
0
BLOCK_RECORD
5
121
100
AcDbSymbolTableRecord
100
AcDbBlockTableRecord
2
_U0
340
0
70
0
0
BLOCK_RECORD
5
12E
100
AcDbSymbolTableRecord
100
AcDbBlockTableRecord
2
*D3
340
0
70
0
0
BLOCK_RECORD
5
13C
100
AcDbSymbolTableRecord
100
AcDbBlockTableRecord
2
_U1
340
0
70
0
0
BLOCK_RECORD
5
149
100
AcDbSymbolTableRecord
100
AcDbBlockTableRecord
2
*D5
340
0
70
0
0
BLOCK_RECORD
5
155
100
AcDbSymbolTableRecord
100
AcDbBlockTableRecord
2
_U2
340
0
70
0
0
BLOCK_RECORD
5
161
100
AcDbSymbolTableRecord
100
AcDbBlockTableRecord
2
*D7
340
0
70
0
0
BLOCK_RECORD
5
16D
100
AcDbSymbolTableRecord
100
AcDbBlockTableRecord
2
_U3
340
0
70
0
0
BLOCK_RECORD
5
179
100
AcDbSymbolTableRecord
100
AcDbBlockTableRecord
2
*D9
340
0
70
0
0
BLOCK_RECORD
5
185
100
AcDbSymbolTableRecord
100
AcDbBlockTableRecord
2
_U4
340
0
70
0
0
BLOCK_RECORD
5
192
100
AcDbSymbolTableRecord
100
AcDbBlockTableRecord
2
*D11
340
0
70
0
0
BLOCK_RECORD
5
1A0
100
AcDbSymbolTableRecord
100
AcDbBlockTableRecord
2
_U5
340
0
70
0
0
ENDTAB
0
ENDSEC
0
SECTION
2
BLOCKS
0
BLOCK
5
20
100
AcDbEntity
8
0
100
AcDbBlockBegin
2
*Model_Space
70
0
10
0
20
0
30
0
3
*Model_Space
0
ENDBLK
5
21
100
AcDbEntity
8
0
100
AcDbBlockEnd
0
BLOCK
5
1C
100
AcDbEntity
8
0
100
AcDbBlockBegin
2
*Paper_Space
70
0
10
0
20
0
30
0
3
*Paper_Space
0
ENDBLK
5
1D
100
AcDbEntity
8
0
100
AcDbBlockEnd
0
BLOCK
5
24
100
AcDbEntity
8
0
100
AcDbBlockBegin
2
*Paper_Space0
70
0
10
0
20
0
30
0
3
*Paper_Space0
0
ENDBLK
5
25
100
AcDbEntity
8
0
100
AcDbBlockEnd
0
BLOCK
5
115
100
AcDbEntity
8
0
100
AcDbBlockBegin
2
*D1
70
1
10
0
20
0
30
0
3
*D1
0
LINE
5
117
100
AcDbEntity
8
0
62
256
6
ByLayer
370
-2
48
1
60
0
100
AcDbLine
10
3.5875
20
14.991664
30
0
11
38.231357
21
14.991664
31
0
39
0
210
0
220
0
230
1
0
LINE
5
118
100
AcDbEntity
8
0
62
256
6
ByLayer
370
-2
48
1
60
0
100
AcDbLine
10
3.5875
20
-14.991664
30
0
11
38.231357
21
-14.991664
31
0
39
0
210
0
220
0
230
1
0
LINE
5
119
100
AcDbEntity
8
0
62
256
6
ByLayer
370
-2
48
1
60
0
100
AcDbLine
10
36.231357
20
11.816664
30
0
11
36.231357
21
-11.816664
31
0
39
0
210
0
220
0
230
1
0
SOLID
5
11A
100
AcDbEntity
8
0
62
256
6
ByLayer
370
-1
48
1
60
0
100
AcDbTrace
10
36.760524
20
11.816664
30
0
11
35.70219
21
11.816664
31
0
12
36.231357
22
14.991664
32
0
13
36.231357
23
14.991664
33
0
39
0
210
0
220
0
230
1
0
SOLID
5
11B
100
AcDbEntity
8
0
62
256
6
ByLayer
370
-1
48
1
60
0
100
AcDbTrace
10
35.70219
20
-11.816664
30
0
11
36.760524
21
-11.816664
31
0
12
36.231357
22
-14.991664
32
0
13
36.231357
23
-14.991664
33
0
39
0
210
0
220
0
230
1
0
MTEXT
5
11C
100
AcDbEntity
8
0
62
256
6
ByLayer
370
18
48
1
60
0
100
AcDbMText
10
30.231357
20
0
30
0
210
0
220
0
230
1
1
\A1;30
40
3
41
0
44
1
50
90
71
5
72
5
7
iso_b_vert
0
POINT
5
11D
100
AcDbEntity
8
Defpoints
62
0
6
ByLayer
370
-1
48
1
60
0
100
AcDbPoint
10
2
20
14.991664
30
0
39
0
210
0
220
0
230
1
50
360
0
POINT
5
11E
100
AcDbEntity
8
Defpoints
62
0
6
ByLayer
370
-1
48
1
60
0
100
AcDbPoint
10
2
20
-14.991664
30
0
39
0
210
0
220
0
230
1
50
360
0
POINT
5
11F
100
AcDbEntity
8
Defpoints
62
0
6
ByLayer
370
-1
48
1
60
0
100
AcDbPoint
10
36.231357
20
-14.991664
30
0
39
0
210
0
220
0
230
1
50
360
0
ENDBLK
5
116
100
AcDbEntity
8
0
100
AcDbBlockEnd
0
BLOCK
5
129
100
AcDbEntity
8
0
100
AcDbBlockBegin
2
_U0
70
0
10
0
20
0
30
0
3
_U0
0
MTEXT
5
122
100
AcDbEntity
8
SK2
62
256
6
ByLayer
370
18
48
1
60
0
100
AcDbMText
10
34.890243
20
-6.156828
30
0
210
0
220
0
230
1
1
%%c
40
3
41
0
44
1.084337
50
90
71
7
72
5
7
iso_b_vert
0
MTEXT
5
123
100
AcDbEntity
8
SK2
62
256
6
ByLayer
370
18
48
1
60
0
100
AcDbMText
10
34.890243
20
2.843172
30
0
210
0
220
0
230
1
1
\W0.6740;30
40
3
41
0
44
1.084337
50
90
71
7
72
5
7
iso_b_vert
0
LINE
5
124
100
AcDbEntity
8
SK2
62
256
6
ByLayer
370
13
48
1
60
0
100
AcDbLine
10
4.421815
20
14.991664
30
0
11
38.231357
21
14.991664
31
0
39
0
210
0
220
0
230
1
0
LINE
5
125
100
AcDbEntity
8
SK2
62
256
6
ByLayer
370
13
48
1
60
0
100
AcDbLine
10
4.421815
20
-14.991664
30
0
11
38.231357
21
-14.991664
31
0
39
0
210
0
220
0
230
1
0
LINE
5
126
100
AcDbEntity
8
SK2
62
256
6
ByLayer
370
13
48
1
60
0
100
AcDbLine
10
36.231357
20
14.991664
30
0
11
36.231357
21
-14.991664
31
0
39
0
210
0
220
0
230
1
0
SOLID
5
127
100
AcDbEntity
8
SK2
62
256
6
ByLayer
370
18
48
1
60
0
100
AcDbTrace
10
36.231357
20
14.991664
30
0
11
36.649354
21
11.816666
31
0
12
35.81336
22
11.816663
32
0
13
35.81336
23
11.816663
33
0
39
0
210
0
220
0
230
1
0
SOLID
5
128
100
AcDbEntity
8
SK2
62
256
6
ByLayer
370
18
48
1
60
0
100
AcDbTrace
10
36.231357
20
-14.991664
30
0
11
35.81336
21
-11.816666
31
0
12
36.649354
22
-11.816663
32
0
13
36.649354
23
-11.816663
33
0
39
0
210
0
220
0
230
1
0
ENDBLK
5
12A
100
AcDbEntity
8
0
100
AcDbBlockEnd
0
BLOCK
5
12F
100
AcDbEntity
8
0
100
AcDbBlockBegin
2
*D3
70
1
10
0
20
0
30
0
3
*D3
0
LINE
5
131
100
AcDbEntity
8
0
62
256
6
ByLayer
370
-2
48
1
60
0
100
AcDbLine
10
5.0875
20
4.7625
30
0
11
20.691306
21
4.7625
31
0
39
0
210
0
220
0
230
1
0
LINE
5
132
100
AcDbEntity
8
0
62
256
6
ByLayer
370
-2
48
1
60
0
100
AcDbLine
10
5.0875
20
-4.7625
30
0
11
20.691306
21
-4.7625
31
0
39
0
210
0
220
0
230
1
0
LINE
5
133
100
AcDbEntity
8
0
62
256
6
ByLayer
370
-2
48
1
60
0
100
AcDbLine
10
18.691306
20
-4.7625
30
0
11
18.691306
21
-42.54874
31
0
39
0
210
0
220
0
230
1
0
LINE
5
134
100
AcDbEntity
8
0
62
256
6
ByLayer
370
-2
48
1
60
0
100
AcDbLine
10
18.691306
20
7.9375
30
0
11
18.691306
21
11.1125
31
0
39
0
210
0
220
0
230
1
0
LINE
5
135
100
AcDbEntity
8
0
62
256
6
ByLayer
370
-2
48
1
60
0
100
AcDbLine
10
18.691306
20
-7.9375
30
0
11
18.691306
21
-11.1125
31
0
39
0
210
0
220
0
230
1
0
SOLID
5
136
100
AcDbEntity
8
0
62
256
6
ByLayer
370
-1
48
1
60
0
100
AcDbTrace
10
18.16214
20
7.9375
30
0
11
19.220473
21
7.9375
31
0
12
18.691306
22
4.7625
32
0
13
18.691306
23
4.7625
33
0
39
0
210
0
220
0
230
1
0
SOLID
5
137
100
AcDbEntity
8
0
62
256
6
ByLayer
370
-1
48
1
60
0
100
AcDbTrace
10
19.220473
20
-7.9375
30
0
11
18.16214
21
-7.9375
31
0
12
18.691306
22
-4.7625
32
0
13
18.691306
23
-4.7625
33
0
39
0
210
0
220
0
230
1
0
MTEXT
5
138
100
AcDbEntity
8
0
62
256
6
ByLayer
370
18
48
1
60
0
100
AcDbMText
10
12.691306
20
-32.04874
30
0
210
0
220
0
230
1
1
\A1;9.525
40
3
41
0
44
1
50
90
71
5
72
5
7
iso_b_vert
0
POINT
5
139
100
AcDbEntity
8
Defpoints
62
0
6
ByLayer
370
-1
48
1
60
0
100
AcDbPoint
10
3.5
20
4.7625
30
0
39
0
210
0
220
0
230
1
50
360
0
POINT
5
13A
100
AcDbEntity
8
Defpoints
62
0
6
ByLayer
370
-1
48
1
60
0
100
AcDbPoint
10
3.5
20
-4.7625
30
0
39
0
210
0
220
0
230
1
50
360
0
POINT
5
13B
100
AcDbEntity
8
Defpoints
62
0
6
ByLayer
370
-1
48
1
60
0
100
AcDbPoint
10
18.691306
20
-4.7625
30
0
39
0
210
0
220
0
230
1
50
360
0
ENDBLK
5
130
100
AcDbEntity
8
0
100
AcDbBlockEnd
0
BLOCK
5
144
100
AcDbEntity
8
0
100
AcDbBlockBegin
2
_U1
70
0
10
0
20
0
30
0
3
_U1
0
MTEXT
5
13D
100
AcDbEntity
8
SK2
62
256
6
ByLayer
370
18
48
1
60
0
100
AcDbMText
10
17.350192
20
-41.05511
30
0
210
0
220
0
230
1
1
%%c
40
3
41
0
44
1.084337
50
90
71
7
72
5
7
iso_b_vert
0
MTEXT
5
13E
100
AcDbEntity
8
SK2
62
256
6
ByLayer
370
18
48
1
60
0
100
AcDbMText
10
17.350192
20
-32.05511
30
0
210
0
220
0
230
1
1
\W0.7468;9.525
40
3
41
0
44
1.084337
50
90
71
7
72
5
7
iso_b_vert
0
LINE
5
13F
100
AcDbEntity
8
SK2
62
256
6
ByLayer
370
13
48
1
60
0
100
AcDbLine
10
5.0875
20
4.7625
30
0
11
20.691306
21
4.7625
31
0
39
0
210
0
220
0
230
1
0
LINE
5
140
100
AcDbEntity
8
SK2
62
256
6
ByLayer
370
13
48
1
60
0
100
AcDbLine
10
5.0875
20
-4.7625
30
0
11
20.691306
21
-4.7625
31
0
39
0
210
0
220
0
230
1
0
LINE
5
141
100
AcDbEntity
8
SK2
62
256
6
ByLayer
370
13
48
1
60
0
100
AcDbLine
10
18.691306
20
4.7625
30
0
11
18.691306
21
-41.19011
31
0
39
0
210
0
220
0
230
1
0
SOLID
5
142
100
AcDbEntity
8
SK2
62
256
6
ByLayer
370
18
48
1
60
0
100
AcDbTrace
10
18.691306
20
4.7625
30
0
11
19.109303
21
1.587502
31
0
12
18.27331
22
1.587498
32
0
13
18.27331
23
1.587498
33
0
39
0
210
0
220
0
230
1
0
SOLID
5
143
100
AcDbEntity
8
SK2
62
256
6
ByLayer
370
18
48
1
60
0
100
AcDbTrace
10
18.691306
20
-4.7625
30
0
11
18.27331
21
-1.587502
31
0
12
19.109303
22
-1.587498
32
0
13
19.109303
23
-1.587498
33
0
39
0
210
0
220
0
230
1
0
ENDBLK
5
145
100
AcDbEntity
8
0
100
AcDbBlockEnd
0
BLOCK
5
14A
100
AcDbEntity
8
0
100
AcDbBlockBegin
2
*D5
70
1
10
0
20
0
30
0
3
*D5
0
LINE
5
14C
100
AcDbEntity
8
0
62
256
6
ByLayer
370
-2
48
1
60
0
100
AcDbLine
10
4
20
-15.577458
30
0
11
4
21
-35.08054
31
0
39
0
210
0
220
0
230
1
0
LINE
5
14D
100
AcDbEntity
8
0
62
256
6
ByLayer
370
-2
48
1
60
0
100
AcDbLine
10
-56
20
-13.26374
30
0
11
-56
21
-35.08054
31
0
39
0
210
0
220
0
230
1
0
LINE
5
14E
100
AcDbEntity
8
0
62
256
6
ByLayer
370
-2
48
1
60
0
100
AcDbLine
10
0.825
20
-33.08054
30
0
11
-52.825
21
-33.08054
31
0
39
0
210
0
220
0
230
1
0
SOLID
5
14F
100
AcDbEntity
8
0
62
256
6
ByLayer
370
-1
48
1
60
0
100
AcDbTrace
10
0.825
20
-33.609707
30
0
11
0.825
21
-32.551373
31
0
12
4
22
-33.08054
32
0
13
4
23
-33.08054
33
0
39
0
210
0
220
0
230
1
0
SOLID
5
150
100
AcDbEntity
8
0
62
256
6
ByLayer
370
-1
48
1
60
0
100
AcDbTrace
10
-52.825
20
-32.551373
30
0
11
-52.825
21
-33.609707
31
0
12
-56
22
-33.08054
32
0
13
-56
23
-33.08054
33
0
39
0
210
0
220
0
230
1
0
MTEXT
5
151
100
AcDbEntity
8
0
62
256
6
ByLayer
370
18
48
1
60
0
100
AcDbMText
10
-26
20
-27.08054
30
0
210
0
220
0
230
1
1
\A1;60
40
3
41
0
44
1
50
0
71
5
72
5
7
iso_b_vert
0
POINT
5
152
100
AcDbEntity
8
Defpoints
62
0
6
ByLayer
370
-1
48
1
60
0
100
AcDbPoint
10
4
20
-13.989958
30
0
39
0
210
0
220
0
230
1
50
360
0
POINT
5
153
100
AcDbEntity
8
Defpoints
62
0
6
ByLayer
370
-1
48
1
60
0
100
AcDbPoint
10
-56
20
-11.67624
30
0
39
0
210
0
220
0
230
1
50
360
0
POINT
5
154
100
AcDbEntity
8
Defpoints
62
0
6
ByLayer
370
-1
48
1
60
0
100
AcDbPoint
10
-56
20
-33.08054
30
0
39
0
210
0
220
0
230
1
50
360
0
ENDBLK
5
14B
100
AcDbEntity
8
0
100
AcDbBlockEnd
0
BLOCK
5
15C
100
AcDbEntity
8
0
100
AcDbBlockBegin
2
_U2
70
0
10
0
20
0
30
0
3
_U2
0
MTEXT
5
156
100
AcDbEntity
8
SK2
62
256
6
ByLayer
370
18
48
1
60
0
100
AcDbMText
10
-27.632828
20
-32.195426
30
0
210
0
220
0
230
1
1
\W0.6740;60
40
3
41
0
44
1.084337
50
0
71
7
72
5
7
iso_b_vert
0
LINE
5
157
100
AcDbEntity
8
SK2
62
256
6
ByLayer
370
13
48
1
60
0
100
AcDbLine
10
4
20
-15.577458
30
0
11
4
21
-35.08054
31
0
39
0
210
0
220
0
230
1
0
LINE
5
158
100
AcDbEntity
8
SK2
62
256
6
ByLayer
370
13
48
1
60
0
100
AcDbLine
10
-56
20
-13.26374
30
0
11
-56
21
-35.08054
31
0
39
0
210
0
220
0
230
1
0
LINE
5
159
100
AcDbEntity
8
SK2
62
256
6
ByLayer
370
13
48
1
60
0
100
AcDbLine
10
4
20
-33.08054
30
0
11
-56
21
-33.08054
31
0
39
0
210
0
220
0
230
1
0
SOLID
5
15A
100
AcDbEntity
8
SK2
62
256
6
ByLayer
370
18
48
1
60
0
100
AcDbTrace
10
4
20
-33.08054
30
0
11
0.825002
21
-33.498537
31
0
12
0.824998
22
-32.662543
32
0
13
0.824998
23
-32.662543
33
0
39
0
210
0
220
0
230
1
0
SOLID
5
15B
100
AcDbEntity
8
SK2
62
256
6
ByLayer
370
18
48
1
60
0
100
AcDbTrace
10
-56
20
-33.08054
30
0
11
-52.825002
21
-32.662543
31
0
12
-52.824998
22
-33.498537
32
0
13
-52.824998
23
-33.498537
33
0
39
0
210
0
220
0
230
1
0
ENDBLK
5
15D
100
AcDbEntity
8
0
100
AcDbBlockEnd
0
BLOCK
5
162
100
AcDbEntity
8
0
100
AcDbBlockBegin
2
*D7
70
1
10
0
20
0
30
0
3
*D7
0
LINE
5
164
100
AcDbEntity
8
0
62
256
6
ByLayer
370
-2
48
1
60
0
100
AcDbLine
10
0
20
-15.412776
30
0
11
0
21
-22.458423
31
0
39
0
210
0
220
0
230
1
0
LINE
5
165
100
AcDbEntity
8
0
62
256
6
ByLayer
370
-2
48
1
60
0
100
AcDbLine
10
-56
20
-12.126175
30
0
11
-56
21
-22.458423
31
0
39
0
210
0
220
0
230
1
0
LINE
5
166
100
AcDbEntity
8
0
62
256
6
ByLayer
370
-2
48
1
60
0
100
AcDbLine
10
-3.175
20
-20.458423
30
0
11
-52.825
21
-20.458423
31
0
39
0
210
0
220
0
230
1
0
SOLID
5
167
100
AcDbEntity
8
0
62
256
6
ByLayer
370
-1
48
1
60
0
100
AcDbTrace
10
-3.175
20
-20.987589
30
0
11
-3.175
21
-19.929256
31
0
12
0
22
-20.458423
32
0
13
0
23
-20.458423
33
0
39
0
210
0
220
0
230
1
0
SOLID
5
168
100
AcDbEntity
8
0
62
256
6
ByLayer
370
-1
48
1
60
0
100
AcDbTrace
10
-52.825
20
-19.929256
30
0
11
-52.825
21
-20.987589
31
0
12
-56
22
-20.458423
32
0
13
-56
23
-20.458423
33
0
39
0
210
0
220
0
230
1
0
MTEXT
5
169
100
AcDbEntity
8
0
62
256
6
ByLayer
370
18
48
1
60
0
100
AcDbMText
10
-28
20
-14.458423
30
0
210
0
220
0
230
1
1
\A1;56
40
3
41
0
44
1
50
0
71
5
72
5
7
iso_b_vert
0
POINT
5
16A
100
AcDbEntity
8
Defpoints
62
0
6
ByLayer
370
-1
48
1
60
0
100
AcDbPoint
10
0
20
-13.825276
30
0
39
0
210
0
220
0
230
1
50
360
0
POINT
5
16B
100
AcDbEntity
8
Defpoints
62
0
6
ByLayer
370
-1
48
1
60
0
100
AcDbPoint
10
-56
20
-10.538675
30
0
39
0
210
0
220
0
230
1
50
360
0
POINT
5
16C
100
AcDbEntity
8
Defpoints
62
0
6
ByLayer
370
-1
48
1
60
0
100
AcDbPoint
10
-56
20
-20.458423
30
0
39
0
210
0
220
0
230
1
50
360
0
ENDBLK
5
163
100
AcDbEntity
8
0
100
AcDbBlockEnd
0
BLOCK
5
174
100
AcDbEntity
8
0
100
AcDbBlockBegin
2
_U3
70
0
10
0
20
0
30
0
3
_U3
0
MTEXT
5
16E
100
AcDbEntity
8
SK2
62
256
6
ByLayer
370
18
48
1
60
0
100
AcDbMText
10
-29.632828
20
-19.573308
30
0
210
0
220
0
230
1
1
\W0.6740;56
40
3
41
0
44
1.084337
50
0
71
7
72
5
7
iso_b_vert
0
LINE
5
16F
100
AcDbEntity
8
SK2
62
256
6
ByLayer
370
13
48
1
60
0
100
AcDbLine
10
0
20
-15.412776
30
0
11
0
21
-22.458423
31
0
39
0
210
0
220
0
230
1
0
LINE
5
170
100
AcDbEntity
8
SK2
62
256
6
ByLayer
370
13
48
1
60
0
100
AcDbLine
10
-56
20
-12.126175
30
0
11
-56
21
-22.458423
31
0
39
0
210
0
220
0
230
1
0
LINE
5
171
100
AcDbEntity
8
SK2
62
256
6
ByLayer
370
13
48
1
60
0
100
AcDbLine
10
0
20
-20.458423
30
0
11
-56
21
-20.458423
31
0
39
0
210
0
220
0
230
1
0
SOLID
5
172
100
AcDbEntity
8
SK2
62
256
6
ByLayer
370
18
48
1
60
0
100
AcDbTrace
10
0
20
-20.458423
30
0
11
-3.174998
21
-20.876419
31
0
12
-3.175002
22
-20.040426
32
0
13
-3.175002
23
-20.040426
33
0
39
0
210
0
220
0
230
1
0
SOLID
5
173
100
AcDbEntity
8
SK2
62
256
6
ByLayer
370
18
48
1
60
0
100
AcDbTrace
10
-56
20
-20.458423
30
0
11
-52.825002
21
-20.040426
31
0
12
-52.824998
22
-20.876419
32
0
13
-52.824998
23
-20.876419
33
0
39
0
210
0
220
0
230
1
0
ENDBLK
5
175
100
AcDbEntity
8
0
100
AcDbBlockEnd
0
BLOCK
5
17A
100
AcDbEntity
8
0
100
AcDbBlockBegin
2
*D9
70
1
10
0
20
0
30
0
3
*D9
0
LINE
5
17C
100
AcDbEntity
8
0
62
256
6
ByLayer
370
-2
48
1
60
0
100
AcDbLine
10
-56.560705
20
12.5
30
0
11
-71.211003
21
12.5
31
0
39
0
210
0
220
0
230
1
0
LINE
5
17D
100
AcDbEntity
8
0
62
256
6
ByLayer
370
-2
48
1
60
0
100
AcDbLine
10
-56.560705
20
-12.5
30
0
11
-71.211003
21
-12.5
31
0
39
0
210
0
220
0
230
1
0
LINE
5
17E
100
AcDbEntity
8
0
62
256
6
ByLayer
370
-2
48
1
60
0
100
AcDbLine
10
-69.211003
20
9.325
30
0
11
-69.211003
21
-9.325
31
0
39
0
210
0
220
0
230
1
0
SOLID
5
17F
100
AcDbEntity
8
0
62
256
6
ByLayer
370
-1
48
1
60
0
100
AcDbTrace
10
-68.681836
20
9.325
30
0
11
-69.740169
21
9.325
31
0
12
-69.211003
22
12.5
32
0
13
-69.211003
23
12.5
33
0
39
0
210
0
220
0
230
1
0
SOLID
5
180
100
AcDbEntity
8
0
62
256
6
ByLayer
370
-1
48
1
60
0
100
AcDbTrace
10
-69.740169
20
-9.325
30
0
11
-68.681836
21
-9.325
31
0
12
-69.211003
22
-12.5
32
0
13
-69.211003
23
-12.5
33
0
39
0
210
0
220
0
230
1
0
MTEXT
5
181
100
AcDbEntity
8
0
62
256
6
ByLayer
370
18
48
1
60
0
100
AcDbMText
10
-75.211003
20
0
30
0
210
0
220
0
230
1
1
\A1;25
40
3
41
0
44
1
50
90
71
5
72
5
7
iso_b_vert
0
POINT
5
182
100
AcDbEntity
8
Defpoints
62
0
6
ByLayer
370
-1
48
1
60
0
100
AcDbPoint
10
-54.973205
20
12.5
30
0
39
0
210
0
220
0
230
1
50
360
0
POINT
5
183
100
AcDbEntity
8
Defpoints
62
0
6
ByLayer
370
-1
48
1
60
0
100
AcDbPoint
10
-54.973205
20
-12.5
30
0
39
0
210
0
220
0
230
1
50
360
0
POINT
5
184
100
AcDbEntity
8
Defpoints
62
0
6
ByLayer
370
-1
48
1
60
0
100
AcDbPoint
10
-69.211003
20
-12.5
30
0
39
0
210
0
220
0
230
1
50
360
0
ENDBLK
5
17B
100
AcDbEntity
8
0
100
AcDbBlockEnd
0
BLOCK
5
18D
100
AcDbEntity
8
0
100
AcDbBlockBegin
2
_U4
70
0
10
0
20
0
30
0
3
_U4
0
MTEXT
5
186
100
AcDbEntity
8
SK2
62
256
6
ByLayer
370
18
48
1
60
0
100
AcDbMText
10
-70.552117
20
-6.156828
30
0
210
0
220
0
230
1
1
%%c
40
3
41
0
44
1.084337
50
90
71
7
72
5
7
iso_b_vert
0
MTEXT
5
187
100
AcDbEntity
8
SK2
62
256
6
ByLayer
370
18
48
1
60
0
100
AcDbMText
10
-70.552117
20
2.843172
30
0
210
0
220
0
230
1
1
\W0.6740;25
40
3
41
0
44
1.084337
50
90
71
7
72
5
7
iso_b_vert
0
LINE
5
188
100
AcDbEntity
8
SK2
62
256
6
ByLayer
370
13
48
1
60
0
100
AcDbLine
10
-56.560705
20
12.5
30
0
11
-71.211003
21
12.5
31
0
39
0
210
0
220
0
230
1
0
LINE
5
189
100
AcDbEntity
8
SK2
62
256
6
ByLayer
370
13
48
1
60
0
100
AcDbLine
10
-56.560705
20
-12.5
30
0
11
-71.211003
21
-12.5
31
0
39
0
210
0
220
0
230
1
0
LINE
5
18A
100
AcDbEntity
8
SK2
62
256
6
ByLayer
370
13
48
1
60
0
100
AcDbLine
10
-69.211003
20
12.5
30
0
11
-69.211003
21
-12.5
31
0
39
0
210
0
220
0
230
1
0
SOLID
5
18B
100
AcDbEntity
8
SK2
62
256
6
ByLayer
370
18
48
1
60
0
100
AcDbTrace
10
-69.211003
20
12.5
30
0
11
-68.793006
21
9.325002
31
0
12
-69.628999
22
9.324998
32
0
13
-69.628999
23
9.324998
33
0
39
0
210
0
220
0
230
1
0
SOLID
5
18C
100
AcDbEntity
8
SK2
62
256
6
ByLayer
370
18
48
1
60
0
100
AcDbTrace
10
-69.211003
20
-12.5
30
0
11
-69.628999
21
-9.325002
31
0
12
-68.793006
22
-9.324998
32
0
13
-68.793006
23
-9.324998
33
0
39
0
210
0
220
0
230
1
0
ENDBLK
5
18E
100
AcDbEntity
8
0
100
AcDbBlockEnd
0
BLOCK
5
193
100
AcDbEntity
8
0
100
AcDbBlockBegin
2
*D11
70
1
10
0
20
0
30
0
3
*D11
0
LINE
5
195
100
AcDbEntity
8
0
62
256
6
ByLayer
370
-2
48
1
60
0
100
AcDbLine
10
4
20
15.577458
30
0
11
4
21
22.777521
31
0
39
0
210
0
220
0
230
1
0
LINE
5
196
100
AcDbEntity
8
0
62
256
6
ByLayer
370
-2
48
1
60
0
100
AcDbLine
10
0
20
15.412776
30
0
11
0
21
22.777521
31
0
39
0
210
0
220
0
230
1
0
LINE
5
197
100
AcDbEntity
8
0
62
256
6
ByLayer
370
-2
48
1
60
0
100
AcDbLine
10
7.175
20
20.777521
30
0
11
10.35
21
20.777521
31
0
39
0
210
0
220
0
230
1
0
LINE
5
198
100
AcDbEntity
8
0
62
256
6
ByLayer
370
-2
48
1
60
0
100
AcDbLine
10
-3.175
20
20.777521
30
0
11
-6.35
21
20.777521
31
0
39
0
210
0
220
0
230
1
0
SOLID
5
199
100
AcDbEntity
8
0
62
256
6
ByLayer
370
-1
48
1
60
0
100
AcDbTrace
10
7.175
20
21.306688
30
0
11
7.175
21
20.248354
31
0
12
4
22
20.777521
32
0
13
4
23
20.777521
33
0
39
0
210
0
220
0
230
1
0
SOLID
5
19A
100
AcDbEntity
8
0
62
256
6
ByLayer
370
-1
48
1
60
0
100
AcDbTrace
10
-3.175
20
20.248354
30
0
11
-3.175
21
21.306688
31
0
12
0
22
20.777521
32
0
13
0
23
20.777521
33
0
39
0
210
0
220
0
230
1
0
MTEXT
5
19B
100
AcDbEntity
8
0
62
256
6
ByLayer
370
18
48
1
60
0
100
AcDbMText
10
2
20
26.777521
30
0
210
0
220
0
230
1
1
\A1;4
40
3
41
0
44
1
50
0
71
5
72
5
7
iso_b_vert
0
POINT
5
19C
100
AcDbEntity
8
Defpoints
62
0
6
ByLayer
370
-1
48
1
60
0
100
AcDbPoint
10
4
20
13.989958
30
0
39
0
210
0
220
0
230
1
50
360
0
POINT
5
19D
100
AcDbEntity
8
Defpoints
62
0
6
ByLayer
370
-1
48
1
60
0
100
AcDbPoint
10
0
20
13.825276
30
0
39
0
210
0
220
0
230
1
50
360
0
POINT
5
19E
100
AcDbEntity
8
Defpoints
62
0
6
ByLayer
370
-1
48
1
60
0
100
AcDbPoint
10
0
20
20.777521
30
0
39
0
210
0
220
0
230
1
50
360
0
ENDBLK
5
194
100
AcDbEntity
8
0
100
AcDbBlockEnd
0
BLOCK
5
1A7
100
AcDbEntity
8
0
100
AcDbBlockBegin
2
_U5
70
0
10
0
20
0
30
0
3
_U5
0
MTEXT
5
1A1
100
AcDbEntity
8
2
62
256
6
ByLayer
370
18
48
1
60
0
100
AcDbMText
10
1.330143
20
21.662635
30
0
210
0
220
0
230
1
1
\W0.6380;4
40
3
41
0
44
1.084337
50
0
71
7
72
5
7
iso_b_vert
0
LINE
5
1A2
100
AcDbEntity
8
2
62
256
6
ByLayer
370
13
48
1
60
0
100
AcDbLine
10
4
20
15.577458
30
0
11
4
21
22.777521
31
0
39
0
210
0
220
0
230
1
0
LINE
5
1A3
100
AcDbEntity
8
2
62
256
6
ByLayer
370
13
48
1
60
0
100
AcDbLine
10
0
20
15.412776
30
0
11
0
21
22.777521
31
0
39
0
210
0
220
0
230
1
0
LINE
5
1A4
100
AcDbEntity
8
2
62
256
6
ByLayer
370
13
48
1
60
0
100
AcDbLine
10
11.5
20
20.777521
30
0
11
-7.5
21
20.777521
31
0
39
0
210
0
220
0
230
1
0
SOLID
5
1A5
100
AcDbEntity
8
2
62
256
6
ByLayer
370
18
48
1
60
0
100
AcDbTrace
10
4
20
20.777521
30
0
11
7.174998
21
21.195518
31
0
12
7.175002
22
20.359524
32
0
13
7.175002
23
20.359524
33
0
39
0
210
0
220
0
230
1
0
SOLID
5
1A6
100
AcDbEntity
8
2
62
256
6
ByLayer
370
18
48
1
60
0
100
AcDbTrace
10
0
20
20.777521
30
0
11
-3.174998
21
20.359524
31
0
12
-3.175002
22
21.195518
32
0
13
-3.175002
23
21.195518
33
0
39
0
210
0
220
0
230
1
0
ENDBLK
5
1A8
100
AcDbEntity
8
0
100
AcDbBlockEnd
0
ENDSEC
0
SECTION
2
ENTITIES
0
ARC
5
E4
100
AcDbEntity
8
SK1
62
256
6
ByLayer
370
50
48
1
60
0
100
AcDbCircle
39
0
10
-41.155706
20
40.534087
30
0
40
28.0440906658074
210
0
220
0
230
1
100
AcDbArc
50
268.469546
51
269.993919
0
ARC
5
E5
100
AcDbEntity
8
SK3
62
256
6
ByLayer
370
35
48
0.05
60
0
100
AcDbCircle
39
0
10
-0.414722
20
42.770675
30
0
40
38.0344949139334
210
0
220
0
230
1
100
AcDbArc
50
270.008725
51
272.13167
0
ARC
5
E6
100
AcDbEntity
8
SK3
62
256
6
ByLayer
370
35
48
0.05
60
0
100
AcDbCircle
39
0
10
-28.585278
20
42.770723
30
0
40
38.0345424498747
210
0
220
0
230
1
100
AcDbArc
50
267.86834
51
269.991274
0
ARC
5
E7
100
AcDbEntity
8
SK3
62
256
6
ByLayer
370
35
48
0.05
60
0
100
AcDbCircle
39
0
10
-28.585278
20
-42.770723
30
0
40
38.0345424498747
210
0
220
0
230
1
100
AcDbArc
50
90.008726
51
92.13166
0
ARC
5
E8
100
AcDbEntity
8
SK1
62
256
6
ByLayer
370
50
48
1
60
0
100
AcDbCircle
39
0
10
-41.155706
20
-40.534087
30
0
40
28.0440906658074
210
0
220
0
230
1
100
AcDbArc
50
90.006081
51
91.530454
0
ARC
5
E9
100
AcDbEntity
8
SK3
62
256
6
ByLayer
370
35
48
0.05
60
0
100
AcDbCircle
39
0
10
-0.414722
20
-42.770675
30
0
40
38.0344949139257
210
0
220
0
230
1
100
AcDbArc
50
87.86833
51
89.991275
0
ARC
5
EA
100
AcDbEntity
8
SK3
62
256
6
ByLayer
370
35
48
0.05
60
0
100
AcDbCircle
39
0
10
3.525648
20
-4.313657
30
0
40
0.549228172502906
210
0
220
0
230
1
100
AcDbArc
50
40.112017
51
92.676553
0
ARC
5
EB
100
AcDbEntity
8
SK3
62
256
6
ByLayer
370
35
48
0.05
60
0
100
AcDbCircle
39
0
10
3.747195
20
-4.118718
30
0
40
0.254274518295509
210
0
220
0
230
1
100
AcDbArc
50
6.163571
51
38.681634
0
ARC
5
EC
100
AcDbEntity
8
SK3
62
256
6
ByLayer
370
35
48
0.05
60
0
100
AcDbCircle
39
0
10
3.525717
20
-3.46497
30
0
40
0.549072458476694
210
0
220
0
230
1
100
AcDbArc
50
40.103992
51
92.684577
0
ARC
5
ED
100
AcDbEntity
8
SK3
62
256
6
ByLayer
370
35
48
0.05
60
0
100
AcDbCircle
39
0
10
3.662789
20
-3.295348
30
0
40
0.33751703664722
210
0
220
0
230
1
100
AcDbArc
50
357.560358
51
33.05128
0
ARC
5
EE
100
AcDbEntity
8
SK3
62
256
6
ByLayer
370
35
48
0.05
60
0
100
AcDbCircle
39
0
10
3.525648
20
4.313657
30
0
40
0.549228172502911
210
0
220
0
230
1
100
AcDbArc
50
267.323447
51
319.887983
0
ARC
5
EF
100
AcDbEntity
8
SK3
62
256
6
ByLayer
370
35
48
0.05
60
0
100
AcDbCircle
39
0
10
3.747195
20
4.118718
30
0
40
0.254274518295534
210
0
220
0
230
1
100
AcDbArc
50
321.318366
51
353.836429
0
ARC
5
F0
100
AcDbEntity
8
SK3
62
256
6
ByLayer
370
35
48
0.05
60
0
100
AcDbCircle
39
0
10
3.525717
20
3.46497
30
0
40
0.549072458476695
210
0
220
0
230
1
100
AcDbArc
50
267.315423
51
319.896008
0
ARC
5
F1
100
AcDbEntity
8
SK3
62
256
6
ByLayer
370
35
48
0.05
60
0
100
AcDbCircle
39
0
10
3.662789
20
3.295348
30
0
40
0.337517036647222
210
0
220
0
230
1
100
AcDbArc
50
326.94872
51
2.439642
0
ARC
5
F2
100
AcDbEntity
8
SK1
62
256
6
ByLayer
370
50
48
1
60
0
100
AcDbCircle
39
0
10
-55.6
20
-11.67624
30
0
40
0.399999999999999
210
0
220
0
230
1
100
AcDbArc
50
180
51
240
0
ARC
5
F3
100
AcDbEntity
8
SK1
62
256
6
ByLayer
370
50
48
1
60
0
100
AcDbCircle
39
0
10
-55.6
20
11.67624
30
0
40
0.400000000000001
210
0
220
0
230
1
100
AcDbArc
50
120
51
180
0
ARC
5
F4
100
AcDbEntity
8
SK3
62
256
6
ByLayer
370
35
48
0.05
60
0
100
AcDbCircle
39
0
10
-14.5
20
41.637288
30
0
40
40
210
0
220
0
230
1
100
AcDbArc
50
292.798949
51
297.551846
0
ARC
5
F5
100
AcDbEntity
8
SK3
62
256
6
ByLayer
370
35
48
0.05
60
0
100
AcDbCircle
39
0
10
-14.5
20
41.637288
30
0
40
40
210
0
220
0
230
1
100
AcDbArc
50
226.75542
51
247.201037
0
ARC
5
F6
100
AcDbEntity
8
SK3
62
256
6
ByLayer
370
35
48
0.05
60
0
100
AcDbCircle
39
0
10
-14.5
20
-41.637288
30
0
40
40
210
0
220
0
230
1
100
AcDbArc
50
112.798792
51
133.244526
0
ARC
5
F7
100
AcDbEntity
8
SK3
62
256
6
ByLayer
370
35
48
0.05
60
0
100
AcDbCircle
39
0
10
-14.5
20
-41.637288
30
0
40
40
210
0
220
0
230
1
100
AcDbArc
50
62.448119
51
67.201028
0
ARC
5
F8
100
AcDbEntity
8
SK3
62
256
6
ByLayer
370
35
48
0.05
60
0
100
AcDbCircle
39
0
10
3.5
20
5.2625
30
0
40
0.5
210
0
220
0
230
1
100
AcDbArc
50
270
51
0
0
ARC
5
F9
100
AcDbEntity
8
SK3
62
256
6
ByLayer
370
35
48
0.05
60
0
100
AcDbCircle
39
0
10
3.5
20
-5.2625
30
0
40
0.5
210
0
220
0
230
1
100
AcDbArc
50
0
51
90
0
POINT
5
70
100
AcDbEntity
8
80
62
256
6
ByLayer
370
18
48
1
60
0
100
AcDbPoint
10
0
20
0
30
0
39
0
210
0
220
0
230
1
50
360
0
POINT
5
72
100
AcDbEntity
8
81
62
256
6
ByLayer
370
18
48
1
60
0
100
AcDbPoint
10
4
20
0
30
0
39
0
210
0
220
0
230
1
50
360
0
SPLINE
5
FA
100
AcDbEntity
8
1
62
256
6
ByLayer
370
25
48
1
60
0
100
AcDbSpline
70
4
71
3
72
10
73
6
40
0
40
0
40
0
40
0
40
0.5
40
0.5
40
1
40
1
40
1
40
1
41
1
10
3.11715728752538
20
14.8744414081423
30
0
41
1
10
3.08005812207826
20
14.9115615277464
30
0
41
1
10
3.03561508637922
20
14.9412151532513
30
0
41
1
10
2.93911582904201
20
14.9812018857821
30
0
41
1
10
2.88645072646901
20
14.9916643505649
30
0
41
1
10
2.83431457505076
20
14.9916643505649
30
0
0
SPLINE
5
FB
100
AcDbEntity
8
1
62
256
6
ByLayer
370
25
48
1
60
0
100
AcDbSpline
70
4
71
3
72
10
73
6
40
0
40
0
40
0
40
0
40
0.5
40
0.5
40
1
40
1
40
1
40
1
41
1
10
1.16568542494924
20
14.9916643505649
30
0
41
1
10
1.11315891760467
20
14.9916643505649
30
0
41
1
10
1.06082870366797
20
14.9811898071284
30
0
41
1
10
0.964297818983869
20
14.9411681419069
30
0
41
1
10
0.919697768047957
20
14.9113172799957
30
0
41
1
10
0.88284271247462
20
14.8744414081423
30
0
0
SPLINE
5
FC
100
AcDbEntity
8
1
62
256
6
ByLayer
370
25
48
1
60
0
100
AcDbSpline
70
4
71
3
72
10
73
6
40
0
40
0
40
0
40
0
40
0.5
40
0.5
40
1
40
1
40
1
40
1
41
1
10
0.117157287523895
20
14.1083000351135
30
0
41
1
10
0.0802082947870026
20
14.0713278456342
30
0
41
1
10
0.0503932587755784
20
14.0266371890273
30
0
41
1
10
0.0104890505286406
20
13.9302257704131
30
0
41
1
10
-1.07E-14
20
13.8775091019424
30
0
41
1
10
0
20
13.8252761188145
30
0
0
SPLINE
5
FD
100
AcDbEntity
8
SK1
62
256
6
ByLayer
370
50
48
1
60
0
100
AcDbSpline
70
4
71
3
72
10
73
6
40
0
40
0
40
0
40
0
40
0.5
40
0.5
40
1
40
1
40
1
40
1
41
1
10
0
20
12.7401923062409
30
0
41
1
10
7.1E-15
20
12.6359757241694
30
0
41
1
10
-0.0426691994766237
20
12.5318119486903
30
0
41
1
10
-0.191125481517933
20
12.3829626610045
30
0
41
1
10
-0.295752146780831
20
12.3398743915811
30
0
41
1
10
-0.400000000000002
20
12.3398743915811
30
0
0
SPLINE
5
FE
100
AcDbEntity
8
1
62
256
6
ByLayer
370
25
48
1
60
0
100
AcDbSpline
70
4
71
3
72
10
73
6
40
0
40
0
40
0
40
0
40
0.5
40
0.5
40
1
40
1
40
1
40
1
41
1
10
3.11715728752538
20
-14.8744414081423
30
0
41
1
10
3.08005812207826
20
-14.9115615277464
30
0
41
1
10
3.03561508637922
20
-14.9412151532513
30
0
41
1
10
2.93911582904201
20
-14.9812018857821
30
0
41
1
10
2.88645072646901
20
-14.9916643505649
30
0
41
1
10
2.83431457505076
20
-14.9916643505649
30
0
0
SPLINE
5
FF
100
AcDbEntity
8
1
62
256
6
ByLayer
370
25
48
1
60
0
100
AcDbSpline
70
4
71
3
72
10
73
6
40
0
40
0
40
0
40
0
40
0.5
40
0.5
40
1
40
1
40
1
40
1
41
1
10
1.16568542494924
20
-14.9916643505649
30
0
41
1
10
1.11315891760467
20
-14.9916643505649
30
0
41
1
10
1.06082870366797
20
-14.9811898071284
30
0
41
1
10
0.964297818983869
20
-14.9411681419069
30
0
41
1
10
0.919697768047957
20
-14.9113172799957
30
0
41
1
10
0.88284271247462
20
-14.8744414081423
30
0
0
SPLINE
5
100
100
AcDbEntity
8
1
62
256
6
ByLayer
370
25
48
1
60
0
100
AcDbSpline
70
4
71
3
72
10
73
6
40
0
40
0
40
0
40
0
40
0.5
40
0.5
40
1
40
1
40
1
40
1
41
1
10
0.117157287523895
20
-14.1083000351135
30
0
41
1
10
0.0802082947870026
20
-14.0713278456342
30
0
41
1
10
0.0503932587755784
20
-14.0266371890273
30
0
41
1
10
0.0104890505286406
20
-13.9302257704131
30
0
41
1
10
-1.07E-14
20
-13.8775091019424
30
0
41
1
10
0
20
-13.8252761188145
30
0
0
SPLINE
5
101
100
AcDbEntity
8
SK1
62
256
6
ByLayer
370
50
48
1
60
0
100
AcDbSpline
70
4
71
3
72
10
73
6
40
0
40
0
40
0
40
0
40
0.5
40
0.5
40
1
40
1
40
1
40
1
41
1
10
0
20
-12.7401923062409
30
0
41
1
10
7.1E-15
20
-12.6359757241694
30
0
41
1
10
-0.0426691994766237
20
-12.5318119486903
30
0
41
1
10
-0.191125481517933
20
-12.3829626610045
30
0
41
1
10
-0.295752146780831
20
-12.3398743915811
30
0
41
1
10
-0.400000000000002
20
-12.3398743915811
30
0
0
SPLINE
5
102
100
AcDbEntity
8
SK1
62
256
6
ByLayer
370
50
48
1
60
0
100
AcDbSpline
70
4
71
3
72
18
73
14
40
0
40
0
40
0
40
0
40
0.250000000000002
40
0.250000000000002
40
0.375000000000001
40
0.375000000000001
40
0.5
40
0.5
40
0.624999999999999
40
0.624999999999999
40
0.749999999999998
40
0.749999999999998
40
1
40
1
40
1
40
1
41
1
10
-28.591070199734
20
0.5
30
0
41
1
10
-28.8533569283685
20
0.500000000000716
30
0
41
1
10
-29.1166736654756
20
0.47631600418893
30
0
41
1
10
-29.5004889918735
20
0.385304588076529
30
0
41
1
10
-29.6282943642045
20
0.345578299271357
30
0
41
1
10
-29.8628481394714
20
0.226648200875539
30
0
41
1
10
-29.995950949178
20
0.138961142571759
30
0
41
1
10
-30.0038932544773
20
-0.128469029715106
30
0
41
1
10
-29.8678813777725
20
-0.223399842004227
30
0
41
1
10
-29.6318550733717
20
-0.34444430705522
30
0
41
1
10
-29.5036292639013
20
-0.384432699061784
30
0
41
1
10
-29.1171142963808
20
-0.476462748802223
30
0
41
1
10
-28.8553656708687
20
-0.50000000000041
30
0
41
1
10
-28.591070199734
20
-0.5
30
0
0
SPLINE
5
103
100
AcDbEntity
8
SK1
62
256
6
ByLayer
370
50
48
1
60
0
100
AcDbSpline
70
4
71
3
72
28
73
24
40
0
40
0
40
0
40
0
40
0.0479622575083297
40
0.0479622575083297
40
0.230632128891477
40
0.230632128891477
40
0.331292504210234
40
0.331292504210234
40
0.408969936158143
40
0.408969936158143
40
0.470455180142569
40
0.470455180142569
40
0.49951223653714
40
0.49951223653714
40
0.564862488478333
40
0.564862488478333
40
0.629572951763987
40
0.629572951763987
40
0.725018034629338
40
0.725018034629338
40
0.864948536035915
40
0.864948536035915
40
1
40
1
40
1
40
1
41
1
10
-41.1586826570845
20
0.499999999999999
30
0
41
1
10
-41.1902332858074
20
0.500000000000269
30
0
41
1
10
-41.2218135753682
20
0.498640256561568
30
0
41
1
10
-41.3718537267086
20
0.485644096175633
30
0
41
1
10
-41.4913076521701
20
0.455802860832461
30
0
41
1
10
-41.6576646341865
20
0.374267407957602
30
0
41
1
10
-41.7143967350244
20
0.337444302619601
30
0
41
1
10
-41.8005245194101
20
0.25774209190397
30
0
41
1
10
-41.8339036783263
20
0.217293690154975
30
0
41
1
10
-41.8781855760139
20
0.137043186088746
30
0
41
1
10
-41.8926224442793
20
0.097989087004915
30
0
41
1
10
-41.902983045042
20
0.0389969457996543
30
0
41
1
10
-41.9047039602232
20
0.0195638602925899
30
0
41
1
10
-41.9047413732036
20
-0.0427026140179099
30
0
41
1
10
-41.8960515686629
20
-0.0862433291733867
30
0
41
1
10
-41.8648509062895
20
-0.165912894201687
30
0
41
1
10
-41.8422274565596
20
-0.203244249726241
30
0
41
1
10
-41.7761839592381
20
-0.285280924892699
30
0
41
1
10
-41.7270738558291
20
-0.32678715392572
30
0
41
1
10
-41.5972816497126
20
-0.410101899615093
30
0
41
1
10
-41.5100967036296
20
-0.445156170053591
30
0
41
1
10
-41.335837971015
20
-0.48939739726015
30
0
41
1
10
-41.2468935818759
20
-0.500000000000107
30
0
41
1
10
-41.1586826570845
20
-0.500000000000001
30
0
0
SPLINE
5
104
100
AcDbEntity
8
SK1
62
256
6
ByLayer
370
50
48
1
60
0
100
AcDbSpline
70
4
71
3
72
18
73
14
40
0
40
0
40
0
40
0
40
0.25
40
0.25
40
0.375
40
0.375
40
0.5
40
0.5
40
0.625
40
0.625
40
0.75
40
0.75
40
1
40
1
40
1
40
1
41
1
10
-0.408929800266037
20
-0.5
30
0
41
1
10
-0.144685128665174
20
-0.500000000000434
30
0
41
1
10
0.120389506673693
20
-0.476037047288754
30
0
41
1
10
0.506717650461763
20
-0.383517014827705
30
0
41
1
10
0.63545305133653
20
-0.343113138620079
30
0
41
1
10
0.870721481558366
20
-0.221415065375428
30
0
41
1
10
1.0046920147283
20
-0.128070800565078
30
0
41
1
10
0.995082182255096
20
0.140702056209235
30
0
41
1
10
0.859864253866867
20
0.228669255646587
30
0
41
1
10
0.624646478582392
20
0.346905300287575
30
0
41
1
10
0.497233493742677
20
0.38625776884959
30
0
41
1
10
0.113291875926581
20
0.476748346567801
30
0
41
1
10
-0.146585123542288
20
0.500000000000706
30
0
41
1
10
-0.408929800266037
20
0.5
30
0
0
SPLINE
5
105
100
AcDbEntity
8
SK3
62
256
6
ByLayer
370
35
48
0.05
60
0
100
AcDbSpline
70
4
71
3
72
8
73
4
40
0
40
0
40
0
40
0
40
1
40
1
40
1
40
1
41
1
10
-41.2352111181159
20
4.13105267719356
30
0
41
1
10
-41.2207233318967
20
4.13418184318448
30
0
41
1
10
-41.205244166159
20
4.13560534277152
30
0
41
1
10
-41.1890326111788
20
4.13549969055385
30
0
0
SPLINE
5
106
100
AcDbEntity
8
SK3
62
256
6
ByLayer
370
35
48
0.05
60
0
100
AcDbSpline
70
4
71
3
72
26
73
22
40
0
40
0
40
0
40
0
40
0.167901179989852
40
0.167901179989852
40
0.284767217952787
40
0.284767217952787
40
0.374922478106193
40
0.374922478106193
40
0.44877255313651
40
0.44877255313651
40
0.523109194874366
40
0.523109194874366
40
0.590488091509817
40
0.590488091509817
40
0.660455094812795
40
0.660455094812795
40
0.763455457385159
40
0.763455457385159
40
0.902031558626476
40
0.902031558626476
40
1
40
1
40
1
40
1
41
1
10
-40.7858713248057
20
-3.95979797464467
30
0
41
1
10
-40.8738850556418
20
-4.02247957169611
30
0
41
1
10
-40.9622114614202
20
-4.07313945848208
30
0
41
1
10
-41.0994285025211
20
-4.12516085690941
30
0
41
1
10
-41.1534919771731
20
-4.13715488613317
30
0
41
1
10
-41.2363056372329
20
-4.13396552202665
30
0
41
1
10
-41.2687670901444
20
-4.12416160887458
30
0
41
1
10
-41.3144944571537
20
-4.08776114787672
30
0
41
1
10
-41.3305624127574
20
-4.06399651756576
30
0
41
1
10
-41.3494017743466
20
-4.00300274650964
30
0
41
1
10
-41.3522689201636
20
-3.96472775790073
30
0
41
1
10
-41.3442589691612
20
-3.88377627042496
30
0
41
1
10
-41.3345806154729
20
-3.84087137255437
30
0
41
1
10
-41.3054320805005
20
-3.75176593255799
30
0
41
1
10
-41.2853290182237
20
-3.70449858468219
30
0
41
1
10
-41.2276522570026
20
-3.59080050876773
30
0
41
1
10
-41.1854519389687
20
-3.52386437921959
30
0
41
1
10
-41.0789128467029
20
-3.37926938027419
30
0
41
1
10
-41.0100891627827
20
-3.30302799415221
30
0
41
1
10
-40.8895136590621
20
-3.19049889049003
30
0
41
1
10
-40.8377665222939
20
-3.14822854612863
30
0
41
1
10
-40.7858713248057
20
-3.11126983722081
30
0
0
SPLINE
5
107
100
AcDbEntity
8
SK3
62
256
6
ByLayer
370
35
48
0.05
60
0
100
AcDbSpline
70
4
71
3
72
8
73
4
40
0
40
0
40
0
40
0
40
1
40
1
40
1
40
1
41
1
10
-41.2352111181159
20
-4.13105267719356
30
0
41
1
10
-41.2207233318967
20
-4.13418184318448
30
0
41
1
10
-41.205244166159
20
-4.13560534277152
30
0
41
1
10
-41.1890326111788
20
-4.13549969055385
30
0
0
SPLINE
5
108
100
AcDbEntity
8
SK3
62
256
6
ByLayer
370
35
48
0.05
60
0
100
AcDbSpline
70
4
71
3
72
26
73
22
40
0
40
0
40
0
40
0
40
0.167901179989854
40
0.167901179989854
40
0.284767217952792
40
0.284767217952792
40
0.374922478106199
40
0.374922478106199
40
0.448772553136514
40
0.448772553136514
40
0.523109194874368
40
0.523109194874368
40
0.590488091509818
40
0.590488091509818
40
0.660455094812797
40
0.660455094812797
40
0.763455457385162
40
0.763455457385162
40
0.902031558626476
40
0.902031558626476
40
1
40
1
40
1
40
1
41
1
10
-40.7858713248057
20
3.95979797464466
30
0
41
1
10
-40.8738850556418
20
4.02247957169611
30
0
41
1
10
-40.9622114614202
20
4.07313945848208
30
0
41
1
10
-41.0994285025211
20
4.1251608569094
30
0
41
1
10
-41.1534919771731
20
4.13715488613317
30
0
41
1
10
-41.2363056372329
20
4.13396552202665
30
0
41
1
10
-41.2687670901444
20
4.12416160887457
30
0
41
1
10
-41.3144944571537
20
4.08776114787671
30
0
41
1
10
-41.3305624127574
20
4.06399651756576
30
0
41
1
10
-41.3494017743466
20
4.00300274650963
30
0
41
1
10
-41.3522689201636
20
3.96472775790072
30
0
41
1
10
-41.3442589691612
20
3.88377627042495
30
0
41
1
10
-41.3345806154729
20
3.84087137255436
30
0
41
1
10
-41.3054320805005
20
3.75176593255798
30
0
41
1
10
-41.2853290182237
20
3.70449858468218
30
0
41
1
10
-41.2276522570025
20
3.59080050876773
30
0
41
1
10
-41.1854519389687
20
3.52386437921958
30
0
41
1
10
-41.0789128467029
20
3.37926938027419
30
0
41
1
10
-41.0100891627827
20
3.30302799415221
30
0
41
1
10
-40.8895136590621
20
3.19049889049003
30
0
41
1
10
-40.8377665222939
20
3.14822854612863
30
0
41
1
10
-40.7858713248057
20
3.11126983722081
30
0
0
LINE
5
74
100
AcDbEntity
8
SK3
62
256
6
ByLayer
370
35
48
0.05
60
0
100
AcDbLine
10
-46
20
10.25
30
0
11
-46
21
-10.25
31
0
39
0
210
0
220
0
230
1
0
LINE
5
76
100
AcDbEntity
8
SK3
62
256
6
ByLayer
370
35
48
0.05
60
0
100
AcDbLine
10
-55.5
20
-10.25
30
0
11
-55.5
21
10.25
31
0
39
0
210
0
220
0
230
1
0
LINE
5
77
100
AcDbEntity
8
SK1
62
256
6
ByLayer
370
50
48
1
60
0
100
AcDbLine
10
-56
20
-11.67624
30
0
11
-56
21
11.67624
31
0
39
0
210
0
220
0
230
1
0
LINE
5
79
100
AcDbEntity
8
SK1
62
256
6
ByLayer
370
50
48
1
60
0
100
AcDbLine
10
-55.8
20
12.02265
30
0
11
-55.8
21
-12.02265
31
0
39
0
210
0
220
0
230
1
0
LINE
5
7A
100
AcDbEntity
8
1
62
256
6
ByLayer
370
13
48
1
60
0
100
AcDbLine
10
3.117157
20
14.874441
30
0
11
3.117157
21
0.5
31
0
39
0
210
0
220
0
230
1
0
LINE
5
7C
100
AcDbEntity
8
1
62
256
6
ByLayer
370
13
48
1
60
0
100
AcDbLine
10
1.165685
20
14.991664
30
0
11
1.165685
21
0.5
31
0
39
0
210
0
220
0
230
1
0
LINE
5
7D
100
AcDbEntity
8
SK1
62
256
6
ByLayer
370
50
48
1
60
0
100
AcDbLine
10
-54.973205
20
-12.5
30
0
11
-54.973205
21
12.5
31
0
39
0
210
0
220
0
230
1
0
LINE
5
7E
100
AcDbEntity
8
SK1
62
256
6
ByLayer
370
50
48
1
60
0
100
AcDbLine
10
-2.126795
20
12.489996
30
0
11
-2.126795
21
0.5
31
0
39
0
210
0
220
0
230
1
0
LINE
5
7F
100
AcDbEntity
8
SK1
62
256
6
ByLayer
370
50
48
1
60
0
100
AcDbLine
10
-2.126795
20
12.489996
30
0
11
-41.158683
21
12.489996
31
0
39
0
210
0
220
0
230
1
0
LINE
5
80
100
AcDbEntity
8
1
62
256
6
ByLayer
370
25
48
1
60
0
100
AcDbLine
10
4
20
13.989958
30
0
11
3.982843
21
14.008237
31
0
39
0
210
0
220
0
230
1
0
LINE
5
81
100
AcDbEntity
8
1
62
256
6
ByLayer
370
25
48
1
60
0
100
AcDbLine
10
3.982843
20
14.008237
30
0
11
3.117157
21
14.874441
31
0
39
0
210
0
220
0
230
1
0
LINE
5
82
100
AcDbEntity
8
1
62
256
6
ByLayer
370
25
48
1
60
0
100
AcDbLine
10
2.834315
20
14.991664
30
0
11
1.165685
21
14.991664
31
0
39
0
210
0
220
0
230
1
0
LINE
5
83
100
AcDbEntity
8
1
62
256
6
ByLayer
370
25
48
1
60
0
100
AcDbLine
10
0.882843
20
14.874441
30
0
11
0.117157
21
14.1083
31
0
39
0
210
0
220
0
230
1
0
LINE
5
84
100
AcDbEntity
8
SK1
62
256
6
ByLayer
370
50
48
1
60
0
100
AcDbLine
10
-0.4
20
12.339874
30
0
11
-1.566987
21
12.339874
31
0
39
0
210
0
220
0
230
1
0
LINE
5
85
100
AcDbEntity
8
SK1
62
256
6
ByLayer
370
50
48
1
60
0
100
AcDbLine
10
-1.566987
20
12.339874
30
0
11
-2.126795
21
12.489996
31
0
39
0
210
0
220
0
230
1
0
LINE
5
86
100
AcDbEntity
8
SK3
62
256
6
ByLayer
370
35
48
0.05
60
0
100
AcDbLine
10
-0.40893
20
4.736181
30
0
11
-28.59107
21
4.736181
31
0
39
0
210
0
220
0
230
1
0
LINE
5
87
100
AcDbEntity
8
1
62
256
6
ByLayer
370
25
48
1
60
0
100
AcDbLine
10
4
20
-13.989958
30
0
11
4
21
-0.5
31
0
39
0
210
0
220
0
230
1
0
LINE
5
88
100
AcDbEntity
8
1
62
256
6
ByLayer
370
13
48
1
60
0
100
AcDbLine
10
2.834315
20
-14.991664
30
0
11
2.834315
21
-0.5
31
0
39
0
210
0
220
0
230
1
0
LINE
5
89
100
AcDbEntity
8
1
62
256
6
ByLayer
370
13
48
1
60
0
100
AcDbLine
10
0.882843
20
-14.874441
30
0
11
0.882843
21
-0.5
31
0
39
0
210
0
220
0
230
1
0
LINE
5
8A
100
AcDbEntity
8
1
62
256
6
ByLayer
370
25
48
1
60
0
100
AcDbLine
10
0
20
-13.825276
30
0
11
0
21
-0.5
31
0
39
0
210
0
220
0
230
1
0
LINE
5
8B
100
AcDbEntity
8
SK1
62
256
6
ByLayer
370
50
48
1
60
0
100
AcDbLine
10
-0.4
20
-12.339874
30
0
11
-0.4
21
-0.5
31
0
39
0
210
0
220
0
230
1
0
LINE
5
8C
100
AcDbEntity
8
SK1
62
256
6
ByLayer
370
50
48
1
60
0
100
AcDbLine
10
-1.566987
20
-12.339874
30
0
11
-1.566987
21
-0.5
31
0
39
0
210
0
220
0
230
1
0
LINE
5
8D
100
AcDbEntity
8
1
62
256
6
ByLayer
370
25
48
1
60
0
100
AcDbLine
10
4
20
-13.989958
30
0
11
3.982843
21
-14.008237
31
0
39
0
210
0
220
0
230
1
0
LINE
5
8E
100
AcDbEntity
8
1
62
256
6
ByLayer
370
25
48
1
60
0
100
AcDbLine
10
3.982843
20
-14.008237
30
0
11
3.117157
21
-14.874441
31
0
39
0
210
0
220
0
230
1
0
LINE
5
8F
100
AcDbEntity
8
1
62
256
6
ByLayer
370
25
48
1
60
0
100
AcDbLine
10
2.834315
20
-14.991664
30
0
11
1.165685
21
-14.991664
31
0
39
0
210
0
220
0
230
1
0
LINE
5
90
100
AcDbEntity
8
1
62
256
6
ByLayer
370
25
48
1
60
0
100
AcDbLine
10
0.882843
20
-14.874441
30
0
11
0.117157
21
-14.1083
31
0
39
0
210
0
220
0
230
1
0
LINE
5
91
100
AcDbEntity
8
SK1
62
256
6
ByLayer
370
50
48
1
60
0
100
AcDbLine
10
-0.4
20
-12.339874
30
0
11
-1.566987
21
-12.339874
31
0
39
0
210
0
220
0
230
1
0
LINE
5
92
100
AcDbEntity
8
SK1
62
256
6
ByLayer
370
50
48
1
60
0
100
AcDbLine
10
-1.566987
20
-12.339874
30
0
11
-2.126795
21
-12.489996
31
0
39
0
210
0
220
0
230
1
0
LINE
5
93
100
AcDbEntity
8
SK1
62
256
6
ByLayer
370
50
48
1
60
0
100
AcDbLine
10
-2.126795
20
-12.489996
30
0
11
-41.158683
21
-12.489996
31
0
39
0
210
0
220
0
230
1
0
LINE
5
94
100
AcDbEntity
8
SK3
62
256
6
ByLayer
370
35
48
0.05
60
0
100
AcDbLine
10
-0.40893
20
-4.736181
30
0
11
-28.59107
21
-4.736181
31
0
39
0
210
0
220
0
230
1
0
LINE
5
95
100
AcDbEntity
8
1
62
256
6
ByLayer
370
25
48
1
60
0
100
AcDbLine
10
4
20
0.5
30
0
11
4
21
13.989958
31
0
39
0
210
0
220
0
230
1
0
LINE
5
96
100
AcDbEntity
8
1
62
256
6
ByLayer
370
13
48
1
60
0
100
AcDbLine
10
3.117157
20
-0.5
30
0
11
3.117157
21
-14.874441
31
0
39
0
210
0
220
0
230
1
0
LINE
5
97
100
AcDbEntity
8
1
62
256
6
ByLayer
370
13
48
1
60
0
100
AcDbLine
10
2.834315
20
0.5
30
0
11
2.834315
21
14.991664
31
0
39
0
210
0
220
0
230
1
0
LINE
5
98
100
AcDbEntity
8
1
62
256
6
ByLayer
370
13
48
1
60
0
100
AcDbLine
10
1.165685
20
-0.5
30
0
11
1.165685
21
-14.991664
31
0
39
0
210
0
220
0
230
1
0
LINE
5
99
100
AcDbEntity
8
1
62
256
6
ByLayer
370
13
48
1
60
0
100
AcDbLine
10
0.882843
20
0.5
30
0
11
0.882843
21
14.874441
31
0
39
0
210
0
220
0
230
1
0
LINE
5
9A
100
AcDbEntity
8
1
62
256
6
ByLayer
370
25
48
1
60
0
100
AcDbLine
10
0
20
0.5
30
0
11
0
21
13.825276
31
0
39
0
210
0
220
0
230
1
0
LINE
5
9B
100
AcDbEntity
8
SK1
62
256
6
ByLayer
370
50
48
1
60
0
100
AcDbLine
10
-0.4
20
0.5
30
0
11
-0.4
21
12.339874
31
0
39
0
210
0
220
0
230
1
0
LINE
5
9C
100
AcDbEntity
8
SK1
62
256
6
ByLayer
370
50
48
1
60
0
100
AcDbLine
10
-1.566987
20
0.5
30
0
11
-1.566987
21
12.339874
31
0
39
0
210
0
220
0
230
1
0
LINE
5
9D
100
AcDbEntity
8
SK1
62
256
6
ByLayer
370
50
48
1
60
0
100
AcDbLine
10
-2.126795
20
-0.5
30
0
11
-2.126795
21
-12.489996
31
0
39
0
210
0
220
0
230
1
0
LINE
5
9E
100
AcDbEntity
8
1
62
256
6
ByLayer
370
25
48
1
60
0
100
AcDbLine
10
3.982843
20
0.5
30
0
11
3.117157
21
0.5
31
0
39
0
210
0
220
0
230
1
0
LINE
5
9F
100
AcDbEntity
8
1
62
256
6
ByLayer
370
25
48
1
60
0
100
AcDbLine
10
3.117157
20
0.5
30
0
11
2.834315
21
0.5
31
0
39
0
210
0
220
0
230
1
0
LINE
5
A0
100
AcDbEntity
8
1
62
256
6
ByLayer
370
25
48
1
60
0
100
AcDbLine
10
2.834315
20
0.5
30
0
11
1.165685
21
0.5
31
0
39
0
210
0
220
0
230
1
0
LINE
5
A1
100
AcDbEntity
8
1
62
256
6
ByLayer
370
25
48
1
60
0
100
AcDbLine
10
1.165685
20
0.5
30
0
11
0.882843
21
0.5
31
0
39
0
210
0
220
0
230
1
0
LINE
5
A2
100
AcDbEntity
8
1
62
256
6
ByLayer
370
25
48
1
60
0
100
AcDbLine
10
0.882843
20
0.5
30
0
11
0.117157
21
0.5
31
0
39
0
210
0
220
0
230
1
0
LINE
5
A3
100
AcDbEntity
8
1
62
256
6
ByLayer
370
25
48
1
60
0
100
AcDbLine
10
0.117157
20
0.5
30
0
11
0
21
0.5
31
0
39
0
210
0
220
0
230
1
0
LINE
5
A4
100
AcDbEntity
8
SK1
62
256
6
ByLayer
370
50
48
1
60
0
100
AcDbLine
10
0
20
0.5
30
0
11
-0.4
21
0.5
31
0
39
0
210
0
220
0
230
1
0
LINE
5
A5
100
AcDbEntity
8
SK1
62
256
6
ByLayer
370
50
48
1
60
0
100
AcDbLine
10
-0.4
20
0.5
30
0
11
-1.566987
21
0.5
31
0
39
0
210
0
220
0
230
1
0
LINE
5
A6
100
AcDbEntity
8
SK1
62
256
6
ByLayer
370
50
48
1
60
0
100
AcDbLine
10
-1.566987
20
0.5
30
0
11
-2.126795
21
0.5
31
0
39
0
210
0
220
0
230
1
0
LINE
5
A7
100
AcDbEntity
8
SK1
62
256
6
ByLayer
370
50
48
1
60
0
100
AcDbLine
10
-2.126795
20
0.5
30
0
11
-41.158683
21
0.5
31
0
39
0
210
0
220
0
230
1
0
LINE
5
A8
100
AcDbEntity
8
SK1
62
256
6
ByLayer
370
50
48
1
60
0
100
AcDbLine
10
-2.126795
20
-0.5
30
0
11
-41.158683
21
-0.5
31
0
39
0
210
0
220
0
230
1
0
LINE
5
A9
100
AcDbEntity
8
SK1
62
256
6
ByLayer
370
50
48
1
60
0
100
AcDbLine
10
-1.566987
20
-0.5
30
0
11
-2.126795
21
-0.5
31
0
39
0
210
0
220
0
230
1
0
LINE
5
AA
100
AcDbEntity
8
SK1
62
256
6
ByLayer
370
50
48
1
60
0
100
AcDbLine
10
-0.4
20
-0.5
30
0
11
-1.566987
21
-0.5
31
0
39
0
210
0
220
0
230
1
0
LINE
5
AB
100
AcDbEntity
8
SK1
62
256
6
ByLayer
370
50
48
1
60
0
100
AcDbLine
10
0
20
-0.5
30
0
11
-0.4
21
-0.5
31
0
39
0
210
0
220
0
230
1
0
LINE
5
AC
100
AcDbEntity
8
1
62
256
6
ByLayer
370
25
48
1
60
0
100
AcDbLine
10
0.117157
20
-0.5
30
0
11
0
21
-0.5
31
0
39
0
210
0
220
0
230
1
0
LINE
5
AD
100
AcDbEntity
8
1
62
256
6
ByLayer
370
25
48
1
60
0
100
AcDbLine
10
0.882843
20
-0.5
30
0
11
0.117157
21
-0.5
31
0
39
0
210
0
220
0
230
1
0
LINE
5
AE
100
AcDbEntity
8
1
62
256
6
ByLayer
370
25
48
1
60
0
100
AcDbLine
10
1.165685
20
-0.5
30
0
11
0.882843
21
-0.5
31
0
39
0
210
0
220
0
230
1
0
LINE
5
AF
100
AcDbEntity
8
1
62
256
6
ByLayer
370
25
48
1
60
0
100
AcDbLine
10
2.834315
20
-0.5
30
0
11
1.165685
21
-0.5
31
0
39
0
210
0
220
0
230
1
0
LINE
5
B0
100
AcDbEntity
8
1
62
256
6
ByLayer
370
25
48
1
60
0
100
AcDbLine
10
3.117157
20
-0.5
30
0
11
2.834315
21
-0.5
31
0
39
0
210
0
220
0
230
1
0
LINE
5
B1
100
AcDbEntity
8
1
62
256
6
ByLayer
370
25
48
1
60
0
100
AcDbLine
10
3.982843
20
-0.5
30
0
11
3.117157
21
-0.5
31
0
39
0
210
0
220
0
230
1
0
LINE
5
B2
100
AcDbEntity
8
1
62
256
6
ByLayer
370
25
48
1
60
0
100
AcDbLine
10
4
20
-0.5
30
0
11
4
21
0.5
31
0
39
0
210
0
220
0
230
1
0
LINE
5
B3
100
AcDbEntity
8
SK3
62
256
6
ByLayer
370
35
48
0.05
60
0
100
AcDbLine
10
-34
20
5
30
0
11
-34
21
3.93425
31
0
39
0
210
0
220
0
230
1
0
LINE
5
B4
100
AcDbEntity
8
SK3
62
256
6
ByLayer
370
35
48
0.05
60
0
100
AcDbLine
10
-40.75
20
5
30
0
11
-40.75
21
3.93425
31
0
39
0
210
0
220
0
230
1
0
LINE
5
B5
100
AcDbEntity
8
SK3
62
256
6
ByLayer
370
35
48
0.05
60
0
100
AcDbLine
10
-40.75
20
-5
30
0
11
-40.75
21
-3.93425
31
0
39
0
210
0
220
0
230
1
0
LINE
5
B6
100
AcDbEntity
8
SK3
62
256
6
ByLayer
370
35
48
0.05
60
0
100
AcDbLine
10
-34
20
-5
30
0
11
-34
21
-3.93425
31
0
39
0
210
0
220
0
230
1
0
LINE
5
B7
100
AcDbEntity
8
SK3
62
256
6
ByLayer
370
35
48
0.05
60
0
100
AcDbLine
10
-33.862879
20
-2.9165
30
0
11
-33.862879
21
2.9165
31
0
39
0
210
0
220
0
230
1
0
LINE
5
B8
100
AcDbEntity
8
SK3
62
256
6
ByLayer
370
35
48
0.05
60
0
100
AcDbLine
10
-40.785871
20
-3.11127
30
0
11
-40.75
21
-3.085722
31
0
39
0
210
0
220
0
230
1
0
LINE
5
B9
100
AcDbEntity
8
SK3
62
256
6
ByLayer
370
35
48
0.05
60
0
100
AcDbLine
10
-40.75
20
-3.085722
30
0
11
-34
21
-3.085722
31
0
39
0
210
0
220
0
230
1
0
LINE
5
BA
100
AcDbEntity
8
SK3
62
256
6
ByLayer
370
35
48
0.05
60
0
100
AcDbLine
10
-34
20
-3.085722
30
0
11
-33.862879
21
-2.9165
31
0
39
0
210
0
220
0
230
1
0
LINE
5
BB
100
AcDbEntity
8
SK3
62
256
6
ByLayer
370
35
48
0.05
60
0
100
AcDbLine
10
-33.862879
20
-2.9165
30
0
11
3.5
21
-2.9165
31
0
39
0
210
0
220
0
230
1
0
LINE
5
BC
100
AcDbEntity
8
SK3
62
256
6
ByLayer
370
35
48
0.05
60
0
100
AcDbLine
10
-34
20
-3.93425
30
0
11
-40.75
21
-3.93425
31
0
39
0
210
0
220
0
230
1
0
LINE
5
BD
100
AcDbEntity
8
SK3
62
256
6
ByLayer
370
35
48
0.05
60
0
100
AcDbLine
10
-40.75
20
-3.93425
30
0
11
-40.785871
21
-3.959798
31
0
39
0
210
0
220
0
230
1
0
LINE
5
BE
100
AcDbEntity
8
SK3
62
256
6
ByLayer
370
35
48
0.05
60
0
100
AcDbLine
10
3.5
20
-3.765028
30
0
11
-33.862879
21
-3.765028
31
0
39
0
210
0
220
0
230
1
0
LINE
5
BF
100
AcDbEntity
8
SK3
62
256
6
ByLayer
370
35
48
0.05
60
0
100
AcDbLine
10
-33.862879
20
-3.765028
30
0
11
-34
21
-3.93425
31
0
39
0
210
0
220
0
230
1
0
LINE
5
C0
100
AcDbEntity
8
SK3
62
256
6
ByLayer
370
35
48
0.05
60
0
100
AcDbLine
10
-33.862879
20
-3.765028
30
0
11
-33.862879
21
-4.7625
31
0
39
0
210
0
220
0
230
1
0
LINE
5
C1
100
AcDbEntity
8
SK3
62
256
6
ByLayer
370
35
48
0.05
60
0
100
AcDbLine
10
-40.75
20
3.085722
30
0
11
-40.75
21
-3.085722
31
0
39
0
210
0
220
0
230
1
0
LINE
5
C2
100
AcDbEntity
8
SK3
62
256
6
ByLayer
370
35
48
0.05
60
0
100
AcDbLine
10
-34
20
3.085722
30
0
11
-34
21
-3.085722
31
0
39
0
210
0
220
0
230
1
0
LINE
5
C3
100
AcDbEntity
8
SK3
62
256
6
ByLayer
370
35
48
0.05
60
0
100
AcDbLine
10
-33.862879
20
3.765028
30
0
11
-33.862879
21
4.7625
31
0
39
0
210
0
220
0
230
1
0
LINE
5
C4
100
AcDbEntity
8
SK3
62
256
6
ByLayer
370
35
48
0.05
60
0
100
AcDbLine
10
-40.785871
20
3.11127
30
0
11
-40.75
21
3.085722
31
0
39
0
210
0
220
0
230
1
0
LINE
5
C5
100
AcDbEntity
8
SK3
62
256
6
ByLayer
370
35
48
0.05
60
0
100
AcDbLine
10
-40.75
20
3.085722
30
0
11
-34
21
3.085722
31
0
39
0
210
0
220
0
230
1
0
LINE
5
C6
100
AcDbEntity
8
SK3
62
256
6
ByLayer
370
35
48
0.05
60
0
100
AcDbLine
10
-34
20
3.085722
30
0
11
-33.862879
21
2.9165
31
0
39
0
210
0
220
0
230
1
0
LINE
5
C7
100
AcDbEntity
8
SK3
62
256
6
ByLayer
370
35
48
0.05
60
0
100
AcDbLine
10
-33.862879
20
2.9165
30
0
11
3.5
21
2.9165
31
0
39
0
210
0
220
0
230
1
0
LINE
5
C8
100
AcDbEntity
8
SK3
62
256
6
ByLayer
370
35
48
0.05
60
0
100
AcDbLine
10
-34
20
3.93425
30
0
11
-40.75
21
3.93425
31
0
39
0
210
0
220
0
230
1
0
LINE
5
C9
100
AcDbEntity
8
SK3
62
256
6
ByLayer
370
35
48
0.05
60
0
100
AcDbLine
10
-40.75
20
3.93425
30
0
11
-40.785871
21
3.959798
31
0
39
0
210
0
220
0
230
1
0
LINE
5
CA
100
AcDbEntity
8
SK3
62
256
6
ByLayer
370
35
48
0.05
60
0
100
AcDbLine
10
3.5
20
3.765028
30
0
11
-33.862879
21
3.765028
31
0
39
0
210
0
220
0
230
1
0
LINE
5
CB
100
AcDbEntity
8
SK3
62
256
6
ByLayer
370
35
48
0.05
60
0
100
AcDbLine
10
-33.862879
20
3.765028
30
0
11
-34
21
3.93425
31
0
39
0
210
0
220
0
230
1
0
LINE
5
CC
100
AcDbEntity
8
SK3
62
256
6
ByLayer
370
35
48
0.05
60
0
100
AcDbLine
10
-46
20
10.25
30
0
11
-55.5
21
10.25
31
0
39
0
210
0
220
0
230
1
0
LINE
5
CD
100
AcDbEntity
8
SK3
62
256
6
ByLayer
370
35
48
0.05
60
0
100
AcDbLine
10
-55.5
20
-10.25
30
0
11
-46
21
-10.25
31
0
39
0
210
0
220
0
230
1
0
LINE
5
CE
100
AcDbEntity
8
SK3
62
256
6
ByLayer
370
35
48
0.05
60
0
100
AcDbLine
10
-56
20
-10.538675
30
0
11
-55.5
21
-10.25
31
0
39
0
210
0
220
0
230
1
0
LINE
5
CF
100
AcDbEntity
8
SK3
62
256
6
ByLayer
370
35
48
0.05
60
0
100
AcDbLine
10
-55.5
20
10.25
30
0
11
-56
21
10.538675
31
0
39
0
210
0
220
0
230
1
0
LINE
5
D0
100
AcDbEntity
8
SK1
62
256
6
ByLayer
370
50
48
1
60
0
100
AcDbLine
10
-54.973205
20
12.5
30
0
11
-55.8
21
12.02265
31
0
39
0
210
0
220
0
230
1
0
LINE
5
D1
100
AcDbEntity
8
SK1
62
256
6
ByLayer
370
50
48
1
60
0
100
AcDbLine
10
-55.8
20
-12.02265
30
0
11
-54.973205
21
-12.5
31
0
39
0
210
0
220
0
230
1
0
LINE
5
D2
100
AcDbEntity
8
SK1
62
256
6
ByLayer
370
50
48
1
60
0
100
AcDbLine
10
-54.973205
20
-12.5
30
0
11
-41.904677
21
-12.5
31
0
39
0
210
0
220
0
230
1
0
LINE
5
D3
100
AcDbEntity
8
SK1
62
256
6
ByLayer
370
50
48
1
60
0
100
AcDbLine
10
-41.904677
20
12.5
30
0
11
-54.973205
21
12.5
31
0
39
0
210
0
220
0
230
1
0
LINE
5
D4
100
AcDbEntity
8
SK3
62
256
6
ByLayer
370
35
48
0.05
60
0
100
AcDbLine
10
-34
20
5
30
0
11
-40.75
21
5
31
0
39
0
210
0
220
0
230
1
0
LINE
5
D5
100
AcDbEntity
8
SK3
62
256
6
ByLayer
370
35
48
0.05
60
0
100
AcDbLine
10
-33.862879
20
4.7625
30
0
11
-34
21
5
31
0
39
0
210
0
220
0
230
1
0
LINE
5
D6
100
AcDbEntity
8
SK3
62
256
6
ByLayer
370
35
48
0.05
60
0
100
AcDbLine
10
-29.999963
20
4.7625
30
0
11
-33.862879
21
4.7625
31
0
39
0
210
0
220
0
230
1
0
LINE
5
D7
100
AcDbEntity
8
SK3
62
256
6
ByLayer
370
35
48
0.05
60
0
100
AcDbLine
10
3.5
20
4.7625
30
0
11
0.999972
21
4.7625
31
0
39
0
210
0
220
0
230
1
0
LINE
5
D8
100
AcDbEntity
8
SK3
62
256
6
ByLayer
370
35
48
0.05
60
0
100
AcDbLine
10
-41.18939
20
-4.135534
30
0
11
4
21
-4.135534
31
0
39
0
210
0
220
0
230
1
0
LINE
5
D9
100
AcDbEntity
8
SK3
62
256
6
ByLayer
370
35
48
0.05
60
0
100
AcDbLine
10
-40.75
20
-5
30
0
11
-34
21
-5
31
0
39
0
210
0
220
0
230
1
0
LINE
5
DA
100
AcDbEntity
8
SK3
62
256
6
ByLayer
370
35
48
0.05
60
0
100
AcDbLine
10
-34
20
-5
30
0
11
-33.862879
21
-4.7625
31
0
39
0
210
0
220
0
230
1
0
LINE
5
DB
100
AcDbEntity
8
SK3
62
256
6
ByLayer
370
35
48
0.05
60
0
100
AcDbLine
10
-46
20
-10.25
30
0
11
-40.75
21
-5
31
0
39
0
210
0
220
0
230
1
0
LINE
5
DC
100
AcDbEntity
8
SK3
62
256
6
ByLayer
370
35
48
0.05
60
0
100
AcDbLine
10
-40.75
20
5
30
0
11
-46
21
10.25
31
0
39
0
210
0
220
0
230
1
0
LINE
5
DD
100
AcDbEntity
8
SK3
62
256
6
ByLayer
370
35
48
0.05
60
0
100
AcDbLine
10
0.999972
20
-4.7625
30
0
11
3.5
21
-4.7625
31
0
39
0
210
0
220
0
230
1
0
LINE
5
DE
100
AcDbEntity
8
SK3
62
256
6
ByLayer
370
35
48
0.05
60
0
100
AcDbLine
10
-33.862879
20
-4.7625
30
0
11
-29.999963
21
-4.7625
31
0
39
0
210
0
220
0
230
1
0
LINE
5
DF
100
AcDbEntity
8
SK3
62
256
6
ByLayer
370
35
48
0.05
60
0
100
AcDbLine
10
4
20
4.135534
30
0
11
-41.18939
21
4.135534
31
0
39
0
210
0
220
0
230
1
0
LINE
5
E0
100
AcDbEntity
8
SK4
62
256
6
ByLayer
370
25
48
0.05
60
0
100
AcDbLine
10
-56
20
0
30
0
11
4
21
0
31
0
39
0
210
0
220
0
230
1
0
LINE
5
E2
100
AcDbEntity
8
80
62
256
6
ByLayer
370
18
48
1
60
0
100
AcDbLine
10
0
20
0
30
0
11
-2
21
0
31
0
39
0
210
0
220
0
230
1
0
LINE
5
E3
100
AcDbEntity
8
81
62
256
6
ByLayer
370
18
48
1
60
0
100
AcDbLine
10
4
20
0
30
0
11
6
21
0
31
0
39
0
210
0
220
0
230
1
0
LINE
5
10D
100
AcDbEntity
8
4
62
256
6
ByLayer
370
13
48
0.05
60
0
100
AcDbLine
10
5.834315
20
0
30
0
11
0.015685
21
0
31
0
39
0
210
0
220
0
230
1
0
MTEXT
5
109
100
AcDbEntity
8
SK6
62
256
6
ByLayer
370
18
48
1
60
0
100
AcDbMText
10
-44.646626
20
-55.709031
30
0
210
0
220
0
230
1
1
\W0.7562;A393.CF-25 06 56
40
3.5
41
0
44
1.084337
50
0
71
7
72
5
7
iso_b_vert
0
DIMENSION
5
110
100
AcDbEntity
8
SK2
62
256
6
ByLayer
370
18
48
1
60
0
100
AcDbDimension
2
_U0
10
36.231357
20
-14.991664
30
0
11
36.231357
21
0
31
0
70
32
71
1
72
1
41
1
210
0
220
0
230
1
3
Standard
100
AcDbAlignedDimension
13
2
23
14.991664
33
0
14
2
24
-14.991664
34
0
50
90
100
AcDbRotatedDimension
1001
ACAD
1000
DSTYLE
1002
{
1070
   371
1070
    13
1070
   372
1070
    13
1070
   170
1070
     0
1070
   144
1040
1.0
1070
   277
1070
     2
1070
   284
1070
     8
1070
   278
1070
    46
1070
   146
1040
1.166667
1070
   345
1005
16
1070
   347
1005
16
1070
   346
1005
16
1070
   344
1005
0
1070
   343
1005
0
1070
   172
1070
     1
1070
    76
1070
     0
1070
    75
1070
     0
1070
   282
1070
     0
1070
   281
1070
     0
1070
    71
1070
     0
1070
    74
1070
     0
1070
   279
1070
     0
1070
   173
1070
     1
1070
   340
1005
10A
1070
   271
1070
     0
1070
   272
1070
     2
1070
    77
1070
     1
1070
    73
1070
     0
1070
   171
1070
     3
1070
   274
1070
     4
1070
   177
1070
     7
1070
   176
1070
     7
1070
   178
1070
     7
1070
    78
1070
     8
1070
    48
1040
-0.1
1070
    41
1040
3.175
1070
   147
1040
1.5
1070
    42
1040
1.5875
1070
    44
1040
2.0
1070
   140
1040
3.0
1002
}
1001
ACAD_DSTYLE_DIM_LINETYPE
1070
   380
1005
16
1001
ACAD_DSTYLE_DIM_EXT1_LINETYPE
1070
   381
1005
16
1001
ACAD_DSTYLE_DIM_EXT2_LINETYPE
1070
   382
1005
16
0
DIMENSION
5
12B
100
AcDbEntity
8
SK2
62
256
6
ByLayer
370
18
48
1
60
0
100
AcDbDimension
2
_U1
10
18.691306
20
-4.7625
30
0
11
18.691306
21
-32.04874
31
0
70
32
71
1
72
1
41
1
210
0
220
0
230
1
3
Standard
100
AcDbAlignedDimension
13
3.5
23
4.7625
33
0
14
3.5
24
-4.7625
34
0
50
90
100
AcDbRotatedDimension
1001
ACAD
1000
DSTYLE
1002
{
1070
   371
1070
    13
1070
   372
1070
    13
1070
   170
1070
     0
1070
   144
1040
1.0
1070
   277
1070
     2
1070
   284
1070
     8
1070
   278
1070
    46
1070
   146
1040
1.166667
1070
   345
1005
16
1070
   347
1005
16
1070
   346
1005
16
1070
   344
1005
0
1070
   343
1005
0
1070
   172
1070
     1
1070
    76
1070
     0
1070
    75
1070
     0
1070
   282
1070
     0
1070
   281
1070
     0
1070
    71
1070
     0
1070
    74
1070
     0
1070
   279
1070
     0
1070
   173
1070
     1
1070
   340
1005
10A
1070
   271
1070
     3
1070
   272
1070
     2
1070
    77
1070
     1
1070
    73
1070
     0
1070
   171
1070
     3
1070
   274
1070
     4
1070
   177
1070
     7
1070
   176
1070
     7
1070
   178
1070
     7
1070
    78
1070
     8
1070
    48
1040
-0.1
1070
    41
1040
3.175
1070
   147
1040
1.5
1070
    42
1040
1.5875
1070
    44
1040
2.0
1070
   140
1040
3.0
1002
}
1001
ACAD_DSTYLE_DIM_LINETYPE
1070
   380
1005
16
1001
ACAD_DSTYLE_DIM_EXT1_LINETYPE
1070
   381
1005
16
1001
ACAD_DSTYLE_DIM_EXT2_LINETYPE
1070
   382
1005
16
0
DIMENSION
5
146
100
AcDbEntity
8
SK2
62
256
6
ByLayer
370
18
48
1
60
0
100
AcDbDimension
2
_U2
10
-56
20
-33.08054
30
0
11
-26
21
-33.08054
31
0
70
32
71
1
72
1
41
1
210
0
220
0
230
1
3
Standard
100
AcDbAlignedDimension
13
4
23
-13.989958
33
0
14
-56
24
-11.67624
34
0
50
0
100
AcDbRotatedDimension
1001
ACAD
1000
DSTYLE
1002
{
1070
   371
1070
    13
1070
   372
1070
    13
1070
   170
1070
     0
1070
   144
1040
1.0
1070
   277
1070
     2
1070
   284
1070
     8
1070
   278
1070
    46
1070
   146
1040
1.166667
1070
   345
1005
16
1070
   347
1005
16
1070
   346
1005
16
1070
   344
1005
0
1070
   343
1005
0
1070
   172
1070
     1
1070
    76
1070
     0
1070
    75
1070
     0
1070
   282
1070
     0
1070
   281
1070
     0
1070
    71
1070
     0
1070
    74
1070
     0
1070
   279
1070
     0
1070
   173
1070
     1
1070
   340
1005
10A
1070
   271
1070
     2
1070
   272
1070
     2
1070
    77
1070
     1
1070
    73
1070
     1
1070
   171
1070
     3
1070
   274
1070
     4
1070
   177
1070
     7
1070
   176
1070
     7
1070
   178
1070
     7
1070
    78
1070
     8
1070
    48
1040
-0.1
1070
    41
1040
3.175
1070
   147
1040
1.5
1070
    42
1040
1.5875
1070
    44
1040
2.0
1070
   140
1040
3.0
1002
}
1001
ACAD_DSTYLE_DIM_LINETYPE
1070
   380
1005
16
1001
ACAD_DSTYLE_DIM_EXT1_LINETYPE
1070
   381
1005
16
1001
ACAD_DSTYLE_DIM_EXT2_LINETYPE
1070
   382
1005
16
0
DIMENSION
5
15E
100
AcDbEntity
8
SK2
62
256
6
ByLayer
370
18
48
1
60
0
100
AcDbDimension
2
_U3
10
-56
20
-20.458423
30
0
11
-28
21
-20.458423
31
0
70
32
71
1
72
1
41
1
210
0
220
0
230
1
3
Standard
100
AcDbAlignedDimension
13
0
23
-13.825276
33
0
14
-56
24
-10.538675
34
0
50
0
100
AcDbRotatedDimension
1001
ACAD
1000
DSTYLE
1002
{
1070
   371
1070
    13
1070
   372
1070
    13
1070
   170
1070
     0
1070
   144
1040
1.0
1070
   277
1070
     2
1070
   284
1070
     8
1070
   278
1070
    46
1070
   146
1040
1.166667
1070
   345
1005
16
1070
   347
1005
16
1070
   346
1005
16
1070
   344
1005
0
1070
   343
1005
0
1070
   172
1070
     1
1070
    76
1070
     0
1070
    75
1070
     0
1070
   282
1070
     0
1070
   281
1070
     0
1070
    71
1070
     0
1070
    74
1070
     0
1070
   279
1070
     0
1070
   173
1070
     1
1070
   340
1005
10A
1070
   271
1070
     2
1070
   272
1070
     2
1070
    77
1070
     1
1070
    73
1070
     1
1070
   171
1070
     3
1070
   274
1070
     4
1070
   177
1070
     7
1070
   176
1070
     7
1070
   178
1070
     7
1070
    78
1070
     8
1070
    48
1040
-0.1
1070
    41
1040
3.175
1070
   147
1040
1.5
1070
    42
1040
1.5875
1070
    44
1040
2.0
1070
   140
1040
3.0
1002
}
1001
ACAD_DSTYLE_DIM_LINETYPE
1070
   380
1005
16
1001
ACAD_DSTYLE_DIM_EXT1_LINETYPE
1070
   381
1005
16
1001
ACAD_DSTYLE_DIM_EXT2_LINETYPE
1070
   382
1005
16
0
DIMENSION
5
176
100
AcDbEntity
8
SK2
62
256
6
ByLayer
370
18
48
1
60
0
100
AcDbDimension
2
_U4
10
-69.211003
20
-12.5
30
0
11
-69.211003
21
0
31
0
70
32
71
1
72
1
41
1
210
0
220
0
230
1
3
Standard
100
AcDbAlignedDimension
13
-54.973205
23
12.5
33
0
14
-54.973205
24
-12.5
34
0
50
90
100
AcDbRotatedDimension
1001
ACAD
1000
DSTYLE
1002
{
1070
   371
1070
    13
1070
   372
1070
    13
1070
   170
1070
     0
1070
   144
1040
1.0
1070
   277
1070
     2
1070
   284
1070
     8
1070
   278
1070
    46
1070
   146
1040
1.166667
1070
   345
1005
16
1070
   347
1005
16
1070
   346
1005
16
1070
   344
1005
0
1070
   343
1005
0
1070
   172
1070
     1
1070
    76
1070
     0
1070
    75
1070
     0
1070
   282
1070
     0
1070
   281
1070
     0
1070
    71
1070
     0
1070
    74
1070
     0
1070
   279
1070
     0
1070
   173
1070
     1
1070
   340
1005
10A
1070
   271
1070
     2
1070
   272
1070
     2
1070
    77
1070
     1
1070
    73
1070
     0
1070
   171
1070
     3
1070
   274
1070
     4
1070
   177
1070
     7
1070
   176
1070
     7
1070
   178
1070
     7
1070
    78
1070
     8
1070
    48
1040
-0.1
1070
    41
1040
3.175
1070
   147
1040
1.5
1070
    42
1040
1.5875
1070
    44
1040
2.0
1070
   140
1040
3.0
1002
}
1001
ACAD_DSTYLE_DIM_LINETYPE
1070
   380
1005
16
1001
ACAD_DSTYLE_DIM_EXT1_LINETYPE
1070
   381
1005
16
1001
ACAD_DSTYLE_DIM_EXT2_LINETYPE
1070
   382
1005
16
0
DIMENSION
5
18F
100
AcDbEntity
8
2
62
256
6
ByLayer
370
18
48
1
60
0
100
AcDbDimension
2
_U5
10
0
20
20.777521
30
0
11
2
21
20.777521
31
0
70
32
71
1
72
1
41
1
210
0
220
0
230
1
3
Standard
100
AcDbAlignedDimension
13
4
23
13.989958
33
0
14
0
24
13.825276
34
0
50
0
100
AcDbRotatedDimension
1001
ACAD
1000
DSTYLE
1002
{
1070
   371
1070
    13
1070
   372
1070
    13
1070
   170
1070
     0
1070
   144
1040
1.0
1070
   277
1070
     2
1070
   284
1070
     8
1070
   278
1070
    46
1070
   146
1040
1.166667
1070
   345
1005
16
1070
   347
1005
16
1070
   346
1005
16
1070
   344
1005
0
1070
   343
1005
0
1070
   172
1070
     1
1070
    76
1070
     0
1070
    75
1070
     0
1070
   282
1070
     0
1070
   281
1070
     0
1070
    71
1070
     0
1070
    74
1070
     0
1070
   279
1070
     0
1070
   173
1070
     1
1070
   340
1005
10A
1070
   271
1070
     2
1070
   272
1070
     2
1070
    77
1070
     1
1070
    73
1070
     1
1070
   171
1070
     3
1070
   274
1070
     4
1070
   177
1070
     7
1070
   176
1070
     7
1070
   178
1070
     7
1070
    78
1070
     8
1070
    48
1040
-0.1
1070
    41
1040
3.175
1070
   147
1040
1.5
1070
    42
1040
1.5875
1070
    44
1040
2.0
1070
   140
1040
3.0
1002
}
1001
ACAD_DSTYLE_DIM_LINETYPE
1070
   380
1005
16
1001
ACAD_DSTYLE_DIM_EXT1_LINETYPE
1070
   381
1005
16
1001
ACAD_DSTYLE_DIM_EXT2_LINETYPE
1070
   382
1005
16
0
ENDSEC
0
SECTION
2
OBJECTS
0
DICTIONARY
5
21a
330
0
100
AcDbDictionary
280
0
281
1
3
ACAD_GROUP
350
21b
3
ACAD_MLINESTYLE
350
21c
0
DICTIONARY
5
21b
330
0
100
AcDbDictionary
280
0
281
1
0
DICTIONARY
5
21c
330
0
100
AcDbDictionary
280
0
281
1
3
Standard
350
18
0
MLINESTYLE
5
18
330
21c
100
AcDbMlineStyle
2
Standard
70
0
3

62
256
51
90
52
90
71
2
49
-0.5
62
256
6
ByLayer
49
0.5
62
256
6
ByLayer
0
RASTERVARIABLES
5
207
330

100
AcDbRasterVariables
90
0
70
1
71
1
72
1
0
ENDSEC
0
EOF
