0
SECTION
2
HEADER
9
$ACADVER
1
AC1015
9
$DWGCODEPAGE
3
ANSI_1252
9
$HANDSEED
5
224
9
$ANGBASE
50
0
9
$ANGDIR
70
0
9
$ATTMODE
70
1
9
$AUNITS
70
0
9
$AUPREC
70
0
9
$CECOLOR
62
256
9
$CELTSCALE
40
1
9
$CELTYPE
6
ByLayer
9
$CELWEIGHT
370
18
9
$CLAYER
8
0
9
$CMLJUST
70
0
9
$CMLSCALE
40
1
9
$CMLSTYLE
2
Standard
9
$DIMSTYLE
2
Standard
9
$TEXTSIZE
40
0.2
9
$TEXTSTYLE
7
Standard
9
$LUNITS
70
2
9
$LUPREC
70
4
9
$EXTNAMES
290
1
9
$INSUNITS
70
4
9
$LTSCALE
40
1
9
$LWDISPLAY
290
1
9
$PDMODE
70
0
9
$PDSIZE
40
0
9
$PLINEGEN
70
0
0
ENDSEC
0
SECTION
2
CLASSES
0
CLASS
1
RASTERVARIABLES
2
AcDbRasterVariables
3
ISM
90
0
280
0
281
0
0
ENDSEC
0
SECTION
2
TABLES
0
TABLE
2
VPORT
5
21a
100
AcDbSymbolTable
0
VPORT
5
1
100
AcDbSymbolTableRecord
100
AcDbViewportTableRecord
2
*Active
70
0
10
0
20
0
11
1
21
1
12
-1
22
1
13
0
23
0
14
0.5
24
0.5
15
10
25
10
16
0
26
0
36
1
17
0
27
0
37
0
0
ENDTAB
0
TABLE
2
LTYPE
5
21b
100
AcDbSymbolTable
0
LTYPE
5
14
100
AcDbSymbolTableRecord
100
AcDbLinetypeTableRecord
70
0
2
ByBlock
3

72
65
73
0
40
0
0
LTYPE
5
15
100
AcDbSymbolTableRecord
100
AcDbLinetypeTableRecord
70
0
2
ByLayer
3

72
65
73
0
40
0
0
LTYPE
5
16
100
AcDbSymbolTableRecord
100
AcDbLinetypeTableRecord
70
0
2
Continuous
3
Solid line
72
65
73
0
40
0
0
LTYPE
5
6E
100
AcDbSymbolTableRecord
100
AcDbLinetypeTableRecord
70
0
2
CENTER
3
____ _ ____ _ ____ _ ____
72
65
73
4
40
47.5
49
22
74
0
49
-8.5
74
0
49
8.5
74
0
49
-8.5
74
0
0
LTYPE
5
6F
100
AcDbSymbolTableRecord
100
AcDbLinetypeTableRecord
70
0
2
DASHED
3
__ __ __ __ __ __ __ __ __
72
65
73
2
40
25.72
49
12.86
74
0
49
-12.86
74
0
0
ENDTAB
0
TABLE
2
LAYER
5
21c
100
AcDbSymbolTable
0
LAYER
5
10
100
AcDbSymbolTableRecord
100
AcDbLayerTableRecord
2
0
70
0
62
7
6
Continuous
290
1
370
-3
390
0
0
LAYER
5
71
100
AcDbSymbolTableRecord
100
AcDbLayerTableRecord
2
80
70
0
62
-6
6
Continuous
290
1
370
-3
390
0
0
LAYER
5
73
100
AcDbSymbolTableRecord
100
AcDbLayerTableRecord
2
81
70
0
62
-3
6
Continuous
290
1
370
-3
390
0
0
LAYER
5
7C
100
AcDbSymbolTableRecord
100
AcDbLayerTableRecord
2
1
70
0
62
4
6
Continuous
290
1
370
-3
390
0
0
LAYER
5
10F
100
AcDbSymbolTableRecord
100
AcDbLayerTableRecord
2
Defpoints
70
0
62
7
6
Continuous
290
0
370
-3
390
0
0
LAYER
5
14F
100
AcDbSymbolTableRecord
100
AcDbLayerTableRecord
2
2
70
0
62
7
6
Continuous
290
1
370
-3
390
0
0
LAYER
5
205
100
AcDbSymbolTableRecord
100
AcDbLayerTableRecord
2
SK3
70
0
62
1
6
DASHED
290
1
370
-3
390
0
0
LAYER
5
206
100
AcDbSymbolTableRecord
100
AcDbLayerTableRecord
2
SK1
70
0
62
4
6
Continuous
290
1
370
-3
390
0
0
LAYER
5
207
100
AcDbSymbolTableRecord
100
AcDbLayerTableRecord
2
SK4
70
0
62
2
6
CENTER
290
1
370
-3
390
0
0
LAYER
5
208
100
AcDbSymbolTableRecord
100
AcDbLayerTableRecord
2
SK6
70
0
62
5
6
Continuous
290
1
370
-3
390
0
0
LAYER
5
209
100
AcDbSymbolTableRecord
100
AcDbLayerTableRecord
2
SK2
70
0
62
7
6
Continuous
290
1
370
-3
390
0
0
ENDTAB
0
TABLE
2
STYLE
5
21d
100
AcDbSymbolTable
0
STYLE
5
11
100
AcDbSymbolTableRecord
100
AcDbTextStyleTableRecord
2
Standard
3
txt
70
0
71
0
40
0
41
1
42
0
50
0
0
STYLE
5
108
100
AcDbSymbolTableRecord
100
AcDbTextStyleTableRecord
2
iso_b_vert
3
simplex.shx
70
0
71
0
40
0
41
1
42
0
50
0
0
STYLE
5
109
100
AcDbSymbolTableRecord
100
AcDbTextStyleTableRecord
2
DWGDirectTextStyle
3
simplex
70
0
71
0
40
0
41
1
42
0
50
0
0
ENDTAB
0
TABLE
2
DIMSTYLE
5
21e
100
AcDbSymbolTable
100
AcDbDimStyleTable
0
DIMSTYLE
105
27
100
AcDbSymbolTableRecord
100
AcDbDimStyleTableRecord
2
Standard
70
0
3
<>
41
0.18
42
0.0625
44
0.18
140
0.18
147
0.09
73
0
74
0
77
1
271
2
275
0
278
52
280
0
340
11
0
ENDTAB
0
TABLE
2
VIEW
5
21f
100
AcDbSymbolTable
0
ENDTAB
0
TABLE
2
UCS
5
220
100
AcDbSymbolTable
0
ENDTAB
0
TABLE
2
APPID
5
221
100
AcDbSymbolTable
0
APPID
5
12
100
AcDbSymbolTableRecord
100
AcDbRegAppTableRecord
2
ACAD
70
0
0
APPID
5
10B
100
AcDbSymbolTableRecord
100
AcDbRegAppTableRecord
2
ACAD_DSTYLE_DIMBREAK
70
0
0
APPID
5
1C4
100
AcDbSymbolTableRecord
100
AcDbRegAppTableRecord
2
ACAD_DSTYLE_DIM_LINETYPE
70
0
0
APPID
5
1C5
100
AcDbSymbolTableRecord
100
AcDbRegAppTableRecord
2
ACAD_DSTYLE_DIM_EXT1_LINETYPE
70
0
0
APPID
5
1C6
100
AcDbSymbolTableRecord
100
AcDbRegAppTableRecord
2
ACAD_DSTYLE_DIM_EXT2_LINETYPE
70
0
0
APPID
5
201
100
AcDbSymbolTableRecord
100
AcDbRegAppTableRecord
2
ACAD_MLEADERVER
70
0
0
ENDTAB
0
TABLE
2
BLOCK_RECORD
5
222
100
AcDbSymbolTable
0
BLOCK_RECORD
5
1F
100
AcDbSymbolTableRecord
100
AcDbBlockTableRecord
2
*Model_Space
340
0
70
0
0
BLOCK_RECORD
5
1B
100
AcDbSymbolTableRecord
100
AcDbBlockTableRecord
2
*Paper_Space
340
0
70
0
0
BLOCK_RECORD
5
23
100
AcDbSymbolTableRecord
100
AcDbBlockTableRecord
2
*Paper_Space0
340
0
70
0
0
BLOCK_RECORD
5
110
100
AcDbSymbolTableRecord
100
AcDbBlockTableRecord
2
*D1
340
0
70
0
0
BLOCK_RECORD
5
11D
100
AcDbSymbolTableRecord
100
AcDbBlockTableRecord
2
_U0
340
0
70
0
0
BLOCK_RECORD
5
129
100
AcDbSymbolTableRecord
100
AcDbBlockTableRecord
2
*D3
340
0
70
0
0
BLOCK_RECORD
5
135
100
AcDbSymbolTableRecord
100
AcDbBlockTableRecord
2
_U1
340
0
70
0
0
BLOCK_RECORD
5
141
100
AcDbSymbolTableRecord
100
AcDbBlockTableRecord
2
*D5
340
0
70
0
0
BLOCK_RECORD
5
150
100
AcDbSymbolTableRecord
100
AcDbBlockTableRecord
2
_U2
340
0
70
0
0
BLOCK_RECORD
5
15C
100
AcDbSymbolTableRecord
100
AcDbBlockTableRecord
2
*D7
340
0
70
0
0
BLOCK_RECORD
5
168
100
AcDbSymbolTableRecord
100
AcDbBlockTableRecord
2
_U3
340
0
70
0
0
BLOCK_RECORD
5
175
100
AcDbSymbolTableRecord
100
AcDbBlockTableRecord
2
*D9
340
0
70
0
0
BLOCK_RECORD
5
183
100
AcDbSymbolTableRecord
100
AcDbBlockTableRecord
2
_U4
340
0
70
0
0
BLOCK_RECORD
5
190
100
AcDbSymbolTableRecord
100
AcDbBlockTableRecord
2
*D11
340
0
70
0
0
BLOCK_RECORD
5
19C
100
AcDbSymbolTableRecord
100
AcDbBlockTableRecord
2
_U5
340
0
70
0
0
ENDTAB
0
ENDSEC
0
SECTION
2
BLOCKS
0
BLOCK
5
20
100
AcDbEntity
8
0
100
AcDbBlockBegin
2
*Model_Space
70
0
10
0
20
0
30
0
3
*Model_Space
0
ENDBLK
5
21
100
AcDbEntity
8
0
100
AcDbBlockEnd
0
BLOCK
5
1C
100
AcDbEntity
8
0
100
AcDbBlockBegin
2
*Paper_Space
70
0
10
0
20
0
30
0
3
*Paper_Space
0
ENDBLK
5
1D
100
AcDbEntity
8
0
100
AcDbBlockEnd
0
BLOCK
5
24
100
AcDbEntity
8
0
100
AcDbBlockBegin
2
*Paper_Space0
70
0
10
0
20
0
30
0
3
*Paper_Space0
0
ENDBLK
5
25
100
AcDbEntity
8
0
100
AcDbBlockEnd
0
BLOCK
5
111
100
AcDbEntity
8
0
100
AcDbBlockBegin
2
*D1
70
1
10
0
20
0
30
0
3
*D1
0
LINE
5
113
100
AcDbEntity
8
0
62
256
6
ByLayer
370
-2
48
1
60
0
100
AcDbLine
10
-56
20
10.08874
30
0
11
-56
21
-39.613621
31
0
39
0
210
0
220
0
230
1
0
LINE
5
114
100
AcDbEntity
8
0
62
256
6
ByLayer
370
-2
48
1
60
0
100
AcDbLine
10
4
20
12.402458
30
0
11
4
21
-39.613621
31
0
39
0
210
0
220
0
230
1
0
LINE
5
115
100
AcDbEntity
8
0
62
256
6
ByLayer
370
-2
48
1
60
0
100
AcDbLine
10
-52.825
20
-37.613621
30
0
11
0.825
21
-37.613621
31
0
39
0
210
0
220
0
230
1
0
SOLID
5
116
100
AcDbEntity
8
0
62
256
6
ByLayer
370
-1
48
1
60
0
100
AcDbTrace
10
-52.825
20
-37.084454
30
0
11
-52.825
21
-38.142787
31
0
12
-56
22
-37.613621
32
0
13
-56
23
-37.613621
33
0
39
0
210
0
220
0
230
1
0
SOLID
5
117
100
AcDbEntity
8
0
62
256
6
ByLayer
370
-1
48
1
60
0
100
AcDbTrace
10
0.825
20
-38.142787
30
0
11
0.825
21
-37.084454
31
0
12
4
22
-37.613621
32
0
13
4
23
-37.613621
33
0
39
0
210
0
220
0
230
1
0
MTEXT
5
118
100
AcDbEntity
8
0
62
256
6
ByLayer
370
18
48
1
60
0
100
AcDbMText
10
-26
20
-31.613621
30
0
210
0
220
0
230
1
1
\A1;60
40
3
41
0
44
1
50
0
71
5
72
5
7
iso_b_vert
0
POINT
5
119
100
AcDbEntity
8
Defpoints
62
0
6
ByLayer
370
-1
48
1
60
0
100
AcDbPoint
10
-56
20
11.67624
30
0
39
0
210
0
220
0
230
1
50
360
0
POINT
5
11A
100
AcDbEntity
8
Defpoints
62
0
6
ByLayer
370
-1
48
1
60
0
100
AcDbPoint
10
4
20
13.989958
30
0
39
0
210
0
220
0
230
1
50
360
0
POINT
5
11B
100
AcDbEntity
8
Defpoints
62
0
6
ByLayer
370
-1
48
1
60
0
100
AcDbPoint
10
4
20
-37.613621
30
0
39
0
210
0
220
0
230
1
50
360
0
ENDBLK
5
112
100
AcDbEntity
8
0
100
AcDbBlockEnd
0
BLOCK
5
124
100
AcDbEntity
8
0
100
AcDbBlockBegin
2
_U0
70
0
10
0
20
0
30
0
3
_U0
0
MTEXT
5
11E
100
AcDbEntity
8
SK2
62
256
6
ByLayer
370
18
48
1
60
0
100
AcDbMText
10
-27.632828
20
-36.728506
30
0
210
0
220
0
230
1
1
\W0.6740;60
40
3
41
0
44
1.084337
50
0
71
7
72
5
7
iso_b_vert
0
LINE
5
11F
100
AcDbEntity
8
SK2
62
256
6
ByLayer
370
13
48
1
60
0
100
AcDbLine
10
-56
20
10.08874
30
0
11
-56
21
-39.613621
31
0
39
0
210
0
220
0
230
1
0
LINE
5
120
100
AcDbEntity
8
SK2
62
256
6
ByLayer
370
13
48
1
60
0
100
AcDbLine
10
4
20
-1.0875
30
0
11
4
21
-39.613621
31
0
39
0
210
0
220
0
230
1
0
LINE
5
121
100
AcDbEntity
8
SK2
62
256
6
ByLayer
370
13
48
1
60
0
100
AcDbLine
10
-56
20
-37.613621
30
0
11
4
21
-37.613621
31
0
39
0
210
0
220
0
230
1
0
SOLID
5
122
100
AcDbEntity
8
SK2
62
256
6
ByLayer
370
18
48
1
60
0
100
AcDbTrace
10
-56
20
-37.613621
30
0
11
-52.825002
21
-37.195624
31
0
12
-52.824998
22
-38.031617
32
0
13
-52.824998
23
-38.031617
33
0
39
0
210
0
220
0
230
1
0
SOLID
5
123
100
AcDbEntity
8
SK2
62
256
6
ByLayer
370
18
48
1
60
0
100
AcDbTrace
10
4
20
-37.613621
30
0
11
0.825002
21
-38.031617
31
0
12
0.824998
22
-37.195624
32
0
13
0.824998
23
-37.195624
33
0
39
0
210
0
220
0
230
1
0
ENDBLK
5
125
100
AcDbEntity
8
0
100
AcDbBlockEnd
0
BLOCK
5
12A
100
AcDbEntity
8
0
100
AcDbBlockBegin
2
*D3
70
1
10
0
20
0
30
0
3
*D3
0
LINE
5
12C
100
AcDbEntity
8
0
62
256
6
ByLayer
370
-2
48
1
60
0
100
AcDbLine
10
-56
20
-13.26374
30
0
11
-56
21
-28.199389
31
0
39
0
210
0
220
0
230
1
0
LINE
5
12D
100
AcDbEntity
8
0
62
256
6
ByLayer
370
-2
48
1
60
0
100
AcDbLine
10
0
20
-15.412776
30
0
11
0
21
-28.199389
31
0
39
0
210
0
220
0
230
1
0
LINE
5
12E
100
AcDbEntity
8
0
62
256
6
ByLayer
370
-2
48
1
60
0
100
AcDbLine
10
-52.825
20
-26.199389
30
0
11
-3.175
21
-26.199389
31
0
39
0
210
0
220
0
230
1
0
SOLID
5
12F
100
AcDbEntity
8
0
62
256
6
ByLayer
370
-1
48
1
60
0
100
AcDbTrace
10
-52.825
20
-25.670222
30
0
11
-52.825
21
-26.728555
31
0
12
-56
22
-26.199389
32
0
13
-56
23
-26.199389
33
0
39
0
210
0
220
0
230
1
0
SOLID
5
130
100
AcDbEntity
8
0
62
256
6
ByLayer
370
-1
48
1
60
0
100
AcDbTrace
10
-3.175
20
-26.728555
30
0
11
-3.175
21
-25.670222
31
0
12
0
22
-26.199389
32
0
13
0
23
-26.199389
33
0
39
0
210
0
220
0
230
1
0
MTEXT
5
131
100
AcDbEntity
8
0
62
256
6
ByLayer
370
18
48
1
60
0
100
AcDbMText
10
-28
20
-20.199389
30
0
210
0
220
0
230
1
1
\A1;56
40
3
41
0
44
1
50
0
71
5
72
5
7
iso_b_vert
0
POINT
5
132
100
AcDbEntity
8
Defpoints
62
0
6
ByLayer
370
-1
48
1
60
0
100
AcDbPoint
10
-56
20
-11.67624
30
0
39
0
210
0
220
0
230
1
50
360
0
POINT
5
133
100
AcDbEntity
8
Defpoints
62
0
6
ByLayer
370
-1
48
1
60
0
100
AcDbPoint
10
0
20
-13.825276
30
0
39
0
210
0
220
0
230
1
50
360
0
POINT
5
134
100
AcDbEntity
8
Defpoints
62
0
6
ByLayer
370
-1
48
1
60
0
100
AcDbPoint
10
0
20
-26.199389
30
0
39
0
210
0
220
0
230
1
50
360
0
ENDBLK
5
12B
100
AcDbEntity
8
0
100
AcDbBlockEnd
0
BLOCK
5
13C
100
AcDbEntity
8
0
100
AcDbBlockBegin
2
_U1
70
0
10
0
20
0
30
0
3
_U1
0
MTEXT
5
136
100
AcDbEntity
8
SK2
62
256
6
ByLayer
370
18
48
1
60
0
100
AcDbMText
10
-29.632828
20
-25.314274
30
0
210
0
220
0
230
1
1
\W0.6740;56
40
3
41
0
44
1.084337
50
0
71
7
72
5
7
iso_b_vert
0
LINE
5
137
100
AcDbEntity
8
SK2
62
256
6
ByLayer
370
13
48
1
60
0
100
AcDbLine
10
-56
20
-13.26374
30
0
11
-56
21
-28.199389
31
0
39
0
210
0
220
0
230
1
0
LINE
5
138
100
AcDbEntity
8
SK2
62
256
6
ByLayer
370
13
48
1
60
0
100
AcDbLine
10
0
20
-15.412776
30
0
11
0
21
-28.199389
31
0
39
0
210
0
220
0
230
1
0
LINE
5
139
100
AcDbEntity
8
SK2
62
256
6
ByLayer
370
13
48
1
60
0
100
AcDbLine
10
-56
20
-26.199389
30
0
11
0
21
-26.199389
31
0
39
0
210
0
220
0
230
1
0
SOLID
5
13A
100
AcDbEntity
8
SK2
62
256
6
ByLayer
370
18
48
1
60
0
100
AcDbTrace
10
-56
20
-26.199389
30
0
11
-52.825002
21
-25.781392
31
0
12
-52.824998
22
-26.617385
32
0
13
-52.824998
23
-26.617385
33
0
39
0
210
0
220
0
230
1
0
SOLID
5
13B
100
AcDbEntity
8
SK2
62
256
6
ByLayer
370
18
48
1
60
0
100
AcDbTrace
10
0
20
-26.199389
30
0
11
-3.174998
21
-26.617385
31
0
12
-3.175002
22
-25.781392
32
0
13
-3.175002
23
-25.781392
33
0
39
0
210
0
220
0
230
1
0
ENDBLK
5
13D
100
AcDbEntity
8
0
100
AcDbBlockEnd
0
BLOCK
5
142
100
AcDbEntity
8
0
100
AcDbBlockBegin
2
*D5
70
1
10
0
20
0
30
0
3
*D5
0
LINE
5
144
100
AcDbEntity
8
0
62
256
6
ByLayer
370
-2
48
1
60
0
100
AcDbLine
10
4
20
15.577458
30
0
11
4
21
24.999062
31
0
39
0
210
0
220
0
230
1
0
LINE
5
145
100
AcDbEntity
8
0
62
256
6
ByLayer
370
-2
48
1
60
0
100
AcDbLine
10
0
20
15.412776
30
0
11
0
21
24.999062
31
0
39
0
210
0
220
0
230
1
0
LINE
5
146
100
AcDbEntity
8
0
62
256
6
ByLayer
370
-2
48
1
60
0
100
AcDbLine
10
4
20
22.999062
30
0
11
21.492857
21
22.999062
31
0
39
0
210
0
220
0
230
1
0
LINE
5
147
100
AcDbEntity
8
0
62
256
6
ByLayer
370
-2
48
1
60
0
100
AcDbLine
10
7.175
20
22.999062
30
0
11
10.35
21
22.999062
31
0
39
0
210
0
220
0
230
1
0
LINE
5
148
100
AcDbEntity
8
0
62
256
6
ByLayer
370
-2
48
1
60
0
100
AcDbLine
10
-3.175
20
22.999062
30
0
11
-6.35
21
22.999062
31
0
39
0
210
0
220
0
230
1
0
SOLID
5
149
100
AcDbEntity
8
0
62
256
6
ByLayer
370
-1
48
1
60
0
100
AcDbTrace
10
7.175
20
23.528229
30
0
11
7.175
21
22.469896
31
0
12
4
22
22.999062
32
0
13
4
23
22.999062
33
0
39
0
210
0
220
0
230
1
0
SOLID
5
14A
100
AcDbEntity
8
0
62
256
6
ByLayer
370
-1
48
1
60
0
100
AcDbTrace
10
-3.175
20
22.469896
30
0
11
-3.175
21
23.528229
31
0
12
0
22
22.999062
32
0
13
0
23
22.999062
33
0
39
0
210
0
220
0
230
1
0
MTEXT
5
14B
100
AcDbEntity
8
0
62
256
6
ByLayer
370
18
48
1
60
0
100
AcDbMText
10
15.921429
20
28.999062
30
0
210
0
220
0
230
1
1
\A1;4
40
3
41
0
44
1
50
0
71
5
72
5
7
iso_b_vert
0
POINT
5
14C
100
AcDbEntity
8
Defpoints
62
0
6
ByLayer
370
-1
48
1
60
0
100
AcDbPoint
10
4
20
13.989958
30
0
39
0
210
0
220
0
230
1
50
360
0
POINT
5
14D
100
AcDbEntity
8
Defpoints
62
0
6
ByLayer
370
-1
48
1
60
0
100
AcDbPoint
10
0
20
13.825276
30
0
39
0
210
0
220
0
230
1
50
360
0
POINT
5
14E
100
AcDbEntity
8
Defpoints
62
0
6
ByLayer
370
-1
48
1
60
0
100
AcDbPoint
10
0
20
22.999062
30
0
39
0
210
0
220
0
230
1
50
360
0
ENDBLK
5
143
100
AcDbEntity
8
0
100
AcDbBlockEnd
0
BLOCK
5
157
100
AcDbEntity
8
0
100
AcDbBlockBegin
2
_U2
70
0
10
0
20
0
30
0
3
_U2
0
MTEXT
5
151
100
AcDbEntity
8
2
62
256
6
ByLayer
370
18
48
1
60
0
100
AcDbMText
10
11.162949
20
23.884177
30
0
210
0
220
0
230
1
1
\W0.6380;4
40
3
41
0
44
1.084337
50
0
71
7
72
5
7
iso_b_vert
0
LINE
5
152
100
AcDbEntity
8
2
62
256
6
ByLayer
370
13
48
1
60
0
100
AcDbLine
10
4
20
15.577458
30
0
11
4
21
24.999062
31
0
39
0
210
0
220
0
230
1
0
LINE
5
153
100
AcDbEntity
8
2
62
256
6
ByLayer
370
13
48
1
60
0
100
AcDbLine
10
0
20
15.412776
30
0
11
0
21
24.999062
31
0
39
0
210
0
220
0
230
1
0
LINE
5
154
100
AcDbEntity
8
2
62
256
6
ByLayer
370
13
48
1
60
0
100
AcDbLine
10
-7.5
20
22.999062
30
0
11
12.661663
21
22.999062
31
0
39
0
210
0
220
0
230
1
0
SOLID
5
155
100
AcDbEntity
8
2
62
256
6
ByLayer
370
18
48
1
60
0
100
AcDbTrace
10
4
20
22.999062
30
0
11
7.174998
21
23.417059
31
0
12
7.175002
22
22.581066
32
0
13
7.175002
23
22.581066
33
0
39
0
210
0
220
0
230
1
0
SOLID
5
156
100
AcDbEntity
8
2
62
256
6
ByLayer
370
18
48
1
60
0
100
AcDbTrace
10
0
20
22.999062
30
0
11
-3.174998
21
22.581066
31
0
12
-3.175002
22
23.417059
32
0
13
-3.175002
23
23.417059
33
0
39
0
210
0
220
0
230
1
0
ENDBLK
5
158
100
AcDbEntity
8
0
100
AcDbBlockEnd
0
BLOCK
5
15D
100
AcDbEntity
8
0
100
AcDbBlockBegin
2
*D7
70
1
10
0
20
0
30
0
3
*D7
0
LINE
5
15F
100
AcDbEntity
8
0
62
256
6
ByLayer
370
-2
48
1
60
0
100
AcDbLine
10
4.421815
20
14.991664
30
0
11
33.793953
21
14.991664
31
0
39
0
210
0
220
0
230
1
0
LINE
5
160
100
AcDbEntity
8
0
62
256
6
ByLayer
370
-2
48
1
60
0
100
AcDbLine
10
4.421815
20
-14.991664
30
0
11
33.793953
21
-14.991664
31
0
39
0
210
0
220
0
230
1
0
LINE
5
161
100
AcDbEntity
8
0
62
256
6
ByLayer
370
-2
48
1
60
0
100
AcDbLine
10
31.793953
20
11.816664
30
0
11
31.793953
21
-11.816664
31
0
39
0
210
0
220
0
230
1
0
SOLID
5
162
100
AcDbEntity
8
0
62
256
6
ByLayer
370
-1
48
1
60
0
100
AcDbTrace
10
32.32312
20
11.816664
30
0
11
31.264787
21
11.816664
31
0
12
31.793953
22
14.991664
32
0
13
31.793953
23
14.991664
33
0
39
0
210
0
220
0
230
1
0
SOLID
5
163
100
AcDbEntity
8
0
62
256
6
ByLayer
370
-1
48
1
60
0
100
AcDbTrace
10
31.264787
20
-11.816664
30
0
11
32.32312
21
-11.816664
31
0
12
31.793953
22
-14.991664
32
0
13
31.793953
23
-14.991664
33
0
39
0
210
0
220
0
230
1
0
MTEXT
5
164
100
AcDbEntity
8
0
62
256
6
ByLayer
370
18
48
1
60
0
100
AcDbMText
10
25.793953
20
0
30
0
210
0
220
0
230
1
1
\A1;30
40
3
41
0
44
1
50
90
71
5
72
5
7
iso_b_vert
0
POINT
5
165
100
AcDbEntity
8
Defpoints
62
0
6
ByLayer
370
-1
48
1
60
0
100
AcDbPoint
10
2.834315
20
14.991664
30
0
39
0
210
0
220
0
230
1
50
360
0
POINT
5
166
100
AcDbEntity
8
Defpoints
62
0
6
ByLayer
370
-1
48
1
60
0
100
AcDbPoint
10
2.834315
20
-14.991664
30
0
39
0
210
0
220
0
230
1
50
360
0
POINT
5
167
100
AcDbEntity
8
Defpoints
62
0
6
ByLayer
370
-1
48
1
60
0
100
AcDbPoint
10
31.793953
20
-14.991664
30
0
39
0
210
0
220
0
230
1
50
360
0
ENDBLK
5
15E
100
AcDbEntity
8
0
100
AcDbBlockEnd
0
BLOCK
5
170
100
AcDbEntity
8
0
100
AcDbBlockBegin
2
_U3
70
0
10
0
20
0
30
0
3
_U3
0
MTEXT
5
169
100
AcDbEntity
8
SK2
62
256
6
ByLayer
370
18
48
1
60
0
100
AcDbMText
10
30.452839
20
-6.156828
30
0
210
0
220
0
230
1
1
%%c
40
3
41
0
44
1.084337
50
90
71
7
72
5
7
iso_b_vert
0
MTEXT
5
16A
100
AcDbEntity
8
SK2
62
256
6
ByLayer
370
18
48
1
60
0
100
AcDbMText
10
30.452839
20
2.843172
30
0
210
0
220
0
230
1
1
\W0.6740;30
40
3
41
0
44
1.084337
50
90
71
7
72
5
7
iso_b_vert
0
LINE
5
16B
100
AcDbEntity
8
SK2
62
256
6
ByLayer
370
13
48
1
60
0
100
AcDbLine
10
4.421815
20
14.991664
30
0
11
33.793953
21
14.991664
31
0
39
0
210
0
220
0
230
1
0
LINE
5
16C
100
AcDbEntity
8
SK2
62
256
6
ByLayer
370
13
48
1
60
0
100
AcDbLine
10
4.421815
20
-14.991664
30
0
11
33.793953
21
-14.991664
31
0
39
0
210
0
220
0
230
1
0
LINE
5
16D
100
AcDbEntity
8
SK2
62
256
6
ByLayer
370
13
48
1
60
0
100
AcDbLine
10
31.793953
20
14.991664
30
0
11
31.793953
21
-14.991664
31
0
39
0
210
0
220
0
230
1
0
SOLID
5
16E
100
AcDbEntity
8
SK2
62
256
6
ByLayer
370
18
48
1
60
0
100
AcDbTrace
10
31.793953
20
14.991664
30
0
11
32.21195
21
11.816666
31
0
12
31.375957
22
11.816663
32
0
13
31.375957
23
11.816663
33
0
39
0
210
0
220
0
230
1
0
SOLID
5
16F
100
AcDbEntity
8
SK2
62
256
6
ByLayer
370
18
48
1
60
0
100
AcDbTrace
10
31.793953
20
-14.991664
30
0
11
31.375957
21
-11.816666
31
0
12
32.21195
22
-11.816663
32
0
13
32.21195
23
-11.816663
33
0
39
0
210
0
220
0
230
1
0
ENDBLK
5
171
100
AcDbEntity
8
0
100
AcDbBlockEnd
0
BLOCK
5
176
100
AcDbEntity
8
0
100
AcDbBlockBegin
2
*D9
70
1
10
0
20
0
30
0
3
*D9
0
LINE
5
178
100
AcDbEntity
8
0
62
256
6
ByLayer
370
-2
48
1
60
0
100
AcDbLine
10
5.0875
20
3.96875
30
0
11
17.505806
21
3.96875
31
0
39
0
210
0
220
0
230
1
0
LINE
5
179
100
AcDbEntity
8
0
62
256
6
ByLayer
370
-2
48
1
60
0
100
AcDbLine
10
5.0875
20
-3.96875
30
0
11
17.505806
21
-3.96875
31
0
39
0
210
0
220
0
230
1
0
LINE
5
17A
100
AcDbEntity
8
0
62
256
6
ByLayer
370
-2
48
1
60
0
100
AcDbLine
10
15.505806
20
-3.96875
30
0
11
15.505806
21
-39.2026
31
0
39
0
210
0
220
0
230
1
0
LINE
5
17B
100
AcDbEntity
8
0
62
256
6
ByLayer
370
-2
48
1
60
0
100
AcDbLine
10
15.505806
20
7.14375
30
0
11
15.505806
21
10.31875
31
0
39
0
210
0
220
0
230
1
0
LINE
5
17C
100
AcDbEntity
8
0
62
256
6
ByLayer
370
-2
48
1
60
0
100
AcDbLine
10
15.505806
20
-7.14375
30
0
11
15.505806
21
-10.31875
31
0
39
0
210
0
220
0
230
1
0
SOLID
5
17D
100
AcDbEntity
8
0
62
256
6
ByLayer
370
-1
48
1
60
0
100
AcDbTrace
10
14.97664
20
7.14375
30
0
11
16.034973
21
7.14375
31
0
12
15.505806
22
3.96875
32
0
13
15.505806
23
3.96875
33
0
39
0
210
0
220
0
230
1
0
SOLID
5
17E
100
AcDbEntity
8
0
62
256
6
ByLayer
370
-1
48
1
60
0
100
AcDbTrace
10
16.034973
20
-7.14375
30
0
11
14.97664
21
-7.14375
31
0
12
15.505806
22
-3.96875
32
0
13
15.505806
23
-3.96875
33
0
39
0
210
0
220
0
230
1
0
MTEXT
5
17F
100
AcDbEntity
8
0
62
256
6
ByLayer
370
18
48
1
60
0
100
AcDbMText
10
9.505806
20
-28.7026
30
0
210
0
220
0
230
1
1
\A1;7.938
40
3
41
0
44
1
50
90
71
5
72
5
7
iso_b_vert
0
POINT
5
180
100
AcDbEntity
8
Defpoints
62
0
6
ByLayer
370
-1
48
1
60
0
100
AcDbPoint
10
3.5
20
3.96875
30
0
39
0
210
0
220
0
230
1
50
360
0
POINT
5
181
100
AcDbEntity
8
Defpoints
62
0
6
ByLayer
370
-1
48
1
60
0
100
AcDbPoint
10
3.5
20
-3.96875
30
0
39
0
210
0
220
0
230
1
50
360
0
POINT
5
182
100
AcDbEntity
8
Defpoints
62
0
6
ByLayer
370
-1
48
1
60
0
100
AcDbPoint
10
15.505806
20
-3.96875
30
0
39
0
210
0
220
0
230
1
50
360
0
ENDBLK
5
177
100
AcDbEntity
8
0
100
AcDbBlockEnd
0
BLOCK
5
18B
100
AcDbEntity
8
0
100
AcDbBlockBegin
2
_U4
70
0
10
0
20
0
30
0
3
_U4
0
MTEXT
5
184
100
AcDbEntity
8
SK2
62
256
6
ByLayer
370
18
48
1
60
0
100
AcDbMText
10
14.164692
20
-37.70897
30
0
210
0
220
0
230
1
1
%%c
40
3
41
0
44
1.084337
50
90
71
7
72
5
7
iso_b_vert
0
MTEXT
5
185
100
AcDbEntity
8
SK2
62
256
6
ByLayer
370
18
48
1
60
0
100
AcDbMText
10
14.164692
20
-28.70897
30
0
210
0
220
0
230
1
1
\W0.7468;7.938
40
3
41
0
44
1.084337
50
90
71
7
72
5
7
iso_b_vert
0
LINE
5
186
100
AcDbEntity
8
SK2
62
256
6
ByLayer
370
13
48
1
60
0
100
AcDbLine
10
5.0875
20
3.96875
30
0
11
17.505806
21
3.96875
31
0
39
0
210
0
220
0
230
1
0
LINE
5
187
100
AcDbEntity
8
SK2
62
256
6
ByLayer
370
13
48
1
60
0
100
AcDbLine
10
5.0875
20
-3.96875
30
0
11
17.505806
21
-3.96875
31
0
39
0
210
0
220
0
230
1
0
LINE
5
188
100
AcDbEntity
8
SK2
62
256
6
ByLayer
370
13
48
1
60
0
100
AcDbLine
10
15.505806
20
3.96875
30
0
11
15.505806
21
-37.84397
31
0
39
0
210
0
220
0
230
1
0
SOLID
5
189
100
AcDbEntity
8
SK2
62
256
6
ByLayer
370
18
48
1
60
0
100
AcDbTrace
10
15.505806
20
3.96875
30
0
11
15.923803
21
0.793752
31
0
12
15.08781
22
0.793748
32
0
13
15.08781
23
0.793748
33
0
39
0
210
0
220
0
230
1
0
SOLID
5
18A
100
AcDbEntity
8
SK2
62
256
6
ByLayer
370
18
48
1
60
0
100
AcDbTrace
10
15.505806
20
-3.96875
30
0
11
15.08781
21
-0.793752
31
0
12
15.923803
22
-0.793748
32
0
13
15.923803
23
-0.793748
33
0
39
0
210
0
220
0
230
1
0
ENDBLK
5
18C
100
AcDbEntity
8
0
100
AcDbBlockEnd
0
BLOCK
5
191
100
AcDbEntity
8
0
100
AcDbBlockBegin
2
*D11
70
1
10
0
20
0
30
0
3
*D11
0
LINE
5
193
100
AcDbEntity
8
0
62
256
6
ByLayer
370
-2
48
1
60
0
100
AcDbLine
10
-56.560705
20
12.5
30
0
11
-71.489752
21
12.5
31
0
39
0
210
0
220
0
230
1
0
LINE
5
194
100
AcDbEntity
8
0
62
256
6
ByLayer
370
-2
48
1
60
0
100
AcDbLine
10
-56.560705
20
-12.5
30
0
11
-71.489752
21
-12.5
31
0
39
0
210
0
220
0
230
1
0
LINE
5
195
100
AcDbEntity
8
0
62
256
6
ByLayer
370
-2
48
1
60
0
100
AcDbLine
10
-69.489752
20
9.325
30
0
11
-69.489752
21
-9.325
31
0
39
0
210
0
220
0
230
1
0
SOLID
5
196
100
AcDbEntity
8
0
62
256
6
ByLayer
370
-1
48
1
60
0
100
AcDbTrace
10
-68.960585
20
9.325
30
0
11
-70.018918
21
9.325
31
0
12
-69.489752
22
12.5
32
0
13
-69.489752
23
12.5
33
0
39
0
210
0
220
0
230
1
0
SOLID
5
197
100
AcDbEntity
8
0
62
256
6
ByLayer
370
-1
48
1
60
0
100
AcDbTrace
10
-70.018918
20
-9.325
30
0
11
-68.960585
21
-9.325
31
0
12
-69.489752
22
-12.5
32
0
13
-69.489752
23
-12.5
33
0
39
0
210
0
220
0
230
1
0
MTEXT
5
198
100
AcDbEntity
8
0
62
256
6
ByLayer
370
18
48
1
60
0
100
AcDbMText
10
-75.489752
20
0
30
0
210
0
220
0
230
1
1
\A1;25
40
3
41
0
44
1
50
90
71
5
72
5
7
iso_b_vert
0
POINT
5
199
100
AcDbEntity
8
Defpoints
62
0
6
ByLayer
370
-1
48
1
60
0
100
AcDbPoint
10
-54.973205
20
12.5
30
0
39
0
210
0
220
0
230
1
50
360
0
POINT
5
19A
100
AcDbEntity
8
Defpoints
62
0
6
ByLayer
370
-1
48
1
60
0
100
AcDbPoint
10
-54.973205
20
-12.5
30
0
39
0
210
0
220
0
230
1
50
360
0
POINT
5
19B
100
AcDbEntity
8
Defpoints
62
0
6
ByLayer
370
-1
48
1
60
0
100
AcDbPoint
10
-69.489752
20
-12.5
30
0
39
0
210
0
220
0
230
1
50
360
0
ENDBLK
5
192
100
AcDbEntity
8
0
100
AcDbBlockEnd
0
BLOCK
5
1A4
100
AcDbEntity
8
0
100
AcDbBlockBegin
2
_U5
70
0
10
0
20
0
30
0
3
_U5
0
MTEXT
5
19D
100
AcDbEntity
8
SK2
62
256
6
ByLayer
370
18
48
1
60
0
100
AcDbMText
10
-70.830866
20
-6.156828
30
0
210
0
220
0
230
1
1
%%c
40
3
41
0
44
1.084337
50
90
71
7
72
5
7
iso_b_vert
0
MTEXT
5
19E
100
AcDbEntity
8
SK2
62
256
6
ByLayer
370
18
48
1
60
0
100
AcDbMText
10
-70.830866
20
2.843172
30
0
210
0
220
0
230
1
1
\W0.6740;25
40
3
41
0
44
1.084337
50
90
71
7
72
5
7
iso_b_vert
0
LINE
5
19F
100
AcDbEntity
8
SK2
62
256
6
ByLayer
370
13
48
1
60
0
100
AcDbLine
10
-56.560705
20
12.5
30
0
11
-71.489752
21
12.5
31
0
39
0
210
0
220
0
230
1
0
LINE
5
1A0
100
AcDbEntity
8
SK2
62
256
6
ByLayer
370
13
48
1
60
0
100
AcDbLine
10
-56.560705
20
-12.5
30
0
11
-71.489752
21
-12.5
31
0
39
0
210
0
220
0
230
1
0
LINE
5
1A1
100
AcDbEntity
8
SK2
62
256
6
ByLayer
370
13
48
1
60
0
100
AcDbLine
10
-69.489752
20
12.5
30
0
11
-69.489752
21
-12.5
31
0
39
0
210
0
220
0
230
1
0
SOLID
5
1A2
100
AcDbEntity
8
SK2
62
256
6
ByLayer
370
18
48
1
60
0
100
AcDbTrace
10
-69.489752
20
12.5
30
0
11
-69.071755
21
9.325002
31
0
12
-69.907748
22
9.324998
32
0
13
-69.907748
23
9.324998
33
0
39
0
210
0
220
0
230
1
0
SOLID
5
1A3
100
AcDbEntity
8
SK2
62
256
6
ByLayer
370
18
48
1
60
0
100
AcDbTrace
10
-69.489752
20
-12.5
30
0
11
-69.907748
21
-9.325002
31
0
12
-69.071755
22
-9.324998
32
0
13
-69.071755
23
-9.324998
33
0
39
0
210
0
220
0
230
1
0
ENDBLK
5
1A5
100
AcDbEntity
8
0
100
AcDbBlockEnd
0
ENDSEC
0
SECTION
2
ENTITIES
0
ARC
5
E2
100
AcDbEntity
8
SK1
62
256
6
ByLayer
370
50
48
1
60
0
100
AcDbCircle
39
0
10
-41.284163
20
39.283953
30
0
40
26.79395709281
210
0
220
0
230
1
100
AcDbArc
50
268.434247
51
269.993521
0
ARC
5
E3
100
AcDbEntity
8
SK3
62
256
6
ByLayer
370
35
48
0.05
60
0
100
AcDbCircle
39
0
10
-0.486855
20
38.906576
30
0
40
34.9694495732035
210
0
220
0
230
1
100
AcDbArc
50
270.018104
51
272.436909
0
ARC
5
E4
100
AcDbEntity
8
SK3
62
256
6
ByLayer
370
35
48
0.05
60
0
100
AcDbCircle
39
0
10
-27.513144
20
38.906652
30
0
40
34.9695258983131
210
0
220
0
230
1
100
AcDbArc
50
267.563105
51
269.981893
0
ARC
5
E5
100
AcDbEntity
8
SK3
62
256
6
ByLayer
370
35
48
0.05
60
0
100
AcDbCircle
39
0
10
-27.513144
20
-38.906652
30
0
40
34.9695258983135
210
0
220
0
230
1
100
AcDbArc
50
90.018107
51
92.436895
0
ARC
5
E6
100
AcDbEntity
8
SK1
62
256
6
ByLayer
370
50
48
1
60
0
100
AcDbCircle
39
0
10
-41.284163
20
-39.283953
30
0
40
26.79395709281
210
0
220
0
230
1
100
AcDbArc
50
90.006479
51
91.565753
0
ARC
5
E7
100
AcDbEntity
8
SK3
62
256
6
ByLayer
370
35
48
0.05
60
0
100
AcDbCircle
39
0
10
-0.486855
20
-38.906576
30
0
40
34.9694495732003
210
0
220
0
230
1
100
AcDbArc
50
87.563091
51
89.981896
0
ARC
5
E8
100
AcDbEntity
8
SK3
62
256
6
ByLayer
370
35
48
0.05
60
0
100
AcDbCircle
39
0
10
-32.452325
20
-3.738721
30
0
40
1.61427166139653
210
0
220
0
230
1
100
AcDbArc
50
142.576113
51
163.484945
0
ARC
5
E9
100
AcDbEntity
8
SK3
62
256
6
ByLayer
370
35
48
0.05
60
0
100
AcDbCircle
39
0
10
-32.452325
20
3.738721
30
0
40
1.61427166139654
210
0
220
0
230
1
100
AcDbArc
50
196.515055
51
217.423887
0
ARC
5
EA
100
AcDbEntity
8
SK1
62
256
6
ByLayer
370
50
48
1
60
0
100
AcDbCircle
39
0
10
-55.6
20
-11.67624
30
0
40
0.399999999999999
210
0
220
0
230
1
100
AcDbArc
50
180
51
240
0
ARC
5
EB
100
AcDbEntity
8
SK1
62
256
6
ByLayer
370
50
48
1
60
0
100
AcDbCircle
39
0
10
-55.6
20
11.67624
30
0
40
0.400000000000001
210
0
220
0
230
1
100
AcDbArc
50
120
51
180
0
ARC
5
EC
100
AcDbEntity
8
SK3
62
256
6
ByLayer
370
35
48
0.05
60
0
100
AcDbCircle
39
0
10
-14
20
41.049742
30
0
40
40
210
0
220
0
230
1
100
AcDbArc
50
292.024316
51
296.747771
0
ARC
5
ED
100
AcDbEntity
8
SK3
62
256
6
ByLayer
370
35
48
0.05
60
0
100
AcDbCircle
39
0
10
-14
20
41.049742
30
0
40
40
210
0
220
0
230
1
100
AcDbArc
50
225.540609
51
247.975869
0
ARC
5
EE
100
AcDbEntity
8
SK3
62
256
6
ByLayer
370
35
48
0.05
60
0
100
AcDbCircle
39
0
10
-14
20
-41.049742
30
0
40
40
210
0
220
0
230
1
100
AcDbArc
50
112.024249
51
134.459586
0
ARC
5
EF
100
AcDbEntity
8
SK3
62
256
6
ByLayer
370
35
48
0.05
60
0
100
AcDbCircle
39
0
10
-14
20
-41.049742
30
0
40
40
210
0
220
0
230
1
100
AcDbArc
50
63.252218
51
67.975727
0
ARC
5
F0
100
AcDbEntity
8
SK3
62
256
6
ByLayer
370
35
48
0.05
60
0
100
AcDbCircle
39
0
10
3.5
20
4.46875
30
0
40
0.5
210
0
220
0
230
1
100
AcDbArc
50
270
51
0
0
ARC
5
F1
100
AcDbEntity
8
SK3
62
256
6
ByLayer
370
35
48
0.05
60
0
100
AcDbCircle
39
0
10
3.5
20
-4.46875
30
0
40
0.5
210
0
220
0
230
1
100
AcDbArc
50
0
51
90
0
POINT
5
70
100
AcDbEntity
8
80
62
256
6
ByLayer
370
18
48
1
60
0
100
AcDbPoint
10
0
20
0
30
0
39
0
210
0
220
0
230
1
50
360
0
POINT
5
72
100
AcDbEntity
8
81
62
256
6
ByLayer
370
18
48
1
60
0
100
AcDbPoint
10
4
20
0
30
0
39
0
210
0
220
0
230
1
50
360
0
SPLINE
5
F2
100
AcDbEntity
8
1
62
256
6
ByLayer
370
25
48
1
60
0
100
AcDbSpline
70
4
71
3
72
10
73
6
40
0
40
0
40
0
40
0
40
0.5
40
0.5
40
1
40
1
40
1
40
1
41
1
10
3.11715728752543
20
14.8744414081424
30
0
41
1
10
3.08018508894795
20
14.9114344891639
30
0
41
1
10
3.03608105290891
20
14.9410093853744
30
0
41
1
10
2.93881415180184
20
14.9813395551308
30
0
41
1
10
2.88687482437065
20
14.9916643505649
30
0
41
1
10
2.83431457505076
20
14.9916643505649
30
0
0
SPLINE
5
F3
100
AcDbEntity
8
1
62
256
6
ByLayer
370
25
48
1
60
0
100
AcDbSpline
70
4
71
3
72
10
73
6
40
0
40
0
40
0
40
0
40
0.5
40
0.5
40
1
40
1
40
1
40
1
41
1
10
1.16568542494924
20
14.9916643505649
30
0
41
1
10
1.1135505767089
20
14.9916643505649
30
0
41
1
10
1.06089736201527
20
14.9812068614872
30
0
41
1
10
0.964378128868496
20
14.9412128321165
30
0
41
1
10
0.919958935518611
20
14.9115785949776
30
0
41
1
10
0.88284271247462
20
14.8744414081423
30
0
0
SPLINE
5
F4
100
AcDbEntity
8
1
62
256
6
ByLayer
370
25
48
1
60
0
100
AcDbSpline
70
4
71
3
72
10
73
6
40
0
40
0
40
0
40
0
40
0.5
40
0.5
40
1
40
1
40
1
40
1
41
1
10
0.117157287525373
20
14.1083000351116
30
0
41
1
10
0.0800644217636552
20
14.0711838822867
30
0
41
1
10
0.0504029164675401
20
14.0266705313117
30
0
41
1
10
0.0104569478631795
20
13.9301381938442
30
0
41
1
10
0
20
13.877435514169
30
0
41
1
10
0
20
13.8252761188145
30
0
0
SPLINE
5
F5
100
AcDbEntity
8
SK1
62
256
6
ByLayer
370
50
48
1
60
0
100
AcDbSpline
70
4
71
3
72
10
73
6
40
0
40
0
40
0
40
0
40
0.5
40
0.5
40
1
40
1
40
1
40
1
41
1
10
0
20
12.7401923062409
30
0
41
1
10
3.6E-15
20
12.6359959420928
30
0
41
1
10
-0.0427532447395862
20
12.5317401032265
30
0
41
1
10
-0.190994214288427
20
12.383081857401
30
0
41
1
10
-0.295783422625305
20
12.3398743915811
30
0
41
1
10
-0.400000000000002
20
12.3398743915811
30
0
0
SPLINE
5
F6
100
AcDbEntity
8
1
62
256
6
ByLayer
370
25
48
1
60
0
100
AcDbSpline
70
4
71
3
72
10
73
6
40
0
40
0
40
0
40
0
40
0.5
40
0.5
40
1
40
1
40
1
40
1
41
1
10
3.11715728752543
20
-14.8744414081424
30
0
41
1
10
3.08018508894795
20
-14.9114344891639
30
0
41
1
10
3.03608105290891
20
-14.9410093853744
30
0
41
1
10
2.93881415180184
20
-14.9813395551308
30
0
41
1
10
2.88687482437065
20
-14.9916643505649
30
0
41
1
10
2.83431457505076
20
-14.9916643505649
30
0
0
SPLINE
5
F7
100
AcDbEntity
8
1
62
256
6
ByLayer
370
25
48
1
60
0
100
AcDbSpline
70
4
71
3
72
10
73
6
40
0
40
0
40
0
40
0
40
0.5
40
0.5
40
1
40
1
40
1
40
1
41
1
10
1.16568542494924
20
-14.9916643505649
30
0
41
1
10
1.1135505767089
20
-14.9916643505649
30
0
41
1
10
1.06089736201527
20
-14.9812068614872
30
0
41
1
10
0.964378128868496
20
-14.9412128321165
30
0
41
1
10
0.919958935518611
20
-14.9115785949776
30
0
41
1
10
0.88284271247462
20
-14.8744414081423
30
0
0
SPLINE
5
F8
100
AcDbEntity
8
1
62
256
6
ByLayer
370
25
48
1
60
0
100
AcDbSpline
70
4
71
3
72
10
73
6
40
0
40
0
40
0
40
0
40
0.5
40
0.5
40
1
40
1
40
1
40
1
41
1
10
0.117157287525373
20
-14.1083000351116
30
0
41
1
10
0.0800644217636552
20
-14.0711838822867
30
0
41
1
10
0.0504029164675401
20
-14.0266705313117
30
0
41
1
10
0.0104569478631795
20
-13.9301381938442
30
0
41
1
10
0
20
-13.877435514169
30
0
41
1
10
0
20
-13.8252761188145
30
0
0
SPLINE
5
F9
100
AcDbEntity
8
SK1
62
256
6
ByLayer
370
50
48
1
60
0
100
AcDbSpline
70
4
71
3
72
10
73
6
40
0
40
0
40
0
40
0
40
0.5
40
0.5
40
1
40
1
40
1
40
1
41
1
10
0
20
-12.7401923062409
30
0
41
1
10
3.6E-15
20
-12.6359959420928
30
0
41
1
10
-0.0427532447395862
20
-12.5317401032265
30
0
41
1
10
-0.190994214288427
20
-12.383081857401
30
0
41
1
10
-0.295783422625305
20
-12.3398743915811
30
0
41
1
10
-0.400000000000002
20
-12.3398743915811
30
0
0
SPLINE
5
FA
100
AcDbEntity
8
SK1
62
256
6
ByLayer
370
50
48
1
60
0
100
AcDbSpline
70
4
71
3
72
18
73
14
40
0
40
0
40
0
40
0
40
0.250000000000002
40
0.250000000000002
40
0.375000000000002
40
0.375000000000002
40
0.500000000000002
40
0.500000000000002
40
0.625000000000001
40
0.625000000000001
40
0.750000000000001
40
0.750000000000001
40
1
40
1
40
1
40
1
41
1
10
-27.5241948629721
20
0.5
30
0
41
1
10
-27.7968877642893
20
0.500000000000402
30
0
41
1
10
-28.0702562601923
20
0.476419818340829
30
0
41
1
10
-28.469747420921
20
0.386744731890453
30
0
41
1
10
-28.6030036745791
20
0.347710830566078
30
0
41
1
10
-28.850169590066
20
0.230162342637553
30
0
41
1
10
-28.9949569055938
20
0.144775193013196
30
0
41
1
10
-29.0048307262028
20
-0.132833060431643
30
0
41
1
10
-28.856051499815
20
-0.226556737578396
30
0
41
1
10
-28.6078761902277
20
-0.34616765624949
30
0
41
1
10
-28.4737386076854
20
-0.385686017621052
30
0
41
1
10
-28.0714194502096
20
-0.476478827963981
30
0
41
1
10
-27.7991161138653
20
-0.500000000000221
30
0
41
1
10
-27.5241948629721
20
-0.5
30
0
0
SPLINE
5
FB
100
AcDbEntity
8
SK1
62
256
6
ByLayer
370
50
48
1
60
0
100
AcDbSpline
70
4
71
3
72
28
73
24
40
0
40
0
40
0
40
0
40
0.0470177606499823
40
0.0470177606499823
40
0.224291120700272
40
0.224291120700272
40
0.327645208936409
40
0.327645208936409
40
0.406829894158328
40
0.406829894158328
40
0.470396115822199
40
0.470396115822199
40
0.499524023361804
40
0.499524023361804
40
0.566703801001698
40
0.566703801001698
40
0.633263131559834
40
0.633263131559834
40
0.73007789324447
40
0.73007789324447
40
0.869055175173138
40
0.869055175173138
40
1
40
1
40
1
40
1
41
1
10
-41.2871926617272
20
0.499999999999999
30
0
41
1
10
-41.3176710907547
20
0.500000000000241
30
0
41
1
10
-41.34817881833
20
0.498670325543748
30
0
41
1
10
-41.4919814085075
20
0.486067513228801
30
0
41
1
10
-41.6061143840595
20
0.457328156465831
30
0
41
1
10
-41.768668589921
20
0.3781405236982
30
0
41
1
10
-41.8260259974882
20
0.340790512806684
30
0
41
1
10
-41.9124768980573
20
0.260053370610205
30
0
41
1
10
-41.9457501015973
20
0.219230970047793
30
0
41
1
10
-41.990080451087
20
0.137919282283502
30
0
41
1
10
-42.0045356001262
20
0.0980565682422316
30
0
41
1
10
-42.0146337556568
20
0.0385114829411424
30
0
41
1
10
-42.0162733807692
20
0.0193237278013341
30
0
41
1
10
-42.0163101397829
20
-0.0432553378146833
30
0
41
1
10
-42.0076047635019
20
-0.0873518855440592
30
0
41
1
10
-41.9762328398
20
-0.168152834753597
30
0
41
1
10
-41.9534391457861
20
-0.206059102326789
30
0
41
1
10
-41.8872627250678
20
-0.288652691187283
30
0
41
1
10
-41.8383106830783
20
-0.330288554107902
30
0
41
1
10
-41.7103006254993
20
-0.412656938685945
30
0
41
1
10
-41.6250356084573
20
-0.447136178221984
30
0
41
1
10
-41.4564611525766
20
-0.489841972504608
30
0
41
1
10
-41.3714808826225
20
-0.500000000000086
30
0
41
1
10
-41.2871926617272
20
-0.500000000000001
30
0
0
SPLINE
5
FC
100
AcDbEntity
8
SK1
62
256
6
ByLayer
370
50
48
1
60
0
100
AcDbSpline
70
4
71
3
72
18
73
14
40
0
40
0
40
0
40
0
40
0.25
40
0.25
40
0.375
40
0.375
40
0.5
40
0.5
40
0.625
40
0.625
40
0.75
40
0.75
40
1
40
1
40
1
40
1
41
1
10
-0.475805137027912
20
-0.5
30
0
41
1
10
-0.200973958902157
20
-0.500000000000219
30
0
41
1
10
0.0742987527272874
20
-0.47612672913393
30
0
41
1
10
0.476530479260713
20
-0.384904764699492
30
0
41
1
10
0.610819133617554
20
-0.345180995407189
30
0
41
1
10
0.858925755962371
20
-0.224729515853802
30
0
41
1
10
1.00539864284072
20
-0.13298645694233
30
0
41
1
10
0.994338039451424
20
0.146284120617839
30
0
41
1
10
0.847156489978037
20
0.232025573068668
30
0
41
1
10
0.599947521791471
20
0.348723326800519
30
0
41
1
10
0.466727499393549
20
0.387578395404855
30
0
41
1
10
0.0672373334102936
20
0.47678057950772
30
0
41
1
10
-0.203017301513388
20
0.500000000000437
30
0
41
1
10
-0.475805137027912
20
0.5
30
0
0
SPLINE
5
FD
100
AcDbEntity
8
SK3
62
256
6
ByLayer
370
35
48
0.05
60
0
100
AcDbSpline
70
4
71
3
72
8
73
4
40
0
40
0
40
0
40
0
40
1
40
1
40
1
40
1
41
1
10
-34
20
3.77394698905611
30
0
41
1
10
-33.9898451241121
20
3.77942052965843
30
0
41
1
10
-33.9786030162789
20
3.78202102390938
30
0
41
1
10
-33.9664468498408
20
3.78196145720237
30
0
0
SPLINE
5
FE
100
AcDbEntity
8
SK3
62
256
6
ByLayer
370
35
48
0.05
60
0
100
AcDbSpline
70
4
71
3
72
10
73
6
40
0
40
0
40
0
40
0
40
0.5
40
0.5
40
1
40
1
40
1
40
1
41
1
10
3.67399263632513
20
-3.22069035953384
30
0
41
1
10
3.77033989204335
20
-3.24626771009696
30
0
41
1
10
3.85306439034853
20
-3.29255261890662
30
0
41
1
10
3.96859188514713
20
-3.41154277053193
30
0
41
1
10
4.00000000000001
20
-3.48382173695321
30
0
41
1
10
4
20
-3.55553589997315
30
0
0
SPLINE
5
FF
100
AcDbEntity
8
SK3
62
256
6
ByLayer
370
35
48
0.05
60
0
100
AcDbSpline
70
4
71
3
72
10
73
6
40
0
40
0
40
0
40
0
40
0.500000000000001
40
0.500000000000001
40
1
40
1
40
1
40
1
41
1
10
4
20
-2.70700776254929
30
0
41
1
10
4.00000000000001
20
-2.63523849557553
30
0
41
1
10
3.96851814735442
20
-2.5629245110849
30
0
41
1
10
3.85307439154635
20
-2.44404896438933
30
0
41
1
10
3.77034339467997
20
-2.39774050252149
30
0
41
1
10
3.67399263633843
20
-2.37216222210999
30
0
0
SPLINE
5
100
100
AcDbEntity
8
SK3
62
256
6
ByLayer
370
35
48
0.05
60
0
100
AcDbSpline
70
4
71
3
72
10
73
6
40
0
40
0
40
0
40
0
40
0.5
40
0.5
40
1
40
1
40
1
40
1
41
1
10
-33.7343171384681
20
-3.6062445840514
30
0
41
1
10
-33.7868717954724
20
-3.67118025282083
30
0
41
1
10
-33.8375316005914
20
-3.72098539090621
30
0
41
1
10
-33.9288508895804
20
-3.78082826387378
30
0
41
1
10
-33.969280390957
20
-3.79050504739585
30
0
41
1
10
-34
20
-3.77394698905611
30
0
0
SPLINE
5
101
100
AcDbEntity
8
SK3
62
256
6
ByLayer
370
35
48
0.05
60
0
100
AcDbSpline
70
4
71
3
72
10
73
6
40
0
40
0
40
0
40
0
40
0.5
40
0.5
40
1
40
1
40
1
40
1
41
1
10
-40.75
20
-3.77394698905611
30
0
41
1
10
-40.8101778786347
20
-3.75521991314709
30
0
41
1
10
-40.8499917988142
20
-3.69914743018099
30
0
41
1
10
-40.8500081985357
20
-3.51340176961819
30
0
41
1
10
-40.8100985955914
20
-3.39297422595987
30
0
41
1
10
-40.75
20
-3.27983599038036
30
0
0
SPLINE
5
102
100
AcDbEntity
8
SK3
62
256
6
ByLayer
370
35
48
0.05
60
0
100
AcDbSpline
70
4
71
3
72
8
73
4
40
0
40
0
40
0
40
0
40
1
40
1
40
1
40
1
41
1
10
-34
20
-3.77394698905611
30
0
41
1
10
-33.9898451241121
20
-3.77942052965844
30
0
41
1
10
-33.9786030162789
20
-3.78202102390938
30
0
41
1
10
-33.9664468498408
20
-3.78196145720237
30
0
0
SPLINE
5
103
100
AcDbEntity
8
SK3
62
256
6
ByLayer
370
35
48
0.05
60
0
100
AcDbSpline
70
4
71
3
72
10
73
6
40
0
40
0
40
0
40
0
40
0.500000000000001
40
0.500000000000001
40
1
40
1
40
1
40
1
41
1
10
3.67399263632513
20
3.22069035953384
30
0
41
1
10
3.77033989204335
20
3.24626771009696
30
0
41
1
10
3.85306439034853
20
3.29255261890662
30
0
41
1
10
3.96859188514713
20
3.41154277053192
30
0
41
1
10
4.00000000000001
20
3.48382173695321
30
0
41
1
10
4
20
3.55553589997315
30
0
0
SPLINE
5
104
100
AcDbEntity
8
SK3
62
256
6
ByLayer
370
35
48
0.05
60
0
100
AcDbSpline
70
4
71
3
72
10
73
6
40
0
40
0
40
0
40
0
40
0.5
40
0.5
40
1
40
1
40
1
40
1
41
1
10
4
20
2.70700776254929
30
0
41
1
10
4.00000000000001
20
2.63523849557553
30
0
41
1
10
3.96851814735442
20
2.5629245110849
30
0
41
1
10
3.85307439154635
20
2.44404896438933
30
0
41
1
10
3.77034339467997
20
2.39774050252149
30
0
41
1
10
3.67399263633843
20
2.37216222210999
30
0
0
SPLINE
5
105
100
AcDbEntity
8
SK3
62
256
6
ByLayer
370
35
48
0.05
60
0
100
AcDbSpline
70
4
71
3
72
10
73
6
40
0
40
0
40
0
40
0
40
0.5
40
0.5
40
1
40
1
40
1
40
1
41
1
10
-33.7343171384681
20
3.60624458405139
30
0
41
1
10
-33.7868717954724
20
3.67118025282082
30
0
41
1
10
-33.8375316005914
20
3.72098539090621
30
0
41
1
10
-33.9288508895804
20
3.78082826387378
30
0
41
1
10
-33.969280390957
20
3.79050504739585
30
0
41
1
10
-34
20
3.77394698905611
30
0
0
SPLINE
5
106
100
AcDbEntity
8
SK3
62
256
6
ByLayer
370
35
48
0.05
60
0
100
AcDbSpline
70
4
71
3
72
10
73
6
40
0
40
0
40
0
40
0
40
0.5
40
0.5
40
1
40
1
40
1
40
1
41
1
10
-40.75
20
3.77394698905611
30
0
41
1
10
-40.8101778782707
20
3.75521991326034
30
0
41
1
10
-40.8499917967343
20
3.69914742459316
30
0
41
1
10
-40.8500082006143
20
3.51340179043507
30
0
41
1
10
-40.8100985956054
20
3.39297422598614
30
0
41
1
10
-40.75
20
3.27983599038037
30
0
0
LINE
5
74
100
AcDbEntity
8
SK3
62
256
6
ByLayer
370
35
48
0.05
60
0
100
AcDbLine
10
-46
20
10.25
30
0
11
-46
21
-10.25
31
0
39
0
210
0
220
0
230
1
0
LINE
5
76
100
AcDbEntity
8
SK3
62
256
6
ByLayer
370
35
48
0.05
60
0
100
AcDbLine
10
-33.404608
20
-3.96875
30
0
11
-33.404608
21
3.96875
31
0
39
0
210
0
220
0
230
1
0
LINE
5
77
100
AcDbEntity
8
SK3
62
256
6
ByLayer
370
35
48
0.05
60
0
100
AcDbLine
10
-55.5
20
-10.25
30
0
11
-55.5
21
10.25
31
0
39
0
210
0
220
0
230
1
0
LINE
5
78
100
AcDbEntity
8
SK1
62
256
6
ByLayer
370
50
48
1
60
0
100
AcDbLine
10
-56
20
-11.67624
30
0
11
-56
21
11.67624
31
0
39
0
210
0
220
0
230
1
0
LINE
5
7A
100
AcDbEntity
8
SK1
62
256
6
ByLayer
370
50
48
1
60
0
100
AcDbLine
10
-55.8
20
12.02265
30
0
11
-55.8
21
-12.02265
31
0
39
0
210
0
220
0
230
1
0
LINE
5
7B
100
AcDbEntity
8
1
62
256
6
ByLayer
370
13
48
1
60
0
100
AcDbLine
10
3.117157
20
14.874441
30
0
11
3.117157
21
0.5
31
0
39
0
210
0
220
0
230
1
0
LINE
5
7D
100
AcDbEntity
8
1
62
256
6
ByLayer
370
13
48
1
60
0
100
AcDbLine
10
1.165685
20
14.991664
30
0
11
1.165685
21
0.5
31
0
39
0
210
0
220
0
230
1
0
LINE
5
7E
100
AcDbEntity
8
SK1
62
256
6
ByLayer
370
50
48
1
60
0
100
AcDbLine
10
-54.973205
20
-12.5
30
0
11
-54.973205
21
12.5
31
0
39
0
210
0
220
0
230
1
0
LINE
5
7F
100
AcDbEntity
8
SK1
62
256
6
ByLayer
370
50
48
1
60
0
100
AcDbLine
10
-2.126795
20
12.489996
30
0
11
-2.126795
21
0.5
31
0
39
0
210
0
220
0
230
1
0
LINE
5
80
100
AcDbEntity
8
SK1
62
256
6
ByLayer
370
50
48
1
60
0
100
AcDbLine
10
-2.126795
20
12.489996
30
0
11
-41.287193
21
12.489996
31
0
39
0
210
0
220
0
230
1
0
LINE
5
81
100
AcDbEntity
8
1
62
256
6
ByLayer
370
25
48
1
60
0
100
AcDbLine
10
4
20
13.989958
30
0
11
3.982843
21
14.008237
31
0
39
0
210
0
220
0
230
1
0
LINE
5
82
100
AcDbEntity
8
1
62
256
6
ByLayer
370
25
48
1
60
0
100
AcDbLine
10
3.982843
20
14.008237
30
0
11
3.117157
21
14.874441
31
0
39
0
210
0
220
0
230
1
0
LINE
5
83
100
AcDbEntity
8
1
62
256
6
ByLayer
370
25
48
1
60
0
100
AcDbLine
10
2.834315
20
14.991664
30
0
11
1.165685
21
14.991664
31
0
39
0
210
0
220
0
230
1
0
LINE
5
84
100
AcDbEntity
8
1
62
256
6
ByLayer
370
25
48
1
60
0
100
AcDbLine
10
0.882843
20
14.874441
30
0
11
0.117157
21
14.1083
31
0
39
0
210
0
220
0
230
1
0
LINE
5
85
100
AcDbEntity
8
SK1
62
256
6
ByLayer
370
50
48
1
60
0
100
AcDbLine
10
-0.4
20
12.339874
30
0
11
-1.566987
21
12.339874
31
0
39
0
210
0
220
0
230
1
0
LINE
5
86
100
AcDbEntity
8
SK1
62
256
6
ByLayer
370
50
48
1
60
0
100
AcDbLine
10
-1.566987
20
12.339874
30
0
11
-2.126795
21
12.489996
31
0
39
0
210
0
220
0
230
1
0
LINE
5
87
100
AcDbEntity
8
SK3
62
256
6
ByLayer
370
35
48
0.05
60
0
100
AcDbLine
10
-0.475805
20
3.937128
30
0
11
-27.524195
21
3.937128
31
0
39
0
210
0
220
0
230
1
0
LINE
5
88
100
AcDbEntity
8
1
62
256
6
ByLayer
370
25
48
1
60
0
100
AcDbLine
10
4
20
-13.989958
30
0
11
4
21
-0.5
31
0
39
0
210
0
220
0
230
1
0
LINE
5
89
100
AcDbEntity
8
1
62
256
6
ByLayer
370
13
48
1
60
0
100
AcDbLine
10
2.834315
20
-14.991664
30
0
11
2.834315
21
-0.5
31
0
39
0
210
0
220
0
230
1
0
LINE
5
8A
100
AcDbEntity
8
1
62
256
6
ByLayer
370
13
48
1
60
0
100
AcDbLine
10
0.882843
20
-14.874441
30
0
11
0.882843
21
-0.5
31
0
39
0
210
0
220
0
230
1
0
LINE
5
8B
100
AcDbEntity
8
1
62
256
6
ByLayer
370
25
48
1
60
0
100
AcDbLine
10
0
20
-13.825276
30
0
11
0
21
-0.5
31
0
39
0
210
0
220
0
230
1
0
LINE
5
8C
100
AcDbEntity
8
SK1
62
256
6
ByLayer
370
50
48
1
60
0
100
AcDbLine
10
-0.4
20
-12.339874
30
0
11
-0.4
21
-0.5
31
0
39
0
210
0
220
0
230
1
0
LINE
5
8D
100
AcDbEntity
8
SK1
62
256
6
ByLayer
370
50
48
1
60
0
100
AcDbLine
10
-1.566987
20
-12.339874
30
0
11
-1.566987
21
-0.5
31
0
39
0
210
0
220
0
230
1
0
LINE
5
8E
100
AcDbEntity
8
1
62
256
6
ByLayer
370
25
48
1
60
0
100
AcDbLine
10
4
20
-13.989958
30
0
11
3.982843
21
-14.008237
31
0
39
0
210
0
220
0
230
1
0
LINE
5
8F
100
AcDbEntity
8
1
62
256
6
ByLayer
370
25
48
1
60
0
100
AcDbLine
10
3.982843
20
-14.008237
30
0
11
3.117157
21
-14.874441
31
0
39
0
210
0
220
0
230
1
0
LINE
5
90
100
AcDbEntity
8
1
62
256
6
ByLayer
370
25
48
1
60
0
100
AcDbLine
10
2.834315
20
-14.991664
30
0
11
1.165685
21
-14.991664
31
0
39
0
210
0
220
0
230
1
0
LINE
5
91
100
AcDbEntity
8
1
62
256
6
ByLayer
370
25
48
1
60
0
100
AcDbLine
10
0.882843
20
-14.874441
30
0
11
0.117157
21
-14.1083
31
0
39
0
210
0
220
0
230
1
0
LINE
5
92
100
AcDbEntity
8
SK1
62
256
6
ByLayer
370
50
48
1
60
0
100
AcDbLine
10
-0.4
20
-12.339874
30
0
11
-1.566987
21
-12.339874
31
0
39
0
210
0
220
0
230
1
0
LINE
5
93
100
AcDbEntity
8
SK1
62
256
6
ByLayer
370
50
48
1
60
0
100
AcDbLine
10
-1.566987
20
-12.339874
30
0
11
-2.126795
21
-12.489996
31
0
39
0
210
0
220
0
230
1
0
LINE
5
94
100
AcDbEntity
8
SK1
62
256
6
ByLayer
370
50
48
1
60
0
100
AcDbLine
10
-2.126795
20
-12.489996
30
0
11
-41.287193
21
-12.489996
31
0
39
0
210
0
220
0
230
1
0
LINE
5
95
100
AcDbEntity
8
SK3
62
256
6
ByLayer
370
35
48
0.05
60
0
100
AcDbLine
10
-0.475805
20
-3.937128
30
0
11
-27.524195
21
-3.937128
31
0
39
0
210
0
220
0
230
1
0
LINE
5
96
100
AcDbEntity
8
1
62
256
6
ByLayer
370
25
48
1
60
0
100
AcDbLine
10
4
20
0.5
30
0
11
4
21
13.989958
31
0
39
0
210
0
220
0
230
1
0
LINE
5
97
100
AcDbEntity
8
1
62
256
6
ByLayer
370
13
48
1
60
0
100
AcDbLine
10
3.117157
20
-0.5
30
0
11
3.117157
21
-14.874441
31
0
39
0
210
0
220
0
230
1
0
LINE
5
98
100
AcDbEntity
8
1
62
256
6
ByLayer
370
13
48
1
60
0
100
AcDbLine
10
2.834315
20
0.5
30
0
11
2.834315
21
14.991664
31
0
39
0
210
0
220
0
230
1
0
LINE
5
99
100
AcDbEntity
8
1
62
256
6
ByLayer
370
13
48
1
60
0
100
AcDbLine
10
1.165685
20
-0.5
30
0
11
1.165685
21
-14.991664
31
0
39
0
210
0
220
0
230
1
0
LINE
5
9A
100
AcDbEntity
8
1
62
256
6
ByLayer
370
13
48
1
60
0
100
AcDbLine
10
0.882843
20
0.5
30
0
11
0.882843
21
14.874441
31
0
39
0
210
0
220
0
230
1
0
LINE
5
9B
100
AcDbEntity
8
1
62
256
6
ByLayer
370
25
48
1
60
0
100
AcDbLine
10
0
20
0.5
30
0
11
0
21
13.825276
31
0
39
0
210
0
220
0
230
1
0
LINE
5
9C
100
AcDbEntity
8
SK1
62
256
6
ByLayer
370
50
48
1
60
0
100
AcDbLine
10
-0.4
20
0.5
30
0
11
-0.4
21
12.339874
31
0
39
0
210
0
220
0
230
1
0
LINE
5
9D
100
AcDbEntity
8
SK1
62
256
6
ByLayer
370
50
48
1
60
0
100
AcDbLine
10
-1.566987
20
0.5
30
0
11
-1.566987
21
12.339874
31
0
39
0
210
0
220
0
230
1
0
LINE
5
9E
100
AcDbEntity
8
SK1
62
256
6
ByLayer
370
50
48
1
60
0
100
AcDbLine
10
-2.126795
20
-0.5
30
0
11
-2.126795
21
-12.489996
31
0
39
0
210
0
220
0
230
1
0
LINE
5
9F
100
AcDbEntity
8
1
62
256
6
ByLayer
370
25
48
1
60
0
100
AcDbLine
10
4
20
0.5
30
0
11
3.117157
21
0.5
31
0
39
0
210
0
220
0
230
1
0
LINE
5
A0
100
AcDbEntity
8
1
62
256
6
ByLayer
370
25
48
1
60
0
100
AcDbLine
10
3.117157
20
0.5
30
0
11
2.834315
21
0.5
31
0
39
0
210
0
220
0
230
1
0
LINE
5
A1
100
AcDbEntity
8
1
62
256
6
ByLayer
370
25
48
1
60
0
100
AcDbLine
10
2.834315
20
0.5
30
0
11
1.165685
21
0.5
31
0
39
0
210
0
220
0
230
1
0
LINE
5
A2
100
AcDbEntity
8
1
62
256
6
ByLayer
370
25
48
1
60
0
100
AcDbLine
10
1.165685
20
0.5
30
0
11
0.882843
21
0.5
31
0
39
0
210
0
220
0
230
1
0
LINE
5
A3
100
AcDbEntity
8
1
62
256
6
ByLayer
370
25
48
1
60
0
100
AcDbLine
10
0.882843
20
0.5
30
0
11
0
21
0.5
31
0
39
0
210
0
220
0
230
1
0
LINE
5
A4
100
AcDbEntity
8
SK1
62
256
6
ByLayer
370
50
48
1
60
0
100
AcDbLine
10
0.117157
20
0.5
30
0
11
0
21
0.5
31
0
39
0
210
0
220
0
230
1
0
LINE
5
A5
100
AcDbEntity
8
SK1
62
256
6
ByLayer
370
50
48
1
60
0
100
AcDbLine
10
0
20
0.5
30
0
11
-0.4
21
0.5
31
0
39
0
210
0
220
0
230
1
0
LINE
5
A6
100
AcDbEntity
8
SK1
62
256
6
ByLayer
370
50
48
1
60
0
100
AcDbLine
10
-0.4
20
0.5
30
0
11
-1.566987
21
0.5
31
0
39
0
210
0
220
0
230
1
0
LINE
5
A7
100
AcDbEntity
8
SK1
62
256
6
ByLayer
370
50
48
1
60
0
100
AcDbLine
10
-1.566987
20
0.5
30
0
11
-2.126795
21
0.5
31
0
39
0
210
0
220
0
230
1
0
LINE
5
A8
100
AcDbEntity
8
SK1
62
256
6
ByLayer
370
50
48
1
60
0
100
AcDbLine
10
-2.126795
20
0.5
30
0
11
-41.287193
21
0.5
31
0
39
0
210
0
220
0
230
1
0
LINE
5
A9
100
AcDbEntity
8
SK1
62
256
6
ByLayer
370
50
48
1
60
0
100
AcDbLine
10
-2.126795
20
-0.5
30
0
11
-41.287193
21
-0.5
31
0
39
0
210
0
220
0
230
1
0
LINE
5
AA
100
AcDbEntity
8
SK1
62
256
6
ByLayer
370
50
48
1
60
0
100
AcDbLine
10
-1.566987
20
-0.5
30
0
11
-2.126795
21
-0.5
31
0
39
0
210
0
220
0
230
1
0
LINE
5
AB
100
AcDbEntity
8
SK1
62
256
6
ByLayer
370
50
48
1
60
0
100
AcDbLine
10
-0.4
20
-0.5
30
0
11
-1.566987
21
-0.5
31
0
39
0
210
0
220
0
230
1
0
LINE
5
AC
100
AcDbEntity
8
SK1
62
256
6
ByLayer
370
50
48
1
60
0
100
AcDbLine
10
0
20
-0.5
30
0
11
-0.4
21
-0.5
31
0
39
0
210
0
220
0
230
1
0
LINE
5
AD
100
AcDbEntity
8
SK1
62
256
6
ByLayer
370
50
48
1
60
0
100
AcDbLine
10
0.117157
20
-0.5
30
0
11
0
21
-0.5
31
0
39
0
210
0
220
0
230
1
0
LINE
5
AE
100
AcDbEntity
8
1
62
256
6
ByLayer
370
25
48
1
60
0
100
AcDbLine
10
0.882843
20
-0.5
30
0
11
0
21
-0.5
31
0
39
0
210
0
220
0
230
1
0
LINE
5
AF
100
AcDbEntity
8
1
62
256
6
ByLayer
370
25
48
1
60
0
100
AcDbLine
10
1.165685
20
-0.5
30
0
11
0.882843
21
-0.5
31
0
39
0
210
0
220
0
230
1
0
LINE
5
B0
100
AcDbEntity
8
1
62
256
6
ByLayer
370
25
48
1
60
0
100
AcDbLine
10
2.834315
20
-0.5
30
0
11
1.165685
21
-0.5
31
0
39
0
210
0
220
0
230
1
0
LINE
5
B1
100
AcDbEntity
8
1
62
256
6
ByLayer
370
25
48
1
60
0
100
AcDbLine
10
3.117157
20
-0.5
30
0
11
2.834315
21
-0.5
31
0
39
0
210
0
220
0
230
1
0
LINE
5
B2
100
AcDbEntity
8
1
62
256
6
ByLayer
370
25
48
1
60
0
100
AcDbLine
10
4
20
-0.5
30
0
11
3.117157
21
-0.5
31
0
39
0
210
0
220
0
230
1
0
LINE
5
B3
100
AcDbEntity
8
1
62
256
6
ByLayer
370
25
48
1
60
0
100
AcDbLine
10
4
20
-0.5
30
0
11
4
21
0.5
31
0
39
0
210
0
220
0
230
1
0
LINE
5
B4
100
AcDbEntity
8
SK3
62
256
6
ByLayer
370
35
48
0.05
60
0
100
AcDbLine
10
-34
20
5
30
0
11
-34
21
3.773947
31
0
39
0
210
0
220
0
230
1
0
LINE
5
B5
100
AcDbEntity
8
SK3
62
256
6
ByLayer
370
35
48
0.05
60
0
100
AcDbLine
10
-40.75
20
5
30
0
11
-40.75
21
3.773947
31
0
39
0
210
0
220
0
230
1
0
LINE
5
B6
100
AcDbEntity
8
SK3
62
256
6
ByLayer
370
35
48
0.05
60
0
100
AcDbLine
10
3.673993
20
-2.372162
30
0
11
3.673993
21
-3.22069
31
0
39
0
210
0
220
0
230
1
0
LINE
5
B7
100
AcDbEntity
8
SK3
62
256
6
ByLayer
370
35
48
0.05
60
0
100
AcDbLine
10
-40.75
20
-3.773947
30
0
11
-40.75
21
-5
31
0
39
0
210
0
220
0
230
1
0
LINE
5
B8
100
AcDbEntity
8
SK3
62
256
6
ByLayer
370
35
48
0.05
60
0
100
AcDbLine
10
-34
20
-3.773947
30
0
11
-34
21
-5
31
0
39
0
210
0
220
0
230
1
0
LINE
5
B9
100
AcDbEntity
8
SK3
62
256
6
ByLayer
370
35
48
0.05
60
0
100
AcDbLine
10
-40.75
20
-3.279836
30
0
11
-34
21
-3.279836
31
0
39
0
210
0
220
0
230
1
0
LINE
5
BA
100
AcDbEntity
8
SK3
62
256
6
ByLayer
370
35
48
0.05
60
0
100
AcDbLine
10
-34
20
-3.773947
30
0
11
-40.75
21
-3.773947
31
0
39
0
210
0
220
0
230
1
0
LINE
5
BB
100
AcDbEntity
8
SK3
62
256
6
ByLayer
370
35
48
0.05
60
0
100
AcDbLine
10
-33.734317
20
-2.757716
30
0
11
-33.42265
21
-2.372162
31
0
39
0
210
0
220
0
230
1
0
LINE
5
BC
100
AcDbEntity
8
SK3
62
256
6
ByLayer
370
35
48
0.05
60
0
100
AcDbLine
10
-33.42265
20
-2.372162
30
0
11
-33.42265
21
-3.22069
31
0
39
0
210
0
220
0
230
1
0
LINE
5
BD
100
AcDbEntity
8
SK3
62
256
6
ByLayer
370
35
48
0.05
60
0
100
AcDbLine
10
-33.42265
20
-2.372162
30
0
11
3.673993
21
-2.372162
31
0
39
0
210
0
220
0
230
1
0
LINE
5
BE
100
AcDbEntity
8
SK3
62
256
6
ByLayer
370
35
48
0.05
60
0
100
AcDbLine
10
-33.42265
20
-3.22069
30
0
11
-33.734317
21
-3.606245
31
0
39
0
210
0
220
0
230
1
0
LINE
5
BF
100
AcDbEntity
8
SK3
62
256
6
ByLayer
370
35
48
0.05
60
0
100
AcDbLine
10
-33.42265
20
-3.22069
30
0
11
3.673993
21
-3.22069
31
0
39
0
210
0
220
0
230
1
0
LINE
5
C0
100
AcDbEntity
8
SK3
62
256
6
ByLayer
370
35
48
0.05
60
0
100
AcDbLine
10
-40.75
20
3.279836
30
0
11
-40.75
21
-3.279836
31
0
39
0
210
0
220
0
230
1
0
LINE
5
C1
100
AcDbEntity
8
SK3
62
256
6
ByLayer
370
35
48
0.05
60
0
100
AcDbLine
10
-34
20
3.279836
30
0
11
-34
21
-3.279836
31
0
39
0
210
0
220
0
230
1
0
LINE
5
C2
100
AcDbEntity
8
SK3
62
256
6
ByLayer
370
35
48
0.05
60
0
100
AcDbLine
10
-34
20
3.773947
30
0
11
-40.75
21
3.773947
31
0
39
0
210
0
220
0
230
1
0
LINE
5
C3
100
AcDbEntity
8
SK3
62
256
6
ByLayer
370
35
48
0.05
60
0
100
AcDbLine
10
-40.75
20
3.279836
30
0
11
-34
21
3.279836
31
0
39
0
210
0
220
0
230
1
0
LINE
5
C4
100
AcDbEntity
8
SK3
62
256
6
ByLayer
370
35
48
0.05
60
0
100
AcDbLine
10
3.673993
20
2.372162
30
0
11
3.673993
21
3.22069
31
0
39
0
210
0
220
0
230
1
0
LINE
5
C5
100
AcDbEntity
8
SK3
62
256
6
ByLayer
370
35
48
0.05
60
0
100
AcDbLine
10
-33.734317
20
2.757716
30
0
11
-33.42265
21
2.372162
31
0
39
0
210
0
220
0
230
1
0
LINE
5
C6
100
AcDbEntity
8
SK3
62
256
6
ByLayer
370
35
48
0.05
60
0
100
AcDbLine
10
-33.42265
20
2.372162
30
0
11
3.673993
21
2.372162
31
0
39
0
210
0
220
0
230
1
0
LINE
5
C7
100
AcDbEntity
8
SK3
62
256
6
ByLayer
370
35
48
0.05
60
0
100
AcDbLine
10
-33.42265
20
2.372162
30
0
11
-33.42265
21
3.22069
31
0
39
0
210
0
220
0
230
1
0
LINE
5
C8
100
AcDbEntity
8
SK3
62
256
6
ByLayer
370
35
48
0.05
60
0
100
AcDbLine
10
-33.42265
20
3.22069
30
0
11
3.673993
21
3.22069
31
0
39
0
210
0
220
0
230
1
0
LINE
5
C9
100
AcDbEntity
8
SK3
62
256
6
ByLayer
370
35
48
0.05
60
0
100
AcDbLine
10
-33.42265
20
3.22069
30
0
11
-33.734317
21
3.606245
31
0
39
0
210
0
220
0
230
1
0
LINE
5
CA
100
AcDbEntity
8
SK3
62
256
6
ByLayer
370
35
48
0.05
60
0
100
AcDbLine
10
0.99997
20
-3.96875
30
0
11
3.5
21
-3.96875
31
0
39
0
210
0
220
0
230
1
0
LINE
5
CB
100
AcDbEntity
8
SK3
62
256
6
ByLayer
370
35
48
0.05
60
0
100
AcDbLine
10
-33.404608
20
-3.96875
30
0
11
-28.999962
21
-3.96875
31
0
39
0
210
0
220
0
230
1
0
LINE
5
CC
100
AcDbEntity
8
SK3
62
256
6
ByLayer
370
35
48
0.05
60
0
100
AcDbLine
10
-28.999962
20
3.96875
30
0
11
-33.404608
21
3.96875
31
0
39
0
210
0
220
0
230
1
0
LINE
5
CD
100
AcDbEntity
8
SK3
62
256
6
ByLayer
370
35
48
0.05
60
0
100
AcDbLine
10
3.5
20
3.96875
30
0
11
0.99997
21
3.96875
31
0
39
0
210
0
220
0
230
1
0
LINE
5
CE
100
AcDbEntity
8
SK3
62
256
6
ByLayer
370
35
48
0.05
60
0
100
AcDbLine
10
-46
20
10.25
30
0
11
-55.5
21
10.25
31
0
39
0
210
0
220
0
230
1
0
LINE
5
CF
100
AcDbEntity
8
SK3
62
256
6
ByLayer
370
35
48
0.05
60
0
100
AcDbLine
10
-55.5
20
-10.25
30
0
11
-46
21
-10.25
31
0
39
0
210
0
220
0
230
1
0
LINE
5
D0
100
AcDbEntity
8
SK3
62
256
6
ByLayer
370
35
48
0.05
60
0
100
AcDbLine
10
-56
20
-10.538675
30
0
11
-55.5
21
-10.25
31
0
39
0
210
0
220
0
230
1
0
LINE
5
D1
100
AcDbEntity
8
SK3
62
256
6
ByLayer
370
35
48
0.05
60
0
100
AcDbLine
10
-55.5
20
10.25
30
0
11
-56
21
10.538675
31
0
39
0
210
0
220
0
230
1
0
LINE
5
D2
100
AcDbEntity
8
SK1
62
256
6
ByLayer
370
50
48
1
60
0
100
AcDbLine
10
-54.973205
20
12.5
30
0
11
-55.8
21
12.02265
31
0
39
0
210
0
220
0
230
1
0
LINE
5
D3
100
AcDbEntity
8
SK1
62
256
6
ByLayer
370
50
48
1
60
0
100
AcDbLine
10
-55.8
20
-12.02265
30
0
11
-54.973205
21
-12.5
31
0
39
0
210
0
220
0
230
1
0
LINE
5
D4
100
AcDbEntity
8
SK1
62
256
6
ByLayer
370
50
48
1
60
0
100
AcDbLine
10
-54.973205
20
-12.5
30
0
11
-42.016246
21
-12.5
31
0
39
0
210
0
220
0
230
1
0
LINE
5
D5
100
AcDbEntity
8
SK1
62
256
6
ByLayer
370
50
48
1
60
0
100
AcDbLine
10
-42.016246
20
12.5
30
0
11
-54.973205
21
12.5
31
0
39
0
210
0
220
0
230
1
0
LINE
5
D6
100
AcDbEntity
8
SK3
62
256
6
ByLayer
370
35
48
0.05
60
0
100
AcDbLine
10
-34
20
5
30
0
11
-40.75
21
5
31
0
39
0
210
0
220
0
230
1
0
LINE
5
D7
100
AcDbEntity
8
SK3
62
256
6
ByLayer
370
35
48
0.05
60
0
100
AcDbLine
10
-33.966455
20
-3.781981
30
0
11
4
21
-3.781981
31
0
39
0
210
0
220
0
230
1
0
LINE
5
D8
100
AcDbEntity
8
SK3
62
256
6
ByLayer
370
35
48
0.05
60
0
100
AcDbLine
10
-40.75
20
-5
30
0
11
-34
21
-5
31
0
39
0
210
0
220
0
230
1
0
LINE
5
D9
100
AcDbEntity
8
SK3
62
256
6
ByLayer
370
35
48
0.05
60
0
100
AcDbLine
10
-34
20
-5
30
0
11
-33.404608
21
-3.96875
31
0
39
0
210
0
220
0
230
1
0
LINE
5
DA
100
AcDbEntity
8
SK3
62
256
6
ByLayer
370
35
48
0.05
60
0
100
AcDbLine
10
-33.404608
20
3.96875
30
0
11
-34
21
5
31
0
39
0
210
0
220
0
230
1
0
LINE
5
DB
100
AcDbEntity
8
SK3
62
256
6
ByLayer
370
35
48
0.05
60
0
100
AcDbLine
10
-46
20
-10.25
30
0
11
-40.75
21
-5
31
0
39
0
210
0
220
0
230
1
0
LINE
5
DC
100
AcDbEntity
8
SK3
62
256
6
ByLayer
370
35
48
0.05
60
0
100
AcDbLine
10
-40.75
20
5
30
0
11
-46
21
10.25
31
0
39
0
210
0
220
0
230
1
0
LINE
5
DD
100
AcDbEntity
8
SK3
62
256
6
ByLayer
370
35
48
0.05
60
0
100
AcDbLine
10
4
20
3.781981
30
0
11
-33.966455
21
3.781981
31
0
39
0
210
0
220
0
230
1
0
LINE
5
DE
100
AcDbEntity
8
SK4
62
256
6
ByLayer
370
25
48
0.05
60
0
100
AcDbLine
10
-56
20
0
30
0
11
4
21
0
31
0
39
0
210
0
220
0
230
1
0
LINE
5
E0
100
AcDbEntity
8
80
62
256
6
ByLayer
370
18
48
1
60
0
100
AcDbLine
10
0
20
0
30
0
11
-2
21
0
31
0
39
0
210
0
220
0
230
1
0
LINE
5
E1
100
AcDbEntity
8
81
62
256
6
ByLayer
370
18
48
1
60
0
100
AcDbLine
10
4
20
0
30
0
11
6
21
0
31
0
39
0
210
0
220
0
230
1
0
MTEXT
5
107
100
AcDbEntity
8
SK6
62
256
6
ByLayer
370
18
48
1
60
0
100
AcDbMText
10
-49.429924
20
-54.438808
30
0
210
0
220
0
230
1
1
\W0.7562;A393.CF-25 05 56
40
3.5
41
0
44
1.084337
50
0
71
7
72
5
7
iso_b_vert
0
DIMENSION
5
10C
100
AcDbEntity
8
SK2
62
256
6
ByLayer
370
18
48
1
60
0
100
AcDbDimension
2
_U0
10
4
20
-37.613621
30
0
11
-26
21
-37.613621
31
0
70
32
71
1
72
1
41
1
210
0
220
0
230
1
3
Standard
100
AcDbAlignedDimension
13
-56
23
11.67624
33
0
14
4
24
13.989958
34
0
50
0
100
AcDbRotatedDimension
1001
ACAD
1000
DSTYLE
1002
{
1070
   371
1070
    13
1070
   372
1070
    13
1070
   170
1070
     0
1070
   144
1040
1.0
1070
   277
1070
     2
1070
   284
1070
     8
1070
   278
1070
    46
1070
   146
1040
1.166667
1070
   345
1005
16
1070
   347
1005
16
1070
   346
1005
16
1070
   344
1005
0
1070
   343
1005
0
1070
   172
1070
     1
1070
    76
1070
     0
1070
    75
1070
     0
1070
   282
1070
     0
1070
   281
1070
     0
1070
    71
1070
     0
1070
    74
1070
     0
1070
   279
1070
     0
1070
   173
1070
     1
1070
   340
1005
108
1070
   271
1070
     2
1070
   272
1070
     2
1070
    77
1070
     1
1070
    73
1070
     1
1070
   171
1070
     3
1070
   274
1070
     4
1070
   177
1070
     7
1070
   176
1070
     7
1070
   178
1070
     7
1070
    78
1070
     8
1070
    48
1040
-0.1
1070
    41
1040
3.175
1070
   147
1040
1.5
1070
    42
1040
1.5875
1070
    44
1040
2.0
1070
   140
1040
3.0
1002
}
1001
ACAD_DSTYLE_DIM_LINETYPE
1070
   380
1005
16
1001
ACAD_DSTYLE_DIM_EXT1_LINETYPE
1070
   381
1005
16
1001
ACAD_DSTYLE_DIM_EXT2_LINETYPE
1070
   382
1005
16
0
DIMENSION
5
126
100
AcDbEntity
8
SK2
62
256
6
ByLayer
370
18
48
1
60
0
100
AcDbDimension
2
_U1
10
0
20
-26.199389
30
0
11
-28
21
-26.199389
31
0
70
32
71
1
72
1
41
1
210
0
220
0
230
1
3
Standard
100
AcDbAlignedDimension
13
-56
23
-11.67624
33
0
14
0
24
-13.825276
34
0
50
0
100
AcDbRotatedDimension
1001
ACAD
1000
DSTYLE
1002
{
1070
   371
1070
    13
1070
   372
1070
    13
1070
   170
1070
     0
1070
   144
1040
1.0
1070
   277
1070
     2
1070
   284
1070
     8
1070
   278
1070
    46
1070
   146
1040
1.166667
1070
   345
1005
16
1070
   347
1005
16
1070
   346
1005
16
1070
   344
1005
0
1070
   343
1005
0
1070
   172
1070
     1
1070
    76
1070
     0
1070
    75
1070
     0
1070
   282
1070
     0
1070
   281
1070
     0
1070
    71
1070
     0
1070
    74
1070
     0
1070
   279
1070
     0
1070
   173
1070
     1
1070
   340
1005
108
1070
   271
1070
     2
1070
   272
1070
     2
1070
    77
1070
     1
1070
    73
1070
     1
1070
   171
1070
     3
1070
   274
1070
     4
1070
   177
1070
     7
1070
   176
1070
     7
1070
   178
1070
     7
1070
    78
1070
     8
1070
    48
1040
-0.1
1070
    41
1040
3.175
1070
   147
1040
1.5
1070
    42
1040
1.5875
1070
    44
1040
2.0
1070
   140
1040
3.0
1002
}
1001
ACAD_DSTYLE_DIM_LINETYPE
1070
   380
1005
16
1001
ACAD_DSTYLE_DIM_EXT1_LINETYPE
1070
   381
1005
16
1001
ACAD_DSTYLE_DIM_EXT2_LINETYPE
1070
   382
1005
16
0
DIMENSION
5
13E
100
AcDbEntity
8
2
62
256
6
ByLayer
370
18
48
1
60
0
100
AcDbDimension
2
_U2
10
0
20
22.999062
30
0
11
15.921429
21
22.999062
31
0
70
32
71
1
72
1
41
1
210
0
220
0
230
1
3
Standard
100
AcDbAlignedDimension
13
4
23
13.989958
33
0
14
0
24
13.825276
34
0
50
0
100
AcDbRotatedDimension
1001
ACAD
1000
DSTYLE
1002
{
1070
   371
1070
    13
1070
   372
1070
    13
1070
   170
1070
     0
1070
   144
1040
1.0
1070
   277
1070
     2
1070
   284
1070
     8
1070
   278
1070
    46
1070
   146
1040
1.166667
1070
   345
1005
16
1070
   347
1005
16
1070
   346
1005
16
1070
   344
1005
0
1070
   343
1005
0
1070
   172
1070
     1
1070
    76
1070
     0
1070
    75
1070
     0
1070
   282
1070
     0
1070
   281
1070
     0
1070
    71
1070
     0
1070
    74
1070
     0
1070
   279
1070
     0
1070
   173
1070
     1
1070
   340
1005
108
1070
   271
1070
     2
1070
   272
1070
     2
1070
    77
1070
     1
1070
    73
1070
     1
1070
   171
1070
     3
1070
   274
1070
     4
1070
   177
1070
     7
1070
   176
1070
     7
1070
   178
1070
     7
1070
    78
1070
     8
1070
    48
1040
-0.1
1070
    41
1040
3.175
1070
   147
1040
1.5
1070
    42
1040
1.5875
1070
    44
1040
2.0
1070
   140
1040
3.0
1002
}
1001
ACAD_DSTYLE_DIM_LINETYPE
1070
   380
1005
16
1001
ACAD_DSTYLE_DIM_EXT1_LINETYPE
1070
   381
1005
16
1001
ACAD_DSTYLE_DIM_EXT2_LINETYPE
1070
   382
1005
16
0
DIMENSION
5
159
100
AcDbEntity
8
SK2
62
256
6
ByLayer
370
18
48
1
60
0
100
AcDbDimension
2
_U3
10
31.793953
20
-14.991664
30
0
11
31.793953
21
0
31
0
70
32
71
1
72
1
41
1
210
0
220
0
230
1
3
Standard
100
AcDbAlignedDimension
13
2.834315
23
14.991664
33
0
14
2.834315
24
-14.991664
34
0
50
90
100
AcDbRotatedDimension
1001
ACAD
1000
DSTYLE
1002
{
1070
   371
1070
    13
1070
   372
1070
    13
1070
   170
1070
     0
1070
   144
1040
1.0
1070
   277
1070
     2
1070
   284
1070
     8
1070
   278
1070
    46
1070
   146
1040
1.166667
1070
   345
1005
16
1070
   347
1005
16
1070
   346
1005
16
1070
   344
1005
0
1070
   343
1005
0
1070
   172
1070
     1
1070
    76
1070
     0
1070
    75
1070
     0
1070
   282
1070
     0
1070
   281
1070
     0
1070
    71
1070
     0
1070
    74
1070
     0
1070
   279
1070
     0
1070
   173
1070
     1
1070
   340
1005
108
1070
   271
1070
     0
1070
   272
1070
     2
1070
    77
1070
     1
1070
    73
1070
     0
1070
   171
1070
     3
1070
   274
1070
     4
1070
   177
1070
     7
1070
   176
1070
     7
1070
   178
1070
     7
1070
    78
1070
     8
1070
    48
1040
-0.1
1070
    41
1040
3.175
1070
   147
1040
1.5
1070
    42
1040
1.5875
1070
    44
1040
2.0
1070
   140
1040
3.0
1002
}
1001
ACAD_DSTYLE_DIM_LINETYPE
1070
   380
1005
16
1001
ACAD_DSTYLE_DIM_EXT1_LINETYPE
1070
   381
1005
16
1001
ACAD_DSTYLE_DIM_EXT2_LINETYPE
1070
   382
1005
16
0
DIMENSION
5
172
100
AcDbEntity
8
SK2
62
256
6
ByLayer
370
18
48
1
60
0
100
AcDbDimension
2
_U4
10
15.505806
20
-3.96875
30
0
11
15.505806
21
-28.7026
31
0
70
32
71
1
72
1
41
1
210
0
220
0
230
1
3
Standard
100
AcDbAlignedDimension
13
3.5
23
3.96875
33
0
14
3.5
24
-3.96875
34
0
50
90
100
AcDbRotatedDimension
1001
ACAD
1000
DSTYLE
1002
{
1070
   371
1070
    13
1070
   372
1070
    13
1070
   170
1070
     0
1070
   144
1040
1.0
1070
   277
1070
     2
1070
   284
1070
     8
1070
   278
1070
    46
1070
   146
1040
1.166667
1070
   345
1005
16
1070
   347
1005
16
1070
   346
1005
16
1070
   344
1005
0
1070
   343
1005
0
1070
   172
1070
     1
1070
    76
1070
     0
1070
    75
1070
     0
1070
   282
1070
     0
1070
   281
1070
     0
1070
    71
1070
     0
1070
    74
1070
     0
1070
   279
1070
     0
1070
   173
1070
     1
1070
   340
1005
108
1070
   271
1070
     3
1070
   272
1070
     2
1070
    77
1070
     1
1070
    73
1070
     0
1070
   171
1070
     3
1070
   274
1070
     4
1070
   177
1070
     7
1070
   176
1070
     7
1070
   178
1070
     7
1070
    78
1070
     8
1070
    48
1040
-0.1
1070
    41
1040
3.175
1070
   147
1040
1.5
1070
    42
1040
1.5875
1070
    44
1040
2.0
1070
   140
1040
3.0
1002
}
1001
ACAD_DSTYLE_DIM_LINETYPE
1070
   380
1005
16
1001
ACAD_DSTYLE_DIM_EXT1_LINETYPE
1070
   381
1005
16
1001
ACAD_DSTYLE_DIM_EXT2_LINETYPE
1070
   382
1005
16
0
DIMENSION
5
18D
100
AcDbEntity
8
SK2
62
256
6
ByLayer
370
18
48
1
60
0
100
AcDbDimension
2
_U5
10
-69.489752
20
-12.5
30
0
11
-69.489752
21
0
31
0
70
32
71
1
72
1
41
1
210
0
220
0
230
1
3
Standard
100
AcDbAlignedDimension
13
-54.973205
23
12.5
33
0
14
-54.973205
24
-12.5
34
0
50
90
100
AcDbRotatedDimension
1001
ACAD
1000
DSTYLE
1002
{
1070
   371
1070
    13
1070
   372
1070
    13
1070
   170
1070
     0
1070
   144
1040
1.0
1070
   277
1070
     2
1070
   284
1070
     8
1070
   278
1070
    46
1070
   146
1040
1.166667
1070
   345
1005
16
1070
   347
1005
16
1070
   346
1005
16
1070
   344
1005
0
1070
   343
1005
0
1070
   172
1070
     1
1070
    76
1070
     0
1070
    75
1070
     0
1070
   282
1070
     0
1070
   281
1070
     0
1070
    71
1070
     0
1070
    74
1070
     0
1070
   279
1070
     0
1070
   173
1070
     1
1070
   340
1005
108
1070
   271
1070
     2
1070
   272
1070
     2
1070
    77
1070
     1
1070
    73
1070
     0
1070
   171
1070
     3
1070
   274
1070
     4
1070
   177
1070
     7
1070
   176
1070
     7
1070
   178
1070
     7
1070
    78
1070
     8
1070
    48
1040
-0.1
1070
    41
1040
3.175
1070
   147
1040
1.5
1070
    42
1040
1.5875
1070
    44
1040
2.0
1070
   140
1040
3.0
1002
}
1001
ACAD_DSTYLE_DIM_LINETYPE
1070
   380
1005
16
1001
ACAD_DSTYLE_DIM_EXT1_LINETYPE
1070
   381
1005
16
1001
ACAD_DSTYLE_DIM_EXT2_LINETYPE
1070
   382
1005
16
0
ENDSEC
0
SECTION
2
OBJECTS
0
DICTIONARY
5
217
330
0
100
AcDbDictionary
280
0
281
1
3
ACAD_GROUP
350
218
3
ACAD_MLINESTYLE
350
219
0
DICTIONARY
5
218
330
0
100
AcDbDictionary
280
0
281
1
0
DICTIONARY
5
219
330
0
100
AcDbDictionary
280
0
281
1
3
Standard
350
18
0
MLINESTYLE
5
18
330
219
100
AcDbMlineStyle
2
Standard
70
0
3

62
256
51
90
52
90
71
2
49
-0.5
62
256
6
ByLayer
49
0.5
62
256
6
ByLayer
0
RASTERVARIABLES
5
204
330

100
AcDbRasterVariables
90
0
70
1
71
1
72
1
0
ENDSEC
0
EOF
