0
SECTION
2
HEADER
9
$ACADVER
1
AC1015
9
$DWGCODEPAGE
3
ANSI_1252
9
$HANDSEED
5
24c
9
$ANGBASE
50
0
9
$ANGDIR
70
0
9
$ATTMODE
70
1
9
$AUNITS
70
0
9
$AUPREC
70
0
9
$CECOLOR
62
256
9
$CELTSCALE
40
1
9
$CELTYPE
6
ByLayer
9
$CELWEIGHT
370
18
9
$CLAYER
8
0
9
$CMLJUST
70
0
9
$CMLSCALE
40
1
9
$CMLSTYLE
2
Standard
9
$DIMSTYLE
2
Standard
9
$TEXTSIZE
40
0.2
9
$TEXTSTYLE
7
Standard
9
$LUNITS
70
2
9
$LUPREC
70
4
9
$EXTNAMES
290
1
9
$INSUNITS
70
4
9
$LTSCALE
40
1
9
$LWDISPLAY
290
1
9
$PDMODE
70
0
9
$PDSIZE
40
0
9
$PLINEGEN
70
0
0
ENDSEC
0
SECTION
2
CLASSES
0
CLASS
1
RASTERVARIABLES
2
AcDbRasterVariables
3
ISM
90
0
280
0
281
0
0
ENDSEC
0
SECTION
2
TABLES
0
TABLE
2
VPORT
5
242
100
AcDbSymbolTable
0
VPORT
5
1
100
AcDbSymbolTableRecord
100
AcDbViewportTableRecord
2
*Active
70
0
10
0
20
0
11
1
21
1
12
-1
22
1
13
0
23
0
14
0.5
24
0.5
15
10
25
10
16
0
26
0
36
1
17
0
27
0
37
0
0
ENDTAB
0
TABLE
2
LTYPE
5
243
100
AcDbSymbolTable
0
LTYPE
5
14
100
AcDbSymbolTableRecord
100
AcDbLinetypeTableRecord
70
0
2
ByBlock
3

72
65
73
0
40
0
0
LTYPE
5
15
100
AcDbSymbolTableRecord
100
AcDbLinetypeTableRecord
70
0
2
ByLayer
3

72
65
73
0
40
0
0
LTYPE
5
16
100
AcDbSymbolTableRecord
100
AcDbLinetypeTableRecord
70
0
2
Continuous
3
Solid line
72
65
73
0
40
0
0
LTYPE
5
6E
100
AcDbSymbolTableRecord
100
AcDbLinetypeTableRecord
70
0
2
CENTER
3
____ _ ____ _ ____ _ ____
72
65
73
4
40
47.5
49
22
74
0
49
-8.5
74
0
49
8.5
74
0
49
-8.5
74
0
0
LTYPE
5
6F
100
AcDbSymbolTableRecord
100
AcDbLinetypeTableRecord
70
0
2
DASHED
3
__ __ __ __ __ __ __ __ __
72
65
73
2
40
25.72
49
12.86
74
0
49
-12.86
74
0
0
ENDTAB
0
TABLE
2
LAYER
5
244
100
AcDbSymbolTable
0
LAYER
5
10
100
AcDbSymbolTableRecord
100
AcDbLayerTableRecord
2
0
70
0
62
7
6
Continuous
290
1
370
-3
390
0
0
LAYER
5
71
100
AcDbSymbolTableRecord
100
AcDbLayerTableRecord
2
81
70
0
62
-3
6
Continuous
290
1
370
-3
390
0
0
LAYER
5
73
100
AcDbSymbolTableRecord
100
AcDbLayerTableRecord
2
80
70
0
62
-6
6
Continuous
290
1
370
-3
390
0
0
LAYER
5
75
100
AcDbSymbolTableRecord
100
AcDbLayerTableRecord
2
1
70
0
62
4
6
Continuous
290
1
370
-3
390
0
0
LAYER
5
13E
100
AcDbSymbolTableRecord
100
AcDbLayerTableRecord
2
Defpoints
70
0
62
7
6
Continuous
290
0
370
-3
390
0
0
LAYER
5
14B
100
AcDbSymbolTableRecord
100
AcDbLayerTableRecord
2
2
70
0
62
7
6
Continuous
290
1
370
-3
390
0
0
LAYER
5
22f
100
AcDbSymbolTableRecord
100
AcDbLayerTableRecord
2
SK1
70
0
62
4
6
Continuous
290
1
370
-3
390
0
0
LAYER
5
230
100
AcDbSymbolTableRecord
100
AcDbLayerTableRecord
2
SK6
70
0
62
5
6
Continuous
290
1
370
-3
390
0
0
LAYER
5
231
100
AcDbSymbolTableRecord
100
AcDbLayerTableRecord
2
SK2
70
0
62
7
6
Continuous
290
1
370
-3
390
0
0
ENDTAB
0
TABLE
2
STYLE
5
245
100
AcDbSymbolTable
0
STYLE
5
11
100
AcDbSymbolTableRecord
100
AcDbTextStyleTableRecord
2
Standard
3
txt
70
0
71
0
40
0
41
1
42
0
50
0
0
STYLE
5
137
100
AcDbSymbolTableRecord
100
AcDbTextStyleTableRecord
2
iso_b_vert
3
simplex.shx
70
0
71
0
40
0
41
1
42
0
50
0
0
STYLE
5
138
100
AcDbSymbolTableRecord
100
AcDbTextStyleTableRecord
2
DWGDirectTextStyle
3
simplex
70
0
71
0
40
0
41
1
42
0
50
0
0
ENDTAB
0
TABLE
2
DIMSTYLE
5
246
100
AcDbSymbolTable
100
AcDbDimStyleTable
0
DIMSTYLE
105
27
100
AcDbSymbolTableRecord
100
AcDbDimStyleTableRecord
2
Standard
70
0
3
<>
41
0.18
42
0.0625
44
0.18
140
0.18
147
0.09
73
0
74
0
77
1
271
2
275
0
278
52
280
0
340
11
0
ENDTAB
0
TABLE
2
VIEW
5
247
100
AcDbSymbolTable
0
ENDTAB
0
TABLE
2
UCS
5
248
100
AcDbSymbolTable
0
ENDTAB
0
TABLE
2
APPID
5
249
100
AcDbSymbolTable
0
APPID
5
12
100
AcDbSymbolTableRecord
100
AcDbRegAppTableRecord
2
ACAD
70
0
0
APPID
5
13A
100
AcDbSymbolTableRecord
100
AcDbRegAppTableRecord
2
ACAD_DSTYLE_DIMBREAK
70
0
0
APPID
5
1EE
100
AcDbSymbolTableRecord
100
AcDbRegAppTableRecord
2
ACAD_DSTYLE_DIM_LINETYPE
70
0
0
APPID
5
1EF
100
AcDbSymbolTableRecord
100
AcDbRegAppTableRecord
2
ACAD_DSTYLE_DIM_EXT1_LINETYPE
70
0
0
APPID
5
1F0
100
AcDbSymbolTableRecord
100
AcDbRegAppTableRecord
2
ACAD_DSTYLE_DIM_EXT2_LINETYPE
70
0
0
APPID
5
22B
100
AcDbSymbolTableRecord
100
AcDbRegAppTableRecord
2
ACAD_MLEADERVER
70
0
0
ENDTAB
0
TABLE
2
BLOCK_RECORD
5
24a
100
AcDbSymbolTable
0
BLOCK_RECORD
5
1F
100
AcDbSymbolTableRecord
100
AcDbBlockTableRecord
2
*Model_Space
340
0
70
0
0
BLOCK_RECORD
5
1B
100
AcDbSymbolTableRecord
100
AcDbBlockTableRecord
2
*Paper_Space
340
0
70
0
0
BLOCK_RECORD
5
23
100
AcDbSymbolTableRecord
100
AcDbBlockTableRecord
2
*Paper_Space0
340
0
70
0
0
BLOCK_RECORD
5
13F
100
AcDbSymbolTableRecord
100
AcDbBlockTableRecord
2
*D1
340
0
70
0
0
BLOCK_RECORD
5
14C
100
AcDbSymbolTableRecord
100
AcDbBlockTableRecord
2
_U0
340
0
70
0
0
BLOCK_RECORD
5
158
100
AcDbSymbolTableRecord
100
AcDbBlockTableRecord
2
*D3
340
0
70
0
0
BLOCK_RECORD
5
165
100
AcDbSymbolTableRecord
100
AcDbBlockTableRecord
2
_U1
340
0
70
0
0
BLOCK_RECORD
5
171
100
AcDbSymbolTableRecord
100
AcDbBlockTableRecord
2
*D5
340
0
70
0
0
BLOCK_RECORD
5
17E
100
AcDbSymbolTableRecord
100
AcDbBlockTableRecord
2
_U2
340
0
70
0
0
BLOCK_RECORD
5
18A
100
AcDbSymbolTableRecord
100
AcDbBlockTableRecord
2
*D7
340
0
70
0
0
BLOCK_RECORD
5
197
100
AcDbSymbolTableRecord
100
AcDbBlockTableRecord
2
_U3
340
0
70
0
0
BLOCK_RECORD
5
1A3
100
AcDbSymbolTableRecord
100
AcDbBlockTableRecord
2
*D9
340
0
70
0
0
BLOCK_RECORD
5
1AF
100
AcDbSymbolTableRecord
100
AcDbBlockTableRecord
2
_U4
340
0
70
0
0
BLOCK_RECORD
5
1BB
100
AcDbSymbolTableRecord
100
AcDbBlockTableRecord
2
*D11
340
0
70
0
0
BLOCK_RECORD
5
1C7
100
AcDbSymbolTableRecord
100
AcDbBlockTableRecord
2
_U5
340
0
70
0
0
ENDTAB
0
ENDSEC
0
SECTION
2
BLOCKS
0
BLOCK
5
20
100
AcDbEntity
8
0
100
AcDbBlockBegin
2
*Model_Space
70
0
10
0
20
0
30
0
3
*Model_Space
0
ENDBLK
5
21
100
AcDbEntity
8
0
100
AcDbBlockEnd
0
BLOCK
5
1C
100
AcDbEntity
8
0
100
AcDbBlockBegin
2
*Paper_Space
70
0
10
0
20
0
30
0
3
*Paper_Space
0
ENDBLK
5
1D
100
AcDbEntity
8
0
100
AcDbBlockEnd
0
BLOCK
5
24
100
AcDbEntity
8
0
100
AcDbBlockBegin
2
*Paper_Space0
70
0
10
0
20
0
30
0
3
*Paper_Space0
0
ENDBLK
5
25
100
AcDbEntity
8
0
100
AcDbBlockEnd
0
BLOCK
5
140
100
AcDbEntity
8
0
100
AcDbBlockBegin
2
*D1
70
1
10
0
20
0
30
0
3
*D1
0
LINE
5
142
100
AcDbEntity
8
0
62
256
6
ByLayer
370
-2
48
1
60
0
100
AcDbLine
10
201.5875
20
38.25
30
0
11
225.1
21
38.25
31
0
39
0
210
0
220
0
230
1
0
LINE
5
143
100
AcDbEntity
8
0
62
256
6
ByLayer
370
-2
48
1
60
0
100
AcDbLine
10
-148.4125
20
0
30
0
11
225.1
21
0
31
0
39
0
210
0
220
0
230
1
0
LINE
5
144
100
AcDbEntity
8
0
62
256
6
ByLayer
370
-2
48
1
60
0
100
AcDbLine
10
223.1
20
34.75
30
0
11
223.1
21
3.5
31
0
39
0
210
0
220
0
230
1
0
SOLID
5
145
100
AcDbEntity
8
0
62
256
6
ByLayer
370
-1
48
1
60
0
100
AcDbTrace
10
223.683333
20
34.75
30
0
11
222.516667
21
34.75
31
0
12
223.1
22
38.25
32
0
13
223.1
23
38.25
33
0
39
0
210
0
220
0
230
1
0
SOLID
5
146
100
AcDbEntity
8
0
62
256
6
ByLayer
370
-1
48
1
60
0
100
AcDbTrace
10
222.516667
20
3.5
30
0
11
223.683333
21
3.5
31
0
12
223.1
22
0
32
0
13
223.1
23
0
33
0
39
0
210
0
220
0
230
1
0
MTEXT
5
147
100
AcDbEntity
8
0
62
256
6
ByLayer
370
18
48
1
60
0
100
AcDbMText
10
216.1
20
19.125
30
0
210
0
220
0
230
1
1
\A1;38.25
40
3.5
41
0
44
1
50
90
71
5
72
5
7
iso_b_vert
0
POINT
5
148
100
AcDbEntity
8
Defpoints
62
0
6
ByLayer
370
-1
48
1
60
0
100
AcDbPoint
10
200
20
38.25
30
0
39
0
210
0
220
0
230
1
50
360
0
POINT
5
149
100
AcDbEntity
8
Defpoints
62
0
6
ByLayer
370
-1
48
1
60
0
100
AcDbPoint
10
-150
20
0
30
0
39
0
210
0
220
0
230
1
50
360
0
POINT
5
14A
100
AcDbEntity
8
Defpoints
62
0
6
ByLayer
370
-1
48
1
60
0
100
AcDbPoint
10
223.1
20
0
30
0
39
0
210
0
220
0
230
1
50
360
0
ENDBLK
5
141
100
AcDbEntity
8
0
100
AcDbBlockEnd
0
BLOCK
5
153
100
AcDbEntity
8
0
100
AcDbBlockBegin
2
_U0
70
0
10
0
20
0
30
0
3
_U0
0
MTEXT
5
14D
100
AcDbEntity
8
2
62
256
6
ByLayer
370
18
48
1
60
0
100
AcDbMText
10
222.410366
20
13.867568
30
0
210
0
220
0
230
1
1
\W0.7468;38.25
40
3.5
41
0
44
1.084337
50
90
71
7
72
5
7
iso_b_vert
0
LINE
5
14E
100
AcDbEntity
8
2
62
256
6
ByLayer
370
13
48
1
60
0
100
AcDbLine
10
201.5875
20
38.25
30
0
11
225.1
21
38.25
31
0
39
0
210
0
220
0
230
1
0
LINE
5
14F
100
AcDbEntity
8
2
62
256
6
ByLayer
370
13
48
1
60
0
100
AcDbLine
10
-148.4125
20
0
30
0
11
225.1
21
0
31
0
39
0
210
0
220
0
230
1
0
LINE
5
150
100
AcDbEntity
8
2
62
256
6
ByLayer
370
13
48
1
60
0
100
AcDbLine
10
223.1
20
38.25
30
0
11
223.1
21
0
31
0
39
0
210
0
220
0
230
1
0
SOLID
5
151
100
AcDbEntity
8
2
62
256
6
ByLayer
370
18
48
1
60
0
100
AcDbTrace
10
223.1
20
38.25
30
0
11
223.560784
21
34.750002
31
0
12
222.639216
22
34.749998
32
0
13
222.639216
23
34.749998
33
0
39
0
210
0
220
0
230
1
0
SOLID
5
152
100
AcDbEntity
8
2
62
256
6
ByLayer
370
18
48
1
60
0
100
AcDbTrace
10
223.1
20
0
30
0
11
222.639216
21
3.499998
31
0
12
223.560784
22
3.500002
32
0
13
223.560784
23
3.500002
33
0
39
0
210
0
220
0
230
1
0
ENDBLK
5
154
100
AcDbEntity
8
0
100
AcDbBlockEnd
0
BLOCK
5
159
100
AcDbEntity
8
0
100
AcDbBlockBegin
2
*D3
70
1
10
0
20
0
30
0
3
*D3
0
LINE
5
15B
100
AcDbEntity
8
0
62
256
6
ByLayer
370
-2
48
1
60
0
100
AcDbLine
10
196.9125
20
25.25
30
0
11
215.1
21
25.25
31
0
39
0
210
0
220
0
230
1
0
LINE
5
15C
100
AcDbEntity
8
0
62
256
6
ByLayer
370
-2
48
1
60
0
100
AcDbLine
10
201.5875
20
38.25
30
0
11
215.1
21
38.25
31
0
39
0
210
0
220
0
230
1
0
LINE
5
15D
100
AcDbEntity
8
0
62
256
6
ByLayer
370
-2
48
1
60
0
100
AcDbLine
10
213.1
20
21.75
30
0
11
213.1
21
18.25
31
0
39
0
210
0
220
0
230
1
0
LINE
5
15E
100
AcDbEntity
8
0
62
256
6
ByLayer
370
-2
48
1
60
0
100
AcDbLine
10
213.1
20
41.75
30
0
11
213.1
21
45.25
31
0
39
0
210
0
220
0
230
1
0
SOLID
5
15F
100
AcDbEntity
8
0
62
256
6
ByLayer
370
-1
48
1
60
0
100
AcDbTrace
10
213.683333
20
21.75
30
0
11
212.516667
21
21.75
31
0
12
213.1
22
25.25
32
0
13
213.1
23
25.25
33
0
39
0
210
0
220
0
230
1
0
SOLID
5
160
100
AcDbEntity
8
0
62
256
6
ByLayer
370
-1
48
1
60
0
100
AcDbTrace
10
212.516667
20
41.75
30
0
11
213.683333
21
41.75
31
0
12
213.1
22
38.25
32
0
13
213.1
23
38.25
33
0
39
0
210
0
220
0
230
1
0
MTEXT
5
161
100
AcDbEntity
8
0
62
256
6
ByLayer
370
18
48
1
60
0
100
AcDbMText
10
206.1
20
31.75
30
0
210
0
220
0
230
1
1
\A1;13
40
3.5
41
0
44
1
50
90
71
5
72
5
7
iso_b_vert
0
POINT
5
162
100
AcDbEntity
8
Defpoints
62
0
6
ByLayer
370
-1
48
1
60
0
100
AcDbPoint
10
195.325
20
25.25
30
0
39
0
210
0
220
0
230
1
50
360
0
POINT
5
163
100
AcDbEntity
8
Defpoints
62
0
6
ByLayer
370
-1
48
1
60
0
100
AcDbPoint
10
200
20
38.25
30
0
39
0
210
0
220
0
230
1
50
360
0
POINT
5
164
100
AcDbEntity
8
Defpoints
62
0
6
ByLayer
370
-1
48
1
60
0
100
AcDbPoint
10
213.1
20
38.25
30
0
39
0
210
0
220
0
230
1
50
360
0
ENDBLK
5
15A
100
AcDbEntity
8
0
100
AcDbBlockEnd
0
BLOCK
5
16C
100
AcDbEntity
8
0
100
AcDbBlockBegin
2
_U1
70
0
10
0
20
0
30
0
3
_U1
0
MTEXT
5
166
100
AcDbEntity
8
2
62
256
6
ByLayer
370
18
48
1
60
0
100
AcDbMText
10
212.410366
20
30.254467
30
0
210
0
220
0
230
1
1
\W0.5321;13
40
3.5
41
0
44
1.084337
50
90
71
7
72
5
7
iso_b_vert
0
LINE
5
167
100
AcDbEntity
8
2
62
256
6
ByLayer
370
13
48
1
60
0
100
AcDbLine
10
196.9125
20
25.25
30
0
11
215.1
21
25.25
31
0
39
0
210
0
220
0
230
1
0
LINE
5
168
100
AcDbEntity
8
2
62
256
6
ByLayer
370
13
48
1
60
0
100
AcDbLine
10
201.5875
20
38.25
30
0
11
215.1
21
38.25
31
0
39
0
210
0
220
0
230
1
0
LINE
5
169
100
AcDbEntity
8
2
62
256
6
ByLayer
370
13
48
1
60
0
100
AcDbLine
10
213.1
20
25.25
30
0
11
213.1
21
38.25
31
0
39
0
210
0
220
0
230
1
0
SOLID
5
16A
100
AcDbEntity
8
2
62
256
6
ByLayer
370
18
48
1
60
0
100
AcDbTrace
10
213.1
20
25.25
30
0
11
212.639216
21
28.749998
31
0
12
213.560784
22
28.750002
32
0
13
213.560784
23
28.750002
33
0
39
0
210
0
220
0
230
1
0
SOLID
5
16B
100
AcDbEntity
8
2
62
256
6
ByLayer
370
18
48
1
60
0
100
AcDbTrace
10
213.1
20
38.25
30
0
11
213.560784
21
34.750002
31
0
12
212.639216
22
34.749998
32
0
13
212.639216
23
34.749998
33
0
39
0
210
0
220
0
230
1
0
ENDBLK
5
16D
100
AcDbEntity
8
0
100
AcDbBlockEnd
0
BLOCK
5
172
100
AcDbEntity
8
0
100
AcDbBlockBegin
2
*D5
70
1
10
0
20
0
30
0
3
*D5
0
LINE
5
174
100
AcDbEntity
8
0
62
256
6
ByLayer
370
-2
48
1
60
0
100
AcDbLine
10
-151.5875
20
25
30
0
11
-163.6
21
25
31
0
39
0
210
0
220
0
230
1
0
LINE
5
175
100
AcDbEntity
8
0
62
256
6
ByLayer
370
-2
48
1
60
0
100
AcDbLine
10
-151.5875
20
-25
30
0
11
-163.6
21
-25
31
0
39
0
210
0
220
0
230
1
0
LINE
5
176
100
AcDbEntity
8
0
62
256
6
ByLayer
370
-2
48
1
60
0
100
AcDbLine
10
-161.6
20
21.5
30
0
11
-161.6
21
-21.5
31
0
39
0
210
0
220
0
230
1
0
SOLID
5
177
100
AcDbEntity
8
0
62
256
6
ByLayer
370
-1
48
1
60
0
100
AcDbTrace
10
-161.016667
20
21.5
30
0
11
-162.183333
21
21.5
31
0
12
-161.6
22
25
32
0
13
-161.6
23
25
33
0
39
0
210
0
220
0
230
1
0
SOLID
5
178
100
AcDbEntity
8
0
62
256
6
ByLayer
370
-1
48
1
60
0
100
AcDbTrace
10
-162.183333
20
-21.5
30
0
11
-161.016667
21
-21.5
31
0
12
-161.6
22
-25
32
0
13
-161.6
23
-25
33
0
39
0
210
0
220
0
230
1
0
MTEXT
5
179
100
AcDbEntity
8
0
62
256
6
ByLayer
370
18
48
1
60
0
100
AcDbMText
10
-168.6
20
0
30
0
210
0
220
0
230
1
1
\A1;50
40
3.5
41
0
44
1
50
90
71
5
72
5
7
iso_b_vert
0
POINT
5
17A
100
AcDbEntity
8
Defpoints
62
0
6
ByLayer
370
-1
48
1
60
0
100
AcDbPoint
10
-150
20
25
30
0
39
0
210
0
220
0
230
1
50
360
0
POINT
5
17B
100
AcDbEntity
8
Defpoints
62
0
6
ByLayer
370
-1
48
1
60
0
100
AcDbPoint
10
-150
20
-25
30
0
39
0
210
0
220
0
230
1
50
360
0
POINT
5
17C
100
AcDbEntity
8
Defpoints
62
0
6
ByLayer
370
-1
48
1
60
0
100
AcDbPoint
10
-161.6
20
-25
30
0
39
0
210
0
220
0
230
1
50
360
0
ENDBLK
5
173
100
AcDbEntity
8
0
100
AcDbBlockEnd
0
BLOCK
5
185
100
AcDbEntity
8
0
100
AcDbBlockBegin
2
_U2
70
0
10
0
20
0
30
0
3
_U2
0
MTEXT
5
17F
100
AcDbEntity
8
SK2
62
256
6
ByLayer
370
18
48
1
60
0
100
AcDbMText
10
-162.289634
20
-1.932966
30
0
210
0
220
0
230
1
1
\W0.6740;50
40
3.5
41
0
44
1.084337
50
90
71
7
72
5
7
iso_b_vert
0
LINE
5
180
100
AcDbEntity
8
SK2
62
256
6
ByLayer
370
13
48
1
60
0
100
AcDbLine
10
-151.5875
20
25
30
0
11
-163.6
21
25
31
0
39
0
210
0
220
0
230
1
0
LINE
5
181
100
AcDbEntity
8
SK2
62
256
6
ByLayer
370
13
48
1
60
0
100
AcDbLine
10
-151.5875
20
-25
30
0
11
-163.6
21
-25
31
0
39
0
210
0
220
0
230
1
0
LINE
5
182
100
AcDbEntity
8
SK2
62
256
6
ByLayer
370
13
48
1
60
0
100
AcDbLine
10
-161.6
20
25
30
0
11
-161.6
21
-25
31
0
39
0
210
0
220
0
230
1
0
SOLID
5
183
100
AcDbEntity
8
SK2
62
256
6
ByLayer
370
18
48
1
60
0
100
AcDbTrace
10
-161.6
20
25
30
0
11
-161.139216
21
21.500002
31
0
12
-162.060784
22
21.499998
32
0
13
-162.060784
23
21.499998
33
0
39
0
210
0
220
0
230
1
0
SOLID
5
184
100
AcDbEntity
8
SK2
62
256
6
ByLayer
370
18
48
1
60
0
100
AcDbTrace
10
-161.6
20
-25
30
0
11
-162.060784
21
-21.500002
31
0
12
-161.139216
22
-21.499998
32
0
13
-161.139216
23
-21.499998
33
0
39
0
210
0
220
0
230
1
0
ENDBLK
5
186
100
AcDbEntity
8
0
100
AcDbBlockEnd
0
BLOCK
5
18B
100
AcDbEntity
8
0
100
AcDbBlockBegin
2
*D7
70
1
10
0
20
0
30
0
3
*D7
0
LINE
5
18D
100
AcDbEntity
8
0
62
256
6
ByLayer
370
-2
48
1
60
0
100
AcDbLine
10
195
20
39.8375
30
0
11
195
21
46.5
31
0
39
0
210
0
220
0
230
1
0
LINE
5
18E
100
AcDbEntity
8
0
62
256
6
ByLayer
370
-2
48
1
60
0
100
AcDbLine
10
200
20
39.8375
30
0
11
200
21
46.5
31
0
39
0
210
0
220
0
230
1
0
LINE
5
18F
100
AcDbEntity
8
0
62
256
6
ByLayer
370
-2
48
1
60
0
100
AcDbLine
10
191.5
20
44.5
30
0
11
188
21
44.5
31
0
39
0
210
0
220
0
230
1
0
LINE
5
190
100
AcDbEntity
8
0
62
256
6
ByLayer
370
-2
48
1
60
0
100
AcDbLine
10
203.5
20
44.5
30
0
11
207
21
44.5
31
0
39
0
210
0
220
0
230
1
0
SOLID
5
191
100
AcDbEntity
8
0
62
256
6
ByLayer
370
-1
48
1
60
0
100
AcDbTrace
10
191.5
20
43.916667
30
0
11
191.5
21
45.083333
31
0
12
195
22
44.5
32
0
13
195
23
44.5
33
0
39
0
210
0
220
0
230
1
0
SOLID
5
192
100
AcDbEntity
8
0
62
256
6
ByLayer
370
-1
48
1
60
0
100
AcDbTrace
10
203.5
20
45.083333
30
0
11
203.5
21
43.916667
31
0
12
200
22
44.5
32
0
13
200
23
44.5
33
0
39
0
210
0
220
0
230
1
0
MTEXT
5
193
100
AcDbEntity
8
0
62
256
6
ByLayer
370
18
48
1
60
0
100
AcDbMText
10
197.5
20
51.5
30
0
210
0
220
0
230
1
1
\A1;5
40
3.5
41
0
44
1
50
0
71
5
72
5
7
iso_b_vert
0
POINT
5
194
100
AcDbEntity
8
Defpoints
62
0
6
ByLayer
370
-1
48
1
60
0
100
AcDbPoint
10
195
20
38.25
30
0
39
0
210
0
220
0
230
1
50
360
0
POINT
5
195
100
AcDbEntity
8
Defpoints
62
0
6
ByLayer
370
-1
48
1
60
0
100
AcDbPoint
10
200
20
38.25
30
0
39
0
210
0
220
0
230
1
50
360
0
POINT
5
196
100
AcDbEntity
8
Defpoints
62
0
6
ByLayer
370
-1
48
1
60
0
100
AcDbPoint
10
200
20
44.5
30
0
39
0
210
0
220
0
230
1
50
360
0
ENDBLK
5
18C
100
AcDbEntity
8
0
100
AcDbBlockEnd
0
BLOCK
5
19E
100
AcDbEntity
8
0
100
AcDbBlockBegin
2
_U3
70
0
10
0
20
0
30
0
3
_U3
0
MTEXT
5
198
100
AcDbEntity
8
2
62
256
6
ByLayer
370
18
48
1
60
0
100
AcDbMText
10
196.902767
20
45.532634
30
0
210
0
220
0
230
1
1
\W0.5404;5
40
3.5
41
0
44
1.084337
50
0
71
7
72
5
7
iso_b_vert
0
LINE
5
199
100
AcDbEntity
8
2
62
256
6
ByLayer
370
13
48
1
60
0
100
AcDbLine
10
195
20
39.8375
30
0
11
195
21
46.5
31
0
39
0
210
0
220
0
230
1
0
LINE
5
19A
100
AcDbEntity
8
2
62
256
6
ByLayer
370
13
48
1
60
0
100
AcDbLine
10
200
20
39.8375
30
0
11
200
21
46.5
31
0
39
0
210
0
220
0
230
1
0
LINE
5
19B
100
AcDbEntity
8
2
62
256
6
ByLayer
370
13
48
1
60
0
100
AcDbLine
10
186.25
20
44.5
30
0
11
208.75
21
44.5
31
0
39
0
210
0
220
0
230
1
0
SOLID
5
19C
100
AcDbEntity
8
2
62
256
6
ByLayer
370
18
48
1
60
0
100
AcDbTrace
10
195
20
44.5
30
0
11
191.500002
21
44.039216
31
0
12
191.499998
22
44.960784
32
0
13
191.499998
23
44.960784
33
0
39
0
210
0
220
0
230
1
0
SOLID
5
19D
100
AcDbEntity
8
2
62
256
6
ByLayer
370
18
48
1
60
0
100
AcDbTrace
10
200
20
44.5
30
0
11
203.499998
21
44.960784
31
0
12
203.500002
22
44.039216
32
0
13
203.500002
23
44.039216
33
0
39
0
210
0
220
0
230
1
0
ENDBLK
5
19F
100
AcDbEntity
8
0
100
AcDbBlockEnd
0
BLOCK
5
1A4
100
AcDbEntity
8
0
100
AcDbBlockBegin
2
*D9
70
1
10
0
20
0
30
0
3
*D9
0
LINE
5
1A6
100
AcDbEntity
8
0
62
256
6
ByLayer
370
-2
48
1
60
0
100
AcDbLine
10
-150
20
-1.5875
30
0
11
-150
21
-28.75
31
0
39
0
210
0
220
0
230
1
0
LINE
5
1A7
100
AcDbEntity
8
0
62
256
6
ByLayer
370
-2
48
1
60
0
100
AcDbLine
10
200
20
36.6625
30
0
11
200
21
-28.75
31
0
39
0
210
0
220
0
230
1
0
LINE
5
1A8
100
AcDbEntity
8
0
62
256
6
ByLayer
370
-2
48
1
60
0
100
AcDbLine
10
-146.5
20
-26.75
30
0
11
196.5
21
-26.75
31
0
39
0
210
0
220
0
230
1
0
SOLID
5
1A9
100
AcDbEntity
8
0
62
256
6
ByLayer
370
-1
48
1
60
0
100
AcDbTrace
10
-146.5
20
-26.166667
30
0
11
-146.5
21
-27.333333
31
0
12
-150
22
-26.75
32
0
13
-150
23
-26.75
33
0
39
0
210
0
220
0
230
1
0
SOLID
5
1AA
100
AcDbEntity
8
0
62
256
6
ByLayer
370
-1
48
1
60
0
100
AcDbTrace
10
196.5
20
-27.333333
30
0
11
196.5
21
-26.166667
31
0
12
200
22
-26.75
32
0
13
200
23
-26.75
33
0
39
0
210
0
220
0
230
1
0
MTEXT
5
1AB
100
AcDbEntity
8
0
62
256
6
ByLayer
370
18
48
1
60
0
100
AcDbMText
10
25
20
-19.75
30
0
210
0
220
0
230
1
1
\A1;350
40
3.5
41
0
44
1
50
0
71
5
72
5
7
iso_b_vert
0
POINT
5
1AC
100
AcDbEntity
8
Defpoints
62
0
6
ByLayer
370
-1
48
1
60
0
100
AcDbPoint
10
-150
20
0
30
0
39
0
210
0
220
0
230
1
50
360
0
POINT
5
1AD
100
AcDbEntity
8
Defpoints
62
0
6
ByLayer
370
-1
48
1
60
0
100
AcDbPoint
10
200
20
38.25
30
0
39
0
210
0
220
0
230
1
50
360
0
POINT
5
1AE
100
AcDbEntity
8
Defpoints
62
0
6
ByLayer
370
-1
48
1
60
0
100
AcDbPoint
10
200
20
-26.75
30
0
39
0
210
0
220
0
230
1
50
360
0
ENDBLK
5
1A5
100
AcDbEntity
8
0
100
AcDbBlockEnd
0
BLOCK
5
1B6
100
AcDbEntity
8
0
100
AcDbBlockBegin
2
_U4
70
0
10
0
20
0
30
0
3
_U4
0
MTEXT
5
1B0
100
AcDbEntity
8
SK2
62
256
6
ByLayer
370
18
48
1
60
0
100
AcDbMText
10
21.787301
20
-25.717366
30
0
210
0
220
0
230
1
1
\W0.7138;350
40
3.5
41
0
44
1.084337
50
0
71
7
72
5
7
iso_b_vert
0
LINE
5
1B1
100
AcDbEntity
8
SK2
62
256
6
ByLayer
370
13
48
1
60
0
100
AcDbLine
10
-150
20
-1.5875
30
0
11
-150
21
-28.75
31
0
39
0
210
0
220
0
230
1
0
LINE
5
1B2
100
AcDbEntity
8
SK2
62
256
6
ByLayer
370
13
48
1
60
0
100
AcDbLine
10
200
20
36.6625
30
0
11
200
21
-28.75
31
0
39
0
210
0
220
0
230
1
0
LINE
5
1B3
100
AcDbEntity
8
SK2
62
256
6
ByLayer
370
13
48
1
60
0
100
AcDbLine
10
-150
20
-26.75
30
0
11
200
21
-26.75
31
0
39
0
210
0
220
0
230
1
0
SOLID
5
1B4
100
AcDbEntity
8
SK2
62
256
6
ByLayer
370
18
48
1
60
0
100
AcDbTrace
10
-150
20
-26.75
30
0
11
-146.500002
21
-26.289216
31
0
12
-146.499998
22
-27.210784
32
0
13
-146.499998
23
-27.210784
33
0
39
0
210
0
220
0
230
1
0
SOLID
5
1B5
100
AcDbEntity
8
SK2
62
256
6
ByLayer
370
18
48
1
60
0
100
AcDbTrace
10
200
20
-26.75
30
0
11
196.500002
21
-27.210784
31
0
12
196.499998
22
-26.289216
32
0
13
196.499998
23
-26.289216
33
0
39
0
210
0
220
0
230
1
0
ENDBLK
5
1B7
100
AcDbEntity
8
0
100
AcDbBlockEnd
0
BLOCK
5
1BC
100
AcDbEntity
8
0
100
AcDbBlockBegin
2
*D11
70
1
10
0
20
0
30
0
3
*D11
0
LINE
5
1BE
100
AcDbEntity
8
0
62
256
6
ByLayer
370
-2
48
1
60
0
100
AcDbLine
10
0
20
1.5875
30
0
11
0
21
62.5
31
0
39
0
210
0
220
0
230
1
0
LINE
5
1BF
100
AcDbEntity
8
0
62
256
6
ByLayer
370
-2
48
1
60
0
100
AcDbLine
10
200
20
39.8375
30
0
11
200
21
62.5
31
0
39
0
210
0
220
0
230
1
0
LINE
5
1C0
100
AcDbEntity
8
0
62
256
6
ByLayer
370
-2
48
1
60
0
100
AcDbLine
10
3.5
20
60.5
30
0
11
196.5
21
60.5
31
0
39
0
210
0
220
0
230
1
0
SOLID
5
1C1
100
AcDbEntity
8
0
62
256
6
ByLayer
370
-1
48
1
60
0
100
AcDbTrace
10
3.5
20
61.083333
30
0
11
3.5
21
59.916667
31
0
12
0
22
60.5
32
0
13
0
23
60.5
33
0
39
0
210
0
220
0
230
1
0
SOLID
5
1C2
100
AcDbEntity
8
0
62
256
6
ByLayer
370
-1
48
1
60
0
100
AcDbTrace
10
196.5
20
59.916667
30
0
11
196.5
21
61.083333
31
0
12
200
22
60.5
32
0
13
200
23
60.5
33
0
39
0
210
0
220
0
230
1
0
MTEXT
5
1C3
100
AcDbEntity
8
0
62
256
6
ByLayer
370
18
48
1
60
0
100
AcDbMText
10
100
20
67.5
30
0
210
0
220
0
230
1
1
\A1;200
40
3.5
41
0
44
1
50
0
71
5
72
5
7
iso_b_vert
0
POINT
5
1C4
100
AcDbEntity
8
Defpoints
62
0
6
ByLayer
370
-1
48
1
60
0
100
AcDbPoint
10
0
20
0
30
0
39
0
210
0
220
0
230
1
50
360
0
POINT
5
1C5
100
AcDbEntity
8
Defpoints
62
0
6
ByLayer
370
-1
48
1
60
0
100
AcDbPoint
10
200
20
38.25
30
0
39
0
210
0
220
0
230
1
50
360
0
POINT
5
1C6
100
AcDbEntity
8
Defpoints
62
0
6
ByLayer
370
-1
48
1
60
0
100
AcDbPoint
10
200
20
60.5
30
0
39
0
210
0
220
0
230
1
50
360
0
ENDBLK
5
1BD
100
AcDbEntity
8
0
100
AcDbBlockEnd
0
BLOCK
5
1CE
100
AcDbEntity
8
0
100
AcDbBlockBegin
2
_U5
70
0
10
0
20
0
30
0
3
_U5
0
MTEXT
5
1C8
100
AcDbEntity
8
SK2
62
256
6
ByLayer
370
18
48
1
60
0
100
AcDbMText
10
96.787301
20
61.532634
30
0
210
0
220
0
230
1
1
\W0.7138;200
40
3.5
41
0
44
1.084337
50
0
71
7
72
5
7
iso_b_vert
0
LINE
5
1C9
100
AcDbEntity
8
SK2
62
256
6
ByLayer
370
13
48
1
60
0
100
AcDbLine
10
0
20
1.5875
30
0
11
0
21
62.5
31
0
39
0
210
0
220
0
230
1
0
LINE
5
1CA
100
AcDbEntity
8
SK2
62
256
6
ByLayer
370
13
48
1
60
0
100
AcDbLine
10
200
20
39.8375
30
0
11
200
21
62.5
31
0
39
0
210
0
220
0
230
1
0
LINE
5
1CB
100
AcDbEntity
8
SK2
62
256
6
ByLayer
370
13
48
1
60
0
100
AcDbLine
10
0
20
60.5
30
0
11
200
21
60.5
31
0
39
0
210
0
220
0
230
1
0
SOLID
5
1CC
100
AcDbEntity
8
SK2
62
256
6
ByLayer
370
18
48
1
60
0
100
AcDbTrace
10
0
20
60.5
30
0
11
3.499998
21
60.960784
31
0
12
3.500002
22
60.039216
32
0
13
3.500002
23
60.039216
33
0
39
0
210
0
220
0
230
1
0
SOLID
5
1CD
100
AcDbEntity
8
SK2
62
256
6
ByLayer
370
18
48
1
60
0
100
AcDbTrace
10
200
20
60.5
30
0
11
196.500002
21
60.039216
31
0
12
196.499998
22
60.960784
32
0
13
196.499998
23
60.960784
33
0
39
0
210
0
220
0
230
1
0
ENDBLK
5
1CF
100
AcDbEntity
8
0
100
AcDbBlockEnd
0
ENDSEC
0
SECTION
2
ENTITIES
0
ARC
5
E8
100
AcDbEntity
8
1
62
256
6
ByLayer
370
18
48
1
60
0
100
AcDbCircle
39
0
10
135
20
-21.75
30
0
40
1
210
0
220
0
230
1
100
AcDbArc
50
90
51
180
0
ARC
5
E9
100
AcDbEntity
8
1
62
256
6
ByLayer
370
18
48
1
60
0
100
AcDbCircle
39
0
10
171.675
20
3.325
30
0
40
27.9999999999942
210
0
220
0
230
1
100
AcDbArc
50
302.946882
51
303.72334
0
ARC
5
EA
100
AcDbEntity
8
1
62
256
6
ByLayer
370
18
48
1
60
0
100
AcDbCircle
39
0
10
171.675
20
3.325
30
0
40
27.9999999999292
210
0
220
0
230
1
100
AcDbArc
50
320.289239
51
0
0
ELLIPSE
5
EB
100
AcDbEntity
8
1
62
256
6
ByLayer
370
18
48
1
60
0
100
AcDbEllipse
10
194.324942
20
24.739251
30
0
11
0.999978198851217
21
-0.0126669640244213
31
0
210
0
220
0
230
1
40
0.999971
41
-0.0115555872609375
42
0.0126661927277468
0
ELLIPSE
5
EC
100
AcDbEntity
8
1
62
256
6
ByLayer
370
18
48
1
60
0
100
AcDbEllipse
10
187.664801
20
12.655276
30
0
11
3.22756629572537
21
-4.20390482845382
31
0
210
0
220
0
230
1
40
0.929273
41
0.175615559736183
42
0.33583687436601
0
ELLIPSE
5
ED
100
AcDbEntity
8
1
62
256
6
ByLayer
370
18
48
1
60
0
100
AcDbEllipse
10
187.664801
20
12.655276
30
0
11
3.22756629572537
21
-4.20390482845382
31
0
210
0
220
0
230
1
40
0.929273
41
2.80571763005974
42
2.96593891372244
0
ELLIPSE
5
EE
100
AcDbEntity
8
1
62
256
6
ByLayer
370
18
48
1
60
0
100
AcDbEllipse
10
196.031823
20
8.25
30
0
11
61.4231680969834
21
-1.89464698164028
31
0
210
0
220
0
230
1
40
0.471126
41
-1.83845615443641
42
-1.7054217925867
0
ELLIPSE
5
EF
100
AcDbEntity
8
1
62
256
6
ByLayer
370
18
48
1
60
0
100
AcDbEllipse
10
198.374267
20
8.25
30
0
11
61.4231680741452
21
-1.89464698684278
31
0
210
0
220
0
230
1
40
0.471126
41
-1.87362265785955
42
-1.73885482338909
0
ELLIPSE
5
F0
100
AcDbEntity
8
1
62
256
6
ByLayer
370
18
48
1
60
0
100
AcDbEllipse
10
199.262487
20
0
30
0
11
52.262643890189
21
-1.61208325061899
31
0
210
0
220
0
230
1
40
0.471126
41
1.91245491822469
42
2.39726962781595
0
ELLIPSE
5
F1
100
AcDbEntity
8
1
62
256
6
ByLayer
370
18
48
1
60
0
100
AcDbEllipse
10
196.920044
20
0
30
0
11
52.262643890024
21
-1.6120832505416
31
0
210
0
220
0
230
1
40
0.471126
41
1.91245491822234
42
2.35506951987333
0
ELLIPSE
5
F2
100
AcDbEntity
8
1
62
256
6
ByLayer
370
18
48
1
60
0
100
AcDbEllipse
10
146.20111
20
-0.000353
30
0
11
7.4815912439503
21
23.5128193844372
31
0
210
0
220
0
230
1
40
0.999976
41
-1.57257897340425
42
-1.56532926383807
0
ELLIPSE
5
F3
100
AcDbEntity
8
1
62
256
6
ByLayer
370
18
48
1
60
0
100
AcDbEllipse
10
189.030382
20
13.703707
30
0
11
3.22756629572537
21
-4.20390482845382
31
0
210
0
220
0
230
1
40
0.929273
41
2.00274622534159
42
-3.60670833879139E-16
0
ELLIPSE
5
F4
100
AcDbEntity
8
1
62
256
6
ByLayer
370
18
48
1
60
0
100
AcDbEllipse
10
189.030382
20
13.703707
30
0
11
3.22756629572537
21
-4.20390482845382
31
0
210
0
220
0
230
1
40
0.929273
41
0
42
0.951098022999473
0
ELLIPSE
5
F5
100
AcDbEntity
8
1
62
256
6
ByLayer
370
18
48
1
60
0
100
AcDbEllipse
10
189.030382
20
13.703707
30
0
11
3.22756629572537
21
-4.20390482845382
31
0
210
0
220
0
230
1
40
0.929273
41
0.951098087925973
42
1.13900465251504
0
ELLIPSE
5
F6
100
AcDbEntity
8
1
62
256
6
ByLayer
370
18
48
1
60
0
100
AcDbEllipse
10
194.825
20
23.693018
30
0
11
0.286057379418234
21
2.44165013380997
31
0
210
0
220
0
230
1
40
0.392445
41
1.94747179753028
42
-2.8514829153089
0
ELLIPSE
5
F7
100
AcDbEntity
8
1
62
256
6
ByLayer
370
18
48
1
60
0
100
AcDbEllipse
10
238.812049
20
0
30
0
11
79.844876131993
21
-6.31374753614758
31
0
210
0
220
0
230
1
40
0.296157
41
2.19249947476264
42
2.34501124573557
0
ELLIPSE
5
F8
100
AcDbEntity
8
1
62
256
6
ByLayer
370
18
48
1
60
0
100
AcDbEllipse
10
238.812049
20
0
30
0
11
80.4973368282656
21
-6.36534098273619
31
0
210
0
220
0
230
1
40
0.296157
41
2.3476431587365
42
3.09266562429888
0
ELLIPSE
5
F9
100
AcDbEntity
8
1
62
256
6
ByLayer
370
18
48
1
60
0
100
AcDbEllipse
10
238.812049
20
0
30
0
11
80.4973368434777
21
-6.36534098113525
31
0
210
0
220
0
230
1
40
0.296157
41
-2.57807994190011
42
-2.46586792146908
0
ELLIPSE
5
FA
100
AcDbEntity
8
1
62
256
6
ByLayer
370
18
48
1
60
0
100
AcDbEllipse
10
232.478075
20
8.25
30
0
11
94.6067991095174
21
-7.48104917923912
31
0
210
0
220
0
230
1
40
0.296157
41
-2.20247605371645
42
-1.97521628511353
0
ELLIPSE
5
FB
100
AcDbEntity
8
1
62
256
6
ByLayer
370
18
48
1
60
0
100
AcDbEllipse
10
199.7
20
37.950358
30
0
11
0.3
21
0
31
0
210
0
220
0
230
1
40
0.998806
41
-0.0436332312670924
42
1.5707963267949
0
ELLIPSE
5
FC
100
AcDbEntity
8
1
62
256
6
ByLayer
370
18
48
1
60
0
100
AcDbEllipse
10
195.3
20
37.950358
30
0
11
-0.3
21
1.10255229425482E-15
31
0
210
0
220
0
230
1
40
0.998806
41
-1.5707963267949
42
0.0436332312670924
0
ELLIPSE
5
FD
100
AcDbEntity
8
1
62
256
6
ByLayer
370
18
48
1
60
0
100
AcDbEllipse
10
199.7
20
13.579488
30
0
11
-0.3
21
1.10255229425482E-15
31
0
210
0
220
0
230
1
40
0.998806
41
1.5707963267949
42
-3.09795942232271
0
ELLIPSE
5
FE
100
AcDbEntity
8
1
62
256
6
ByLayer
370
18
48
1
60
0
100
AcDbEllipse
10
196.832701
20
30.867769
30
0
11
0.10000000000274
21
1.17145536461463E-16
31
0
210
0
220
0
230
1
40
0.949956
41
-1.39626339251283
42
-0.906712846823224
0
ELLIPSE
5
FF
100
AcDbEntity
8
1
62
256
6
ByLayer
370
18
48
1
60
0
100
AcDbEllipse
10
198.167299
20
30.867769
30
0
11
0.0999999999989308
21
1.17145536457E-16
31
0
210
0
220
0
230
1
40
0.949956
41
-2.23487980679099
42
-1.74532926107964
0
ELLIPSE
5
100
100
AcDbEntity
8
1
62
256
6
ByLayer
370
18
48
1
60
0
100
AcDbEllipse
10
199.358749
20
30.668198
30
0
11
0.100000001022306
21
1.60086248730122E-09
31
0
210
0
220
0
230
1
40
0.949956
41
-1.74532926700794
42
-1.57079634364869
0
ELLIPSE
5
101
100
AcDbEntity
8
1
62
256
6
ByLayer
370
18
48
1
60
0
100
AcDbEllipse
10
195.641251
20
30.668198
30
0
11
0.100000001022306
21
-1.60086250567012E-09
31
0
210
0
220
0
230
1
40
0.949956
41
-1.57079630994111
42
-1.39626338658185
0
ELLIPSE
5
102
100
AcDbEntity
8
1
62
256
6
ByLayer
370
18
48
1
60
0
100
AcDbEllipse
10
190.209979
20
14.332039
30
0
11
-0.305254332359067
21
0.39759374219835
31
0
210
0
220
0
230
1
40
0.929273
41
-3.09711953617965
42
-0.496230497949156
0
ELLIPSE
5
103
100
AcDbEntity
8
1
62
256
6
ByLayer
370
18
48
1
60
0
100
AcDbEllipse
10
189.71222
20
15.874324
30
0
11
-0.694113354472527
21
0.904082585763127
31
0
210
0
220
0
230
1
40
0.929273
41
1.16450540664473
42
2.83208580722682
0
ELLIPSE
5
104
100
AcDbEntity
8
1
62
256
6
ByLayer
370
18
48
1
60
0
100
AcDbEllipse
10
191.399514
20
13.215224
30
0
11
-0.694113354472527
21
0.904082585763127
31
0
210
0
220
0
230
1
40
0.929273
41
0.231196768832633
42
1.67099934271431
0
ELLIPSE
5
105
100
AcDbEntity
8
1
62
256
6
ByLayer
370
18
48
1
60
0
100
AcDbEllipse
10
188.239067
20
15.448854
30
0
11
-0.305254332359067
21
0.39759374219835
31
0
210
0
220
0
230
1
40
0.929273
41
-1.79036359512742
42
-1.28148426868959
0
ELLIPSE
5
106
100
AcDbEntity
8
1
62
256
6
ByLayer
370
18
48
1
60
0
100
AcDbEllipse
10
190.365045
20
12.098409
30
0
11
-0.305254332359067
21
0.39759374219835
31
0
210
0
220
0
230
1
40
0.929273
41
-1.54586801659888
42
-1.28386965945303
0
ELLIPSE
5
107
100
AcDbEntity
8
1
62
256
6
ByLayer
370
18
48
1
60
0
100
AcDbEllipse
10
186.706839
20
15.874324
30
0
11
-0.694113354472527
21
0.904082585763127
31
0
210
0
220
0
230
1
40
0.929273
41
2.77268258646892
42
3.14158690252803
0
ELLIPSE
5
108
100
AcDbEntity
8
1
62
256
6
ByLayer
370
18
48
1
60
0
100
AcDbEllipse
10
190.081427
20
10.556125
30
0
11
-0.694113354472527
21
0.904082585763127
31
0
210
0
220
0
230
1
40
0.929273
41
-1.51922243146046E-05
42
0.146664991408462
0
ELLIPSE
5
109
100
AcDbEntity
8
1
62
256
6
ByLayer
370
18
48
1
60
0
100
AcDbEllipse
10
190.702028
20
16.634253
30
0
11
0.694113354472522
21
-0.904082585763131
31
0
210
0
220
0
230
1
40
0.929273
41
-1.97708724694509
42
-0.309506846363148
0
ELLIPSE
5
10A
100
AcDbEntity
8
1
62
256
6
ByLayer
370
18
48
1
60
0
100
AcDbEllipse
10
191.199787
20
15.091969
30
0
11
0.305254332359065
21
-0.397593742198352
31
0
210
0
220
0
230
1
40
0.929273
41
0.0444731174101411
42
2.64536215564076
0
ELLIPSE
5
10B
100
AcDbEntity
8
1
62
256
6
ByLayer
370
18
48
1
60
0
100
AcDbEllipse
10
192.389322
20
13.975154
30
0
11
0.694113354472522
21
-0.904082585763131
31
0
210
0
220
0
230
1
40
0.929273
41
-2.91039588475705
42
-1.47059331087553
0
ELLIPSE
5
10C
100
AcDbEntity
8
1
62
256
6
ByLayer
370
18
48
1
60
0
100
AcDbEllipse
10
191.354853
20
12.858339
30
0
11
0.305254332359065
21
-0.397593742198352
31
0
210
0
220
0
230
1
40
0.929273
41
-1.00272443378648
42
1.85772299413677
0
ELLIPSE
5
10D
100
AcDbEntity
8
1
62
256
6
ByLayer
370
18
48
1
60
0
100
AcDbEllipse
10
191.071236
20
11.316054
30
0
11
0.694113354472522
21
-0.904082585763131
31
0
210
0
220
0
230
1
40
0.929273
41
2.32559187122593
42
-2.5177908620722
0
ELLIPSE
5
10E
100
AcDbEntity
8
1
62
256
6
ByLayer
370
18
48
1
60
0
100
AcDbEllipse
10
189.539008
20
11.741524
30
0
11
0.305254332359065
21
-0.397593742198352
31
0
210
0
220
0
230
1
40
0.929273
41
-2.04992198498293
42
0.810525442940369
0
ELLIPSE
5
10F
100
AcDbEntity
8
1
62
256
6
ByLayer
370
18
48
1
60
0
100
AcDbEllipse
10
188.065855
20
11.316054
30
0
11
0.694113354472522
21
-0.904082585763131
31
0
210
0
220
0
230
1
40
0.929273
41
1.27839432002916
42
2.83208580722671
0
ELLIPSE
5
110
100
AcDbEntity
8
1
62
256
6
ByLayer
370
18
48
1
60
0
100
AcDbEllipse
10
187.568096
20
12.858339
30
0
11
0.305254332359065
21
-0.397593742198352
31
0
210
0
220
0
230
1
40
0.929273
41
-2.83756114660017
42
-0.496230497949143
0
ELLIPSE
5
111
100
AcDbEntity
8
1
62
256
6
ByLayer
370
18
48
1
60
0
100
AcDbEllipse
10
186.37856
20
13.975154
30
0
11
0.694113354472522
21
-0.904082585763131
31
0
210
0
220
0
230
1
40
0.929273
41
0.117307855567411
42
1.78488825603007
0
ELLIPSE
5
112
100
AcDbEntity
8
1
62
256
6
ByLayer
370
18
48
1
60
0
100
AcDbEllipse
10
187.41303
20
15.091969
30
0
11
0.305254332359065
21
-0.397593742198352
31
0
210
0
220
0
230
1
40
0.929273
41
2.39842660938323
42
-1.5434280491457
0
ELLIPSE
5
113
100
AcDbEntity
8
1
62
256
6
ByLayer
370
18
48
1
60
0
100
AcDbEllipse
10
187.696647
20
16.634253
30
0
11
0.694113354472522
21
-0.904082585763131
31
0
210
0
220
0
230
1
40
0.929273
41
-0.929889695629378
42
0.623801791517728
0
ELLIPSE
5
114
100
AcDbEntity
8
1
62
256
6
ByLayer
370
18
48
1
60
0
100
AcDbEllipse
10
189.228875
20
16.208784
30
0
11
0.305254332359065
21
-0.397593742198352
31
0
210
0
220
0
230
1
40
0.929273
41
1.35122905846237
42
-2.33106721064973
0
ELLIPSE
5
115
100
AcDbEntity
8
1
62
256
6
ByLayer
370
18
48
1
60
0
100
AcDbEllipse
10
189.383941
20
13.975154
30
0
11
-1.84708035503894
21
2.4058220069327
31
0
210
0
220
0
230
1
40
0.929273
41
-3.14151359535467
42
-1.9158603006755E-05
0
ELLIPSE
5
116
100
AcDbEntity
8
1
62
256
6
ByLayer
370
18
48
1
60
0
100
AcDbEllipse
10
189.421152
20
14.003723
30
0
11
1.84708035503893
21
-2.4058220069327
31
0
210
0
220
0
230
1
40
0.929273
41
0
42
6.28318530717959
0
ELLIPSE
5
117
100
AcDbEntity
8
1
62
256
6
ByLayer
370
18
48
1
60
0
100
AcDbEllipse
10
189.421152
20
14.003723
30
0
11
-2.73782878345703
21
3.56602175995523
31
0
210
0
220
0
230
1
40
0.929273
41
0
42
6.28318530717959
0
ELLIPSE
5
118
100
AcDbEntity
8
1
62
256
6
ByLayer
370
18
48
1
60
0
100
AcDbEllipse
10
189.272309
20
13.889448
30
0
11
3.04718796802843
21
-3.96896207181459
31
0
210
0
220
0
230
1
40
0.929273
41
0
42
6.28318530717959
0
POINT
5
70
100
AcDbEntity
8
81
62
256
6
ByLayer
370
18
48
1
60
0
100
AcDbPoint
10
200
20
38.25
30
0
39
0
210
0
220
0
230
1
50
360
0
POINT
5
72
100
AcDbEntity
8
80
62
256
6
ByLayer
370
18
48
1
60
0
100
AcDbPoint
10
0
20
0
30
0
39
0
210
0
220
0
230
1
50
360
0
POINT
5
74
100
AcDbEntity
8
1
62
256
6
ByLayer
370
18
48
1
60
1
100
AcDbPoint
10
200
20
38.25
30
0
39
0
210
0
220
0
230
1
50
360
0
POINT
5
76
100
AcDbEntity
8
1
62
256
6
ByLayer
370
18
48
1
60
1
100
AcDbPoint
10
-150
20
0
30
0
39
0
210
0
220
0
230
1
50
360
0
POINT
5
77
100
AcDbEntity
8
1
62
256
6
ByLayer
370
18
48
1
60
1
100
AcDbPoint
10
195.325
20
25.25
30
0
39
0
210
0
220
0
230
1
50
360
0
POINT
5
78
100
AcDbEntity
8
1
62
256
6
ByLayer
370
18
48
1
60
1
100
AcDbPoint
10
200
20
38.25
30
0
39
0
210
0
220
0
230
1
50
360
0
POINT
5
79
100
AcDbEntity
8
1
62
256
6
ByLayer
370
18
48
1
60
1
100
AcDbPoint
10
-150
20
25
30
0
39
0
210
0
220
0
230
1
50
360
0
POINT
5
7A
100
AcDbEntity
8
1
62
256
6
ByLayer
370
18
48
1
60
1
100
AcDbPoint
10
-150
20
-25
30
0
39
0
210
0
220
0
230
1
50
360
0
POINT
5
7B
100
AcDbEntity
8
1
62
256
6
ByLayer
370
18
48
1
60
1
100
AcDbPoint
10
195
20
38.25
30
0
39
0
210
0
220
0
230
1
50
360
0
POINT
5
7C
100
AcDbEntity
8
1
62
256
6
ByLayer
370
18
48
1
60
1
100
AcDbPoint
10
200
20
38.25
30
0
39
0
210
0
220
0
230
1
50
360
0
POINT
5
7D
100
AcDbEntity
8
1
62
256
6
ByLayer
370
18
48
1
60
1
100
AcDbPoint
10
-150
20
0
30
0
39
0
210
0
220
0
230
1
50
360
0
POINT
5
7E
100
AcDbEntity
8
1
62
256
6
ByLayer
370
18
48
1
60
1
100
AcDbPoint
10
200
20
38.25
30
0
39
0
210
0
220
0
230
1
50
360
0
POINT
5
7F
100
AcDbEntity
8
1
62
256
6
ByLayer
370
18
48
1
60
1
100
AcDbPoint
10
200
20
38.25
30
0
39
0
210
0
220
0
230
1
50
360
0
SPLINE
5
119
100
AcDbEntity
8
1
62
256
6
ByLayer
370
18
48
1
60
0
100
AcDbSpline
70
4
71
3
72
34
73
30
40
0
40
0
40
0
40
0
40
0.125000000000227
40
0.125000000000227
40
0.187500000000341
40
0.187500000000341
40
0.250000000000455
40
0.250000000000455
40
0.375000000000781
40
0.375000000000781
40
0.406250000000794
40
0.406250000000794
40
0.437500000000807
40
0.437500000000807
40
0.500000000000749
40
0.500000000000749
40
0.625000000000629
40
0.625000000000629
40
0.656250000000599
40
0.656250000000599
40
0.687500000000569
40
0.750000000000457
40
0.812500000000346
40
0.812500000000346
40
0.84375000000029
40
0.84375000000029
40
0.875000000000234
40
0.875000000000234
40
1
40
1
40
1
40
1
41
1
10
194.325
20
23.7392499999993
30
0
41
1
10
194.390251121011
20
23.7392499999993
30
0
41
1
10
194.454416440856
20
23.7455752268308
30
0
41
1
10
194.549103861985
20
23.7641541064883
30
0
41
1
10
194.580404349716
20
23.7718732695512
30
0
41
1
10
194.642470249721
20
23.7904287518135
30
0
41
1
10
194.673333781744
20
23.8013215616454
30
0
41
1
10
194.763157565541
20
23.8380271287477
30
0
41
1
10
194.819987476727
20
23.8679678743154
30
0
41
1
10
194.887263341329
20
23.9121351309891
30
0
41
1
10
194.900528786271
20
23.921308609212
30
0
41
1
10
194.926674873113
20
23.9403452186556
30
0
41
1
10
194.93958126538
20
23.9502292914264
30
0
41
1
10
194.977531242823
20
23.9807922105411
30
0
41
1
10
195.001633630718
20
24.0022302634685
30
0
41
1
10
195.070470395352
20
24.0696243294392
30
0
41
1
10
195.111765763293
20
24.1186323907946
30
0
41
1
10
195.157552698133
20
24.1850691484007
30
0
41
1
10
195.16643641086
20
24.1986512225508
30
0
41
1
10
195.183500348817
20
24.2261813664026
30
0
41
1
10
195.207989744008
20
24.2679326782217
30
0
41
1
10
195.243399166789
20
24.3397467184714
30
0
41
1
10
195.266072177595
20
24.3995290199511
30
0
41
1
10
195.280938888682
20
24.4452472142328
30
0
41
1
10
195.285537510814
20
24.4606337738124
30
0
41
1
10
195.294010350687
20
24.491705556642
30
0
41
1
10
195.297890550326
20
24.5074185208551
30
0
41
1
10
195.315369682508
20
24.5864180198704
30
0
41
1
10
195.323139769882
20
24.6503555344981
30
0
41
1
10
195.324706649892
20
24.7150298810625
30
0
0
SPLINE
5
11A
100
AcDbEntity
8
1
62
256
6
ByLayer
370
18
48
1
60
0
100
AcDbSpline
70
4
71
3
72
8
73
4
40
0
40
0
40
0
40
0
40
1
40
1
40
1
40
1
41
1
10
197.084077237614
20
30.4379812080259
30
0
41
1
10
197.055831092847
20
30.3751652114137
30
0
41
1
10
197.027728063495
20
30.3123133009216
30
0
41
1
10
197
20
30.2493672951936
30
0
0
SPLINE
5
11B
100
AcDbEntity
8
1
62
256
6
ByLayer
370
18
48
1
60
0
100
AcDbSpline
70
4
71
3
72
12
73
8
40
0
40
0
40
0
40
0
40
0.5
40
0.5
40
0.75
40
0.75
40
1
40
1
40
1
40
1
41
1
10
197
20
30.2493672951937
30
0
41
1
10
196.720440129073
20
30.2086378862641
30
0
41
1
10
196.440966103383
20
30.1675429747947
30
0
41
1
10
196.022084075971
20
30.1045583083629
30
0
41
1
10
195.882512424059
20
30.0833347897413
30
0
41
1
10
195.603565042811
20
30.0400834197203
30
0
41
1
10
195.464181395227
20
30.0180731823182
30
0
41
1
10
195.325
20
29.9952634344984
30
0
0
SPLINE
5
11C
100
AcDbEntity
8
1
62
256
6
ByLayer
370
18
48
1
60
0
100
AcDbSpline
70
4
71
3
72
26
73
22
40
0
40
0
40
0
40
0
40
0.125000000000006
40
0.125000000000006
40
0.250000000000012
40
0.250000000000012
40
0.312500000000012
40
0.312500000000012
40
0.375000000000013
40
0.375000000000013
40
0.500000000000013
40
0.500000000000013
40
0.625000000000014
40
0.625000000000014
40
0.750000000000014
40
0.750000000000014
40
0.812500000000014
40
0.812500000000014
40
0.875000000000015
40
0.875000000000015
40
1
40
1
40
1
40
1
41
1
10
194.825
20
23.6130278199328
30
0
41
1
10
194.87066509824
20
23.6486034450088
30
0
41
1
10
194.911567225047
20
23.6867440152856
30
0
41
1
10
194.986357993905
20
23.766802042667
30
0
41
1
10
195.020212386968
20
23.8087379434631
30
0
41
1
10
195.066626060982
20
23.8739939952247
30
0
41
1
10
195.081362682313
20
23.8961416095003
30
0
41
1
10
195.109462227108
20
23.9411765988918
30
0
41
1
10
195.122831761201
20
23.9640858413716
30
0
41
1
10
195.16059617138
20
24.0331120572666
30
0
41
1
10
195.182824170193
20
24.0797711613438
30
0
41
1
10
195.222178204828
20
24.1741996989815
30
0
41
1
10
195.239298097935
20
24.2219704693683
30
0
41
1
10
195.268839643243
20
24.3185344784366
30
0
41
1
10
195.281258743537
20
24.3673282724843
30
0
41
1
10
195.296481761872
20
24.4412601241137
30
0
41
1
10
195.300986765206
20
24.4660279780782
30
0
41
1
10
195.308858799513
20
24.5158113405404
30
0
41
1
10
195.312217142491
20
24.5407855296039
30
0
41
1
10
195.320531787637
20
24.6155411292905
30
0
41
1
10
195.323760054755
20
24.6653161055734
30
0
41
1
10
195.324706649892
20
24.7150298810622
30
0
0
SPLINE
5
11D
100
AcDbEntity
8
1
62
256
6
ByLayer
370
18
48
1
60
0
100
AcDbSpline
70
4
71
3
72
12
73
8
40
0
40
0
40
0
40
0
40
0.249999999999976
40
0.249999999999976
40
0.499999999999952
40
0.499999999999952
40
1
40
1
40
1
40
1
41
1
10
199.675
20
29.9952634344982
30
0
41
1
10
199.535826080456
20
30.0180719571656
30
0
41
1
10
199.396451626926
20
30.0400807945109
30
0
41
1
10
199.117510339987
20
30.0833313006541
30
0
41
1
10
198.977938955225
20
30.1045548196557
30
0
41
1
10
198.559052971298
20
30.1675401579489
30
0
41
1
10
198.279568848663
20
30.2086365782868
30
0
41
1
10
198
20
30.2493672951933
30
0
0
SPLINE
5
11E
100
AcDbEntity
8
1
62
256
6
ByLayer
370
18
48
1
60
0
100
AcDbSpline
70
4
71
3
72
8
73
4
40
0
40
0
40
0
40
0
40
1
40
1
40
1
40
1
41
1
10
198
20
30.2493672951933
30
0
41
1
10
197.972268766182
20
30.3123204979323
30
0
41
1
10
197.94416651652
20
30.3751705278928
30
0
41
1
10
197.915922762387
20
30.4379812080259
30
0
0
SPLINE
5
11F
100
AcDbEntity
8
1
62
256
6
ByLayer
370
18
48
1
60
0
100
AcDbSpline
70
4
71
3
72
20
73
16
40
0
40
0
40
0
40
0
40
0.250000000000428
40
0.250000000000428
40
0.375000000000356
40
0.375000000000356
40
0.500000000000285
40
0.500000000000285
40
0.625000000000214
40
0.625000000000214
40
0.750000000000143
40
0.750000000000143
40
0.875000000000071
40
0.875000000000071
40
1
40
1
40
1
40
1
41
1
10
197.915922762387
20
30.4379812080259
30
0
41
1
10
197.910727358799
20
30.4495351548348
30
0
41
1
10
197.903519979222
20
30.4602110529895
30
0
41
1
10
197.889667773904
20
30.4748977147362
30
0
41
1
10
197.884560759852
20
30.4795274840771
30
0
41
1
10
197.873644285076
20
30.48802588608
30
0
41
1
10
197.867800533438
20
30.4919325208024
30
0
41
1
10
197.855326001573
20
30.4990464400774
30
0
41
1
10
197.848652421547
20
30.5022628115022
30
0
41
1
10
197.834952954244
20
30.5077595470835
30
0
41
1
10
197.827880930828
20
30.5100724219849
30
0
41
1
10
197.813291648484
20
30.5138259008626
30
0
41
1
10
197.805716595268
20
30.5152716396177
30
0
41
1
10
197.79043856166
20
30.5171910217325
30
0
41
1
10
197.78273594956
20
30.5176741379285
30
0
41
1
10
197.774968869271
20
30.5176741379286
30
0
0
SPLINE
5
120
100
AcDbEntity
8
1
62
256
6
ByLayer
370
18
48
1
60
0
100
AcDbSpline
70
4
71
3
72
20
73
16
40
0
40
0
40
0
40
0
40
0.25
40
0.25
40
0.375
40
0.375
40
0.5
40
0.5
40
0.625
40
0.625
40
0.75
40
0.75
40
0.875
40
0.875
40
1
40
1
40
1
40
1
41
1
10
197.225031130732
20
30.5176741379152
30
0
41
1
10
197.209502902912
20
30.5176741379152
30
0
41
1
10
197.194381621555
20
30.515777243216
30
0
41
1
10
197.172300739417
20
30.5101302810492
30
0
41
1
10
197.165135525083
20
30.5077896613927
30
0
41
1
10
197.151467861758
20
30.5023163788497
30
0
41
1
10
197.144918912868
20
30.4991721709088
30
0
41
1
10
197.132397550588
20
30.4920589362738
30
0
41
1
10
197.126440396262
20
30.4880858874
30
0
41
1
10
197.115503439472
20
30.4795833052457
30
0
41
1
10
197.110467336235
20
30.4750242666331
30
0
41
1
10
197.101257438412
20
30.465292432219
30
0
41
1
10
197.097070111581
20
30.4600890546202
30
0
41
1
10
197.089794398666
20
30.4493345902731
30
0
41
1
10
197.08667492706
20
30.4437581539702
30
0
41
1
10
197.084077237614
20
30.4379812080258
30
0
0
SPLINE
5
121
100
AcDbEntity
8
1
62
256
6
ByLayer
370
18
48
1
60
0
100
AcDbSpline
70
4
71
3
72
12
73
8
40
0
40
0
40
0
40
0
40
0.499999999999909
40
0.499999999999909
40
0.749999999999954
40
0.749999999999954
40
1
40
1
40
1
40
1
41
1
10
194.825
20
23.6130278199328
30
0
41
1
10
194.744640116266
20
23.550423047249
30
0
41
1
10
194.659959336167
20
23.4996536870142
30
0
41
1
10
194.53255569693
20
23.4383270487033
30
0
41
1
10
194.490020368247
20
23.42034106151
30
0
41
1
10
194.40586781677
20
23.3885553356527
30
0
41
1
10
194.364696261488
20
23.3749212239038
30
0
41
1
10
194.325
20
23.3629727110298
30
0
0
SPLINE
5
122
100
AcDbEntity
8
1
62
256
6
ByLayer
370
18
48
1
60
0
100
AcDbSpline
70
4
71
3
72
24
73
20
40
0
40
0
40
0
40
0
40
0.249999999999997
40
0.249999999999997
40
0.374999999999989
40
0.374999999999989
40
0.49999999999998
40
0.49999999999998
40
0.562499999999989
40
0.562499999999989
40
0.624999999999998
40
0.624999999999998
40
0.75000000000002
40
0.75000000000002
40
0.875000000000042
40
0.875000000000042
40
0.937500000000021
40
0.937500000000021
40
1
40
1
40
1
40
1
41
1
10
193.828744473834
20
22.8992948570071
30
0
41
1
10
193.834549065399
20
22.9444479526721
30
0
41
1
10
193.847087182422
20
22.9882892987363
30
0
41
1
10
193.877466026117
20
23.0520788794331
30
0
41
1
10
193.889534524347
20
23.0730126914793
30
0
41
1
10
193.918036589184
20
23.1142103803182
30
0
41
1
10
193.934465801324
20
23.1344744333262
30
0
41
1
10
193.962937192085
20
23.1643515432871
30
0
41
1
10
193.973083469257
20
23.1742377976259
30
0
41
1
10
193.994720421414
20
23.1937711115814
30
0
41
1
10
194.006167474098
20
23.2033806100808
30
0
41
1
10
194.042530562108
20
23.2317259611437
30
0
41
1
10
194.069450540267
20
23.2499811790495
30
0
41
1
10
194.129712235962
20
23.285098468178
30
0
41
1
10
194.163034009749
20
23.3019633421828
30
0
41
1
10
194.219213640889
20
23.3260522158407
30
0
41
1
10
194.238977651287
20
23.333872201643
30
0
41
1
10
194.280409438763
20
23.3488784874781
30
0
41
1
10
194.30212725712
20
23.3560880510512
30
0
41
1
10
194.325
20
23.3629727110299
30
0
0
SPLINE
5
123
100
AcDbEntity
8
1
62
256
6
ByLayer
370
18
48
1
60
0
100
AcDbSpline
70
4
71
3
72
30
73
26
40
0
40
0
40
0
40
0
40
0.0625000000000151
40
0.0625000000000151
40
0.093750000000023
40
0.093750000000023
40
0.125000000000031
40
0.125000000000031
40
0.187500000000048
40
0.187500000000048
40
0.250000000000065
40
0.250000000000065
40
0.312500000000081
40
0.312500000000081
40
0.375000000000098
40
0.375000000000098
40
0.437500000000115
40
0.437500000000115
40
0.500000000000132
40
0.500000000000132
40
0.625000000000082
40
0.625000000000082
40
0.750000000000031
40
0.750000000000031
40
1
40
1
40
1
40
1
41
1
10
184.325
20
23.7392499999993
30
0
41
1
10
184.303101817196
20
23.7392499999993
30
0
41
1
10
184.281810376927
20
23.7392499999993
30
0
41
1
10
184.250651542799
20
23.7392499999993
30
0
41
1
10
184.240395392287
20
23.7392499999993
30
0
41
1
10
184.220125541955
20
23.7392499999993
30
0
41
1
10
184.210191987778
20
23.7392499999993
30
0
41
1
10
184.181372067983
20
23.7392499999993
30
0
41
1
10
184.163245526001
20
23.7392499999993
30
0
41
1
10
184.128598077952
20
23.7392499999993
30
0
41
1
10
184.112007964352
20
23.7392499999993
30
0
41
1
10
184.080704102687
20
23.7392499999993
30
0
41
1
10
184.065913491049
20
23.7392499999993
30
0
41
1
10
184.037621861985
20
23.7392499999993
30
0
41
1
10
184.024124142326
20
23.7392499999993
30
0
41
1
10
183.998149478317
20
23.7392499999993
30
0
41
1
10
183.985674090774
20
23.7392499999993
30
0
41
1
10
183.961559647531
20
23.7392499999993
30
0
41
1
10
183.949934579157
20
23.7392499999993
30
0
41
1
10
183.916389135676
20
23.7392499999993
30
0
41
1
10
183.895664198207
20
23.7392499999993
30
0
41
1
10
183.856527996169
20
23.7392499999993
30
0
41
1
10
183.838127271802
20
23.7392499999993
30
0
41
1
10
183.785601305018
20
23.7392499999993
30
0
41
1
10
183.754110325899
20
23.7392499999993
30
0
41
1
10
183.725
20
23.7392499999993
30
0
0
SPLINE
5
124
100
AcDbEntity
8
1
62
256
6
ByLayer
370
18
48
1
60
0
100
AcDbSpline
70
4
71
3
72
18
73
14
40
0
40
0
40
0
40
0
40
0.217050163127479
40
0.217050163127479
40
0.478033442084988
40
0.478033442084988
40
0.739016721042497
40
0.739016721042497
40
0.771639630912185
40
0.771639630912185
40
0.804262540781874
40
0.869508360521251
40
1
40
1
40
1
40
1
41
1
10
185.971659223046
20
-20.7500006516126
30
0
41
1
10
185.971633532087
20
-20.7500225082495
30
0
41
1
10
185.987475539365
20
-20.7406261140495
30
0
41
1
10
186.056100721911
20
-20.6996924050455
30
0
41
1
10
186.115701829869
20
-20.6640586602536
30
0
41
1
10
186.276159938465
20
-20.5667335745156
30
0
41
1
10
186.377004699118
20
-20.5050424273286
30
0
41
1
10
186.511526823107
20
-20.4211108859188
30
0
41
1
10
186.526759226324
20
-20.4115874060715
30
0
41
1
10
186.557723268808
20
-20.3921853706723
30
0
41
1
10
186.604943262632
20
-20.3625340645958
30
0
41
1
10
186.720404569729
20
-20.2895492276508
30
0
41
1
10
186.827966516754
20
-20.2206073443102
30
0
41
1
10
186.903115904639
20
-20.171903753365
30
0
0
SPLINE
5
125
100
AcDbEntity
8
1
62
256
6
ByLayer
370
18
48
1
60
0
100
AcDbSpline
70
4
71
3
72
130
73
126
40
0
40
0
40
0
40
0
40
0.0078124999999972
40
0.0078124999999972
40
0.0156249999999943
40
0.0156249999999943
40
0.0312499999999723
40
0.0468749999999503
40
0.0468749999999503
40
0.0546874999999393
40
0.0546874999999393
40
0.0624999999999283
40
0.0624999999999283
40
0.0781249999999063
40
0.0781249999999063
40
0.0859374999998953
40
0.0859374999998953
40
0.0937499999998843
40
0.0937499999998843
40
0.12499999999982
40
0.12499999999982
40
0.140624999999777
40
0.140624999999777
40
0.156249999999734
40
0.156249999999734
40
0.187499999999669
40
0.187499999999669
40
0.195312499999653
40
0.195312499999653
40
0.203124999999637
40
0.203124999999637
40
0.218749999999605
40
0.218749999999605
40
0.249999999999558
40
0.249999999999558
40
0.265624999999543
40
0.265624999999543
40
0.273437499999543
40
0.273437499999543
40
0.281249999999543
40
0.281249999999543
40
0.312499999999558
40
0.312499999999558
40
0.343749999999573
40
0.343749999999573
40
0.35937499999958
40
0.35937499999958
40
0.374999999999587
40
0.374999999999587
40
0.406249999999593
40
0.406249999999593
40
0.437499999999599
40
0.437499999999599
40
0.468749999999605
40
0.468749999999605
40
0.484374999999609
40
0.484374999999609
40
0.49218749999961
40
0.49218749999961
40
0.49999999999961
40
0.49999999999961
40
0.531249999999616
40
0.531249999999616
40
0.539062499999614
40
0.539062499999614
40
0.546874999999613
40
0.546874999999613
40
0.562499999999611
40
0.578124999999608
40
0.578124999999608
40
0.585937499999599
40
0.585937499999599
40
0.59374999999959
40
0.59374999999959
40
0.62499999999957
40
0.62499999999957
40
0.63281249999955
40
0.63281249999955
40
0.640624999999531
40
0.640624999999531
40
0.656249999999492
40
0.656249999999492
40
0.664062499999483
40
0.664062499999483
40
0.671874999999475
40
0.671874999999475
40
0.687499999999457
40
0.687499999999457
40
0.718749999999421
40
0.718749999999421
40
0.726562499999417
40
0.726562499999417
40
0.734374999999413
40
0.734374999999413
40
0.749999999999425
40
0.749999999999425
40
0.781249999999468
40
0.781249999999468
40
0.796874999999489
40
0.796874999999489
40
0.804687499999509
40
0.804687499999509
40
0.812499999999529
40
0.812499999999529
40
0.843749999999592
40
0.843749999999592
40
0.874999999999655
40
0.874999999999655
40
0.88281249999967
40
0.88281249999967
40
0.890624999999685
40
0.890624999999685
40
0.90624999999973
40
0.90624999999973
40
0.937499999999817
40
0.937499999999817
40
0.968749999999905
40
0.968749999999905
40
0.976562499999929
40
0.976562499999929
40
0.984374999999952
40
0.984374999999952
40
0.992187499999976
40
0.992187499999976
40
1
40
1
40
1
40
1
41
1
10
178.926078135274
20
-19.1565426178447
30
0
41
1
10
178.911395830254
20
-19.1613574413402
30
0
41
1
10
178.896181797733
20
-19.1660267222638
30
0
41
1
10
178.864661981347
20
-19.1750705395921
30
0
41
1
10
178.848533703038
20
-19.1793940897564
30
0
41
1
10
178.799104430748
20
-19.1917893540003
30
0
41
1
10
178.730398961809
20
-19.2067915168572
30
0
41
1
10
178.656341622902
20
-19.2189327852641
30
0
41
1
10
178.598821244776
20
-19.2269990132551
30
0
41
1
10
178.579323443832
20
-19.2295115872194
30
0
41
1
10
178.540155007934
20
-19.2341399969651
30
0
41
1
10
178.520425232854
20
-19.2362644994668
30
0
41
1
10
178.460817511796
20
-19.2420957511363
30
0
41
1
10
178.420522277416
20
-19.2452618608477
30
0
41
1
10
178.359294202659
20
-19.249002475471
30
0
41
1
10
178.338753679977
20
-19.2500808263173
30
0
41
1
10
178.29741544246
20
-19.2519081000876
30
0
41
1
10
178.276570869916
20
-19.2526581809773
30
0
41
1
10
178.172322399703
20
-19.2555816524026
30
0
41
1
10
178.089282151933
20
-19.2553068400952
30
0
41
1
10
177.965185204994
20
-19.251514822873
30
0
41
1
10
177.923878710545
20
-19.2496805750328
30
0
41
1
10
177.841492743524
20
-19.2449112788981
30
0
41
1
10
177.800846745273
20
-19.2420021068083
30
0
41
1
10
177.6804256479
20
-19.2318068489151
30
0
41
1
10
177.602157158254
20
-19.2230637777913
30
0
41
1
10
177.506626875399
20
-19.209845983281
30
0
41
1
10
177.487636940983
20
-19.2070870844351
30
0
41
1
10
177.449887260605
20
-19.2013388422138
30
0
41
1
10
177.431113878529
20
-19.1983467936131
30
0
41
1
10
177.375489760446
20
-19.1890847505439
30
0
41
1
10
177.3392177862
20
-19.1825126439279
30
0
41
1
10
177.232713081719
20
-19.1616405291171
30
0
41
1
10
177.164778519922
20
-19.1461914075257
30
0
41
1
10
177.067273460546
20
-19.1207236770628
30
0
41
1
10
177.035508021625
20
-19.1118503518201
30
0
41
1
10
176.988967922632
20
-19.0979498620358
30
0
41
1
10
176.973625315751
20
-19.0932129032895
30
0
41
1
10
176.943493496017
20
-19.0835976221641
30
0
41
1
10
176.928682899902
20
-19.0787132209049
30
0
41
1
10
176.855886632345
20
-19.0539083836425
30
0
41
1
10
176.801649905668
20
-19.0328453531703
30
0
41
1
10
176.701020454435
20
-18.9882096770511
30
0
41
1
10
176.654626101237
20
-18.9646379426314
30
0
41
1
10
176.5912100696
20
-18.9272256298411
30
0
41
1
10
176.571063573062
20
-18.9143756855696
30
0
41
1
10
176.533457626871
20
-18.8883192226388
30
0
41
1
10
176.515929115624
20
-18.8750768837221
30
0
41
1
10
176.46718288282
20
-18.8346919777807
30
0
41
1
10
176.439776469402
20
-18.8068951894278
30
0
41
1
10
176.39584030364
20
-18.7493943559585
30
0
41
1
10
176.379291246975
20
-18.7196931465878
30
0
41
1
10
176.358858304851
20
-18.6580769558636
30
0
41
1
10
176.355265534791
20
-18.6269989638504
30
0
41
1
10
176.360752389248
20
-18.5800400554328
30
0
41
1
10
176.364403799137
20
-18.5643278429128
30
0
41
1
10
176.37285703247
20
-18.5406748247051
30
0
41
1
10
176.376171845728
20
-18.5327763830445
30
0
41
1
10
176.383851187984
20
-18.5169521981497
30
0
41
1
10
176.388219108354
20
-18.5090275829602
30
0
41
1
10
176.412537607582
20
-18.4697823359643
30
0
41
1
10
176.439991070167
20
-18.4392326470941
30
0
41
1
10
176.485646034799
20
-18.4023898275761
30
0
41
1
10
176.495349887547
20
-18.3950893855276
30
0
41
1
10
176.515964303133
20
-18.3806361348112
30
0
41
1
10
176.52686567969
20
-18.3734943951173
30
0
41
1
10
176.560937681102
20
-18.3526189731954
30
0
41
1
10
176.610298298606
20
-18.3260386027066
30
0
41
1
10
176.667595367858
20
-18.302056614222
30
0
41
1
10
176.713663917275
20
-18.28510923942
30
0
41
1
10
176.729537038276
20
-18.2796336295362
30
0
41
1
10
176.762350123614
20
-18.2690446725371
30
0
41
1
10
176.779271224824
20
-18.2639409748321
30
0
41
1
10
176.865171860209
20
-18.2397478207255
30
0
41
1
10
176.939035198889
20
-18.2242540134182
30
0
41
1
10
177.037400336668
20
-18.209536892637
30
0
41
1
10
177.057431495553
20
-18.2068225741021
30
0
41
1
10
177.097619164611
20
-18.201920088442
30
0
41
1
10
177.117819404363
20
-18.1997239072738
30
0
41
1
10
177.178724246787
20
-18.1938668996856
30
0
41
1
10
177.219732172893
20
-18.1909358815596
30
0
41
1
10
177.281807801395
20
-18.1879021473211
30
0
41
1
10
177.302593848155
20
-18.1871184973901
30
0
41
1
10
177.344349342747
20
-18.1859950230468
30
0
41
1
10
177.365371584916
20
-18.185655127919
30
0
41
1
10
177.428292913447
20
-18.1852893821782
30
0
41
1
10
177.469933358301
20
-18.185910350043
30
0
41
1
10
177.594031523327
20
-18.1900889277103
30
0
41
1
10
177.675672819522
20
-18.195944517723
30
0
41
1
10
177.776541715992
20
-18.2065589763688
30
0
41
1
10
177.796655784117
20
-18.2088481264489
30
0
41
1
10
177.836766935672
20
-18.2137508287503
30
0
41
1
10
177.85674932304
20
-18.2163634010707
30
0
41
1
10
177.916041225036
20
-18.2246047784098
30
0
41
1
10
177.954862513084
20
-18.2306557959563
30
0
41
1
10
178.069379335097
20
-18.2503243564502
30
0
41
1
10
178.14314111943
20
-18.2654472552883
30
0
41
1
10
178.250285790404
20
-18.2907728334801
30
0
41
1
10
178.285413982357
20
-18.2996577443487
30
0
41
1
10
178.337244294068
20
-18.3136247671759
30
0
41
1
10
178.354377222635
20
-18.3183871841694
30
0
41
1
10
178.388356314854
20
-18.3281228864086
30
0
41
1
10
178.405196014979
20
-18.3330948682768
30
0
41
1
10
178.488181112762
20
-18.3583206585561
30
0
41
1
10
178.551121290641
20
-18.3797805260915
30
0
41
1
10
178.670469292284
20
-18.4250068413564
30
0
41
1
10
178.726875659381
20
-18.4487743060661
30
0
41
1
10
178.793217777989
20
-18.4798861572473
30
0
41
1
10
178.806276720305
20
-18.486179085604
30
0
41
1
10
178.83196867325
20
-18.4989068144071
30
0
41
1
10
178.844616342925
20
-18.5053497254695
30
0
41
1
10
178.881688066241
20
-18.5247763708161
30
0
41
1
10
178.905304572186
20
-18.5378870115735
30
0
41
1
10
178.97286352968
20
-18.5776805775007
30
0
41
1
10
179.013537061704
20
-18.6048214328668
30
0
41
1
10
179.08567687658
20
-18.6603243251124
30
0
41
1
10
179.117154141513
20
-18.6886848456574
30
0
41
1
10
179.149943753251
20
-18.7249816844181
30
0
41
1
10
179.156171237717
20
-18.7322837792723
30
0
41
1
10
179.167933075302
20
-18.7469774400375
30
0
41
1
10
179.173466749859
20
-18.7543702163395
30
0
41
1
10
179.183744218057
20
-18.7691576368124
30
0
41
1
10
179.188497325451
20
-18.7765633628612
30
0
41
1
10
179.197206992478
20
-18.791399882093
30
0
41
1
10
179.201172634444
20
-18.7988502614274
30
0
41
1
10
179.204702998223
20
-18.8062675802504
30
0
0
SPLINE
5
126
100
AcDbEntity
8
1
62
256
6
ByLayer
370
18
48
1
60
0
100
AcDbSpline
70
4
71
3
72
26
73
22
40
0
40
0
40
0
40
0
40
0.125000000000001
40
0.125000000000001
40
0.250000000000002
40
0.250000000000002
40
0.312500000000002
40
0.312500000000002
40
0.343750000000002
40
0.343750000000002
40
0.375000000000002
40
0.375000000000002
40
0.500000000000001
40
0.500000000000001
40
0.625000000000001
40
0.625000000000001
40
0.750000000000001
40
0.750000000000001
40
0.875
40
0.875
40
1
40
1
40
1
40
1
41
1
10
187.220063377375
20
-19.9634307026776
30
0
41
1
10
187.409817220686
20
-19.8367697198909
30
0
41
1
10
187.614881115584
20
-19.6965283886964
30
0
41
1
10
188.048834702705
20
-19.3899315750454
30
0
41
1
10
188.277733105278
20
-19.2235708144043
30
0
41
1
10
188.634820324552
20
-18.9547372660289
30
0
41
1
10
188.756148430196
20
-18.8619061540946
30
0
41
1
10
188.941145237975
20
-18.717829621385
30
0
41
1
10
189.003312086342
20
-18.6689988882715
30
0
41
1
10
189.128579633998
20
-18.5697241320516
30
0
41
1
10
189.191686296942
20
-18.519274517667
30
0
41
1
10
189.50851487299
20
-18.2636960174382
30
0
41
1
10
189.766777174299
20
-18.0480481965731
30
0
41
1
10
190.289120854908
20
-17.5947059094154
30
0
41
1
10
190.553211871017
20
-17.3570087864793
30
0
41
1
10
191.084225696196
20
-16.8595071469464
30
0
41
1
10
191.35115534581
20
-16.5997014590542
30
0
41
1
10
191.885382100349
20
-16.0576023222571
30
0
41
1
10
192.152684285979
20
-15.7753087547738
30
0
41
1
10
192.685539577531
20
-15.1875518204522
30
0
41
1
10
192.951096699196
20
-14.8820892207706
30
0
41
1
10
193.21482794404
20
-14.5645447717706
30
0
0
SPLINE
5
127
100
AcDbEntity
8
1
62
256
6
ByLayer
370
18
48
1
60
0
100
AcDbSpline
70
4
71
3
72
18
73
14
40
0
40
0
40
0
40
0
40
0.250000000000004
40
0.250000000000004
40
0.500000000000007
40
0.500000000000007
40
0.625000000000005
40
0.625000000000005
40
0.750000000000004
40
0.750000000000004
40
0.875000000000002
40
0.875000000000002
40
1
40
1
40
1
40
1
41
1
10
134
20
-12.5742354204548
30
0
41
1
10
134
20
-12.3736032292693
30
0
41
1
10
134.004530964584
20
-12.171689398038
30
0
41
1
10
134.023566404797
20
-11.7653782260384
30
0
41
1
10
134.038051012707
20
-11.5609796121315
30
0
41
1
10
134.06875571223
20
-11.2526223970221
30
0
41
1
10
134.080496838643
20
-11.1495439913563
30
0
41
1
10
134.107428968149
20
-10.9428299170619
30
0
41
1
10
134.122616382784
20
-10.8391940283413
30
0
41
1
10
134.157085877465
20
-10.6314053464006
30
0
41
1
10
134.176360362789
20
-10.5272520898247
30
0
41
1
10
134.220016106012
20
-10.3184911011982
30
0
41
1
10
134.244378658776
20
-10.2138822327232
30
0
41
1
10
134.272162835862
20
-10.1090992424266
30
0
0
SPLINE
5
128
100
AcDbEntity
8
1
62
256
6
ByLayer
370
18
48
1
60
0
100
AcDbSpline
70
4
71
3
72
20
73
16
40
0
40
0
40
0
40
0
40
0.249999999999721
40
0.249999999999721
40
0.37499999999958
40
0.37499999999958
40
0.437499999999511
40
0.437499999999511
40
0.499999999999442
40
0.499999999999442
40
0.749999999999724
40
0.749999999999724
40
0.874999999999862
40
0.874999999999862
40
1
40
1
40
1
40
1
41
1
10
135
20
-9.94435606060674
30
0
41
1
10
134.931398787895
20
-9.94435606060674
30
0
41
1
10
134.863998224193
20
-9.94801765781875
30
0
41
1
10
134.764624189393
20
-9.95877649543885
30
0
41
1
10
134.731789608372
20
-9.96324751965818
30
0
41
1
10
134.682984255896
20
-9.97131592671886
30
0
41
1
10
134.666747346834
20
-9.97424200915933
30
0
41
1
10
134.634752399767
20
-9.98049369076728
30
0
41
1
10
134.618970501166
20
-9.9838218424261
30
0
41
1
10
134.541117952888
20
-10.0014545516154
30
0
41
1
10
134.482185822101
20
-10.0187046207969
30
0
41
1
10
134.39881130456
20
-10.0492953631271
30
0
41
1
10
134.371767771516
20
-10.0603328275047
30
0
41
1
10
134.3201818838
20
-10.083713889179
30
0
41
1
10
134.295576291754
20
-10.0960715920185
30
0
41
1
10
134.272162835848
20
-10.1090992424322
30
0
0
SPLINE
5
129
100
AcDbEntity
8
1
62
256
6
ByLayer
370
18
48
1
60
0
100
AcDbSpline
70
4
71
3
72
31
73
27
40
0
40
0
40
0
40
0
40
0.249999999999828
40
0.249999999999828
40
0.374999999999742
40
0.374999999999742
40
0.499999999999656
40
0.499999999999656
40
0.624999999999569
40
0.624999999999569
40
0.687499999999526
40
0.687499999999526
40
0.749999999999483
40
0.749999999999483
40
0.81249999999944
40
0.81249999999944
40
0.843749999999471
40
0.843749999999471
40
0.874999999999503
40
0.906249999999534
40
0.906249999999534
40
0.921874999999549
40
0.921874999999549
40
0.937499999999564
40
0.937499999999564
40
1
40
1
40
1
40
1
41
1
10
134.272162835862
20
-8.49780063089887
30
0
41
1
10
134.304653331414
20
-8.39639281465827
30
0
41
1
10
134.340689626995
20
-8.29643277130972
30
0
41
1
10
134.402196572204
20
-8.14953561058286
30
0
41
1
10
134.423954770885
20
-8.10108267567355
30
0
41
1
10
134.470685074928
20
-8.00548906456473
30
0
41
1
10
134.495643243957
20
-7.95834269807116
30
0
41
1
10
134.549990560495
20
-7.86585916201443
30
0
41
1
10
134.579137407968
20
-7.8208979580312
30
0
41
1
10
134.627102207132
20
-7.75646228992824
30
0
41
1
10
134.643862229928
20
-7.73542483323087
30
0
41
1
10
134.678953496503
20
-7.69494242296952
30
0
41
1
10
134.697253889697
20
-7.67551970754033
30
0
41
1
10
134.735778298983
20
-7.63876032486053
30
0
41
1
10
134.755996606665
20
-7.621417467198
30
0
41
1
10
134.788261339392
20
-7.59750402961552
30
0
41
1
10
134.799378543504
20
-7.5898628525776
30
0
41
1
10
134.822219107594
20
-7.57553115380301
30
0
41
1
10
134.845537275767
20
-7.56222463684259
30
0
41
1
10
134.869930404135
20
-7.55122553240696
30
0
41
1
10
134.888685204004
20
-7.54396349894392
30
0
41
1
10
134.895013598934
20
-7.54170766228233
30
0
41
1
10
134.907835393621
20
-7.53755017342664
30
0
41
1
10
134.914351152667
20
-7.53564346576627
30
0
41
1
10
134.946970742611
20
-7.52716249871247
30
0
41
1
10
134.97334022428
20
-7.52367097898434
30
0
41
1
10
135
20
-7.52367097898434
30
0
0
SPLINE
5
12A
100
AcDbEntity
8
1
62
256
6
ByLayer
370
18
48
1
60
0
100
AcDbSpline
70
4
71
3
72
33
73
29
40
0
40
0
40
0
40
0
40
0.250000000000099
40
0.250000000000099
40
0.375000000000175
40
0.375000000000175
40
0.500000000000251
40
0.500000000000251
40
0.562500000000259
40
0.562500000000259
40
0.625000000000266
40
0.625000000000266
40
0.687500000000273
40
0.687500000000273
40
0.750000000000281
40
0.750000000000281
40
0.812500000000288
40
0.812500000000288
40
0.84375000000024
40
0.84375000000024
40
0.875000000000192
40
0.906250000000144
40
0.906250000000144
40
0.921875000000119
40
0.921875000000119
40
0.937500000000095
40
0.937500000000095
40
1
40
1
40
1
40
1
41
1
10
134.272162835862
20
23.5107499999995
30
0
41
1
10
134.304628553637
20
23.5107499999995
30
0
41
1
10
134.340632889921
20
23.5107499999995
30
0
41
1
10
134.402074293877
20
23.5107499999995
30
0
41
1
10
134.423807673177
20
23.5107499999995
30
0
41
1
10
134.47048007458
20
23.5107499999995
30
0
41
1
10
134.495405226006
20
23.5107499999995
30
0
41
1
10
134.536106732513
20
23.5107499999995
30
0
41
1
10
134.550202700505
20
23.5107499999995
30
0
41
1
10
134.579538095
20
23.5107499999995
30
0
41
1
10
134.594791779665
20
23.5107499999995
30
0
41
1
10
134.626740569529
20
23.5107499999995
30
0
41
1
10
134.643480142775
20
23.5107499999995
30
0
41
1
10
134.678570487854
20
23.5107499999995
30
0
41
1
10
134.696870026205
20
23.5107499999995
30
0
41
1
10
134.735391666217
20
23.5107499999995
30
0
41
1
10
134.755608066731
20
23.5107499999995
30
0
41
1
10
134.787868773759
20
23.5107499999995
30
0
41
1
10
134.798973674845
20
23.5107499999995
30
0
41
1
10
134.821846811591
20
23.5107499999995
30
0
41
1
10
134.845198065039
20
23.5107499999995
30
0
41
1
10
134.869625408562
20
23.5107499999995
30
0
41
1
10
134.888406338838
20
23.5107499999995
30
0
41
1
10
134.894743522141
20
23.5107499999995
30
0
41
1
10
134.907583058315
20
23.5107499999995
30
0
41
1
10
134.914109207643
20
23.5107499999995
30
0
41
1
10
134.946824868987
20
23.5107499999995
30
0
41
1
10
134.973268719228
20
23.5107499999995
30
0
41
1
10
135
20
23.5107499999995
30
0
0
SPLINE
5
12B
100
AcDbEntity
8
1
62
256
6
ByLayer
370
18
48
1
60
0
100
AcDbSpline
70
4
71
3
72
32
73
28
40
0
40
0
40
0
40
0
40
0.0312500000000745
40
0.0312500000000745
40
0.0625000000001489
40
0.0625000000001489
40
0.125000000000297
40
0.125000000000297
40
0.156250000000314
40
0.156250000000314
40
0.187500000000331
40
0.187500000000331
40
0.250000000000365
40
0.250000000000365
40
0.281250000000334
40
0.281250000000334
40
0.312500000000303
40
0.312500000000303
40
0.37500000000024
40
0.37500000000024
40
0.500000000000192
40
0.500000000000192
40
0.625000000000144
40
0.625000000000144
40
0.750000000000096
40
0.750000000000096
40
1
40
1
40
1
40
1
41
1
10
135
20
7.52367097898315
30
0
41
1
10
134.986612627672
20
7.52367097898315
30
0
41
1
10
134.97327938614
20
7.52455237960282
30
0
41
1
10
134.946718741913
20
7.52803853283839
30
0
41
1
10
134.933431223996
20
7.53065976045244
30
0
41
1
10
134.894134832952
20
7.54094700886537
30
0
41
1
10
134.86918933031
20
7.55084271453526
30
0
41
1
10
134.8332322184
20
7.56923096440124
30
0
41
1
10
134.821445794301
20
7.57598828486945
30
0
41
1
10
134.798649298544
20
7.59035044210617
30
0
41
1
10
134.78761188117
20
7.59796292368128
30
0
41
1
10
134.755415366421
20
7.62189520879818
30
0
41
1
10
134.735163855493
20
7.63930010761874
30
0
41
1
10
134.706158453375
20
7.66704763398403
30
0
41
1
10
134.696721047915
20
7.67657306322377
30
0
41
1
10
134.678256169088
20
7.69611402970253
30
0
41
1
10
134.669224882329
20
7.7061364977437
30
0
41
1
10
134.642917622777
20
7.73657791719069
30
0
41
1
10
134.626329758426
20
7.75746165377873
30
0
41
1
10
134.578765274199
20
7.82147692557564
30
0
41
1
10
134.549954658771
20
7.86595198885271
30
0
41
1
10
134.496227294719
20
7.95731740100322
30
0
41
1
10
134.471337413566
20
8.00422441521656
30
0
41
1
10
134.424513423883
20
8.09987184868709
30
0
41
1
10
134.402576121518
20
8.1486622544767
30
0
41
1
10
134.340781361656
20
8.29614811614474
30
0
41
1
10
134.304676076765
20
8.39632182293286
30
0
41
1
10
134.272162835862
20
8.49780063089796
30
0
0
SPLINE
5
12C
100
AcDbEntity
8
1
62
256
6
ByLayer
370
18
48
1
60
0
100
AcDbSpline
70
4
71
3
72
127
73
123
40
0
40
0
40
0
40
0
40
0.0312500000000869
40
0.0312500000000869
40
0.0625000000001737
40
0.0625000000001737
40
0.078125000000217
40
0.078125000000217
40
0.0859375000002386
40
0.0859375000002386
40
0.0937500000002601
40
0.0937500000002601
40
0.125000000000325
40
0.125000000000325
40
0.140625000000358
40
0.140625000000358
40
0.148437500000364
40
0.148437500000364
40
0.15625000000037
40
0.15625000000037
40
0.187500000000393
40
0.187500000000393
40
0.195312500000395
40
0.195312500000395
40
0.203125000000396
40
0.218750000000416
40
0.234375000000437
40
0.234375000000437
40
0.242187500000439
40
0.242187500000439
40
0.250000000000441
40
0.250000000000441
40
0.26562500000046
40
0.26562500000046
40
0.273437500000463
40
0.273437500000463
40
0.281250000000467
40
0.281250000000467
40
0.31250000000047
40
0.31250000000047
40
0.320312500000471
40
0.320312500000471
40
0.328125000000471
40
0.328125000000471
40
0.343750000000473
40
0.343750000000473
40
0.375000000000477
40
0.375000000000477
40
0.390625000000478
40
0.390625000000478
40
0.406250000000479
40
0.406250000000479
40
0.437500000000481
40
0.437500000000481
40
0.453125000000482
40
0.453125000000482
40
0.468750000000483
40
0.468750000000483
40
0.500000000000474
40
0.500000000000474
40
0.531250000000465
40
0.531250000000465
40
0.54687500000046
40
0.54687500000046
40
0.562500000000455
40
0.562500000000455
40
0.593750000000445
40
0.593750000000445
40
0.625000000000435
40
0.625000000000435
40
0.64062500000043
40
0.64062500000043
40
0.648437500000418
40
0.648437500000418
40
0.656250000000405
40
0.656250000000405
40
0.687500000000376
40
0.687500000000376
40
0.703125000000352
40
0.703125000000352
40
0.718750000000327
40
0.718750000000327
40
0.750000000000277
40
0.750000000000277
40
0.757812500000259
40
0.757812500000259
40
0.765625000000242
40
0.781250000000206
40
0.781250000000206
40
0.796875000000171
40
0.796875000000171
40
0.804687500000153
40
0.804687500000153
40
0.812500000000135
40
0.812500000000135
40
0.828125000000115
40
0.828125000000115
40
0.835937500000105
40
0.835937500000105
40
0.843750000000095
40
0.843750000000095
40
0.875000000000089
40
0.875000000000089
40
0.882812500000087
40
0.882812500000087
40
0.890625000000084
40
0.890625000000084
40
0.906250000000075
40
0.906250000000075
40
0.921875000000066
40
0.921875000000066
40
0.929687500000061
40
0.929687500000061
40
0.937500000000056
40
0.937500000000056
40
0.968750000000029
40
0.968750000000029
40
0.984375000000014
40
0.984375000000014
40
0.992187500000007
40
0.992187500000007
40
1
40
1
40
1
40
1
41
1
10
160.54401782669
20
18.5687904441968
30
0
41
1
10
160.476029911145
20
18.5995286794568
30
0
41
1
10
160.405943601733
20
18.6270399352997
30
0
41
1
10
160.261488337841
20
18.6755917704625
30
0
41
1
10
160.187122639458
20
18.6966369189274
30
0
41
1
10
160.072055747912
20
18.7229656607943
30
0
41
1
10
160.033110957697
20
18.7308645162185
30
0
41
1
10
159.973738121529
20
18.7412976659075
30
0
41
1
10
159.953787628001
20
18.7445391156664
30
0
41
1
10
159.913551664296
20
18.7505271199802
30
0
41
1
10
159.893242510133
20
18.7532751902107
30
0
41
1
10
159.791810202442
20
18.7656027818696
30
0
41
1
10
159.710304260976
20
18.7711034944909
30
0
41
1
10
159.58744554414
20
18.7721159695468
30
0
41
1
10
159.546392086257
20
18.7712395975507
30
0
41
1
10
159.484646330889
20
18.7679251072466
30
0
41
1
10
159.463979852482
20
18.7664803843148
30
0
41
1
10
159.422965962237
20
18.762917746674
30
0
41
1
10
159.402604012793
20
18.7608012226117
30
0
41
1
10
159.301530629762
20
18.748513927055
30
0
41
1
10
159.223001378755
20
18.7332954676669
30
0
41
1
10
159.128177760015
20
18.7064770341018
30
0
41
1
10
159.109317974441
20
18.7006961401914
30
0
41
1
10
159.072422365619
20
18.6884606680152
30
0
41
1
10
159.018221477059
20
18.6690789063153
30
0
41
1
10
158.933562161218
20
18.6316461233184
30
0
41
1
10
158.871978529833
20
18.5960955404759
30
0
41
1
10
158.828200536119
20
18.5672123891407
30
0
41
1
10
158.813959636355
20
18.5571729354281
30
0
41
1
10
158.786672588679
20
18.5366055132352
30
0
41
1
10
158.773600682031
20
18.5260660626126
30
0
41
1
10
158.736050186063
20
18.4936969807388
30
0
41
1
10
158.713232843918
20
18.4711183613001
30
0
41
1
10
158.682212851725
20
18.4357828159981
30
0
41
1
10
158.672408227548
20
18.4237592463256
30
0
41
1
10
158.653861626328
20
18.3992220752376
30
0
41
1
10
158.645107623889
20
18.3866896096266
30
0
41
1
10
158.60412179372
20
18.3229975095885
30
0
41
1
10
158.580940815124
20
18.2700704320619
30
0
41
1
10
158.562224208618
20
18.2016948744822
30
0
41
1
10
158.558999678728
20
18.1879079206857
30
0
41
1
10
158.553565130123
20
18.1601129754527
30
0
41
1
10
158.551362426782
20
18.1461277257481
30
0
41
1
10
158.546276075842
20
18.1042715064526
30
0
41
1
10
158.544881125997
20
18.0763634124132
30
0
41
1
10
158.546094015313
20
17.9926094873821
30
0
41
1
10
158.554059340909
20
17.9367326433368
30
0
41
1
10
158.575408620486
20
17.852819447187
30
0
41
1
10
158.584138132465
20
17.8247666823411
30
0
41
1
10
158.604293186673
20
17.7694810649698
30
0
41
1
10
158.615737513984
20
17.7421460438962
30
0
41
1
10
158.653842781912
20
17.660989743029
30
0
41
1
10
158.684252157234
20
17.6080109723226
30
0
41
1
10
158.736625601391
20
17.5300784130439
30
0
41
1
10
158.755216605845
20
17.5043585525472
30
0
41
1
10
158.794608957607
20
17.4534269129348
30
0
41
1
10
158.815473179782
20
17.4281473363856
30
0
41
1
10
158.880733355009
20
17.3537630938393
30
0
41
1
10
158.927821102853
20
17.3060089340149
30
0
41
1
10
159.028718735109
20
17.2140150783724
30
0
41
1
10
159.082530542121
20
17.1697761119566
30
0
41
1
10
159.168319904468
20
17.1061342565819
30
0
41
1
10
159.197813622075
20
17.0853427971823
30
0
41
1
10
159.258334654338
20
17.0448499940726
30
0
41
1
10
159.28920517431
20
17.0252501055669
30
0
41
1
10
159.383637402096
20
16.9683986320394
30
0
41
1
10
159.449008537861
20
16.9330829011064
30
0
41
1
10
159.584793518831
20
16.8679496377091
30
0
41
1
10
159.655202427499
20
16.8381262960979
30
0
41
1
10
159.765064539008
20
16.7981028676761
30
0
41
1
10
159.802396979592
20
16.7855510212552
30
0
41
1
10
159.859566412074
20
16.7680311005077
30
0
41
1
10
159.878835931291
20
16.7624058462534
30
0
41
1
10
159.917476685826
20
16.7517002878226
30
0
41
1
10
159.936883135705
20
16.7466086122134
30
0
41
1
10
160.034356649103
20
16.7224922227009
30
0
41
1
10
160.113733637656
20
16.707451975764
30
0
41
1
10
160.235255034837
20
16.6924172357929
30
0
41
1
10
160.276174021165
20
16.6886675105177
30
0
41
1
10
160.358940183116
20
16.6840169611963
30
0
41
1
10
160.400228595023
20
16.6831520592109
30
0
41
1
10
160.523466034335
20
16.6852113978452
30
0
41
1
10
160.60493313575
20
16.692715523331
30
0
41
1
10
160.705716990934
20
16.7113773191694
30
0
41
1
10
160.725680581074
20
16.7155554496434
30
0
41
1
10
160.764963687583
20
16.7247549741926
30
0
41
1
10
160.823042409583
20
16.7398426992629
30
0
41
1
10
160.878573072259
20
16.7588031789118
30
0
41
1
10
160.950271657751
20
16.7876239147515
30
0
41
1
10
160.984950387305
20
16.803803510807
30
0
41
1
10
161.035099230418
20
16.8308787749436
30
0
41
1
10
161.051444253823
20
16.8403463088001
30
0
41
1
10
161.082971320399
20
16.8598968123323
30
0
41
1
10
161.098218565774
20
16.8700141969961
30
0
41
1
10
161.142452394388
20
16.9013601324002
30
0
41
1
10
161.169934732499
20
16.9235800642319
30
0
41
1
10
161.208240319515
20
16.9588106210298
30
0
41
1
10
161.220521587917
20
16.9708715351288
30
0
41
1
10
161.2441141077
20
16.9956213798235
30
0
41
1
10
161.255433292702
20
17.0083263046222
30
0
41
1
10
161.308929479943
20
17.0725483762367
30
0
41
1
10
161.34255433641
20
17.1267587064993
30
0
41
1
10
161.37467078481
20
17.1974569782019
30
0
41
1
10
161.380601323501
20
17.2117748100408
30
0
41
1
10
161.391375062865
20
17.2404064013355
30
0
41
1
10
161.396233907686
20
17.2547495750412
30
0
41
1
10
161.409315214967
20
17.2978528244697
30
0
41
1
10
161.416046825471
20
17.3266862471711
30
0
41
1
10
161.4258779054
20
17.3845152557459
30
0
41
1
10
161.428976023207
20
17.4135109628772
30
0
41
1
10
161.431062484147
20
17.4571092601423
30
0
41
1
10
161.431330332047
20
17.4716595557111
30
0
41
1
10
161.431029108553
20
17.5007931526588
30
0
41
1
10
161.430458210542
20
17.5154006602332
30
0
41
1
10
161.425565330653
20
17.5882255990363
30
0
41
1
10
161.41524531597
20
17.6453348306582
30
0
41
1
10
161.391447770109
20
17.7294797733318
30
0
41
1
10
161.382117547202
20
17.7572733311678
30
0
41
1
10
161.36610378475
20
17.7985958653659
30
0
41
1
10
161.360428981092
20
17.8123086772669
30
0
41
1
10
161.348413291355
20
17.8396132291337
30
0
41
1
10
161.342050974776
20
17.8532478005327
30
0
41
1
10
161.335409221222
20
17.8667194518966
30
0
0
SPLINE
5
12D
100
AcDbEntity
8
1
62
256
6
ByLayer
370
18
48
1
60
0
100
AcDbSpline
70
4
71
3
72
23
73
19
40
0
40
0
40
0
40
0
40
0.0625000000001093
40
0.0625000000001093
40
0.125000000000219
40
0.250000000000429
40
0.375000000000639
40
0.375000000000639
40
0.437500000000742
40
0.437500000000742
40
0.500000000000844
40
0.500000000000844
40
0.750000000000785
40
0.750000000000785
40
0.812500000000589
40
0.812500000000589
40
0.875000000000391
40
1
40
1
40
1
40
1
41
1
10
183.725
20
21.4631705481094
30
0
41
1
10
183.735765214239
20
21.4546427097744
30
0
41
1
10
183.746753944521
20
21.4463922297861
30
0
41
1
10
183.768969996916
20
21.4306092283032
30
0
41
1
10
183.802742926132
20
21.4079396378176
30
0
41
1
10
183.861272032604
20
21.3751740186521
30
0
41
1
10
183.91052154369
20
21.3543934928147
30
0
41
1
10
183.948400755962
20
21.3409172772006
30
0
41
1
10
183.96120887807
20
21.3367701249363
30
0
41
1
10
183.98704053615
20
21.3292285772222
30
0
41
1
10
183.999977330471
20
21.3258578412832
30
0
41
1
10
184.064762600395
20
21.3109370318429
30
0
41
1
10
184.116912837334
20
21.3051448576357
30
0
41
1
10
184.182470338479
20
21.3049589697166
30
0
41
1
10
184.19562716898
20
21.3052786235062
30
0
41
1
10
184.221833056138
20
21.3066129284335
30
0
41
1
10
184.260950238037
20
21.3096508243068
30
0
41
1
10
184.299517206559
20
21.3156642786396
30
0
41
1
10
184.325
20
21.320909080315
30
0
0
SPLINE
5
12E
100
AcDbEntity
8
1
62
256
6
ByLayer
370
18
48
1
60
0
100
AcDbSpline
70
4
71
3
72
18
73
14
40
0
40
0
40
0
40
0
40
0.106502320877339
40
0.209819720887774
40
0.309970050662595
40
0.406972922398932
40
0.500849920823959
40
0.591624858695067
40
0.679324076625539
40
0.763976789997969
40
0.845615488386562
40
0.924276395493018
40
1
40
1
40
1
40
1
41
1
10
197.016914648177
20
30.8997629841998
30
0
41
1
10
197.01623569635
20
30.8982648679596
30
0
41
1
10
197.014898096551
20
30.8953134362087
30
0
41
1
10
197.012595037612
20
30.8910296502467
30
0
41
1
10
197.010133652522
20
30.8869369211223
30
0
41
1
10
197.00750984206
20
30.8830400467572
30
0
41
1
10
197.004747534163
20
30.8793376542121
30
0
41
1
10
197.001862960825
20
30.8758299470716
30
0
41
1
10
196.99887314716
20
30.872517074984
30
0
41
1
10
196.99579564553
20
30.8693982877863
30
0
41
1
10
196.99264158475
20
30.8664765910669
30
0
41
1
10
196.989442007418
20
30.863741844308
30
0
41
1
10
196.987208123162
20
30.8620354881393
30
0
41
1
10
196.986112431851
20
30.8611985425266
30
0
0
SPLINE
5
12F
100
AcDbEntity
8
1
62
256
6
ByLayer
370
18
48
1
60
0
100
AcDbSpline
70
4
71
3
72
16
73
12
40
0
40
0
40
0
40
0
40
0.117319552095917
40
0.233085853241892
40
0.3472993622024
40
0.459960556705914
40
0.571069934503023
40
0.680628014495708
40
0.788635337949924
40
0.895092469791777
40
1
40
1
40
1
40
1
41
1
10
197.072267476298
20
31.0506414923857
30
0
41
1
10
197.070444673132
20
31.0446875074401
30
0
41
1
10
197.066823199782
20
31.0328583652687
30
0
41
1
10
197.061108591244
20
31.0152783490049
30
0
41
1
10
197.055243110198
20
30.9979683337912
30
0
41
1
10
197.049213326626
20
30.9809314153468
30
0
41
1
10
197.043033730945
20
30.9641668427837
30
0
41
1
10
197.036713079835
20
30.9476745370559
30
0
41
1
10
197.030255055061
20
30.9314555289555
30
0
41
1
10
197.02368794395
20
30.9155059092323
30
0
41
1
10
197.019161351324
20
30.904984914625
30
0
41
1
10
197.01691464817
20
30.8997629841997
30
0
0
SPLINE
5
130
100
AcDbEntity
8
1
62
256
6
ByLayer
370
18
48
1
60
0
100
AcDbSpline
70
4
71
2
72
10
73
7
40
0
40
0
40
0
40
0.5
40
0.5
40
0.75
40
0.75
40
1
40
1
40
1
41
1
10
197.072267476262
20
31.0506414923766
30
0
41
1
10
197.091762163515
20
31.1148526780035
30
0
41
1
10
197.14348571101
20
31.1601620259473
30
0
41
1
10
197.171666952926
20
31.1848485325254
30
0
41
1
10
197.207522353897
20
31.2006528635256
30
0
41
1
10
197.246241892227
20
31.2177196479818
30
0
41
1
10
197.289264413028
20
31.2216343810583
30
0
0
SPLINE
5
131
100
AcDbEntity
8
1
62
256
6
ByLayer
370
18
48
1
60
0
100
AcDbSpline
70
4
71
2
72
6
73
3
40
0
40
0
40
0
40
1
40
1
40
1
41
1
10
197.289264412942
20
31.2216343810944
30
0
41
1
10
197.384483445967
20
31.2300807207089
30
0
41
1
10
197.479999999303
20
31.2301030164114
30
0
0
SPLINE
5
132
100
AcDbEntity
8
1
62
256
6
ByLayer
370
18
48
1
60
0
100
AcDbSpline
70
4
71
3
72
17
73
13
40
0
40
0
40
0
40
0
40
0.100317411815667
40
0.200541310293624
40
0.300680278273095
40
0.400742920446111
40
0.50073786120134
40
0.600673742442441
40
0.700559221399087
40
0.800402968404705
40
0.900213664663059
40
1
40
1
40
1
40
1
41
1
10
197.710735587058
20
31.2216343810965
30
0
41
1
10
197.704391229825
20
31.2221824268384
30
0
41
1
10
197.691708429407
20
31.2232780074479
30
0
41
1
10
197.672653947212
20
31.2247080380516
30
0
41
1
10
197.653591479021
20
31.2259807732078
30
0
41
1
10
197.634519695717
20
31.2270809807759
30
0
41
1
10
197.615441070667
20
31.2280128123263
30
0
41
1
10
197.596357058751
20
31.2287748808828
30
0
41
1
10
197.577269386481
20
31.2293685860809
30
0
41
1
10
197.558179706331
20
31.2297897133165
30
0
41
1
10
197.539089689657
20
31.2300537049698
30
0
41
1
10
197.526362712573
20
31.2300865806027
30
0
41
1
10
197.520000000698
20
31.2301030164129
30
0
0
SPLINE
5
133
100
AcDbEntity
8
1
62
256
6
ByLayer
370
18
48
1
60
0
100
AcDbSpline
70
4
71
3
72
38
73
34
40
0
40
0
40
0
40
0
40
0.0320161803191023
40
0.0634137556492828
40
0.0941938978101985
40
0.124357850627682
40
0.153906935790605
40
0.182842559292592
40
0.211166218533923
40
0.238879510162618
40
0.265984138740101
40
0.292481926344047
40
0.318374823211722
40
0.343664919571592
40
0.368354458804075
40
0.392445852114308
40
0.415941694910655
40
0.438844785124055
40
0.461158143716788
40
0.482885037704931
40
0.504029006009178
40
0.551366811163188
40
0.597409666800267
40
0.642207857910896
40
0.685815975457035
40
0.728293199079371
40
0.769703557231345
40
0.810116149643028
40
0.849605314210531
40
0.888250718110462
40
0.926137351649402
40
0.963355403684623
40
1
40
1
40
1
40
1
41
1
10
197.927732523738
20
31.0506414923761
30
0
41
1
10
197.926951439285
20
31.0531380959615
30
0
41
1
10
197.925404362209
20
31.0580830646662
30
0
41
1
10
197.922768284139
20
31.0653697151537
30
0
41
1
10
197.919944100057
20
31.0724685816258
30
0
41
1
10
197.916921089856
20
31.079375890665
30
0
41
1
10
197.91371836591
20
31.0860928309139
30
0
41
1
10
197.910347059828
20
31.0926192608331
30
0
41
1
10
197.906820121298
20
31.0989553462757
30
0
41
1
10
197.903149743746
20
31.1051011368355
30
0
41
1
10
197.899348007267
20
31.1110566776897
30
0
41
1
10
197.895426688942
20
31.1168219824248
30
0
41
1
10
197.891397291829
20
31.1223970418584
30
0
41
1
10
197.887271019817
20
31.1277818237953
30
0
41
1
10
197.883058768679
20
31.1329762740891
30
0
41
1
10
197.878771116109
20
31.1379803210542
30
0
41
1
10
197.874418311004
20
31.1427938656211
30
0
41
1
10
197.870010276519
20
31.1474168231825
30
0
41
1
10
197.865556570134
20
31.1518489794826
30
0
41
1
10
197.86106650519
20
31.1560905138407
30
0
41
1
10
197.854641969507
20
31.1618492604921
30
0
41
1
10
197.846053183191
20
31.1689252984105
30
0
41
1
10
197.834979916368
20
31.1770402026137
30
0
41
1
10
197.823530558693
20
31.1844918598629
30
0
41
1
10
197.811750619172
20
31.1912810312433
30
0
41
1
10
197.799684618618
20
31.1974078916237
30
0
41
1
10
197.787376652557
20
31.2028724381854
30
0
41
1
10
197.774870165372
20
31.2076749394363
30
0
41
1
10
197.76220745283
20
31.2118138456859
30
0
41
1
10
197.749431023489
20
31.2152934823437
30
0
41
1
10
197.736578088365
20
31.2180962401345
30
0
41
1
10
197.723700058337
20
31.2202834773354
30
0
41
1
10
197.715034651898
20
31.2211864165675
30
0
41
1
10
197.710735586972
20
31.2216343810583
30
0
0
SPLINE
5
134
100
AcDbEntity
8
1
62
256
6
ByLayer
370
18
48
1
60
0
100
AcDbSpline
70
4
71
2
72
6
73
3
40
0
40
0
40
0
40
1
40
1
40
1
41
1
10
197.927732523702
20
31.0506414923847
30
0
41
1
10
197.950984756674
20
30.9736962649392
30
0
41
1
10
197.98308535183
20
30.8997629841992
30
0
0
SPLINE
5
135
100
AcDbEntity
8
1
62
256
6
ByLayer
370
18
48
1
60
0
100
AcDbSpline
70
4
71
2
72
6
73
3
40
0
40
0
40
0
40
1
40
1
40
1
41
1
10
197.983085351823
20
30.8997629841983
30
0
41
1
10
197.993254670864
20
30.8766801093744
30
0
41
1
10
198.013887568149
20
30.8611985425245
30
0
0
LINE
5
80
100
AcDbEntity
8
1
62
256
6
ByLayer
370
18
48
1
60
0
100
AcDbLine
10
197.5
20
33.559197
30
0
11
197.5
21
28.565166
31
0
39
0
210
0
220
0
230
1
0
LINE
5
81
100
AcDbEntity
8
80
62
256
6
ByLayer
370
18
48
1
60
0
100
AcDbLine
10
0
20
0
30
0
11
-5
21
0
31
0
39
0
210
0
220
0
230
1
0
LINE
5
82
100
AcDbEntity
8
81
62
256
6
ByLayer
370
18
48
1
60
0
100
AcDbLine
10
200
20
38.25
30
0
11
200
21
43.244031
31
0
39
0
210
0
220
0
230
1
0
LINE
5
83
100
AcDbEntity
8
1
62
256
6
ByLayer
370
18
48
1
60
0
100
AcDbLine
10
0
20
-24.98925
30
0
11
134
21
-24.98925
31
0
39
0
210
0
220
0
230
1
0
LINE
5
84
100
AcDbEntity
8
1
62
256
6
ByLayer
370
18
48
1
60
0
100
AcDbLine
10
135
20
-20.75
30
0
11
185.97758
21
-20.75
31
0
39
0
210
0
220
0
230
1
0
LINE
5
85
100
AcDbEntity
8
SK1
62
256
6
ByLayer
370
18
48
1
60
0
100
AcDbLine
10
-147.5
20
-24.98925
30
0
11
0
21
-24.98925
31
0
39
0
210
0
220
0
230
1
0
LINE
5
87
100
AcDbEntity
8
1
62
256
6
ByLayer
370
18
48
1
60
0
100
AcDbLine
10
187.400952
20
14.970241
30
0
11
188.39076
21
15.730171
31
0
39
0
210
0
220
0
230
1
0
LINE
5
88
100
AcDbEntity
8
1
62
256
6
ByLayer
370
18
48
1
60
0
100
AcDbLine
10
190.377122
20
12.220137
30
0
11
189.387314
21
11.460207
31
0
39
0
210
0
220
0
230
1
0
LINE
5
89
100
AcDbEntity
8
1
62
256
6
ByLayer
370
18
48
1
60
0
100
AcDbLine
10
190.78988
20
8.746115
30
0
11
192.319497
21
9.920486
31
0
39
0
210
0
220
0
230
1
0
LINE
5
8A
100
AcDbEntity
8
1
62
256
6
ByLayer
370
18
48
1
60
0
100
AcDbLine
10
186.225121
20
17.85841
30
0
11
184.695504
21
16.68404
31
0
39
0
210
0
220
0
230
1
0
LINE
5
8B
100
AcDbEntity
8
1
62
256
6
ByLayer
370
18
48
1
60
0
100
AcDbLine
10
0
20
-24.98925
30
0
11
0
21
-8.497801
31
0
39
0
210
0
220
0
230
1
0
LINE
5
8C
100
AcDbEntity
8
1
62
256
6
ByLayer
370
18
48
1
60
0
100
AcDbLine
10
0
20
23.51075
30
0
11
0
21
8.497801
31
0
39
0
210
0
220
0
230
1
0
LINE
5
8D
100
AcDbEntity
8
1
62
256
6
ByLayer
370
18
48
1
60
0
100
AcDbLine
10
0
20
8.497801
30
0
11
134.272163
21
8.497801
31
0
39
0
210
0
220
0
230
1
0
LINE
5
8E
100
AcDbEntity
8
1
62
256
6
ByLayer
370
18
48
1
60
0
100
AcDbLine
10
0
20
8.497801
30
0
11
0
21
-8.497801
31
0
39
0
210
0
220
0
230
1
0
LINE
5
8F
100
AcDbEntity
8
1
62
256
6
ByLayer
370
18
48
1
60
0
100
AcDbLine
10
199.675
20
33.509879
30
0
11
199.675
21
30.838206
31
0
39
0
210
0
220
0
230
1
0
LINE
5
90
100
AcDbEntity
8
1
62
256
6
ByLayer
370
18
48
1
60
0
100
AcDbLine
10
195.325
20
33.509879
30
0
11
195.325
21
30.838206
31
0
39
0
210
0
220
0
230
1
0
LINE
5
91
100
AcDbEntity
8
1
62
256
6
ByLayer
370
18
48
1
60
0
100
AcDbLine
10
195.325
20
30.838206
30
0
11
195.325
21
29.99523
31
0
39
0
210
0
220
0
230
1
0
LINE
5
92
100
AcDbEntity
8
1
62
256
6
ByLayer
370
18
48
1
60
0
100
AcDbLine
10
195.400009
20
30.838718
30
0
11
195.325
21
30.838206
31
0
39
0
210
0
220
0
230
1
0
LINE
5
93
100
AcDbEntity
8
1
62
256
6
ByLayer
370
18
48
1
60
0
100
AcDbLine
10
199.675
20
30.838206
30
0
11
199.675
21
29.99523
31
0
39
0
210
0
220
0
230
1
0
LINE
5
94
100
AcDbEntity
8
1
62
256
6
ByLayer
370
18
48
1
60
0
100
AcDbLine
10
199.675
20
30.838206
30
0
11
199.599991
21
30.838718
31
0
39
0
210
0
220
0
230
1
0
LINE
5
95
100
AcDbEntity
8
1
62
256
6
ByLayer
370
18
48
1
60
0
100
AcDbLine
10
199.675
20
29.995263
30
0
11
199.675
21
24.187061
31
0
39
0
210
0
220
0
230
1
0
LINE
5
96
100
AcDbEntity
8
1
62
256
6
ByLayer
370
18
48
1
60
0
100
AcDbLine
10
195.325
20
29.995263
30
0
11
195.325
21
24.73925
31
0
39
0
210
0
220
0
230
1
0
LINE
5
97
100
AcDbEntity
8
1
62
256
6
ByLayer
370
18
48
1
60
0
100
AcDbLine
10
197.774969
20
30.517674
30
0
11
197.225031
21
30.517674
31
0
39
0
210
0
220
0
230
1
0
LINE
5
98
100
AcDbEntity
8
1
62
256
6
ByLayer
370
13
48
1
60
0
100
AcDbLine
10
194.825
20
23.613028
30
0
11
194.825
21
21.321285
31
0
39
0
210
0
220
0
230
1
0
LINE
5
99
100
AcDbEntity
8
1
62
256
6
ByLayer
370
13
48
1
60
0
100
AcDbLine
10
194.325
20
23.362973
30
0
11
194.325
21
23.73925
31
0
39
0
210
0
220
0
230
1
0
LINE
5
9A
100
AcDbEntity
8
1
62
256
6
ByLayer
370
18
48
1
60
0
100
AcDbLine
10
184.325
20
23.73925
30
0
11
194.325
21
23.73925
31
0
39
0
210
0
220
0
230
1
0
LINE
5
9B
100
AcDbEntity
8
1
62
256
6
ByLayer
370
13
48
1
60
0
100
AcDbLine
10
184.325
20
23.73925
30
0
11
184.325
21
21.320909
31
0
39
0
210
0
220
0
230
1
0
LINE
5
9C
100
AcDbEntity
8
1
62
256
6
ByLayer
370
18
48
1
60
0
100
AcDbLine
10
180.125026
20
23.73925
30
0
11
182.467512
21
23.73925
31
0
39
0
210
0
220
0
230
1
0
LINE
5
9D
100
AcDbEntity
8
1
62
256
6
ByLayer
370
18
48
1
60
0
100
AcDbLine
10
178.926078
20
-19.156543
30
0
11
178.553554
21
-18.392015
31
0
39
0
210
0
220
0
230
1
0
LINE
5
9E
100
AcDbEntity
8
1
62
256
6
ByLayer
370
18
48
1
60
0
100
AcDbLine
10
161.282172
20
17.053883
30
0
11
160.544018
21
18.56879
31
0
39
0
210
0
220
0
230
1
0
LINE
5
9F
100
AcDbEntity
8
1
62
256
6
ByLayer
370
13
48
1
60
0
100
AcDbLine
10
135
20
-20.75
30
0
11
135
21
-9.944356
31
0
39
0
210
0
220
0
230
1
0
LINE
5
A0
100
AcDbEntity
8
1
62
256
6
ByLayer
370
18
48
1
60
0
100
AcDbLine
10
134
20
-12.574235
30
0
11
134
21
-24.98925
31
0
39
0
210
0
220
0
230
1
0
LINE
5
A1
100
AcDbEntity
8
1
62
256
6
ByLayer
370
18
48
1
60
0
100
AcDbLine
10
134.272163
20
-8.497801
30
0
11
0
21
-8.497801
31
0
39
0
210
0
220
0
230
1
0
LINE
5
A2
100
AcDbEntity
8
1
62
256
6
ByLayer
370
18
48
1
60
0
100
AcDbLine
10
134.272163
20
23.51075
30
0
11
0
21
23.51075
31
0
39
0
210
0
220
0
230
1
0
LINE
5
A3
100
AcDbEntity
8
1
62
256
6
ByLayer
370
18
48
1
60
0
100
AcDbLine
10
134.272163
20
-8.497801
30
0
11
134.272163
21
-10.109099
31
0
39
0
210
0
220
0
230
1
0
LINE
5
A4
100
AcDbEntity
8
1
62
256
6
ByLayer
370
18
48
1
60
0
100
AcDbLine
10
134.272163
20
23.51075
30
0
11
134.272163
21
8.497801
31
0
39
0
210
0
220
0
230
1
0
LINE
5
A5
100
AcDbEntity
8
1
62
256
6
ByLayer
370
18
48
1
60
0
100
AcDbLine
10
183.725
20
21.463171
30
0
11
183.725
21
23.73925
31
0
39
0
210
0
220
0
230
1
0
LINE
5
A6
100
AcDbEntity
8
1
62
256
6
ByLayer
370
18
48
1
60
0
100
AcDbLine
10
182.467469
20
23.73925
30
0
11
183.725
21
23.73925
31
0
39
0
210
0
220
0
230
1
0
LINE
5
A7
100
AcDbEntity
8
1
62
256
6
ByLayer
370
18
48
1
60
0
100
AcDbLine
10
169.9285
20
23.73925
30
0
11
180.125026
21
23.73925
31
0
39
0
210
0
220
0
230
1
0
LINE
5
A8
100
AcDbEntity
8
1
62
256
6
ByLayer
370
18
48
1
60
0
100
AcDbLine
10
169.9285
20
23.73925
30
0
11
169.7
21
23.51075
31
0
39
0
210
0
220
0
230
1
0
LINE
5
A9
100
AcDbEntity
8
1
62
256
6
ByLayer
370
18
48
1
60
0
100
AcDbLine
10
135
20
23.51075
30
0
11
169.7
21
23.51075
31
0
39
0
210
0
220
0
230
1
0
LINE
5
AA
100
AcDbEntity
8
1
62
256
6
ByLayer
370
13
48
1
60
0
100
AcDbLine
10
135
20
23.51075
30
0
11
135
21
7.523671
31
0
39
0
210
0
220
0
230
1
0
LINE
5
AB
100
AcDbEntity
8
1
62
256
6
ByLayer
370
18
48
1
60
0
100
AcDbLine
10
158.50324
20
7.523671
30
0
11
135
21
7.523671
31
0
39
0
210
0
220
0
230
1
0
LINE
5
AC
100
AcDbEntity
8
1
62
256
6
ByLayer
370
18
48
1
60
0
100
AcDbLine
10
169.7
20
-7.523671
30
0
11
169.7
21
-7.060108
31
0
39
0
210
0
220
0
230
1
0
LINE
5
AD
100
AcDbEntity
8
1
62
256
6
ByLayer
370
18
48
1
60
0
100
AcDbLine
10
135
20
-7.523671
30
0
11
169.7
21
-7.523671
31
0
39
0
210
0
220
0
230
1
0
LINE
5
AE
100
AcDbEntity
8
1
62
256
6
ByLayer
370
13
48
1
60
0
100
AcDbLine
10
135
20
-7.523671
30
0
11
135
21
-9.944356
31
0
39
0
210
0
220
0
230
1
0
LINE
5
AF
100
AcDbEntity
8
1
62
256
6
ByLayer
370
18
48
1
60
0
100
AcDbLine
10
174.824606
20
-9.944356
30
0
11
135
21
-9.944356
31
0
39
0
210
0
220
0
230
1
0
LINE
5
B0
100
AcDbEntity
8
1
62
256
6
ByLayer
370
18
48
1
60
0
100
AcDbLine
10
169.7
20
-7.060108
30
0
11
158.50324
21
7.523671
31
0
39
0
210
0
220
0
230
1
0
LINE
5
B1
100
AcDbEntity
8
1
62
256
6
ByLayer
370
18
48
1
60
0
100
AcDbLine
10
169.7
20
-7.060108
30
0
11
169.753925
21
-7.353111
31
0
39
0
210
0
220
0
230
1
0
LINE
5
B2
100
AcDbEntity
8
1
62
256
6
ByLayer
370
18
48
1
60
0
100
AcDbLine
10
199.675
20
3.325
30
0
11
199.675
21
24.187061
31
0
39
0
210
0
220
0
230
1
0
LINE
5
B3
100
AcDbEntity
8
1
62
256
6
ByLayer
370
18
48
1
60
0
100
AcDbLine
10
199.675
20
24.187061
30
0
11
194.825
21
21.321285
31
0
39
0
210
0
220
0
230
1
0
LINE
5
B4
100
AcDbEntity
8
1
62
256
6
ByLayer
370
18
48
1
60
0
100
AcDbLine
10
195.4
20
31.887605
30
0
11
195.4
21
33.380122
31
0
39
0
210
0
220
0
230
1
0
LINE
5
B5
100
AcDbEntity
8
1
62
256
6
ByLayer
370
18
48
1
60
0
100
AcDbLine
10
199.6
20
31.887605
30
0
11
199.6
21
33.380122
31
0
39
0
210
0
220
0
230
1
0
LINE
5
B6
100
AcDbEntity
8
1
62
256
6
ByLayer
370
18
48
1
60
0
100
AcDbLine
10
199.81691
20
33.755372
30
0
11
199.6
21
33.380122
31
0
39
0
210
0
220
0
230
1
0
LINE
5
B7
100
AcDbEntity
8
1
62
256
6
ByLayer
370
18
48
1
60
0
100
AcDbLine
10
199.999714
20
37.937288
30
0
11
199.81691
21
33.755372
31
0
39
0
210
0
220
0
230
1
0
LINE
5
B8
100
AcDbEntity
8
1
62
256
6
ByLayer
370
18
48
1
60
0
100
AcDbLine
10
199.7
20
38.25
30
0
11
195.3
21
38.25
31
0
39
0
210
0
220
0
230
1
0
LINE
5
B9
100
AcDbEntity
8
1
62
256
6
ByLayer
370
18
48
1
60
0
100
AcDbLine
10
195.000286
20
37.937288
30
0
11
195.18309
21
33.755372
31
0
39
0
210
0
220
0
230
1
0
LINE
5
BA
100
AcDbEntity
8
1
62
256
6
ByLayer
370
18
48
1
60
0
100
AcDbLine
10
195.18309
20
33.755372
30
0
11
195.4
21
33.380122
31
0
39
0
210
0
220
0
230
1
0
LINE
5
BB
100
AcDbEntity
8
1
62
256
6
ByLayer
370
18
48
1
60
0
100
AcDbLine
10
199.7
20
13.279847
30
0
11
199.674975
21
13.279847
31
0
39
0
210
0
220
0
230
1
0
LINE
5
BC
100
AcDbEntity
8
1
62
256
6
ByLayer
370
18
48
1
60
0
100
AcDbLine
10
199.999714
20
13.592559
30
0
11
199.81691
21
17.774474
31
0
39
0
210
0
220
0
230
1
0
LINE
5
BD
100
AcDbEntity
8
1
62
256
6
ByLayer
370
18
48
1
60
0
100
AcDbLine
10
199.81691
20
17.774474
30
0
11
199.675003
21
18.01997
31
0
39
0
210
0
220
0
230
1
0
LINE
5
BE
100
AcDbEntity
8
1
62
256
6
ByLayer
370
13
48
1
60
0
100
AcDbLine
10
197.710736
20
30.517646
30
0
11
197.710736
21
31.221634
31
0
39
0
210
0
220
0
230
1
0
LINE
5
BF
100
AcDbEntity
8
1
62
256
6
ByLayer
370
13
48
1
60
0
100
AcDbLine
10
197.289264
20
30.517646
30
0
11
197.289264
21
31.221634
31
0
39
0
210
0
220
0
230
1
0
LINE
5
C0
100
AcDbEntity
8
1
62
256
6
ByLayer
370
13
48
1
60
0
100
AcDbLine
10
197.52
20
30.51766
30
0
11
197.52
21
31.230103
31
0
39
0
210
0
220
0
230
1
0
LINE
5
C1
100
AcDbEntity
8
1
62
256
6
ByLayer
370
13
48
1
60
0
100
AcDbLine
10
197.48
20
30.51766
30
0
11
197.48
21
31.230103
31
0
39
0
210
0
220
0
230
1
0
LINE
5
C2
100
AcDbEntity
8
1
62
256
6
ByLayer
370
13
48
1
60
0
100
AcDbLine
10
197.072267
20
30.411444
30
0
11
197.072267
21
31.050641
31
0
39
0
210
0
220
0
230
1
0
LINE
5
C3
100
AcDbEntity
8
1
62
256
6
ByLayer
370
13
48
1
60
0
100
AcDbLine
10
197.927733
20
30.411444
30
0
11
197.927733
21
31.050641
31
0
39
0
210
0
220
0
230
1
0
LINE
5
C4
100
AcDbEntity
8
1
62
256
6
ByLayer
370
13
48
1
60
0
100
AcDbLine
10
197.016915
20
30.899763
30
0
11
197.016915
21
30.287295
31
0
39
0
210
0
220
0
230
1
0
LINE
5
C5
100
AcDbEntity
8
1
62
256
6
ByLayer
370
13
48
1
60
0
100
AcDbLine
10
197.983085
20
30.899763
30
0
11
197.983085
21
30.287295
31
0
39
0
210
0
220
0
230
1
0
LINE
5
C6
100
AcDbEntity
8
1
62
256
6
ByLayer
370
18
48
1
60
0
100
AcDbLine
10
195.4
20
30.573202
30
0
11
195.4
21
31.887605
31
0
39
0
210
0
220
0
230
1
0
LINE
5
C7
100
AcDbEntity
8
1
62
256
6
ByLayer
370
18
48
1
60
0
100
AcDbLine
10
199.6
20
30.573202
30
0
11
199.6
21
31.887605
31
0
39
0
210
0
220
0
230
1
0
LINE
5
C8
100
AcDbEntity
8
1
62
256
6
ByLayer
370
18
48
1
60
0
100
AcDbLine
10
199.6
20
31.887605
30
0
11
195.4
21
31.887605
31
0
39
0
210
0
220
0
230
1
0
LINE
5
C9
100
AcDbEntity
8
1
62
256
6
ByLayer
370
18
48
1
60
0
100
AcDbLine
10
197.52
20
31.230103
30
0
11
197.48
21
31.230103
31
0
39
0
210
0
220
0
230
1
0
LINE
5
CA
100
AcDbEntity
8
1
62
256
6
ByLayer
370
13
48
1
60
0
100
AcDbLine
10
196.986112
20
30.247311
30
0
11
196.986112
21
30.861199
31
0
39
0
210
0
220
0
230
1
0
LINE
5
CB
100
AcDbEntity
8
1
62
256
6
ByLayer
370
18
48
1
60
0
100
AcDbLine
10
196.986112
20
30.861199
30
0
11
196.894335
21
30.792962
31
0
39
0
210
0
220
0
230
1
0
LINE
5
CC
100
AcDbEntity
8
1
62
256
6
ByLayer
370
18
48
1
60
0
100
AcDbLine
10
198.013888
20
30.861199
30
0
11
198.105665
21
30.792962
31
0
39
0
210
0
220
0
230
1
0
LINE
5
CD
100
AcDbEntity
8
1
62
256
6
ByLayer
370
13
48
1
60
0
100
AcDbLine
10
198.013888
20
30.247311
30
0
11
198.013888
21
30.861199
31
0
39
0
210
0
220
0
230
1
0
LINE
5
CE
100
AcDbEntity
8
1
62
256
6
ByLayer
370
13
48
1
60
0
100
AcDbLine
10
196.894335
20
30.233796
30
0
11
196.894335
21
30.792962
31
0
39
0
210
0
220
0
230
1
0
LINE
5
CF
100
AcDbEntity
8
1
62
256
6
ByLayer
370
13
48
1
60
0
100
AcDbLine
10
198.105665
20
30.233796
30
0
11
198.105665
21
30.792962
31
0
39
0
210
0
220
0
230
1
0
LINE
5
D0
100
AcDbEntity
8
1
62
256
6
ByLayer
370
18
48
1
60
0
100
AcDbLine
10
198.149934
20
30.774217
30
0
11
199.341384
21
30.574645
31
0
39
0
210
0
220
0
230
1
0
LINE
5
D1
100
AcDbEntity
8
1
62
256
6
ByLayer
370
13
48
1
60
0
100
AcDbLine
10
198.149934
20
30.227326
30
0
11
198.149934
21
30.774217
31
0
39
0
210
0
220
0
230
1
0
LINE
5
D2
100
AcDbEntity
8
1
62
256
6
ByLayer
370
13
48
1
60
0
100
AcDbLine
10
196.850066
20
30.227326
30
0
11
196.850066
21
30.774217
31
0
39
0
210
0
220
0
230
1
0
LINE
5
D3
100
AcDbEntity
8
1
62
256
6
ByLayer
370
18
48
1
60
0
100
AcDbLine
10
196.850066
20
30.774217
30
0
11
195.658616
21
30.574645
31
0
39
0
210
0
220
0
230
1
0
LINE
5
D4
100
AcDbEntity
8
1
62
256
6
ByLayer
370
13
48
1
60
0
100
AcDbLine
10
199.341384
20
30.046038
30
0
11
199.341384
21
30.574645
31
0
39
0
210
0
220
0
230
1
0
LINE
5
D5
100
AcDbEntity
8
1
62
256
6
ByLayer
370
13
48
1
60
0
100
AcDbLine
10
195.658616
20
30.046186
30
0
11
195.658616
21
30.574645
31
0
39
0
210
0
220
0
230
1
0
LINE
5
D6
100
AcDbEntity
8
1
62
256
6
ByLayer
370
13
48
1
60
0
100
AcDbLine
10
199.358749
20
30.04343
30
0
11
199.358749
21
30.573202
31
0
39
0
210
0
220
0
230
1
0
LINE
5
D7
100
AcDbEntity
8
1
62
256
6
ByLayer
370
18
48
1
60
0
100
AcDbLine
10
199.6
20
30.00669
30
0
11
199.6
21
30.573202
31
0
39
0
210
0
220
0
230
1
0
LINE
5
D8
100
AcDbEntity
8
1
62
256
6
ByLayer
370
18
48
1
60
0
100
AcDbLine
10
199.358749
20
30.573202
30
0
11
199.6
21
30.573202
31
0
39
0
210
0
220
0
230
1
0
LINE
5
D9
100
AcDbEntity
8
1
62
256
6
ByLayer
370
13
48
1
60
0
100
AcDbLine
10
195.641251
20
30.04343
30
0
11
195.641251
21
30.573202
31
0
39
0
210
0
220
0
230
1
0
LINE
5
DA
100
AcDbEntity
8
1
62
256
6
ByLayer
370
18
48
1
60
0
100
AcDbLine
10
195.641251
20
30.573202
30
0
11
195.4
21
30.573202
31
0
39
0
210
0
220
0
230
1
0
LINE
5
DB
100
AcDbEntity
8
1
62
256
6
ByLayer
370
18
48
1
60
0
100
AcDbLine
10
195.4
20
30.006838
30
0
11
195.4
21
30.573202
31
0
39
0
210
0
220
0
230
1
0
LINE
5
DC
100
AcDbEntity
8
SK1
62
256
6
ByLayer
370
18
48
1
60
0
100
AcDbLine
10
0
20
-24.98925
30
0
11
0
21
-8.497801
31
0
39
0
210
0
220
0
230
1
0
LINE
5
DD
100
AcDbEntity
8
SK1
62
256
6
ByLayer
370
18
48
1
60
0
100
AcDbLine
10
0
20
23.51075
30
0
11
0
21
8.497801
31
0
39
0
210
0
220
0
230
1
0
LINE
5
DE
100
AcDbEntity
8
SK1
62
256
6
ByLayer
370
18
48
1
60
0
100
AcDbLine
10
0
20
23.51075
30
0
11
-147.5
21
23.51075
31
0
39
0
210
0
220
0
230
1
0
LINE
5
DF
100
AcDbEntity
8
SK1
62
256
6
ByLayer
370
18
48
1
60
0
100
AcDbLine
10
0
20
8.497801
30
0
11
0
21
-8.497801
31
0
39
0
210
0
220
0
230
1
0
LINE
5
E0
100
AcDbEntity
8
SK1
62
256
6
ByLayer
370
18
48
1
60
0
100
AcDbLine
10
-147.5
20
8.497801
30
0
11
0
21
8.497801
31
0
39
0
210
0
220
0
230
1
0
LINE
5
E1
100
AcDbEntity
8
SK1
62
256
6
ByLayer
370
18
48
1
60
0
100
AcDbLine
10
0
20
-8.497801
30
0
11
-147.5
21
-8.497801
31
0
39
0
210
0
220
0
230
1
0
LINE
5
E2
100
AcDbEntity
8
1
62
256
6
ByLayer
370
18
48
1
60
0
100
AcDbLine
10
191.107263
20
15.576663
30
0
11
190.117454
21
14.816733
31
0
39
0
210
0
220
0
230
1
0
LINE
5
E3
100
AcDbEntity
8
1
62
256
6
ByLayer
370
18
48
1
60
0
100
AcDbLine
10
191.521166
20
14.70738
30
0
11
190.531357
21
13.94745
31
0
39
0
210
0
220
0
230
1
0
LINE
5
E4
100
AcDbEntity
8
1
62
256
6
ByLayer
370
18
48
1
60
0
100
AcDbLine
10
189.655965
20
16.39904
30
0
11
188.666156
21
15.63911
31
0
39
0
210
0
220
0
230
1
0
LINE
5
E5
100
AcDbEntity
8
1
62
256
6
ByLayer
370
18
48
1
60
0
100
AcDbLine
10
191.622833
20
13.242928
30
0
11
190.633024
21
12.482999
31
0
39
0
210
0
220
0
230
1
0
LINE
5
E6
100
AcDbEntity
8
1
62
256
6
ByLayer
370
18
48
1
60
0
100
AcDbLine
10
187.438256
20
15.576663
30
0
11
186.938279
21
15.192804
31
0
39
0
210
0
220
0
230
1
0
LINE
5
E7
100
AcDbEntity
8
1
62
256
6
ByLayer
370
18
48
1
60
0
100
AcDbLine
10
190.017102
20
11.673092
30
0
11
189.481631
21
11.261982
31
0
39
0
210
0
220
0
230
1
0
MTEXT
5
136
100
AcDbEntity
8
SK6
62
256
6
ByLayer
370
18
48
1
60
0
100
AcDbMText
10
-9.8145
20
-45.089976
30
0
210
0
220
0
230
1
1
\W0.7444;C2R-CF50-RJ13GB
40
3.5
41
0
44
1.084337
50
0
71
7
72
5
7
iso_b_vert
0
DIMENSION
5
13B
100
AcDbEntity
8
2
62
256
6
ByLayer
370
18
48
1
60
0
100
AcDbDimension
2
_U0
10
223.1
20
0
30
0
11
223.1
21
19.125
31
0
70
32
71
1
72
1
41
1
210
0
220
0
230
1
3
Standard
100
AcDbAlignedDimension
13
200
23
38.25
33
0
14
-150
24
0
34
0
50
90
100
AcDbRotatedDimension
1001
ACAD
1000
DSTYLE
1002
{
1070
   371
1070
    13
1070
   372
1070
    13
1070
   170
1070
     0
1070
   144
1040
1.0
1070
   277
1070
     2
1070
   284
1070
     8
1070
   278
1070
    46
1070
   146
1040
1.0
1070
   345
1005
16
1070
   347
1005
16
1070
   346
1005
16
1070
   344
1005
0
1070
   343
1005
0
1070
   172
1070
     1
1070
    76
1070
     0
1070
    75
1070
     0
1070
   282
1070
     0
1070
   281
1070
     0
1070
    71
1070
     0
1070
    74
1070
     0
1070
   279
1070
     0
1070
   173
1070
     1
1070
   340
1005
137
1070
   271
1070
     2
1070
   272
1070
     2
1070
    77
1070
     1
1070
    73
1070
     0
1070
   171
1070
     3
1070
   274
1070
     4
1070
   177
1070
     2
1070
   176
1070
     2
1070
   178
1070
     2
1070
    78
1070
     8
1070
    48
1040
-0.1
1070
    41
1040
3.5
1070
   147
1040
1.75
1070
    42
1040
1.5875
1070
    44
1040
2.0
1070
   140
1040
3.5
1002
}
1001
ACAD_DSTYLE_DIM_LINETYPE
1070
   380
1005
16
1001
ACAD_DSTYLE_DIM_EXT1_LINETYPE
1070
   381
1005
16
1001
ACAD_DSTYLE_DIM_EXT2_LINETYPE
1070
   382
1005
16
0
DIMENSION
5
155
100
AcDbEntity
8
2
62
256
6
ByLayer
370
18
48
1
60
0
100
AcDbDimension
2
_U1
10
213.1
20
38.25
30
0
11
213.1
21
31.75
31
0
70
32
71
1
72
1
41
1
210
0
220
0
230
1
3
Standard
100
AcDbAlignedDimension
13
195.325
23
25.25
33
0
14
200
24
38.25
34
0
50
90
100
AcDbRotatedDimension
1001
ACAD
1000
DSTYLE
1002
{
1070
   371
1070
    13
1070
   372
1070
    13
1070
   170
1070
     0
1070
   144
1040
1.0
1070
   277
1070
     2
1070
   284
1070
     8
1070
   278
1070
    46
1070
   146
1040
1.0
1070
   345
1005
16
1070
   347
1005
16
1070
   346
1005
16
1070
   344
1005
0
1070
   343
1005
0
1070
   172
1070
     1
1070
    76
1070
     0
1070
    75
1070
     0
1070
   282
1070
     0
1070
   281
1070
     0
1070
    71
1070
     0
1070
    74
1070
     0
1070
   279
1070
     0
1070
   173
1070
     1
1070
   340
1005
137
1070
   271
1070
     2
1070
   272
1070
     2
1070
    77
1070
     1
1070
    73
1070
     0
1070
   171
1070
     3
1070
   274
1070
     4
1070
   177
1070
     2
1070
   176
1070
     2
1070
   178
1070
     2
1070
    78
1070
     8
1070
    48
1040
-0.1
1070
    41
1040
3.5
1070
   147
1040
1.75
1070
    42
1040
1.5875
1070
    44
1040
2.0
1070
   140
1040
3.5
1002
}
1001
ACAD_DSTYLE_DIM_LINETYPE
1070
   380
1005
16
1001
ACAD_DSTYLE_DIM_EXT1_LINETYPE
1070
   381
1005
16
1001
ACAD_DSTYLE_DIM_EXT2_LINETYPE
1070
   382
1005
16
0
DIMENSION
5
16E
100
AcDbEntity
8
SK2
62
256
6
ByLayer
370
18
48
1
60
0
100
AcDbDimension
2
_U2
10
-161.6
20
-25
30
0
11
-161.6
21
0
31
0
70
32
71
1
72
1
41
1
210
0
220
0
230
1
3
Standard
100
AcDbAlignedDimension
13
-150
23
25
33
0
14
-150
24
-25
34
0
50
90
100
AcDbRotatedDimension
1001
ACAD
1000
DSTYLE
1002
{
1070
   371
1070
    13
1070
   372
1070
    13
1070
   170
1070
     0
1070
   144
1040
1.0
1070
   277
1070
     2
1070
   284
1070
     8
1070
   278
1070
    46
1070
   146
1040
1.0
1070
   345
1005
16
1070
   347
1005
16
1070
   346
1005
16
1070
   344
1005
0
1070
   343
1005
0
1070
   172
1070
     1
1070
    76
1070
     0
1070
    75
1070
     0
1070
   282
1070
     0
1070
   281
1070
     0
1070
    71
1070
     0
1070
    74
1070
     0
1070
   279
1070
     0
1070
   173
1070
     1
1070
   340
1005
137
1070
   271
1070
     2
1070
   272
1070
     2
1070
    77
1070
     1
1070
    73
1070
     0
1070
   171
1070
     3
1070
   274
1070
     4
1070
   177
1070
     2
1070
   176
1070
     2
1070
   178
1070
     2
1070
    78
1070
     8
1070
    48
1040
-0.1
1070
    41
1040
3.5
1070
   147
1040
1.75
1070
    42
1040
1.5875
1070
    44
1040
2.0
1070
   140
1040
3.5
1002
}
1001
ACAD_DSTYLE_DIM_LINETYPE
1070
   380
1005
16
1001
ACAD_DSTYLE_DIM_EXT1_LINETYPE
1070
   381
1005
16
1001
ACAD_DSTYLE_DIM_EXT2_LINETYPE
1070
   382
1005
16
0
DIMENSION
5
187
100
AcDbEntity
8
2
62
256
6
ByLayer
370
18
48
1
60
0
100
AcDbDimension
2
_U3
10
200
20
44.5
30
0
11
197.5
21
44.5
31
0
70
32
71
1
72
1
41
1
210
0
220
0
230
1
3
Standard
100
AcDbAlignedDimension
13
195
23
38.25
33
0
14
200
24
38.25
34
0
50
0
100
AcDbRotatedDimension
1001
ACAD
1000
DSTYLE
1002
{
1070
   371
1070
    13
1070
   372
1070
    13
1070
   170
1070
     0
1070
   144
1040
1.0
1070
   277
1070
     2
1070
   284
1070
     8
1070
   278
1070
    46
1070
   146
1040
1.0
1070
   345
1005
16
1070
   347
1005
16
1070
   346
1005
16
1070
   344
1005
0
1070
   343
1005
0
1070
   172
1070
     1
1070
    76
1070
     0
1070
    75
1070
     0
1070
   282
1070
     0
1070
   281
1070
     0
1070
    71
1070
     0
1070
    74
1070
     0
1070
   279
1070
     0
1070
   173
1070
     1
1070
   340
1005
137
1070
   271
1070
     2
1070
   272
1070
     2
1070
    77
1070
     1
1070
    73
1070
     1
1070
   171
1070
     3
1070
   274
1070
     4
1070
   177
1070
     2
1070
   176
1070
     2
1070
   178
1070
     2
1070
    78
1070
     8
1070
    48
1040
-0.1
1070
    41
1040
3.5
1070
   147
1040
1.75
1070
    42
1040
1.5875
1070
    44
1040
2.0
1070
   140
1040
3.5
1002
}
1001
ACAD_DSTYLE_DIM_LINETYPE
1070
   380
1005
16
1001
ACAD_DSTYLE_DIM_EXT1_LINETYPE
1070
   381
1005
16
1001
ACAD_DSTYLE_DIM_EXT2_LINETYPE
1070
   382
1005
16
0
DIMENSION
5
1A0
100
AcDbEntity
8
SK2
62
256
6
ByLayer
370
18
48
1
60
0
100
AcDbDimension
2
_U4
10
200
20
-26.75
30
0
11
25
21
-26.75
31
0
70
32
71
1
72
1
41
1
210
0
220
0
230
1
3
Standard
100
AcDbAlignedDimension
13
-150
23
0
33
0
14
200
24
38.25
34
0
50
0
100
AcDbRotatedDimension
1001
ACAD
1000
DSTYLE
1002
{
1070
   371
1070
    13
1070
   372
1070
    13
1070
   170
1070
     0
1070
   144
1040
1.0
1070
   277
1070
     2
1070
   284
1070
     8
1070
   278
1070
    46
1070
   146
1040
1.0
1070
   345
1005
16
1070
   347
1005
16
1070
   346
1005
16
1070
   344
1005
0
1070
   343
1005
0
1070
   172
1070
     1
1070
    76
1070
     0
1070
    75
1070
     0
1070
   282
1070
     0
1070
   281
1070
     0
1070
    71
1070
     0
1070
    74
1070
     0
1070
   279
1070
     0
1070
   173
1070
     1
1070
   340
1005
137
1070
   271
1070
     1
1070
   272
1070
     2
1070
    77
1070
     1
1070
    73
1070
     1
1070
   171
1070
     3
1070
   274
1070
     4
1070
   177
1070
     2
1070
   176
1070
     2
1070
   178
1070
     2
1070
    78
1070
     8
1070
    48
1040
-0.1
1070
    41
1040
3.5
1070
   147
1040
1.75
1070
    42
1040
1.5875
1070
    44
1040
2.0
1070
   140
1040
3.5
1002
}
1001
ACAD_DSTYLE_DIM_LINETYPE
1070
   380
1005
16
1001
ACAD_DSTYLE_DIM_EXT1_LINETYPE
1070
   381
1005
16
1001
ACAD_DSTYLE_DIM_EXT2_LINETYPE
1070
   382
1005
16
0
DIMENSION
5
1B8
100
AcDbEntity
8
SK2
62
256
6
ByLayer
370
18
48
1
60
0
100
AcDbDimension
2
_U5
10
200
20
60.5
30
0
11
100
21
60.5
31
0
70
32
71
1
72
1
41
1
210
0
220
0
230
1
3
Standard
100
AcDbAlignedDimension
13
0
23
0
33
0
14
200
24
38.25
34
0
50
0
100
AcDbRotatedDimension
1001
ACAD
1000
DSTYLE
1002
{
1070
   371
1070
    13
1070
   372
1070
    13
1070
   170
1070
     0
1070
   144
1040
1.0
1070
   277
1070
     2
1070
   284
1070
     8
1070
   278
1070
    46
1070
   146
1040
1.0
1070
   345
1005
16
1070
   347
1005
16
1070
   346
1005
16
1070
   344
1005
0
1070
   343
1005
0
1070
   172
1070
     1
1070
    76
1070
     0
1070
    75
1070
     0
1070
   282
1070
     0
1070
   281
1070
     0
1070
    71
1070
     0
1070
    74
1070
     0
1070
   279
1070
     0
1070
   173
1070
     1
1070
   340
1005
137
1070
   271
1070
     1
1070
   272
1070
     2
1070
    77
1070
     1
1070
    73
1070
     1
1070
   171
1070
     3
1070
   274
1070
     4
1070
   177
1070
     2
1070
   176
1070
     2
1070
   178
1070
     2
1070
    78
1070
     8
1070
    48
1040
-0.1
1070
    41
1040
3.5
1070
   147
1040
1.75
1070
    42
1040
1.5875
1070
    44
1040
2.0
1070
   140
1040
3.5
1002
}
1001
ACAD_DSTYLE_DIM_LINETYPE
1070
   380
1005
16
1001
ACAD_DSTYLE_DIM_EXT1_LINETYPE
1070
   381
1005
16
1001
ACAD_DSTYLE_DIM_EXT2_LINETYPE
1070
   382
1005
16
0
ENDSEC
0
SECTION
2
OBJECTS
0
DICTIONARY
5
23f
330
0
100
AcDbDictionary
280
0
281
1
3
ACAD_GROUP
350
240
3
ACAD_MLINESTYLE
350
241
0
DICTIONARY
5
240
330
0
100
AcDbDictionary
280
0
281
1
0
DICTIONARY
5
241
330
0
100
AcDbDictionary
280
0
281
1
3
Standard
350
18
0
MLINESTYLE
5
18
330
241
100
AcDbMlineStyle
2
Standard
70
0
3

62
256
51
90
52
90
71
2
49
-0.5
62
256
6
ByLayer
49
0.5
62
256
6
ByLayer
0
RASTERVARIABLES
5
22e
330

100
AcDbRasterVariables
90
0
70
1
71
1
72
1
0
ENDSEC
0
EOF
