0
SECTION
2
HEADER
9
$ACADVER
1
AC1015
9
$DWGCODEPAGE
3
ANSI_1252
9
$HANDSEED
5
26d
9
$ANGBASE
50
0
9
$ANGDIR
70
0
9
$ATTMODE
70
1
9
$AUNITS
70
0
9
$AUPREC
70
0
9
$CECOLOR
62
256
9
$CELTSCALE
40
1
9
$CELTYPE
6
ByLayer
9
$CELWEIGHT
370
18
9
$CLAYER
8
0
9
$CMLJUST
70
0
9
$CMLSCALE
40
1
9
$CMLSTYLE
2
Standard
9
$DIMSTYLE
2
Standard
9
$TEXTSIZE
40
0.2
9
$TEXTSTYLE
7
Standard
9
$LUNITS
70
2
9
$LUPREC
70
4
9
$EXTNAMES
290
1
9
$INSUNITS
70
4
9
$LTSCALE
40
1
9
$LWDISPLAY
290
1
9
$PDMODE
70
0
9
$PDSIZE
40
0
9
$PLINEGEN
70
0
0
ENDSEC
0
SECTION
2
CLASSES
0
CLASS
1
RASTERVARIABLES
2
AcDbRasterVariables
3
ISM
90
0
280
0
281
0
0
ENDSEC
0
SECTION
2
TABLES
0
TABLE
2
VPORT
5
263
100
AcDbSymbolTable
0
VPORT
5
1
100
AcDbSymbolTableRecord
100
AcDbViewportTableRecord
2
*Active
70
0
10
0
20
0
11
1
21
1
12
-1
22
1
13
0
23
0
14
0.5
24
0.5
15
10
25
10
16
0
26
0
36
1
17
0
27
0
37
0
0
ENDTAB
0
TABLE
2
LTYPE
5
264
100
AcDbSymbolTable
0
LTYPE
5
14
100
AcDbSymbolTableRecord
100
AcDbLinetypeTableRecord
70
0
2
ByBlock
3

72
65
73
0
40
0
0
LTYPE
5
15
100
AcDbSymbolTableRecord
100
AcDbLinetypeTableRecord
70
0
2
ByLayer
3

72
65
73
0
40
0
0
LTYPE
5
16
100
AcDbSymbolTableRecord
100
AcDbLinetypeTableRecord
70
0
2
Continuous
3
Solid line
72
65
73
0
40
0
0
LTYPE
5
6E
100
AcDbSymbolTableRecord
100
AcDbLinetypeTableRecord
70
0
2
CENTER
3
____ _ ____ _ ____ _ ____
72
65
73
4
40
47.5
49
22
74
0
49
-8.5
74
0
49
8.5
74
0
49
-8.5
74
0
0
LTYPE
5
6F
100
AcDbSymbolTableRecord
100
AcDbLinetypeTableRecord
70
0
2
DASHED
3
__ __ __ __ __ __ __ __ __
72
65
73
2
40
25.72
49
12.86
74
0
49
-12.86
74
0
0
ENDTAB
0
TABLE
2
LAYER
5
265
100
AcDbSymbolTable
0
LAYER
5
10
100
AcDbSymbolTableRecord
100
AcDbLayerTableRecord
2
0
70
0
62
7
6
Continuous
290
1
370
-3
390
0
0
LAYER
5
71
100
AcDbSymbolTableRecord
100
AcDbLayerTableRecord
2
81
70
0
62
-3
6
Continuous
290
1
370
-3
390
0
0
LAYER
5
73
100
AcDbSymbolTableRecord
100
AcDbLayerTableRecord
2
80
70
0
62
-6
6
Continuous
290
1
370
-3
390
0
0
LAYER
5
75
100
AcDbSymbolTableRecord
100
AcDbLayerTableRecord
2
1
70
0
62
4
6
Continuous
290
1
370
-3
390
0
0
LAYER
5
15D
100
AcDbSymbolTableRecord
100
AcDbLayerTableRecord
2
Defpoints
70
0
62
7
6
Continuous
290
0
370
-3
390
0
0
LAYER
5
16B
100
AcDbSymbolTableRecord
100
AcDbLayerTableRecord
2
2
70
0
62
7
6
Continuous
290
1
370
-3
390
0
0
LAYER
5
250
100
AcDbSymbolTableRecord
100
AcDbLayerTableRecord
2
SK1
70
0
62
4
6
Continuous
290
1
370
-3
390
0
0
LAYER
5
251
100
AcDbSymbolTableRecord
100
AcDbLayerTableRecord
2
SK6
70
0
62
5
6
Continuous
290
1
370
-3
390
0
0
LAYER
5
252
100
AcDbSymbolTableRecord
100
AcDbLayerTableRecord
2
SK2
70
0
62
7
6
Continuous
290
1
370
-3
390
0
0
ENDTAB
0
TABLE
2
STYLE
5
266
100
AcDbSymbolTable
0
STYLE
5
11
100
AcDbSymbolTableRecord
100
AcDbTextStyleTableRecord
2
Standard
3
txt
70
0
71
0
40
0
41
1
42
0
50
0
0
STYLE
5
156
100
AcDbSymbolTableRecord
100
AcDbTextStyleTableRecord
2
iso_b_vert
3
simplex.shx
70
0
71
0
40
0
41
1
42
0
50
0
0
STYLE
5
157
100
AcDbSymbolTableRecord
100
AcDbTextStyleTableRecord
2
DWGDirectTextStyle
3
simplex
70
0
71
0
40
0
41
1
42
0
50
0
0
ENDTAB
0
TABLE
2
DIMSTYLE
5
267
100
AcDbSymbolTable
100
AcDbDimStyleTable
0
DIMSTYLE
105
27
100
AcDbSymbolTableRecord
100
AcDbDimStyleTableRecord
2
Standard
70
0
3
<>
41
0.18
42
0.0625
44
0.18
140
0.18
147
0.09
73
0
74
0
77
1
271
2
275
0
278
52
280
0
340
11
0
ENDTAB
0
TABLE
2
VIEW
5
268
100
AcDbSymbolTable
0
ENDTAB
0
TABLE
2
UCS
5
269
100
AcDbSymbolTable
0
ENDTAB
0
TABLE
2
APPID
5
26a
100
AcDbSymbolTable
0
APPID
5
12
100
AcDbSymbolTableRecord
100
AcDbRegAppTableRecord
2
ACAD
70
0
0
APPID
5
159
100
AcDbSymbolTableRecord
100
AcDbRegAppTableRecord
2
ACAD_DSTYLE_DIMBREAK
70
0
0
APPID
5
20F
100
AcDbSymbolTableRecord
100
AcDbRegAppTableRecord
2
ACAD_DSTYLE_DIM_LINETYPE
70
0
0
APPID
5
210
100
AcDbSymbolTableRecord
100
AcDbRegAppTableRecord
2
ACAD_DSTYLE_DIM_EXT1_LINETYPE
70
0
0
APPID
5
211
100
AcDbSymbolTableRecord
100
AcDbRegAppTableRecord
2
ACAD_DSTYLE_DIM_EXT2_LINETYPE
70
0
0
APPID
5
24C
100
AcDbSymbolTableRecord
100
AcDbRegAppTableRecord
2
ACAD_MLEADERVER
70
0
0
ENDTAB
0
TABLE
2
BLOCK_RECORD
5
26b
100
AcDbSymbolTable
0
BLOCK_RECORD
5
1F
100
AcDbSymbolTableRecord
100
AcDbBlockTableRecord
2
*Model_Space
340
0
70
0
0
BLOCK_RECORD
5
1B
100
AcDbSymbolTableRecord
100
AcDbBlockTableRecord
2
*Paper_Space
340
0
70
0
0
BLOCK_RECORD
5
23
100
AcDbSymbolTableRecord
100
AcDbBlockTableRecord
2
*Paper_Space0
340
0
70
0
0
BLOCK_RECORD
5
15E
100
AcDbSymbolTableRecord
100
AcDbBlockTableRecord
2
*D1
340
0
70
0
0
BLOCK_RECORD
5
16C
100
AcDbSymbolTableRecord
100
AcDbBlockTableRecord
2
_U0
340
0
70
0
0
BLOCK_RECORD
5
178
100
AcDbSymbolTableRecord
100
AcDbBlockTableRecord
2
*D3
340
0
70
0
0
BLOCK_RECORD
5
185
100
AcDbSymbolTableRecord
100
AcDbBlockTableRecord
2
_U1
340
0
70
0
0
BLOCK_RECORD
5
191
100
AcDbSymbolTableRecord
100
AcDbBlockTableRecord
2
*D5
340
0
70
0
0
BLOCK_RECORD
5
19F
100
AcDbSymbolTableRecord
100
AcDbBlockTableRecord
2
_U2
340
0
70
0
0
BLOCK_RECORD
5
1AB
100
AcDbSymbolTableRecord
100
AcDbBlockTableRecord
2
*D7
340
0
70
0
0
BLOCK_RECORD
5
1B8
100
AcDbSymbolTableRecord
100
AcDbBlockTableRecord
2
_U3
340
0
70
0
0
BLOCK_RECORD
5
1C4
100
AcDbSymbolTableRecord
100
AcDbBlockTableRecord
2
*D9
340
0
70
0
0
BLOCK_RECORD
5
1D0
100
AcDbSymbolTableRecord
100
AcDbBlockTableRecord
2
_U4
340
0
70
0
0
BLOCK_RECORD
5
1DC
100
AcDbSymbolTableRecord
100
AcDbBlockTableRecord
2
*D11
340
0
70
0
0
BLOCK_RECORD
5
1E8
100
AcDbSymbolTableRecord
100
AcDbBlockTableRecord
2
_U5
340
0
70
0
0
ENDTAB
0
ENDSEC
0
SECTION
2
BLOCKS
0
BLOCK
5
20
100
AcDbEntity
8
0
100
AcDbBlockBegin
2
*Model_Space
70
0
10
0
20
0
30
0
3
*Model_Space
0
ENDBLK
5
21
100
AcDbEntity
8
0
100
AcDbBlockEnd
0
BLOCK
5
1C
100
AcDbEntity
8
0
100
AcDbBlockBegin
2
*Paper_Space
70
0
10
0
20
0
30
0
3
*Paper_Space
0
ENDBLK
5
1D
100
AcDbEntity
8
0
100
AcDbBlockEnd
0
BLOCK
5
24
100
AcDbEntity
8
0
100
AcDbBlockBegin
2
*Paper_Space0
70
0
10
0
20
0
30
0
3
*Paper_Space0
0
ENDBLK
5
25
100
AcDbEntity
8
0
100
AcDbBlockEnd
0
BLOCK
5
15F
100
AcDbEntity
8
0
100
AcDbBlockBegin
2
*D1
70
1
10
0
20
0
30
0
3
*D1
0
LINE
5
161
100
AcDbEntity
8
0
62
256
6
ByLayer
370
-2
48
1
60
0
100
AcDbLine
10
65.5875
20
-12.5
30
0
11
89.133577
21
-12.5
31
0
39
0
210
0
220
0
230
1
0
LINE
5
162
100
AcDbEntity
8
0
62
256
6
ByLayer
370
-2
48
1
60
0
100
AcDbLine
10
-84.4125
20
0
30
0
11
89.133577
21
0
31
0
39
0
210
0
220
0
230
1
0
LINE
5
163
100
AcDbEntity
8
0
62
256
6
ByLayer
370
-2
48
1
60
0
100
AcDbLine
10
87.133577
20
-16
30
0
11
87.133577
21
-19.5
31
0
39
0
210
0
220
0
230
1
0
LINE
5
164
100
AcDbEntity
8
0
62
256
6
ByLayer
370
-2
48
1
60
0
100
AcDbLine
10
87.133577
20
3.5
30
0
11
87.133577
21
7
31
0
39
0
210
0
220
0
230
1
0
SOLID
5
165
100
AcDbEntity
8
0
62
256
6
ByLayer
370
-1
48
1
60
0
100
AcDbTrace
10
87.71691
20
-16
30
0
11
86.550243
21
-16
31
0
12
87.133577
22
-12.5
32
0
13
87.133577
23
-12.5
33
0
39
0
210
0
220
0
230
1
0
SOLID
5
166
100
AcDbEntity
8
0
62
256
6
ByLayer
370
-1
48
1
60
0
100
AcDbTrace
10
86.550243
20
3.5
30
0
11
87.71691
21
3.5
31
0
12
87.133577
22
0
32
0
13
87.133577
23
0
33
0
39
0
210
0
220
0
230
1
0
MTEXT
5
167
100
AcDbEntity
8
0
62
256
6
ByLayer
370
18
48
1
60
0
100
AcDbMText
10
80.133577
20
-6.25
30
0
210
0
220
0
230
1
1
\A1;12.5
40
3.5
41
0
44
1
50
90
71
5
72
5
7
iso_b_vert
0
POINT
5
168
100
AcDbEntity
8
Defpoints
62
0
6
ByLayer
370
-1
48
1
60
0
100
AcDbPoint
10
64
20
-12.5
30
0
39
0
210
0
220
0
230
1
50
360
0
POINT
5
169
100
AcDbEntity
8
Defpoints
62
0
6
ByLayer
370
-1
48
1
60
0
100
AcDbPoint
10
-86
20
0
30
0
39
0
210
0
220
0
230
1
50
360
0
POINT
5
16A
100
AcDbEntity
8
Defpoints
62
0
6
ByLayer
370
-1
48
1
60
0
100
AcDbPoint
10
87.133577
20
0
30
0
39
0
210
0
220
0
230
1
50
360
0
ENDBLK
5
160
100
AcDbEntity
8
0
100
AcDbBlockEnd
0
BLOCK
5
173
100
AcDbEntity
8
0
100
AcDbBlockBegin
2
_U0
70
0
10
0
20
0
30
0
3
_U0
0
MTEXT
5
16D
100
AcDbEntity
8
2
62
256
6
ByLayer
370
18
48
1
60
0
100
AcDbMText
10
86.443943
20
-9.762266
30
0
210
0
220
0
230
1
1
\W0.6563;12.5
40
3.5
41
0
44
1.084337
50
90
71
7
72
5
7
iso_b_vert
0
LINE
5
16E
100
AcDbEntity
8
2
62
256
6
ByLayer
370
13
48
1
60
0
100
AcDbLine
10
65.5875
20
-12.5
30
0
11
89.133577
21
-12.5
31
0
39
0
210
0
220
0
230
1
0
LINE
5
16F
100
AcDbEntity
8
2
62
256
6
ByLayer
370
13
48
1
60
0
100
AcDbLine
10
-84.4125
20
0
30
0
11
89.133577
21
0
31
0
39
0
210
0
220
0
230
1
0
LINE
5
170
100
AcDbEntity
8
2
62
256
6
ByLayer
370
13
48
1
60
0
100
AcDbLine
10
87.133577
20
-12.5
30
0
11
87.133577
21
0
31
0
39
0
210
0
220
0
230
1
0
SOLID
5
171
100
AcDbEntity
8
2
62
256
6
ByLayer
370
18
48
1
60
0
100
AcDbTrace
10
87.133577
20
-12.5
30
0
11
86.672793
21
-9.000002
31
0
12
87.59436
22
-8.999998
32
0
13
87.59436
23
-8.999998
33
0
39
0
210
0
220
0
230
1
0
SOLID
5
172
100
AcDbEntity
8
2
62
256
6
ByLayer
370
18
48
1
60
0
100
AcDbTrace
10
87.133577
20
0
30
0
11
87.59436
21
-3.499998
31
0
12
86.672793
22
-3.500002
32
0
13
86.672793
23
-3.500002
33
0
39
0
210
0
220
0
230
1
0
ENDBLK
5
174
100
AcDbEntity
8
0
100
AcDbBlockEnd
0
BLOCK
5
179
100
AcDbEntity
8
0
100
AcDbBlockBegin
2
*D3
70
1
10
0
20
0
30
0
3
*D3
0
LINE
5
17B
100
AcDbEntity
8
0
62
256
6
ByLayer
370
-2
48
1
60
0
100
AcDbLine
10
64.3375
20
-8
30
0
11
79.133577
21
-8
31
0
39
0
210
0
220
0
230
1
0
LINE
5
17C
100
AcDbEntity
8
0
62
256
6
ByLayer
370
-2
48
1
60
0
100
AcDbLine
10
65.5875
20
-12.5
30
0
11
79.133577
21
-12.5
31
0
39
0
210
0
220
0
230
1
0
LINE
5
17D
100
AcDbEntity
8
0
62
256
6
ByLayer
370
-2
48
1
60
0
100
AcDbLine
10
77.133577
20
-4.5
30
0
11
77.133577
21
-1
31
0
39
0
210
0
220
0
230
1
0
LINE
5
17E
100
AcDbEntity
8
0
62
256
6
ByLayer
370
-2
48
1
60
0
100
AcDbLine
10
77.133577
20
-16
30
0
11
77.133577
21
-19.5
31
0
39
0
210
0
220
0
230
1
0
SOLID
5
17F
100
AcDbEntity
8
0
62
256
6
ByLayer
370
-1
48
1
60
0
100
AcDbTrace
10
76.550243
20
-4.5
30
0
11
77.71691
21
-4.5
31
0
12
77.133577
22
-8
32
0
13
77.133577
23
-8
33
0
39
0
210
0
220
0
230
1
0
SOLID
5
180
100
AcDbEntity
8
0
62
256
6
ByLayer
370
-1
48
1
60
0
100
AcDbTrace
10
77.71691
20
-16
30
0
11
76.550243
21
-16
31
0
12
77.133577
22
-12.5
32
0
13
77.133577
23
-12.5
33
0
39
0
210
0
220
0
230
1
0
MTEXT
5
181
100
AcDbEntity
8
0
62
256
6
ByLayer
370
18
48
1
60
0
100
AcDbMText
10
70.133577
20
-10.25
30
0
210
0
220
0
230
1
1
\A1;4.5
40
3.5
41
0
44
1
50
90
71
5
72
5
7
iso_b_vert
0
POINT
5
182
100
AcDbEntity
8
Defpoints
62
0
6
ByLayer
370
-1
48
1
60
0
100
AcDbPoint
10
62.75
20
-8
30
0
39
0
210
0
220
0
230
1
50
360
0
POINT
5
183
100
AcDbEntity
8
Defpoints
62
0
6
ByLayer
370
-1
48
1
60
0
100
AcDbPoint
10
64
20
-12.5
30
0
39
0
210
0
220
0
230
1
50
360
0
POINT
5
184
100
AcDbEntity
8
Defpoints
62
0
6
ByLayer
370
-1
48
1
60
0
100
AcDbPoint
10
77.133577
20
-12.5
30
0
39
0
210
0
220
0
230
1
50
360
0
ENDBLK
5
17A
100
AcDbEntity
8
0
100
AcDbBlockEnd
0
BLOCK
5
18C
100
AcDbEntity
8
0
100
AcDbBlockBegin
2
_U1
70
0
10
0
20
0
30
0
3
_U1
0
MTEXT
5
186
100
AcDbEntity
8
2
62
256
6
ByLayer
370
18
48
1
60
0
100
AcDbMText
10
76.443943
20
-13.076233
30
0
210
0
220
0
230
1
1
\W0.7610;4.5
40
3.5
41
0
44
1.084337
50
90
71
7
72
5
7
iso_b_vert
0
LINE
5
187
100
AcDbEntity
8
2
62
256
6
ByLayer
370
13
48
1
60
0
100
AcDbLine
10
64.3375
20
-8
30
0
11
79.133577
21
-8
31
0
39
0
210
0
220
0
230
1
0
LINE
5
188
100
AcDbEntity
8
2
62
256
6
ByLayer
370
13
48
1
60
0
100
AcDbLine
10
65.5875
20
-12.5
30
0
11
79.133577
21
-12.5
31
0
39
0
210
0
220
0
230
1
0
LINE
5
189
100
AcDbEntity
8
2
62
256
6
ByLayer
370
13
48
1
60
0
100
AcDbLine
10
77.133577
20
0.75
30
0
11
77.133577
21
-21.25
31
0
39
0
210
0
220
0
230
1
0
SOLID
5
18A
100
AcDbEntity
8
2
62
256
6
ByLayer
370
18
48
1
60
0
100
AcDbTrace
10
77.133577
20
-8
30
0
11
76.672793
21
-4.500002
31
0
12
77.59436
22
-4.499998
32
0
13
77.59436
23
-4.499998
33
0
39
0
210
0
220
0
230
1
0
SOLID
5
18B
100
AcDbEntity
8
2
62
256
6
ByLayer
370
18
48
1
60
0
100
AcDbTrace
10
77.133577
20
-12.5
30
0
11
77.59436
21
-15.999998
31
0
12
76.672793
22
-16.000002
32
0
13
76.672793
23
-16.000002
33
0
39
0
210
0
220
0
230
1
0
ENDBLK
5
18D
100
AcDbEntity
8
0
100
AcDbBlockEnd
0
BLOCK
5
192
100
AcDbEntity
8
0
100
AcDbBlockBegin
2
*D5
70
1
10
0
20
0
30
0
3
*D5
0
LINE
5
194
100
AcDbEntity
8
0
62
256
6
ByLayer
370
-2
48
1
60
0
100
AcDbLine
10
-87.5875
20
-8
30
0
11
-99.6
21
-8
31
0
39
0
210
0
220
0
230
1
0
LINE
5
195
100
AcDbEntity
8
0
62
256
6
ByLayer
370
-2
48
1
60
0
100
AcDbLine
10
-87.5875
20
8
30
0
11
-99.6
21
8
31
0
39
0
210
0
220
0
230
1
0
LINE
5
196
100
AcDbEntity
8
0
62
256
6
ByLayer
370
-2
48
1
60
0
100
AcDbLine
10
-97.6
20
-11.5
30
0
11
-97.6
21
-15
31
0
39
0
210
0
220
0
230
1
0
LINE
5
197
100
AcDbEntity
8
0
62
256
6
ByLayer
370
-2
48
1
60
0
100
AcDbLine
10
-97.6
20
11.5
30
0
11
-97.6
21
15
31
0
39
0
210
0
220
0
230
1
0
SOLID
5
198
100
AcDbEntity
8
0
62
256
6
ByLayer
370
-1
48
1
60
0
100
AcDbTrace
10
-97.016667
20
-11.5
30
0
11
-98.183333
21
-11.5
31
0
12
-97.6
22
-8
32
0
13
-97.6
23
-8
33
0
39
0
210
0
220
0
230
1
0
SOLID
5
199
100
AcDbEntity
8
0
62
256
6
ByLayer
370
-1
48
1
60
0
100
AcDbTrace
10
-98.183333
20
11.5
30
0
11
-97.016667
21
11.5
31
0
12
-97.6
22
8
32
0
13
-97.6
23
8
33
0
39
0
210
0
220
0
230
1
0
MTEXT
5
19A
100
AcDbEntity
8
0
62
256
6
ByLayer
370
18
48
1
60
0
100
AcDbMText
10
-104.6
20
0
30
0
210
0
220
0
230
1
1
\A1;16
40
3.5
41
0
44
1
50
90
71
5
72
5
7
iso_b_vert
0
POINT
5
19B
100
AcDbEntity
8
Defpoints
62
0
6
ByLayer
370
-1
48
1
60
0
100
AcDbPoint
10
-86
20
-8
30
0
39
0
210
0
220
0
230
1
50
360
0
POINT
5
19C
100
AcDbEntity
8
Defpoints
62
0
6
ByLayer
370
-1
48
1
60
0
100
AcDbPoint
10
-86
20
8
30
0
39
0
210
0
220
0
230
1
50
360
0
POINT
5
19D
100
AcDbEntity
8
Defpoints
62
0
6
ByLayer
370
-1
48
1
60
0
100
AcDbPoint
10
-97.6
20
8
30
0
39
0
210
0
220
0
230
1
50
360
0
ENDBLK
5
193
100
AcDbEntity
8
0
100
AcDbBlockEnd
0
BLOCK
5
1A6
100
AcDbEntity
8
0
100
AcDbBlockBegin
2
_U2
70
0
10
0
20
0
30
0
3
_U2
0
MTEXT
5
1A0
100
AcDbEntity
8
SK2
62
256
6
ByLayer
370
18
48
1
60
0
100
AcDbMText
10
-98.289634
20
-1.495533
30
0
210
0
220
0
230
1
1
\W0.5321;16
40
3.5
41
0
44
1.084337
50
90
71
7
72
5
7
iso_b_vert
0
LINE
5
1A1
100
AcDbEntity
8
SK2
62
256
6
ByLayer
370
13
48
1
60
0
100
AcDbLine
10
-87.5875
20
-8
30
0
11
-99.6
21
-8
31
0
39
0
210
0
220
0
230
1
0
LINE
5
1A2
100
AcDbEntity
8
SK2
62
256
6
ByLayer
370
13
48
1
60
0
100
AcDbLine
10
-87.5875
20
8
30
0
11
-99.6
21
8
31
0
39
0
210
0
220
0
230
1
0
LINE
5
1A3
100
AcDbEntity
8
SK2
62
256
6
ByLayer
370
13
48
1
60
0
100
AcDbLine
10
-97.6
20
-8
30
0
11
-97.6
21
8
31
0
39
0
210
0
220
0
230
1
0
SOLID
5
1A4
100
AcDbEntity
8
SK2
62
256
6
ByLayer
370
18
48
1
60
0
100
AcDbTrace
10
-97.6
20
-8
30
0
11
-98.060784
21
-4.500002
31
0
12
-97.139216
22
-4.499998
32
0
13
-97.139216
23
-4.499998
33
0
39
0
210
0
220
0
230
1
0
SOLID
5
1A5
100
AcDbEntity
8
SK2
62
256
6
ByLayer
370
18
48
1
60
0
100
AcDbTrace
10
-97.6
20
8
30
0
11
-97.139216
21
4.500002
31
0
12
-98.060784
22
4.499998
32
0
13
-98.060784
23
4.499998
33
0
39
0
210
0
220
0
230
1
0
ENDBLK
5
1A7
100
AcDbEntity
8
0
100
AcDbBlockEnd
0
BLOCK
5
1AC
100
AcDbEntity
8
0
100
AcDbBlockBegin
2
*D7
70
1
10
0
20
0
30
0
3
*D7
0
LINE
5
1AE
100
AcDbEntity
8
0
62
256
6
ByLayer
370
-2
48
1
60
0
100
AcDbLine
10
62.5
20
-14.0875
30
0
11
62.5
21
-24.25
31
0
39
0
210
0
220
0
230
1
0
LINE
5
1AF
100
AcDbEntity
8
0
62
256
6
ByLayer
370
-2
48
1
60
0
100
AcDbLine
10
64
20
-14.0875
30
0
11
64
21
-24.25
31
0
39
0
210
0
220
0
230
1
0
LINE
5
1B0
100
AcDbEntity
8
0
62
256
6
ByLayer
370
-2
48
1
60
0
100
AcDbLine
10
59
20
-22.25
30
0
11
55.5
21
-22.25
31
0
39
0
210
0
220
0
230
1
0
LINE
5
1B1
100
AcDbEntity
8
0
62
256
6
ByLayer
370
-2
48
1
60
0
100
AcDbLine
10
67.5
20
-22.25
30
0
11
71
21
-22.25
31
0
39
0
210
0
220
0
230
1
0
SOLID
5
1B2
100
AcDbEntity
8
0
62
256
6
ByLayer
370
-1
48
1
60
0
100
AcDbTrace
10
59
20
-22.833333
30
0
11
59
21
-21.666667
31
0
12
62.5
22
-22.25
32
0
13
62.5
23
-22.25
33
0
39
0
210
0
220
0
230
1
0
SOLID
5
1B3
100
AcDbEntity
8
0
62
256
6
ByLayer
370
-1
48
1
60
0
100
AcDbTrace
10
67.5
20
-21.666667
30
0
11
67.5
21
-22.833333
31
0
12
64
22
-22.25
32
0
13
64
23
-22.25
33
0
39
0
210
0
220
0
230
1
0
MTEXT
5
1B4
100
AcDbEntity
8
0
62
256
6
ByLayer
370
18
48
1
60
0
100
AcDbMText
10
63.25
20
-15.25
30
0
210
0
220
0
230
1
1
\A1;1.5
40
3.5
41
0
44
1
50
0
71
5
72
5
7
iso_b_vert
0
POINT
5
1B5
100
AcDbEntity
8
Defpoints
62
0
6
ByLayer
370
-1
48
1
60
0
100
AcDbPoint
10
62.5
20
-12.5
30
0
39
0
210
0
220
0
230
1
50
360
0
POINT
5
1B6
100
AcDbEntity
8
Defpoints
62
0
6
ByLayer
370
-1
48
1
60
0
100
AcDbPoint
10
64
20
-12.5
30
0
39
0
210
0
220
0
230
1
50
360
0
POINT
5
1B7
100
AcDbEntity
8
Defpoints
62
0
6
ByLayer
370
-1
48
1
60
0
100
AcDbPoint
10
64
20
-22.25
30
0
39
0
210
0
220
0
230
1
50
360
0
ENDBLK
5
1AD
100
AcDbEntity
8
0
100
AcDbBlockEnd
0
BLOCK
5
1BF
100
AcDbEntity
8
0
100
AcDbBlockBegin
2
_U3
70
0
10
0
20
0
30
0
3
_U3
0
MTEXT
5
1B9
100
AcDbEntity
8
2
62
256
6
ByLayer
370
18
48
1
60
0
100
AcDbMText
10
61.073467
20
-21.217366
30
0
210
0
220
0
230
1
1
\W0.6004;1.5
40
3.5
41
0
44
1.084337
50
0
71
7
72
5
7
iso_b_vert
0
LINE
5
1BA
100
AcDbEntity
8
2
62
256
6
ByLayer
370
13
48
1
60
0
100
AcDbLine
10
62.5
20
-14.0875
30
0
11
62.5
21
-24.25
31
0
39
0
210
0
220
0
230
1
0
LINE
5
1BB
100
AcDbEntity
8
2
62
256
6
ByLayer
370
13
48
1
60
0
100
AcDbLine
10
64
20
-14.0875
30
0
11
64
21
-24.25
31
0
39
0
210
0
220
0
230
1
0
LINE
5
1BC
100
AcDbEntity
8
2
62
256
6
ByLayer
370
13
48
1
60
0
100
AcDbLine
10
53.75
20
-22.25
30
0
11
72.75
21
-22.25
31
0
39
0
210
0
220
0
230
1
0
SOLID
5
1BD
100
AcDbEntity
8
2
62
256
6
ByLayer
370
18
48
1
60
0
100
AcDbTrace
10
62.5
20
-22.25
30
0
11
59.000002
21
-22.710784
31
0
12
58.999998
22
-21.789216
32
0
13
58.999998
23
-21.789216
33
0
39
0
210
0
220
0
230
1
0
SOLID
5
1BE
100
AcDbEntity
8
2
62
256
6
ByLayer
370
18
48
1
60
0
100
AcDbTrace
10
64
20
-22.25
30
0
11
67.499998
21
-21.789216
31
0
12
67.500002
22
-22.710784
32
0
13
67.500002
23
-22.710784
33
0
39
0
210
0
220
0
230
1
0
ENDBLK
5
1C0
100
AcDbEntity
8
0
100
AcDbBlockEnd
0
BLOCK
5
1C5
100
AcDbEntity
8
0
100
AcDbBlockBegin
2
*D9
70
1
10
0
20
0
30
0
3
*D9
0
LINE
5
1C7
100
AcDbEntity
8
0
62
256
6
ByLayer
370
-2
48
1
60
0
100
AcDbLine
10
-86
20
1.5875
30
0
11
-86
21
25.25
31
0
39
0
210
0
220
0
230
1
0
LINE
5
1C8
100
AcDbEntity
8
0
62
256
6
ByLayer
370
-2
48
1
60
0
100
AcDbLine
10
64
20
-10.9125
30
0
11
64
21
25.25
31
0
39
0
210
0
220
0
230
1
0
LINE
5
1C9
100
AcDbEntity
8
0
62
256
6
ByLayer
370
-2
48
1
60
0
100
AcDbLine
10
-82.5
20
23.25
30
0
11
60.5
21
23.25
31
0
39
0
210
0
220
0
230
1
0
SOLID
5
1CA
100
AcDbEntity
8
0
62
256
6
ByLayer
370
-1
48
1
60
0
100
AcDbTrace
10
-82.5
20
23.833333
30
0
11
-82.5
21
22.666667
31
0
12
-86
22
23.25
32
0
13
-86
23
23.25
33
0
39
0
210
0
220
0
230
1
0
SOLID
5
1CB
100
AcDbEntity
8
0
62
256
6
ByLayer
370
-1
48
1
60
0
100
AcDbTrace
10
60.5
20
22.666667
30
0
11
60.5
21
23.833333
31
0
12
64
22
23.25
32
0
13
64
23
23.25
33
0
39
0
210
0
220
0
230
1
0
MTEXT
5
1CC
100
AcDbEntity
8
0
62
256
6
ByLayer
370
18
48
1
60
0
100
AcDbMText
10
-11
20
30.25
30
0
210
0
220
0
230
1
1
\A1;150
40
3.5
41
0
44
1
50
0
71
5
72
5
7
iso_b_vert
0
POINT
5
1CD
100
AcDbEntity
8
Defpoints
62
0
6
ByLayer
370
-1
48
1
60
0
100
AcDbPoint
10
-86
20
0
30
0
39
0
210
0
220
0
230
1
50
360
0
POINT
5
1CE
100
AcDbEntity
8
Defpoints
62
0
6
ByLayer
370
-1
48
1
60
0
100
AcDbPoint
10
64
20
-12.5
30
0
39
0
210
0
220
0
230
1
50
360
0
POINT
5
1CF
100
AcDbEntity
8
Defpoints
62
0
6
ByLayer
370
-1
48
1
60
0
100
AcDbPoint
10
64
20
23.25
30
0
39
0
210
0
220
0
230
1
50
360
0
ENDBLK
5
1C6
100
AcDbEntity
8
0
100
AcDbBlockEnd
0
BLOCK
5
1D7
100
AcDbEntity
8
0
100
AcDbBlockBegin
2
_U4
70
0
10
0
20
0
30
0
3
_U4
0
MTEXT
5
1D1
100
AcDbEntity
8
SK2
62
256
6
ByLayer
370
18
48
1
60
0
100
AcDbMText
10
-13.775266
20
24.282634
30
0
210
0
220
0
230
1
1
\W0.6217;150
40
3.5
41
0
44
1.084337
50
0
71
7
72
5
7
iso_b_vert
0
LINE
5
1D2
100
AcDbEntity
8
SK2
62
256
6
ByLayer
370
13
48
1
60
0
100
AcDbLine
10
-86
20
1.5875
30
0
11
-86
21
25.25
31
0
39
0
210
0
220
0
230
1
0
LINE
5
1D3
100
AcDbEntity
8
SK2
62
256
6
ByLayer
370
13
48
1
60
0
100
AcDbLine
10
64
20
-10.9125
30
0
11
64
21
25.25
31
0
39
0
210
0
220
0
230
1
0
LINE
5
1D4
100
AcDbEntity
8
SK2
62
256
6
ByLayer
370
13
48
1
60
0
100
AcDbLine
10
-86
20
23.25
30
0
11
64
21
23.25
31
0
39
0
210
0
220
0
230
1
0
SOLID
5
1D5
100
AcDbEntity
8
SK2
62
256
6
ByLayer
370
18
48
1
60
0
100
AcDbTrace
10
-86
20
23.25
30
0
11
-82.500002
21
23.710784
31
0
12
-82.499998
22
22.789216
32
0
13
-82.499998
23
22.789216
33
0
39
0
210
0
220
0
230
1
0
SOLID
5
1D6
100
AcDbEntity
8
SK2
62
256
6
ByLayer
370
18
48
1
60
0
100
AcDbTrace
10
64
20
23.25
30
0
11
60.500002
21
22.789216
31
0
12
60.499998
22
23.710784
32
0
13
60.499998
23
23.710784
33
0
39
0
210
0
220
0
230
1
0
ENDBLK
5
1D8
100
AcDbEntity
8
0
100
AcDbBlockEnd
0
BLOCK
5
1DD
100
AcDbEntity
8
0
100
AcDbBlockBegin
2
*D11
70
1
10
0
20
0
30
0
3
*D11
0
LINE
5
1DF
100
AcDbEntity
8
0
62
256
6
ByLayer
370
-2
48
1
60
0
100
AcDbLine
10
0
20
-1.5875
30
0
11
0
21
-40.25
31
0
39
0
210
0
220
0
230
1
0
LINE
5
1E0
100
AcDbEntity
8
0
62
256
6
ByLayer
370
-2
48
1
60
0
100
AcDbLine
10
64
20
-14.0875
30
0
11
64
21
-40.25
31
0
39
0
210
0
220
0
230
1
0
LINE
5
1E1
100
AcDbEntity
8
0
62
256
6
ByLayer
370
-2
48
1
60
0
100
AcDbLine
10
3.5
20
-38.25
30
0
11
60.5
21
-38.25
31
0
39
0
210
0
220
0
230
1
0
SOLID
5
1E2
100
AcDbEntity
8
0
62
256
6
ByLayer
370
-1
48
1
60
0
100
AcDbTrace
10
3.5
20
-37.666667
30
0
11
3.5
21
-38.833333
31
0
12
0
22
-38.25
32
0
13
0
23
-38.25
33
0
39
0
210
0
220
0
230
1
0
SOLID
5
1E3
100
AcDbEntity
8
0
62
256
6
ByLayer
370
-1
48
1
60
0
100
AcDbTrace
10
60.5
20
-38.833333
30
0
11
60.5
21
-37.666667
31
0
12
64
22
-38.25
32
0
13
64
23
-38.25
33
0
39
0
210
0
220
0
230
1
0
MTEXT
5
1E4
100
AcDbEntity
8
0
62
256
6
ByLayer
370
18
48
1
60
0
100
AcDbMText
10
32
20
-31.25
30
0
210
0
220
0
230
1
1
\A1;64
40
3.5
41
0
44
1
50
0
71
5
72
5
7
iso_b_vert
0
POINT
5
1E5
100
AcDbEntity
8
Defpoints
62
0
6
ByLayer
370
-1
48
1
60
0
100
AcDbPoint
10
0
20
0
30
0
39
0
210
0
220
0
230
1
50
360
0
POINT
5
1E6
100
AcDbEntity
8
Defpoints
62
0
6
ByLayer
370
-1
48
1
60
0
100
AcDbPoint
10
64
20
-12.5
30
0
39
0
210
0
220
0
230
1
50
360
0
POINT
5
1E7
100
AcDbEntity
8
Defpoints
62
0
6
ByLayer
370
-1
48
1
60
0
100
AcDbPoint
10
64
20
-38.25
30
0
39
0
210
0
220
0
230
1
50
360
0
ENDBLK
5
1DE
100
AcDbEntity
8
0
100
AcDbBlockEnd
0
BLOCK
5
1EF
100
AcDbEntity
8
0
100
AcDbBlockBegin
2
_U5
70
0
10
0
20
0
30
0
3
_U5
0
MTEXT
5
1E9
100
AcDbEntity
8
SK2
62
256
6
ByLayer
370
18
48
1
60
0
100
AcDbMText
10
29.910767
20
-37.217366
30
0
210
0
220
0
230
1
1
\W0.7167;64
40
3.5
41
0
44
1.084337
50
0
71
7
72
5
7
iso_b_vert
0
LINE
5
1EA
100
AcDbEntity
8
SK2
62
256
6
ByLayer
370
13
48
1
60
0
100
AcDbLine
10
0
20
-1.5875
30
0
11
0
21
-40.25
31
0
39
0
210
0
220
0
230
1
0
LINE
5
1EB
100
AcDbEntity
8
SK2
62
256
6
ByLayer
370
13
48
1
60
0
100
AcDbLine
10
64
20
-14.0875
30
0
11
64
21
-40.25
31
0
39
0
210
0
220
0
230
1
0
LINE
5
1EC
100
AcDbEntity
8
SK2
62
256
6
ByLayer
370
13
48
1
60
0
100
AcDbLine
10
0
20
-38.25
30
0
11
64
21
-38.25
31
0
39
0
210
0
220
0
230
1
0
SOLID
5
1ED
100
AcDbEntity
8
SK2
62
256
6
ByLayer
370
18
48
1
60
0
100
AcDbTrace
10
0
20
-38.25
30
0
11
3.499998
21
-37.789216
31
0
12
3.500002
22
-38.710784
32
0
13
3.500002
23
-38.710784
33
0
39
0
210
0
220
0
230
1
0
SOLID
5
1EE
100
AcDbEntity
8
SK2
62
256
6
ByLayer
370
18
48
1
60
0
100
AcDbTrace
10
64
20
-38.25
30
0
11
60.500002
21
-38.710784
31
0
12
60.499998
22
-37.789216
32
0
13
60.499998
23
-37.789216
33
0
39
0
210
0
220
0
230
1
0
ENDBLK
5
1F0
100
AcDbEntity
8
0
100
AcDbBlockEnd
0
ENDSEC
0
SECTION
2
ENTITIES
0
ARC
5
EC
100
AcDbEntity
8
1
62
256
6
ByLayer
370
18
48
1
60
0
100
AcDbCircle
39
0
10
58.75
20
2.775
30
0
40
4.99999999999674
210
0
220
0
230
1
100
AcDbArc
50
55.254634
51
57.40648
0
ARC
5
ED
100
AcDbEntity
8
1
62
256
6
ByLayer
370
18
48
1
60
0
100
AcDbCircle
39
0
10
61.75
20
-7.9925
30
0
40
1.00000000000175
210
0
220
0
230
1
100
AcDbArc
50
360
51
60
0
ARC
5
EE
100
AcDbEntity
8
1
62
256
6
ByLayer
370
18
48
1
60
0
100
AcDbCircle
39
0
10
58.75
20
2.775
30
0
40
5.00000000056598
210
0
220
0
230
1
100
AcDbArc
50
360
51
20.797736
0
ARC
5
EF
100
AcDbEntity
8
1
62
256
6
ByLayer
370
18
48
1
60
0
100
AcDbCircle
39
0
10
39
20
8
30
0
40
1.00000000000001
210
0
220
0
230
1
100
AcDbArc
50
180
51
270
0
ELLIPSE
5
F0
100
AcDbEntity
8
1
62
256
6
ByLayer
370
18
48
1
60
0
100
AcDbEllipse
10
62.052758
20
-2.5
30
0
11
28.3463135337097
21
1.49749012771042
31
0
210
0
220
0
230
1
40
0.330951
41
1.56929749056339
42
1.76596362297576
0
ELLIPSE
5
F1
100
AcDbEntity
8
1
62
256
6
ByLayer
370
18
48
1
60
0
100
AcDbEllipse
10
58.905391
20
-2.5
30
0
11
28.3463135337839
21
1.49749012779145
31
0
210
0
220
0
230
1
40
0.330951
41
1.4636732223511
42
1.66160087435154
0
ELLIPSE
5
F2
100
AcDbEntity
8
1
62
256
6
ByLayer
370
18
48
1
60
0
100
AcDbEllipse
10
57.528642
20
-1.392691
30
0
11
-2.88373098182026
21
-2.77202013421439
31
0
210
0
220
0
230
1
40
0.924024
41
0.09790374098366
42
3.04363784718198
0
ELLIPSE
5
F3
100
AcDbEntity
8
1
62
256
6
ByLayer
370
18
48
1
60
0
100
AcDbEllipse
10
58.029161
20
-1.91338
30
0
11
-2.88373098182026
21
-2.77202013421439
31
0
210
0
220
0
230
1
40
0.924024
41
0
42
6.28318530717959
0
ELLIPSE
5
F4
100
AcDbEntity
8
1
62
256
6
ByLayer
370
18
48
1
60
0
100
AcDbEllipse
10
62.25
20
-8.043314
30
0
11
0.254422015532173
21
-2.25706951331831
31
0
210
0
220
0
230
1
40
0.428473
41
2.88434264861053
42
-2.20122924750427
0
ELLIPSE
5
F5
100
AcDbEntity
8
1
62
256
6
ByLayer
370
18
48
1
60
0
100
AcDbEllipse
10
80.027902
20
0
30
0
11
27.7426760658384
21
2.34030155603135
31
0
210
0
220
0
230
1
40
0.261581
41
2.19016623929642
42
2.25293340322964
0
ELLIPSE
5
F6
100
AcDbEntity
8
1
62
256
6
ByLayer
370
18
48
1
60
0
100
AcDbEllipse
10
80.027903
20
0
30
0
11
27.5607572096859
21
2.32495527927429
31
0
210
0
220
0
230
1
40
0.261581
41
2.2735852130074
42
-2.33880249743703
0
ELLIPSE
5
F7
100
AcDbEntity
8
1
62
256
6
ByLayer
370
18
48
1
60
0
100
AcDbEllipse
10
63.099823
20
0
30
0
11
23.1992196777824
21
1.22557742043231
31
0
210
0
220
0
230
1
40
0.330951
41
-2.2553394180921
42
-2.18158697257454
0
ELLIPSE
5
F8
100
AcDbEntity
8
1
62
256
6
ByLayer
370
18
48
1
60
0
100
AcDbEllipse
10
63.25
20
-6.859603
30
0
11
1.3056848629985E-14
21
3.40377670182937
31
0
210
0
220
0
230
1
40
0.088137
41
2.79252680302989
42
-2.79252680302989
0
ELLIPSE
5
F9
100
AcDbEntity
8
1
62
256
6
ByLayer
370
18
48
1
60
0
100
AcDbEllipse
10
57.714114
20
-1.585637
30
0
11
-0.930219521460669
21
-0.894184394794208
31
0
210
0
220
0
230
1
40
0.924024
41
-0.156850204321505
42
0.242050229564051
0
ELLIPSE
5
FA
100
AcDbEntity
8
1
62
256
6
ByLayer
370
18
48
1
60
0
100
AcDbEllipse
10
57.714114
20
-1.585637
30
0
11
-0.930219521460669
21
-0.894184394794208
31
0
210
0
220
0
230
1
40
0.924024
41
0.242050229564062
42
1.28924778076068
0
ELLIPSE
5
FB
100
AcDbEntity
8
1
62
256
6
ByLayer
370
18
48
1
60
0
100
AcDbEllipse
10
57.714114
20
-1.585637
30
0
11
-0.930219521460669
21
-0.894184394794208
31
0
210
0
220
0
230
1
40
0.924024
41
1.28924778076067
42
2.33644533195727
0
ELLIPSE
5
FC
100
AcDbEntity
8
1
62
256
6
ByLayer
370
18
48
1
60
0
100
AcDbEllipse
10
57.714114
20
-1.585637
30
0
11
0.930219521460669
21
0.894184394794208
31
0
210
0
220
0
230
1
40
0.924024
41
-0.805147321632521
42
-0.1616769997544
0
ELLIPSE
5
FD
100
AcDbEntity
8
1
62
256
6
ByLayer
370
18
48
1
60
0
100
AcDbEllipse
10
57.714114
20
-1.585637
30
0
11
-0.930219521460669
21
-0.894184394794208
31
0
210
0
220
0
230
1
40
0.924024
41
-2.83522162305433
42
-2.65315614910097
0
ELLIPSE
5
FE
100
AcDbEntity
8
1
62
256
6
ByLayer
370
18
48
1
60
0
100
AcDbEllipse
10
58.329437
20
-2.82045
30
0
11
0.340991464527942
21
0.193286050234665
31
0
210
0
220
0
230
1
40
0.457465
41
0.264495054523863
42
1.54635848038309
0
ELLIPSE
5
FF
100
AcDbEntity
8
1
62
256
6
ByLayer
370
18
48
1
60
0
100
AcDbEllipse
10
58.329437
20
-2.82045
30
0
11
0.340991464525338
21
0.193286050234118
31
0
210
0
220
0
230
1
40
0.457465
41
1.54635848037811
42
2.82822190624453
0
ELLIPSE
5
100
100
AcDbEntity
8
1
62
256
6
ByLayer
370
18
48
1
60
0
100
AcDbEllipse
10
58.892659
20
-2.298605
30
0
11
0.218551392451915
21
0.326037712648333
31
0
210
0
220
0
230
1
40
0.456186
41
2.96691082390406
42
-0.476040903045939
0
ELLIPSE
5
101
100
AcDbEntity
8
1
62
256
6
ByLayer
370
18
48
1
60
0
100
AcDbEllipse
10
59.139953
20
-1.585637
30
0
11
0.0392381398213194
21
0.378353473363552
31
0
210
0
220
0
230
1
40
0.485742
41
0.339265490835179
42
1.6211289167008
0
ELLIPSE
5
102
100
AcDbEntity
8
1
62
256
6
ByLayer
370
18
48
1
60
0
100
AcDbEllipse
10
59.139953
20
-1.585637
30
0
11
0.0392381398199323
21
0.378353473364551
31
0
210
0
220
0
230
1
40
0.485742
41
1.62112891669091
42
2.9029923425536
0
ELLIPSE
5
103
100
AcDbEntity
8
1
62
256
6
ByLayer
370
18
48
1
60
0
100
AcDbEllipse
10
57.601411
20
-3.011573
30
0
11
0.379088904268665
21
0.00942849166916331
31
0
210
0
220
0
230
1
40
0.488761
41
-1.74304446853955
42
0.145052631424839
0
ELLIPSE
5
104
100
AcDbEntity
8
1
62
256
6
ByLayer
370
18
48
1
60
0
100
AcDbEllipse
10
57.528642
20
-1.392691
30
0
11
2.73954443272924
21
2.63341912750367
31
0
210
0
220
0
230
1
40
0.924024
41
8.20586499484923E-05
42
0.16049972031497
0
ELLIPSE
5
105
100
AcDbEntity
8
1
62
256
6
ByLayer
370
18
48
1
60
0
100
AcDbEllipse
10
57.528642
20
-1.392691
30
0
11
2.73954443272924
21
2.63341912750367
31
0
210
0
220
0
230
1
40
0.924024
41
2.98106087771984
42
3.14157672381392
0
ELLIPSE
5
106
100
AcDbEntity
8
1
62
256
6
ByLayer
370
18
48
1
60
0
100
AcDbEllipse
10
56.903597
20
-2.82045
30
0
11
0.315807576032801
21
-0.185067339717872
31
0
210
0
220
0
230
1
40
0.524557
41
1.05196720487057
42
1.54414197917791
0
ELLIPSE
5
107
100
AcDbEntity
8
1
62
256
6
ByLayer
370
18
48
1
60
0
100
AcDbEllipse
10
56.903597
20
-2.82045
30
0
11
0.315807576037016
21
-0.185067339719396
31
0
210
0
220
0
230
1
40
0.524557
41
1.54414197917328
42
2.82600540502947
0
ELLIPSE
5
108
100
AcDbEntity
8
1
62
256
6
ByLayer
370
18
48
1
60
0
100
AcDbEllipse
10
59.005362
20
-0.872669
30
0
11
0.158306018358054
21
-0.330746191190581
31
0
210
0
220
0
230
1
40
0.522726
41
-0.165507014696143
42
1.05075077306238
0
ELLIPSE
5
109
100
AcDbEntity
8
1
62
256
6
ByLayer
370
18
48
1
60
0
100
AcDbEllipse
10
57.634626
20
-1.502946
30
0
11
2.73954443272924
21
2.63341912750367
31
0
210
0
220
0
230
1
40
0.924024
41
-0.805147381253942
42
-2.52949234088055E-16
0
ELLIPSE
5
10A
100
AcDbEntity
8
1
62
256
6
ByLayer
370
18
48
1
60
0
100
AcDbEllipse
10
57.634626
20
-1.502946
30
0
11
2.73954443272924
21
2.63341912750367
31
0
210
0
220
0
230
1
40
0.924024
41
0
42
0.254845771130602
0
ELLIPSE
5
10B
100
AcDbEntity
8
1
62
256
6
ByLayer
370
18
48
1
60
0
100
AcDbEllipse
10
57.634626
20
-1.502946
30
0
11
2.73954443272924
21
2.63341912750367
31
0
210
0
220
0
230
1
40
0.924024
41
2.88671489292256
42
-0.80514738125395
0
ELLIPSE
5
10C
100
AcDbEntity
8
1
62
256
6
ByLayer
370
18
48
1
60
0
100
AcDbEllipse
10
58.111553
20
-1.999093
30
0
11
-1.20857165448087
21
-1.16175363824925
31
0
210
0
220
0
230
1
40
0.924024
41
2.86004410755556
42
-2.37594364842738
0
ELLIPSE
5
10D
100
AcDbEntity
8
1
62
256
6
ByLayer
370
18
48
1
60
0
100
AcDbEllipse
10
58.111553
20
-1.999093
30
0
11
-1.20857165448087
21
-1.16175363824925
31
0
210
0
220
0
230
1
40
0.924024
41
1.81284655635898
42
2.86004410755556
0
ELLIPSE
5
10E
100
AcDbEntity
8
1
62
256
6
ByLayer
370
18
48
1
60
0
100
AcDbEllipse
10
58.111553
20
-1.999093
30
0
11
-1.20857165448087
21
-1.16175363824925
31
0
210
0
220
0
230
1
40
0.924024
41
0.76564900516236
42
1.81284655635898
0
ELLIPSE
5
10F
100
AcDbEntity
8
1
62
256
6
ByLayer
370
18
48
1
60
0
100
AcDbEllipse
10
58.111553
20
-1.999093
30
0
11
-1.20857165448087
21
-1.16175363824925
31
0
210
0
220
0
230
1
40
0.924024
41
-0.281548546034224
42
0.76564900516236
0
ELLIPSE
5
110
100
AcDbEntity
8
1
62
256
6
ByLayer
370
18
48
1
60
0
100
AcDbEllipse
10
58.111553
20
-1.999093
30
0
11
-1.20857165448087
21
-1.16175363824925
31
0
210
0
220
0
230
1
40
0.924024
41
-1.32874609723083
42
-0.281548546034224
0
ELLIPSE
5
111
100
AcDbEntity
8
1
62
256
6
ByLayer
370
18
48
1
60
0
100
AcDbEllipse
10
58.111553
20
-1.999093
30
0
11
-1.20857165448087
21
-1.16175363824925
31
0
210
0
220
0
230
1
40
0.924024
41
-2.37594364842738
42
-1.32874609723083
0
ELLIPSE
5
112
100
AcDbEntity
8
1
62
256
6
ByLayer
370
18
48
1
60
0
100
AcDbEllipse
10
58.111553
20
-1.999093
30
0
11
1.73023858909215
21
1.66321208052864
31
0
210
0
220
0
230
1
40
0.924024
41
0
42
6.28318530717959
0
POINT
5
70
100
AcDbEntity
8
81
62
256
6
ByLayer
370
18
48
1
60
0
100
AcDbPoint
10
64
20
-12.5
30
0
39
0
210
0
220
0
230
1
50
360
0
POINT
5
72
100
AcDbEntity
8
80
62
256
6
ByLayer
370
18
48
1
60
0
100
AcDbPoint
10
0
20
0
30
0
39
0
210
0
220
0
230
1
50
360
0
POINT
5
74
100
AcDbEntity
8
1
62
256
6
ByLayer
370
18
48
1
60
1
100
AcDbPoint
10
64
20
-12.5
30
0
39
0
210
0
220
0
230
1
50
360
0
POINT
5
76
100
AcDbEntity
8
1
62
256
6
ByLayer
370
18
48
1
60
1
100
AcDbPoint
10
-86
20
0
30
0
39
0
210
0
220
0
230
1
50
360
0
POINT
5
77
100
AcDbEntity
8
1
62
256
6
ByLayer
370
18
48
1
60
1
100
AcDbPoint
10
62.75
20
-8
30
0
39
0
210
0
220
0
230
1
50
360
0
POINT
5
78
100
AcDbEntity
8
1
62
256
6
ByLayer
370
18
48
1
60
1
100
AcDbPoint
10
64
20
-12.5
30
0
39
0
210
0
220
0
230
1
50
360
0
POINT
5
79
100
AcDbEntity
8
1
62
256
6
ByLayer
370
18
48
1
60
1
100
AcDbPoint
10
-86
20
-8
30
0
39
0
210
0
220
0
230
1
50
360
0
POINT
5
7A
100
AcDbEntity
8
1
62
256
6
ByLayer
370
18
48
1
60
1
100
AcDbPoint
10
-86
20
8
30
0
39
0
210
0
220
0
230
1
50
360
0
POINT
5
7B
100
AcDbEntity
8
1
62
256
6
ByLayer
370
18
48
1
60
1
100
AcDbPoint
10
62.5
20
-12.5
30
0
39
0
210
0
220
0
230
1
50
360
0
POINT
5
7C
100
AcDbEntity
8
1
62
256
6
ByLayer
370
18
48
1
60
1
100
AcDbPoint
10
64
20
-12.5
30
0
39
0
210
0
220
0
230
1
50
360
0
POINT
5
7D
100
AcDbEntity
8
1
62
256
6
ByLayer
370
18
48
1
60
1
100
AcDbPoint
10
-86
20
0
30
0
39
0
210
0
220
0
230
1
50
360
0
POINT
5
7E
100
AcDbEntity
8
1
62
256
6
ByLayer
370
18
48
1
60
1
100
AcDbPoint
10
64
20
-12.5
30
0
39
0
210
0
220
0
230
1
50
360
0
POINT
5
7F
100
AcDbEntity
8
1
62
256
6
ByLayer
370
18
48
1
60
1
100
AcDbPoint
10
64
20
-12.5
30
0
39
0
210
0
220
0
230
1
50
360
0
SPLINE
5
113
100
AcDbEntity
8
1
62
256
6
ByLayer
370
18
48
1
60
0
100
AcDbSpline
70
4
71
3
72
18
73
14
40
0
40
0
40
0
40
0
40
0.125000000000058
40
0.125000000000058
40
0.250000000000115
40
0.250000000000115
40
0.50000000000023
40
0.50000000000023
40
0.625000000000172
40
0.625000000000172
40
0.750000000000114
40
0.750000000000114
40
1
40
1
40
1
40
1
41
1
10
63.0747513989021
20
-8.11843645190712
30
0
41
1
10
63.0887228038181
20
-8.12269315201641
30
0
41
1
10
63.102935139689
20
-8.12644192706031
30
0
41
1
10
63.1318479280412
20
-8.13291044100157
30
0
41
1
10
63.1464522851094
20
-8.13560637338716
30
0
41
1
10
63.1904307470524
20
-8.14206359326812
30
0
41
1
10
63.2200816057013
20
-8.14423343038186
30
0
41
1
10
63.2650646470417
20
-8.14422829319412
30
0
41
1
10
63.2802198112535
20
-8.14367071027979
30
0
41
1
10
63.3101025873017
20
-8.14146902084525
30
0
41
1
10
63.3248782688267
20
-8.13983060240457
30
0
41
1
10
63.3687221359831
20
-8.13334785585494
30
0
41
1
10
63.397310921076
20
-8.12694828921425
30
0
41
1
10
63.4252486010977
20
-8.11843645190683
30
0
0
SPLINE
5
114
100
AcDbEntity
8
1
62
256
6
ByLayer
370
18
48
1
60
0
100
AcDbSpline
70
4
71
3
72
8
73
4
40
0
40
0
40
0
40
0
40
1
40
1
40
1
40
1
41
1
10
63.4252486010977
20
-8.11843645190686
30
0
41
1
10
63.533823073723
20
-8.08535681730552
30
0
41
1
10
63.6421225939967
20
-8.05179330711368
30
0
41
1
10
63.75
20
-8.01748693805678
30
0
0
SPLINE
5
115
100
AcDbEntity
8
1
62
256
6
ByLayer
370
18
48
1
60
0
100
AcDbSpline
70
4
71
3
72
8
73
4
40
0
40
0
40
0
40
0
40
1
40
1
40
1
40
1
41
1
10
62.7499999999999
20
-8.01748693805675
30
0
41
1
10
62.8578657829152
20
-8.05178961082578
30
0
41
1
10
62.9661667642426
20
-8.08535372121514
30
0
41
1
10
63.0747513989022
20
-8.11843645190689
30
0
0
SPLINE
5
116
100
AcDbEntity
8
1
62
256
6
ByLayer
370
18
48
1
60
0
100
AcDbSpline
70
4
71
3
72
14
73
10
40
0
40
0
40
0
40
0
40
0.249999999999856
40
0.249999999999856
40
0.374999999999842
40
0.374999999999842
40
0.499999999999827
40
0.499999999999827
40
1
40
1
40
1
40
1
41
1
10
62.25
20
-7.12647459621579
30
0
41
1
10
62.2098747824802
20
-7.10330829107946
30
0
41
1
10
62.1686048967184
20
-7.08319626810982
30
0
41
1
10
62.1054832855783
20
-7.05754146200445
30
0
41
1
10
62.0841804389412
20
-7.0497241406384
30
0
41
1
10
62.0415819958127
20
-7.03569133235334
30
0
41
1
10
62.0202997363359
20
-7.02947444760901
30
0
41
1
10
61.9141897812428
20
-7.00218474308306
30
0
41
1
10
61.8302433786457
20
-6.99250000000023
30
0
41
1
10
61.75
20
-6.99250000000023
30
0
0
SPLINE
5
117
100
AcDbEntity
8
1
62
256
6
ByLayer
370
18
48
1
60
0
100
AcDbSpline
70
4
71
3
72
26
73
22
40
0
40
0
40
0
40
0
40
0.125000000000004
40
0.125000000000004
40
0.187500000000006
40
0.187500000000006
40
0.250000000000008
40
0.250000000000008
40
0.375000000000006
40
0.375000000000006
40
0.500000000000005
40
0.500000000000005
40
0.625000000000004
40
0.625000000000004
40
0.750000000000003
40
0.750000000000003
40
0.875000000000001
40
0.875000000000001
40
0.937500000000001
40
0.937500000000001
40
1
40
1
40
1
40
1
41
1
10
61.5996496894126
20
6.88346645935303
30
0
41
1
10
61.643221233612
20
6.85324505226026
30
0
41
1
10
61.6934037878746
20
6.81741514877191
30
0
41
1
10
61.7760968035874
20
6.75544277168891
30
0
41
1
10
61.8049001684594
20
6.73341177379857
30
0
41
1
10
61.8646047373086
20
6.68660787151973
30
0
41
1
10
61.8953659953264
20
6.66194387117022
30
0
41
1
10
61.9897500891166
20
6.58428588698828
30
0
41
1
10
62.055479749575
20
6.52761379414804
30
0
41
1
10
62.1900450706233
20
6.40465515923486
30
0
41
1
10
62.2588874865711
20
6.33836693521013
30
0
41
1
10
62.3977037904885
20
6.1961302759789
30
0
41
1
10
62.4676831775584
20
6.12018129718999
30
0
41
1
10
62.6071325991779
20
5.95838408492122
30
0
41
1
10
62.6766071880691
20
5.87253617811169
30
0
41
1
10
62.8135906064139
20
5.69051123605652
30
0
41
1
10
62.8811035794982
20
5.59433537496759
30
0
41
1
10
62.9798485401453
20
5.44184242367297
30
0
41
1
10
63.0123782049337
20
5.38957668514632
30
0
41
1
10
63.0761832767107
20
5.28259196455755
30
0
41
1
10
63.1074679412972
20
5.22786429628192
30
0
41
1
10
63.138050846831
20
5.17187499999986
30
0
0
SPLINE
5
118
100
AcDbEntity
8
1
62
256
6
ByLayer
370
18
48
1
60
0
100
AcDbSpline
70
4
71
3
72
120
73
116
40
0
40
0
40
0
40
0
40
0.0312500000000112
40
0.0312500000000112
40
0.046875000000017
40
0.046875000000017
40
0.0546875000000199
40
0.0546875000000199
40
0.0625000000000228
40
0.0625000000000228
40
0.0937500000000349
40
0.0937500000000349
40
0.125000000000047
40
0.125000000000047
40
0.140625000000049
40
0.140625000000049
40
0.148437500000046
40
0.148437500000046
40
0.156250000000043
40
0.156250000000043
40
0.187500000000048
40
0.187500000000048
40
0.218750000000053
40
0.218750000000053
40
0.226562500000047
40
0.226562500000047
40
0.234375000000041
40
0.234375000000041
40
0.250000000000029
40
0.250000000000029
40
0.281249999999994
40
0.281249999999994
40
0.296874999999982
40
0.296874999999982
40
0.30468749999997
40
0.30468749999997
40
0.312499999999959
40
0.312499999999959
40
0.343749999999924
40
0.343749999999924
40
0.351562499999912
40
0.351562499999912
40
0.359374999999901
40
0.359374999999901
40
0.374999999999889
40
0.374999999999889
40
0.390624999999876
40
0.390624999999876
40
0.406249999999864
40
0.406249999999864
40
0.43749999999983
40
0.43749999999983
40
0.468749999999797
40
0.468749999999797
40
0.484374999999783
40
0.484374999999783
40
0.499999999999768
40
0.499999999999768
40
0.531249999999739
40
0.531249999999739
40
0.539062499999731
40
0.539062499999731
40
0.546874999999724
40
0.546874999999724
40
0.562499999999709
40
0.562499999999709
40
0.593749999999681
40
0.593749999999681
40
0.609374999999669
40
0.617187499999665
40
0.617187499999665
40
0.624999999999661
40
0.624999999999661
40
0.656249999999661
40
0.656249999999661
40
0.687499999999661
40
0.687499999999661
40
0.70312499999966
40
0.70312499999966
40
0.71874999999966
40
0.71874999999966
40
0.749999999999668
40
0.749999999999668
40
0.765624999999673
40
0.765624999999673
40
0.773437499999679
40
0.773437499999679
40
0.781249999999686
40
0.781249999999686
40
0.812499999999733
40
0.812499999999733
40
0.828124999999752
40
0.835937499999766
40
0.835937499999766
40
0.843749999999781
40
0.843749999999781
40
0.874999999999828
40
0.874999999999828
40
0.890624999999857
40
0.890624999999857
40
0.906249999999886
40
0.906249999999886
40
0.937499999999944
40
0.937499999999944
40
0.945312499999953
40
0.945312499999953
40
0.953124999999963
40
0.953124999999963
40
0.968749999999973
40
0.968749999999973
40
0.984374999999982
40
0.984374999999982
40
0.992187499999991
40
0.992187499999991
40
1
40
1
40
1
40
1
41
1
10
56.0693521980278
20
6.41272280669477
30
0
41
1
10
56.0490102251937
20
6.38548890177367
30
0
41
1
10
56.0217268641041
20
6.3582670385251
30
0
41
1
10
55.971965873766
20
6.31748488524997
30
0
41
1
10
55.9538931722443
20
6.30390026677884
30
0
41
1
10
55.9246575588082
20
6.28354950041387
30
0
41
1
10
55.9145375885592
20
6.27675763219335
30
0
41
1
10
55.8936965008983
20
6.26324825317053
30
0
41
1
10
55.8829952012531
20
6.25654252592065
30
0
41
1
10
55.8281504228676
20
6.22325463522938
30
0
41
1
10
55.7800268865977
20
6.1973872406754
30
0
41
1
10
55.6763279129919
20
6.14720578744084
30
0
41
1
10
55.620743989448
20
6.12289249767102
30
0
41
1
10
55.5320169770941
20
6.08773689852575
30
0
41
1
10
55.5015447517359
20
6.07623866037738
30
0
41
1
10
55.4544816916697
20
6.0593524138078
30
0
41
1
10
55.43858142931
20
6.05378931806769
30
0
41
1
10
55.4065362897962
20
6.04285939371397
30
0
41
1
10
55.3903671467096
20
6.03748377150649
30
0
41
1
10
55.3087978350109
20
6.01105848172071
30
0
41
1
10
55.241241286591
20
5.99135831977702
30
0
41
1
10
55.1015271858864
20
5.95513634234007
30
0
41
1
10
55.0293717328881
20
5.93861183616258
30
0
41
1
10
54.9360619101161
20
5.92029120842886
30
0
41
1
10
54.9172430932414
20
5.91674461864153
30
0
41
1
10
54.8792809829317
20
5.90989880993848
30
0
41
1
10
54.8601038708989
20
5.90659427492378
30
0
41
1
10
54.8024030238334
20
5.89712666364022
30
0
41
1
10
54.763677719612
20
5.8914005534829
30
0
41
1
10
54.6467029730931
20
5.87607834677715
30
0
41
1
10
54.5676621474275
20
5.86832310010573
30
0
41
1
10
54.4473010645829
20
5.86100666756553
30
0
41
1
10
54.4068790731318
20
5.85929062652974
30
0
41
1
10
54.3457468620313
20
5.85792063671929
30
0
41
1
10
54.3252434078158
20
5.85766542578941
30
0
41
1
10
54.2843783856809
20
5.85758069879364
30
0
41
1
10
54.2639962312283
20
5.85774982009283
30
0
41
1
10
54.16234361524
20
5.85967893474174
30
0
41
1
10
54.0818394135117
20
5.86466389229702
30
0
41
1
10
53.9824071999775
20
5.87584330619129
30
0
41
1
10
53.9625476891246
20
5.87833423011207
30
0
41
1
10
53.9233631074914
20
5.88377723613411
30
0
41
1
10
53.9039930867389
20
5.88673347460926
30
0
41
1
10
53.8465589299489
20
5.89630807372188
30
0
41
1
10
53.809169183299
20
5.90363127521721
30
0
41
1
10
53.7362710943968
20
5.9201901391875
30
0
41
1
10
53.7007586723103
20
5.9294265158083
30
0
41
1
10
53.6317654035395
20
5.94987662688132
30
0
41
1
10
53.5990031876835
20
5.96087706462416
30
0
41
1
10
53.5057732668317
20
5.99602256451215
30
0
41
1
10
53.4503156730126
20
6.02229628217924
30
0
41
1
10
53.3531077535177
20
6.07996079121639
30
0
41
1
10
53.3135708294689
20
6.11001360360035
30
0
41
1
10
53.2662264986981
20
6.15618941852424
30
0
41
1
10
53.2524545931947
20
6.17177061908046
30
0
41
1
10
53.2288503029847
20
6.2032362264134
30
0
41
1
10
53.219002353384
20
6.21919282097252
30
0
41
1
10
53.1958657825402
20
6.2663016162154
30
0
41
1
10
53.1886051208366
20
6.29701288914976
30
0
41
1
10
53.1886704900064
20
6.33445327811359
30
0
41
1
10
53.189145522211
20
6.34189407378744
30
0
41
1
10
53.191011022085
20
6.35667962597162
30
0
41
1
10
53.1924042336406
20
6.36403485449498
30
0
41
1
10
53.1979358313115
20
6.38588571502868
30
0
41
1
10
53.2033803235139
20
6.40002556829285
30
0
41
1
10
53.2245832152568
20
6.44125640289994
30
0
41
1
10
53.2451745574566
20
6.46716319226758
30
0
41
1
10
53.2850163349424
20
6.50390874270846
30
0
41
1
10
53.3071911620827
20
6.52175088220659
30
0
41
1
10
53.3327314156517
20
6.53883069751126
30
0
41
1
10
53.3505119023427
20
6.55005080590084
30
0
41
1
10
53.3597790030866
20
6.55557598170427
30
0
41
1
10
53.4075468686754
20
6.58254630374125
30
0
41
1
10
53.4506396481668
20
6.60224918588713
30
0
41
1
10
53.5459080050361
20
6.63849211081754
30
0
41
1
10
53.5980888748828
20
6.65502911936721
30
0
41
1
10
53.6831976258196
20
6.67773864495632
30
0
41
1
10
53.7128294497904
20
6.68498171386776
30
0
41
1
10
53.7735849185234
20
6.69861536114368
30
0
41
1
10
53.8047537061154
20
6.70502316649456
30
0
41
1
10
53.9005719966283
20
6.72312511945094
30
0
41
1
10
53.9675209416161
20
6.73370445442688
30
0
41
1
10
54.0725419357048
20
6.7476251375802
30
0
41
1
10
54.1083183151088
20
6.75193891075128
30
0
41
1
10
54.1631657639239
20
6.75794038714332
30
0
41
1
10
54.1816792530966
20
6.75986581767845
30
0
41
1
10
54.2189250023254
20
6.76354443909264
30
0
41
1
10
54.237645091597
20
6.76529686853692
30
0
41
1
10
54.3317271048001
20
6.77364064635401
30
0
41
1
10
54.4085249416356
20
6.77898780851677
30
0
41
1
10
54.5260388702065
20
6.78518999683953
30
0
41
1
10
54.585377681359
20
6.78783325442586
30
0
41
1
10
54.6456184821054
20
6.78979211059115
30
0
41
1
10
54.6859847879473
20
6.79094390051139
30
0
41
1
10
54.7062815640989
20
6.79144272618512
30
0
41
1
10
54.8075467669008
20
6.79353256349342
30
0
41
1
10
54.8884376244554
20
6.79394362647099
30
0
41
1
10
55.009584186408
20
6.79260501731858
30
0
41
1
10
55.0499345875522
20
6.79183020020434
30
0
41
1
10
55.1305681137687
20
6.78957362732601
30
0
41
1
10
55.1709240337819
20
6.78808558491841
30
0
41
1
10
55.2899576597474
20
6.78254381529646
30
0
41
1
10
55.3672262489008
20
6.77742021150675
30
0
41
1
10
55.4609191012821
20
6.768841052364
30
0
41
1
10
55.4795116596051
20
6.76701500143997
30
0
41
1
10
55.5163914356928
20
6.76312595277014
30
0
41
1
10
55.5346195333163
20
6.76106861779758
30
0
41
1
10
55.5883393498042
20
6.75457814391871
30
0
41
1
10
55.6229981312307
20
6.74981434825386
30
0
41
1
10
55.6899115071009
20
6.73931407669639
30
0
41
1
10
55.7221667481547
20
6.73357803464862
30
0
41
1
10
55.768614378075
20
6.72413697937031
30
0
41
1
10
55.7838163789299
20
6.72083987949878
30
0
41
1
10
55.8133151561487
20
6.71399610253272
30
0
41
1
10
55.8275931691109
20
6.71045530184637
30
0
41
1
10
55.8413992597419
20
6.70679063482297
30
0
0
SPLINE
5
119
100
AcDbEntity
8
1
62
256
6
ByLayer
370
18
48
1
60
0
100
AcDbSpline
70
4
71
3
72
8
73
4
40
0
40
0
40
0
40
0
40
1
40
1
40
1
40
1
41
1
10
61.4433775314425
20
6.9875666134933
30
0
41
1
10
61.4303297710917
20
6.99590892538751
30
0
41
1
10
61.4238181258455
20
7.00002357035271
30
0
41
1
10
61.4238398789405
20
7.00000071894115
30
0
0
SPLINE
5
11A
100
AcDbEntity
8
1
62
256
6
ByLayer
370
18
48
1
60
0
100
AcDbSpline
70
4
71
3
72
8
73
4
40
0
40
0
40
0
40
0
40
1
40
1
40
1
40
1
41
1
10
63.424198545974
20
4.55035009302765
30
0
41
1
10
63.3414212317325
20
4.76828885529588
30
0
41
1
10
63.2454656915697
20
4.97522653046437
30
0
41
1
10
63.138050846831
20
5.17187499999986
30
0
0
SPLINE
5
11B
100
AcDbEntity
8
1
62
256
6
ByLayer
370
18
48
1
60
0
100
AcDbSpline
70
4
71
3
72
22
73
18
40
0
40
0
40
0
40
0
40
0.124999999999914
40
0.124999999999914
40
0.249999999999829
40
0.249999999999829
40
0.499999999999771
40
0.499999999999771
40
0.624999999999743
40
0.624999999999743
40
0.749999999999714
40
0.749999999999714
40
0.812499999999785
40
0.812499999999785
40
0.874999999999857
40
0.874999999999857
40
1
40
1
40
1
40
1
41
1
10
62.0622498999199
20
5.17187499999986
30
0
41
1
10
62.0533344345744
20
5.18081263383544
30
0
41
1
10
62.0441094115158
20
5.18963395299701
30
0
41
1
10
62.0248941214066
20
5.20700658846198
30
0
41
1
10
62.0148863008227
20
5.21557316494699
30
0
41
1
10
61.9835201503591
20
5.24068561515901
30
0
41
1
10
61.9610916658313
20
5.25650696842436
30
0
41
1
10
61.9235917629816
20
5.27807712451605
30
0
41
1
10
61.9104395696807
20
5.28490214670384
30
0
41
1
10
61.8822787612809
20
5.29754446361693
30
0
41
1
10
61.8675657244032
20
5.30322622983732
30
0
41
1
10
61.8442409874118
20
5.31047890136563
30
0
41
1
10
61.8362546654781
20
5.31268372601357
30
0
41
1
10
61.8197800936259
20
5.31659167234252
30
0
41
1
10
61.8112608123008
20
5.31829517054135
30
0
41
1
10
61.7855520268884
20
5.32240615441438
30
0
41
1
10
61.7680096527071
20
5.32387499999984
30
0
41
1
10
61.75
20
5.32387499999984
30
0
0
SPLINE
5
11C
100
AcDbEntity
8
1
62
256
6
ByLayer
370
18
48
1
60
0
100
AcDbSpline
70
4
71
3
72
10
73
6
40
0
40
0
40
0
40
0
40
0.5
40
0.5
40
1
40
1
40
1
40
1
41
1
10
62.0622498999199
20
4.15760637501955
30
0
41
1
10
62.0140027193584
20
4.12308522264325
30
0
41
1
10
61.9640368248411
20
4.09217682913734
30
0
41
1
10
61.8601886603382
20
4.0385923137988
30
0
41
1
10
61.806317329624
20
4.01589319747714
30
0
41
1
10
61.75
20
3.9983356023657
30
0
0
SPLINE
5
11D
100
AcDbEntity
8
1
62
256
6
ByLayer
370
18
48
1
60
0
100
AcDbSpline
70
4
71
3
72
10
73
6
40
0
40
0
40
0
40
0
40
0.5
40
0.5
40
1
40
1
40
1
40
1
41
1
10
61.413841562401
20
-6.99250000000023
30
0
41
1
10
61.3926162206742
20
-6.96314890869189
30
0
41
1
10
61.3745616379757
20
-6.93249241366996
30
0
41
1
10
61.343304715102
20
-6.86859908511971
30
0
41
1
10
61.330111261097
20
-6.83536190895256
30
0
41
1
10
61.3188283665752
20
-6.80084152254565
30
0
0
SPLINE
5
11E
100
AcDbEntity
8
1
62
256
6
ByLayer
370
18
48
1
60
0
100
AcDbSpline
70
4
71
3
72
34
73
30
40
0
40
0
40
0
40
0
40
0.0312499999999993
40
0.0312499999999993
40
0.0624999999999988
40
0.0624999999999988
40
0.0937499999999983
40
0.0937499999999983
40
0.124999999999998
40
0.124999999999998
40
0.156249999999997
40
0.156249999999997
40
0.187499999999997
40
0.187499999999997
40
0.249999999999996
40
0.249999999999996
40
0.312499999999995
40
0.312499999999995
40
0.374999999999993
40
0.374999999999993
40
0.437499999999993
40
0.437499999999993
40
0.499999999999991
40
0.499999999999991
40
0.624999999999988
40
0.624999999999988
40
0.749999999999985
40
0.749999999999985
40
1
40
1
40
1
40
1
41
1
10
51.7499999999999
20
5.32387500000098
30
0
41
1
10
51.7370304960709
20
5.32387500000098
30
0
41
1
10
51.724051886077
20
5.32309492192869
30
0
41
1
10
51.6988955418737
20
5.32015583514803
30
0
41
1
10
51.6866844805536
20
5.31801107214625
30
0
41
1
10
51.6628851118938
20
5.31256970491751
30
0
41
1
10
51.6512585316422
20
5.30925201871949
30
0
41
1
10
51.6291313018761
20
5.30183938136796
30
0
41
1
10
51.6185427805177
20
5.29772842326722
30
0
41
1
10
51.5981157246311
20
5.28885872025143
30
0
41
1
10
51.5882393708871
20
5.28407743814495
30
0
41
1
10
51.5693306781763
20
5.27410153115633
30
0
41
1
10
51.5602929024213
20
5.2689092367107
30
0
41
1
10
51.5341617066636
20
5.25283826603709
30
0
41
1
10
51.5180367343704
20
5.24147164476204
30
0
41
1
10
51.4875413343199
20
5.21780078873016
30
0
41
1
10
51.4731809130636
20
5.20549201626079
30
0
41
1
10
51.4457679655428
20
5.18012923190628
30
0
41
1
10
51.4327820618391
20
5.16713191661844
30
0
41
1
10
51.4079539252387
20
5.14067212939193
30
0
41
1
10
51.3961034845012
20
5.12719885725994
30
0
41
1
10
51.3732951262991
20
5.09983147242463
30
0
41
1
10
51.362329902423
20
5.08592493026703
30
0
41
1
10
51.330630915247
20
5.04377057710218
30
0
41
1
10
51.3110540281583
20
5.01506666044654
30
0
41
1
10
51.2740970424595
20
4.9566227684027
30
0
41
1
10
51.2567269117769
20
4.92688086885849
30
0
41
1
10
51.2071554877962
20
4.8362323700791
30
0
41
1
10
51.1774535700621
20
4.77391045217016
30
0
41
1
10
51.1499999999999
20
4.70987500000004
30
0
0
SPLINE
5
11F
100
AcDbEntity
8
1
62
256
6
ByLayer
370
18
48
1
60
0
100
AcDbSpline
70
4
71
3
72
24
73
20
40
0
40
0
40
0
40
0
40
0.0625000000000642
40
0.0625000000000642
40
0.125000000000129
40
0.125000000000129
40
0.250000000000257
40
0.250000000000257
40
0.312500000000275
40
0.312500000000275
40
0.375000000000293
40
0.375000000000293
40
0.500000000000247
40
0.500000000000247
40
0.6250000000002
40
0.6250000000002
40
0.750000000000154
40
0.750000000000154
40
1
40
1
40
1
40
1
41
1
10
51.7499999999999
20
-6.99250000000021
30
0
41
1
10
51.7332665463588
20
-6.99250000000021
30
0
41
1
10
51.7163883921674
20
-6.99250000000021
30
0
41
1
10
51.6827089476463
20
-6.99250000000021
30
0
41
1
10
51.6659391467441
20
-6.99250000000021
30
0
41
1
10
51.6169121868431
20
-6.99250000000021
30
0
41
1
10
51.5857539766594
20
-6.99250000000021
30
0
41
1
10
51.5408010021637
20
-6.99250000000021
30
0
41
1
10
51.5261130133406
20
-6.99250000000021
30
0
41
1
10
51.4972903962085
20
-6.99250000000021
30
0
41
1
10
51.483352437264
20
-6.99250000000021
30
0
41
1
10
51.4427311060785
20
-6.99250000000021
30
0
41
1
10
51.4172287649775
20
-6.99250000000021
30
0
41
1
10
51.3685879622263
20
-6.99250000000021
30
0
41
1
10
51.3454562051549
20
-6.99250000000021
30
0
41
1
10
51.3010869272044
20
-6.99250000000021
30
0
41
1
10
51.2800400414979
20
-6.99250000000021
30
0
41
1
10
51.2199066015517
20
-6.99250000000021
30
0
41
1
10
51.1836151639892
20
-6.99250000000021
30
0
41
1
10
51.15
20
-6.99250000000021
30
0
0
SPLINE
5
120
100
AcDbEntity
8
1
62
256
6
ByLayer
370
18
48
1
60
0
100
AcDbSpline
70
4
71
3
72
88
73
84
40
0
40
0
40
0
40
0
40
0.0156250000000086
40
0.0156250000000086
40
0.023437500000013
40
0.023437500000013
40
0.0312500000000174
40
0.0312500000000174
40
0.0625000000000329
40
0.0625000000000329
40
0.0781250000000406
40
0.0781250000000406
40
0.0937500000000484
40
0.0937500000000484
40
0.125000000000061
40
0.125000000000061
40
0.156250000000072
40
0.156250000000072
40
0.171875000000075
40
0.171875000000075
40
0.187500000000078
40
0.187500000000078
40
0.250000000000099
40
0.250000000000099
40
0.31250000000012
40
0.31250000000012
40
0.328125000000131
40
0.328125000000131
40
0.343750000000142
40
0.375000000000164
40
0.375000000000164
40
0.437500000000208
40
0.437500000000208
40
0.453125000000226
40
0.453125000000226
40
0.468750000000245
40
0.468750000000245
40
0.500000000000266
40
0.500000000000266
40
0.531250000000288
40
0.531250000000288
40
0.56250000000031
40
0.56250000000031
40
0.578125000000321
40
0.578125000000321
40
0.593750000000331
40
0.593750000000331
40
0.625000000000369
40
0.625000000000369
40
0.640625000000388
40
0.640625000000388
40
0.64843750000039
40
0.64843750000039
40
0.656250000000391
40
0.68750000000035
40
0.68750000000035
40
0.703125000000336
40
0.703125000000336
40
0.718750000000323
40
0.718750000000323
40
0.750000000000282
40
0.750000000000282
40
0.765625000000268
40
0.765625000000268
40
0.781250000000254
40
0.781250000000254
40
0.812500000000216
40
0.812500000000216
40
0.828125000000197
40
0.828125000000197
40
0.843750000000177
40
0.843750000000177
40
0.875000000000139
40
0.875000000000139
40
0.890625000000122
40
0.890625000000122
40
0.906250000000104
40
0.906250000000104
40
0.93750000000007
40
0.93750000000007
40
0.968750000000035
40
0.968750000000035
40
1
40
1
40
1
40
1
41
1
10
45.8520036013871
20
-6.99250000000018
30
0
41
1
10
45.8466506282907
20
-6.98113729001042
30
0
41
1
10
45.8423131176138
20
-6.96953502070312
30
0
41
1
10
45.8373136421036
20
-6.95176277742127
30
0
41
1
10
45.8358972687216
20
-6.94576729355268
30
0
41
1
10
45.8335807434936
20
-6.93374184883183
30
0
41
1
10
45.8326773882065
20
-6.92770363833188
30
0
41
1
10
45.8293913927568
20
-6.89738506679041
30
0
41
1
10
45.8306842704621
20
-6.87272197297386
30
0
41
1
10
45.8378901447098
20
-6.83511582386913
30
0
41
1
10
45.8411732179699
20
-6.82247855763191
30
0
41
1
10
45.8494330377705
20
-6.79700075881667
30
0
41
1
10
45.8544203164422
20
-6.7841496179048
30
0
41
1
10
45.8715922698699
20
-6.74578513186449
30
0
41
1
10
45.8860210514809
20
-6.72029333322774
30
0
41
1
10
45.9200571470725
20
-6.6694398657643
30
0
41
1
10
45.939668672003
20
-6.64407862166956
30
0
41
1
10
45.9726075305364
20
-6.60613134383394
30
0
41
1
10
45.9841759536594
20
-6.59349824113701
30
0
41
1
10
46.008448545869
20
-6.56826586325289
30
0
41
1
10
46.0211839966778
20
-6.5556382517961
30
0
41
1
10
46.0870705897862
20
-6.49310439149622
30
0
41
1
10
46.1469106941888
20
-6.44476710423231
30
0
41
1
10
46.2784144166917
20
-6.35126662893029
30
0
41
1
10
46.3501060317095
20
-6.30610816149792
30
0
41
1
10
46.4467802556876
20
-6.25190452078647
30
0
41
1
10
46.4664567919349
20
-6.24118709773435
30
0
41
1
10
46.5062476872216
20
-6.22013348028091
30
0
41
1
10
46.5666879476552
20
-6.18907110356523
30
0
41
1
10
46.6293506810124
20
-6.15958087406116
30
0
41
1
10
46.7576276366132
20
-6.10281383423126
30
0
41
1
10
46.8470433764948
20
-6.06788746607106
30
0
41
1
10
46.9641636175613
20
-6.02869301624494
30
0
41
1
10
46.9878581974894
20
-6.02107991814174
30
0
41
1
10
47.0358138336281
20
-6.0063376875427
30
0
41
1
10
47.0600192414746
20
-5.9992267889034
30
0
41
1
10
47.1329911155859
20
-5.97881387068463
30
0
41
1
10
47.1822464583974
20
-5.96638669763934
30
0
41
1
10
47.2820597520804
20
-5.94414612094312
30
0
41
1
10
47.3326170846815
20
-5.93433142880588
30
0
41
1
10
47.4351799454805
20
-5.91767826919406
30
0
41
1
10
47.487184234727
20
-5.91083732124898
30
0
41
1
10
47.5664496521615
20
-5.90320492225871
30
0
41
1
10
47.5929983549693
20
-5.9011112598258
30
0
41
1
10
47.6459620004946
20
-5.89790691914084
30
0
41
1
10
47.6724344697949
20
-5.89679040747481
30
0
41
1
10
47.7518223674403
20
-5.89497671993081
30
0
41
1
10
47.8047084465235
20
-5.89580832054904
30
0
41
1
10
47.8839705467381
20
-5.90053925380511
30
0
41
1
10
47.9103800407779
20
-5.90269841358847
30
0
41
1
10
47.949976022032
20
-5.90688171845707
30
0
41
1
10
47.9631921625057
20
-5.90843689284341
30
0
41
1
10
47.9894179953951
20
-5.91184837225578
30
0
41
1
10
48.0545630037219
20
-5.92113925246639
30
0
41
1
10
48.117597433138
20
-5.93425629359575
30
0
41
1
10
48.1910623762467
20
-5.95385820955121
30
0
41
1
10
48.2151870643538
20
-5.96103690621894
30
0
41
1
10
48.2626709774208
20
-5.9767320822416
30
0
41
1
10
48.2860763771974
20
-5.98527575481373
30
0
41
1
10
48.3537291406031
20
-6.01241722873064
30
0
41
1
10
48.3958860571477
20
-6.03265733332066
30
0
41
1
10
48.454812811465
20
-6.06600167446808
30
0
41
1
10
48.4737350032892
20
-6.07761503220396
30
0
41
1
10
48.5101332865714
20
-6.10181423613386
30
0
41
1
10
48.527681165971
20
-6.11446070215496
30
0
41
1
10
48.5773536066099
20
-6.15321014114804
30
0
41
1
10
48.6066831084808
20
-6.18018493996857
30
0
41
1
10
48.6455134306337
20
-6.2220363094055
30
0
41
1
10
48.6575924760879
20
-6.23621972104752
30
0
41
1
10
48.6800674411929
20
-6.26501325889117
30
0
41
1
10
48.6904865848634
20
-6.27966656401105
30
0
41
1
10
48.7189051431529
20
-6.32363939877257
30
0
41
1
10
48.7342141203733
20
-6.35311002159116
30
0
41
1
10
48.7522828940173
20
-6.39740145040082
30
0
41
1
10
48.7574860988624
20
-6.41218016871213
30
0
41
1
10
48.7663059138719
20
-6.44174938468782
30
0
41
1
10
48.7699283169093
20
-6.45657270063569
30
0
41
1
10
48.7784193639265
20
-6.50080584708246
30
0
41
1
10
48.7809040076516
20
-6.52978772164121
30
0
41
1
10
48.7801258706289
20
-6.58675501172496
30
0
41
1
10
48.7768592220472
20
-6.61474034863826
30
0
41
1
10
48.7648505726012
20
-6.6697252993082
30
0
41
1
10
48.7560688007881
20
-6.69677484038468
30
0
41
1
10
48.7447386667644
20
-6.72300801182126
30
0
0
SPLINE
5
121
100
AcDbEntity
8
1
62
256
6
ByLayer
370
18
48
1
60
0
100
AcDbSpline
70
4
71
3
72
31
73
27
40
0
40
0
40
0
40
0
40
0.0625101788937192
40
0.0625101788937192
40
0.125020357787438
40
0.125020357787438
40
0.187530536681157
40
0.187530536681157
40
0.218785626128015
40
0.218785626128015
40
0.250040715574873
40
0.250040715574873
40
0.375061073362306
40
0.375061073362306
40
0.500081431149739
40
0.500081431149739
40
0.562591610043455
40
0.593846699490313
40
0.593846699490313
40
0.625101788937171
40
0.625101788937171
40
0.750122146724602
40
0.750122146724602
40
0.875142504512034
40
0.875142504512034
40
1
40
1
40
1
40
1
41
1
10
38.3773494158107
20
-7.20999999999452
30
0
41
1
10
38.340825922458
20
-7.23906245938434
30
0
41
1
10
38.3095096590683
20
-7.26806178079272
30
0
41
1
10
38.2540593490841
20
-7.32529674035609
30
0
41
1
10
38.2299660559702
20
-7.35353941014529
30
0
41
1
10
38.1872126282881
20
-7.40889088532535
30
0
41
1
10
38.1685670864315
20
-7.43600228291203
30
0
41
1
10
38.143797975375
20
-7.47562410314433
30
0
41
1
10
38.1360783829703
20
-7.48865785097064
30
0
41
1
10
38.1215970539631
20
-7.51435176367212
30
0
41
1
10
38.1148331899428
20
-7.52701803821805
30
0
41
1
10
38.083301551437
20
-7.58906008087473
30
0
41
1
10
38.0651181363872
20
-7.63482071466882
30
0
41
1
10
38.0373000692056
20
-7.71836971470543
30
0
41
1
10
38.0277193992192
20
-7.7561609673387
30
0
41
1
10
38.0172538938428
20
-7.80674070121148
30
0
41
1
10
38.0130144092907
20
-7.83050396498516
30
0
41
1
10
38.009901695665
20
-7.85195216817417
30
0
41
1
10
38.0080430389202
20
-7.86573355079747
30
0
41
1
10
38.0072214856111
20
-7.87236767635162
30
0
41
1
10
38.0035809808418
20
-7.90415748851018
30
0
41
1
10
38.0021218580756
20
-7.92524362667982
30
0
41
1
10
38.0004218762827
20
-7.95891755713748
30
0
41
1
10
38.000185191256
20
-7.97150511228583
30
0
41
1
10
37.9999737852541
20
-7.98827820897429
30
0
41
1
10
37.9999999315665
20
-7.99247457385735
30
0
41
1
10
37.9999999747373
20
-7.99249989102236
30
0
0
SPLINE
5
122
100
AcDbEntity
8
1
62
256
6
ByLayer
370
18
48
1
60
0
100
AcDbSpline
70
4
71
3
72
39
73
35
40
0
40
0
40
0
40
0
40
0.0312318315432658
40
0.0312318315432658
40
0.0624636630865321
40
0.0624636630865321
40
0.124927326173064
40
0.124927326173064
40
0.187390989259596
40
0.187390989259596
40
0.249854652346128
40
0.249854652346128
40
0.281086483889393
40
0.281086483889393
40
0.312318315432659
40
0.312318315432659
40
0.374781978519191
40
0.374781978519191
40
0.499709304692254
40
0.499709304692254
40
0.624636630865318
40
0.640252546636951
40
0.640252546636951
40
0.655868462408584
40
0.655868462408584
40
0.68710029395185
40
0.68710029395185
40
0.749563957038381
40
0.749563957038381
40
0.874491283211444
40
0.874491283211444
40
0.999418609384507
40
0.999418609384507
40
1
40
1
40
1
40
1
41
1
10
38.3773494158072
20
4.85994999998891
30
0
41
1
10
38.3580632520714
20
4.91960137292307
30
0
41
1
10
38.3404517321007
20
4.97868903394394
30
0
41
1
10
38.3077953878301
20
5.0956392938686
30
0
41
1
10
38.2927559875038
20
5.15350261745263
30
0
41
1
10
38.2507323046192
20
5.32516042792074
30
0
41
1
10
38.2268044757422
20
5.43701912060271
30
0
41
1
10
38.1846214868663
20
5.65524295487441
30
0
41
1
10
38.1663934335439
20
5.76161188524608
30
0
41
1
10
38.1341929018754
20
5.96861923722631
30
0
41
1
10
38.1202310806319
20
6.0692592839477
30
0
41
1
10
38.1017686167519
20
6.21575024027297
30
0
41
1
10
38.0960280067113
20
6.26385992535376
30
0
41
1
10
38.085297553544
20
6.35845694307915
30
0
41
1
10
38.0803273393987
20
6.40476762528652
30
0
41
1
10
38.0664516080833
20
6.5407700019843
30
0
41
1
10
38.0585754897938
20
6.62753431498498
30
0
41
1
10
38.0381218968498
20
6.87630126889121
30
0
41
1
10
38.0286754516329
20
7.0268131422047
30
0
41
1
10
38.0147560194039
20
7.29729966927738
30
0
41
1
10
38.0097530043508
20
7.43227518901676
30
0
41
1
10
38.0065289656773
20
7.54726703425214
30
0
41
1
10
38.0058549086407
20
7.57232081881398
30
0
41
1
10
38.0055385921691
20
7.58460034219135
30
0
41
1
10
38.00464955486
20
7.62056968378337
30
0
41
1
10
38.0041354705029
20
7.64343204853117
30
0
41
1
10
38.0027863245395
20
7.70870968039446
30
0
41
1
10
38.0021427996286
20
7.74781829666125
30
0
41
1
10
38.0007009038077
20
7.85214571955112
30
0
41
1
10
38.0003713912123
20
7.90440778916226
30
0
41
1
10
38.0000343408478
20
7.97454111778364
30
0
41
1
10
38.0000282760596
20
7.99241569148592
30
0
41
1
10
38.0000281267177
20
7.99249928858961
30
0
41
1
10
38.0000281234338
20
7.99250109714156
30
0
41
1
10
38.0000281271009
20
7.9924989053413
30
0
0
SPLINE
5
123
100
AcDbEntity
8
1
62
256
6
ByLayer
370
18
48
1
60
0
100
AcDbSpline
70
4
71
3
72
13
73
9
40
0
40
0
40
0
40
0
40
0.25
40
0.5
40
0.5
40
0.75
40
0.75
40
1
40
1
40
1
40
1
41
1
10
38.3773494158097
20
4.85994999999664
30
0
41
1
10
38.421537115496
20
4.83568889718993
30
0
41
1
10
38.514598161339
20
4.792968753499
30
0
41
1
10
38.616661277239
20
4.76139207556128
30
0
41
1
10
38.7234323010782
20
4.7356416677996
30
0
41
1
10
38.7776514003743
20
4.72604756634158
30
0
41
1
10
38.8876353692979
20
4.71316536538546
30
0
41
1
10
38.9434093408213
20
4.70987499999993
30
0
41
1
10
39
20
4.70987499999993
30
0
0
SPLINE
5
124
100
AcDbEntity
8
1
62
256
6
ByLayer
370
18
48
1
60
0
100
AcDbSpline
70
4
71
3
72
23
73
19
40
0
40
0
40
0
40
0
40
0.124999999999998
40
0.124999999999998
40
0.249999999999995
40
0.249999999999995
40
0.374999999999993
40
0.374999999999993
40
0.437499999999998
40
0.437499999999998
40
0.500000000000004
40
0.500000000000004
40
0.625000000000014
40
0.687500000000013
40
0.687500000000013
40
0.750000000000012
40
0.750000000000012
40
1
40
1
40
1
40
1
41
1
10
38.3773494158067
20
-0.208217351631475
30
0
41
1
10
38.38519775103
20
-0.192444982739914
30
0
41
1
10
38.392498629157
20
-0.176252174291363
30
0
41
1
10
38.4056424671734
20
-0.142844614697736
30
0
41
1
10
38.4114649546414
20
-0.125648697217173
30
0
41
1
10
38.4210337717785
20
-0.0907025964197601
30
0
41
1
10
38.424809213818
20
-0.0728817754755653
30
0
41
1
10
38.4286582691308
20
-0.0455439833638138
30
0
41
1
10
38.4296405931978
20
-0.0362834054522807
30
0
41
1
10
38.4309321911374
20
-0.0178429525955153
30
0
41
1
10
38.4312464056399
20
-0.0086558105523977
30
0
41
1
10
38.4312108920172
20
0.0188082384594566
30
0
41
1
10
38.4292153858956
20
0.0460773728072752
30
0
41
1
10
38.4244538103206
20
0.0730687754784185
30
0
41
1
10
38.4206925914747
20
0.0910033046264971
30
0
41
1
10
38.4185139871014
20
0.0999452974765518
30
0
41
1
10
38.406453773211
20
0.143782614427863
30
0
41
1
10
38.3930190369194
20
0.176726973402197
30
0
41
1
10
38.3773494158037
20
0.208217351629031
30
0
0
SPLINE
5
125
100
AcDbEntity
8
1
62
256
6
ByLayer
370
18
48
1
60
0
100
AcDbSpline
70
4
71
3
72
16
73
12
40
0
40
0
40
0
40
0
40
0.250000000000015
40
0.250000000000015
40
0.500000000000029
40
0.500000000000029
40
0.625000000000037
40
0.625000000000037
40
0.750000000000045
40
0.750000000000045
40
1
40
1
40
1
40
1
41
1
10
38.3773494158096
20
-7.20999999999543
30
0
41
1
10
38.4213223096038
20
-7.17500990669276
30
0
41
1
10
38.4676685002052
20
-7.14414158444362
30
0
41
1
10
38.5649553552057
20
-7.0903775116677
30
0
41
1
10
38.6158954103779
20
-7.06748072873705
30
0
41
1
10
38.6959350306731
20
-7.03942930932581
30
0
41
1
10
38.7229407053675
20
-7.03123796391327
30
0
41
1
10
38.7772521408138
20
-7.0172205805556
30
0
41
1
10
38.8046120581882
20
-7.01137551897094
30
0
41
1
10
38.8872988438115
20
-6.99729889986273
30
0
41
1
10
38.9432282117467
20
-6.99250000000015
30
0
41
1
10
39
20
-6.99250000000015
30
0
0
SPLINE
5
126
100
AcDbEntity
8
1
62
256
6
ByLayer
370
18
48
1
60
0
100
AcDbSpline
70
4
71
3
72
11
73
7
40
0
40
0
40
0
40
0
40
0.249719211628549
40
0.499452481450003
40
0.749459723488261
40
1
40
1
40
1
40
1
41
1
10
63.865
20
1.42232129710814
30
0
41
1
10
63.8649881838438
20
1.42382943011188
30
0
41
1
10
63.8649645508664
20
1.42684578102123
30
0
41
1
10
63.8647778448438
20
1.43121566797083
30
0
41
1
10
63.8644975439479
20
1.43547862918246
30
0
41
1
10
63.8642251460449
20
1.43820515351456
30
0
41
1
10
63.8640888020548
20
1.43956986742233
30
0
0
SPLINE
5
127
100
AcDbEntity
8
1
62
256
6
ByLayer
370
18
48
1
60
0
100
AcDbSpline
70
4
71
3
72
32
73
28
40
0
40
0
40
0
40
0
40
0.0333776754521258
40
0.0666357663471813
40
0.0997994289600876
40
0.132894034797673
40
0.165945114295907
40
0.198978298705507
40
0.23201926081491
40
0.265093655191464
40
0.298227058633384
40
0.331444911520571
40
0.364772460727468
40
0.398234704720361
40
0.431856341404217
40
0.465661719215726
40
0.499674791879141
40
0.541018210587984
40
0.584205118524832
40
0.62927547782543
40
0.676264434205785
40
0.725202988623066
40
0.77611856958627
40
0.829035519955139
40
0.883975510827787
40
0.940957893627913
40
1
40
1
40
1
40
1
41
1
10
63.8640896723102
20
1.43956178650401
30
0
41
1
10
63.8638817764446
20
1.44133598245327
30
0
41
1
10
63.8634667295568
20
1.44487801781455
30
0
41
1
10
63.8625949852782
20
1.45034116614167
30
0
41
1
10
63.8615309481072
20
1.45589157900716
30
0
41
1
10
63.86024879522
20
1.46153360535968
30
0
41
1
10
63.8587445980374
20
1.46725581246469
30
0
41
1
10
63.8570088081636
20
1.47305020250326
30
0
41
1
10
63.8550336537095
20
1.47890706715938
30
0
41
1
10
63.8528112133254
20
1.4848163520023
30
0
41
1
10
63.8503339860343
20
1.49076728161742
30
0
41
1
10
63.8475947932912
20
1.4967484572451
30
0
41
1
10
63.8445868695995
20
1.50274781573569
30
0
41
1
10
63.8413038772936
20
1.50875268575129
30
0
41
1
10
63.837740046643
20
1.51474960850487
30
0
41
1
10
63.833889897379
20
1.52072502598281
30
0
41
1
10
63.8294615403271
20
1.52707573442063
30
0
41
1
10
63.8243099613345
20
1.5338611270096
30
0
41
1
10
63.8182706376645
20
1.54110349751997
30
0
41
1
10
63.8115440434014
20
1.54842374136746
30
0
41
1
10
63.8040921373955
20
1.55575451687346
30
0
41
1
10
63.7958811387538
20
1.56302117042622
30
0
41
1
10
63.7868815328895
20
1.57014065683575
30
0
41
1
10
63.7770724572701
20
1.57702825989796
30
0
41
1
10
63.7664307286422
20
1.58357052978403
30
0
41
1
10
63.7549804629884
20
1.58973335879617
30
0
41
1
10
63.7468742962118
20
1.59327319878989
30
0
41
1
10
63.7427492605016
20
1.59507453927361
30
0
0
SPLINE
5
128
100
AcDbEntity
8
1
62
256
6
ByLayer
370
18
48
1
60
0
100
AcDbSpline
70
4
71
11
72
24
73
12
40
0
40
0
40
0
40
0
40
0
40
0
40
0
40
0
40
0
40
0
40
0
40
0
40
1
40
1
40
1
40
1
40
1
40
1
40
1
40
1
40
1
40
1
40
1
40
1
41
1
10
62.6723029628187
20
-12.4999999999965
30
0
41
1
10
62.6426852541067
20
-12.4999999999965
30
0
41
1
10
62.6130675475817
20
-12.4952144585272
30
0
41
1
10
62.5843230820477
20
-12.4856433768187
30
0
41
1
10
62.5573251188147
20
-12.4714631235425
30
0
41
1
10
62.5329055145097
20
-12.4530264429053
30
0
41
1
10
62.5118133846957
20
-12.4308513023042
30
0
41
1
10
62.4946773630897
20
-12.4055986146844
30
0
41
1
10
62.4819752113787
20
-12.3780402792444
30
0
41
1
10
62.4740135830707
20
-12.3490205358399
30
0
41
1
10
62.4709192145907
20
-12.3194143432177
30
0
41
1
10
62.4726413311557
20
-12.2900864050672
30
0
0
SPLINE
5
129
100
AcDbEntity
8
1
62
256
6
ByLayer
370
18
48
1
60
0
100
AcDbSpline
70
4
71
2
72
9
73
6
40
0
40
0
40
0
40
0.25
40
0.5
40
0.75
40
1
40
1
40
1
41
1
10
63.82769703718
20
-12.5000000000002
30
0
41
1
10
63.8689635750695
20
-12.499891645955
30
0
41
1
10
63.9445256211391
20
-12.4677605684459
30
0
41
1
10
64.0010388226986
20
-12.4085931980018
30
0
41
1
10
64.0296944356825
20
-12.3319759997537
30
0
41
1
10
64.0273586688429
20
-12.290086405071
30
0
0
SPLINE
5
12A
100
AcDbEntity
8
1
62
256
6
ByLayer
370
18
48
1
60
0
100
AcDbSpline
70
4
71
2
72
6
73
3
40
0
40
0
40
0
40
1
40
1
40
1
41
1
10
62.635
20
-9.84664013821629
30
0
41
1
10
62.6349185192405
20
-9.87328891834798
30
0
41
1
10
62.62818516519
20
-9.89894428288437
30
0
0
SPLINE
5
12B
100
AcDbEntity
8
1
62
256
6
ByLayer
370
18
48
1
60
0
100
AcDbSpline
70
4
71
3
72
8
73
4
40
0
40
0
40
0
40
0
40
1
40
1
40
1
40
1
41
1
10
62.5599259479446
20
-10.1724813067219
30
0
41
1
10
62.560614924347
20
-10.1591695815583
30
0
41
1
10
62.562688347913
20
-10.1459382236699
30
0
41
1
10
62.5661014332915
20
-10.1330625186494
30
0
0
SPLINE
5
12C
100
AcDbEntity
8
1
62
256
6
ByLayer
370
18
48
1
60
0
100
AcDbSpline
70
4
71
2
72
6
73
3
40
0
40
0
40
0
40
1
40
1
40
1
41
1
10
63.940074052055
20
-10.172481306722
30
0
41
1
10
63.9389707799011
20
-10.152404592134
30
0
41
1
10
63.933898566708
20
-10.133062518646
30
0
0
SPLINE
5
12D
100
AcDbEntity
8
1
62
256
6
ByLayer
370
18
48
1
60
0
100
AcDbSpline
70
4
71
3
72
8
73
4
40
0
40
0
40
0
40
0
40
1
40
1
40
1
40
1
41
1
10
63.865
20
-9.84664013821831
30
0
41
1
10
63.865
20
-9.86427193227661
30
0
41
1
10
63.8672975903014
20
-9.88190237492836
30
0
41
1
10
63.8718148348081
20
-9.8989442828848
30
0
0
SPLINE
5
12E
100
AcDbEntity
8
1
62
256
6
ByLayer
370
18
48
1
60
0
100
AcDbSpline
70
4
71
8
72
18
73
9
40
0
40
0
40
0
40
0
40
0
40
0
40
0
40
0
40
0
40
1
40
1
40
1
40
1
40
1
40
1
40
1
40
1
40
1
41
1
10
62.635
20
-8.54017457911581
30
0
41
1
10
62.635
20
-8.54552091069658
30
0
41
1
10
62.635
20
-8.55085880449172
30
0
41
1
10
62.635
20
-8.55618731375807
30
0
41
1
10
62.635
20
-8.56150549388391
30
0
41
1
10
62.635
20
-8.56681240266667
30
0
41
1
10
62.635
20
-8.57210710069862
30
0
41
1
10
62.635
20
-8.57738865174102
30
0
41
1
10
62.635
20
-8.58265612302793
30
0
0
SPLINE
5
12F
100
AcDbEntity
8
1
62
256
6
ByLayer
370
18
48
1
60
0
100
AcDbSpline
70
4
71
8
72
18
73
9
40
0
40
0
40
0
40
0
40
0
40
0
40
0
40
0
40
0
40
1
40
1
40
1
40
1
40
1
40
1
40
1
40
1
40
1
41
1
10
63.865
20
-8.54017457911581
30
0
41
1
10
63.865
20
-8.54552091069658
30
0
41
1
10
63.865
20
-8.55085880449172
30
0
41
1
10
63.865
20
-8.55618731375807
30
0
41
1
10
63.865
20
-8.56150549388391
30
0
41
1
10
63.865
20
-8.56681240266667
30
0
41
1
10
63.865
20
-8.57210710069862
30
0
41
1
10
63.865
20
-8.57738865174102
30
0
41
1
10
63.865
20
-8.58265612302793
30
0
0
SPLINE
5
130
100
AcDbEntity
8
1
62
256
6
ByLayer
370
18
48
1
60
0
100
AcDbSpline
70
4
71
11
72
24
73
12
40
0
40
0
40
0
40
0
40
0
40
0
40
0
40
0
40
0
40
0
40
0
40
0
40
1
40
1
40
1
40
1
40
1
40
1
40
1
40
1
40
1
40
1
40
1
40
1
41
1
10
63.8276970371813
20
1.38652219625627
30
0
41
1
10
63.8573147458933
20
1.38652219625627
30
0
41
1
10
63.8869324524183
20
1.38173665478703
30
0
41
1
10
63.9156769179522
20
1.37216557307855
30
0
41
1
10
63.9426748811853
20
1.35798531980228
30
0
41
1
10
63.9670944854903
20
1.33954863916509
30
0
41
1
10
63.9881866153042
20
1.31737349856394
30
0
41
1
10
64.0053226369103
20
1.29212081094417
30
0
41
1
10
64.0180247886213
20
1.26456247550425
30
0
41
1
10
64.0259864169293
20
1.23554273209967
30
0
41
1
10
64.0290807854092
20
1.20593653947751
30
0
41
1
10
64.0273586688442
20
1.17660860132705
30
0
0
SPLINE
5
131
100
AcDbEntity
8
1
62
256
6
ByLayer
370
18
48
1
60
0
100
AcDbSpline
70
4
71
8
72
18
73
9
40
0
40
0
40
0
40
0
40
0
40
0
40
0
40
0
40
0
40
1
40
1
40
1
40
1
40
1
40
1
40
1
40
1
40
1
41
1
10
63.865
20
-2.7270687800289
30
0
41
1
10
63.865
20
-2.7217224484541
30
0
41
1
10
63.865
20
-2.71636767913338
30
0
41
1
10
63.865
20
-2.71100541881035
30
0
41
1
10
63.865
20
-2.70563661628074
30
0
41
1
10
63.865
20
-2.7002622221147
30
0
41
1
10
63.865
20
-2.69488318826856
30
0
41
1
10
63.865
20
-2.68950046770553
30
0
41
1
10
63.865
20
-2.68411501408411
30
0
0
SPLINE
5
132
100
AcDbEntity
8
1
62
256
6
ByLayer
370
18
48
1
60
0
100
AcDbSpline
70
4
71
5
72
12
73
6
40
0
40
0
40
0
40
0
40
0
40
0
40
1
40
1
40
1
40
1
40
1
40
1
41
1
10
63.7149999999999
20
-8.54017457911581
30
0
41
1
10
63.715000005788
20
-8.54880809275133
30
0
41
1
10
63.714479620531
20
-8.55741684249534
30
0
41
1
10
63.713438991369
20
-8.56595449565381
30
0
41
1
10
63.711898973823
20
-8.57437902113253
30
0
41
1
10
63.709894646959
20
-8.58265612302793
30
0
0
SPLINE
5
133
100
AcDbEntity
8
1
62
256
6
ByLayer
370
18
48
1
60
0
100
AcDbSpline
70
4
71
5
72
12
73
6
40
0
40
0
40
0
40
0
40
0
40
0
40
1
40
1
40
1
40
1
40
1
40
1
41
1
10
62.785
20
-8.54017457911581
30
0
41
1
10
62.784999994212
20
-8.54880809275133
30
0
41
1
10
62.7855203794689
20
-8.55741684249531
30
0
41
1
10
62.786561008631
20
-8.56595449565381
30
0
41
1
10
62.788101026177
20
-8.57437902113253
30
0
41
1
10
62.790105353041
20
-8.58265612302793
30
0
0
SPLINE
5
134
100
AcDbEntity
8
1
62
256
6
ByLayer
370
18
48
1
60
0
100
AcDbSpline
70
4
71
2
72
6
73
3
40
0
40
0
40
0
40
1
40
1
40
1
41
1
10
63.865
20
-1.39181992301107
30
0
41
1
10
63.8650814807595
20
-1.36457425587173
30
0
41
1
10
63.87181483481
20
-1.33834425513461
30
0
0
SPLINE
5
135
100
AcDbEntity
8
1
62
256
6
ByLayer
370
18
48
1
60
0
100
AcDbSpline
70
4
71
3
72
8
73
4
40
0
40
0
40
0
40
0
40
1
40
1
40
1
40
1
41
1
10
63.9400740520553
20
-1.0586804707161
30
0
41
1
10
63.939385075654
20
-1.07228650031368
30
0
41
1
10
63.9373116520869
20
-1.08581216263607
30
0
41
1
10
63.9338985667085
20
-1.09898217209059
30
0
0
SPLINE
5
136
100
AcDbEntity
8
1
62
256
6
ByLayer
370
18
48
1
60
0
100
AcDbSpline
70
4
71
3
72
40
73
36
40
0
40
0
40
0
40
0
40
0.062499999999979
40
0.062499999999979
40
0.0937499999999688
40
0.0937499999999688
40
0.124999999999959
40
0.124999999999959
40
0.187499999999938
40
0.187499999999938
40
0.249999999999917
40
0.249999999999917
40
0.312499999999897
40
0.312499999999897
40
0.374999999999876
40
0.374999999999876
40
0.437499999999855
40
0.437499999999855
40
0.499999999999835
40
0.499999999999835
40
0.624999999999876
40
0.624999999999876
40
0.687499999999896
40
0.687499999999896
40
0.749999999999917
40
0.749999999999917
40
0.812499999999938
40
0.812499999999938
40
0.874999999999958
40
0.874999999999958
40
0.906249999999969
40
0.906249999999969
40
0.93749999999998
40
0.93749999999998
40
1
40
1
40
1
40
1
41
1
10
59.0024555283295
20
-2.9748969472553
30
0
41
1
10
58.9872317784598
20
-2.96507441365412
30
0
41
1
10
58.9708487914538
20
-2.95784807156761
30
0
41
1
10
58.9450991304891
20
-2.94961969548626
30
0
41
1
10
58.9363147828387
20
-2.94733072388044
30
0
41
1
10
58.9186464842861
20
-2.94358835898669
30
0
41
1
10
58.909728406013
20
-2.94212390760438
30
0
41
1
10
58.8827525159112
20
-2.93879339577802
30
0
41
1
10
58.8646643161353
20
-2.93800145152673
30
0
41
1
10
58.8284176406189
20
-2.93868271661259
30
0
41
1
10
58.8103083840357
20
-2.94016558182045
30
0
41
1
10
58.7744110680449
20
-2.94504133209128
30
0
41
1
10
58.7565249435759
20
-2.94845260558574
30
0
41
1
10
58.7212759242756
20
-2.95694745072055
30
0
41
1
10
58.7038968366145
20
-2.96202909204069
30
0
41
1
10
58.669599046329
20
-2.97375251016729
30
0
41
1
10
58.6526925150704
20
-2.98039641640918
30
0
41
1
10
58.6196659033581
20
-2.99506041841346
30
0
41
1
10
58.6035012456548
20
-3.00309518697182
30
0
41
1
10
58.5560551627023
20
-3.02930000037992
30
0
41
1
10
58.5263157926568
20
-3.04925110166653
30
0
41
1
10
58.4846557643211
20
-3.08308553894526
30
0
41
1
10
58.4713417815611
20
-3.09496525879135
30
0
41
1
10
58.4460570077267
20
-3.11988637713338
30
0
41
1
10
58.4340360564495
20
-3.13297760240442
30
0
41
1
10
58.411585452624
20
-3.16035214412105
30
0
41
1
10
58.401145214411
20
-3.17464444992842
30
0
41
1
10
58.3822749619371
20
-3.20440021451611
30
0
41
1
10
58.3738227707148
20
-3.2198945606608
30
0
41
1
10
58.3631540622287
20
-3.24397665626924
30
0
41
1
10
58.3599374750649
20
-3.25213492089912
30
0
41
1
10
58.3542850262753
20
-3.26875739633434
30
0
41
1
10
58.3518451352137
20
-3.27724838039688
30
0
41
1
10
58.3460122497646
20
-3.30286736817516
30
0
41
1
10
58.34400095688
20
-3.32022804094885
30
0
41
1
10
58.3447949134742
20
-3.3380269641537
30
0
0
SPLINE
5
137
100
AcDbEntity
8
1
62
256
6
ByLayer
370
18
48
1
60
0
100
AcDbSpline
70
4
71
3
72
8
73
4
40
0
40
0
40
0
40
0
40
1
40
1
40
1
40
1
41
1
10
58.3447949134742
20
-3.3380269641537
30
0
41
1
10
58.3451262173426
20
-3.34545413605988
30
0
41
1
10
58.3454580305965
20
-3.35288089815688
30
0
41
1
10
58.3457903334453
20
-3.36030726511638
30
0
0
SPLINE
5
138
100
AcDbEntity
8
1
62
256
6
ByLayer
370
18
48
1
60
0
100
AcDbSpline
70
4
71
3
72
32
73
28
40
0
40
0
40
0
40
0
40
0.125
40
0.125
40
0.249999999999999
40
0.249999999999999
40
0.374999999999998
40
0.374999999999998
40
0.499999999999998
40
0.499999999999998
40
0.562499999999998
40
0.562499999999998
40
0.624999999999999
40
0.624999999999999
40
0.687499999999999
40
0.687499999999999
40
0.749999999999999
40
0.749999999999999
40
0.8125
40
0.8125
40
0.84375
40
0.84375
40
0.875
40
0.875
40
0.9375
40
0.9375
40
1
40
1
40
1
40
1
41
1
10
59.4434349037595
20
-2.80482285280959
30
0
41
1
10
59.4313437530371
20
-2.82324358956063
30
0
41
1
10
59.418477039087
20
-2.84113011152951
30
0
41
1
10
59.3911324720915
20
-2.87579148958292
30
0
41
1
10
59.3766625879806
20
-2.8925518794384
30
0
41
1
10
59.3461451731153
20
-2.92455879479155
30
0
41
1
10
59.3301020226892
20
-2.93980931571576
30
0
41
1
10
59.2962696105241
20
-2.96834130889405
30
0
41
1
10
59.2785403423591
20
-2.98158641541477
30
0
41
1
10
59.2504448198436
20
-2.99931445323537
30
0
41
1
10
59.2408746061978
20
-3.00483337963257
30
0
41
1
10
59.2212473593135
20
-3.0149400897119
30
0
41
1
10
59.2111516477102
20
-3.01954444895088
30
0
41
1
10
59.1905414122078
20
-3.02750980008258
30
0
41
1
10
59.1800773488079
20
-3.03085747144539
30
0
41
1
10
59.1587578370393
20
-3.03597560592897
30
0
41
1
10
59.1478678442012
20
-3.03775427676627
30
0
41
1
10
59.1257192223919
20
-3.0391911469207
30
0
41
1
10
59.1147110636951
20
-3.03883565480609
30
0
41
1
10
59.0983251460751
20
-3.03631505101211
30
0
41
1
10
59.0928717272024
20
-3.03513232253491
30
0
41
1
10
59.0823050839768
20
-3.0321076714358
30
0
41
1
10
59.07715624413
20
-3.0302625022901
30
0
41
1
10
59.0621262353298
20
-3.02369839877588
30
0
41
1
10
59.0525489199487
20
-3.01782751783094
30
0
41
1
10
59.035621125234
20
-3.00402040428625
30
0
41
1
10
59.028137206501
20
-2.9960725770699
30
0
41
1
10
59.0215217889478
20
-2.98719935913456
30
0
0
SPLINE
5
139
100
AcDbEntity
8
1
62
256
6
ByLayer
370
18
48
1
60
0
100
AcDbSpline
70
4
71
3
72
8
73
4
40
0
40
0
40
0
40
0
40
1
40
1
40
1
40
1
41
1
10
59.0215217889478
20
-2.98719935913456
30
0
41
1
10
59.0151666518852
20
-2.9830985248897
30
0
41
1
10
59.0088112350796
20
-2.97899772030044
30
0
41
1
10
59.0024555283295
20
-2.9748969472553
30
0
0
SPLINE
5
13A
100
AcDbEntity
8
1
62
256
6
ByLayer
370
18
48
1
60
0
100
AcDbSpline
70
4
71
3
72
31
73
27
40
0
40
0
40
0
40
0
40
0.24999999999976
40
0.24999999999976
40
0.374999999999715
40
0.374999999999715
40
0.499999999999669
40
0.499999999999669
40
0.562499999999714
40
0.562499999999714
40
0.624999999999759
40
0.624999999999759
40
0.687499999999805
40
0.687499999999805
40
0.74999999999985
40
0.74999999999985
40
0.781249999999874
40
0.781249999999874
40
0.812499999999897
40
0.843749999999921
40
0.843749999999921
40
0.874999999999944
40
0.874999999999944
40
0.937499999999972
40
0.937499999999972
40
1
40
1
40
1
40
1
41
1
10
57.9841873369754
20
-3.61055240634508
30
0
41
1
10
58.0266987852476
20
-3.61055240634508
30
0
41
1
10
58.0693865943991
20
-3.60681687819508
30
0
41
1
10
58.1321441199513
20
-3.59487202249451
30
0
41
1
10
58.1528807366547
20
-3.58981533671476
30
0
41
1
10
58.1935546877991
20
-3.5771962148572
30
0
41
1
10
58.2135181205414
20
-3.56963390406665
30
0
41
1
10
58.2423549263892
20
-3.55593029946584
30
0
41
1
10
58.2517984989688
20
-3.55095580397901
30
0
41
1
10
58.2701052666402
20
-3.54012226913386
30
0
41
1
10
58.2790251322982
20
-3.53422720160799
30
0
41
1
10
58.2959691782986
20
-3.52147596656331
30
0
41
1
10
58.3039772123325
20
-3.51464082547912
30
0
41
1
10
58.3188455315308
20
-3.49985003521584
30
0
41
1
10
58.3257097873608
20
-3.49189810836143
30
0
41
1
10
58.3348647189881
20
-3.47887019446719
30
0
41
1
10
58.3377413513948
20
-3.47430989005127
30
0
41
1
10
58.342932677303
20
-3.46493977813444
30
0
41
1
10
58.347566155037
20
-3.45533104327342
30
0
41
1
10
58.3509882642687
20
-3.44520774529102
30
0
41
1
10
58.3537401966875
20
-3.43480149228077
30
0
41
1
10
58.3547743803901
20
-3.42945031655051
30
0
41
1
10
58.3567228845836
20
-3.41345163027998
30
0
41
1
10
58.3565399166704
20
-3.40269881196363
30
0
41
1
10
58.3531929933799
20
-3.38102383665159
30
0
41
1
10
58.3500916899878
20
-3.37050493776937
30
0
41
1
10
58.3457903334453
20
-3.36030726511638
30
0
0
SPLINE
5
13B
100
AcDbEntity
8
1
62
256
6
ByLayer
370
18
48
1
60
0
100
AcDbSpline
70
4
71
3
72
40
73
36
40
0
40
0
40
0
40
0
40
0.0625000000000488
40
0.0625000000000488
40
0.0937500000000734
40
0.0937500000000734
40
0.125000000000098
40
0.125000000000098
40
0.187500000000087
40
0.187500000000087
40
0.250000000000076
40
0.250000000000076
40
0.312500000000066
40
0.312500000000066
40
0.375000000000055
40
0.375000000000055
40
0.437500000000044
40
0.437500000000044
40
0.500000000000034
40
0.500000000000034
40
0.625000000000019
40
0.625000000000019
40
0.687500000000016
40
0.687500000000016
40
0.750000000000013
40
0.750000000000013
40
0.81250000000001
40
0.81250000000001
40
0.875000000000006
40
0.875000000000006
40
0.906250000000005
40
0.906250000000005
40
0.937500000000003
40
0.937500000000003
40
1
40
1
40
1
40
1
41
1
10
59.482793941744
20
-1.60429780933899
30
0
41
1
10
59.4666936098071
20
-1.6098272796718
30
0
41
1
10
59.4521242960524
20
-1.61770328995672
30
0
41
1
10
59.4317966591563
20
-1.63191062834053
30
0
41
1
10
59.4252877246505
20
-1.63706000432623
30
0
41
1
10
59.4129021028518
20
-1.64792614579113
30
0
41
1
10
59.4069983533518
20
-1.65366163816989
30
0
41
1
10
59.3900383304932
20
-1.67166900276365
30
0
41
1
10
59.3798433220491
20
-1.68460709792871
30
0
41
1
10
59.3612523409167
20
-1.71193573009737
30
0
41
1
10
59.3528902652929
20
-1.7262954670889
30
0
41
1
10
59.3378716790567
20
-1.75599512471888
30
0
41
1
10
59.3311782630763
20
-1.77141927009313
30
0
41
1
10
59.3194022078326
20
-1.80297778155477
30
0
41
1
10
59.3143095244569
20
-1.81912275207722
30
0
41
1
10
59.3056046875813
20
-1.85211905665688
30
0
41
1
10
59.3020006295423
20
-1.86896285224648
30
0
41
1
10
59.2962935716669
20
-1.90300893099891
30
0
41
1
10
59.2941788246435
20
-1.92025367740774
30
0
41
1
10
59.2900433757201
20
-1.97265371656181
30
0
41
1
10
59.2902361023741
20
-2.00790251596837
30
0
41
1
10
59.2951749740209
20
-2.06123354884576
30
0
41
1
10
59.2975998487833
20
-2.07899264202627
30
0
41
1
10
59.3040860448817
20
-2.1142766672248
30
0
41
1
10
59.3081605070713
20
-2.13187196184629
30
0
41
1
10
59.3181128311819
20
-2.16662844395071
30
0
41
1
10
59.3239922130498
20
-2.18380358733603
30
0
41
1
10
59.337775750187
20
-2.21734338273433
30
0
41
1
10
59.3456927603466
20
-2.23374503417611
30
0
41
1
10
59.3593399422926
20
-2.25728650055336
30
0
41
1
10
59.3641794532528
20
-2.26494721827348
30
0
41
1
10
59.3745324505185
20
-2.27983635884991
30
0
41
1
10
59.3800653880399
20
-2.28708470192976
30
0
41
1
10
59.3975980175114
20
-2.30772360702886
30
0
41
1
10
59.410543891475
20
-2.32014685308789
30
0
41
1
10
59.4253919900761
20
-2.33055784313581
30
0
0
SPLINE
5
13C
100
AcDbEntity
8
1
62
256
6
ByLayer
370
18
48
1
60
0
100
AcDbSpline
70
4
71
3
72
8
73
4
40
0
40
0
40
0
40
0
40
1
40
1
40
1
40
1
41
1
10
59.4253919900761
20
-2.33055784313578
30
0
41
1
10
59.4315878357193
20
-2.33490216284039
30
0
41
1
10
59.4377834126286
20
-2.33924648177487
30
0
41
1
10
59.4439787302098
20
-2.34359079926315
30
0
0
SPLINE
5
13D
100
AcDbEntity
8
1
62
256
6
ByLayer
370
18
48
1
60
0
100
AcDbSpline
70
4
71
3
72
31
73
27
40
0
40
0
40
0
40
0
40
0.249999999999874
40
0.249999999999874
40
0.374999999999841
40
0.374999999999841
40
0.499999999999808
40
0.499999999999808
40
0.562499999999803
40
0.562499999999803
40
0.624999999999799
40
0.624999999999799
40
0.687499999999795
40
0.687499999999795
40
0.74999999999979
40
0.74999999999979
40
0.781249999999788
40
0.781249999999788
40
0.812499999999786
40
0.843749999999784
40
0.843749999999784
40
0.874999999999782
40
0.874999999999782
40
0.937499999999891
40
0.937499999999891
40
1
40
1
40
1
40
1
41
1
10
59.4434349037595
20
-2.80482285280959
30
0
41
1
10
59.4676004808667
20
-2.76800685865416
30
0
41
1
10
59.4887431096822
20
-2.72902084426536
30
0
41
1
10
59.5144582507868
20
-2.66813611716199
30
0
41
1
10
59.5220324647068
20
-2.64740304130012
30
0
41
1
10
59.5346564487823
20
-2.6051994718344
30
0
41
1
10
59.5397208780277
20
-2.58370730687966
30
0
41
1
10
59.5447537338296
20
-2.55103314232187
30
0
41
1
10
59.5460022892394
20
-2.54004738116797
30
0
41
1
10
59.5474489678472
20
-2.51804240931406
30
0
41
1
10
59.5476495197632
20
-2.50695363079339
30
0
41
1
10
59.5467641795195
20
-2.48495215901764
30
0
41
1
10
59.5456863605495
20
-2.4740658108291
30
0
41
1
10
59.5419777457786
20
-2.45257063368277
30
0
41
1
10
59.5393521497147
20
-2.44196089637109
30
0
41
1
10
59.5338853778742
20
-2.42631747420839
30
0
41
1
10
59.5317890473958
20
-2.42111431921796
30
0
41
1
10
59.5270816741167
20
-2.41101903892431
30
0
41
1
10
59.5218706926948
20
-2.40123809645658
30
0
41
1
10
59.5155705432731
20
-2.3921373846365
30
0
41
1
10
59.5086699318407
20
-2.38341187943973
30
0
41
1
10
59.504910371345
20
-2.37923813183781
30
0
41
1
10
59.4930375203349
20
-2.36769686174884
30
0
41
1
10
59.4842319170399
20
-2.36116296646421
30
0
41
1
10
59.4648373022854
20
-2.35042361380724
30
0
41
1
10
59.454609342531
20
-2.34641762367832
30
0
41
1
10
59.4439787302098
20
-2.34359079926315
30
0
0
SPLINE
5
13E
100
AcDbEntity
8
1
62
256
6
ByLayer
370
18
48
1
60
0
100
AcDbSpline
70
4
71
3
72
8
73
4
40
0
40
0
40
0
40
0
40
1
40
1
40
1
40
1
41
1
10
59.5029579414824
20
-1.5973749872995
30
0
41
1
10
59.4962369387216
20
-1.59968173524047
30
0
41
1
10
59.4895156094833
20
-1.60198933132148
30
0
41
1
10
59.482793941744
20
-1.60429780933899
30
0
0
SPLINE
5
13F
100
AcDbEntity
8
1
62
256
6
ByLayer
370
18
48
1
60
0
100
AcDbSpline
70
4
71
3
72
32
73
28
40
0
40
0
40
0
40
0
40
0.124999999999964
40
0.124999999999964
40
0.249999999999929
40
0.249999999999929
40
0.374999999999893
40
0.374999999999893
40
0.499999999999857
40
0.499999999999857
40
0.562499999999838
40
0.562499999999838
40
0.624999999999819
40
0.624999999999819
40
0.6874999999998
40
0.6874999999998
40
0.749999999999781
40
0.749999999999781
40
0.812499999999762
40
0.812499999999762
40
0.843749999999802
40
0.843749999999802
40
0.874999999999841
40
0.874999999999841
40
0.937499999999921
40
0.937499999999921
40
1
40
1
40
1
40
1
41
1
10
59.5708009895612
20
-1.19336374573859
30
0
41
1
10
59.5799802734825
20
-1.21178448248963
30
0
41
1
10
59.5882871932313
20
-1.2305419034592
30
0
41
1
10
59.6030892376191
20
-1.26874893056188
30
0
41
1
10
59.6095762875312
20
-1.2881853871757
30
0
41
1
10
59.6204208695917
20
-1.3275057894522
30
0
41
1
10
59.6247840263532
20
-1.34738873093622
30
0
41
1
10
59.6309163961822
20
-1.38746564977276
30
0
41
1
10
59.6326865226683
20
-1.40759657806953
30
0
41
1
10
59.6327485801358
20
-1.43778652261145
30
0
41
1
10
59.6323326166203
20
-1.44779715723044
30
0
41
1
10
59.6304637356777
20
-1.46768107208692
30
0
41
1
10
59.6290043148987
20
-1.47759181481371
30
0
41
1
10
59.6248266822154
20
-1.49704675590147
30
0
41
1
10
59.6221238518899
20
-1.50654670513012
30
0
41
1
10
59.6151997887698
20
-1.52496401041896
30
0
41
1
10
59.6109672235471
20
-1.53391129090664
30
0
41
1
10
59.6005492026756
20
-1.55088934151968
30
0
41
1
10
59.5944837150283
20
-1.55872944467498
30
0
41
1
10
59.5838072308136
20
-1.56927157292819
30
0
41
1
10
59.5799694691486
20
-1.5725853050815
30
0
41
1
10
59.5719275394759
20
-1.57858871031755
30
0
41
1
10
59.5677020124232
20
-1.58130256233042
30
0
41
1
10
59.5543945995021
20
-1.58855128245691
30
0
41
1
10
59.5445210184203
20
-1.592204914337
30
0
41
1
10
59.5242397435437
20
-1.59669278784207
30
0
41
1
10
59.5137524081864
20
-1.59761820968765
30
0
41
1
10
59.5029579414824
20
-1.5973749872995
30
0
0
SPLINE
5
140
100
AcDbEntity
8
1
62
256
6
ByLayer
370
18
48
1
60
0
100
AcDbSpline
70
4
71
3
72
40
73
36
40
0
40
0
40
0
40
0
40
0.0624999999999484
40
0.0624999999999484
40
0.0937499999999375
40
0.0937499999999375
40
0.124999999999927
40
0.124999999999927
40
0.187499999999949
40
0.187499999999949
40
0.249999999999972
40
0.249999999999972
40
0.312499999999995
40
0.312499999999995
40
0.375000000000017
40
0.375000000000017
40
0.43750000000004
40
0.43750000000004
40
0.500000000000063
40
0.500000000000063
40
0.625000000000107
40
0.625000000000107
40
0.68750000000009
40
0.68750000000009
40
0.750000000000073
40
0.750000000000073
40
0.812500000000055
40
0.812500000000055
40
0.875000000000038
40
0.875000000000038
40
0.906250000000029
40
0.906250000000029
40
0.937500000000019
40
0.937500000000019
40
1
40
1
40
1
40
1
41
1
10
57.6007762030486
20
-3.3380269641537
30
0
41
1
10
57.5993090235224
20
-3.32023674635636
30
0
41
1
10
57.5953040684373
20
-3.30285480472915
30
0
41
1
10
57.5867658024492
20
-3.27717726555329
30
0
41
1
10
57.5834815369355
20
-3.26868940941131
30
0
41
1
10
57.5762638623857
20
-3.25206792593707
30
0
41
1
10
57.5723192326968
20
-3.24390019065822
30
0
41
1
10
57.5596155635619
20
-3.21976619544643
30
0
41
1
10
57.5500858895836
20
-3.20433372405626
30
0
41
1
10
57.5294413359258
20
-3.17457704835715
30
0
41
1
10
57.5183470329832
20
-3.16029876633414
30
0
41
1
10
57.4950719063017
20
-3.13298188860398
30
0
41
1
10
57.4828239960444
20
-3.11987129091941
30
0
41
1
10
57.4575436844365
20
-3.0949274419545
30
0
41
1
10
57.4445033599991
20
-3.08307981004327
30
0
41
1
10
57.4176988441886
20
-3.06054653590869
30
0
41
1
10
57.4039401581906
20
-3.04987204866492
30
0
41
1
10
57.3760139857038
20
-3.02985890687734
30
0
41
1
10
57.3618119716914
20
-3.02049069601603
30
0
41
1
10
57.31850257582
20
-2.99429675832485
30
0
41
1
10
57.2891769264459
20
-2.97962994701527
30
0
41
1
10
57.2443971060468
20
-2.96202573888098
30
0
41
1
10
57.229414492966
20
-2.95693308621242
30
0
41
1
10
57.1994495196869
20
-2.94844895665608
30
0
41
1
10
57.1844075772806
20
-2.94504081265555
30
0
41
1
10
57.1544063318995
20
-2.94015734127484
30
0
41
1
10
57.1394355470869
20
-2.93867769626556
30
0
41
1
10
57.1097710474806
20
-2.93800342216062
30
0
41
1
10
57.0950453639536
20
-2.9388058675608
30
0
41
1
10
57.0734119776445
20
-2.94213710431794
30
0
41
1
10
57.0662851907799
20
-2.94360141320652
30
0
41
1
10
57.0522150813739
20
-2.94734807768978
30
0
41
1
10
57.0452516243144
20
-2.94964076729892
30
0
41
1
10
57.0249954997985
20
-2.9578555470618
30
0
41
1
10
57.0122267733861
20
-2.96506960712733
30
0
41
1
10
57.0005175398612
20
-2.9748969472553
30
0
0
SPLINE
5
141
100
AcDbEntity
8
1
62
256
6
ByLayer
370
18
48
1
60
0
100
AcDbSpline
70
4
71
3
72
8
73
4
40
0
40
0
40
0
40
0
40
1
40
1
40
1
40
1
41
1
10
57.0005175398612
20
-2.9748969472553
30
0
41
1
10
56.9956314864029
20
-2.97899772030041
30
0
41
1
10
56.9907466345795
20
-2.9830985248897
30
0
41
1
10
56.9858629386265
20
-2.98719935913456
30
0
0
SPLINE
5
142
100
AcDbEntity
8
1
62
256
6
ByLayer
370
18
48
1
60
0
100
AcDbSpline
70
4
71
3
72
32
73
28
40
0
40
0
40
0
40
0
40
0.125000000000027
40
0.125000000000027
40
0.250000000000054
40
0.250000000000054
40
0.37500000000008
40
0.37500000000008
40
0.500000000000107
40
0.500000000000107
40
0.56250000000012
40
0.56250000000012
40
0.625000000000133
40
0.625000000000133
40
0.687500000000146
40
0.687500000000146
40
0.750000000000159
40
0.750000000000159
40
0.812500000000172
40
0.812500000000172
40
0.843750000000143
40
0.843750000000143
40
0.875000000000114
40
0.875000000000114
40
0.937500000000057
40
0.937500000000057
40
1
40
1
40
1
40
1
41
1
10
57.9841873369754
20
-3.61055240634508
30
0
41
1
10
57.9629169023316
20
-3.61055240634508
30
0
41
1
10
57.941671611283
20
-3.60960696224382
30
0
41
1
10
57.8992284231762
20
-3.60575278459643
30
0
41
1
10
57.8780465661431
20
-3.6028427305576
30
0
41
1
10
57.8360525589944
20
-3.59487176375612
30
0
41
1
10
57.8152398954013
20
-3.58981661085679
30
0
41
1
10
57.7742212865349
20
-3.57717538969772
30
0
41
1
10
57.7540775781615
20
-3.56961928871965
30
0
41
1
10
57.7246903622227
20
-3.55587819240736
30
0
41
1
10
57.7150838536486
20
-3.55091599998167
30
0
41
1
10
57.6963131633743
20
-3.54008567477229
30
0
41
1
10
57.6871146197531
20
-3.5341943800172
30
0
41
1
10
57.6694253087929
20
-3.52139743729089
30
0
41
1
10
57.6609731880271
20
-3.51452642934939
30
0
41
1
10
57.6450306702223
20
-3.49961784337367
30
0
41
1
10
57.6375146362387
20
-3.4915560260028
30
0
41
1
10
57.6238467935665
20
-3.4739995340608
30
0
41
1
10
57.6178475508243
20
-3.4647047878548
30
0
41
1
10
57.6103810473079
20
-3.44981417676232
30
0
41
1
10
57.6081487645707
20
-3.44467624094142
30
0
41
1
10
57.6043599460927
20
-3.43433313696573
30
0
41
1
10
57.6027855419807
20
-3.42909678587645
30
0
41
1
10
57.5990491286318
20
-3.413188989058
30
0
41
1
10
57.5978996650653
20
-3.40216048489182
30
0
41
1
10
57.5983619690776
20
-3.38085780892479
30
0
41
1
10
57.599906642365
20
-3.37046702999243
30
0
41
1
10
57.6026151828563
20
-3.36030726511638
30
0
0
SPLINE
5
143
100
AcDbEntity
8
1
62
256
6
ByLayer
370
18
48
1
60
0
100
AcDbSpline
70
4
71
3
72
8
73
4
40
0
40
0
40
0
40
0
40
1
40
1
40
1
40
1
41
1
10
57.6026151828563
20
-3.36030726511638
30
0
41
1
10
57.6020017297752
20
-3.35288089815688
30
0
41
1
10
57.6013887303758
20
-3.34545413605988
30
0
41
1
10
57.6007762030486
20
-3.3380269641537
30
0
0
SPLINE
5
144
100
AcDbEntity
8
1
62
256
6
ByLayer
370
18
48
1
60
0
100
AcDbSpline
70
4
71
3
72
31
73
27
40
0
40
0
40
0
40
0
40
0.250000000000016
40
0.250000000000016
40
0.375000000000024
40
0.375000000000024
40
0.500000000000032
40
0.500000000000032
40
0.562500000000088
40
0.562500000000088
40
0.625000000000144
40
0.625000000000144
40
0.6875000000002
40
0.6875000000002
40
0.750000000000256
40
0.750000000000256
40
0.781250000000223
40
0.781250000000223
40
0.81250000000019
40
0.843750000000157
40
0.843750000000157
40
0.875000000000124
40
0.875000000000124
40
0.937500000000062
40
0.937500000000062
40
1
40
1
40
1
40
1
41
1
10
56.652305855993
20
-2.80482285280956
30
0
41
1
10
56.670651727158
20
-2.841638846965
30
0
41
1
10
56.6919188643342
20
-2.87660008506157
30
0
41
1
10
56.728014141341
20
-2.924554681128
30
0
41
1
10
56.7407700484117
20
-2.93980819394952
30
0
41
1
10
56.7677680636434
20
-2.96829829665489
30
0
41
1
10
56.7820222123497
20
-2.98155730874407
30
0
41
1
10
56.8046000258663
20
-2.99925231956146
30
0
41
1
10
56.8123417389328
20
-3.0047920132256
30
0
41
1
10
56.828189314062
20
-3.01491013255966
30
0
41
1
10
56.8363460271895
20
-3.01951857045245
30
0
41
1
10
56.8529233841123
20
-3.02746632178687
30
0
41
1
10
56.861322064487
20
-3.03080266359294
30
0
41
1
10
56.8783648435735
20
-3.03591107001677
30
0
41
1
10
56.8870083472058
20
-3.03768842485494
30
0
41
1
10
56.9001940475279
20
-3.03881005986102
30
0
41
1
10
56.9046565658099
20
-3.03892189520298
30
0
41
1
10
56.9134877508944
20
-3.03853652926102
30
0
41
1
10
56.9222195500568
20
-3.03755123730409
30
0
41
1
10
56.9307284305561
20
-3.03526637453262
30
0
41
1
10
56.9391105941123
20
-3.03226405081486
30
0
41
1
10
56.943239576992
20
-3.03039507186176
30
0
41
1
10
56.9550370555238
20
-3.02383221792027
30
0
41
1
10
56.9622517162211
20
-3.01814857961875
30
0
41
1
10
56.9753598842645
20
-3.00415497240726
30
0
41
1
10
56.9810096782202
20
-2.99610568452567
30
0
41
1
10
56.9858629386265
20
-2.98719935913456
30
0
0
SPLINE
5
145
100
AcDbEntity
8
1
62
256
6
ByLayer
370
18
48
1
60
0
100
AcDbSpline
70
4
71
3
72
8
73
4
40
0
40
0
40
0
40
0
40
1
40
1
40
1
40
1
41
1
10
59.161711693065
20
-0.959958705219492
30
0
41
1
10
59.1685547231561
20
-0.957893773861429
30
0
41
1
10
59.1753973986438
20
-0.955829692125604
30
0
41
1
10
59.1822397321554
20
-0.953766427428064
30
0
0
SPLINE
5
146
100
AcDbEntity
8
1
62
256
6
ByLayer
370
18
48
1
60
0
100
AcDbSpline
70
4
71
3
72
31
73
27
40
0
40
0
40
0
40
0
40
0.250000000000119
40
0.250000000000119
40
0.375000000000179
40
0.375000000000179
40
0.500000000000239
40
0.500000000000239
40
0.562500000000209
40
0.562500000000209
40
0.625000000000179
40
0.625000000000179
40
0.687500000000149
40
0.687500000000149
40
0.750000000000119
40
0.750000000000119
40
0.781250000000104
40
0.781250000000104
40
0.81250000000009
40
0.843750000000075
40
0.843750000000075
40
0.87500000000006
40
0.87500000000006
40
0.93750000000003
40
0.93750000000003
40
1
40
1
40
1
40
1
41
1
10
59.5708009895612
20
-1.19336374573859
30
0
41
1
10
59.5524551183962
20
-1.15654775158316
30
0
41
1
10
59.5306318949005
20
-1.12100801720223
30
0
41
1
10
59.492642403012
20
-1.07108287046296
30
0
41
1
10
59.4790735045159
20
-1.05498360312024
30
0
41
1
10
59.4499715856098
20
-1.02430481060927
30
0
41
1
10
59.4344277273221
20
-1.00970411437012
30
0
41
1
10
59.4093976407472
20
-0.989458005273548
30
0
41
1
10
59.400749319474
20
-0.982975167603513
30
0
41
1
10
59.3828767164761
20
-0.97075041292004
30
0
41
1
10
59.3735948021195
20
-0.964971428823247
30
0
41
1
10
59.3545133865541
20
-0.95441870669552
30
0
41
1
10
59.3447403609213
20
-0.949652634292931
30
0
41
1
10
59.3246292720689
20
-0.941352266950673
30
0
41
1
10
59.3142930719135
20
-0.937814000874255
30
0
41
1
10
59.2982353653
20
-0.933704619343388
30
0
41
1
10
59.2927519578119
20
-0.932530753536355
30
0
41
1
10
59.2817857445219
20
-0.930695050840768
30
0
41
1
10
59.2708286253725
20
-0.929365343670412
30
0
41
1
10
59.259892988565
20
-0.929125653223622
30
0
41
1
10
59.2489700644187
20
-0.929484825132789
30
0
41
1
10
59.2435115589018
20
-0.929970702436322
30
0
41
1
10
59.2276663270264
20
-0.932322680857993
30
0
41
1
10
59.2176357169603
20
-0.935076888619903
30
0
41
1
10
59.1986485020754
20
-0.942954526718523
30
0
41
1
10
59.1900449833068
20
-0.947931056343606
30
0
41
1
10
59.1822397321555
20
-0.953766427428064
30
0
0
SPLINE
5
147
100
AcDbEntity
8
1
62
256
6
ByLayer
370
18
48
1
60
0
100
AcDbSpline
70
4
71
3
72
8
73
4
40
0
40
0
40
0
40
0
40
1
40
1
40
1
40
1
41
1
10
58.5614530298776
20
-0.596828688321096
30
0
41
1
10
58.5627974791832
20
-0.591437358101985
30
0
41
1
10
58.5641423034481
20
-0.586047318858419
30
0
41
1
10
58.5654874879256
20
-0.580658521446253
30
0
0
SPLINE
5
148
100
AcDbEntity
8
1
62
256
6
ByLayer
370
18
48
1
60
0
100
AcDbSpline
70
4
71
3
72
40
73
36
40
0
40
0
40
0
40
0
40
0.0312499999999503
40
0.0312499999999503
40
0.0624999999999006
40
0.0624999999999006
40
0.124999999999895
40
0.124999999999895
40
0.156249999999892
40
0.156249999999892
40
0.187499999999889
40
0.187499999999889
40
0.249999999999883
40
0.249999999999883
40
0.312499999999877
40
0.312499999999877
40
0.374999999999871
40
0.374999999999871
40
0.49999999999986
40
0.49999999999986
40
0.624999999999848
40
0.624999999999848
40
0.687499999999875
40
0.687499999999875
40
0.749999999999901
40
0.749999999999901
40
0.812499999999927
40
0.812499999999927
40
0.874999999999953
40
0.874999999999953
40
0.906249999999967
40
0.906249999999967
40
0.93749999999998
40
0.93749999999998
40
1
40
1
40
1
40
1
41
1
10
59.1617116930651
20
-0.959958705219492
30
0
41
1
10
59.1534797866352
20
-0.962442739557673
30
0
41
1
10
59.1450055740492
20
-0.96435146444
30
0
41
1
10
59.1276593997286
20
-0.967235512880109
30
0
41
1
10
59.1187985710086
20
-0.968202514393113
30
0
41
1
10
59.0922144132375
20
-0.96990279787758
30
0
41
1
10
59.0743062803421
20
-0.969488893041813
30
0
41
1
10
59.0472259808014
20
-0.967198819659927
30
0
41
1
10
59.0381547829459
20
-0.966148073799815
30
0
41
1
10
59.0202018710266
20
-0.963581483861162
30
0
41
1
10
59.0112854076085
20
-0.962063167204747
30
0
41
1
10
58.984693757188
20
-0.956894219558535
30
0
41
1
10
58.9671749429255
20
-0.952635054224913
30
0
41
1
10
58.9324868662066
20
-0.942774952626365
30
0
41
1
10
58.9152426178879
20
-0.937139138906872
30
0
41
1
10
58.8817135910471
20
-0.924902425825735
30
0
41
1
10
58.8653661429992
20
-0.918288452924003
30
0
41
1
10
58.8174683895974
20
-0.897137224279845
30
0
41
1
10
58.7870457648777
20
-0.881315960570959
30
0
41
1
10
58.729188439724
20
-0.846383365853541
30
0
41
1
10
58.702246436092
20
-0.827545933170455
30
0
41
1
10
58.6655490056103
20
-0.797459555351963
30
0
41
1
10
58.6539707777874
20
-0.787148472746452
30
0
41
1
10
58.6322865556651
20
-0.765967188675546
30
0
41
1
10
58.6221422692245
20
-0.755058781299567
30
0
41
1
10
58.6035861057925
20
-0.732660287451637
30
0
41
1
10
58.5951659922019
20
-0.72116375111176
30
0
41
1
10
58.5804756465093
20
-0.697603916940778
30
0
41
1
10
58.574188199014
20
-0.685517101941656
30
0
41
1
10
58.5668667639718
20
-0.666996398641118
30
0
41
1
10
58.5647814711931
20
-0.660764977153178
30
0
41
1
10
58.5614287832411
20
-0.648155587206077
30
0
41
1
10
58.5601609691334
20
-0.641757533047326
30
0
41
1
10
58.5578569566285
20
-0.622585896222887
30
0
41
1
10
58.5582273762253
20
-0.609763771808218
30
0
41
1
10
58.5614530298776
20
-0.596828688321096
30
0
0
SPLINE
5
149
100
AcDbEntity
8
1
62
256
6
ByLayer
370
18
48
1
60
0
100
AcDbSpline
70
4
71
3
72
31
73
27
40
0
40
0
40
0
40
0
40
0.250000000000233
40
0.250000000000233
40
0.375000000000277
40
0.375000000000277
40
0.500000000000321
40
0.500000000000321
40
0.562500000000279
40
0.562500000000279
40
0.625000000000238
40
0.625000000000238
40
0.687500000000196
40
0.687500000000196
40
0.750000000000155
40
0.750000000000155
40
0.781250000000135
40
0.781250000000135
40
0.812500000000116
40
0.843750000000097
40
0.843750000000097
40
0.875000000000077
40
0.875000000000077
40
0.937500000000039
40
0.937500000000039
40
1
40
1
40
1
40
1
41
1
10
58.2389195085788
20
-0.38763419220308
30
0
41
1
10
58.281430956851
20
-0.38763419220308
30
0
41
1
10
58.3235739936366
20
-0.390791224068749
30
0
41
1
10
58.3845990782637
20
-0.400765529096475
30
0
41
1
10
58.404603203462
20
-0.404976460354959
30
0
41
1
10
58.4434553699591
20
-0.415406892406963
30
0
41
1
10
58.4623294304774
20
-0.421627519047576
30
0
41
1
10
58.4892016654946
20
-0.432780025369169
30
0
41
1
10
58.4979334362838
20
-0.436811376850073
30
0
41
1
10
58.514694191433
20
-0.445538276345843
30
0
41
1
10
58.5227747087894
20
-0.450262797667733
30
0
41
1
10
58.5379089881957
20
-0.460409061919108
30
0
41
1
10
58.5449495566979
20
-0.465814472406777
30
0
41
1
10
58.557732100005
20
-0.477413301751653
30
0
41
1
10
58.5634785296261
20
-0.483604317367792
30
0
41
1
10
58.5708102122461
20
-0.493644484737246
30
0
41
1
10
58.5730499128317
20
-0.497142758688085
30
0
41
1
10
58.5769356020477
20
-0.504291801967383
30
0
41
1
10
58.5802333401547
20
-0.511585493954811
30
0
41
1
10
58.582254545733
20
-0.519184282465261
30
0
41
1
10
58.583570413459
20
-0.526947383666908
30
0
41
1
10
58.5838680247187
20
-0.530915457747597
30
0
41
1
10
58.5836203469874
20
-0.542703268498315
30
0
41
1
10
58.5819691577281
20
-0.550526656275082
30
0
41
1
10
58.5756793446907
20
-0.566085662474222
30
0
41
1
10
58.5711581251781
20
-0.573531803099939
30
0
41
1
10
58.5654874879256
20
-0.580658521446253
30
0
0
SPLINE
5
14A
100
AcDbEntity
8
1
62
256
6
ByLayer
370
18
48
1
60
0
100
AcDbSpline
70
4
71
3
72
40
73
36
40
0
40
0
40
0
40
0
40
0.0624999999999512
40
0.0624999999999512
40
0.0937499999999509
40
0.0937499999999509
40
0.124999999999951
40
0.124999999999951
40
0.18749999999995
40
0.18749999999995
40
0.24999999999995
40
0.24999999999995
40
0.312499999999949
40
0.312499999999949
40
0.374999999999949
40
0.374999999999949
40
0.437499999999949
40
0.437499999999949
40
0.499999999999948
40
0.499999999999948
40
0.624999999999953
40
0.624999999999953
40
0.687499999999957
40
0.687499999999957
40
0.749999999999961
40
0.749999999999961
40
0.812499999999965
40
0.812499999999965
40
0.874999999999969
40
0.874999999999969
40
0.906249999999987
40
0.906249999999987
40
0.937500000000004
40
0.937500000000004
40
1
40
1
40
1
40
1
41
1
10
56.6794352911822
20
-2.33055784313578
30
0
41
1
10
56.6908480999325
20
-2.3201519450763
30
0
41
1
10
56.7010348500192
20
-2.30771675627983
30
0
41
1
10
56.7151300030764
20
-2.28702576847459
30
0
41
1
10
56.7196212328441
20
-2.27977737538802
30
0
41
1
10
56.7281368590507
20
-2.26488527969195
30
0
41
1
10
56.7321800067194
20
-2.25721420427763
30
0
41
1
10
56.7437644257944
20
-2.23361460210052
30
0
41
1
10
56.7506864689457
20
-2.21727164298781
30
0
41
1
10
56.7632997315307
20
-2.18372439358646
30
0
41
1
10
56.7689675631878
20
-2.1665618361163
30
0
41
1
10
56.7791933555704
20
-2.13187623774428
30
0
41
1
10
56.7837763680133
20
-2.11425664076052
30
0
41
1
10
56.7919377281544
20
-2.0789377640227
30
0
41
1
10
56.7955225712259
20
-2.06122418808246
30
0
41
1
10
56.8018042833008
20
-2.0257071081397
30
0
41
1
10
56.804495915783
20
-2.00791411675803
30
0
41
1
10
56.8089897363582
20
-1.97260590792666
30
0
41
1
10
56.8108002767169
20
-1.95504469549616
30
0
41
1
10
56.8149382019558
20
-1.90264723245164
30
0
41
1
10
56.8159583699524
20
-1.86866020666585
30
0
41
1
10
56.8146576574722
20
-1.81911394871716
30
0
41
1
10
56.813745271593
20
-1.80292829686846
30
0
41
1
10
56.8108710688022
20
-1.77140182627019
30
0
41
1
10
56.8089035487335
20
-1.75599838234856
30
0
41
1
10
56.8037545897329
20
-1.7262388382583
30
0
41
1
10
56.8005728784016
20
-1.7118700800103
30
0
41
1
10
56.7927679212741
20
-1.68454979802331
30
0
41
1
10
56.7881379468243
20
-1.6715676479761
30
0
41
1
10
56.7798557731245
20
-1.65360739665081
30
0
41
1
10
56.7768748846828
20
-1.64788020288822
30
0
41
1
10
56.7703925607157
20
-1.63701772156077
30
0
41
1
10
56.7668783662414
20
-1.63186947573385
30
0
41
1
10
56.755564517579
20
-1.61769996480214
30
0
41
1
10
56.7469955244873
20
-1.60982998544489
30
0
41
1
10
56.7368372428501
20
-1.60429780933899
30
0
0
SPLINE
5
14B
100
AcDbEntity
8
1
62
256
6
ByLayer
370
18
48
1
60
0
100
AcDbSpline
70
4
71
3
72
8
73
4
40
0
40
0
40
0
40
0
40
1
40
1
40
1
40
1
41
1
10
56.7368372428501
20
-1.60429780933899
30
0
41
1
10
56.7325983738398
20
-1.60198933132148
30
0
41
1
10
56.7283606205947
20
-1.59968173524044
30
0
41
1
10
56.7241239405721
20
-1.59737498729947
30
0
0
SPLINE
5
14C
100
AcDbEntity
8
1
62
256
6
ByLayer
370
18
48
1
60
0
100
AcDbSpline
70
4
71
3
72
31
73
27
40
0
40
0
40
0
40
0
40
0.250000000000015
40
0.250000000000015
40
0.375000000000022
40
0.375000000000022
40
0.500000000000029
40
0.500000000000029
40
0.562500000000015
40
0.562500000000015
40
0.625000000000001
40
0.625000000000001
40
0.687499999999986
40
0.687499999999986
40
0.749999999999972
40
0.749999999999972
40
0.781249999999976
40
0.781249999999976
40
0.812499999999979
40
0.843749999999983
40
0.843749999999983
40
0.874999999999987
40
0.874999999999987
40
0.937499999999993
40
0.937499999999993
40
1
40
1
40
1
40
1
41
1
10
56.7796719417947
20
-1.19336374573859
30
0
41
1
10
56.7555063646875
20
-1.23017973989403
30
0
41
1
10
56.7338076495524
20
-1.2685872579984
30
0
41
1
10
56.7061982935662
20
-1.327501434429
30
0
41
1
10
56.6978110882207
20
-1.3473887557696
30
0
41
1
10
56.6830832004709
20
-1.38740363542976
30
0
41
1
10
56.6767290616441
20
-1.40755411623454
30
0
41
1
10
56.6692439327838
20
-1.43767718251311
30
0
41
1
10
56.6670887691674
20
-1.44771979966112
30
0
41
1
10
56.6636170626908
20
-1.46761813616564
30
0
41
1
10
56.6622913095457
20
-1.47753636848231
30
0
41
1
10
56.6606725911467
20
-1.49693286946476
30
0
41
1
10
56.6603760648587
20
-1.50638948705676
30
0
41
1
10
56.661016369864
20
-1.52469270328467
30
0
41
1
10
56.6619492694045
20
-1.5335415293581
30
0
41
1
10
56.6645440349537
20
-1.54619720499605
30
0
41
1
10
56.665619476226
20
-1.55033832952137
30
0
41
1
10
56.6681918212998
20
-1.55821254117748
30
0
41
1
10
56.6711774827345
20
-1.56567848451797
30
0
41
1
10
56.6750508758481
20
-1.57225464311972
30
0
41
1
10
56.6794107266903
20
-1.57833699650792
30
0
41
1
10
56.6818407645487
20
-1.58112764246027
30
0
41
1
10
56.6896658622153
20
-1.58845803702943
30
0
41
1
10
56.6956555161416
20
-1.59206250177445
30
0
41
1
10
56.7091710840544
20
-1.59668588531855
30
0
41
1
10
56.7164453189959
20
-1.59761911719096
30
0
41
1
10
56.7241239405721
20
-1.59737498729947
30
0
0
SPLINE
5
14D
100
AcDbEntity
8
1
62
256
6
ByLayer
370
18
48
1
60
0
100
AcDbSpline
70
4
71
3
72
32
73
28
40
0
40
0
40
0
40
0
40
0.125000000000029
40
0.125000000000029
40
0.250000000000058
40
0.250000000000058
40
0.375000000000087
40
0.375000000000087
40
0.500000000000117
40
0.500000000000117
40
0.562500000000125
40
0.562500000000125
40
0.625000000000134
40
0.625000000000134
40
0.687500000000143
40
0.687500000000143
40
0.750000000000151
40
0.750000000000151
40
0.81250000000016
40
0.81250000000016
40
0.843750000000133
40
0.843750000000133
40
0.875000000000105
40
0.875000000000105
40
0.937500000000053
40
0.937500000000053
40
1
40
1
40
1
40
1
41
1
10
56.652305855993
20
-2.80482285280956
30
0
41
1
10
56.6431265720717
20
-2.78640211605855
30
0
41
1
10
56.6346763376232
20
-2.76749560488776
30
0
41
1
10
56.6192811397885
20
-2.72867152058879
30
0
41
1
10
56.6123442438563
20
-2.70876708941407
30
0
41
1
10
56.6002356413501
20
-2.66813172738125
30
0
41
1
10
56.5950597717776
20
-2.64740332121826
30
0
41
1
10
56.5868197482038
20
-2.60513381138003
30
0
41
1
10
56.5837609942729
20
-2.58366232467935
30
0
41
1
10
56.5812396648939
20
-2.5509140009554
30
0
41
1
10
56.5807511115219
20
-2.5399623979286
30
0
41
1
10
56.5805953437993
20
-2.51797224220766
30
0
41
1
10
56.5809302589846
20
-2.50689167694634
30
0
41
1
10
56.5825944753857
20
-2.48482203031807
30
0
41
1
10
56.5839155303283
20
-2.47388462093809
30
0
41
1
10
56.5877454551359
20
-2.45224848530836
30
0
41
1
10
56.5902608076222
20
-2.44151478937971
30
0
41
1
10
56.5968043450249
20
-2.42050611579987
30
0
41
1
10
56.6007566892866
20
-2.41046771077248
30
0
41
1
10
56.6079190332791
20
-2.39626982442863
30
0
41
1
10
56.6105235438854
20
-2.39167314189459
30
0
41
1
10
56.6160372637077
20
-2.38303964137742
30
0
41
1
10
56.6189606081245
20
-2.37897112950319
30
0
41
1
10
56.6282403861061
20
-2.36753246302121
30
0
41
1
10
56.6352225086534
20
-2.36087084845883
30
0
41
1
10
56.6497214312309
20
-2.3503675971192
30
0
41
1
10
56.6572912799145
20
-2.34640711553271
30
0
41
1
10
56.6651447292995
20
-2.34359079926313
30
0
0
SPLINE
5
14E
100
AcDbEntity
8
1
62
256
6
ByLayer
370
18
48
1
60
0
100
AcDbSpline
70
4
71
3
72
8
73
4
40
0
40
0
40
0
40
0
40
1
40
1
40
1
40
1
41
1
10
56.6651447292995
20
-2.34359079926313
30
0
41
1
10
56.6699070945016
20
-2.33924648177484
30
0
41
1
10
56.6746706000757
20
-2.33490216284039
30
0
41
1
10
56.6794352911822
20
-2.33055784313578
30
0
0
SPLINE
5
14F
100
AcDbEntity
8
1
62
256
6
ByLayer
370
18
48
1
60
0
100
AcDbSpline
70
4
71
3
72
42
73
38
40
0
40
0
40
0
40
0
40
0.0625000000000056
40
0.0625000000000056
40
0.0937500000000082
40
0.0937500000000082
40
0.125000000000011
40
0.125000000000011
40
0.187500000000016
40
0.187500000000016
40
0.250000000000022
40
0.250000000000022
40
0.312500000000027
40
0.312500000000027
40
0.375000000000032
40
0.375000000000032
40
0.437500000000038
40
0.437500000000038
40
0.500000000000043
40
0.500000000000043
40
0.562500000000048
40
0.562500000000048
40
0.625000000000054
40
0.625000000000054
40
0.750000000000065
40
0.750000000000065
40
0.781250000000068
40
0.781250000000068
40
0.81250000000007
40
0.81250000000007
40
0.875000000000075
40
0.875000000000075
40
0.906250000000039
40
0.906250000000039
40
0.937500000000003
40
0.937500000000003
40
1
40
1
40
1
40
1
41
1
10
57.817434319452
20
-0.596828688321096
30
0
41
1
10
57.8135363909546
20
-0.609755656257448
30
0
41
1
10
57.8071351763726
20
-0.622591414902359
30
0
41
1
10
57.7950327524109
20
-0.6418048035938
30
0
41
1
10
57.7905662801208
20
-0.648199785199921
30
0
41
1
10
57.7810257043051
20
-0.660807358808569
30
0
41
1
10
57.775935625022
20
-0.66704544996611
30
0
41
1
10
57.7598357517415
20
-0.685604856323778
30
0
41
1
10
57.7481199360303
20
-0.697642624680526
30
0
41
1
10
57.7232284932191
20
-0.721201627918617
30
0
41
1
10
57.7100816220196
20
-0.732686155533855
30
0
41
1
10
57.6828463523943
20
-0.755035278063048
30
0
41
1
10
57.6686808094705
20
-0.765959130751838
30
0
41
1
10
57.6397184738377
20
-0.787157793588534
30
0
41
1
10
57.6249107639642
20
-0.797444055316618
30
0
41
1
10
57.5947054736589
20
-0.817470233080513
30
0
41
1
10
57.5793166294668
20
-0.827200875532867
30
0
41
1
10
57.5482903230435
20
-0.845961700598963
30
0
41
1
10
57.5326122420648
20
-0.8550187962461
30
0
41
1
10
57.5009448548334
20
-0.872488463249113
30
0
41
1
10
57.4850647476989
20
-0.88084090800632
30
0
41
1
10
57.4532053429068
20
-0.896770079553619
30
0
41
1
10
57.4371685136252
20
-0.904371346630825
30
0
41
1
10
57.3894644414558
20
-0.925655590842979
30
0
41
1
10
57.3581270933461
20
-0.937920839667242
30
0
41
1
10
57.3194283427838
20
-0.950194570176819
30
0
41
1
10
57.3117122848601
20
-0.952492342380708
30
0
41
1
10
57.2963250851283
20
-0.956736212745199
30
0
41
1
10
57.2886387077412
20
-0.958684836102151
30
0
41
1
10
57.265938851195
20
-0.963863024424114
30
0
41
1
10
57.2511943943928
20
-0.966463171972237
30
0
41
1
10
57.2297369897893
20
-0.968727702639086
30
0
41
1
10
57.2226951986231
20
-0.969207621764639
30
0
41
1
10
57.2088618717592
20
-0.969510004167233
30
0
41
1
10
57.2020427334158
20
-0.969327859857117
30
0
41
1
10
57.1824424820965
20
-0.967599601620037
30
0
41
1
10
57.1703764386629
20
-0.964936032191247
30
0
41
1
10
57.1597737045967
20
-0.959958705219492
30
0
0
SPLINE
5
150
100
AcDbEntity
8
1
62
256
6
ByLayer
370
18
48
1
60
0
100
AcDbSpline
70
4
71
3
72
8
73
4
40
0
40
0
40
0
40
0
40
1
40
1
40
1
40
1
41
1
10
57.8223123373366
20
-0.580658521446253
30
0
41
1
10
57.8206860026268
20
-0.586047318858419
30
0
41
1
10
57.8190599922164
20
-0.591437358101985
30
0
41
1
10
57.817434319452
20
-0.596828688321096
30
0
0
SPLINE
5
151
100
AcDbEntity
8
1
62
256
6
ByLayer
370
18
48
1
60
0
100
AcDbSpline
70
4
71
3
72
32
73
28
40
0
40
0
40
0
40
0
40
0.124999999999975
40
0.124999999999975
40
0.24999999999995
40
0.24999999999995
40
0.374999999999925
40
0.374999999999925
40
0.4999999999999
40
0.4999999999999
40
0.562499999999961
40
0.562499999999961
40
0.625000000000022
40
0.625000000000022
40
0.687500000000083
40
0.687500000000083
40
0.750000000000144
40
0.750000000000144
40
0.812500000000205
40
0.812500000000205
40
0.84375000000019
40
0.84375000000019
40
0.875000000000175
40
0.875000000000175
40
0.937500000000087
40
0.937500000000087
40
1
40
1
40
1
40
1
41
1
10
58.2389195085788
20
-0.38763419220308
30
0
41
1
10
58.217649073935
20
-0.38763419220308
30
0
41
1
10
58.1962661151089
20
-0.388430546103109
30
0
41
1
10
58.1532624468273
20
-0.391667666554241
30
0
41
1
10
58.1316575692572
20
-0.394109746032143
30
0
41
1
10
58.0885074791539
20
-0.400765753077366
30
0
41
1
10
58.0669625434579
20
-0.404975441297694
30
0
41
1
10
58.0241189649282
20
-0.415424071455078
30
0
41
1
10
58.0028867769734
20
-0.421639614029203
30
0
41
1
10
57.9715296391499
20
-0.432822331159485
30
0
41
1
10
57.9612131016432
20
-0.436843555177376
30
0
41
1
10
57.9408968750323
20
-0.445567639522324
30
0
41
1
10
57.930859522295
20
-0.450289111742819
30
0
41
1
10
57.9113539888892
20
-0.460471348928621
30
0
41
1
10
57.9019293438477
20
-0.465904896718826
30
0
41
1
10
57.8838845532362
20
-0.477594652353673
30
0
41
1
10
57.8752353378423
20
-0.483870054283528
30
0
41
1
10
57.8591108156117
20
-0.497395923258722
30
0
41
1
10
57.8518160502147
20
-0.504492367592633
30
0
41
1
10
57.8422846490618
20
-0.515727220594499
30
0
41
1
10
57.8393415861529
20
-0.51958220603467
30
0
41
1
10
57.8341256533376
20
-0.527295214729264
30
0
41
1
10
57.8318305797683
20
-0.531176905957125
30
0
41
1
10
57.8259106976943
20
-0.542894756420083
30
0
41
1
10
57.8232556421927
20
-0.550915277904039
30
0
41
1
10
57.8208259573483
20
-0.566202576036488
30
0
41
1
10
57.8209679875325
20
-0.57355829522794
30
0
41
1
10
57.8223123373366
20
-0.580658521446253
30
0
0
SPLINE
5
152
100
AcDbEntity
8
1
62
256
6
ByLayer
370
18
48
1
60
0
100
AcDbSpline
70
4
71
3
72
32
73
28
40
0
40
0
40
0
40
0
40
0.124999999999999
40
0.124999999999999
40
0.249999999999999
40
0.249999999999999
40
0.374999999999999
40
0.374999999999999
40
0.499999999999998
40
0.499999999999998
40
0.562499999999997
40
0.562499999999997
40
0.624999999999996
40
0.624999999999996
40
0.687499999999995
40
0.687499999999995
40
0.749999999999994
40
0.749999999999994
40
0.812499999999993
40
0.812499999999993
40
0.843749999999994
40
0.843749999999994
40
0.874999999999996
40
0.874999999999996
40
0.937499999999998
40
0.937499999999998
40
1
40
1
40
1
40
1
41
1
10
56.7796719417947
20
-1.19336374573859
30
0
41
1
10
56.791763092517
20
-1.17494300898755
30
0
41
1
10
56.8044864917674
20
-1.15690739681739
30
0
41
1
10
56.8312379053159
20
-1.12162896156769
30
0
41
1
10
56.8452579434069
20
-1.10440059715134
30
0
41
1
10
56.8745113378268
20
-1.07107872204187
30
0
41
1
10
56.8897417754416
20
-1.05498273643869
30
0
41
1
10
56.9214665338618
20
-1.02425815225871
30
0
41
1
10
56.937907174582
20
-1.00967248733411
30
0
41
1
10
56.9635434251861
20
-0.989386070331477
30
0
41
1
10
56.9722091219445
20
-0.982926175526472
30
0
41
1
10
56.9898117201634
20
-0.970713224582681
30
0
41
1
10
56.9987829261731
20
-0.964939042809164
30
0
41
1
10
57.0168797453933
20
-0.954358986136924
30
0
41
1
10
57.0259620334103
20
-0.949573854622827
30
0
41
1
10
57.0441874068666
20
-0.941236889798375
30
0
41
1
10
57.0533601869681
20
-0.937671803520061
30
0
41
1
10
57.0716343253088
20
-0.932204310398816
30
0
41
1
10
57.0805293406197
20
-0.930361500641368
30
0
41
1
10
57.0934011180175
20
-0.929226346344706
30
0
41
1
10
57.0976212858317
20
-0.929126124441211
30
0
41
1
10
57.1056597192066
20
-0.929520680259174
30
0
41
1
10
57.1095063764177
20
-0.930011189543478
30
0
41
1
10
57.1205087502783
20
-0.932385346702205
30
0
41
1
10
57.1271946071249
20
-0.935248244964953
30
0
41
1
10
57.1383400495407
20
-0.943039980675053
30
0
41
1
10
57.1429064815999
20
-0.94795274815047
30
0
41
1
10
57.1465808818341
20
-0.953766427428064
30
0
0
SPLINE
5
153
100
AcDbEntity
8
1
62
256
6
ByLayer
370
18
48
1
60
0
100
AcDbSpline
70
4
71
3
72
8
73
4
40
0
40
0
40
0
40
0
40
1
40
1
40
1
40
1
41
1
10
57.1465808818341
20
-0.953766427428064
30
0
41
1
10
57.1509773813381
20
-0.955829692125604
30
0
41
1
10
57.1553749744795
20
-0.957893773861429
30
0
41
1
10
57.1597737045967
20
-0.959958705219492
30
0
0
SPLINE
5
154
100
AcDbEntity
8
SK1
62
256
6
ByLayer
370
18
48
1
60
0
100
AcDbSpline
70
4
71
3
72
55
73
51
40
0
40
0
40
0
40
0
40
0.0624999999999558
40
0.0624999999999558
40
0.0937499999999604
40
0.0937499999999604
40
0.124999999999965
40
0.124999999999965
40
0.187499999999974
40
0.187499999999974
40
0.249999999999983
40
0.249999999999983
40
0.312499999999993
40
0.312499999999993
40
0.343749999999997
40
0.343749999999997
40
0.375000000000002
40
0.375000000000002
40
0.406250000000006
40
0.406250000000006
40
0.437500000000011
40
0.437500000000011
40
0.468750000000015
40
0.468750000000015
40
0.50000000000002
40
0.531250000000025
40
0.531250000000025
40
0.562500000000029
40
0.562500000000029
40
0.593750000000034
40
0.593750000000034
40
0.625000000000039
40
0.625000000000039
40
0.687500000000048
40
0.687500000000048
40
0.718750000000052
40
0.718750000000052
40
0.750000000000057
40
0.750000000000057
40
0.812500000000066
40
0.812500000000066
40
0.843750000000046
40
0.843750000000046
40
0.875000000000026
40
0.875000000000026
40
0.937499999999986
40
0.937499999999986
40
0.968749999999993
40
0.968749999999993
40
1
40
1
40
1
40
1
41
1
10
-15.9999999999999
20
-0.208217351629145
30
0
41
1
10
-16.0159939384429
20
-0.208217351629145
30
0
41
1
10
-16.0319801762801
20
-0.207219058276934
30
0
41
1
10
-16.0559474693234
20
-0.20415765392778
30
0
41
1
10
-16.0639497306464
20
-0.20287039150773
30
0
41
1
10
-16.0797396360383
20
-0.199788256104739
30
0
41
1
10
-16.0875513643891
20
-0.197991389024651
30
0
41
1
10
-16.1107317327676
20
-0.191817543885776
30
0
41
1
10
-16.125848198647
20
-0.186665449562497
30
0
41
1
10
-16.155324800105
20
-0.17403620885554
30
0
41
1
10
-16.1697830028509
20
-0.166482123376113
30
0
41
1
10
-16.1968035443095
20
-0.149156752492019
30
0
41
1
10
-16.2094717221613
20
-0.139366706701651
30
0
41
1
10
-16.2269519336129
20
-0.122643658947965
30
0
41
1
10
-16.2325396974378
20
-0.116699335804867
30
0
41
1
10
-16.2428932621881
20
-0.10431566265288
30
0
41
1
10
-16.2476894567749
20
-0.0978521449197842
30
0
41
1
10
-16.2564558188968
20
-0.0843354170239365
30
0
41
1
10
-16.260447038283
20
-0.077237032471686
30
0
41
1
10
-16.2673935436505
20
-0.0625999058133857
30
0
41
1
10
-16.2703350997362
20
-0.0551066171756815
30
0
41
1
10
-16.2751109374824
20
-0.039756155461987
30
0
41
1
10
-16.2769471375053
20
-0.0318898320340111
30
0
41
1
10
-16.2794121476403
20
-0.0158001938226278
30
0
41
1
10
-16.2806120155402
20
0.0002553607191373
30
0
41
1
10
-16.2793631971477
20
0.0162449457187961
30
0
41
1
10
-16.276879306756
20
0.0322012571698167
30
0
41
1
10
-16.2750040589605
20
0.0401687374291839
30
0
41
1
10
-16.2701827360966
20
0.0555234567557932
30
0
41
1
10
-16.2672287957733
20
0.0629842524202502
30
0
41
1
10
-16.2603036164703
20
0.07750033948858
30
0
41
1
10
-16.2562996171378
20
0.0846021186546579
30
0
41
1
10
-16.2430626519909
20
0.104932769214543
30
0
41
1
10
-16.2326953512513
20
0.117158757590602
30
0
41
1
10
-16.2152314967831
20
0.133851505185646
30
0
41
1
10
-16.2090549075075
20
0.139159683383923
30
0
41
1
10
-16.196331559184
20
0.149062735901936
30
0
41
1
10
-16.1897690106322
20
0.153678157239369
30
0
41
1
10
-16.1695386037096
20
0.166616338936194
30
0
41
1
10
-16.1553326477587
20
0.174038822438888
30
0
41
1
10
-16.1330657672472
20
0.183570066753504
30
0
41
1
10
-16.1255072540569
20
0.186464583549963
30
0
41
1
10
-16.1103272862761
20
0.191658413582275
30
0
41
1
10
-16.1026775349807
20
0.193970031451073
30
0
41
1
10
-16.0795606020169
20
0.200104522473055
30
0
41
1
10
-16.0639269743847
20
0.203132922155561
30
0
41
1
10
-16.0401624813306
20
0.206176623248354
30
0
41
1
10
-16.0321883128714
20
0.206939803364492
30
0
41
1
10
-16.0161341319652
20
0.20796100236231
30
0
41
1
10
-16.0080399502882
20
0.208217351629344
30
0
41
1
10
-15.9999999999999
20
0.208217351629344
30
0
0
LINE
5
80
100
AcDbEntity
8
80
62
256
6
ByLayer
370
18
48
1
60
0
100
AcDbLine
10
0
20
0
30
0
11
-5
21
0
31
0
39
0
210
0
220
0
230
1
0
LINE
5
81
100
AcDbEntity
8
81
62
256
6
ByLayer
370
18
48
1
60
0
100
AcDbLine
10
64
20
-12.5
30
0
11
64
21
-17.459472
31
0
39
0
210
0
220
0
230
1
0
LINE
5
82
100
AcDbEntity
8
1
62
256
6
ByLayer
370
18
48
1
60
0
100
AcDbLine
10
63.25
20
-8.50823
30
0
11
63.25
21
-3.548758
31
0
39
0
210
0
220
0
230
1
0
LINE
5
83
100
AcDbEntity
8
1
62
256
6
ByLayer
370
18
48
1
60
0
100
AcDbLine
10
0
20
-7.9925
30
0
11
0
21
-0.208217
31
0
39
0
210
0
220
0
230
1
0
LINE
5
84
100
AcDbEntity
8
1
62
256
6
ByLayer
370
18
48
1
60
0
100
AcDbLine
10
0
20
0.208217
30
0
11
0
21
7.9925
31
0
39
0
210
0
220
0
230
1
0
LINE
5
85
100
AcDbEntity
8
1
62
256
6
ByLayer
370
18
48
1
60
0
100
AcDbLine
10
0
20
0.208217
30
0
11
38.377349
21
0.208217
31
0
39
0
210
0
220
0
230
1
0
LINE
5
86
100
AcDbEntity
8
1
62
256
6
ByLayer
370
18
48
1
60
0
100
AcDbLine
10
0
20
0.208217
30
0
11
0
21
-0.208217
31
0
39
0
210
0
220
0
230
1
0
LINE
5
87
100
AcDbEntity
8
1
62
256
6
ByLayer
370
18
48
1
60
0
100
AcDbLine
10
50.12705
20
-6.9925
30
0
11
48.202539
21
-6.9925
31
0
39
0
210
0
220
0
230
1
0
LINE
5
88
100
AcDbEntity
8
1
62
256
6
ByLayer
370
18
48
1
60
0
100
AcDbLine
10
63.75
20
-6.536016
30
0
11
63.75
21
-8.017487
31
0
39
0
210
0
220
0
230
1
0
LINE
5
89
100
AcDbEntity
8
1
62
256
6
ByLayer
370
18
48
1
60
0
100
AcDbLine
10
62.75
20
-7.9925
30
0
11
62.75
21
-8.017487
31
0
39
0
210
0
220
0
230
1
0
LINE
5
8A
100
AcDbEntity
8
1
62
256
6
ByLayer
370
18
48
1
60
0
100
AcDbLine
10
61.413842
20
-6.9925
30
0
11
61.75
21
-6.9925
31
0
39
0
210
0
220
0
230
1
0
LINE
5
8B
100
AcDbEntity
8
1
62
256
6
ByLayer
370
13
48
1
60
0
100
AcDbLine
10
62.25
20
-5.832782
30
0
11
62.25
21
-7.126475
31
0
39
0
210
0
220
0
230
1
0
LINE
5
8C
100
AcDbEntity
8
1
62
256
6
ByLayer
370
18
48
1
60
0
100
AcDbLine
10
48.202539
20
-6.9925
30
0
11
48.632941
21
-6.220631
31
0
39
0
210
0
220
0
230
1
0
LINE
5
8D
100
AcDbEntity
8
1
62
256
6
ByLayer
370
18
48
1
60
0
100
AcDbLine
10
55.487863
20
6.07277
30
0
11
55.841399
21
6.706791
31
0
39
0
210
0
220
0
230
1
0
LINE
5
8E
100
AcDbEntity
8
1
62
256
6
ByLayer
370
18
48
1
60
0
100
AcDbLine
10
45.852004
20
-6.9925
30
0
11
48.202539
21
-6.9925
31
0
39
0
210
0
220
0
230
1
0
LINE
5
8F
100
AcDbEntity
8
1
62
256
6
ByLayer
370
18
48
1
60
0
100
AcDbLine
10
62.06225
20
5.171875
30
0
11
63.138051
21
5.171875
31
0
39
0
210
0
220
0
230
1
0
LINE
5
90
100
AcDbEntity
8
1
62
256
6
ByLayer
370
13
48
1
60
0
100
AcDbLine
10
39
20
7
30
0
11
39
21
4.709875
31
0
39
0
210
0
220
0
230
1
0
LINE
5
91
100
AcDbEntity
8
1
62
256
6
ByLayer
370
18
48
1
60
0
100
AcDbLine
10
62.06225
20
5.171875
30
0
11
62.06225
21
4.157606
31
0
39
0
210
0
220
0
230
1
0
LINE
5
92
100
AcDbEntity
8
1
62
256
6
ByLayer
370
18
48
1
60
0
100
AcDbLine
10
62.25
20
-5.832782
30
0
11
63.75
21
-6.536016
31
0
39
0
210
0
220
0
230
1
0
LINE
5
93
100
AcDbEntity
8
1
62
256
6
ByLayer
370
18
48
1
60
0
100
AcDbLine
10
63.75
20
-6.536016
30
0
11
63.75
21
2.775
31
0
39
0
210
0
220
0
230
1
0
LINE
5
94
100
AcDbEntity
8
1
62
256
6
ByLayer
370
13
48
1
60
0
100
AcDbLine
10
61.75
20
3.998336
30
0
11
61.75
21
5.323875
31
0
39
0
210
0
220
0
230
1
0
LINE
5
95
100
AcDbEntity
8
1
62
256
6
ByLayer
370
18
48
1
60
0
100
AcDbLine
10
51.75
20
5.323875
30
0
11
61.75
21
5.323875
31
0
39
0
210
0
220
0
230
1
0
LINE
5
96
100
AcDbEntity
8
1
62
256
6
ByLayer
370
18
48
1
60
0
100
AcDbLine
10
61.413842
20
-6.9925
30
0
11
51.75
21
-6.9925
31
0
39
0
210
0
220
0
230
1
0
LINE
5
97
100
AcDbEntity
8
1
62
256
6
ByLayer
370
13
48
1
60
0
100
AcDbLine
10
51.75
20
5.323875
30
0
11
51.75
21
-6.9925
31
0
39
0
210
0
220
0
230
1
0
LINE
5
98
100
AcDbEntity
8
1
62
256
6
ByLayer
370
18
48
1
60
0
100
AcDbLine
10
39
20
4.709875
30
0
11
51.15
21
4.709875
31
0
39
0
210
0
220
0
230
1
0
LINE
5
99
100
AcDbEntity
8
1
62
256
6
ByLayer
370
18
48
1
60
0
100
AcDbLine
10
45.852004
20
-6.9925
30
0
11
39
21
-6.9925
31
0
39
0
210
0
220
0
230
1
0
LINE
5
9A
100
AcDbEntity
8
1
62
256
6
ByLayer
370
18
48
1
60
0
100
AcDbLine
10
51.15
20
-6.9925
30
0
11
50.126984
21
-6.9925
31
0
39
0
210
0
220
0
230
1
0
LINE
5
9B
100
AcDbEntity
8
1
62
256
6
ByLayer
370
18
48
1
60
0
100
AcDbLine
10
51.15
20
-6.9925
30
0
11
51.15
21
4.709875
31
0
39
0
210
0
220
0
230
1
0
LINE
5
9C
100
AcDbEntity
8
1
62
256
6
ByLayer
370
18
48
1
60
0
100
AcDbLine
10
38.377349
20
-0.208217
30
0
11
0
21
-0.208217
31
0
39
0
210
0
220
0
230
1
0
LINE
5
9D
100
AcDbEntity
8
1
62
256
6
ByLayer
370
13
48
1
60
0
100
AcDbLine
10
39
20
4.709875
30
0
11
39
21
-6.9925
31
0
39
0
210
0
220
0
230
1
0
LINE
5
9E
100
AcDbEntity
8
1
62
256
6
ByLayer
370
18
48
1
60
0
100
AcDbLine
10
38.377349
20
4.85995
30
0
11
38.377349
21
0.208217
31
0
39
0
210
0
220
0
230
1
0
LINE
5
9F
100
AcDbEntity
8
1
62
256
6
ByLayer
370
18
48
1
60
0
100
AcDbLine
10
38.377349
20
-0.208217
30
0
11
38.377349
21
-7.21
31
0
39
0
210
0
220
0
230
1
0
LINE
5
A0
100
AcDbEntity
8
1
62
256
6
ByLayer
370
18
48
1
60
0
100
AcDbLine
10
63.865
20
1.422321
30
0
11
63.865
21
1.382755
31
0
39
0
210
0
220
0
230
1
0
LINE
5
A1
100
AcDbEntity
8
1
62
256
6
ByLayer
370
18
48
1
60
0
100
AcDbLine
10
64.027359
20
-12.290087
30
0
11
63.957261
21
-11.096314
31
0
39
0
210
0
220
0
230
1
0
LINE
5
A2
100
AcDbEntity
8
1
62
256
6
ByLayer
370
18
48
1
60
0
100
AcDbLine
10
62.472641
20
-12.290087
30
0
11
62.542739
21
-11.096314
31
0
39
0
210
0
220
0
230
1
0
LINE
5
A3
100
AcDbEntity
8
1
62
256
6
ByLayer
370
18
48
1
60
0
100
AcDbLine
10
62.672302
20
-12.5
30
0
11
63.827698
21
-12.5
31
0
39
0
210
0
220
0
230
1
0
LINE
5
A4
100
AcDbEntity
8
1
62
256
6
ByLayer
370
18
48
1
60
0
100
AcDbLine
10
63.957261
20
-11.096314
30
0
11
63.969344
21
-10.739005
31
0
39
0
210
0
220
0
230
1
0
LINE
5
A5
100
AcDbEntity
8
1
62
256
6
ByLayer
370
18
48
1
60
0
100
AcDbLine
10
62.542739
20
-11.096314
30
0
11
62.530656
21
-10.739005
31
0
39
0
210
0
220
0
230
1
0
LINE
5
A6
100
AcDbEntity
8
1
62
256
6
ByLayer
370
18
48
1
60
0
100
AcDbLine
10
62.542739
20
-11.096314
30
0
11
63.957261
21
-11.096314
31
0
39
0
210
0
220
0
230
1
0
LINE
5
A7
100
AcDbEntity
8
1
62
256
6
ByLayer
370
18
48
1
60
0
100
AcDbLine
10
62.635
20
-9.84664
30
0
11
62.635
21
-8.582656
31
0
39
0
210
0
220
0
230
1
0
LINE
5
A8
100
AcDbEntity
8
1
62
256
6
ByLayer
370
18
48
1
60
0
100
AcDbLine
10
63.865
20
-9.84664
30
0
11
63.865
21
-8.582656
31
0
39
0
210
0
220
0
230
1
0
LINE
5
A9
100
AcDbEntity
8
1
62
256
6
ByLayer
370
18
48
1
60
0
100
AcDbLine
10
62.628185
20
-9.898944
30
0
11
62.566101
21
-10.133063
31
0
39
0
210
0
220
0
230
1
0
LINE
5
AA
100
AcDbEntity
8
1
62
256
6
ByLayer
370
18
48
1
60
0
100
AcDbLine
10
62.559926
20
-10.172481
30
0
11
62.530656
21
-10.739005
31
0
39
0
210
0
220
0
230
1
0
LINE
5
AB
100
AcDbEntity
8
1
62
256
6
ByLayer
370
18
48
1
60
0
100
AcDbLine
10
62.530656
20
-10.739005
30
0
11
63.969344
21
-10.739005
31
0
39
0
210
0
220
0
230
1
0
LINE
5
AC
100
AcDbEntity
8
1
62
256
6
ByLayer
370
18
48
1
60
0
100
AcDbLine
10
63.940074
20
-10.172481
30
0
11
63.969344
21
-10.739005
31
0
39
0
210
0
220
0
230
1
0
LINE
5
AD
100
AcDbEntity
8
1
62
256
6
ByLayer
370
18
48
1
60
0
100
AcDbLine
10
63.871815
20
-9.898944
30
0
11
63.933899
21
-10.133063
31
0
39
0
210
0
220
0
230
1
0
LINE
5
AE
100
AcDbEntity
8
1
62
256
6
ByLayer
370
13
48
1
60
0
100
AcDbLine
10
62.790105
20
-8.582656
30
0
11
62.635
21
-8.582656
31
0
39
0
210
0
220
0
230
1
0
LINE
5
AF
100
AcDbEntity
8
1
62
256
6
ByLayer
370
13
48
1
60
0
100
AcDbLine
10
63.709895
20
-8.582656
30
0
11
63.865
21
-8.582656
31
0
39
0
210
0
220
0
230
1
0
LINE
5
B0
100
AcDbEntity
8
1
62
256
6
ByLayer
370
18
48
1
60
0
100
AcDbLine
10
64.027359
20
1.17661
30
0
11
63.957261
21
-0.017163
31
0
39
0
210
0
220
0
230
1
0
LINE
5
B1
100
AcDbEntity
8
1
62
256
6
ByLayer
370
18
48
1
60
0
100
AcDbLine
10
63.749998
20
1.386522
30
0
11
63.827698
21
1.386522
31
0
39
0
210
0
220
0
230
1
0
LINE
5
B2
100
AcDbEntity
8
1
62
256
6
ByLayer
370
13
48
1
60
0
100
AcDbLine
10
63.827697
20
1.386522
30
0
11
63.749999
21
1.390853
31
0
39
0
210
0
220
0
230
1
0
LINE
5
B3
100
AcDbEntity
8
1
62
256
6
ByLayer
370
18
48
1
60
0
100
AcDbLine
10
62.635
20
-8.540175
30
0
11
62.635
21
-7.526878
31
0
39
0
210
0
220
0
230
1
0
LINE
5
B4
100
AcDbEntity
8
1
62
256
6
ByLayer
370
13
48
1
60
0
100
AcDbLine
10
62.785
20
-8.540175
30
0
11
62.635
21
-8.540175
31
0
39
0
210
0
220
0
230
1
0
LINE
5
B5
100
AcDbEntity
8
1
62
256
6
ByLayer
370
18
48
1
60
0
100
AcDbLine
10
63.865
20
-8.540175
30
0
11
63.865
21
-2.727069
31
0
39
0
210
0
220
0
230
1
0
LINE
5
B6
100
AcDbEntity
8
1
62
256
6
ByLayer
370
13
48
1
60
0
100
AcDbLine
10
63.715
20
-8.540175
30
0
11
63.865
21
-8.540175
31
0
39
0
210
0
220
0
230
1
0
LINE
5
B7
100
AcDbEntity
8
1
62
256
6
ByLayer
370
13
48
1
60
0
100
AcDbLine
10
63.750002
20
-2.727069
30
0
11
63.865
21
-2.727069
31
0
39
0
210
0
220
0
230
1
0
LINE
5
B8
100
AcDbEntity
8
1
62
256
6
ByLayer
370
18
48
1
60
0
100
AcDbLine
10
63.715
20
-8.540175
30
0
11
63.715
21
-8.028349
31
0
39
0
210
0
220
0
230
1
0
LINE
5
B9
100
AcDbEntity
8
1
62
256
6
ByLayer
370
18
48
1
60
0
100
AcDbLine
10
63.709895
20
-8.582656
30
0
11
63.352606
21
-10.058107
31
0
39
0
210
0
220
0
230
1
0
LINE
5
BA
100
AcDbEntity
8
1
62
256
6
ByLayer
370
18
48
1
60
0
100
AcDbLine
10
62.790105
20
-8.582656
30
0
11
63.147394
21
-10.058107
31
0
39
0
210
0
220
0
230
1
0
LINE
5
BB
100
AcDbEntity
8
1
62
256
6
ByLayer
370
18
48
1
60
0
100
AcDbLine
10
62.785
20
-8.540175
30
0
11
62.785
21
-8.028349
31
0
39
0
210
0
220
0
230
1
0
LINE
5
BC
100
AcDbEntity
8
1
62
256
6
ByLayer
370
13
48
1
60
0
100
AcDbLine
10
63.352606
20
-8.130607
30
0
11
63.352606
21
-10.058107
31
0
39
0
210
0
220
0
230
1
0
LINE
5
BD
100
AcDbEntity
8
1
62
256
6
ByLayer
370
13
48
1
60
0
100
AcDbLine
10
63.147394
20
-8.132827
30
0
11
63.147394
21
-10.058107
31
0
39
0
210
0
220
0
230
1
0
LINE
5
BE
100
AcDbEntity
8
1
62
256
6
ByLayer
370
18
48
1
60
0
100
AcDbLine
10
63.957261
20
-0.017163
30
0
11
63.969344
21
-0.479467
31
0
39
0
210
0
220
0
230
1
0
LINE
5
BF
100
AcDbEntity
8
1
62
256
6
ByLayer
370
18
48
1
60
0
100
AcDbLine
10
63.749989
20
-0.017163
30
0
11
63.957261
21
-0.017163
31
0
39
0
210
0
220
0
230
1
0
LINE
5
C0
100
AcDbEntity
8
1
62
256
6
ByLayer
370
13
48
1
60
0
100
AcDbLine
10
63.750001
20
-2.684115
30
0
11
63.865
21
-2.684115
31
0
39
0
210
0
220
0
230
1
0
LINE
5
C1
100
AcDbEntity
8
1
62
256
6
ByLayer
370
18
48
1
60
0
100
AcDbLine
10
63.865
20
-1.39182
30
0
11
63.865
21
-2.684115
31
0
39
0
210
0
220
0
230
1
0
LINE
5
C2
100
AcDbEntity
8
1
62
256
6
ByLayer
370
18
48
1
60
0
100
AcDbLine
10
63.871815
20
-1.338345
30
0
11
63.933899
21
-1.098982
31
0
39
0
210
0
220
0
230
1
0
LINE
5
C3
100
AcDbEntity
8
1
62
256
6
ByLayer
370
18
48
1
60
0
100
AcDbLine
10
63.940074
20
-1.058681
30
0
11
63.969344
21
-0.479467
31
0
39
0
210
0
220
0
230
1
0
LINE
5
C4
100
AcDbEntity
8
1
62
256
6
ByLayer
370
18
48
1
60
0
100
AcDbLine
10
63.749989
20
-0.479467
30
0
11
63.969344
21
-0.479467
31
0
39
0
210
0
220
0
230
1
0
LINE
5
C5
100
AcDbEntity
8
1
62
256
6
ByLayer
370
18
48
1
60
0
100
AcDbLine
10
58.635455
20
-2.593106
30
0
11
58.651584
21
-2.602354
31
0
39
0
210
0
220
0
230
1
0
LINE
5
C6
100
AcDbEntity
8
1
62
256
6
ByLayer
370
18
48
1
60
0
100
AcDbLine
10
57.975853
20
-2.975462
30
0
11
57.977794
21
-2.956236
31
0
39
0
210
0
220
0
230
1
0
LINE
5
C7
100
AcDbEntity
8
1
62
256
6
ByLayer
370
13
48
1
60
0
100
AcDbLine
10
59.002456
20
-2.974897
30
0
11
58.635455
21
-2.593106
31
0
39
0
210
0
220
0
230
1
0
LINE
5
C8
100
AcDbEntity
8
1
62
256
6
ByLayer
370
13
48
1
60
0
100
AcDbLine
10
58.344795
20
-3.338027
30
0
11
57.977794
21
-2.956236
31
0
39
0
210
0
220
0
230
1
0
LINE
5
C9
100
AcDbEntity
8
1
62
256
6
ByLayer
370
18
48
1
60
0
100
AcDbLine
10
59.021522
20
-2.987199
30
0
11
58.651584
21
-2.602354
31
0
39
0
210
0
220
0
230
1
0
LINE
5
CA
100
AcDbEntity
8
1
62
256
6
ByLayer
370
18
48
1
60
0
100
AcDbLine
10
59.115793
20
-1.222507
30
0
11
59.133021
21
-1.212529
31
0
39
0
210
0
220
0
230
1
0
LINE
5
CB
100
AcDbEntity
8
1
62
256
6
ByLayer
370
13
48
1
60
0
100
AcDbLine
10
59.482794
20
-1.604298
30
0
11
59.115793
21
-1.222507
31
0
39
0
210
0
220
0
230
1
0
LINE
5
CC
100
AcDbEntity
8
1
62
256
6
ByLayer
370
18
48
1
60
0
100
AcDbLine
10
58.34579
20
-3.360307
30
0
11
57.975853
21
-2.975462
31
0
39
0
210
0
220
0
230
1
0
LINE
5
CD
100
AcDbEntity
8
1
62
256
6
ByLayer
370
13
48
1
60
0
100
AcDbLine
10
57.000518
20
-2.974897
30
0
11
56.633517
21
-2.593106
31
0
39
0
210
0
220
0
230
1
0
LINE
5
CE
100
AcDbEntity
8
1
62
256
6
ByLayer
370
18
48
1
60
0
100
AcDbLine
10
56.615926
20
-2.602354
30
0
11
56.633517
21
-2.593106
31
0
39
0
210
0
220
0
230
1
0
LINE
5
CF
100
AcDbEntity
8
1
62
256
6
ByLayer
370
18
48
1
60
0
100
AcDbLine
10
59.502958
20
-1.597375
30
0
11
59.133021
21
-1.212529
31
0
39
0
210
0
220
0
230
1
0
LINE
5
D0
100
AcDbEntity
8
1
62
256
6
ByLayer
370
13
48
1
60
0
100
AcDbLine
10
58.561453
20
-0.596829
30
0
11
58.37141
21
-0.399127
31
0
39
0
210
0
220
0
230
1
0
LINE
5
D1
100
AcDbEntity
8
1
62
256
6
ByLayer
370
18
48
1
60
0
100
AcDbLine
10
56.985863
20
-2.987199
30
0
11
56.615926
21
-2.602354
31
0
39
0
210
0
220
0
230
1
0
LINE
5
D2
100
AcDbEntity
8
1
62
256
6
ByLayer
370
13
48
1
60
0
100
AcDbLine
10
56.736837
20
-1.604298
30
0
11
56.66467
21
-1.529222
31
0
39
0
210
0
220
0
230
1
0
LINE
5
D3
100
AcDbEntity
8
1
62
256
6
ByLayer
370
18
48
1
60
0
100
AcDbLine
10
58.565487
20
-0.580659
30
0
11
58.395328
21
-0.403642
31
0
39
0
210
0
220
0
230
1
0
LINE
5
D4
100
AcDbEntity
8
1
62
256
6
ByLayer
370
18
48
1
60
0
100
AcDbLine
10
56.724124
20
-1.597375
30
0
11
56.664998
21
-1.535866
31
0
39
0
210
0
220
0
230
1
0
LINE
5
D5
100
AcDbEntity
8
SK1
62
256
6
ByLayer
370
18
48
1
60
0
100
AcDbLine
10
0
20
0.208217
30
0
11
0
21
-0.208217
31
0
39
0
210
0
220
0
230
1
0
LINE
5
D7
100
AcDbEntity
8
SK1
62
256
6
ByLayer
370
13
48
1
60
0
100
AcDbLine
10
-16
20
0.208217
30
0
11
-16
21
-0.208217
31
0
39
0
210
0
220
0
230
1
0
LINE
5
D8
100
AcDbEntity
8
SK1
62
256
6
ByLayer
370
18
48
1
60
0
100
AcDbLine
10
-86
20
6.9925
30
0
11
-86
21
-6.9925
31
0
39
0
210
0
220
0
230
1
0
LINE
5
D9
100
AcDbEntity
8
SK1
62
256
6
ByLayer
370
18
48
1
60
0
100
AcDbLine
10
0
20
-7.9925
30
0
11
0
21
-0.208217
31
0
39
0
210
0
220
0
230
1
0
LINE
5
DA
100
AcDbEntity
8
SK1
62
256
6
ByLayer
370
18
48
1
60
0
100
AcDbLine
10
0
20
0.208217
30
0
11
0
21
7.9925
31
0
39
0
210
0
220
0
230
1
0
LINE
5
DB
100
AcDbEntity
8
SK1
62
256
6
ByLayer
370
18
48
1
60
0
100
AcDbLine
10
0
20
-0.208217
30
0
11
-16
21
-0.208217
31
0
39
0
210
0
220
0
230
1
0
LINE
5
DC
100
AcDbEntity
8
SK1
62
256
6
ByLayer
370
18
48
1
60
0
100
AcDbLine
10
-16
20
0.208217
30
0
11
0
21
0.208217
31
0
39
0
210
0
220
0
230
1
0
LINE
5
DD
100
AcDbEntity
8
SK1
62
256
6
ByLayer
370
18
48
1
60
0
100
AcDbLine
10
-85
20
7.9925
30
0
11
-85
21
-7.9925
31
0
39
0
210
0
220
0
230
1
0
LINE
5
DE
100
AcDbEntity
8
1
62
256
6
ByLayer
370
18
48
1
60
0
100
AcDbLine
10
38.000062
20
7.9925
30
0
11
0
21
7.9925
31
0
39
0
210
0
220
0
230
1
0
LINE
5
DF
100
AcDbEntity
8
1
62
256
6
ByLayer
370
18
48
1
60
0
100
AcDbLine
10
0
20
-7.9925
30
0
11
38.000334
21
-7.9925
31
0
39
0
210
0
220
0
230
1
0
LINE
5
E0
100
AcDbEntity
8
1
62
256
6
ByLayer
370
18
48
1
60
0
100
AcDbLine
10
61.439084
20
7
30
0
11
39
21
7
31
0
39
0
210
0
220
0
230
1
0
LINE
5
E1
100
AcDbEntity
8
1
62
256
6
ByLayer
370
18
48
1
60
0
100
AcDbLine
10
63.838908
20
1.38621
30
0
11
63.827714
21
1.386834
31
0
39
0
210
0
220
0
230
1
0
LINE
5
E2
100
AcDbEntity
8
1
62
256
6
ByLayer
370
18
48
1
60
0
100
AcDbLine
10
59.033845
20
-1.928391
30
0
11
59.396192
21
-2.30534
31
0
39
0
210
0
220
0
230
1
0
LINE
5
E3
100
AcDbEntity
8
1
62
256
6
ByLayer
370
18
48
1
60
0
100
AcDbLine
10
54.789098
20
-4.02611
30
0
11
54.895082
21
-4.136365
31
0
39
0
210
0
220
0
230
1
0
LINE
5
E4
100
AcDbEntity
8
1
62
256
6
ByLayer
370
18
48
1
60
0
100
AcDbLine
10
60.374171
20
1.130473
30
0
11
60.268187
21
1.240728
31
0
39
0
210
0
220
0
230
1
0
LINE
5
E5
100
AcDbEntity
8
1
62
256
6
ByLayer
370
18
48
1
60
0
100
AcDbLine
10
57.48213
20
-3.119503
30
0
11
57.13872
21
-2.762253
31
0
39
0
210
0
220
0
230
1
0
LINE
5
E6
100
AcDbEntity
8
1
62
256
6
ByLayer
370
18
48
1
60
0
100
AcDbLine
10
58.289508
20
-0.409022
30
0
11
58.63312
21
-0.766481
31
0
39
0
210
0
220
0
230
1
0
LINE
5
E7
100
AcDbEntity
8
1
62
256
6
ByLayer
370
18
48
1
60
0
100
AcDbLine
10
56.756729
20
-1.619832
30
0
11
56.664405
21
-1.523787
31
0
39
0
210
0
220
0
230
1
0
LINE
5
E8
100
AcDbEntity
8
SK1
62
256
6
ByLayer
370
18
48
1
60
0
100
AcDbLine
10
-86
20
-6.9925
30
0
11
-85
21
-7.9925
31
0
39
0
210
0
220
0
230
1
0
LINE
5
E9
100
AcDbEntity
8
SK1
62
256
6
ByLayer
370
18
48
1
60
0
100
AcDbLine
10
-85
20
7.9925
30
0
11
-86
21
6.9925
31
0
39
0
210
0
220
0
230
1
0
LINE
5
EA
100
AcDbEntity
8
SK1
62
256
6
ByLayer
370
18
48
1
60
0
100
AcDbLine
10
0
20
7.9925
30
0
11
-85
21
7.9925
31
0
39
0
210
0
220
0
230
1
0
LINE
5
EB
100
AcDbEntity
8
SK1
62
256
6
ByLayer
370
18
48
1
60
0
100
AcDbLine
10
-85
20
-7.9925
30
0
11
0
21
-7.9925
31
0
39
0
210
0
220
0
230
1
0
MTEXT
5
155
100
AcDbEntity
8
SK6
62
256
6
ByLayer
370
18
48
1
60
0
100
AcDbMText
10
-45.797712
20
-58.950853
30
0
210
0
220
0
230
1
1
\W0.7544;C2R-CE16-LD04GB
40
3.5
41
0
44
1.084337
50
0
71
7
72
5
7
iso_b_vert
0
DIMENSION
5
15A
100
AcDbEntity
8
2
62
256
6
ByLayer
370
18
48
1
60
0
100
AcDbDimension
2
_U0
10
87.133577
20
0
30
0
11
87.133577
21
-6.25
31
0
70
32
71
1
72
1
41
1
210
0
220
0
230
1
3
Standard
100
AcDbAlignedDimension
13
64
23
-12.5
33
0
14
-86
24
0
34
0
50
90
100
AcDbRotatedDimension
1001
ACAD
1000
DSTYLE
1002
{
1070
   371
1070
    13
1070
   372
1070
    13
1070
   170
1070
     0
1070
   144
1040
1.0
1070
   277
1070
     2
1070
   284
1070
     8
1070
   278
1070
    46
1070
   146
1040
1.0
1070
   345
1005
16
1070
   347
1005
16
1070
   346
1005
16
1070
   344
1005
0
1070
   343
1005
0
1070
   172
1070
     1
1070
    76
1070
     0
1070
    75
1070
     0
1070
   282
1070
     0
1070
   281
1070
     0
1070
    71
1070
     0
1070
    74
1070
     0
1070
   279
1070
     0
1070
   173
1070
     1
1070
   340
1005
156
1070
   271
1070
     2
1070
   272
1070
     2
1070
    77
1070
     1
1070
    73
1070
     0
1070
   171
1070
     3
1070
   274
1070
     4
1070
   177
1070
     2
1070
   176
1070
     2
1070
   178
1070
     2
1070
    78
1070
     8
1070
    48
1040
-0.1
1070
    41
1040
3.5
1070
   147
1040
1.75
1070
    42
1040
1.5875
1070
    44
1040
2.0
1070
   140
1040
3.5
1002
}
1001
ACAD_DSTYLE_DIM_LINETYPE
1070
   380
1005
16
1001
ACAD_DSTYLE_DIM_EXT1_LINETYPE
1070
   381
1005
16
1001
ACAD_DSTYLE_DIM_EXT2_LINETYPE
1070
   382
1005
16
0
DIMENSION
5
175
100
AcDbEntity
8
2
62
256
6
ByLayer
370
18
48
1
60
0
100
AcDbDimension
2
_U1
10
77.133577
20
-12.5
30
0
11
77.133577
21
-10.25
31
0
70
32
71
1
72
1
41
1
210
0
220
0
230
1
3
Standard
100
AcDbAlignedDimension
13
62.75
23
-8
33
0
14
64
24
-12.5
34
0
50
90
100
AcDbRotatedDimension
1001
ACAD
1000
DSTYLE
1002
{
1070
   371
1070
    13
1070
   372
1070
    13
1070
   170
1070
     0
1070
   144
1040
1.0
1070
   277
1070
     2
1070
   284
1070
     8
1070
   278
1070
    46
1070
   146
1040
1.0
1070
   345
1005
16
1070
   347
1005
16
1070
   346
1005
16
1070
   344
1005
0
1070
   343
1005
0
1070
   172
1070
     1
1070
    76
1070
     0
1070
    75
1070
     0
1070
   282
1070
     0
1070
   281
1070
     0
1070
    71
1070
     0
1070
    74
1070
     0
1070
   279
1070
     0
1070
   173
1070
     1
1070
   340
1005
156
1070
   271
1070
     2
1070
   272
1070
     2
1070
    77
1070
     1
1070
    73
1070
     0
1070
   171
1070
     3
1070
   274
1070
     4
1070
   177
1070
     2
1070
   176
1070
     2
1070
   178
1070
     2
1070
    78
1070
     8
1070
    48
1040
-0.1
1070
    41
1040
3.5
1070
   147
1040
1.75
1070
    42
1040
1.5875
1070
    44
1040
2.0
1070
   140
1040
3.5
1002
}
1001
ACAD_DSTYLE_DIM_LINETYPE
1070
   380
1005
16
1001
ACAD_DSTYLE_DIM_EXT1_LINETYPE
1070
   381
1005
16
1001
ACAD_DSTYLE_DIM_EXT2_LINETYPE
1070
   382
1005
16
0
DIMENSION
5
18E
100
AcDbEntity
8
SK2
62
256
6
ByLayer
370
18
48
1
60
0
100
AcDbDimension
2
_U2
10
-97.6
20
8
30
0
11
-97.6
21
0
31
0
70
32
71
1
72
1
41
1
210
0
220
0
230
1
3
Standard
100
AcDbAlignedDimension
13
-86
23
-8
33
0
14
-86
24
8
34
0
50
90
100
AcDbRotatedDimension
1001
ACAD
1000
DSTYLE
1002
{
1070
   371
1070
    13
1070
   372
1070
    13
1070
   170
1070
     0
1070
   144
1040
1.0
1070
   277
1070
     2
1070
   284
1070
     8
1070
   278
1070
    46
1070
   146
1040
1.0
1070
   345
1005
16
1070
   347
1005
16
1070
   346
1005
16
1070
   344
1005
0
1070
   343
1005
0
1070
   172
1070
     1
1070
    76
1070
     0
1070
    75
1070
     0
1070
   282
1070
     0
1070
   281
1070
     0
1070
    71
1070
     0
1070
    74
1070
     0
1070
   279
1070
     0
1070
   173
1070
     1
1070
   340
1005
156
1070
   271
1070
     2
1070
   272
1070
     2
1070
    77
1070
     1
1070
    73
1070
     0
1070
   171
1070
     3
1070
   274
1070
     4
1070
   177
1070
     2
1070
   176
1070
     2
1070
   178
1070
     2
1070
    78
1070
     8
1070
    48
1040
-0.1
1070
    41
1040
3.5
1070
   147
1040
1.75
1070
    42
1040
1.5875
1070
    44
1040
2.0
1070
   140
1040
3.5
1002
}
1001
ACAD_DSTYLE_DIM_LINETYPE
1070
   380
1005
16
1001
ACAD_DSTYLE_DIM_EXT1_LINETYPE
1070
   381
1005
16
1001
ACAD_DSTYLE_DIM_EXT2_LINETYPE
1070
   382
1005
16
0
DIMENSION
5
1A8
100
AcDbEntity
8
2
62
256
6
ByLayer
370
18
48
1
60
0
100
AcDbDimension
2
_U3
10
64
20
-22.25
30
0
11
63.25
21
-22.25
31
0
70
32
71
1
72
1
41
1
210
0
220
0
230
1
3
Standard
100
AcDbAlignedDimension
13
62.5
23
-12.5
33
0
14
64
24
-12.5
34
0
50
0
100
AcDbRotatedDimension
1001
ACAD
1000
DSTYLE
1002
{
1070
   371
1070
    13
1070
   372
1070
    13
1070
   170
1070
     0
1070
   144
1040
1.0
1070
   277
1070
     2
1070
   284
1070
     8
1070
   278
1070
    46
1070
   146
1040
1.0
1070
   345
1005
16
1070
   347
1005
16
1070
   346
1005
16
1070
   344
1005
0
1070
   343
1005
0
1070
   172
1070
     1
1070
    76
1070
     0
1070
    75
1070
     0
1070
   282
1070
     0
1070
   281
1070
     0
1070
    71
1070
     0
1070
    74
1070
     0
1070
   279
1070
     0
1070
   173
1070
     1
1070
   340
1005
156
1070
   271
1070
     2
1070
   272
1070
     2
1070
    77
1070
     1
1070
    73
1070
     1
1070
   171
1070
     3
1070
   274
1070
     4
1070
   177
1070
     2
1070
   176
1070
     2
1070
   178
1070
     2
1070
    78
1070
     8
1070
    48
1040
-0.1
1070
    41
1040
3.5
1070
   147
1040
1.75
1070
    42
1040
1.5875
1070
    44
1040
2.0
1070
   140
1040
3.5
1002
}
1001
ACAD_DSTYLE_DIM_LINETYPE
1070
   380
1005
16
1001
ACAD_DSTYLE_DIM_EXT1_LINETYPE
1070
   381
1005
16
1001
ACAD_DSTYLE_DIM_EXT2_LINETYPE
1070
   382
1005
16
0
DIMENSION
5
1C1
100
AcDbEntity
8
SK2
62
256
6
ByLayer
370
18
48
1
60
0
100
AcDbDimension
2
_U4
10
64
20
23.25
30
0
11
-11
21
23.25
31
0
70
32
71
1
72
1
41
1
210
0
220
0
230
1
3
Standard
100
AcDbAlignedDimension
13
-86
23
0
33
0
14
64
24
-12.5
34
0
50
0
100
AcDbRotatedDimension
1001
ACAD
1000
DSTYLE
1002
{
1070
   371
1070
    13
1070
   372
1070
    13
1070
   170
1070
     0
1070
   144
1040
1.0
1070
   277
1070
     2
1070
   284
1070
     8
1070
   278
1070
    46
1070
   146
1040
1.0
1070
   345
1005
16
1070
   347
1005
16
1070
   346
1005
16
1070
   344
1005
0
1070
   343
1005
0
1070
   172
1070
     1
1070
    76
1070
     0
1070
    75
1070
     0
1070
   282
1070
     0
1070
   281
1070
     0
1070
    71
1070
     0
1070
    74
1070
     0
1070
   279
1070
     0
1070
   173
1070
     1
1070
   340
1005
156
1070
   271
1070
     1
1070
   272
1070
     2
1070
    77
1070
     1
1070
    73
1070
     1
1070
   171
1070
     3
1070
   274
1070
     4
1070
   177
1070
     2
1070
   176
1070
     2
1070
   178
1070
     2
1070
    78
1070
     8
1070
    48
1040
-0.1
1070
    41
1040
3.5
1070
   147
1040
1.75
1070
    42
1040
1.5875
1070
    44
1040
2.0
1070
   140
1040
3.5
1002
}
1001
ACAD_DSTYLE_DIM_LINETYPE
1070
   380
1005
16
1001
ACAD_DSTYLE_DIM_EXT1_LINETYPE
1070
   381
1005
16
1001
ACAD_DSTYLE_DIM_EXT2_LINETYPE
1070
   382
1005
16
0
DIMENSION
5
1D9
100
AcDbEntity
8
SK2
62
256
6
ByLayer
370
18
48
1
60
0
100
AcDbDimension
2
_U5
10
64
20
-38.25
30
0
11
32
21
-38.25
31
0
70
32
71
1
72
1
41
1
210
0
220
0
230
1
3
Standard
100
AcDbAlignedDimension
13
0
23
0
33
0
14
64
24
-12.5
34
0
50
0
100
AcDbRotatedDimension
1001
ACAD
1000
DSTYLE
1002
{
1070
   371
1070
    13
1070
   372
1070
    13
1070
   170
1070
     0
1070
   144
1040
1.0
1070
   277
1070
     2
1070
   284
1070
     8
1070
   278
1070
    46
1070
   146
1040
1.0
1070
   345
1005
16
1070
   347
1005
16
1070
   346
1005
16
1070
   344
1005
0
1070
   343
1005
0
1070
   172
1070
     1
1070
    76
1070
     0
1070
    75
1070
     0
1070
   282
1070
     0
1070
   281
1070
     0
1070
    71
1070
     0
1070
    74
1070
     0
1070
   279
1070
     0
1070
   173
1070
     1
1070
   340
1005
156
1070
   271
1070
     1
1070
   272
1070
     2
1070
    77
1070
     1
1070
    73
1070
     1
1070
   171
1070
     3
1070
   274
1070
     4
1070
   177
1070
     2
1070
   176
1070
     2
1070
   178
1070
     2
1070
    78
1070
     8
1070
    48
1040
-0.1
1070
    41
1040
3.5
1070
   147
1040
1.75
1070
    42
1040
1.5875
1070
    44
1040
2.0
1070
   140
1040
3.5
1002
}
1001
ACAD_DSTYLE_DIM_LINETYPE
1070
   380
1005
16
1001
ACAD_DSTYLE_DIM_EXT1_LINETYPE
1070
   381
1005
16
1001
ACAD_DSTYLE_DIM_EXT2_LINETYPE
1070
   382
1005
16
0
ENDSEC
0
SECTION
2
OBJECTS
0
DICTIONARY
5
260
330
0
100
AcDbDictionary
280
0
281
1
3
ACAD_GROUP
350
261
3
ACAD_MLINESTYLE
350
262
0
DICTIONARY
5
261
330
0
100
AcDbDictionary
280
0
281
1
0
DICTIONARY
5
262
330
0
100
AcDbDictionary
280
0
281
1
3
Standard
350
18
0
MLINESTYLE
5
18
330
262
100
AcDbMlineStyle
2
Standard
70
0
3

62
256
51
90
52
90
71
2
49
-0.5
62
256
6
ByLayer
49
0.5
62
256
6
ByLayer
0
RASTERVARIABLES
5
24f
330

100
AcDbRasterVariables
90
0
70
1
71
1
72
1
0
ENDSEC
0
EOF
