0
SECTION
2
HEADER
9
$ACADVER
1
AC1015
9
$DWGCODEPAGE
3
ANSI_1252
9
$HANDSEED
5
22e
9
$ANGBASE
50
0
9
$ANGDIR
70
0
9
$ATTMODE
70
1
9
$AUNITS
70
0
9
$AUPREC
70
0
9
$CECOLOR
62
256
9
$CELTSCALE
40
1
9
$CELTYPE
6
ByLayer
9
$CELWEIGHT
370
18
9
$CLAYER
8
0
9
$CMLJUST
70
0
9
$CMLSCALE
40
1
9
$CMLSTYLE
2
Standard
9
$DIMSTYLE
2
Standard
9
$TEXTSIZE
40
0.2
9
$TEXTSTYLE
7
Standard
9
$LUNITS
70
2
9
$LUPREC
70
4
9
$EXTNAMES
290
1
9
$INSUNITS
70
4
9
$LTSCALE
40
1
9
$LWDISPLAY
290
1
9
$PDMODE
70
0
9
$PDSIZE
40
0
9
$PLINEGEN
70
0
0
ENDSEC
0
SECTION
2
CLASSES
0
CLASS
1
RASTERVARIABLES
2
AcDbRasterVariables
3
ISM
90
0
280
0
281
0
0
ENDSEC
0
SECTION
2
TABLES
0
TABLE
2
VPORT
5
224
100
AcDbSymbolTable
0
VPORT
5
1
100
AcDbSymbolTableRecord
100
AcDbViewportTableRecord
2
*Active
70
0
10
0
20
0
11
1
21
1
12
-1
22
1
13
0
23
0
14
0.5
24
0.5
15
10
25
10
16
0
26
0
36
1
17
0
27
0
37
0
0
ENDTAB
0
TABLE
2
LTYPE
5
225
100
AcDbSymbolTable
0
LTYPE
5
14
100
AcDbSymbolTableRecord
100
AcDbLinetypeTableRecord
70
0
2
ByBlock
3

72
65
73
0
40
0
0
LTYPE
5
15
100
AcDbSymbolTableRecord
100
AcDbLinetypeTableRecord
70
0
2
ByLayer
3

72
65
73
0
40
0
0
LTYPE
5
16
100
AcDbSymbolTableRecord
100
AcDbLinetypeTableRecord
70
0
2
Continuous
3
Solid line
72
65
73
0
40
0
0
LTYPE
5
6E
100
AcDbSymbolTableRecord
100
AcDbLinetypeTableRecord
70
0
2
CENTER
3
____ _ ____ _ ____ _ ____
72
65
73
4
40
47.5
49
22
74
0
49
-8.5
74
0
49
8.5
74
0
49
-8.5
74
0
0
LTYPE
5
6F
100
AcDbSymbolTableRecord
100
AcDbLinetypeTableRecord
70
0
2
DASHED
3
__ __ __ __ __ __ __ __ __
72
65
73
2
40
25.72
49
12.86
74
0
49
-12.86
74
0
0
ENDTAB
0
TABLE
2
LAYER
5
226
100
AcDbSymbolTable
0
LAYER
5
10
100
AcDbSymbolTableRecord
100
AcDbLayerTableRecord
2
0
70
0
62
7
6
Continuous
290
1
370
-3
390
0
0
LAYER
5
71
100
AcDbSymbolTableRecord
100
AcDbLayerTableRecord
2
81
70
0
62
-3
6
Continuous
290
1
370
-3
390
0
0
LAYER
5
73
100
AcDbSymbolTableRecord
100
AcDbLayerTableRecord
2
80
70
0
62
-6
6
Continuous
290
1
370
-3
390
0
0
LAYER
5
75
100
AcDbSymbolTableRecord
100
AcDbLayerTableRecord
2
1
70
0
62
4
6
Continuous
290
1
370
-3
390
0
0
LAYER
5
E1
100
AcDbSymbolTableRecord
100
AcDbLayerTableRecord
2
2
70
0
62
7
6
Continuous
290
1
370
-3
390
0
0
LAYER
5
17B
100
AcDbSymbolTableRecord
100
AcDbLayerTableRecord
2
Defpoints
70
0
62
7
6
Continuous
290
0
370
-3
390
0
0
LAYER
5
212
100
AcDbSymbolTableRecord
100
AcDbLayerTableRecord
2
SK1
70
0
62
4
6
Continuous
290
1
370
-3
390
0
0
LAYER
5
213
100
AcDbSymbolTableRecord
100
AcDbLayerTableRecord
2
SK6
70
0
62
5
6
Continuous
290
1
370
-3
390
0
0
ENDTAB
0
TABLE
2
STYLE
5
227
100
AcDbSymbolTable
0
STYLE
5
11
100
AcDbSymbolTableRecord
100
AcDbTextStyleTableRecord
2
Standard
3
txt
70
0
71
0
40
0
41
1
42
0
50
0
0
STYLE
5
16C
100
AcDbSymbolTableRecord
100
AcDbTextStyleTableRecord
2
iso_b_vert
3
simplex.shx
70
0
71
0
40
0
41
1
42
0
50
0
0
STYLE
5
16D
100
AcDbSymbolTableRecord
100
AcDbTextStyleTableRecord
2
DWGDirectTextStyle
3
simplex
70
0
71
0
40
0
41
1
42
0
50
0
0
ENDTAB
0
TABLE
2
DIMSTYLE
5
228
100
AcDbSymbolTable
100
AcDbDimStyleTable
0
DIMSTYLE
105
27
100
AcDbSymbolTableRecord
100
AcDbDimStyleTableRecord
2
Standard
70
0
3
<>
41
0.18
42
0.0625
44
0.18
140
0.18
147
0.09
73
0
74
0
77
1
271
2
275
0
278
52
280
0
340
11
0
ENDTAB
0
TABLE
2
VIEW
5
229
100
AcDbSymbolTable
0
ENDTAB
0
TABLE
2
UCS
5
22a
100
AcDbSymbolTable
0
ENDTAB
0
TABLE
2
APPID
5
22b
100
AcDbSymbolTable
0
APPID
5
12
100
AcDbSymbolTableRecord
100
AcDbRegAppTableRecord
2
ACAD
70
0
0
APPID
5
170
100
AcDbSymbolTableRecord
100
AcDbRegAppTableRecord
2
ACAD_DSTYLE_DIMBREAK
70
0
0
APPID
5
1D1
100
AcDbSymbolTableRecord
100
AcDbRegAppTableRecord
2
ACAD_DSTYLE_DIM_LINETYPE
70
0
0
APPID
5
1D2
100
AcDbSymbolTableRecord
100
AcDbRegAppTableRecord
2
ACAD_DSTYLE_DIM_EXT1_LINETYPE
70
0
0
APPID
5
1D3
100
AcDbSymbolTableRecord
100
AcDbRegAppTableRecord
2
ACAD_DSTYLE_DIM_EXT2_LINETYPE
70
0
0
APPID
5
20E
100
AcDbSymbolTableRecord
100
AcDbRegAppTableRecord
2
ACAD_MLEADERVER
70
0
0
ENDTAB
0
TABLE
2
BLOCK_RECORD
5
22c
100
AcDbSymbolTable
0
BLOCK_RECORD
5
1F
100
AcDbSymbolTableRecord
100
AcDbBlockTableRecord
2
*Model_Space
340
0
70
0
0
BLOCK_RECORD
5
1B
100
AcDbSymbolTableRecord
100
AcDbBlockTableRecord
2
*Paper_Space
340
0
70
0
0
BLOCK_RECORD
5
23
100
AcDbSymbolTableRecord
100
AcDbBlockTableRecord
2
*Paper_Space0
340
0
70
0
0
BLOCK_RECORD
5
172
100
AcDbSymbolTableRecord
100
AcDbBlockTableRecord
2
_Closed
340
0
70
0
0
BLOCK_RECORD
5
17C
100
AcDbSymbolTableRecord
100
AcDbBlockTableRecord
2
*D2
340
0
70
0
0
BLOCK_RECORD
5
18A
100
AcDbSymbolTableRecord
100
AcDbBlockTableRecord
2
_U0
340
0
70
0
0
BLOCK_RECORD
5
19A
100
AcDbSymbolTableRecord
100
AcDbBlockTableRecord
2
*D4
340
0
70
0
0
BLOCK_RECORD
5
1A6
100
AcDbSymbolTableRecord
100
AcDbBlockTableRecord
2
_U1
340
0
70
0
0
ENDTAB
0
ENDSEC
0
SECTION
2
BLOCKS
0
BLOCK
5
20
100
AcDbEntity
8
0
100
AcDbBlockBegin
2
*Model_Space
70
0
10
0
20
0
30
0
3
*Model_Space
0
ENDBLK
5
21
100
AcDbEntity
8
0
100
AcDbBlockEnd
0
BLOCK
5
1C
100
AcDbEntity
8
0
100
AcDbBlockBegin
2
*Paper_Space
70
0
10
0
20
0
30
0
3
*Paper_Space
0
ENDBLK
5
1D
100
AcDbEntity
8
0
100
AcDbBlockEnd
0
BLOCK
5
24
100
AcDbEntity
8
0
100
AcDbBlockBegin
2
*Paper_Space0
70
0
10
0
20
0
30
0
3
*Paper_Space0
0
ENDBLK
5
25
100
AcDbEntity
8
0
100
AcDbBlockEnd
0
BLOCK
5
173
100
AcDbEntity
8
0
100
AcDbBlockBegin
2
_Closed
70
0
10
0
20
0
30
0
3
_Closed
0
LINE
5
175
100
AcDbEntity
8
0
62
256
6
ByLayer
370
-2
48
1
60
0
100
AcDbLine
10
-1
20
0.166667
30
0
11
0
21
0
31
0
39
0
210
0
220
0
230
1
0
LINE
5
176
100
AcDbEntity
8
0
62
256
6
ByLayer
370
-2
48
1
60
0
100
AcDbLine
10
0
20
0
30
0
11
-1
21
-0.166667
31
0
39
0
210
0
220
0
230
1
0
LINE
5
177
100
AcDbEntity
8
0
62
256
6
ByLayer
370
-2
48
1
60
0
100
AcDbLine
10
-1
20
0.166667
30
0
11
-1
21
-0.166667
31
0
39
0
210
0
220
0
230
1
0
LINE
5
178
100
AcDbEntity
8
0
62
256
6
ByLayer
370
-2
48
1
60
0
100
AcDbLine
10
0
20
0
30
0
11
-1
21
0
31
0
39
0
210
0
220
0
230
1
0
ENDBLK
5
174
100
AcDbEntity
8
0
100
AcDbBlockEnd
0
BLOCK
5
17D
100
AcDbEntity
8
0
100
AcDbBlockBegin
2
*D2
70
1
10
0
20
0
30
0
3
*D2
0
LINE
5
17F
100
AcDbEntity
8
0
62
256
6
ByLayer
370
-2
48
1
60
0
100
AcDbLine
10
116.5875
20
0
30
0
11
144.025
21
0
31
0
39
0
210
0
220
0
230
1
0
LINE
5
180
100
AcDbEntity
8
0
62
256
6
ByLayer
370
-2
48
1
60
0
100
AcDbLine
10
51.5875
20
0
30
0
11
144.025
21
0
31
0
39
0
210
0
220
0
230
1
0
LINE
5
181
100
AcDbEntity
8
0
62
256
6
ByLayer
370
-2
48
1
60
0
100
AcDbLine
10
140.85
20
0
30
0
11
140.85
21
-6.35
31
0
39
0
210
0
220
0
230
1
0
LINE
5
182
100
AcDbEntity
8
0
62
256
6
ByLayer
370
-2
48
1
60
0
100
AcDbLine
10
140.85
20
-3.175
30
0
11
140.85
21
-6.35
31
0
39
0
210
0
220
0
230
1
0
LINE
5
183
100
AcDbEntity
8
0
62
256
6
ByLayer
370
-2
48
1
60
0
100
AcDbLine
10
140.85
20
3.175
30
0
11
140.85
21
6.35
31
0
39
0
210
0
220
0
230
1
0
SOLID
5
184
100
AcDbEntity
8
0
62
256
6
ByLayer
370
-1
48
1
60
0
100
AcDbTrace
10
141.379167
20
-3.175
30
0
11
140.320833
21
-3.175
31
0
12
140.85
22
0
32
0
13
140.85
23
0
33
0
39
0
210
0
220
0
230
1
0
SOLID
5
185
100
AcDbEntity
8
0
62
256
6
ByLayer
370
-1
48
1
60
0
100
AcDbTrace
10
140.320833
20
3.175
30
0
11
141.379167
21
3.175
31
0
12
140.85
22
0
32
0
13
140.85
23
0
33
0
39
0
210
0
220
0
230
1
0
MTEXT
5
186
100
AcDbEntity
8
0
62
256
6
ByLayer
370
18
48
1
60
0
100
AcDbMText
10
131.45625
20
-14.99375
30
0
210
0
220
0
230
1
1
\A1;0
40
4.5
41
0
44
1
50
90
71
5
72
5
7
iso_b_vert
0
POINT
5
187
100
AcDbEntity
8
Defpoints
62
0
6
ByLayer
370
-1
48
1
60
0
100
AcDbPoint
10
115
20
0
30
0
39
0
210
0
220
0
230
1
50
360
0
POINT
5
188
100
AcDbEntity
8
Defpoints
62
0
6
ByLayer
370
-1
48
1
60
0
100
AcDbPoint
10
50
20
0
30
0
39
0
210
0
220
0
230
1
50
360
0
POINT
5
189
100
AcDbEntity
8
Defpoints
62
0
6
ByLayer
370
-1
48
1
60
0
100
AcDbPoint
10
140.85
20
0
30
0
39
0
210
0
220
0
230
1
50
360
0
ENDBLK
5
17E
100
AcDbEntity
8
0
100
AcDbBlockEnd
0
BLOCK
5
195
100
AcDbEntity
8
0
100
AcDbBlockBegin
2
_U0
70
0
10
0
20
0
30
0
3
_U0
0
MTEXT
5
18B
100
AcDbEntity
8
2
62
256
6
ByLayer
370
13
48
1
60
0
100
AcDbMText
10
139.963328
20
-3.396813
30
0
210
0
220
0
230
1
1
\W0.7121;0.0
40
4.5
41
0
44
1.084337
50
90
71
7
72
5
7
iso_b_vert
0
LINE
5
18C
100
AcDbEntity
8
2
62
256
6
ByLayer
370
13
48
1
60
0
100
AcDbLine
10
116.5875
20
0
30
0
11
144.025
21
0
31
0
39
0
210
0
220
0
230
1
0
LINE
5
18D
100
AcDbEntity
8
2
62
256
6
ByLayer
370
13
48
1
60
0
100
AcDbLine
10
51.5875
20
0
30
0
11
144.025
21
0
31
0
39
0
210
0
220
0
230
1
0
LINE
5
18E
100
AcDbEntity
8
2
62
256
6
ByLayer
370
13
48
1
60
0
100
AcDbLine
10
140.85
20
0
30
0
11
140.85
21
0
31
0
39
0
210
0
220
0
230
1
0
LINE
5
18F
100
AcDbEntity
8
2
62
256
6
ByLayer
370
13
48
1
60
0
100
AcDbLine
10
140.85
20
0
30
0
11
139.999261
21
3.174997
31
0
39
0
210
0
220
0
230
1
0
LINE
5
190
100
AcDbEntity
8
2
62
256
6
ByLayer
370
13
48
1
60
0
100
AcDbLine
10
140.85
20
0
30
0
11
141.700739
21
3.175003
31
0
39
0
210
0
220
0
230
1
0
LINE
5
191
100
AcDbEntity
8
2
62
256
6
ByLayer
370
13
48
1
60
0
100
AcDbLine
10
139.999261
20
3.174997
30
0
11
141.700739
21
3.175003
31
0
39
0
210
0
220
0
230
1
0
LINE
5
192
100
AcDbEntity
8
2
62
256
6
ByLayer
370
13
48
1
60
0
100
AcDbLine
10
140.85
20
0
30
0
11
141.700739
21
-3.174997
31
0
39
0
210
0
220
0
230
1
0
LINE
5
193
100
AcDbEntity
8
2
62
256
6
ByLayer
370
13
48
1
60
0
100
AcDbLine
10
140.85
20
0
30
0
11
139.999261
21
-3.175003
31
0
39
0
210
0
220
0
230
1
0
LINE
5
194
100
AcDbEntity
8
2
62
256
6
ByLayer
370
13
48
1
60
0
100
AcDbLine
10
141.700739
20
-3.174997
30
0
11
139.999261
21
-3.175003
31
0
39
0
210
0
220
0
230
1
0
ENDBLK
5
196
100
AcDbEntity
8
0
100
AcDbBlockEnd
0
BLOCK
5
19B
100
AcDbEntity
8
0
100
AcDbBlockBegin
2
*D4
70
1
10
0
20
0
30
0
3
*D4
0
LINE
5
19D
100
AcDbEntity
8
0
62
256
6
ByLayer
370
-2
48
1
60
0
100
AcDbLine
10
0
20
-26.5875
30
0
11
0
21
-44.113874
31
0
39
0
210
0
220
0
230
1
0
LINE
5
19E
100
AcDbEntity
8
0
62
256
6
ByLayer
370
-2
48
1
60
0
100
AcDbLine
10
115
20
-1.5875
30
0
11
115
21
-44.113874
31
0
39
0
210
0
220
0
230
1
0
LINE
5
19F
100
AcDbEntity
8
0
62
256
6
ByLayer
370
-2
48
1
60
0
100
AcDbLine
10
3.175
20
-40.938874
30
0
11
111.825
21
-40.938874
31
0
39
0
210
0
220
0
230
1
0
SOLID
5
1A0
100
AcDbEntity
8
0
62
256
6
ByLayer
370
-1
48
1
60
0
100
AcDbTrace
10
3.175
20
-40.409708
30
0
11
3.175
21
-41.468041
31
0
12
0
22
-40.938874
32
0
13
0
23
-40.938874
33
0
39
0
210
0
220
0
230
1
0
SOLID
5
1A1
100
AcDbEntity
8
0
62
256
6
ByLayer
370
-1
48
1
60
0
100
AcDbTrace
10
111.825
20
-41.468041
30
0
11
111.825
21
-40.409708
31
0
12
115
22
-40.938874
32
0
13
115
23
-40.938874
33
0
39
0
210
0
220
0
230
1
0
MTEXT
5
1A2
100
AcDbEntity
8
0
62
256
6
ByLayer
370
18
48
1
60
0
100
AcDbMText
10
57.5
20
-31.545124
30
0
210
0
220
0
230
1
1
\A1;115
40
4.5
41
0
44
1
50
0
71
5
72
5
7
iso_b_vert
0
POINT
5
1A3
100
AcDbEntity
8
Defpoints
62
0
6
ByLayer
370
-1
48
1
60
0
100
AcDbPoint
10
0
20
-25
30
0
39
0
210
0
220
0
230
1
50
360
0
POINT
5
1A4
100
AcDbEntity
8
Defpoints
62
0
6
ByLayer
370
-1
48
1
60
0
100
AcDbPoint
10
115
20
0
30
0
39
0
210
0
220
0
230
1
50
360
0
POINT
5
1A5
100
AcDbEntity
8
Defpoints
62
0
6
ByLayer
370
-1
48
1
60
0
100
AcDbPoint
10
115
20
-40.938874
30
0
39
0
210
0
220
0
230
1
50
360
0
ENDBLK
5
19C
100
AcDbEntity
8
0
100
AcDbBlockEnd
0
BLOCK
5
1B1
100
AcDbEntity
8
0
100
AcDbBlockBegin
2
_U1
70
0
10
0
20
0
30
0
3
_U1
0
MTEXT
5
1A7
100
AcDbEntity
8
2
62
256
6
ByLayer
370
13
48
1
60
0
100
AcDbMText
10
51.901273
20
-39.611203
30
0
210
0
220
0
230
1
1
\W0.6261;115.0
40
4.5
41
0
44
1.084337
50
0
71
7
72
5
7
iso_b_vert
0
LINE
5
1A8
100
AcDbEntity
8
2
62
256
6
ByLayer
370
13
48
1
60
0
100
AcDbLine
10
0
20
-26.5875
30
0
11
0
21
-44.113874
31
0
39
0
210
0
220
0
230
1
0
LINE
5
1A9
100
AcDbEntity
8
2
62
256
6
ByLayer
370
13
48
1
60
0
100
AcDbLine
10
115
20
-1.5875
30
0
11
115
21
-44.113874
31
0
39
0
210
0
220
0
230
1
0
LINE
5
1AA
100
AcDbEntity
8
2
62
256
6
ByLayer
370
13
48
1
60
0
100
AcDbLine
10
0
20
-40.938874
30
0
11
115
21
-40.938874
31
0
39
0
210
0
220
0
230
1
0
LINE
5
1AB
100
AcDbEntity
8
2
62
256
6
ByLayer
370
13
48
1
60
0
100
AcDbLine
10
0
20
-40.938874
30
0
11
3.174997
21
-40.088136
31
0
39
0
210
0
220
0
230
1
0
LINE
5
1AC
100
AcDbEntity
8
2
62
256
6
ByLayer
370
13
48
1
60
0
100
AcDbLine
10
0
20
-40.938874
30
0
11
3.175003
21
-41.789613
31
0
39
0
210
0
220
0
230
1
0
LINE
5
1AD
100
AcDbEntity
8
2
62
256
6
ByLayer
370
13
48
1
60
0
100
AcDbLine
10
3.174997
20
-40.088136
30
0
11
3.175003
21
-41.789613
31
0
39
0
210
0
220
0
230
1
0
LINE
5
1AE
100
AcDbEntity
8
2
62
256
6
ByLayer
370
13
48
1
60
0
100
AcDbLine
10
115
20
-40.938874
30
0
11
111.825003
21
-41.789613
31
0
39
0
210
0
220
0
230
1
0
LINE
5
1AF
100
AcDbEntity
8
2
62
256
6
ByLayer
370
13
48
1
60
0
100
AcDbLine
10
115
20
-40.938874
30
0
11
111.824997
21
-40.088136
31
0
39
0
210
0
220
0
230
1
0
LINE
5
1B0
100
AcDbEntity
8
2
62
256
6
ByLayer
370
13
48
1
60
0
100
AcDbLine
10
111.825003
20
-41.789613
30
0
11
111.824997
21
-40.088136
31
0
39
0
210
0
220
0
230
1
0
ENDBLK
5
1B2
100
AcDbEntity
8
0
100
AcDbBlockEnd
0
ENDSEC
0
SECTION
2
ENTITIES
0
ARC
5
E9
100
AcDbEntity
8
1
62
256
6
ByLayer
370
18
48
1
60
0
100
AcDbCircle
39
0
10
104.503967
20
-4.421562
30
0
40
1.4097
210
0
220
0
230
1
100
AcDbArc
50
174.5
51
234.5
0
ARC
5
EA
100
AcDbEntity
8
1
62
256
6
ByLayer
370
18
48
1
60
0
100
AcDbCircle
39
0
10
104.503967
20
-4.421562
30
0
40
1.4097
210
0
220
0
230
1
100
AcDbArc
50
54.5
51
114.5
0
ARC
5
EB
100
AcDbEntity
8
1
62
256
6
ByLayer
370
18
48
1
60
0
100
AcDbCircle
39
0
10
104.503967
20
-4.421562
30
0
40
1.0744
210
0
220
0
230
1
100
AcDbArc
50
84.5
51
144.5
0
ARC
5
EC
100
AcDbEntity
8
1
62
256
6
ByLayer
370
18
48
1
60
0
100
AcDbCircle
39
0
10
104.503967
20
-4.421562
30
0
40
1.4097
210
0
220
0
230
1
100
AcDbArc
50
234.5
51
294.5
0
ARC
5
ED
100
AcDbEntity
8
1
62
256
6
ByLayer
370
18
48
1
60
0
100
AcDbCircle
39
0
10
104.503967
20
-4.421562
30
0
40
1.0744
210
0
220
0
230
1
100
AcDbArc
50
144.5
51
204.5
0
ARC
5
EE
100
AcDbEntity
8
1
62
256
6
ByLayer
370
18
48
1
60
0
100
AcDbCircle
39
0
10
104.503967
20
-4.421562
30
0
40
1.4097
210
0
220
0
230
1
100
AcDbArc
50
354.5
51
54.5
0
ARC
5
F1
100
AcDbEntity
8
1
62
256
6
ByLayer
370
18
48
1
60
0
100
AcDbCircle
39
0
10
104.503967
20
-4.421562
30
0
40
1.4097
210
0
220
0
230
1
100
AcDbArc
50
114.5
51
174.5
0
ARC
5
F2
100
AcDbEntity
8
1
62
256
6
ByLayer
370
18
48
1
60
0
100
AcDbCircle
39
0
10
104.503967
20
-4.421562
30
0
40
1.0744
210
0
220
0
230
1
100
AcDbArc
50
324.5
51
24.5
0
ARC
5
F3
100
AcDbEntity
8
1
62
256
6
ByLayer
370
18
48
1
60
0
100
AcDbCircle
39
0
10
104.503967
20
-4.421562
30
0
40
1.0744
210
0
220
0
230
1
100
AcDbArc
50
204.5
51
264.5
0
ARC
5
F4
100
AcDbEntity
8
1
62
256
6
ByLayer
370
18
48
1
60
0
100
AcDbCircle
39
0
10
104.503967
20
-4.421562
30
0
40
1.0744
210
0
220
0
230
1
100
AcDbArc
50
24.5
51
84.5
0
ARC
5
F5
100
AcDbEntity
8
1
62
256
6
ByLayer
370
18
48
1
60
0
100
AcDbCircle
39
0
10
104.503967
20
-4.421562
30
0
40
1.0744
210
0
220
0
230
1
100
AcDbArc
50
264.5
51
324.5
0
ARC
5
F6
100
AcDbEntity
8
1
62
256
6
ByLayer
370
18
48
1
60
0
100
AcDbCircle
39
0
10
104.503967
20
-4.421562
30
0
40
1.4097
210
0
220
0
230
1
100
AcDbArc
50
294.5
51
354.5
0
ARC
5
F8
100
AcDbEntity
8
1
62
256
6
ByLayer
370
18
48
1
60
0
100
AcDbCircle
39
0
10
114.2062
20
0
30
0
40
0.793800000000105
210
0
220
0
230
1
100
AcDbArc
50
322
51
87
0
ARC
5
F9
100
AcDbEntity
8
1
62
256
6
ByLayer
370
18
48
1
60
0
100
AcDbCircle
39
0
10
94.801733
20
-8.843125
30
0
40
0.793800000000105
210
0
220
0
230
1
100
AcDbArc
50
142
51
267
0
ARC
5
FC
100
AcDbEntity
8
1
62
256
6
ByLayer
370
18
48
1
60
0
100
AcDbCircle
39
0
10
93.490589
20
-9.440648
30
0
40
1.6
210
0
220
0
230
1
100
AcDbArc
50
208.083322
51
294.5
0
ARC
5
FD
100
AcDbEntity
8
1
62
256
6
ByLayer
370
18
48
1
60
0
100
AcDbCircle
39
0
10
93.490589
20
-9.440648
30
0
40
1.5
210
0
220
0
230
1
100
AcDbArc
50
208.200879
51
294.5
0
ARC
5
FE
100
AcDbEntity
8
1
62
256
6
ByLayer
370
18
48
1
60
0
100
AcDbCircle
39
0
10
85.947923
20
-8.171056
30
0
40
13
210
0
220
0
230
1
100
AcDbArc
50
280
51
312
0
ARC
5
FF
100
AcDbEntity
8
1
62
256
6
ByLayer
370
18
48
1
60
0
100
AcDbCircle
39
0
10
92.902142
20
10.646848
30
0
40
13.0139640519426
210
0
220
0
230
1
100
AcDbArc
50
251
51
272.421915
0
ARC
5
100
100
AcDbEntity
8
1
62
256
6
ByLayer
370
18
48
1
60
0
100
AcDbCircle
39
0
10
51.251422
20
-26.076723
30
0
40
41.6
210
0
220
0
230
1
100
AcDbArc
50
18.910571
51
28.190626
0
ARC
5
101
100
AcDbEntity
8
1
62
256
6
ByLayer
370
18
48
1
60
0
100
AcDbCircle
39
0
10
33
20
31.27281
30
0
40
13
210
0
220
0
230
1
100
AcDbArc
50
208.46803
51
251
0
ARC
5
102
100
AcDbEntity
8
1
62
256
6
ByLayer
370
18
48
1
60
0
100
AcDbCircle
39
0
10
93.490589
20
-9.440648
30
0
40
1.6
210
0
220
0
230
1
100
AcDbArc
50
114.5
51
200.916678
0
ARC
5
103
100
AcDbEntity
8
1
62
256
6
ByLayer
370
18
48
1
60
0
100
AcDbCircle
39
0
10
93.490589
20
-9.440648
30
0
40
1.50000000000001
210
0
220
0
230
1
100
AcDbArc
50
114.5
51
200.799121
0
ARC
5
104
100
AcDbEntity
8
1
62
256
6
ByLayer
370
18
48
1
60
0
100
AcDbCircle
39
0
10
92.902142
20
10.646848
30
0
40
13
210
0
220
0
230
1
100
AcDbArc
50
251
51
274.756371
0
ARC
5
105
100
AcDbEntity
8
1
62
256
6
ByLayer
370
18
48
1
60
0
100
AcDbCircle
39
0
10
86.254368
20
-14.08532
30
0
40
4.6
210
0
220
0
230
1
100
AcDbArc
50
298.616747
51
18.910571
0
ARC
5
106
100
AcDbEntity
8
1
62
256
6
ByLayer
370
18
48
1
60
0
100
AcDbCircle
39
0
10
49.375336
20
53.508592
30
0
40
81.6
210
0
220
0
230
1
100
AcDbArc
50
291.078413
51
298.616747
0
ARC
5
107
100
AcDbEntity
8
1
62
256
6
ByLayer
370
18
48
1
60
0
100
AcDbCircle
39
0
10
92.902142
20
10.646848
30
0
40
13
210
0
220
0
230
1
100
AcDbArc
50
275.223956
51
277
0
ARC
5
108
100
AcDbEntity
8
1
62
256
6
ByLayer
370
18
48
1
60
0
100
AcDbCircle
39
0
10
85.947923
20
-8.171056
30
0
40
12.9860359480574
210
0
220
0
230
1
100
AcDbArc
50
280
51
312
0
ARC
5
109
100
AcDbEntity
8
1
62
256
6
ByLayer
370
18
48
1
60
0
100
AcDbCircle
39
0
10
187.879416
20
222.030773
30
0
40
248.4
210
0
220
0
230
1
100
AcDbArc
50
239.959908
51
245.723908
0
ARC
5
10A
100
AcDbEntity
8
1
62
256
6
ByLayer
370
18
48
1
60
0
100
AcDbCircle
39
0
10
83.86251
20
-8.59768
30
0
40
4.6
210
0
220
0
230
1
100
AcDbArc
50
28.190626
51
65.723908
0
ARC
5
10B
100
AcDbEntity
8
SK1
62
256
6
ByLayer
370
18
48
1
60
0
100
AcDbCircle
39
0
10
-0.6
20
18.75
30
0
40
0.999999999999998
210
0
220
0
230
1
100
AcDbArc
50
293.578178
51
306.869898
0
ARC
5
10C
100
AcDbEntity
8
SK1
62
256
6
ByLayer
370
18
48
1
60
0
100
AcDbCircle
39
0
10
-0.6
20
-18.75
30
0
40
0.999999999999998
210
0
220
0
230
1
100
AcDbArc
50
53.130102
51
66.421822
0
ARC
5
10D
100
AcDbEntity
8
1
62
256
6
ByLayer
370
18
48
1
60
0
100
AcDbCircle
39
0
10
20.279208
20
-26.2
30
0
40
1.2
210
0
220
0
230
1
100
AcDbArc
50
67.810252
51
90
0
ARC
5
10E
100
AcDbEntity
8
1
62
256
6
ByLayer
370
18
48
1
60
0
100
AcDbCircle
39
0
10
20.279208
20
26.2
30
0
40
1.2
210
0
220
0
230
1
100
AcDbArc
50
270
51
292.189748
0
ARC
5
10F
100
AcDbEntity
8
2
62
256
6
ByLayer
370
13
48
1
60
0
100
AcDbCircle
39
0
10
115
20
0.440377
30
0
40
35.9256350926791
210
0
220
0
230
1
100
AcDbArc
50
222
51
270
0
CIRCLE
5
EF
100
AcDbEntity
8
1
62
256
6
ByLayer
370
18
48
1
60
0
100
AcDbCircle
10
104.503967
20
-4.421562
30
0
40
2.2
39
0
210
0
220
0
230
1
0
CIRCLE
5
F0
100
AcDbEntity
8
1
62
256
6
ByLayer
370
18
48
1
60
0
100
AcDbCircle
10
104.503967
20
-4.421562
30
0
40
1.5
39
0
210
0
220
0
230
1
0
CIRCLE
5
F7
100
AcDbEntity
8
1
62
256
6
ByLayer
370
18
48
1
60
0
100
AcDbCircle
10
104.503967
20
-4.421562
30
0
40
2.28743682147945
39
0
210
0
220
0
230
1
0
CIRCLE
5
FA
100
AcDbEntity
8
1
62
256
6
ByLayer
370
18
48
1
60
0
100
AcDbCircle
10
104.503967
20
-4.421562
30
0
40
2.20386856458356
39
0
210
0
220
0
230
1
0
CIRCLE
5
FB
100
AcDbEntity
8
1
62
256
6
ByLayer
370
18
48
1
60
0
100
AcDbCircle
10
104.503967
20
-4.421562
30
0
40
2.31999999999999
39
0
210
0
220
0
230
1
0
ELLIPSE
5
110
100
AcDbEntity
8
1
62
256
6
ByLayer
370
18
48
1
60
0
100
AcDbEllipse
10
105.723392
20
-7.097347
30
0
11
0.495973431073034
21
-1.08831436646864
31
0
210
2.34291072916502E-15
220
-6.12323399573742E-17
230
1
40
0.995819
41
-0.304233038584717
42
0.304233038584756
0
ELLIPSE
5
111
100
AcDbEntity
8
1
62
256
6
ByLayer
370
18
48
1
60
0
100
AcDbEllipse
10
103.284541
20
-1.745778
30
0
11
-0.495973431073083
21
1.08831436646861
31
0
210
2.34291072916502E-15
220
-6.12323399573741E-17
230
1
40
0.995819
41
-0.304233038584759
42
0.3042330385847
0
ELLIPSE
5
112
100
AcDbEntity
8
1
62
256
6
ByLayer
370
18
48
1
60
0
100
AcDbEllipse
10
21.056258
20
0
30
0
11
11.7092723497282
21
24.6771864409385
31
0
210
0
220
0
230
1
40
0.341999
41
2.05975995310056
42
2.97437958168082
0
ELLIPSE
5
113
100
AcDbEntity
8
1
62
256
6
ByLayer
370
18
48
1
60
0
100
AcDbEllipse
10
187.868447
20
222.012954
30
0
11
212.887437994862
21
-131.048494007446
31
0
210
0
220
0
230
1
40
0.999958
41
-1.57322924875835
42
-1.5681223971293
0
ELLIPSE
5
114
100
AcDbEntity
8
1
62
256
6
ByLayer
370
18
48
1
60
0
100
AcDbEllipse
10
196.193179
20
-1.931782
30
0
11
127.190129760174
21
22.4202189410601
31
0
210
0
220
0
230
1
40
0.003019
41
3.09394199586951
42
-3.12280353131442
0
ELLIPSE
5
115
100
AcDbEntity
8
1
62
256
6
ByLayer
370
18
48
1
60
0
100
AcDbEllipse
10
-1.056258
20
0
30
0
11
11.7092723497277
21
-24.6771864409381
31
0
210
0
220
0
230
1
40
0.341999
41
0.167213071908981
42
1.08183270048925
0
ELLIPSE
5
116
100
AcDbEntity
8
1
62
256
6
ByLayer
370
18
48
1
60
0
100
AcDbEllipse
10
21.056258
20
0
30
0
11
11.7092723497279
21
-24.6771864409381
31
0
210
0
220
0
230
1
40
0.341999
41
-2.97437958168081
42
-2.05975995310055
0
ELLIPSE
5
117
100
AcDbEntity
8
1
62
256
6
ByLayer
370
18
48
1
60
0
100
AcDbEllipse
10
92.696729
20
10.553237
30
0
11
11.7677135420915
21
5.36386547594131
31
0
210
0
220
0
230
1
40
0.999848
41
-1.93997338605657
42
-1.89883492716229
0
ELLIPSE
5
118
100
AcDbEntity
8
1
62
256
6
ByLayer
370
18
48
1
60
0
100
AcDbEllipse
10
-1.056258
20
0
30
0
11
11.709272349727
21
24.6771864409373
31
0
210
0
220
0
230
1
40
0.341999
41
-1.08183270048928
42
-0.16721307190899
0
ELLIPSE
5
119
100
AcDbEntity
8
1
62
256
6
ByLayer
370
18
48
1
60
0
100
AcDbEllipse
10
92.902153
20
10.646719
30
0
11
12.9524898216834
21
1.10964964813664
31
0
210
0
220
0
230
1
40
0.999995
41
-1.57324408640375
42
-1.56508315220381
0
ELLIPSE
5
11A
100
AcDbEntity
8
1
62
256
6
ByLayer
370
18
48
1
60
0
100
AcDbEllipse
10
80.794003
20
1.066583
30
0
11
70.2255042932884
21
-24.1732132704357
31
0
210
0
220
0
230
1
40
0.005676
41
-2.40516609259649
42
-2.08158771387828
0
POINT
5
70
100
AcDbEntity
8
81
62
256
6
ByLayer
370
70
48
1
60
0
100
AcDbPoint
10
115
20
0
30
0
39
0
210
0
220
0
230
1
50
360
0
POINT
5
72
100
AcDbEntity
8
80
62
256
6
ByLayer
370
70
48
1
60
0
100
AcDbPoint
10
0
20
0
30
0
39
0
210
0
220
0
230
1
50
360
0
POINT
5
74
100
AcDbEntity
8
1
62
256
6
ByLayer
370
18
48
1
60
1
100
AcDbPoint
10
115
20
0
30
0
39
0
210
0
220
0
230
1
50
360
0
POINT
5
76
100
AcDbEntity
8
1
62
256
6
ByLayer
370
18
48
1
60
1
100
AcDbPoint
10
50
20
0
30
0
39
0
210
0
220
0
230
1
50
360
0
POINT
5
77
100
AcDbEntity
8
1
62
256
6
ByLayer
370
18
48
1
60
1
100
AcDbPoint
10
0
20
-25
30
0
39
0
210
0
220
0
230
1
50
360
0
POINT
5
78
100
AcDbEntity
8
1
62
256
6
ByLayer
370
18
48
1
60
1
100
AcDbPoint
10
115
20
0
30
0
39
0
210
0
220
0
230
1
50
360
0
SPLINE
5
11B
100
AcDbEntity
8
1
62
256
6
ByLayer
370
18
48
1
60
0
100
AcDbSpline
70
4
71
3
72
8
73
4
40
0
40
0
40
0
40
0
40
1
40
1
40
1
40
1
41
1
10
103.291397752692
20
-4.62979599555786
30
0
41
1
10
103.284792359408
20
-4.62882632480694
30
0
41
1
10
103.278188228533
20
-4.62785683937747
30
0
41
1
10
103.271585304078
20
-4.62688753105027
30
0
0
SPLINE
5
11C
100
AcDbEntity
8
1
62
256
6
ByLayer
370
18
48
1
60
0
100
AcDbSpline
70
4
71
3
72
16
73
12
40
0
40
0
40
0
40
0
40
0.125000000000031
40
0.125000000000031
40
0.250000000000062
40
0.250000000000062
40
0.500000000000042
40
0.500000000000042
40
0.750000000000021
40
0.750000000000021
40
1
40
1
40
1
40
1
41
1
10
104.06559272087
20
-5.59149857650036
30
0
41
1
10
104.061964162696
20
-5.60764692134086
30
0
41
1
10
104.054322692652
20
-5.62256343380957
30
0
41
1
10
104.030790377384
20
-5.64655669784199
30
0
41
1
10
104.015284216511
20
-5.65517364604165
30
0
41
1
10
103.965046646343
20
-5.67098360692967
30
0
41
1
10
103.926554039696
20
-5.66939272276844
30
0
41
1
10
103.853034837025
20
-5.65517208999171
30
0
41
1
10
103.817172937145
20
-5.6424266113801
30
0
41
1
10
103.74880131383
20
-5.61050408101425
30
0
41
1
10
103.716157374263
20
-5.59119598825416
30
0
41
1
10
103.685349725939
20
-5.56922110626681
30
0
0
SPLINE
5
11D
100
AcDbEntity
8
1
62
256
6
ByLayer
370
18
48
1
60
0
100
AcDbSpline
70
4
71
3
72
8
73
4
40
0
40
0
40
0
40
0
40
1
40
1
40
1
40
1
41
1
10
105.674527873617
20
-4.8582645839445
30
0
41
1
10
105.667861310733
20
-4.85795618596583
30
0
41
1
10
105.661193529803
20
-4.85764773163976
30
0
41
1
10
105.654524474296
20
-4.85733921835129
30
0
0
SPLINE
5
11E
100
AcDbEntity
8
1
62
256
6
ByLayer
370
18
48
1
60
0
100
AcDbSpline
70
4
71
3
72
20
73
16
40
0
40
0
40
0
40
0
40
0.124999999999979
40
0.124999999999979
40
0.249999999999959
40
0.249999999999959
40
0.374999999999938
40
0.374999999999938
40
0.499999999999917
40
0.499999999999917
40
0.749999999999933
40
0.749999999999933
40
0.874999999999966
40
0.874999999999966
40
1
40
1
40
1
40
1
41
1
10
104.929915615881
20
-3.26733019513966
30
0
41
1
10
104.913366068392
20
-3.28824697919327
30
0
41
1
10
104.890459047687
20
-3.3039271967634
30
0
41
1
10
104.840125437407
20
-3.32843688199654
30
0
41
1
10
104.812740547013
20
-3.33712709937947
30
0
41
1
10
104.756073376619
20
-3.34943435233598
30
0
41
1
10
104.72641994874
20
-3.35303520139985
30
0
41
1
10
104.667265946805
20
-3.35579826637337
30
0
41
1
10
104.637452432951
20
-3.35502501705884
30
0
41
1
10
104.5472859135
20
-3.34640685803899
30
0
41
1
10
104.488134600866
20
-3.33264753341499
30
0
41
1
10
104.407699858517
20
-3.29810400855038
30
0
41
1
10
104.382274472436
20
-3.28419890822391
30
0
41
1
10
104.337655790226
20
-3.2505465430726
30
0
41
1
10
104.318305908263
20
-3.23089410115293
30
0
41
1
10
104.306081529836
20
-3.20726180475779
30
0
0
SPLINE
5
11F
100
AcDbEntity
8
1
62
256
6
ByLayer
370
18
48
1
60
0
100
AcDbSpline
70
4
71
3
72
8
73
4
40
0
40
0
40
0
40
0
40
1
40
1
40
1
40
1
41
1
10
103.709959265813
20
-3.45695141458984
30
0
41
1
10
103.712421282405
20
-3.46315436907071
30
0
41
1
10
103.714883748831
20
-3.46935845689302
30
0
41
1
10
103.71734668597
20
-3.47556373065441
30
0
0
SPLINE
5
120
100
AcDbEntity
8
1
62
256
6
ByLayer
370
18
48
1
60
0
100
AcDbSpline
70
4
71
3
72
18
73
14
40
0
40
0
40
0
40
0
40
0.125
40
0.125
40
0.25
40
0.25
40
0.5
40
0.5
40
0.75
40
0.75
40
0.875
40
0.875
40
1
40
1
40
1
40
1
41
1
10
103.551294043683
20
-5.20008635701063
30
0
41
1
10
103.56561294236
20
-5.17773833893804
30
0
41
1
10
103.572986803901
20
-5.15113292054062
30
0
41
1
10
103.579828786307
20
-5.09563271736116
30
0
41
1
10
103.579155475384
20
-5.06675201445333
30
0
41
1
10
103.568921383602
20
-4.9800947372903
30
0
41
1
10
103.551271312445
20
-4.92186833629839
30
0
41
1
10
103.501242149669
20
-4.81214074137566
30
0
41
1
10
103.468998165078
20
-4.76080902282089
30
0
41
1
10
103.410208879217
20
-4.69614673765568
30
0
41
1
10
103.388808822877
20
-4.67667867950033
30
0
41
1
10
103.34252536965
20
-4.64552138582559
30
0
41
1
10
103.31768096164
20
-4.63365436671938
30
0
41
1
10
103.291397752692
20
-4.62979599555786
30
0
0
SPLINE
5
121
100
AcDbEntity
8
1
62
256
6
ByLayer
370
18
48
1
60
0
100
AcDbSpline
70
4
71
3
72
8
73
4
40
0
40
0
40
0
40
0
40
1
40
1
40
1
40
1
41
1
10
104.929915615883
20
-3.26733019513648
30
0
41
1
10
104.934058072029
20
-3.262094592126
30
0
41
1
10
104.938199736477
20
-3.25685998973313
30
0
41
1
10
104.942340644339
20
-3.25162634357946
30
0
0
SPLINE
5
122
100
AcDbEntity
8
1
62
256
6
ByLayer
370
18
48
1
60
0
100
AcDbSpline
70
4
71
3
72
18
73
14
40
0
40
0
40
0
40
0
40
0.125000000000001
40
0.125000000000001
40
0.250000000000001
40
0.250000000000001
40
0.500000000000001
40
0.500000000000001
40
0.750000000000001
40
0.750000000000001
40
0.875
40
0.875
40
1
40
1
40
1
40
1
41
1
10
104.701851835374
20
-5.63586311532202
30
0
41
1
10
104.689657333337
20
-5.61228857627734
30
0
41
1
10
104.670303295897
20
-5.59259991565963
30
0
41
1
10
104.625659701232
20
-5.55892448349445
30
0
41
1
10
104.600311623373
20
-5.54506723640438
30
0
41
1
10
104.520147174036
20
-5.51060158129084
30
0
41
1
10
104.460896596027
20
-5.49677379079537
30
0
41
1
10
104.34085512994
20
-5.48523651922821
30
0
41
1
10
104.280278565356
20
-5.48749476972583
30
0
41
1
10
104.194884740806
20
-5.50607664216886
30
0
41
1
10
104.167324879711
20
-5.51487560552437
30
0
41
1
10
104.117200145262
20
-5.53937960495642
30
0
41
1
10
104.094500801244
20
-5.5549619838821
30
0
41
1
10
104.078017749327
20
-5.57579472494336
30
0
0
SPLINE
5
123
100
AcDbEntity
8
1
62
256
6
ByLayer
370
18
48
1
60
0
100
AcDbSpline
70
4
71
3
72
18
73
14
40
0
40
0
40
0
40
0
40
0.125
40
0.125
40
0.25
40
0.25
40
0.375
40
0.375
40
0.5
40
0.5
40
0.75
40
0.75
40
1
40
1
40
1
40
1
41
1
10
104.296881220287
20
-3.18947566998733
30
0
41
1
10
104.296400847672
20
-3.17294092262375
30
0
41
1
10
104.291701422883
20
-3.15677212796456
30
0
41
1
10
104.273293721066
20
-3.12888623703242
30
0
41
1
10
104.259722179607
20
-3.11742725086711
30
0
41
1
10
104.228887983845
20
-3.1006769353952
30
0
41
1
10
104.211336603658
20
-3.09501204524403
30
0
41
1
10
104.175136141237
20
-3.0879311089563
30
0
41
1
10
104.156509406406
20
-3.08646502102846
30
0
41
1
10
104.10040486639
20
-3.08641526202493
30
0
41
1
10
104.062787947511
20
-3.09207128089085
30
0
41
1
10
103.989488379358
20
-3.11038486397931
30
0
41
1
10
103.953785921985
20
-3.12310746624288
30
0
41
1
10
103.919373618432
20
-3.13879005648525
30
0
0
SPLINE
5
124
100
AcDbEntity
8
1
62
256
6
ByLayer
370
18
48
1
60
0
100
AcDbSpline
70
4
71
3
72
8
73
4
40
0
40
0
40
0
40
0
40
1
40
1
40
1
40
1
41
1
10
103.333405491593
20
-3.98486033613531
30
0
41
1
10
103.340072054476
20
-3.98516873411398
30
0
41
1
10
103.346739835407
20
-3.98547718844006
30
0
41
1
10
103.353408890914
20
-3.98578570172853
30
0
0
SPLINE
5
125
100
AcDbEntity
8
1
62
256
6
ByLayer
370
18
48
1
60
0
100
AcDbSpline
70
4
71
3
72
18
73
14
40
0
40
0
40
0
40
0
40
0.125000000000001
40
0.125000000000001
40
0.250000000000003
40
0.250000000000003
40
0.499999999999987
40
0.499999999999987
40
0.749999999999971
40
0.749999999999971
40
0.874999999999986
40
0.874999999999986
40
1
40
1
40
1
40
1
41
1
10
103.71734668597
20
-3.47556373065441
30
0
41
1
10
103.72714940467
20
-3.50026129690326
30
0
41
1
10
103.729305634682
20
-3.5278186829417
30
0
41
1
10
103.725407760179
20
-3.58367094367881
30
0
41
1
10
103.719217250803
20
-3.61192349564979
30
0
41
1
10
103.692567996504
20
-3.69512442406767
30
0
41
1
10
103.664068911411
20
-3.74896800968199
30
0
41
1
10
103.593883126226
20
-3.84719671891796
30
0
41
1
10
103.552686872
20
-3.89109449545026
30
0
41
1
10
103.482848388873
20
-3.94321970480846
30
0
41
1
10
103.458202875051
20
-3.95821735922911
30
0
41
1
10
103.406994333849
20
-3.97997427109004
30
0
41
1
10
103.380088565093
20
-3.98701991458043
30
0
41
1
10
103.353408890914
20
-3.98578570172853
30
0
0
SPLINE
5
126
100
AcDbEntity
8
1
62
256
6
ByLayer
370
18
48
1
60
0
100
AcDbSpline
70
4
71
3
72
16
73
12
40
0
40
0
40
0
40
0
40
0.25
40
0.25
40
0.5
40
0.5
40
0.75
40
0.75
40
0.875
40
0.875
40
1
40
1
40
1
40
1
41
1
10
103.100756661767
20
-4.28644870271214
30
0
41
1
10
103.104384468243
20
-4.24877249192207
30
0
41
1
10
103.111240297719
20
-4.21139554678032
30
0
41
1
10
103.132067006576
20
-4.13870851913265
30
0
41
1
10
103.145983564326
20
-4.10333051900875
30
0
41
1
10
103.183465609246
20
-4.03860971681971
30
0
41
1
10
103.207210699699
20
-4.00869998446328
30
0
41
1
10
103.252655193352
20
-3.9808859082199
30
0
41
1
10
103.26937986456
20
-3.97494809982871
30
0
41
1
10
103.302574837064
20
-3.97302032964819
30
0
41
1
10
103.318850566329
20
-3.97701155082041
30
0
41
1
10
103.333405491593
20
-3.98486033613531
30
0
0
SPLINE
5
127
100
AcDbEntity
8
1
62
256
6
ByLayer
370
18
48
1
60
0
100
AcDbSpline
70
4
71
3
72
16
73
12
40
0
40
0
40
0
40
0
40
0.249999999999999
40
0.249999999999999
40
0.499999999999998
40
0.499999999999998
40
0.749999999999998
40
0.749999999999998
40
0.874999999999999
40
0.874999999999999
40
1
40
1
40
1
40
1
41
1
10
103.685349725939
20
-5.56922110626681
30
0
41
1
10
103.654535073515
20
-5.54724122830299
30
0
41
1
10
103.625593604244
20
-5.52261543324201
30
0
41
1
10
103.573058146204
20
-5.46823546047122
30
0
41
1
10
103.549378178237
20
-5.43849436786468
30
0
41
1
10
103.512069341848
20
-5.37367356368307
30
0
41
1
10
103.498039299033
20
-5.33815484595783
30
0
41
1
10
103.49667384925
20
-5.28489172186997
30
0
41
1
10
103.499893891944
20
-5.26743882753877
30
0
41
1
10
103.514821880248
20
-5.23772725298161
30
0
41
1
10
103.526416243807
20
-5.2256276685597
30
0
41
1
10
103.540490953911
20
-5.2169471261879
30
0
0
SPLINE
5
128
100
AcDbEntity
8
1
62
256
6
ByLayer
370
18
48
1
60
0
100
AcDbSpline
70
4
71
3
72
16
73
12
40
0
40
0
40
0
40
0
40
0.125000000000023
40
0.125000000000023
40
0.250000000000045
40
0.250000000000045
40
0.50000000000003
40
0.50000000000003
40
0.750000000000015
40
0.750000000000015
40
1
40
1
40
1
40
1
41
1
10
105.736348061132
20
-4.21623738902954
30
0
41
1
10
105.75214721708
20
-4.21130564016715
30
0
41
1
10
105.768886030836
20
-4.21046509111341
30
0
41
1
10
105.801430964642
20
-4.21884804192931
30
0
41
1
10
105.816646541122
20
-4.22796829706024
30
0
41
1
10
105.855457153968
20
-4.26357032860631
30
0
41
1
10
105.873325711194
20
-4.29770134590152
30
0
41
1
10
105.897769883286
20
-4.3684811594683
30
0
41
1
10
105.904662924965
20
-4.40591121509834
30
0
41
1
10
105.911203014373
20
-4.48108404297045
30
0
41
1
10
105.910803685328
20
-4.519008570295
30
0
41
1
10
105.907176703443
20
-4.55667621736768
30
0
0
SPLINE
5
129
100
AcDbEntity
8
1
62
256
6
ByLayer
370
18
48
1
60
0
100
AcDbSpline
70
4
71
3
72
16
73
12
40
0
40
0
40
0
40
0
40
0.125000000000024
40
0.125000000000024
40
0.250000000000048
40
0.250000000000048
40
0.500000000000032
40
0.500000000000032
40
0.750000000000016
40
0.750000000000016
40
1
40
1
40
1
40
1
41
1
10
103.271585304078
20
-4.62688753105027
30
0
41
1
10
103.25578614813
20
-4.63181927991266
30
0
41
1
10
103.239047334374
20
-4.63265982896641
30
0
41
1
10
103.206502400568
20
-4.62427687815051
30
0
41
1
10
103.191286824088
20
-4.61515662301957
30
0
41
1
10
103.152476211242
20
-4.57955459147351
30
0
41
1
10
103.134607654016
20
-4.5454235741783
30
0
41
1
10
103.110163481924
20
-4.47464376061151
30
0
41
1
10
103.103270440245
20
-4.43721370498147
30
0
41
1
10
103.096730350837
20
-4.36204087710937
30
0
41
1
10
103.097129679882
20
-4.32411634978482
30
0
41
1
10
103.100756661767
20
-4.28644870271214
30
0
0
SPLINE
5
12A
100
AcDbEntity
8
1
62
256
6
ByLayer
370
18
48
1
60
0
100
AcDbSpline
70
4
71
3
72
8
73
4
40
0
40
0
40
0
40
0
40
1
40
1
40
1
40
1
41
1
10
104.078017749327
20
-5.57579472494336
30
0
41
1
10
104.073875293181
20
-5.58103032795381
30
0
41
1
10
104.069733628733
20
-5.58626493034669
30
0
41
1
10
104.06559272087
20
-5.59149857650036
30
0
0
SPLINE
5
12B
100
AcDbEntity
8
1
62
256
6
ByLayer
370
18
48
1
60
0
100
AcDbSpline
70
4
71
3
72
8
73
4
40
0
40
0
40
0
40
0
40
1
40
1
40
1
40
1
41
1
10
105.716535612518
20
-4.21332892452196
30
0
41
1
10
105.723141005802
20
-4.21429859527288
30
0
41
1
10
105.729745136677
20
-4.21526808070234
30
0
41
1
10
105.736348061132
20
-4.21623738902954
30
0
0
SPLINE
5
12C
100
AcDbEntity
8
1
62
256
6
ByLayer
370
18
48
1
60
0
100
AcDbSpline
70
4
71
3
72
16
73
12
40
0
40
0
40
0
40
0
40
0.124999999999969
40
0.124999999999969
40
0.249999999999938
40
0.249999999999938
40
0.499999999999958
40
0.499999999999958
40
0.749999999999979
40
0.749999999999979
40
1
40
1
40
1
40
1
41
1
10
104.942340644339
20
-3.25162634357949
30
0
41
1
10
104.945969202514
20
-3.23547799873896
30
0
41
1
10
104.953610672558
20
-3.22056148627024
30
0
41
1
10
104.977142987826
20
-3.19656822223783
30
0
41
1
10
104.992649148699
20
-3.1879512740382
30
0
41
1
10
105.042886718867
20
-3.17214131315018
30
0
41
1
10
105.081379325514
20
-3.17373219731138
30
0
41
1
10
105.154898528185
20
-3.18795283008814
30
0
41
1
10
105.190760428065
20
-3.20069830869971
30
0
41
1
10
105.25913205138
20
-3.23262083906556
30
0
41
1
10
105.291775990947
20
-3.25192893182566
30
0
41
1
10
105.322583639271
20
-3.27390381381301
30
0
0
SPLINE
5
12D
100
AcDbEntity
8
1
62
256
6
ByLayer
370
18
48
1
60
0
100
AcDbSpline
70
4
71
3
72
8
73
4
40
0
40
0
40
0
40
0
40
1
40
1
40
1
40
1
41
1
10
104.711052144923
20
-5.65364925009249
30
0
41
1
10
104.707985943965
20
-5.64772163829025
30
0
41
1
10
104.704919182782
20
-5.64179294345436
30
0
41
1
10
104.701851835374
20
-5.63586311532202
30
0
0
SPLINE
5
12E
100
AcDbEntity
8
1
62
256
6
ByLayer
370
18
48
1
60
0
100
AcDbSpline
70
4
71
3
72
16
73
12
40
0
40
0
40
0
40
0
40
0.125
40
0.125
40
0.25
40
0.25
40
0.5
40
0.5
40
0.75
40
0.75
40
1
40
1
40
1
40
1
41
1
10
105.297974099397
20
-5.38617350548998
30
0
41
1
10
105.310144697171
20
-5.39739010146812
30
0
41
1
10
105.319242040883
20
-5.41146606488309
30
0
41
1
10
105.32825465942
20
-5.44384227973137
30
0
41
1
10
105.327964075028
20
-5.46157948306197
30
0
41
1
10
105.316537117706
20
-5.51299147549605
30
0
41
1
10
105.295913068284
20
-5.54553160863006
30
0
41
1
10
105.246838037706
20
-5.60209078942009
30
0
41
1
10
105.217869179505
20
-5.62677536643852
30
0
41
1
10
105.156037645598
20
-5.67002566394478
30
0
41
1
10
105.122994376985
20
-5.68864209850926
30
0
41
1
10
105.088559746777
20
-5.70433486359457
30
0
0
SPLINE
5
12F
100
AcDbEntity
8
1
62
256
6
ByLayer
370
18
48
1
60
0
100
AcDbSpline
70
4
71
3
72
18
73
14
40
0
40
0
40
0
40
0
40
0.125
40
0.125
40
0.25
40
0.25
40
0.5
40
0.5
40
0.75
40
0.75
40
0.875
40
0.875
40
1
40
1
40
1
40
1
41
1
10
105.456639321527
20
-3.64303856306918
30
0
41
1
10
105.44232042285
20
-3.6653865811418
30
0
41
1
10
105.434946561308
20
-3.6919919995392
30
0
41
1
10
105.428104578903
20
-3.74749220271866
30
0
41
1
10
105.428777889826
20
-3.77637290562652
30
0
41
1
10
105.439011981608
20
-3.86303018278951
30
0
41
1
10
105.456662052765
20
-3.92125658378143
30
0
41
1
10
105.506691215541
20
-4.03098417870416
30
0
41
1
10
105.538935200132
20
-4.08231589725892
30
0
41
1
10
105.597724485992
20
-4.14697818242416
30
0
41
1
10
105.619124542333
20
-4.16644624057952
30
0
41
1
10
105.66540799556
20
-4.19760353425423
30
0
41
1
10
105.69025240357
20
-4.20947055336043
30
0
41
1
10
105.716535612518
20
-4.21332892452196
30
0
0
SPLINE
5
130
100
AcDbEntity
8
1
62
256
6
ByLayer
370
18
48
1
60
0
100
AcDbSpline
70
4
71
3
72
16
73
12
40
0
40
0
40
0
40
0
40
0.249999999999999
40
0.249999999999999
40
0.499999999999999
40
0.499999999999999
40
0.749999999999998
40
0.749999999999998
40
0.874999999999999
40
0.874999999999999
40
1
40
1
40
1
40
1
41
1
10
103.919373618432
20
-3.13879005648525
30
0
41
1
10
103.884960058089
20
-3.15447321947991
30
0
41
1
10
103.851826544575
20
-3.17313502709169
30
0
41
1
10
103.789879057841
20
-3.21649171591426
30
0
41
1
10
103.760958752412
20
-3.24116812609509
30
0
41
1
10
103.71196590837
20
-3.29767949380911
30
0
41
1
10
103.691415813481
20
-3.32986877093683
30
0
41
1
10
103.679911705407
20
-3.38189339304913
30
0
41
1
10
103.679742247824
20
-3.39964028515021
30
0
41
1
10
103.688726620067
20
-3.43165483092707
30
0
41
1
10
103.697799324654
20
-3.44574463989971
30
0
41
1
10
103.709959265813
20
-3.45695141458984
30
0
0
SPLINE
5
131
100
AcDbEntity
8
1
62
256
6
ByLayer
370
18
48
1
60
0
100
AcDbSpline
70
4
71
3
72
8
73
4
40
0
40
0
40
0
40
0
40
1
40
1
40
1
40
1
41
1
10
105.29058667924
20
-5.3675611894254
30
0
41
1
10
105.293049616378
20
-5.3737664631868
30
0
41
1
10
105.295512082805
20
-5.37997055100914
30
0
41
1
10
105.297974099397
20
-5.38617350548998
30
0
0
SPLINE
5
132
100
AcDbEntity
8
1
62
256
6
ByLayer
370
18
48
1
60
0
100
AcDbSpline
70
4
71
3
72
16
73
12
40
0
40
0
40
0
40
0
40
0.25
40
0.25
40
0.5
40
0.5
40
0.75
40
0.75
40
0.875
40
0.875
40
1
40
1
40
1
40
1
41
1
10
105.907176703443
20
-4.55667621736768
30
0
41
1
10
105.903548896966
20
-4.59435242815772
30
0
41
1
10
105.896693067491
20
-4.63172937329949
30
0
41
1
10
105.875866358634
20
-4.70441640094717
30
0
41
1
10
105.861949800884
20
-4.73979440107107
30
0
41
1
10
105.824467755964
20
-4.80451520326008
30
0
41
1
10
105.800722665511
20
-4.83442493561654
30
0
41
1
10
105.755278171857
20
-4.86223901185991
30
0
41
1
10
105.73855350065
20
-4.86817682025111
30
0
41
1
10
105.705358528145
20
-4.87010459043162
30
0
41
1
10
105.689082798881
20
-4.86611336925941
30
0
41
1
10
105.674527873617
20
-4.8582645839445
30
0
0
SPLINE
5
133
100
AcDbEntity
8
1
62
256
6
ByLayer
370
18
48
1
60
0
100
AcDbSpline
70
4
71
3
72
16
73
12
40
0
40
0
40
0
40
0
40
0.249999999999981
40
0.249999999999981
40
0.499999999999962
40
0.499999999999962
40
0.749999999999943
40
0.749999999999943
40
0.874999999999972
40
0.874999999999972
40
1
40
1
40
1
40
1
41
1
10
105.088559746777
20
-5.70433486359457
30
0
41
1
10
105.054117287876
20
-5.72003119642079
30
0
41
1
10
105.01831998913
20
-5.73278234650158
30
0
41
1
10
104.944957822233
20
-5.75108940137849
30
0
41
1
10
104.907361296516
20
-5.75672630889585
30
0
41
1
10
104.832570415207
20
-5.75662630690329
30
0
41
1
10
104.794795281939
20
-5.75101732153448
30
0
41
1
10
104.747985338503
20
-5.72556827368999
30
0
41
1
10
104.73448070999
20
-5.71405318774998
30
0
41
1
10
104.716213725788
20
-5.68626938337331
30
0
41
1
10
104.711532360083
20
-5.67017857777918
30
0
41
1
10
104.711052144923
20
-5.65364925009251
30
0
0
SPLINE
5
134
100
AcDbEntity
8
1
62
256
6
ByLayer
370
18
48
1
60
0
100
AcDbSpline
70
4
71
3
72
8
73
4
40
0
40
0
40
0
40
0
40
1
40
1
40
1
40
1
41
1
10
105.467442411299
20
-3.62617779389191
30
0
41
1
10
105.463842049373
20
-3.6317970077155
30
0
41
1
10
105.460241029625
20
-3.63741724822532
30
0
41
1
10
105.456639321527
20
-3.64303856306918
30
0
0
SPLINE
5
135
100
AcDbEntity
8
1
62
256
6
ByLayer
370
18
48
1
60
0
100
AcDbSpline
70
4
71
3
72
8
73
4
40
0
40
0
40
0
40
0
40
1
40
1
40
1
40
1
41
1
10
103.540490953911
20
-5.2169471261879
30
0
41
1
10
103.544091315837
20
-5.21132791236434
30
0
41
1
10
103.547692335584
20
-5.2057076718545
30
0
41
1
10
103.551294043683
20
-5.20008635701063
30
0
0
SPLINE
5
136
100
AcDbEntity
8
1
62
256
6
ByLayer
370
18
48
1
60
0
100
AcDbSpline
70
4
71
3
72
8
73
4
40
0
40
0
40
0
40
0
40
1
40
1
40
1
40
1
41
1
10
104.306081529836
20
-3.20726180475782
30
0
41
1
10
104.303014182428
20
-3.20133197662548
30
0
41
1
10
104.299947421245
20
-3.19540328178957
30
0
41
1
10
104.296881220287
20
-3.18947566998733
30
0
0
SPLINE
5
137
100
AcDbEntity
8
1
62
256
6
ByLayer
370
18
48
1
60
0
100
AcDbSpline
70
4
71
3
72
16
73
12
40
0
40
0
40
0
40
0
40
0.25
40
0.25
40
0.5
40
0.5
40
0.75
40
0.75
40
0.875
40
0.875
40
1
40
1
40
1
40
1
41
1
10
105.322583639271
20
-3.27390381381301
30
0
41
1
10
105.353398291695
20
-3.29588369177685
30
0
41
1
10
105.382339760965
20
-3.32050948683783
30
0
41
1
10
105.434875219006
20
-3.37488945960863
30
0
41
1
10
105.458555186973
20
-3.40463055221514
30
0
41
1
10
105.495864023362
20
-3.46945135639675
30
0
41
1
10
105.509894066177
20
-3.50497007412199
30
0
41
1
10
105.511259515959
20
-3.55823319820985
30
0
41
1
10
105.508039473265
20
-3.57568609254105
30
0
41
1
10
105.493111484962
20
-3.6053976670982
30
0
41
1
10
105.481517121403
20
-3.61749725152015
30
0
41
1
10
105.467442411299
20
-3.62617779389191
30
0
0
SPLINE
5
138
100
AcDbEntity
8
1
62
256
6
ByLayer
370
18
48
1
60
0
100
AcDbSpline
70
4
71
3
72
18
73
14
40
0
40
0
40
0
40
0
40
0.125000000000001
40
0.125000000000001
40
0.250000000000002
40
0.250000000000002
40
0.500000000000003
40
0.500000000000003
40
0.750000000000003
40
0.750000000000003
40
0.875000000000002
40
0.875000000000002
40
1
40
1
40
1
40
1
41
1
10
105.654524474296
20
-4.85733921835129
30
0
41
1
10
105.628011073582
20
-4.85611269737922
30
0
41
1
10
105.601283174601
20
-4.86302945515891
30
0
41
1
10
105.54979759753
20
-4.88485422617319
30
0
41
1
10
105.525122830594
20
-4.89987768199097
30
0
41
1
10
105.455192473039
20
-4.95206930404046
30
0
41
1
10
105.413591966187
20
-4.99646791453691
30
0
41
1
10
105.343579662876
20
-5.09465823789248
30
0
41
1
10
105.315247082883
20
-5.14824820694483
30
0
41
1
10
105.288642544194
20
-5.23149236455311
30
0
41
1
10
105.282482739439
20
-5.25975938606396
30
0
41
1
10
105.278641458217
20
-5.31542067917073
30
0
41
1
10
105.280786522209
20
-5.3428700772026
30
0
41
1
10
105.29058667924
20
-5.3675611894254
30
0
0
SPLINE
5
139
100
AcDbEntity
8
1
62
256
6
ByLayer
370
18
48
1
60
0
100
AcDbSpline
70
4
71
3
72
8
73
4
40
0
40
0
40
0
40
0
40
1
40
1
40
1
40
1
41
1
10
87.6912134910025
20
-16.7188493291188
30
0
41
1
10
84.8301632377807
20
-18.2798296030383
30
0
41
1
10
81.8611737508171
20
-19.6730415020723
30
0
41
1
10
78.7936411996982
20
-20.8860536437701
30
0
0
SPLINE
5
13A
100
AcDbEntity
8
1
62
256
6
ByLayer
370
18
48
1
60
0
100
AcDbSpline
70
4
71
3
72
16
73
12
40
0
40
0
40
0
40
0
40
0.250000000000001
40
0.250000000000001
40
0.500000000000001
40
0.500000000000001
40
0.749999999999999
40
0.749999999999999
40
0.875
40
0.875
40
1
40
1
40
1
40
1
41
1
10
11.8943375672973
20
8.05584836782791
30
0
41
1
10
11.8788923030149
20
7.9984916943493
30
0
41
1
10
11.8604037172645
20
7.94218253951274
30
0
41
1
10
11.8151421892068
20
7.83248598676826
30
0
41
1
10
11.7882878950993
20
7.77870179643048
30
0
41
1
10
11.7218733396747
20
7.67767014498912
30
0
41
1
10
11.6822221825145
20
7.63015704912715
30
0
41
1
10
11.6094109295817
20
7.57464889660915
30
0
41
1
10
11.5822992776726
20
7.55854989603606
30
0
41
1
10
11.5243601613892
20
7.53610198950861
30
0
41
1
10
11.4930267682388
20
7.52966679426495
30
0
41
1
10
11.4613248654052
20
7.52966679426495
30
0
0
SPLINE
5
13B
100
AcDbEntity
8
1
62
256
6
ByLayer
370
18
48
1
60
0
100
AcDbSpline
70
4
71
3
72
16
73
12
40
0
40
0
40
0
40
0
40
0.25
40
0.25
40
0.5
40
0.5
40
0.75
40
0.75
40
0.875
40
0.875
40
1
40
1
40
1
40
1
41
1
10
8.10566243270264
20
-8.05584836782788
30
0
41
1
10
8.12110769698506
20
-7.99849169434927
30
0
41
1
10
8.13959628273548
20
-7.94218253951266
30
0
41
1
10
8.1848578107932
20
-7.83248598676818
30
0
41
1
10
8.2117121049007
20
-7.7787017964304
30
0
41
1
10
8.27812666032534
20
-7.67767014498904
30
0
41
1
10
8.31777781748551
20
-7.63015704912706
30
0
41
1
10
8.39058907041832
20
-7.57464889660906
30
0
41
1
10
8.4177007223274
20
-7.55854989603597
30
0
41
1
10
8.47563983861085
20
-7.53610198950852
30
0
41
1
10
8.50697323176124
20
-7.52966679426487
30
0
41
1
10
8.5386751345948
20
-7.52966679426487
30
0
0
SPLINE
5
13C
100
AcDbEntity
8
1
62
256
6
ByLayer
370
18
48
1
60
0
100
AcDbSpline
70
4
71
3
72
26
73
22
40
0
40
0
40
0
40
0
40
0.249999999999999
40
0.249999999999999
40
0.312499999999998
40
0.312499999999998
40
0.374999999999998
40
0.374999999999998
40
0.499999999999998
40
0.499999999999998
40
0.624999999999998
40
0.624999999999998
40
0.749999999999999
40
0.749999999999999
40
0.812499999999999
40
0.812499999999999
40
0.874999999999999
40
0.874999999999999
40
0.9375
40
0.9375
40
1
40
1
40
1
40
1
41
1
10
78.7936411996982
20
-20.8860536437701
30
0
41
1
10
77.7988165338107
20
-21.2794429162463
30
0
41
1
10
76.8089599511017
20
-21.6477324292589
30
0
41
1
10
75.5847938760688
20
-22.0766684755381
30
0
41
1
10
75.3406401625625
20
-22.1608800350511
30
0
41
1
10
74.8539741817046
20
-22.3261296954001
30
0
41
1
10
74.6112781005488
20
-22.4072273267773
30
0
41
1
10
73.887977930949
20
-22.6451212080976
30
0
41
1
10
73.4119383553405
20
-22.7965920780694
30
0
41
1
10
72.4768199885135
20
-23.0848855768318
30
0
41
1
10
72.017678103593
20
-23.2217195371296
30
0
41
1
10
71.1238580157579
20
-23.4798367050479
30
0
41
1
10
70.6890268223301
20
-23.6011493809934
30
0
41
1
10
70.0651559817029
20
-23.7699803324698
30
0
41
1
10
69.862100418176
20
-23.8240211642741
30
0
41
1
10
69.472311131294
20
-23.9262332767338
30
0
41
1
10
69.2850876775099
20
-23.974537394231
30
0
41
1
10
68.9299494332537
20
-24.0649256847858
30
0
41
1
10
68.7620108453056
20
-24.1070152346644
30
0
41
1
10
68.4509773511419
20
-24.18404313968
30
0
41
1
10
68.3078395139139
20
-24.21899174055
30
0
41
1
10
68.1811674539874
20
-24.2496273880205
30
0
0
SPLINE
5
13D
100
AcDbEntity
8
1
62
256
6
ByLayer
370
18
48
1
60
0
100
AcDbSpline
70
4
71
3
72
16
73
12
40
0
40
0
40
0
40
0
40
0.249999999999999
40
0.249999999999999
40
0.499999999999997
40
0.499999999999997
40
0.749999999999996
40
0.749999999999996
40
0.874999999999998
40
0.874999999999998
40
1
40
1
40
1
40
1
41
1
10
11.8943375672973
20
-23.6665017920808
30
0
41
1
10
11.8788923030149
20
-23.6860254491251
30
0
41
1
10
11.8604037172645
20
-23.7049589195931
30
0
41
1
10
11.8151421892068
20
-23.7414301198899
30
0
41
1
10
11.7882878950993
20
-23.7590955179201
30
0
41
1
10
11.7218733396746
20
-23.7919356634172
30
0
41
1
10
11.6822221825145
20
-23.8071882416307
30
0
41
1
10
11.6094109295817
20
-23.8248834464052
30
0
41
1
10
11.5822992776726
20
-23.8299908115612
30
0
41
1
10
11.5243601613892
20
-23.8370993498304
30
0
41
1
10
11.4930267682388
20
-23.8391299750504
30
0
41
1
10
11.4613248654052
20
-23.8391299750504
30
0
0
SPLINE
5
13E
100
AcDbEntity
8
1
62
256
6
ByLayer
370
18
48
1
60
0
100
AcDbSpline
70
4
71
3
72
18
73
14
40
0
40
0
40
0
40
0
40
0.249999999999999
40
0.249999999999999
40
0.375
40
0.375
40
0.4375
40
0.4375
40
0.5
40
0.5
40
0.75
40
0.75
40
1
40
1
40
1
40
1
41
1
10
71.221372028647
20
-18.8082592237736
30
0
41
1
10
71.5926519531667
20
-17.3338609772562
30
0
41
1
10
71.9331769802385
20
-15.8387285065106
30
0
41
1
10
72.3989369472527
20
-13.5658379668164
30
0
41
1
10
72.5466520692953
20
-12.8031563004601
30
0
41
1
10
72.7568360848654
20
-11.6515120654379
30
0
41
1
10
72.8249981958663
20
-11.2663593522818
30
0
41
1
10
72.9574950307243
20
-10.4934912455377
30
0
41
1
10
73.0218126483127
20
-10.105816599202
30
0
41
1
10
73.3315715282382
20
-8.17507903762908
30
0
41
1
10
73.5436689841508
20
-6.64356890081388
30
0
41
1
10
73.9000603137158
20
-3.60548664220755
30
0
41
1
10
74.0443428213477
20
-2.09891895111127
30
0
41
1
10
74.1544588519083
20
-0.604880650680855
30
0
0
SPLINE
5
13F
100
AcDbEntity
8
1
62
256
6
ByLayer
370
18
48
1
60
0
100
AcDbSpline
70
4
71
3
72
28
73
24
40
0
40
0
40
0
40
0
40
0.250000000000001
40
0.250000000000001
40
0.500000000000002
40
0.500000000000002
40
0.625000000000002
40
0.625000000000002
40
0.750000000000003
40
0.750000000000003
40
0.812500000000002
40
0.812500000000002
40
0.875
40
0.875
40
0.90625
40
0.90625
40
0.9375
40
0.9375
40
0.968749999999999
40
0.968749999999999
40
0.984375
40
0.984375
40
1
40
1
40
1
40
1
41
1
10
63.5289168118687
20
6.99702329495724
30
0
41
1
10
62.8926368903007
20
7.2161120417349
30
0
41
1
10
62.2566462469981
20
7.43481937932546
30
0
41
1
10
60.9853856260215
20
7.87128386735347
30
0
41
1
10
60.3503973668355
20
8.08895271697369
30
0
41
1
10
59.4021076335748
20
8.41321639299613
30
0
41
1
10
59.0867477449125
20
8.52091628952243
30
0
41
1
10
58.4594422268777
20
8.73475738797228
30
0
41
1
10
58.1471149709026
20
8.84103542821762
30
0
41
1
10
57.6848678688158
20
8.99781965598453
30
0
41
1
10
57.5317204814015
20
9.0496767846991
30
0
41
1
10
57.2297743114605
20
9.15165027822792
30
0
41
1
10
57.0804814722097
20
9.20193825898798
30
0
41
1
10
56.8644435233723
20
9.27433714541411
30
0
41
1
10
56.7936772086919
20
9.29798756998255
30
0
41
1
10
56.6562735956274
20
9.34370048080518
30
0
41
1
10
56.5903094563288
20
9.36554219850157
30
0
41
1
10
56.4682025109291
20
9.40558528013472
30
0
41
1
10
56.411639002021
20
9.42393081777553
30
0
41
1
10
56.3482899863903
20
9.44373971319277
30
0
41
1
10
56.3313374745948
20
9.44886955370154
30
0
41
1
10
56.3094890773041
20
9.45488914977321
30
0
41
1
10
56.3050750512467
20
9.45562633387496
30
0
41
1
10
56.3078870062237
20
9.45388591317325
30
0
0
SPLINE
5
140
100
AcDbEntity
8
1
62
256
6
ByLayer
370
18
48
1
60
0
100
AcDbSpline
70
4
71
3
72
8
73
4
40
0
40
0
40
0
40
0
40
1
40
1
40
1
40
1
41
1
10
46.3433285684114
20
12.5363821948983
30
0
41
1
10
50.0322881270858
20
11.2837183678802
30
0
41
1
10
53.7160579057165
20
10.0332542773005
30
0
41
1
10
57.3951510196193
20
8.78477243447026
30
0
0
SPLINE
5
141
100
AcDbEntity
8
1
62
256
6
ByLayer
370
18
48
1
60
0
100
AcDbSpline
70
4
71
3
72
14
73
10
40
0
40
0
40
0
40
0
40
0.25
40
0.25
40
0.5
40
0.5
40
0.75
40
0.75
40
1
40
1
40
1
40
1
41
1
10
86.5066518025993
20
-7.18046026611015
30
0
41
1
10
86.4270228850063
20
-7.03189460235745
30
0
41
1
10
86.3363953091074
20
-6.89266085100837
30
0
41
1
10
86.1345820155041
20
-6.63174821646183
30
0
41
1
10
86.0231342946248
20
-6.50984020700727
30
0
41
1
10
85.7804381669057
20
-6.2849058808859
30
0
41
1
10
85.6522778033637
20
-6.18465200235454
30
0
41
1
10
85.383457841741
20
-6.00679389149826
30
0
41
1
10
85.2427916618688
20
-5.92920036078348
30
0
41
1
10
85.0959115884441
20
-5.86295523527684
30
0
0
SPLINE
5
142
100
AcDbEntity
8
1
62
256
6
ByLayer
370
18
48
1
60
0
100
AcDbSpline
70
4
71
3
72
10
73
6
40
0
40
0
40
0
40
0
40
0.5
40
0.5
40
1
40
1
40
1
40
1
41
1
10
60.5118190980463
20
6.90872526362495
30
0
41
1
10
62.7683798622738
20
5.57268033390145
30
0
41
1
10
65.0319967866485
20
4.28035423312258
30
0
41
1
10
69.5781707326196
20
1.77739925505699
30
0
41
1
10
71.8607025499194
20
0.566797524768873
30
0
41
1
10
74.1544588519082
20
-0.604880650680883
30
0
0
SPLINE
5
143
100
AcDbEntity
8
1
62
256
6
ByLayer
370
18
48
1
60
0
100
AcDbSpline
70
4
71
3
72
8
73
4
40
0
40
0
40
0
40
0
40
1
40
1
40
1
40
1
41
1
10
91.9960279473294
20
-10.011863757343
30
0
41
1
10
92.0267926294038
20
-9.99898935056103
30
0
41
1
10
92.0575638325684
20
-9.98612986114989
30
0
41
1
10
92.0883422077461
20
-9.97328681268689
30
0
0
SPLINE
5
144
100
AcDbEntity
8
1
62
256
6
ByLayer
370
18
48
1
60
0
100
AcDbSpline
70
4
71
3
72
16
73
12
40
0
40
0
40
0
40
0
40
0.125000000000001
40
0.125000000000001
40
0.250000000000002
40
0.250000000000002
40
0.500000000000001
40
0.500000000000001
40
0.750000000000001
40
0.750000000000001
40
1
40
1
40
1
40
1
41
1
10
11.4613248654052
20
23.8391299750502
30
0
41
1
10
11.4930777586346
20
23.8391299750502
30
0
41
1
10
11.523990670531
20
23.8371392949585
30
0
41
1
10
11.5824040005111
20
23.8299833264009
30
0
41
1
10
11.6089650834003
20
23.8249896713849
30
0
41
1
10
11.6829561422921
20
23.807014118376
30
0
41
1
10
11.7219265489987
20
23.7919105160782
30
0
41
1
10
11.7882603826481
20
23.7591079584197
30
0
41
1
10
11.8148780607232
20
23.7416171457991
30
0
41
1
10
11.8602443227467
20
23.7051129235882
30
0
41
1
10
11.8788862370737
20
23.686033116806
30
0
41
1
10
11.8943375672975
20
23.6665017920808
30
0
0
SPLINE
5
145
100
AcDbEntity
8
1
62
256
6
ByLayer
370
18
48
1
60
0
100
AcDbSpline
70
4
71
3
72
8
73
4
40
0
40
0
40
0
40
0
40
1
40
1
40
1
40
1
41
1
10
86.5066518025993
20
-7.18046026611017
30
0
41
1
10
87.5329754808568
20
-9.09529802975632
30
0
41
1
10
88.3942007239654
20
-11.074867403393
30
0
41
1
10
89.092444826565
20
-13.1130443757881
30
0
0
SPLINE
5
146
100
AcDbEntity
8
1
62
256
6
ByLayer
370
18
48
1
60
0
100
AcDbSpline
70
4
71
3
72
14
73
10
40
0
40
0
40
0
40
0
40
0.499999999999997
40
0.499999999999997
40
0.749999999999999
40
0.749999999999999
40
0.874999999999999
40
0.874999999999999
40
1
40
1
40
1
40
1
41
1
10
78.7936411996981
20
-20.8860536437702
30
0
41
1
10
77.5183783704078
20
-20.6069340396087
30
0
41
1
10
76.2489562828052
20
-20.2990125405585
30
0
41
1
10
74.3552344526415
20
-19.7836545830723
30
0
41
1
10
73.7257319925218
20
-19.6029207208137
30
0
41
1
10
72.7843192176109
20
-19.316720902056
30
0
41
1
10
72.4709886410784
20
-19.2188013145267
30
0
41
1
10
71.8453161551387
20
-19.0176012228449
30
0
41
1
10
71.5327079673104
20
-18.9142287643253
30
0
41
1
10
71.2213720286477
20
-18.8082592237738
30
0
0
SPLINE
5
147
100
AcDbEntity
8
1
62
256
6
ByLayer
370
18
48
1
60
0
100
AcDbSpline
70
4
71
3
72
38
73
34
40
0
40
0
40
0
40
0
40
0.125
40
0.125
40
0.1875
40
0.1875
40
0.21875
40
0.21875
40
0.25
40
0.25
40
0.375
40
0.375
40
0.5
40
0.5
40
0.53125
40
0.53125
40
0.5625
40
0.5625
40
0.625
40
0.625
40
0.75
40
0.75
40
0.78125
40
0.78125
40
0.8125
40
0.8125
40
0.875
40
0.875
40
0.90625
40
0.90625
40
0.9375
40
0.9375
40
1
40
1
40
1
40
1
41
1
10
21.5719180956008
20
25.0761217360506
30
0
41
1
10
21.5549002314687
20
25.0763802463717
30
0
41
1
10
21.5611522015693
20
25.0331805262337
30
0
41
1
10
21.6081606934347
20
24.9026570350058
30
0
41
1
10
21.6301734018152
20
24.848173005352
30
0
41
1
10
21.6737567971912
20
24.7497056168055
30
0
41
1
10
21.6900261472151
20
24.7141514055932
30
0
41
1
10
21.7260523611258
20
24.6379719145416
30
0
41
1
10
21.7458278125262
20
24.5973041984045
30
0
41
1
10
21.8539277122414
20
24.3813242137753
30
0
41
1
10
21.9695304486916
20
24.1681348712932
30
0
41
1
10
22.275484651497
20
23.6663559640728
30
0
41
1
10
22.4656582312286
20
23.3777104480954
30
0
41
1
10
22.767952909435
20
22.9728981123773
30
0
41
1
10
22.8316800512766
20
22.8897371206687
30
0
41
1
10
22.9663033977288
20
22.7191098944682
30
0
41
1
10
23.037389876592
20
22.6314185667391
30
0
41
1
10
23.2609054281519
20
22.3639252388331
30
0
41
1
10
23.4233029373241
20
22.1799602499893
30
0
41
1
10
23.9559458587557
20
21.6152179568864
30
0
41
1
10
24.3709961512741
20
21.2213136959954
30
0
41
1
10
24.9896352412266
20
20.7236208772667
30
0
41
1
10
25.1183705788541
20
20.6239011168532
30
0
41
1
10
25.3833450856079
20
20.4269185211596
30
0
41
1
10
25.5199453647261
20
20.3293584227941
30
0
41
1
10
25.9425333493803
20
20.0403191528711
30
0
41
1
10
26.2412761933355
20
19.8524635090219
30
0
41
1
10
26.7171765383418
20
19.581556176098
30
0
41
1
10
26.8804481327576
20
19.4930701460327
30
0
41
1
10
27.2167568438012
20
19.320398757668
30
0
41
1
10
27.3902969291379
20
19.2359857836271
30
0
41
1
10
27.9227645667025
20
18.9919638749783
30
0
41
1
10
28.2912499116509
20
18.8424808331322
30
0
41
1
10
28.6736467182225
20
18.7081676210543
30
0
0
SPLINE
5
148
100
AcDbEntity
8
1
62
256
6
ByLayer
370
18
48
1
60
0
100
AcDbSpline
70
4
71
3
72
36
73
32
40
0
40
0
40
0
40
0
40
0.0625000000000003
40
0.0625000000000003
40
0.0937500000000005
40
0.0937500000000005
40
0.125000000000001
40
0.125000000000001
40
0.250000000000001
40
0.250000000000001
40
0.312500000000001
40
0.312500000000001
40
0.375000000000001
40
0.375000000000001
40
0.500000000000001
40
0.500000000000001
40
0.531250000000001
40
0.531250000000001
40
0.562500000000001
40
0.562500000000001
40
0.625000000000001
40
0.625000000000001
40
0.750000000000001
40
0.750000000000001
40
0.781250000000001
40
0.781250000000001
40
0.812500000000001
40
0.812500000000001
40
0.875000000000001
40
0.875000000000001
40
1
40
1
40
1
40
1
41
1
10
46.3433285684114
20
12.5363821948983
30
0
41
1
10
46.3117374100843
20
12.0040707227662
30
0
41
1
10
46.2982400932918
20
11.4583155944968
30
0
41
1
10
46.3056346832174
20
10.6189989599076
30
0
41
1
10
46.3127173794925
20
10.3357751773049
30
0
41
1
10
46.3363434294886
20
9.76228288849353
30
0
41
1
10
46.3528075619432
20
9.47407911383416
30
0
41
1
10
46.4578973950678
20
8.02861267871174
30
0
41
1
10
46.6141176612977
20
6.85524693731449
30
0
41
1
10
46.9598281956018
20
5.07248340829633
30
0
41
1
10
47.0937902776316
20
4.47443649720316
30
0
41
1
10
47.4016384789773
20
3.2711834758785
30
0
41
1
10
47.5733102561464
20
2.67476946971641
30
0
41
1
10
48.1409151682463
20
0.904706677163915
30
0
41
1
10
48.5894923568001
20
-0.251337033002727
30
0
41
1
10
49.2445164035202
20
-1.66357381493319
30
0
41
1
10
49.3802622541902
20
-1.944371092056
30
0
41
1
10
49.6614971364231
20
-2.50256061824552
30
0
41
1
10
49.8062725021603
20
-2.7785164925391
30
0
41
1
10
50.2519190333869
20
-3.59503269223501
30
0
41
1
10
50.5645725518518
20
-4.12518349220721
30
0
41
1
10
51.5490510278224
20
-5.67458177959085
30
0
41
1
10
52.2673803549387
20
-6.6528278101477
30
0
41
1
10
53.2432907149662
20
-7.81079932158721
30
0
41
1
10
53.4425496941549
20
-8.03931213877067
30
0
41
1
10
53.8458032266184
20
-8.48661864354986
30
0
41
1
10
54.0501490288733
20
-8.70584467909583
30
0
41
1
10
54.6711490161752
20
-9.35083905539193
30
0
41
1
10
55.0957643256016
20
-9.76393567120735
30
0
41
1
10
56.3999739574683
20
-10.9568031897542
30
0
41
1
10
57.3099247559894
20
-11.6902738782533
30
0
41
1
10
58.2565952372252
20
-12.3714382132037
30
0
0
SPLINE
5
149
100
AcDbEntity
8
1
62
256
6
ByLayer
370
18
48
1
60
0
100
AcDbSpline
70
4
71
3
72
16
73
12
40
0
40
0
40
0
40
0
40
0.125000000000003
40
0.125000000000003
40
0.250000000000006
40
0.250000000000006
40
0.500000000000004
40
0.500000000000004
40
0.750000000000002
40
0.750000000000002
40
1
40
1
40
1
40
1
41
1
10
8.53867513459488
20
-23.8391299750503
30
0
41
1
10
8.50692224136546
20
-23.8391299750503
30
0
41
1
10
8.47600932946901
20
-23.8371392949586
30
0
41
1
10
8.41759599948895
20
-23.8299833264009
30
0
41
1
10
8.39103491659972
20
-23.8249896713849
30
0
41
1
10
8.31704385770792
20
-23.8070141183761
30
0
41
1
10
8.27807345100135
20
-23.7919105160782
30
0
41
1
10
8.21173961735192
20
-23.7591079584197
30
0
41
1
10
8.1851219392768
20
-23.7416171457992
30
0
41
1
10
8.13975567725333
20
-23.7051129235882
30
0
41
1
10
8.12111376292623
20
-23.686033116806
30
0
41
1
10
8.1056624327025
20
-23.6665017920808
30
0
0
SPLINE
5
14A
100
AcDbEntity
8
1
62
256
6
ByLayer
370
18
48
1
60
0
100
AcDbSpline
70
4
71
3
72
8
73
4
40
0
40
0
40
0
40
0
40
1
40
1
40
1
40
1
41
1
10
60.5118190980463
20
6.90872526362489
30
0
41
1
10
59.4698364346695
20
7.52565332349962
30
0
41
1
10
58.4309981423855
20
8.15094225809571
30
0
41
1
10
57.3951510196192
20
8.78477243447023
30
0
0
SPLINE
5
14B
100
AcDbEntity
8
1
62
256
6
ByLayer
370
18
48
1
60
0
100
AcDbSpline
70
4
71
3
72
16
73
12
40
0
40
0
40
0
40
0
40
0.125000000000002
40
0.125000000000002
40
0.250000000000003
40
0.250000000000003
40
0.500000000000002
40
0.500000000000002
40
0.750000000000001
40
0.750000000000001
40
1
40
1
40
1
40
1
41
1
10
11.4613248654052
20
-7.52966679426524
30
0
41
1
10
11.4930777586346
20
-7.52966679426524
30
0
41
1
10
11.523990670531
20
-7.53597576299666
30
0
41
1
10
11.582404000511
20
-7.55857361750125
30
0
41
1
10
11.6089650834003
20
-7.57431556968129
30
0
41
1
10
11.6829561422921
20
-7.63070347545357
30
0
41
1
10
11.7219265489986
20
-7.67774765104249
30
0
41
1
10
11.788260382648
20
-7.77866338250467
30
0
41
1
10
11.8148780607232
20
-7.8319194748606
30
0
41
1
10
11.8602443227466
20
-7.94172327888199
30
0
41
1
10
11.8788862370737
20
-7.99846916820724
30
0
41
1
10
11.8943375672975
20
-8.05584836782785
30
0
0
SPLINE
5
14C
100
AcDbEntity
8
1
62
256
6
ByLayer
370
18
48
1
60
0
100
AcDbSpline
70
4
71
3
72
24
73
20
40
0
40
0
40
0
40
0
40
0.125
40
0.125
40
0.1875
40
0.1875
40
0.25
40
0.25
40
0.5
40
0.5
40
0.625
40
0.625
40
0.75
40
0.75
40
0.8125
40
0.8125
40
0.875
40
0.875
40
1
40
1
40
1
40
1
41
1
10
60.5118190980456
20
6.908725263625
30
0
41
1
10
60.4967144942717
20
6.15029486234633
30
0
41
1
10
60.4715269594781
20
5.38250766864581
30
0
41
1
10
60.4185783141262
20
4.21676871024653
30
0
41
1
10
60.3984006603525
20
3.82584343200492
30
0
41
1
10
60.3529754399356
20
3.03926682650871
30
0
41
1
10
60.3277105571402
20
2.64341812747219
30
0
41
1
10
60.1891611644535
20
0.659002618081246
30
0
41
1
10
60.0393692650046
20
-0.949860220790583
30
0
41
1
10
59.7549891469554
20
-3.39568106170662
30
0
41
1
10
59.6505281149351
20
-4.21303073567623
30
0
41
1
10
59.4224304229917
20
-5.84875069055735
30
0
41
1
10
59.2987319439055
20
-6.6676187905415
30
0
41
1
10
59.0985555005121
20
-7.89746852875342
30
0
41
1
10
59.0293155035482
20
-8.30811364947704
30
0
41
1
10
58.8863041754002
20
-9.12782835661341
30
0
41
1
10
58.8126311054754
20
-9.53637069735848
30
0
41
1
10
58.5852176454216
20
-10.7580871007252
30
0
41
1
10
58.4251084786181
20
-11.5673586580531
30
0
41
1
10
58.2565952372251
20
-12.3714382132037
30
0
0
SPLINE
5
14D
100
AcDbEntity
8
1
62
256
6
ByLayer
370
18
48
1
60
0
100
AcDbSpline
70
4
71
3
72
16
73
12
40
0
40
0
40
0
40
0
40
0.124999999999999
40
0.124999999999999
40
0.249999999999998
40
0.249999999999998
40
0.499999999999997
40
0.499999999999997
40
0.749999999999999
40
0.749999999999999
40
1
40
1
40
1
40
1
41
1
10
8.53867513459488
20
7.52966679426515
30
0
41
1
10
8.50692224136546
20
7.52966679426515
30
0
41
1
10
8.47600932946904
20
7.53597576299657
30
0
41
1
10
8.41759599948898
20
7.55857361750117
30
0
41
1
10
8.39103491659975
20
7.57431556968123
30
0
41
1
10
8.31704385770794
20
7.63070347545352
30
0
41
1
10
8.27807345100135
20
7.67774765104244
30
0
41
1
10
8.21173961735192
20
7.77866338250467
30
0
41
1
10
8.1851219392768
20
7.83191947486057
30
0
41
1
10
8.13975567725333
20
7.94172327888199
30
0
41
1
10
8.12111376292626
20
7.99846916820718
30
0
41
1
10
8.1056624327025
20
8.05584836782782
30
0
0
SPLINE
5
14E
100
AcDbEntity
8
1
62
256
6
ByLayer
370
18
48
1
60
0
100
AcDbSpline
70
4
71
3
72
24
73
20
40
0
40
0
40
0
40
0
40
0.0624999999999998
40
0.0624999999999998
40
0.125
40
0.125
40
0.187499999999999
40
0.187499999999999
40
0.249999999999999
40
0.249999999999999
40
0.312499999999999
40
0.312499999999999
40
0.374999999999999
40
0.374999999999999
40
0.499999999999999
40
0.499999999999999
40
0.75
40
0.75
40
1
40
1
40
1
40
1
41
1
10
68.1811674539879
20
-24.2496273880204
30
0
41
1
10
68.1687418550512
20
-24.2526325200823
30
0
41
1
10
68.1596168703022
20
-24.2556127263195
30
0
41
1
10
68.1492853303327
20
-24.261514631281
30
0
41
1
10
68.1482362936472
20
-24.2644764570913
30
0
41
1
10
68.1549843670934
20
-24.2699607774845
30
0
41
1
10
68.1627384894817
20
-24.272550157452
30
0
41
1
10
68.1851779391799
20
-24.2772685350136
30
0
41
1
10
68.1996021958394
20
-24.2793780002006
30
0
41
1
10
68.2331744829856
20
-24.2832307607483
30
0
41
1
10
68.2524049686929
20
-24.2849735516039
30
0
41
1
10
68.2932677408027
20
-24.2880930965143
30
0
41
1
10
68.3150448121935
20
-24.2894866030348
30
0
41
1
10
68.3833402572502
20
-24.2933029684627
30
0
41
1
10
68.4330880375252
20
-24.2953765683311
30
0
41
1
10
68.5862633837332
20
-24.3006127813129
30
0
41
1
10
68.6941942227953
20
-24.302882015224
30
0
41
1
10
68.9154195583279
20
-24.3063332133735
30
0
41
1
10
69.0289107494332
20
-24.3074727159667
30
0
41
1
10
69.1441955498999
20
-24.3082626175674
30
0
0
SPLINE
5
14F
100
AcDbEntity
8
1
62
256
6
ByLayer
370
18
48
1
60
0
100
AcDbSpline
70
4
71
3
72
18
73
14
40
0
40
0
40
0
40
0
40
0.25
40
0.25
40
0.500000000000001
40
0.500000000000001
40
0.750000000000001
40
0.750000000000001
40
0.812500000000001
40
0.812500000000001
40
0.875000000000001
40
0.875000000000001
40
1
40
1
40
1
40
1
41
1
10
71.2213720286477
20
-18.8082592237738
30
0
41
1
10
70.0610182956283
20
-18.4396819048386
30
0
41
1
10
68.9164440990244
20
-18.0394354285527
30
0
41
1
10
66.663961979072
20
-17.1622639080413
30
0
41
1
10
65.5560513125276
20
-16.6853856017047
30
0
41
1
10
63.3828692052745
20
-15.6374129814538
30
0
41
1
10
62.317594657393
20
-15.066395562308
30
0
41
1
10
61.0169813752859
20
-14.2790006264834
30
0
41
1
10
60.7584101889183
20
-14.1178220380162
30
0
41
1
10
60.2444893171581
20
-13.7876137433602
30
0
41
1
10
59.9894665785912
20
-13.6187813050557
30
0
41
1
10
59.2330790528915
20
-13.1024278642627
30
0
41
1
10
58.7393432024197
20
-12.7443860298149
30
0
41
1
10
58.2565952372252
20
-12.3714382132037
30
0
0
SPLINE
5
150
100
AcDbEntity
8
1
62
256
6
ByLayer
370
18
48
1
60
0
100
AcDbSpline
70
4
71
3
72
16
73
12
40
0
40
0
40
0
40
0
40
0.25
40
0.25
40
0.5
40
0.5
40
0.75
40
0.75
40
0.875
40
0.875
40
1
40
1
40
1
40
1
41
1
10
8.10566243270264
20
23.6665017920808
30
0
41
1
10
8.12110769698506
20
23.6860254491251
30
0
41
1
10
8.13959628273548
20
23.7049589195931
30
0
41
1
10
8.1848578107932
20
23.7414301198899
30
0
41
1
10
8.2117121049007
20
23.7590955179201
30
0
41
1
10
8.27812666032534
20
23.7919356634172
30
0
41
1
10
8.31777781748553
20
23.8071882416308
30
0
41
1
10
8.39058907041834
20
23.8248834464053
30
0
41
1
10
8.41770072232742
20
23.8299908115613
30
0
41
1
10
8.47563983861087
20
23.8370993498304
30
0
41
1
10
8.50697323176126
20
23.8391299750504
30
0
41
1
10
8.5386751345948
20
23.8391299750504
30
0
0
SPLINE
5
151
100
AcDbEntity
8
1
62
256
6
ByLayer
370
18
48
1
60
0
100
AcDbSpline
70
4
71
3
72
12
73
8
40
0
40
0
40
0
40
0
40
0.499999999999998
40
0.499999999999998
40
0.749999999999999
40
0.749999999999999
40
1
40
1
40
1
40
1
41
1
10
69.144195549897
20
-24.3082626175672
30
0
41
1
10
70.7362082132935
20
-24.0306646989898
30
0
41
1
10
72.3293690510607
20
-23.7527282792276
30
0
41
1
10
74.7235299045668
20
-23.3339229016252
30
0
41
1
10
75.5222793039953
20
-23.1940158483368
30
0
41
1
10
77.1218275795798
20
-22.9133025733743
30
0
41
1
10
77.9220542963055
20
-22.7725995795485
30
0
41
1
10
78.7223906482738
20
-22.6314786870546
30
0
0
SPLINE
5
152
100
AcDbEntity
8
1
62
256
6
ByLayer
370
18
48
1
60
0
100
AcDbSpline
70
4
71
3
72
8
73
4
40
0
40
0
40
0
40
0
40
1
40
1
40
1
40
1
41
1
10
92.0789665958607
20
-10.1938560115183
30
0
41
1
10
92.1088664814476
20
-10.1790839820365
30
0
41
1
10
92.1387593869721
20
-10.1642972443498
30
0
41
1
10
92.1686445896194
20
-10.1494943076434
30
0
0
SPLINE
5
153
100
AcDbEntity
8
1
62
256
6
ByLayer
370
18
48
1
60
0
100
AcDbSpline
70
4
71
3
72
8
73
4
40
0
40
0
40
0
40
0
40
1
40
1
40
1
40
1
41
1
10
93.9823961342445
20
-2.3134458623293
30
0
41
1
10
93.9816271140866
20
-2.31175840160353
30
0
41
1
10
93.9808580740099
20
-2.31007089717005
30
0
41
1
10
93.9800890139873
20
-2.30838334896924
30
0
0
SPLINE
5
154
100
AcDbEntity
8
1
62
256
6
ByLayer
370
18
48
1
60
0
100
AcDbSpline
70
4
71
3
72
28
73
24
40
0
40
0
40
0
40
0
40
0.125000000000003
40
0.125000000000003
40
0.187500000000003
40
0.187500000000003
40
0.250000000000003
40
0.250000000000003
40
0.375000000000004
40
0.375000000000004
40
0.437500000000004
40
0.437500000000004
40
0.500000000000003
40
0.500000000000003
40
0.625000000000001
40
0.625000000000001
40
0.687500000000001
40
0.687500000000001
40
0.750000000000001
40
0.750000000000001
40
0.875000000000001
40
0.875000000000001
40
1
40
1
40
1
40
1
41
1
10
87.6912134910025
20
-16.7188493291188
30
0
41
1
10
87.8429064900962
20
-16.6360860924332
30
0
41
1
10
87.9861335158635
20
-16.5410553693063
30
0
41
1
10
88.1883264136713
20
-16.3803620557914
30
0
41
1
10
88.2536050568392
20
-16.3237570975751
30
0
41
1
10
88.3797939304067
20
-16.2043089146058
30
0
41
1
10
88.4409530172729
20
-16.1411797014214
30
0
41
1
10
88.6157198163966
20
-15.9440468760561
30
0
41
1
10
88.7195894585459
20
-15.8038100055999
30
0
41
1
10
88.8567014415472
20
-15.5804764378237
30
0
41
1
10
88.8992727379714
20
-15.5038566603425
30
0
41
1
10
88.9779796710534
20
-15.3461557237895
30
0
41
1
10
89.0142700080046
20
-15.2646322049992
30
0
41
1
10
89.1113663590094
20
-15.0174693225434
30
0
41
1
10
89.1609022594055
20
-14.8488493103703
30
0
41
1
10
89.2128736637588
20
-14.5902698995534
30
0
41
1
10
89.2264538429952
20
-14.5031297223254
30
0
41
1
10
89.245938586131
20
-14.3269075769345
30
0
41
1
10
89.2517885660616
20
-14.2378178940966
30
0
41
1
10
89.2574606153779
20
-13.973179862459
30
0
41
1
10
89.2457529704104
20
-13.7983822423346
30
0
41
1
10
89.1919909749133
20
-13.452004615505
30
0
41
1
10
89.1495095726179
20
-13.2796165686754
30
0
41
1
10
89.092444826565
20
-13.1130443757881
30
0
0
SPLINE
5
155
100
AcDbEntity
8
1
62
256
6
ByLayer
370
18
48
1
60
0
100
AcDbSpline
70
4
71
3
72
8
73
4
40
0
40
0
40
0
40
0
40
1
40
1
40
1
40
1
41
1
10
74.1544588519082
20
-0.604880650680883
30
0
41
1
10
77.7830878497341
20
-2.45842777766663
30
0
41
1
10
81.4277871060435
20
-4.20857584231314
30
0
41
1
10
85.0959115884441
20
-5.86295523527687
30
0
0
SPLINE
5
156
100
AcDbEntity
8
SK1
62
256
6
ByLayer
370
18
48
1
60
0
100
AcDbSpline
70
4
71
3
72
26
73
22
40
0
40
0
40
0
40
0
40
0.249999999999999
40
0.249999999999999
40
0.499999999999999
40
0.499999999999999
40
0.624999999999998
40
0.624999999999998
40
0.687499999999999
40
0.687499999999999
40
0.749999999999999
40
0.749999999999999
40
0.8125
40
0.8125
40
0.875
40
0.875
40
0.90625
40
0.90625
40
0.9375
40
0.9375
40
1
40
1
40
1
40
1
41
1
10
-1.30710678118655
20
3.91808311129773
30
0
41
1
10
-1.27767538362411
20
4.08057618757042
30
0
41
1
10
-1.24419096070105
20
4.24098765739046
30
0
41
1
10
-1.16481584483415
20
4.55711269541771
30
0
41
1
10
-1.11911162318856
20
4.71322546119325
30
0
41
1
10
-1.03396027230474
20
4.93953094779039
30
0
41
1
10
-1.00277623392986
20
5.01373263568635
30
0
41
1
10
-0.948685190430837
20
5.12220258194975
30
0
41
1
10
-0.9294183550615
20
5.15788155457784
30
0
41
1
10
-0.887207638430624
20
5.227898486214
30
0
41
1
10
-0.864122395129101
20
5.26246883011058
30
0
41
1
10
-0.813063784086808
20
5.32779515181233
30
0
41
1
10
-0.78518823553631
20
5.35873160222491
30
0
41
1
10
-0.720059017960438
20
5.41387289777214
30
0
41
1
10
-0.68194582378834
20
5.43835586444311
30
0
41
1
10
-0.618145771845491
20
5.4581109799407
30
0
41
1
10
-0.595598556706449
20
5.46181779364261
30
0
41
1
10
-0.550367797420336
20
5.46186904162576
30
0
41
1
10
-0.528055384786086
20
5.45826434527572
30
0
41
1
10
-0.464148785594233
20
5.43856597575441
30
0
41
1
10
-0.427340171474128
20
5.41481400234201
30
0
41
1
10
-0.394913799811292
20
5.38724490303878
30
0
0
SPLINE
5
157
100
AcDbEntity
8
SK1
62
256
6
ByLayer
370
18
48
1
60
0
100
AcDbSpline
70
4
71
3
72
30
73
26
40
0
40
0
40
0
40
0
40
0.0312500000000007
40
0.0312500000000007
40
0.0625000000000013
40
0.0625000000000013
40
0.093750000000002
40
0.093750000000002
40
0.125000000000003
40
0.125000000000003
40
0.156250000000003
40
0.156250000000003
40
0.187500000000004
40
0.187500000000004
40
0.250000000000005
40
0.250000000000005
40
0.312500000000005
40
0.312500000000005
40
0.375000000000006
40
0.375000000000006
40
0.500000000000006
40
0.500000000000006
40
0.750000000000003
40
0.750000000000003
40
1
40
1
40
1
40
1
41
1
10
-0.394913799811292
20
-5.38724256160785
30
0
41
1
10
-0.411056331481689
20
-5.40096705709072
30
0
41
1
10
-0.428167571421085
20
-5.41359596702645
30
0
41
1
10
-0.465243842399843
20
-5.43564998709786
30
0
41
1
10
-0.485181785775097
20
-5.44498472977625
30
0
41
1
10
-0.527084358655031
20
-5.45802310642136
30
0
41
1
10
-0.549712129856715
20
-5.46177888945653
30
0
41
1
10
-0.594583752204926
20
-5.46190211761595
30
0
41
1
10
-0.617332847382016
20
-5.45828493727092
30
0
41
1
10
-0.65999803098677
20
-5.44522245408467
30
0
41
1
10
-0.680380496424021
20
-5.43574711585012
30
0
41
1
10
-0.717826906306072
20
-5.41366379171245
30
0
41
1
10
-0.735187935399324
20
-5.40097830060952
30
0
41
1
10
-0.784458452137216
20
-5.35950654192544
30
0
41
1
10
-0.812482621038896
20
-5.32846061496338
30
0
41
1
10
-0.863582196387284
20
-5.26323158283498
30
0
41
1
10
-0.886670718365792
20
-5.228730346937
30
0
41
1
10
-0.9290296408507
20
-5.15857889561175
30
0
41
1
10
-0.948347177186236
20
-5.12284414993096
30
0
41
1
10
-1.00255771394654
20
-5.01423503792978
30
0
41
1
10
-1.03377854809037
20
-4.93997760418031
30
0
41
1
10
-1.11900192184814
20
-4.7135824866773
30
0
41
1
10
-1.16471148040884
20
-4.55749423011594
30
0
41
1
10
-1.24415567180659
20
-4.24116014101819
30
0
41
1
10
-1.2776606709638
20
-4.08065708556941
30
0
41
1
10
-1.30710678118655
20
-3.91808269248796
30
0
0
SPLINE
5
158
100
AcDbEntity
8
SK1
62
256
6
ByLayer
370
18
48
1
60
0
100
AcDbSpline
70
4
71
3
72
22
73
18
40
0
40
0
40
0
40
0
40
0.0625000000000026
40
0.0625000000000026
40
0.0937500000000042
40
0.0937500000000042
40
0.125000000000006
40
0.125000000000006
40
0.187500000000006
40
0.187500000000006
40
0.250000000000006
40
0.250000000000006
40
0.500000000000004
40
0.500000000000004
40
0.750000000000002
40
0.750000000000002
40
1
40
1
40
1
40
1
41
1
10
-0.394913799809103
20
5.38724490303883
30
0
41
1
10
-0.382385932375428
20
5.37659363360643
30
0
41
1
10
-0.366686804044804
20
5.36823758676638
30
0
41
1
10
-0.341344926981577
20
5.37086979141571
30
0
41
1
10
-0.33303320258986
20
5.37434773304167
30
0
41
1
10
-0.318577749103326
20
5.38430052549953
30
0
41
1
10
-0.312400979321524
20
5.39054104494755
30
0
41
1
10
-0.295831486626412
20
5.41090649401409
30
0
41
1
10
-0.287591117889946
20
5.4261891191257
30
0
41
1
10
-0.273296210573335
20
5.45757128507682
30
0
41
1
10
-0.267463037667511
20
5.47353830586408
30
0
41
1
10
-0.241665889113307
20
5.55405133317635
30
0
41
1
10
-0.230738304263952
20
5.62066281404103
30
0
41
1
10
-0.213920028330733
20
5.7522739315628
30
0
41
1
10
-0.208771139684615
20
5.81781617640974
30
0
41
1
10
-0.201932717755398
20
5.94845143863458
30
0
41
1
10
-0.200330038101583
20
6.01354333629638
30
0
41
1
10
-0.199999999999989
20
6.07843244581235
30
0
0
SPLINE
5
159
100
AcDbEntity
8
SK1
62
256
6
ByLayer
370
18
48
1
60
0
100
AcDbSpline
70
4
71
3
72
24
73
20
40
0
40
0
40
0
40
0
40
0.250000000000001
40
0.250000000000001
40
0.500000000000003
40
0.500000000000003
40
0.625000000000002
40
0.625000000000002
40
0.750000000000001
40
0.750000000000001
40
0.812499999999999
40
0.812499999999999
40
0.874999999999998
40
0.874999999999998
40
0.906249999999998
40
0.906249999999998
40
0.937499999999999
40
0.937499999999999
40
1
40
1
40
1
40
1
41
1
10
-0.199999999999989
20
-6.07843116862819
30
0
41
1
10
-0.200329859654715
20
-6.01357702681219
30
0
41
1
10
-0.201930655445068
20
-5.94848814748264
30
0
41
1
10
-0.208773542204568
20
-5.81776970228805
30
0
41
1
10
-0.213933058044063
20
-5.7520930105876
30
0
41
1
10
-0.226581907125762
20
-5.65322539657006
30
0
41
1
10
-0.231616433421465
20
-5.62029294902339
30
0
41
1
10
-0.244374377579391
20
-5.55456420326047
30
0
41
1
10
-0.25203538275133
20
-5.52169220269846
30
0
41
1
10
-0.267422418729012
20
-5.47365965349934
30
0
41
1
10
-0.27320640701916
20
-5.45783596374696
30
0
41
1
10
-0.287231048809588
20
-5.42690966193143
30
0
41
1
10
-0.295495964408673
20
-5.41144453452657
30
0
41
1
10
-0.312019326339481
20
-5.39094692539055
30
0
41
1
10
-0.318249907555923
20
-5.38460165612528
30
0
41
1
10
-0.332559804953661
20
-5.37459778054654
30
0
41
1
10
-0.34089466589495
20
-5.3709894160074
30
0
41
1
10
-0.366449401847319
20
-5.36811434840899
30
0
41
1
10
-0.382302316356146
20
-5.37652018847754
30
0
41
1
10
-0.394913799811292
20
-5.38724256160012
30
0
0
SPLINE
5
15A
100
AcDbEntity
8
SK1
62
256
6
ByLayer
370
18
48
1
60
0
100
AcDbSpline
70
4
71
3
72
24
73
20
40
0
40
0
40
0
40
0
40
0.125
40
0.125
40
0.25
40
0.25
40
0.375
40
0.375
40
0.4375
40
0.4375
40
0.5
40
0.5
40
0.625
40
0.625
40
0.75
40
0.75
40
0.875
40
0.875
40
1
40
1
40
1
40
1
41
1
10
-1.30710678118655
20
-3.91808269248793
30
0
41
1
10
-1.36342296385064
20
-3.60715642249775
30
0
41
1
10
-1.41678689271535
20
-3.2928718767493
30
0
41
1
10
-1.51435013598103
20
-2.65639932915298
30
0
41
1
10
-1.55846884179033
20
-2.33418302861884
30
0
41
1
10
-1.63296978491243
20
-1.6800471987703
30
0
41
1
10
-1.66337509736468
20
-1.34813830750841
30
0
41
1
10
-1.69497255616446
20
-0.841409485072973
30
0
41
1
10
-1.70313796781008
20
-0.670747237856574
30
0
41
1
10
-1.71388361409092
20
-0.331968562038014
30
0
41
1
10
-1.71646782396985
20
-0.163187101305937
30
0
41
1
10
-1.71631112713953
20
0.34141357315076
30
0
41
1
10
-1.70526445338857
20
0.675435342836977
30
0
41
1
10
-1.66399327242203
20
1.33914312869115
30
0
41
1
10
-1.63408221528164
20
1.66887252592323
30
0
41
1
10
-1.55971183331712
20
2.32463254151125
30
0
41
1
10
-1.51508950477916
20
2.65135896403518
30
0
41
1
10
-1.41696122519085
20
3.29195215520878
30
0
41
1
10
-1.3634250101253
20
3.60714571014046
30
0
41
1
10
-1.30710678118655
20
3.91808311129771
30
0
0
SPLINE
5
15B
100
AcDbEntity
8
SK1
62
256
6
ByLayer
370
18
48
1
60
0
100
AcDbSpline
70
4
71
3
72
20
73
16
40
0
40
0
40
0
40
0
40
0.0453727252291195
40
0.11362874541855
40
0.181884765607981
40
0.250140785797412
40
0.318396805986842
40
0.386652826176273
40
0.454908846365704
40
0.591420886744565
40
0.727932927123426
40
0.796188947312857
40
0.864444967502287
40
0.932700987691718
40
1
40
1
40
1
40
1
41
1
10
-0.394913799811292
20
-5.38724256160785
30
0
41
1
10
-0.394913799811292
20
-5.7190547501427
30
0
41
1
10
-0.394913799811292
20
-6.5348354946259
30
0
41
1
10
-0.394913799811292
20
-7.7796880789966
30
0
41
1
10
-0.394913799811292
20
-9.09679923539034
30
0
41
1
10
-0.394913799811292
20
-10.3283869583107
30
0
41
1
10
-0.394913799811292
20
-11.4729576347282
30
0
41
1
10
-0.394913799811292
20
-12.5286533763275
30
0
41
1
10
-0.394913799811292
20
-13.8156305223415
30
0
41
1
10
-0.394913799811292
20
-15.1889742433629
30
0
41
1
10
-0.394913799811292
20
-16.224825355641
30
0
41
1
10
-0.394913799811292
20
-16.8259463034278
30
0
41
1
10
-0.394913799811292
20
-17.1536380024563
30
0
41
1
10
-0.394913799811292
20
-17.3455727752185
30
0
41
1
10
-0.394913799811292
20
-17.3740994375677
30
0
41
1
10
-0.394913799811292
20
-17.360275892736
30
0
0
SPLINE
5
15C
100
AcDbEntity
8
SK1
62
256
6
ByLayer
370
18
48
1
60
0
100
AcDbSpline
70
4
71
3
72
20
73
16
40
0
40
0
40
0
40
0
40
0.0672997444029115
40
0.135555718227719
40
0.203811692052527
40
0.272067665877335
40
0.40857961352695
40
0.545091561176566
40
0.613347535001374
40
0.681603508826182
40
0.74985948265099
40
0.818115456475797
40
0.886371430300605
40
0.954627404125413
40
1
40
1
40
1
40
1
41
1
10
-0.39491379981132
20
17.360275311095
30
0
41
1
10
-0.394913799811263
20
17.3740997081776
30
0
41
1
10
-0.394913799811292
20
17.3455729046445
30
0
41
1
10
-0.394913799811292
20
17.1536376810083
30
0
41
1
10
-0.394913799811292
20
16.8259464323311
30
0
41
1
10
-0.394913799811292
20
16.2248245878661
30
0
41
1
10
-0.394913799811292
20
15.1889746622834
30
0
41
1
10
-0.394913799811292
20
13.8156301488903
30
0
41
1
10
-0.394913799811292
20
12.5286535254346
30
0
41
1
10
-0.394913799811292
20
11.4729578043957
30
0
41
1
10
-0.394913799811292
20
10.3283867090429
30
0
41
1
10
-0.394913799811292
20
9.09679950047928
30
0
41
1
10
-0.394913799811292
20
7.77968825069564
30
0
41
1
10
-0.394913799811292
20
6.53483606378791
30
0
41
1
10
-0.394913799811292
20
5.71905630139054
30
0
41
1
10
-0.394913799811292
20
5.38724490303881
30
0
0
SPLINE
5
15D
100
AcDbEntity
8
SK1
62
256
6
ByLayer
370
18
48
1
60
0
100
AcDbSpline
70
4
71
3
72
45
73
41
40
0
40
0
40
0
40
0
40
0.0144246347359837
40
0.0429878926191409
40
0.0715511505022981
40
0.100114408385455
40
0.15724092415177
40
0.214367439918084
40
0.242930697801241
40
0.271493955684399
40
0.300057213567556
40
0.328620471450713
40
0.35718372933387
40
0.385746987217027
40
0.414310245100185
40
0.428591874041764
40
0.442873502983342
40
0.471436760866499
40
0.485718389808078
40
0.492859204278867
40
0.500000018749656
40
0.507140833220446
40
0.514281647691235
40
0.528563276632814
40
0.557126534515971
40
0.57140816345755
40
0.585689792399128
40
0.614253050282285
40
0.642816308165443
40
0.6713795660486
40
0.699942823931757
40
0.728506081814914
40
0.757069339698072
40
0.785632597581229
40
0.842759113347543
40
0.899885629113858
40
0.928448886997015
40
0.957012144880172
40
0.985575402763329
40
1
40
1
40
1
40
1
41
1
10
-1.99503997793931
20
17.3207624229222
30
0
41
1
10
-1.99503997793931
20
17.3143028556351
30
0
41
1
10
-1.99503997793928
20
17.2745742799588
30
0
41
1
10
-1.99503997793928
20
17.1138751154123
30
0
41
1
10
-1.99503997793928
20
16.7867763596001
30
0
41
1
10
-1.99503997793928
20
16.1866009265939
30
0
41
1
10
-1.99503997793928
20
15.1524691326423
30
0
41
1
10
-1.99503997793928
20
13.7813331880937
30
0
41
1
10
-1.99503997793928
20
12.4962106263157
30
0
41
1
10
-1.99503997793928
20
11.4421779521075
30
0
41
1
10
-1.99503997793928
20
10.2994799380558
30
0
41
1
10
-1.99503997793928
20
9.07001746022104
30
0
41
1
10
-1.99503997793928
20
7.75535376586828
30
0
41
1
10
-1.99503997793928
20
6.35676341745574
30
0
41
1
10
-1.99503997793928
20
5.12318926412425
30
0
41
1
10
-1.99503997793928
20
4.09531236648536
30
0
41
1
10
-1.99503997793928
20
3.04236295320669
30
0
41
1
10
-1.99503997793928
20
1.95640625727882
30
0
41
1
10
-1.99503997793928
20
0.981337226851394
30
0
41
1
10
-1.99503997793928
20
0.420771319084707
30
0
41
1
10
-1.99503997793928
20
6.88173714E-08
30
0
41
1
10
-1.99503997793928
20
-0.420771221994357
30
0
41
1
10
-1.99503997793928
20
-0.981337209960486
30
0
41
1
10
-1.99503997793928
20
-1.95640624898675
30
0
41
1
10
-1.99503997793928
20
-3.04236280324244
30
0
41
1
10
-1.99503997793928
20
-4.0953123914187
30
0
41
1
10
-1.99503997793928
20
-5.12318891405303
30
0
41
1
10
-1.99503997793928
20
-6.35676356337376
30
0
41
1
10
-1.99503997793928
20
-7.7553535878281
30
0
41
1
10
-1.99503997793928
20
-9.07001720037854
30
0
41
1
10
-1.99503997793928
20
-10.2994801886281
30
0
41
1
10
-1.99503997793928
20
-11.4421777785236
30
0
41
1
10
-1.99503997793928
20
-12.4962104807245
30
0
41
1
10
-1.99503997793928
20
-13.7813335607202
30
0
41
1
10
-1.99503997793928
20
-15.152468715744
30
0
41
1
10
-1.99503997793928
20
-16.1866016937524
30
0
41
1
10
-1.99503997793928
20
-16.786776230537
30
0
41
1
10
-1.99503997793928
20
-17.1138754381145
30
0
41
1
10
-1.99503997793928
20
-17.274574752785
30
0
41
1
10
-1.99503997793928
20
-17.3143030645345
30
0
41
1
10
-1.99503997793928
20
-17.3207625766105
30
0
0
SPLINE
5
15E
100
AcDbEntity
8
SK1
62
256
6
ByLayer
370
18
48
1
60
0
100
AcDbSpline
70
4
71
3
72
45
73
41
40
0
40
0
40
0
40
0
40
0.0138970652604696
40
0.0424913615670491
40
0.0710856578736287
40
0.0996799541802082
40
0.156868546793367
40
0.214057139406526
40
0.242651435713106
40
0.271245732019685
40
0.299840028326265
40
0.328434324632845
40
0.357028620939424
40
0.385622917246004
40
0.414217213552583
40
0.428514361705873
40
0.442811509859163
40
0.471405806165742
40
0.485702954319032
40
0.492851528395677
40
0.500000102472322
40
0.507148676548967
40
0.514297250625612
40
0.528594398778901
40
0.557188695085481
40
0.571485843238771
40
0.58578299139206
40
0.61437728769864
40
0.64297158400522
40
0.671565880311799
40
0.700160176618379
40
0.728754472924958
40
0.757348769231538
40
0.785943065538117
40
0.843131658151276
40
0.900320250764436
40
0.928914547071015
40
0.957508843377595
40
0.986103139684174
40
1
40
1
40
1
40
1
41
1
10
-2.19999999999999
20
17.5147945435833
30
0
41
1
10
-2.19999999999999
20
17.5080193404817
30
0
41
1
10
-2.19999999999996
20
17.4676802406619
30
0
41
1
10
-2.19999999999999
20
17.3066644250431
30
0
41
1
10
-2.19999999999999
20
16.9766929599708
30
0
41
1
10
-2.19999999999999
20
16.3719288388599
30
0
41
1
10
-2.19999999999999
20
15.3294666616432
30
0
41
1
10
-2.19999999999999
20
13.9476224427057
30
0
41
1
10
-2.19999999999999
20
12.6535104390874
30
0
41
1
10
-2.19999999999999
20
11.5914144609754
30
0
41
1
10
-2.19999999999999
20
10.4396347881955
30
0
41
1
10
-2.19999999999999
20
9.19987052615136
30
0
41
1
10
-2.19999999999999
20
7.87333982787851
30
0
41
1
10
-2.19999999999999
20
6.4607857552443
30
0
41
1
10
-2.19999999999999
20
5.21252898167785
30
0
41
1
10
-2.19999999999999
20
4.17223684682958
30
0
41
1
10
-2.19999999999999
20
3.10486150423552
30
0
41
1
10
-2.19999999999999
20
1.99745537289451
30
0
41
1
10
-2.19999999999999
20
1.00299597482069
30
0
41
1
10
-2.19999999999999
20
0.430523794544825
30
0
41
1
10
-2.19999999999999
20
2.03164063E-08
30
0
41
1
10
-2.19999999999999
20
-0.430523737893537
30
0
41
1
10
-2.19999999999999
20
-1.00299590932914
30
0
41
1
10
-2.19999999999999
20
-1.99745538275133
30
0
41
1
10
-2.19999999999999
20
-3.10486136355075
30
0
41
1
10
-2.19999999999999
20
-4.17223690222141
30
0
41
1
10
-2.19999999999999
20
-5.21252864051553
30
0
41
1
10
-2.19999999999999
20
-6.46078587277509
30
0
41
1
10
-2.19999999999999
20
-7.87333968058334
30
0
41
1
10
-2.19999999999999
20
-9.19987024087132
30
0
41
1
10
-2.19999999999999
20
-10.4396350324424
30
0
41
1
10
-2.19999999999999
20
-11.5914143063801
30
0
41
1
10
-2.19999999999999
20
-12.6535102764493
30
0
41
1
10
-2.19999999999999
20
-13.9476228193307
30
0
41
1
10
-2.19999999999999
20
-15.3294662349403
30
0
41
1
10
-2.19999999999999
20
-16.3719296090069
30
0
41
1
10
-2.19999999999999
20
-16.9766928316826
30
0
41
1
10
-2.19999999999999
20
-17.3066647416643
30
0
41
1
10
-2.19999999999999
20
-17.4676803347956
30
0
41
1
10
-2.19999999999999
20
-17.508019237243
30
0
41
1
10
-2.19999999999996
20
-17.5147944562712
30
0
0
SPLINE
5
15F
100
AcDbEntity
8
SK1
62
256
6
ByLayer
370
18
48
1
60
0
100
AcDbSpline
70
4
71
3
72
45
73
41
40
0
40
0
40
0
40
0
40
0.016225721019267
40
0.0446830367437239
40
0.0731403524681808
40
0.101597668192638
40
0.158512299641552
40
0.215426931090465
40
0.243884246814922
40
0.272341562539379
40
0.300798878263836
40
0.329256193988293
40
0.35771350971275
40
0.386170825437207
40
0.414628141161664
40
0.428856799023893
40
0.443085456886121
40
0.471542772610578
40
0.485771430472806
40
0.49288575940392
40
0.500000088335035
40
0.507114417266149
40
0.514228746197263
40
0.528457404059492
40
0.556914719783949
40
0.571143377646177
40
0.585372035508406
40
0.613829351232862
40
0.642286666957319
40
0.670743982681776
40
0.699201298406233
40
0.72765861413069
40
0.756115929855147
40
0.784573245579604
40
0.841487877028518
40
0.898402508477432
40
0.926859824201889
40
0.955317139926345
40
0.983774455650802
40
1
40
1
40
1
40
1
41
1
10
-28.5
20
16.8573189958636
30
0
41
1
10
-28.5
20
16.8521405989754
30
0
41
1
10
-28.5
20
16.8142049383245
30
0
41
1
10
-28.5
20
16.6531187925377
30
0
41
1
10
-28.5
20
16.3328856609547
30
0
41
1
10
-28.5
20
15.7436769514769
30
0
41
1
10
-28.5
20
14.7294543359372
30
0
41
1
10
-28.5
20
13.3839106046769
30
0
41
1
10
-28.5
20
12.1202723366856
30
0
41
1
10
-28.5
20
11.0855105352455
30
0
41
1
10
-28.5
20
9.96451720849825
30
0
41
1
10
-28.5
20
8.75967545377557
30
0
41
1
10
-28.5
20
7.47337327542297
30
0
41
1
10
-28.5
20
6.10815549439155
30
0
41
1
10
-28.5
20
4.9096720321497
30
0
41
1
10
-28.5
20
3.9114668992739
30
0
41
1
10
-28.5
20
2.89299469927084
30
0
41
1
10
-28.5
20
1.85830102725041
30
0
41
1
10
-28.5
20
0.929573956929886
30
0
41
1
10
-28.5
20
0.39746341502854
30
0
41
1
10
-28.5
20
1.847321585E-07
30
0
41
1
10
-28.5
20
-0.397463221290906
30
0
41
1
10
-28.5
20
-0.929574056191939
30
0
41
1
10
-28.5
20
-1.85830097558352
30
0
41
1
10
-28.5
20
-2.89299452712916
30
0
41
1
10
-28.5
20
-3.91146685141305
30
0
41
1
10
-28.5
20
-4.90967166078667
30
0
41
1
10
-28.5
20
-6.10815570815362
30
0
41
1
10
-28.5
20
-7.47337302390386
30
0
41
1
10
-28.5
20
-8.75967525472745
30
0
41
1
10
-28.5
20
-9.96451747418803
30
0
41
1
10
-28.5
20
-11.0855103162798
30
0
41
1
10
-28.5
20
-12.1202722318355
30
0
41
1
10
-28.5
20
-13.3839109677473
30
0
41
1
10
-28.5
20
-14.7294539424714
30
0
41
1
10
-28.5
20
-15.7436777114932
30
0
41
1
10
-28.5
20
-16.3328855300396
30
0
41
1
10
-28.5
20
-16.653119129773
30
0
41
1
10
-28.5
20
-16.814205104254
30
0
41
1
10
-28.5
20
-16.8521405512918
30
0
41
1
10
-28.5
20
-16.8573190043244
30
0
0
SPLINE
5
160
100
AcDbEntity
8
SK1
62
256
6
ByLayer
370
18
48
1
60
0
100
AcDbSpline
70
4
71
3
72
45
73
41
40
0
40
0
40
0
40
0
40
0.0183375353527651
40
0.0466705877681775
40
0.0750036401835898
40
0.103336692599002
40
0.160002797429827
40
0.216668902260652
40
0.245001954676064
40
0.273335007091476
40
0.301668059506889
40
0.330001111922301
40
0.358334164337713
40
0.386667216753126
40
0.415000269168538
40
0.429166795376244
40
0.443333321583951
40
0.471666373999363
40
0.485832900207069
40
0.492916163310922
40
0.499999426414775
40
0.507082689518628
40
0.514165952622482
40
0.528332478830188
40
0.5566655312456
40
0.570832057453306
40
0.584998583661012
40
0.613331636076425
40
0.641664688491837
40
0.66999774090725
40
0.698330793322662
40
0.726663845738074
40
0.754996898153487
40
0.783329950568899
40
0.839996055399724
40
0.896662160230548
40
0.924995212645961
40
0.953328265061373
40
0.981661317476786
40
1
40
1
40
1
40
1
41
1
10
-30
20
-15.9933017808673
30
0
41
1
10
-30
20
-15.9901528664034
30
0
41
1
10
-30
20
-15.9551832694402
30
0
41
1
10
-30
20
-15.7965331178349
30
0
41
1
10
-30
20
-15.4890632796305
30
0
41
1
10
-30
20
-14.9202435431778
30
0
41
1
10
-30
20
-13.9430327235571
30
0
41
1
10
-30
20
-12.6450678356931
30
0
41
1
10
-30
20
-11.42137036219
30
0
41
1
10
-30
20
-10.4224345134304
30
0
41
1
10
-30
20
-9.34179268341308
30
0
41
1
10
-30
20
-8.18272261240929
30
0
41
1
10
-30
20
-6.94914665451276
30
0
41
1
10
-30
20
-5.64597210397025
30
0
41
1
10
-30
20
-4.51272453462846
30
0
41
1
10
-30
20
-3.56968201835696
30
0
41
1
10
-30
20
-2.61530592334967
30
0
41
1
10
-30
20
-1.67591474804155
30
0
41
1
10
-30
20
-0.833341855678952
30
0
41
1
10
-30
20
-0.354131622770439
30
0
41
1
10
-30
20
4.002277763E-07
30
0
41
1
10
-30
20
0.354131996183753
30
0
41
1
10
-30
20
0.8333415404785
30
0
41
1
10
-30
20
1.675914880346
30
0
41
1
10
-30
20
2.61530613672116
30
0
41
1
10
-30
20
3.56968220154852
30
0
41
1
10
-30
20
4.51272494557483
30
0
41
1
10
-30
20
5.64597176408017
30
0
41
1
10
-30
20
6.94914704263559
30
0
41
1
10
-30
20
8.18272269843541
30
0
41
1
10
-30
20
9.34179238961872
30
0
41
1
10
-30
20
10.4224348167646
30
0
41
1
10
-30
20
11.4213703912989
30
0
41
1
10
-30
20
12.6450674903883
30
0
41
1
10
-30
20
13.9430330734595
30
0
41
1
10
-30
20
14.9202427964398
30
0
41
1
10
-30
20
15.4890634139888
30
0
41
1
10
-30
20
15.7965327535813
30
0
41
1
10
-30
20
15.9551851507508
30
0
41
1
10
-30
20
15.9901543643736
30
0
41
1
10
-30
20
15.9933022185845
30
0
0
SPLINE
5
161
100
AcDbEntity
8
SK1
62
256
6
ByLayer
370
18
48
1
60
0
100
AcDbSpline
70
4
71
3
72
11
73
7
40
0
40
0
40
0
40
0
40
0.242589954178611
40
0.502544718947534
40
0.761087572808619
40
1
40
1
40
1
40
1
41
1
10
-0.199999999999989
20
17.5545583467655
30
0
41
1
10
-0.200957889270342
20
17.5289140231062
30
0
41
1
10
-0.211248315226243
20
17.4799022728818
30
0
41
1
10
-0.255179720944142
20
17.4139496110851
30
0
41
1
10
-0.321113897423771
20
17.3707504109673
30
0
41
1
10
-0.369683795840189
20
17.3607068368228
30
0
41
1
10
-0.394913799811292
20
17.359780267379
30
0
0
SPLINE
5
162
100
AcDbEntity
8
SK1
62
256
6
ByLayer
370
18
48
1
60
0
100
AcDbSpline
70
4
71
3
72
11
73
7
40
0
40
0
40
0
40
0
40
0.238912427113142
40
0.497455280942537
40
0.757410045745086
40
1
40
1
40
1
40
1
41
1
10
-0.394913799811292
20
-17.3597801301672
30
0
41
1
10
-0.369683795838398
20
-17.3607066995757
30
0
41
1
10
-0.321113897416438
20
-17.3707502735068
30
0
41
1
10
-0.255179720936354
20
-17.4139494728386
30
0
41
1
10
-0.211248315224566
20
-17.4799021334559
30
0
41
1
10
-0.200957889268722
20
-17.5289138828004
30
0
41
1
10
-0.199999999999989
20
-17.5545582060014
30
0
0
SPLINE
5
163
100
AcDbEntity
8
SK1
62
256
6
ByLayer
370
18
48
1
60
0
100
AcDbSpline
70
4
71
2
72
6
73
3
40
0
40
0
40
0
40
1
40
1
40
1
41
1
10
-28.5
20
16.8588088260863
30
0
41
1
10
-29.2499999297871
20
16.4259984461422
30
0
41
1
10
-30
20
15.9931873508859
30
0
0
SPLINE
5
164
100
AcDbEntity
8
SK1
62
256
6
ByLayer
370
18
48
1
60
0
100
AcDbSpline
70
4
71
2
72
6
73
3
40
0
40
0
40
0
40
1
40
1
40
1
41
1
10
-30
20
-15.9931874249212
30
0
41
1
10
-29.2499999297894
20
-16.425998517687
30
0
41
1
10
-28.5
20
-16.8588088951667
30
0
0
SPLINE
5
165
100
AcDbEntity
8
SK1
62
256
6
ByLayer
370
18
48
1
60
0
100
AcDbSpline
70
4
71
2
72
6
73
3
40
0
40
0
40
0
40
1
40
1
40
1
41
1
10
-0.394913799811292
20
17.3602209523781
30
0
41
1
10
-1.19497688886898
20
17.3401342706943
30
0
41
1
10
-1.99503997793928
20
17.3200475850767
30
0
0
SPLINE
5
166
100
AcDbEntity
8
SK1
62
256
6
ByLayer
370
18
48
1
60
0
100
AcDbSpline
70
4
71
2
72
6
73
3
40
0
40
0
40
0
40
1
40
1
40
1
41
1
10
-1.99503997793928
20
-17.3200478774323
30
0
41
1
10
-1.19497688886898
20
-17.340134563042
30
0
41
1
10
-0.394913799811292
20
-17.3602212447177
30
0
0
SPLINE
5
167
100
AcDbEntity
8
SK1
62
256
6
ByLayer
370
18
48
1
60
0
100
AcDbSpline
70
4
71
3
72
13
73
9
40
0
40
0
40
0
40
0
40
0.239505987673083
40
0.368426538155688
40
0.500072261058321
40
0.631705987654816
40
0.760593443052916
40
1
40
1
40
1
40
1
41
1
10
-1.99503997793928
20
17.3252686883829
30
0
41
1
10
-2.02110925982339
20
17.3248665791032
30
0
41
1
10
-2.05883863809936
20
17.3310361992814
30
0
41
1
10
-2.10627567686484
20
17.3540696096461
30
0
41
1
10
-2.13886243911927
20
17.3792256041407
30
0
41
1
10
-2.16563490776915
20
17.4104933211739
30
0
41
1
10
-2.19103207710595
20
17.4566915621889
30
0
41
1
10
-2.19909121921685
20
17.4940488942773
30
0
41
1
10
-2.19999999999999
20
17.5200961072231
30
0
0
SPLINE
5
168
100
AcDbEntity
8
SK1
62
256
6
ByLayer
370
18
48
1
60
0
100
AcDbSpline
70
4
71
3
72
13
73
9
40
0
40
0
40
0
40
0
40
0.239406556342956
40
0.368294011542631
40
0.499927738071791
40
0.631573461053609
40
0.76049401174041
40
1
40
1
40
1
40
1
41
1
10
-2.19999999999999
20
-17.5200962264206
30
0
41
1
10
-2.19909121920765
20
-17.494049013599
30
0
41
1
10
-2.19103207709688
20
-17.4566916816953
30
0
41
1
10
-2.16563490775661
20
-17.4104934409328
30
0
41
1
10
-2.13886243910255
20
-17.379225724067
30
0
41
1
10
-2.10627567684702
20
-17.3540697297104
30
0
41
1
10
-2.05883863807622
20
-17.3310363194718
30
0
41
1
10
-2.0211092598112
20
-17.3248666993254
30
0
41
1
10
-1.99503997793928
20
-17.3252688086104
30
0
0
SPLINE
5
169
100
AcDbEntity
8
SK1
62
256
6
ByLayer
370
18
48
1
60
0
100
AcDbSpline
70
4
71
2
72
6
73
3
40
0
40
0
40
0
40
1
40
1
40
1
41
1
10
-2.19999999999999
20
17.5148287077807
30
0
41
1
10
-15.3499999982431
20
17.1846805562453
30
0
41
1
10
-28.5
20
16.8545313165689
30
0
0
SPLINE
5
16A
100
AcDbEntity
8
SK1
62
256
6
ByLayer
370
18
48
1
60
0
100
AcDbSpline
70
4
71
2
72
6
73
3
40
0
40
0
40
0
40
1
40
1
40
1
41
1
10
-28.5
20
-16.8545316091351
30
0
41
1
10
-15.3499999982428
20
-17.1846808487114
30
0
41
1
10
-2.19999999999999
20
-17.5148290000611
30
0
0
LINE
5
79
100
AcDbEntity
8
1
62
256
6
ByLayer
370
18
48
1
60
0
100
AcDbLine
10
114.247744
20
0.792712
30
0
11
114.248385
21
0.804941
31
0
39
0
210
0
220
0
230
1
0
LINE
5
7A
100
AcDbEntity
8
1
62
256
6
ByLayer
370
18
48
1
60
0
100
AcDbLine
10
106.521243
20
-7.98773
30
0
11
114.841373
21
-0.496251
31
0
39
0
210
0
220
0
230
1
0
LINE
5
7B
100
AcDbEntity
8
1
62
256
6
ByLayer
370
18
48
1
60
0
100
AcDbLine
10
94.759548
20
-9.648066
30
0
11
105.871935
21
-8.283636
31
0
39
0
210
0
220
0
230
1
0
LINE
5
7C
100
AcDbEntity
8
1
62
256
6
ByLayer
370
18
48
1
60
0
100
AcDbLine
10
102.48669
20
-0.855395
30
0
11
94.166561
21
-8.346874
31
0
39
0
210
0
220
0
230
1
0
LINE
5
7D
100
AcDbEntity
8
1
62
256
6
ByLayer
370
18
48
1
60
0
100
AcDbLine
10
114.248385
20
0.804941
30
0
11
103.135998
21
-0.559489
31
0
39
0
210
0
220
0
230
1
0
LINE
5
7E
100
AcDbEntity
8
1
62
256
6
ByLayer
370
18
48
1
60
0
100
AcDbLine
10
114.831723
20
-0.488712
30
0
11
114.841373
21
-0.496251
31
0
39
0
210
0
220
0
230
1
0
LINE
5
7F
100
AcDbEntity
8
1
62
256
6
ByLayer
370
18
48
1
60
0
100
AcDbLine
10
94.760189
20
-9.635837
30
0
11
94.759548
21
-9.648066
31
0
39
0
210
0
220
0
230
1
0
LINE
5
80
100
AcDbEntity
8
1
62
256
6
ByLayer
370
18
48
1
60
0
100
AcDbLine
10
94.17621
20
-8.354413
30
0
11
94.166561
21
-8.346874
31
0
39
0
210
0
220
0
230
1
0
LINE
5
81
100
AcDbEntity
8
1
62
256
6
ByLayer
370
18
48
1
60
0
100
AcDbLine
10
88.20535
20
-20.973557
30
0
11
69.026771
21
-24.355258
31
0
39
0
210
0
220
0
230
1
0
LINE
5
82
100
AcDbEntity
8
1
62
256
6
ByLayer
370
18
48
1
60
0
100
AcDbLine
10
8.538675
20
23.83913
30
0
11
8.538675
21
7.529667
31
0
39
0
210
0
220
0
230
1
0
LINE
5
83
100
AcDbEntity
8
1
62
256
6
ByLayer
370
18
48
1
60
0
100
AcDbLine
10
8.105662
20
23.666502
30
0
11
8.105662
21
8.055848
31
0
39
0
210
0
220
0
230
1
0
LINE
5
84
100
AcDbEntity
8
1
62
256
6
ByLayer
370
18
48
1
60
0
100
AcDbLine
10
94.085778
20
-2.299155
30
0
11
95.966337
21
-6.425664
31
0
39
0
210
0
220
0
230
1
0
LINE
5
85
100
AcDbEntity
8
1
62
256
6
ByLayer
370
18
48
1
60
0
100
AcDbLine
10
11.894338
20
-8.055848
30
0
11
11.894338
21
-23.666502
31
0
39
0
210
0
220
0
230
1
0
LINE
5
86
100
AcDbEntity
8
1
62
256
6
ByLayer
370
18
48
1
60
0
100
AcDbLine
10
97.329673
20
-9.658375
30
0
11
96.809316
21
-9.722267
31
0
39
0
210
0
220
0
230
1
0
LINE
5
87
100
AcDbEntity
8
1
62
256
6
ByLayer
370
18
48
1
60
0
100
AcDbLine
10
11.461325
20
23.83913
30
0
11
11.461325
21
7.529667
31
0
39
0
210
0
220
0
230
1
0
LINE
5
88
100
AcDbEntity
8
1
62
256
6
ByLayer
370
18
48
1
60
0
100
AcDbLine
10
101.40471
20
-1.406795
30
0
11
100.436846
21
-1.525634
31
0
39
0
210
0
220
0
230
1
0
LINE
5
89
100
AcDbEntity
8
1
62
256
6
ByLayer
370
18
48
1
60
0
100
AcDbLine
10
104.021281
20
-9.390957
30
0
11
104.745945
21
-8.738466
31
0
39
0
210
0
220
0
230
1
0
LINE
5
8A
100
AcDbEntity
8
1
62
256
6
ByLayer
370
18
48
1
60
0
100
AcDbLine
10
88.20535
20
-20.973557
30
0
11
88.202925
21
-20.959805
31
0
39
0
210
0
220
0
230
1
0
LINE
5
8B
100
AcDbEntity
8
1
62
256
6
ByLayer
370
18
48
1
60
0
100
AcDbLine
10
87.691213
20
-16.718849
30
0
11
88.457531
21
-18.123398
31
0
39
0
210
0
220
0
230
1
0
LINE
5
8C
100
AcDbEntity
8
1
62
256
6
ByLayer
370
18
48
1
60
0
100
AcDbLine
10
94.154098
20
-10.896586
30
0
11
96.70199
21
-9.735445
31
0
39
0
210
0
220
0
230
1
0
LINE
5
8D
100
AcDbEntity
8
1
62
256
6
ByLayer
370
18
48
1
60
0
100
AcDbLine
10
99.187908
20
-13.735899
30
0
11
98.794509
21
-14.078373
31
0
39
0
210
0
220
0
230
1
0
LINE
5
8E
100
AcDbEntity
8
1
62
256
6
ByLayer
370
18
48
1
60
0
100
AcDbLine
10
11.461325
20
-23.83913
30
0
11
8.538675
21
-23.83913
31
0
39
0
210
0
220
0
230
1
0
LINE
5
8F
100
AcDbEntity
8
1
62
256
6
ByLayer
370
18
48
1
60
0
100
AcDbLine
10
95.374971
20
-6.823569
30
0
11
95.430446
21
-6.908182
31
0
39
0
210
0
220
0
230
1
0
LINE
5
90
100
AcDbEntity
8
1
62
256
6
ByLayer
370
18
48
1
60
0
100
AcDbLine
10
28.767614
20
18.981068
30
0
11
28.673647
21
18.708168
31
0
39
0
210
0
220
0
230
1
0
LINE
5
91
100
AcDbEntity
8
1
62
256
6
ByLayer
370
18
48
1
60
0
100
AcDbLine
10
96.70199
20
-9.735445
30
0
11
96.809316
21
-9.722267
31
0
39
0
210
0
220
0
230
1
0
LINE
5
92
100
AcDbEntity
8
1
62
256
6
ByLayer
370
18
48
1
60
0
100
AcDbLine
10
100.436846
20
-1.525634
30
0
11
99.396133
21
-1.653417
31
0
39
0
210
0
220
0
230
1
0
LINE
5
93
100
AcDbEntity
8
1
62
256
6
ByLayer
370
18
48
1
60
0
100
AcDbLine
10
98.428269
20
-1.772256
30
0
11
98.186086
21
-1.801993
31
0
39
0
210
0
220
0
230
1
0
LINE
5
94
100
AcDbEntity
8
1
62
256
6
ByLayer
370
18
48
1
60
0
100
AcDbLine
10
8.538675
20
-7.529667
30
0
11
11.461325
21
-7.529667
31
0
39
0
210
0
220
0
230
1
0
LINE
5
95
100
AcDbEntity
8
1
62
256
6
ByLayer
370
18
48
1
60
0
100
AcDbLine
10
88.665209
20
-1.658096
30
0
11
88.669756
21
-1.644893
31
0
39
0
210
0
220
0
230
1
0
LINE
5
96
100
AcDbEntity
8
1
62
256
6
ByLayer
370
18
48
1
60
0
100
AcDbLine
10
92.82708
20
-7.98471
30
0
11
92.868549
21
-8.075706
31
0
39
0
210
0
220
0
230
1
0
LINE
5
97
100
AcDbEntity
8
1
62
256
6
ByLayer
370
18
48
1
60
0
100
AcDbLine
10
104.745945
20
-8.738466
30
0
11
104.94077
21
-8.563045
31
0
39
0
210
0
220
0
230
1
0
LINE
5
98
100
AcDbEntity
8
1
62
256
6
ByLayer
370
18
48
1
60
0
100
AcDbLine
10
102.517407
20
-10.745051
30
0
11
103.242072
21
-10.09256
31
0
39
0
210
0
220
0
230
1
0
LINE
5
99
100
AcDbEntity
8
1
62
256
6
ByLayer
370
18
48
1
60
0
100
AcDbLine
10
95.844934
20
-6.400412
30
0
11
95.966337
21
-6.425664
31
0
39
0
210
0
220
0
230
1
0
LINE
5
9A
100
AcDbEntity
8
1
62
256
6
ByLayer
370
18
48
1
60
0
100
AcDbLine
10
94.112629
20
-10.80559
30
0
11
96.674526
21
-9.638066
31
0
39
0
210
0
220
0
230
1
0
LINE
5
9B
100
AcDbEntity
8
1
62
256
6
ByLayer
370
18
48
1
60
0
100
AcDbLine
10
99.187908
20
-13.735899
30
0
11
97.329673
21
-9.658375
31
0
39
0
210
0
220
0
230
1
0
LINE
5
9C
100
AcDbEntity
8
1
62
256
6
ByLayer
370
18
48
1
60
0
100
AcDbLine
10
101.664919
20
-1.374846
30
0
11
101.40471
21
-1.406795
31
0
39
0
210
0
220
0
230
1
0
LINE
5
9D
100
AcDbEntity
8
1
62
256
6
ByLayer
370
18
48
1
60
0
100
AcDbLine
10
8.105662
20
-8.055848
30
0
11
8.105662
21
-23.666502
31
0
39
0
210
0
220
0
230
1
0
LINE
5
9E
100
AcDbEntity
8
1
62
256
6
ByLayer
370
18
48
1
60
0
100
AcDbLine
10
11.461325
20
7.529667
30
0
11
8.538675
21
7.529667
31
0
39
0
210
0
220
0
230
1
0
LINE
5
9F
100
AcDbEntity
8
1
62
256
6
ByLayer
370
18
48
1
60
0
100
AcDbLine
10
99.190185
20
-13.740895
30
0
11
94.646621
21
-17.831939
31
0
39
0
210
0
220
0
230
1
0
LINE
5
A0
100
AcDbEntity
8
1
62
256
6
ByLayer
370
18
48
1
60
0
100
AcDbLine
10
11.894338
20
23.666502
30
0
11
11.894338
21
8.055848
31
0
39
0
210
0
220
0
230
1
0
LINE
5
A1
100
AcDbEntity
8
1
62
256
6
ByLayer
370
18
48
1
60
0
100
AcDbLine
10
99.187908
20
-13.735899
30
0
11
99.190185
21
-13.740895
31
0
39
0
210
0
220
0
230
1
0
LINE
5
A2
100
AcDbEntity
8
1
62
256
6
ByLayer
370
18
48
1
60
0
100
AcDbLine
10
91.996028
20
-10.011864
30
0
11
92.078967
21
-10.193856
31
0
39
0
210
0
220
0
230
1
0
LINE
5
A3
100
AcDbEntity
8
1
62
256
6
ByLayer
370
18
48
1
60
0
100
AcDbLine
10
103.242072
20
-10.09256
30
0
11
104.021281
21
-9.390957
31
0
39
0
210
0
220
0
230
1
0
LINE
5
A4
100
AcDbEntity
8
1
62
256
6
ByLayer
370
18
48
1
60
0
100
AcDbLine
10
99.396133
20
-1.653417
30
0
11
98.428269
21
-1.772256
31
0
39
0
210
0
220
0
230
1
0
LINE
5
A5
100
AcDbEntity
8
1
62
256
6
ByLayer
370
18
48
1
60
0
100
AcDbLine
10
95.45533
20
-6.751214
30
0
11
95.374971
21
-6.823569
31
0
39
0
210
0
220
0
230
1
0
LINE
5
A6
100
AcDbEntity
8
1
62
256
6
ByLayer
370
18
48
1
60
0
100
AcDbLine
10
95.374971
20
-6.823569
30
0
11
92.82708
21
-7.98471
31
0
39
0
210
0
220
0
230
1
0
LINE
5
A7
100
AcDbEntity
8
1
62
256
6
ByLayer
370
18
48
1
60
0
100
AcDbLine
10
89.092445
20
-13.113044
30
0
11
90.606086
21
-12.594497
31
0
39
0
210
0
220
0
230
1
0
LINE
5
A8
100
AcDbEntity
8
1
62
256
6
ByLayer
370
18
48
1
60
0
100
AcDbLine
10
94.637277
20
-17.821561
30
0
11
94.646621
21
-17.831939
31
0
39
0
210
0
220
0
230
1
0
LINE
5
A9
100
AcDbEntity
8
1
62
256
6
ByLayer
370
18
48
1
60
0
100
AcDbLine
10
99.268106
20
-13.670735
30
0
11
102.336078
21
-10.90832
31
0
39
0
210
0
220
0
230
1
0
LINE
5
AA
100
AcDbEntity
8
1
62
256
6
ByLayer
370
18
48
1
60
0
100
AcDbLine
10
98.794509
20
-14.078373
30
0
11
94.637277
21
-17.821561
31
0
39
0
210
0
220
0
230
1
0
LINE
5
AB
100
AcDbEntity
8
1
62
256
6
ByLayer
370
18
48
1
60
0
100
AcDbLine
10
99.190185
20
-13.740895
30
0
11
99.268106
21
-13.670735
31
0
39
0
210
0
220
0
230
1
0
LINE
5
AC
100
AcDbEntity
8
1
62
256
6
ByLayer
370
18
48
1
60
0
100
AcDbLine
10
11.461325
20
-7.529667
30
0
11
11.461325
21
-23.83913
31
0
39
0
210
0
220
0
230
1
0
LINE
5
AD
100
AcDbEntity
8
1
62
256
6
ByLayer
370
18
48
1
60
0
100
AcDbLine
10
28.767614
20
18.981068
30
0
11
88.669756
21
-1.644893
31
0
39
0
210
0
220
0
230
1
0
LINE
5
AE
100
AcDbEntity
8
1
62
256
6
ByLayer
370
18
48
1
60
0
100
AcDbLine
10
95.45533
20
-6.751214
30
0
11
93.452083
21
-2.355491
31
0
39
0
210
0
220
0
230
1
0
LINE
5
AF
100
AcDbEntity
8
1
62
256
6
ByLayer
370
18
48
1
60
0
100
AcDbLine
10
98.794509
20
-14.078373
30
0
11
96.809316
21
-9.722267
31
0
39
0
210
0
220
0
230
1
0
LINE
5
B0
100
AcDbEntity
8
1
62
256
6
ByLayer
370
18
48
1
60
0
100
AcDbLine
10
98.186086
20
-1.801993
30
0
11
94.486443
21
-2.256252
31
0
39
0
210
0
220
0
230
1
0
LINE
5
B1
100
AcDbEntity
8
1
62
256
6
ByLayer
370
18
48
1
60
0
100
AcDbLine
10
96.70199
20
-9.735445
30
0
11
96.674526
21
-9.638066
31
0
39
0
210
0
220
0
230
1
0
LINE
5
B2
100
AcDbEntity
8
1
62
256
6
ByLayer
370
18
48
1
60
0
100
AcDbLine
10
92.088342
20
-9.973287
30
0
11
92.168645
21
-10.149494
31
0
39
0
210
0
220
0
230
1
0
LINE
5
B3
100
AcDbEntity
8
1
62
256
6
ByLayer
370
18
48
1
60
0
100
AcDbLine
10
8.538675
20
23.83913
30
0
11
11.461325
21
23.83913
31
0
39
0
210
0
220
0
230
1
0
LINE
5
B4
100
AcDbEntity
8
1
62
256
6
ByLayer
370
18
48
1
60
0
100
AcDbLine
10
97.329673
20
-9.658375
30
0
11
97.390263
21
-9.550185
31
0
39
0
210
0
220
0
230
1
0
LINE
5
B5
100
AcDbEntity
8
1
62
256
6
ByLayer
370
18
48
1
60
0
100
AcDbLine
10
97.390263
20
-9.550185
30
0
11
99.268106
21
-13.670735
31
0
39
0
210
0
220
0
230
1
0
LINE
5
B6
100
AcDbEntity
8
1
62
256
6
ByLayer
370
18
48
1
60
0
100
AcDbLine
10
8.538675
20
-7.529667
30
0
11
8.538675
21
-23.83913
31
0
39
0
210
0
220
0
230
1
0
LINE
5
B7
100
AcDbEntity
8
1
62
256
6
ByLayer
370
18
48
1
60
0
100
AcDbLine
10
95.966337
20
-6.425664
30
0
11
95.430446
21
-6.908182
31
0
39
0
210
0
220
0
230
1
0
LINE
5
B8
100
AcDbEntity
8
1
62
256
6
ByLayer
370
18
48
1
60
0
100
AcDbLine
10
95.430446
20
-6.908182
30
0
11
92.868549
21
-8.075706
31
0
39
0
210
0
220
0
230
1
0
LINE
5
B9
100
AcDbEntity
8
1
62
256
6
ByLayer
370
18
48
1
60
0
100
AcDbLine
10
94.154098
20
-10.896586
30
0
11
94.112629
21
-10.80559
31
0
39
0
210
0
220
0
230
1
0
LINE
5
BA
100
AcDbEntity
8
1
62
256
6
ByLayer
370
18
48
1
60
0
100
AcDbLine
10
63.528917
20
6.997023
30
0
11
88.665209
21
-1.658096
31
0
39
0
210
0
220
0
230
1
0
LINE
5
BB
100
AcDbEntity
8
1
62
256
6
ByLayer
370
18
48
1
60
0
100
AcDbLine
10
96.674526
20
-9.638066
30
0
11
97.390263
21
-9.550185
31
0
39
0
210
0
220
0
230
1
0
LINE
5
BC
100
AcDbEntity
8
1
62
256
6
ByLayer
370
18
48
1
60
0
100
AcDbLine
10
95.844934
20
-6.400412
30
0
11
93.982396
21
-2.313446
31
0
39
0
210
0
220
0
230
1
0
LINE
5
BD
100
AcDbEntity
8
1
62
256
6
ByLayer
370
18
48
1
60
0
100
AcDbLine
10
88.202925
20
-20.959805
30
0
11
78.722391
21
-22.631479
31
0
39
0
210
0
220
0
230
1
0
LINE
5
BE
100
AcDbEntity
8
1
62
256
6
ByLayer
370
18
48
1
60
0
100
AcDbLine
10
85.095912
20
-5.862955
30
0
11
85.753726
21
-4.404435
31
0
39
0
210
0
220
0
230
1
0
LINE
5
BF
100
AcDbEntity
8
1
62
256
6
ByLayer
370
18
48
1
60
0
100
AcDbLine
10
86.506652
20
-7.18046
30
0
11
87.916861
21
-6.42461
31
0
39
0
210
0
220
0
230
1
0
LINE
5
C0
100
AcDbEntity
8
1
62
256
6
ByLayer
370
18
48
1
60
0
100
AcDbLine
10
95.45533
20
-6.751214
30
0
11
95.844934
21
-6.400412
31
0
39
0
210
0
220
0
230
1
0
LINE
5
C1
100
AcDbEntity
8
1
62
256
6
ByLayer
370
18
48
1
60
0
100
AcDbLine
10
102.336078
20
-10.90832
30
0
11
102.517407
21
-10.745051
31
0
39
0
210
0
220
0
230
1
0
LINE
5
C2
100
AcDbEntity
8
SK1
62
256
6
ByLayer
370
18
48
1
60
0
100
AcDbLine
10
-1.307107
20
-3.918083
30
0
11
-1.307107
21
3.918083
31
0
39
0
210
0
220
0
230
1
0
LINE
5
C4
100
AcDbEntity
8
SK1
62
256
6
ByLayer
370
18
48
1
60
0
100
AcDbLine
10
-0.2
20
-6.078431
30
0
11
-0.2
21
-17.833485
31
0
39
0
210
0
220
0
230
1
0
LINE
5
C5
100
AcDbEntity
8
SK1
62
256
6
ByLayer
370
18
48
1
60
0
100
AcDbLine
10
-0.2
20
17.833485
30
0
11
-0.2
21
6.078432
31
0
39
0
210
0
220
0
230
1
0
LINE
5
C6
100
AcDbEntity
8
1
62
256
6
ByLayer
370
18
48
1
60
0
100
AcDbLine
10
105.153073
20
-8.371886
30
0
11
104.94077
21
-8.563045
31
0
39
0
210
0
220
0
230
1
0
LINE
5
C7
100
AcDbEntity
8
1
62
256
6
ByLayer
370
18
48
1
60
0
100
AcDbLine
10
101.664919
20
-1.374846
30
0
11
101.948472
21
-1.34003
31
0
39
0
210
0
220
0
230
1
0
LINE
5
C8
100
AcDbEntity
8
1
62
256
6
ByLayer
370
18
48
1
60
0
100
AcDbLine
10
104.94077
20
-8.563045
30
0
11
104.869523
21
-8.406706
31
0
39
0
210
0
220
0
230
1
0
LINE
5
C9
100
AcDbEntity
8
1
62
256
6
ByLayer
370
18
48
1
60
0
100
AcDbLine
10
98.186086
20
-1.801993
30
0
11
99.131506
21
-3.876528
31
0
39
0
210
0
220
0
230
1
0
LINE
5
CA
100
AcDbEntity
8
1
62
256
6
ByLayer
370
18
48
1
60
0
100
AcDbLine
10
101.390658
20
-8.833785
30
0
11
102.336078
21
-10.90832
31
0
39
0
210
0
220
0
230
1
0
LINE
5
CB
100
AcDbEntity
8
1
62
256
6
ByLayer
370
18
48
1
60
0
100
AcDbLine
10
101.736167
20
-1.531184
30
0
11
101.664919
21
-1.374846
31
0
39
0
210
0
220
0
230
1
0
LINE
5
CC
100
AcDbEntity
8
1
62
256
6
ByLayer
370
18
48
1
60
0
100
AcDbLine
10
98.428269
20
-1.772256
30
0
11
99.312801
21
-3.713184
31
0
39
0
210
0
220
0
230
1
0
LINE
5
CD
100
AcDbEntity
8
1
62
256
6
ByLayer
370
18
48
1
60
0
100
AcDbLine
10
101.632876
20
-8.804123
30
0
11
102.517407
21
-10.745051
31
0
39
0
210
0
220
0
230
1
0
LINE
5
CE
100
AcDbEntity
8
1
62
256
6
ByLayer
370
18
48
1
60
0
100
AcDbLine
10
99.396133
20
-1.653417
30
0
11
100.037503
21
-3.060776
31
0
39
0
210
0
220
0
230
1
0
LINE
5
CF
100
AcDbEntity
8
1
62
256
6
ByLayer
370
18
48
1
60
0
100
AcDbLine
10
102.600701
20
-8.685201
30
0
11
103.242072
21
-10.09256
31
0
39
0
210
0
220
0
230
1
0
LINE
5
D0
100
AcDbEntity
8
1
62
256
6
ByLayer
370
18
48
1
60
0
100
AcDbLine
10
101.40471
20
-1.406795
30
0
11
101.541338
21
-1.706599
31
0
39
0
210
0
220
0
230
1
0
LINE
5
D1
100
AcDbEntity
8
1
62
256
6
ByLayer
370
18
48
1
60
0
100
AcDbLine
10
100.436846
20
-1.525634
30
0
11
100.816684
21
-2.359112
31
0
39
0
210
0
220
0
230
1
0
LINE
5
D2
100
AcDbEntity
8
1
62
256
6
ByLayer
370
18
48
1
60
0
100
AcDbLine
10
103.641443
20
-8.557479
30
0
11
104.021281
21
-9.390957
31
0
39
0
210
0
220
0
230
1
0
LINE
5
D3
100
AcDbEntity
8
1
62
256
6
ByLayer
370
18
48
1
60
0
100
AcDbLine
10
104.609317
20
-8.438663
30
0
11
104.745945
21
-8.738466
31
0
39
0
210
0
220
0
230
1
0
LINE
5
D4
100
AcDbEntity
8
1
62
256
6
ByLayer
370
18
48
1
60
0
100
AcDbLine
10
0.3
20
-25
30
0
11
0.3
21
25
31
0
39
0
210
0
220
0
230
1
0
LINE
5
D5
100
AcDbEntity
8
1
62
256
6
ByLayer
370
18
48
1
60
0
100
AcDbLine
10
0
20
-24.7
30
0
11
0
21
24.7
31
0
39
0
210
0
220
0
230
1
0
LINE
5
D6
100
AcDbEntity
8
1
62
256
6
ByLayer
370
18
48
1
60
0
100
AcDbLine
10
20.279208
20
25
30
0
11
20.279208
21
-25
31
0
39
0
210
0
220
0
230
1
0
LINE
5
D7
100
AcDbEntity
8
1
62
256
6
ByLayer
370
18
48
1
60
0
100
AcDbLine
10
20.732418
20
-25.088874
30
0
11
20.732418
21
25.088874
31
0
39
0
210
0
220
0
230
1
0
LINE
5
D8
100
AcDbEntity
8
81
62
256
6
ByLayer
370
70
48
1
60
0
100
AcDbLine
10
115
20
0
30
0
11
125
21
0
31
0
39
0
210
0
220
0
230
1
0
LINE
5
D9
100
AcDbEntity
8
80
62
256
6
ByLayer
370
70
48
1
60
0
100
AcDbLine
10
0
20
0
30
0
11
-10
21
0
31
0
39
0
210
0
220
0
230
1
0
LINE
5
DA
100
AcDbEntity
8
1
62
256
6
ByLayer
370
18
48
1
60
0
100
AcDbLine
10
20.279208
20
25
30
0
11
0.3
21
25
31
0
39
0
210
0
220
0
230
1
0
LINE
5
DB
100
AcDbEntity
8
1
62
256
6
ByLayer
370
18
48
1
60
0
100
AcDbLine
10
0.3
20
-25
30
0
11
20.279208
21
-25
31
0
39
0
210
0
220
0
230
1
0
LINE
5
DC
100
AcDbEntity
8
1
62
256
6
ByLayer
370
18
48
1
60
0
100
AcDbLine
10
0
20
-24.7
30
0
11
0.3
21
-25
31
0
39
0
210
0
220
0
230
1
0
LINE
5
DD
100
AcDbEntity
8
1
62
256
6
ByLayer
370
18
48
1
60
0
100
AcDbLine
10
0.3
20
25
30
0
11
0
21
24.7
31
0
39
0
210
0
220
0
230
1
0
LINE
5
DE
100
AcDbEntity
8
1
62
256
6
ByLayer
370
18
48
1
60
0
100
AcDbLine
10
21.571918
20
25.076122
30
0
11
20.732418
21
25.088874
31
0
39
0
210
0
220
0
230
1
0
LINE
5
DF
100
AcDbEntity
8
1
62
256
6
ByLayer
370
18
48
1
60
0
100
AcDbLine
10
20.732418
20
-25.088874
30
0
11
69.026771
21
-24.355258
31
0
39
0
210
0
220
0
230
1
0
LINE
5
E0
100
AcDbEntity
8
2
62
256
6
ByLayer
370
13
48
1
60
0
100
AcDbLine
10
115
20
-1.5875
30
0
11
115
21
-38.660258
31
0
39
0
210
0
220
0
230
1
0
LINE
5
E2
100
AcDbEntity
8
2
62
256
6
ByLayer
370
13
48
1
60
0
100
AcDbLine
10
103.896731
20
-9.557051
30
0
11
85.942565
21
-25.723054
31
0
39
0
210
0
220
0
230
1
0
LINE
5
E3
100
AcDbEntity
8
1
62
256
6
ByLayer
370
13
48
1
60
0
100
AcDbLine
10
115
20
-35.485258
30
0
11
111.806994
21
-36.265691
31
0
39
0
210
0
220
0
230
1
0
LINE
5
E4
100
AcDbEntity
8
1
62
256
6
ByLayer
370
13
48
1
60
0
100
AcDbLine
10
115
20
-35.485258
30
0
11
111.844553
21
-34.564628
31
0
39
0
210
0
220
0
230
1
0
LINE
5
E5
100
AcDbEntity
8
1
62
256
6
ByLayer
370
13
48
1
60
0
100
AcDbLine
10
111.806994
20
-36.265691
30
0
11
111.844553
21
-34.564628
31
0
39
0
210
0
220
0
230
1
0
LINE
5
E6
100
AcDbEntity
8
1
62
256
6
ByLayer
370
13
48
1
60
0
100
AcDbLine
10
88.30205
20
-23.598565
30
0
11
91.097613
21
-25.327492
31
0
39
0
210
0
220
0
230
1
0
LINE
5
E7
100
AcDbEntity
8
1
62
256
6
ByLayer
370
13
48
1
60
0
100
AcDbLine
10
88.30205
20
-23.598565
30
0
11
89.858617
21
-26.493647
31
0
39
0
210
0
220
0
230
1
0
LINE
5
E8
100
AcDbEntity
8
1
62
256
6
ByLayer
370
13
48
1
60
0
100
AcDbLine
10
91.097613
20
-25.327492
30
0
11
89.858617
21
-26.493647
31
0
39
0
210
0
220
0
230
1
0
MTEXT
5
16B
100
AcDbEntity
8
2
62
256
6
ByLayer
370
13
48
1
60
0
100
AcDbMText
10
94.846524
20
-28.37188
30
0
210
0
220
0
230
1
1
\W0.8602;48%%d0'
40
4.5
41
0
44
1.084337
50
336
71
7
72
5
7
iso_b_vert
0
MTEXT
5
16E
100
AcDbEntity
8
SK6
62
256
6
ByLayer
370
13
48
1
60
0
100
AcDbMText
10
-45.102656
20
54.918908
30
0
210
0
220
0
230
1
1
\W0.7415;C5-TR-V13MBL-00115C1
40
3.5
41
0
44
1.084337
50
0
71
7
72
5
7
iso_b_vert
0
DIMENSION
5
171
100
AcDbEntity
8
2
62
256
6
ByLayer
370
13
48
1
60
0
100
AcDbDimension
2
_U0
10
140.85
20
0
30
0
11
140.85
21
-14.99375
31
0
70
32
71
1
72
1
41
1
210
0
220
0
230
1
3
Standard
100
AcDbAlignedDimension
13
115
23
0
33
0
14
50
24
0
34
0
50
90
100
AcDbRotatedDimension
1001
ACAD
1000
DSTYLE
1002
{
1070
   371
1070
    13
1070
   372
1070
    13
1070
     3
1000

1070
   170
1070
     0
1070
   144
1040
1.0
1070
   277
1070
     2
1070
   284
1070
     8
1070
   278
1070
    46
1070
   146
1040
0.777778
1070
   345
1005
16
1070
   347
1005
16
1070
   346
1005
16
1070
   344
1005
172
1070
   343
1005
172
1070
   172
1070
     1
1070
    76
1070
     0
1070
    75
1070
     0
1070
   282
1070
     0
1070
   281
1070
     0
1070
    71
1070
     0
1070
    74
1070
     0
1070
   279
1070
     0
1070
   173
1070
     1
1070
   340
1005
16C
1070
   271
1070
     1
1070
   272
1070
     2
1070
    77
1070
     1
1070
    73
1070
     0
1070
   171
1070
     3
1070
   274
1070
     4
1070
   177
1070
   150
1070
   176
1070
     9
1070
   178
1070
    43
1070
    78
1070
     8
1070
    48
1040
-0.1
1070
    41
1040
3.175
1070
   147
1040
2.25
1070
    42
1040
1.5875
1070
    44
1040
3.175
1070
   140
1040
4.5
1002
}
1001
ACAD_DSTYLE_DIM_LINETYPE
1070
   380
1005
16
1001
ACAD_DSTYLE_DIM_EXT1_LINETYPE
1070
   381
1005
16
1001
ACAD_DSTYLE_DIM_EXT2_LINETYPE
1070
   382
1005
16
0
DIMENSION
5
197
100
AcDbEntity
8
2
62
256
6
ByLayer
370
13
48
1
60
0
100
AcDbDimension
2
_U1
10
115
20
-40.938874
30
0
11
57.5
21
-40.938874
31
0
70
32
71
1
72
1
41
1
210
0
220
0
230
1
3
Standard
100
AcDbAlignedDimension
13
0
23
-25
33
0
14
115
24
0
34
0
50
0
100
AcDbRotatedDimension
1001
ACAD
1000
DSTYLE
1002
{
1070
   371
1070
    13
1070
   372
1070
    13
1070
     3
1000

1070
   170
1070
     0
1070
   144
1040
1.0
1070
   277
1070
     2
1070
   284
1070
     8
1070
   278
1070
    46
1070
   146
1040
0.777778
1070
   345
1005
16
1070
   347
1005
16
1070
   346
1005
16
1070
   344
1005
172
1070
   343
1005
172
1070
   172
1070
     1
1070
    76
1070
     0
1070
    75
1070
     0
1070
   282
1070
     0
1070
   281
1070
     0
1070
    71
1070
     0
1070
    74
1070
     0
1070
   279
1070
     0
1070
   173
1070
     1
1070
   340
1005
16C
1070
   271
1070
     1
1070
   272
1070
     2
1070
    77
1070
     1
1070
    73
1070
     1
1070
   171
1070
     3
1070
   274
1070
     4
1070
   177
1070
   150
1070
   176
1070
     9
1070
   178
1070
    43
1070
    78
1070
     8
1070
    48
1040
-0.1
1070
    41
1040
3.175
1070
   147
1040
2.25
1070
    42
1040
1.5875
1070
    44
1040
3.175
1070
   140
1040
4.5
1002
}
1001
ACAD_DSTYLE_DIM_LINETYPE
1070
   380
1005
16
1001
ACAD_DSTYLE_DIM_EXT1_LINETYPE
1070
   381
1005
16
1001
ACAD_DSTYLE_DIM_EXT2_LINETYPE
1070
   382
1005
16
0
ENDSEC
0
SECTION
2
OBJECTS
0
DICTIONARY
5
221
330
0
100
AcDbDictionary
280
0
281
1
3
ACAD_GROUP
350
222
3
ACAD_MLINESTYLE
350
223
0
DICTIONARY
5
222
330
0
100
AcDbDictionary
280
0
281
1
0
DICTIONARY
5
223
330
0
100
AcDbDictionary
280
0
281
1
3
Standard
350
18
0
MLINESTYLE
5
18
330
223
100
AcDbMlineStyle
2
Standard
70
0
3

62
256
51
90
52
90
71
2
49
-0.5
62
256
6
ByLayer
49
0.5
62
256
6
ByLayer
0
RASTERVARIABLES
5
211
330

100
AcDbRasterVariables
90
0
70
1
71
1
72
1
0
ENDSEC
0
EOF
