0
SECTION
2
HEADER
9
$ACADVER
1
AC1015
9
$DWGCODEPAGE
3
ANSI_1252
9
$HANDSEED
5
209
9
$ANGBASE
50
0
9
$ANGDIR
70
0
9
$ATTMODE
70
1
9
$AUNITS
70
0
9
$AUPREC
70
0
9
$CECOLOR
62
256
9
$CELTSCALE
40
1
9
$CELTYPE
6
ByLayer
9
$CELWEIGHT
370
18
9
$CLAYER
8
0
9
$CMLJUST
70
0
9
$CMLSCALE
40
1
9
$CMLSTYLE
2
Standard
9
$DIMSTYLE
2
Standard
9
$TEXTSIZE
40
0.2
9
$TEXTSTYLE
7
Standard
9
$LUNITS
70
2
9
$LUPREC
70
4
9
$EXTNAMES
290
1
9
$INSUNITS
70
4
9
$LTSCALE
40
1
9
$LWDISPLAY
290
1
9
$PDMODE
70
0
9
$PDSIZE
40
0
9
$PLINEGEN
70
0
0
ENDSEC
0
SECTION
2
CLASSES
0
CLASS
1
RASTERVARIABLES
2
AcDbRasterVariables
3
ISM
90
0
280
0
281
0
0
ENDSEC
0
SECTION
2
TABLES
0
TABLE
2
VPORT
5
1ff
100
AcDbSymbolTable
0
VPORT
5
1
100
AcDbSymbolTableRecord
100
AcDbViewportTableRecord
2
*Active
70
0
10
0
20
0
11
1
21
1
12
-1
22
1
13
0
23
0
14
0.5
24
0.5
15
10
25
10
16
0
26
0
36
1
17
0
27
0
37
0
0
ENDTAB
0
TABLE
2
LTYPE
5
200
100
AcDbSymbolTable
0
LTYPE
5
14
100
AcDbSymbolTableRecord
100
AcDbLinetypeTableRecord
70
0
2
ByBlock
3

72
65
73
0
40
0
0
LTYPE
5
15
100
AcDbSymbolTableRecord
100
AcDbLinetypeTableRecord
70
0
2
ByLayer
3

72
65
73
0
40
0
0
LTYPE
5
16
100
AcDbSymbolTableRecord
100
AcDbLinetypeTableRecord
70
0
2
Continuous
3
Solid line
72
65
73
0
40
0
0
LTYPE
5
6E
100
AcDbSymbolTableRecord
100
AcDbLinetypeTableRecord
70
0
2
CENTER
3
____ _ ____ _ ____ _ ____
72
65
73
4
40
47.5
49
22
74
0
49
-8.5
74
0
49
8.5
74
0
49
-8.5
74
0
0
LTYPE
5
6F
100
AcDbSymbolTableRecord
100
AcDbLinetypeTableRecord
70
0
2
DASHED
3
__ __ __ __ __ __ __ __ __
72
65
73
2
40
25.72
49
12.86
74
0
49
-12.86
74
0
0
ENDTAB
0
TABLE
2
LAYER
5
201
100
AcDbSymbolTable
0
LAYER
5
10
100
AcDbSymbolTableRecord
100
AcDbLayerTableRecord
2
0
70
0
62
7
6
Continuous
290
1
370
-3
390
0
0
LAYER
5
71
100
AcDbSymbolTableRecord
100
AcDbLayerTableRecord
2
81
70
0
62
-3
6
Continuous
290
1
370
-3
390
0
0
LAYER
5
73
100
AcDbSymbolTableRecord
100
AcDbLayerTableRecord
2
80
70
0
62
-6
6
Continuous
290
1
370
-3
390
0
0
LAYER
5
75
100
AcDbSymbolTableRecord
100
AcDbLayerTableRecord
2
1
70
0
62
4
6
Continuous
290
1
370
-3
390
0
0
LAYER
5
E0
100
AcDbSymbolTableRecord
100
AcDbLayerTableRecord
2
2
70
0
62
7
6
Continuous
290
1
370
-3
390
0
0
LAYER
5
174
100
AcDbSymbolTableRecord
100
AcDbLayerTableRecord
2
Defpoints
70
0
62
7
6
Continuous
290
0
370
-3
390
0
0
LAYER
5
1ed
100
AcDbSymbolTableRecord
100
AcDbLayerTableRecord
2
SK1
70
0
62
4
6
Continuous
290
1
370
-3
390
0
0
LAYER
5
1ee
100
AcDbSymbolTableRecord
100
AcDbLayerTableRecord
2
SK6
70
0
62
5
6
Continuous
290
1
370
-3
390
0
0
ENDTAB
0
TABLE
2
STYLE
5
202
100
AcDbSymbolTable
0
STYLE
5
11
100
AcDbSymbolTableRecord
100
AcDbTextStyleTableRecord
2
Standard
3
txt
70
0
71
0
40
0
41
1
42
0
50
0
0
STYLE
5
164
100
AcDbSymbolTableRecord
100
AcDbTextStyleTableRecord
2
iso_b_vert
3
simplex.shx
70
0
71
0
40
0
41
1
42
0
50
0
0
STYLE
5
165
100
AcDbSymbolTableRecord
100
AcDbTextStyleTableRecord
2
DWGDirectTextStyle
3
simplex
70
0
71
0
40
0
41
1
42
0
50
0
0
ENDTAB
0
TABLE
2
DIMSTYLE
5
203
100
AcDbSymbolTable
100
AcDbDimStyleTable
0
DIMSTYLE
105
27
100
AcDbSymbolTableRecord
100
AcDbDimStyleTableRecord
2
Standard
70
0
3
<>
41
0.18
42
0.0625
44
0.18
140
0.18
147
0.09
73
0
74
0
77
1
271
2
275
0
278
52
280
0
340
11
0
ENDTAB
0
TABLE
2
VIEW
5
204
100
AcDbSymbolTable
0
ENDTAB
0
TABLE
2
UCS
5
205
100
AcDbSymbolTable
0
ENDTAB
0
TABLE
2
APPID
5
206
100
AcDbSymbolTable
0
APPID
5
12
100
AcDbSymbolTableRecord
100
AcDbRegAppTableRecord
2
ACAD
70
0
0
APPID
5
169
100
AcDbSymbolTableRecord
100
AcDbRegAppTableRecord
2
ACAD_DSTYLE_DIMBREAK
70
0
0
APPID
5
1AC
100
AcDbSymbolTableRecord
100
AcDbRegAppTableRecord
2
ACAD_DSTYLE_DIM_LINETYPE
70
0
0
APPID
5
1AD
100
AcDbSymbolTableRecord
100
AcDbRegAppTableRecord
2
ACAD_DSTYLE_DIM_EXT1_LINETYPE
70
0
0
APPID
5
1AE
100
AcDbSymbolTableRecord
100
AcDbRegAppTableRecord
2
ACAD_DSTYLE_DIM_EXT2_LINETYPE
70
0
0
APPID
5
1E9
100
AcDbSymbolTableRecord
100
AcDbRegAppTableRecord
2
ACAD_MLEADERVER
70
0
0
ENDTAB
0
TABLE
2
BLOCK_RECORD
5
207
100
AcDbSymbolTable
0
BLOCK_RECORD
5
1F
100
AcDbSymbolTableRecord
100
AcDbBlockTableRecord
2
*Model_Space
340
0
70
0
0
BLOCK_RECORD
5
1B
100
AcDbSymbolTableRecord
100
AcDbBlockTableRecord
2
*Paper_Space
340
0
70
0
0
BLOCK_RECORD
5
23
100
AcDbSymbolTableRecord
100
AcDbBlockTableRecord
2
*Paper_Space0
340
0
70
0
0
BLOCK_RECORD
5
16B
100
AcDbSymbolTableRecord
100
AcDbBlockTableRecord
2
_Closed
340
0
70
0
0
BLOCK_RECORD
5
175
100
AcDbSymbolTableRecord
100
AcDbBlockTableRecord
2
*D2
340
0
70
0
0
BLOCK_RECORD
5
181
100
AcDbSymbolTableRecord
100
AcDbBlockTableRecord
2
_U0
340
0
70
0
0
ENDTAB
0
ENDSEC
0
SECTION
2
BLOCKS
0
BLOCK
5
20
100
AcDbEntity
8
0
100
AcDbBlockBegin
2
*Model_Space
70
0
10
0
20
0
30
0
3
*Model_Space
0
ENDBLK
5
21
100
AcDbEntity
8
0
100
AcDbBlockEnd
0
BLOCK
5
1C
100
AcDbEntity
8
0
100
AcDbBlockBegin
2
*Paper_Space
70
0
10
0
20
0
30
0
3
*Paper_Space
0
ENDBLK
5
1D
100
AcDbEntity
8
0
100
AcDbBlockEnd
0
BLOCK
5
24
100
AcDbEntity
8
0
100
AcDbBlockBegin
2
*Paper_Space0
70
0
10
0
20
0
30
0
3
*Paper_Space0
0
ENDBLK
5
25
100
AcDbEntity
8
0
100
AcDbBlockEnd
0
BLOCK
5
16C
100
AcDbEntity
8
0
100
AcDbBlockBegin
2
_Closed
70
0
10
0
20
0
30
0
3
_Closed
0
LINE
5
16E
100
AcDbEntity
8
0
62
256
6
ByLayer
370
-2
48
1
60
0
100
AcDbLine
10
-1
20
0.166667
30
0
11
0
21
0
31
0
39
0
210
0
220
0
230
1
0
LINE
5
16F
100
AcDbEntity
8
0
62
256
6
ByLayer
370
-2
48
1
60
0
100
AcDbLine
10
0
20
0
30
0
11
-1
21
-0.166667
31
0
39
0
210
0
220
0
230
1
0
LINE
5
170
100
AcDbEntity
8
0
62
256
6
ByLayer
370
-2
48
1
60
0
100
AcDbLine
10
-1
20
0.166667
30
0
11
-1
21
-0.166667
31
0
39
0
210
0
220
0
230
1
0
LINE
5
171
100
AcDbEntity
8
0
62
256
6
ByLayer
370
-2
48
1
60
0
100
AcDbLine
10
0
20
0
30
0
11
-1
21
0
31
0
39
0
210
0
220
0
230
1
0
ENDBLK
5
16D
100
AcDbEntity
8
0
100
AcDbBlockEnd
0
BLOCK
5
176
100
AcDbEntity
8
0
100
AcDbBlockBegin
2
*D2
70
1
10
0
20
0
30
0
3
*D2
0
LINE
5
178
100
AcDbEntity
8
0
62
256
6
ByLayer
370
-2
48
1
60
0
100
AcDbLine
10
65
20
46.5875
30
0
11
65
21
65.675
31
0
39
0
210
0
220
0
230
1
0
LINE
5
179
100
AcDbEntity
8
0
62
256
6
ByLayer
370
-2
48
1
60
0
100
AcDbLine
10
0
20
33.0875
30
0
11
0
21
65.675
31
0
39
0
210
0
220
0
230
1
0
LINE
5
17A
100
AcDbEntity
8
0
62
256
6
ByLayer
370
-2
48
1
60
0
100
AcDbLine
10
61.825
20
62.5
30
0
11
3.175
21
62.5
31
0
39
0
210
0
220
0
230
1
0
SOLID
5
17B
100
AcDbEntity
8
0
62
256
6
ByLayer
370
-1
48
1
60
0
100
AcDbTrace
10
61.825
20
61.970833
30
0
11
61.825
21
63.029167
31
0
12
65
22
62.5
32
0
13
65
23
62.5
33
0
39
0
210
0
220
0
230
1
0
SOLID
5
17C
100
AcDbEntity
8
0
62
256
6
ByLayer
370
-1
48
1
60
0
100
AcDbTrace
10
3.175
20
63.029167
30
0
11
3.175
21
61.970833
31
0
12
0
22
62.5
32
0
13
0
23
62.5
33
0
39
0
210
0
220
0
230
1
0
MTEXT
5
17D
100
AcDbEntity
8
0
62
256
6
ByLayer
370
18
48
1
60
0
100
AcDbMText
10
32.5
20
71.89375
30
0
210
0
220
0
230
1
1
\A1;65
40
4.5
41
0
44
1
50
0
71
5
72
5
7
iso_b_vert
0
POINT
5
17E
100
AcDbEntity
8
Defpoints
62
0
6
ByLayer
370
-1
48
1
60
0
100
AcDbPoint
10
65
20
45
30
0
39
0
210
0
220
0
230
1
50
360
0
POINT
5
17F
100
AcDbEntity
8
Defpoints
62
0
6
ByLayer
370
-1
48
1
60
0
100
AcDbPoint
10
0
20
31.5
30
0
39
0
210
0
220
0
230
1
50
360
0
POINT
5
180
100
AcDbEntity
8
Defpoints
62
0
6
ByLayer
370
-1
48
1
60
0
100
AcDbPoint
10
0
20
62.5
30
0
39
0
210
0
220
0
230
1
50
360
0
ENDBLK
5
177
100
AcDbEntity
8
0
100
AcDbBlockEnd
0
BLOCK
5
18C
100
AcDbEntity
8
0
100
AcDbBlockBegin
2
_U0
70
0
10
0
20
0
30
0
3
_U0
0
MTEXT
5
182
100
AcDbEntity
8
2
62
256
6
ByLayer
370
13
48
1
60
0
100
AcDbMText
10
27.457816
20
63.827672
30
0
210
0
220
0
230
1
1
\W0.7346;65.0
40
4.5
41
0
44
1.084337
50
0
71
7
72
5
7
iso_b_vert
0
LINE
5
183
100
AcDbEntity
8
2
62
256
6
ByLayer
370
13
48
1
60
0
100
AcDbLine
10
65
20
46.5875
30
0
11
65
21
65.675
31
0
39
0
210
0
220
0
230
1
0
LINE
5
184
100
AcDbEntity
8
2
62
256
6
ByLayer
370
13
48
1
60
0
100
AcDbLine
10
0
20
33.0875
30
0
11
0
21
65.675
31
0
39
0
210
0
220
0
230
1
0
LINE
5
185
100
AcDbEntity
8
2
62
256
6
ByLayer
370
13
48
1
60
0
100
AcDbLine
10
65
20
62.5
30
0
11
0
21
62.5
31
0
39
0
210
0
220
0
230
1
0
LINE
5
186
100
AcDbEntity
8
2
62
256
6
ByLayer
370
13
48
1
60
0
100
AcDbLine
10
65
20
62.5
30
0
11
61.825003
21
61.649261
31
0
39
0
210
0
220
0
230
1
0
LINE
5
187
100
AcDbEntity
8
2
62
256
6
ByLayer
370
13
48
1
60
0
100
AcDbLine
10
65
20
62.5
30
0
11
61.824997
21
63.350739
31
0
39
0
210
0
220
0
230
1
0
LINE
5
188
100
AcDbEntity
8
2
62
256
6
ByLayer
370
13
48
1
60
0
100
AcDbLine
10
61.825003
20
61.649261
30
0
11
61.824997
21
63.350739
31
0
39
0
210
0
220
0
230
1
0
LINE
5
189
100
AcDbEntity
8
2
62
256
6
ByLayer
370
13
48
1
60
0
100
AcDbLine
10
0
20
62.5
30
0
11
3.174997
21
63.350739
31
0
39
0
210
0
220
0
230
1
0
LINE
5
18A
100
AcDbEntity
8
2
62
256
6
ByLayer
370
13
48
1
60
0
100
AcDbLine
10
0
20
62.5
30
0
11
3.175003
21
61.649261
31
0
39
0
210
0
220
0
230
1
0
LINE
5
18B
100
AcDbEntity
8
2
62
256
6
ByLayer
370
13
48
1
60
0
100
AcDbLine
10
3.174997
20
63.350739
30
0
11
3.175003
21
61.649261
31
0
39
0
210
0
220
0
230
1
0
ENDBLK
5
18D
100
AcDbEntity
8
0
100
AcDbBlockEnd
0
ENDSEC
0
SECTION
2
ENTITIES
0
ARC
5
F1
100
AcDbEntity
8
1
62
256
6
ByLayer
370
18
48
1
60
0
100
AcDbCircle
39
0
10
60.472202
20
34.219168
30
0
40
1.0744
210
0
220
0
230
1
100
AcDbArc
50
249.5
51
309.5
0
ARC
5
F2
100
AcDbEntity
8
1
62
256
6
ByLayer
370
18
48
1
60
0
100
AcDbCircle
39
0
10
60.472202
20
34.219168
30
0
40
1.0744
210
0
220
0
230
1
100
AcDbArc
50
69.5
51
129.5
0
ARC
5
F3
100
AcDbEntity
8
1
62
256
6
ByLayer
370
18
48
1
60
0
100
AcDbCircle
39
0
10
60.472202
20
34.219168
30
0
40
1.4097
210
0
220
0
230
1
100
AcDbArc
50
39.5
51
99.5
0
ARC
5
F4
100
AcDbEntity
8
1
62
256
6
ByLayer
370
18
48
1
60
0
100
AcDbCircle
39
0
10
60.472202
20
34.219168
30
0
40
1.4097
210
0
220
0
230
1
100
AcDbArc
50
339.5
51
39.5
0
ARC
5
F5
100
AcDbEntity
8
1
62
256
6
ByLayer
370
18
48
1
60
0
100
AcDbCircle
39
0
10
60.472202
20
34.219168
30
0
40
1.0744
210
0
220
0
230
1
100
AcDbArc
50
309.5
51
9.5
0
ARC
5
F6
100
AcDbEntity
8
1
62
256
6
ByLayer
370
18
48
1
60
0
100
AcDbCircle
39
0
10
60.472202
20
34.219168
30
0
40
1.0744
210
0
220
0
230
1
100
AcDbArc
50
129.5
51
189.5
0
ARC
5
F7
100
AcDbEntity
8
1
62
256
6
ByLayer
370
18
48
1
60
0
100
AcDbCircle
39
0
10
60.472202
20
34.219168
30
0
40
1.4097
210
0
220
0
230
1
100
AcDbArc
50
279.5
51
339.5
0
ARC
5
FA
100
AcDbEntity
8
1
62
256
6
ByLayer
370
18
48
1
60
0
100
AcDbCircle
39
0
10
60.472202
20
34.219168
30
0
40
1.0744
210
0
220
0
230
1
100
AcDbArc
50
9.5
51
69.5
0
ARC
5
FB
100
AcDbEntity
8
1
62
256
6
ByLayer
370
18
48
1
60
0
100
AcDbCircle
39
0
10
60.472202
20
34.219168
30
0
40
1.4097
210
0
220
0
230
1
100
AcDbArc
50
159.5
51
219.5
0
ARC
5
FC
100
AcDbEntity
8
1
62
256
6
ByLayer
370
18
48
1
60
0
100
AcDbCircle
39
0
10
60.472202
20
34.219168
30
0
40
1.4097
210
0
220
0
230
1
100
AcDbArc
50
219.5
51
279.5
0
ARC
5
FD
100
AcDbEntity
8
1
62
256
6
ByLayer
370
18
48
1
60
0
100
AcDbCircle
39
0
10
60.472202
20
34.219168
30
0
40
1.0744
210
0
220
0
230
1
100
AcDbArc
50
189.5
51
249.5
0
ARC
5
FE
100
AcDbEntity
8
1
62
256
6
ByLayer
370
18
48
1
60
0
100
AcDbCircle
39
0
10
60.472202
20
34.219168
30
0
40
1.4097
210
0
220
0
230
1
100
AcDbArc
50
99.5
51
159.5
0
ARC
5
100
100
AcDbEntity
8
1
62
256
6
ByLayer
370
18
48
1
60
0
100
AcDbCircle
39
0
10
56.738204
20
24.232136
30
0
40
0.793799999999789
210
0
220
0
230
1
100
AcDbArc
50
187
51
312
0
ARC
5
102
100
AcDbEntity
8
1
62
256
6
ByLayer
370
18
48
1
60
0
100
AcDbCircle
39
0
10
64.2062
20
44.2062
30
0
40
0.793799999999789
210
0
220
0
230
1
100
AcDbArc
50
7
51
132
0
ARC
5
104
100
AcDbEntity
8
1
62
256
6
ByLayer
370
18
48
1
60
0
100
AcDbCircle
39
0
10
56.233597
20
22.882505
30
0
40
1.6
210
0
220
0
230
1
100
AcDbArc
50
253.083322
51
339.5
0
ARC
5
105
100
AcDbEntity
8
1
62
256
6
ByLayer
370
18
48
1
60
0
100
AcDbCircle
39
0
10
30.606
20
37.365012
30
0
40
11
210
0
220
0
230
1
100
AcDbArc
50
253.179689
51
270
0
ARC
5
106
100
AcDbEntity
8
1
62
256
6
ByLayer
370
18
48
1
60
0
100
AcDbCircle
39
0
10
56.233597
20
22.882505
30
0
40
1.49999999999999
210
0
220
0
230
1
100
AcDbArc
50
159.5
51
245.799121
0
ARC
5
107
100
AcDbEntity
8
1
62
256
6
ByLayer
370
18
48
1
60
0
100
AcDbCircle
39
0
10
49.990918
20
20.41824
30
0
40
1.6
210
0
220
0
230
1
100
AcDbArc
50
355.221391
51
50.5
0
ARC
5
108
100
AcDbEntity
8
1
62
256
6
ByLayer
370
18
48
1
60
0
100
AcDbCircle
39
0
10
44.694213
20
37.365012
30
0
40
11
210
0
220
0
230
1
100
AcDbArc
50
306.313317
51
322
0
ARC
5
109
100
AcDbEntity
8
1
62
256
6
ByLayer
370
18
48
1
60
0
100
AcDbCircle
39
0
10
49.990918
20
20.41824
30
0
40
3.2
210
0
220
0
230
1
100
AcDbArc
50
355.221391
51
50.5
0
ARC
5
10A
100
AcDbEntity
8
1
62
256
6
ByLayer
370
18
48
1
60
0
100
AcDbCircle
39
0
10
56.233597
20
22.882505
30
0
40
1.5
210
0
220
0
230
1
100
AcDbArc
50
253.200879
51
339.5
0
ARC
5
10B
100
AcDbEntity
8
1
62
256
6
ByLayer
370
18
48
1
60
0
100
AcDbCircle
39
0
10
56.233597
20
22.882505
30
0
40
1.6
210
0
220
0
230
1
100
AcDbArc
50
159.5
51
245.916678
0
ARC
5
10C
100
AcDbEntity
8
1
62
256
6
ByLayer
370
18
48
1
60
0
100
AcDbCircle
39
0
10
44.694213
20
37.365012
30
0
40
11
210
0
220
0
230
1
100
AcDbArc
50
270
51
273.020227
0
ARC
5
10D
100
AcDbEntity
8
1
62
256
6
ByLayer
370
18
48
1
60
0
100
AcDbCircle
39
0
10
44.694213
20
37.365012
30
0
40
11
210
0
220
0
230
1
100
AcDbArc
50
284.230488
51
302.492886
0
ARC
5
10E
100
AcDbEntity
8
SK1
62
256
6
ByLayer
370
18
48
1
60
0
100
AcDbCircle
39
0
10
-0.6
20
23.45
30
0
40
0.999999999999994
210
0
220
0
230
1
100
AcDbArc
50
293.578178
51
306.869898
0
ARC
5
10F
100
AcDbEntity
8
SK1
62
256
6
ByLayer
370
18
48
1
60
0
100
AcDbCircle
39
0
10
-0.6
20
-23.45
30
0
40
0.999999999999994
210
0
220
0
230
1
100
AcDbArc
50
53.130102
51
66.421822
0
ARC
5
110
100
AcDbEntity
8
2
62
256
6
ByLayer
370
13
48
1
60
0
100
AcDbCircle
39
0
10
65
20
45.042691
30
0
40
12.4404027865335
210
0
220
0
230
1
100
AcDbArc
50
90
51
183
0
CIRCLE
5
F8
100
AcDbEntity
8
1
62
256
6
ByLayer
370
18
48
1
60
0
100
AcDbCircle
10
60.472202
20
34.219168
30
0
40
2.2
39
0
210
0
220
0
230
1
0
CIRCLE
5
F9
100
AcDbEntity
8
1
62
256
6
ByLayer
370
18
48
1
60
0
100
AcDbCircle
10
60.472202
20
34.219168
30
0
40
1.5
39
0
210
0
220
0
230
1
0
CIRCLE
5
FF
100
AcDbEntity
8
1
62
256
6
ByLayer
370
18
48
1
60
0
100
AcDbCircle
10
60.472202
20
34.219168
30
0
40
2.20386856458403
39
0
210
0
220
0
230
1
0
CIRCLE
5
101
100
AcDbEntity
8
1
62
256
6
ByLayer
370
18
48
1
60
0
100
AcDbCircle
10
60.472202
20
34.219168
30
0
40
2.28743682147945
39
0
210
0
220
0
230
1
0
CIRCLE
5
103
100
AcDbEntity
8
1
62
256
6
ByLayer
370
18
48
1
60
0
100
AcDbCircle
10
60.472202
20
34.219168
30
0
40
2.32
39
0
210
0
220
0
230
1
0
ELLIPSE
5
111
100
AcDbEntity
8
1
62
256
6
ByLayer
370
18
48
1
60
0
100
AcDbEllipse
10
57.717872
20
35.24897
30
0
11
-1.12026064499283
21
0.418848292192575
31
0
210
0
220
0
230
1
40
0.995819
41
-0.30423303858473
42
0.304233038584723
0
ELLIPSE
5
112
100
AcDbEntity
8
1
62
256
6
ByLayer
370
18
48
1
60
0
100
AcDbEllipse
10
63.226531
20
33.189367
30
0
11
1.12026064499283
21
-0.418848292192576
31
0
210
0
220
0
230
1
40
0.995819
41
-0.304233038584725
42
0.304233038584736
0
ELLIPSE
5
113
100
AcDbEntity
8
1
62
256
6
ByLayer
370
18
48
1
60
0
100
AcDbEllipse
10
24.755893
20
0
30
0
11
1.93793955490991E-15
21
31.6499999997714
31
0
210
0
220
0
230
1
40
0.087489
41
2.38750352230985
42
2.6456140207545
0
ELLIPSE
5
114
100
AcDbEntity
8
1
62
256
6
ByLayer
370
18
48
1
60
0
100
AcDbEllipse
10
24.755893
20
0
30
0
11
1.92875500727097E-15
21
31.5000000000119
31
0
210
0
220
0
230
1
40
0.087489
41
1.11676672625338
42
2.02482592733641
0
ELLIPSE
5
115
100
AcDbEntity
8
1
62
256
6
ByLayer
370
18
48
1
60
0
100
AcDbEllipse
10
-2.347154
20
0
30
0
11
14.7536831606567
21
-31.0932549155818
31
0
210
0
220
0
230
1
40
0.341999
41
0.157806186645432
42
1.09123958575281
0
ELLIPSE
5
116
100
AcDbEntity
8
1
62
256
6
ByLayer
370
18
48
1
60
0
100
AcDbEllipse
10
44.694181
20
37.365054
30
0
11
6.50398252665453
21
-8.87126646187723
31
0
210
0
220
0
230
1
40
0.999998
41
-0.00974542082917863
42
0.00115634381647021
0
ELLIPSE
5
117
100
AcDbEntity
8
1
62
256
6
ByLayer
370
18
48
1
60
0
100
AcDbEllipse
10
44.694213
20
37.365012
30
0
11
9.11065395921119
21
6.16408803990955
31
0
210
0
220
0
230
1
40
1
41
-1.59852293285109
42
-1.54274562473559
0
ELLIPSE
5
118
100
AcDbEntity
8
1
62
256
6
ByLayer
370
18
48
1
60
0
100
AcDbEllipse
10
26.347154
20
0
30
0
11
14.7536831606568
21
31.0932549155815
31
0
210
0
220
0
230
1
40
0.341999
41
2.05035306783699
42
2.98378646694436
0
ELLIPSE
5
119
100
AcDbEntity
8
1
62
256
6
ByLayer
370
18
48
1
60
0
100
AcDbEllipse
10
24.755893
20
0
30
0
11
1.93793955491549E-15
21
31.6499999998624
31
0
210
0
220
0
230
1
40
0.087489
41
0.495978632835212
42
0.754089131279262
0
ELLIPSE
5
11A
100
AcDbEntity
8
1
62
256
6
ByLayer
370
18
48
1
60
0
100
AcDbEllipse
10
26.347154
20
0
30
0
11
14.7536831606566
21
-31.0932549155813
31
0
210
0
220
0
230
1
40
0.341999
41
-2.98378646694437
42
-2.05035306783698
0
ELLIPSE
5
11B
100
AcDbEntity
8
1
62
256
6
ByLayer
370
18
48
1
60
0
100
AcDbEllipse
10
-2.347154
20
0
30
0
11
14.7536831606574
21
31.0932549155828
31
0
210
0
220
0
230
1
40
0.341999
41
-1.09123958575278
42
-0.157806186645432
0
POINT
5
70
100
AcDbEntity
8
81
62
256
6
ByLayer
370
18
48
1
60
0
100
AcDbPoint
10
65
20
45
30
0
39
0
210
0
220
0
230
1
50
360
0
POINT
5
72
100
AcDbEntity
8
80
62
256
6
ByLayer
370
18
48
1
60
0
100
AcDbPoint
10
0
20
0
30
0
39
0
210
0
220
0
230
1
50
360
0
POINT
5
74
100
AcDbEntity
8
1
62
256
6
ByLayer
370
18
48
1
60
1
100
AcDbPoint
10
65
20
45
30
0
39
0
210
0
220
0
230
1
50
360
0
POINT
5
76
100
AcDbEntity
8
1
62
256
6
ByLayer
370
18
48
1
60
1
100
AcDbPoint
10
0
20
31.5
30
0
39
0
210
0
220
0
230
1
50
360
0
SPLINE
5
11C
100
AcDbEntity
8
1
62
256
6
ByLayer
370
18
48
1
60
0
100
AcDbSpline
70
4
71
3
72
16
73
12
40
0
40
0
40
0
40
0
40
0.249999999999993
40
0.249999999999993
40
0.499999999999985
40
0.499999999999985
40
0.749999999999978
40
0.749999999999978
40
0.874999999999989
40
0.874999999999989
40
1
40
1
40
1
40
1
41
1
10
60.7048694375315
20
32.8288014171937
30
0
41
1
10
60.6675380670845
20
32.8225542882626
30
0
41
1
10
60.629660291226
20
32.8195026457635
30
0
41
1
10
60.5540596650861
20
32.8208069146374
30
0
41
1
10
60.516285270896
20
32.8250927769713
30
0
41
1
10
60.4440687094886
20
32.8445466759615
30
0
41
1
10
60.4090324449114
20
32.8597414637094
30
0
41
1
10
60.3704042098809
20
32.8964386611383
30
0
41
1
10
60.3603400639727
20
32.911056635096
30
0
41
1
10
60.3498864898824
20
32.9426215727038
30
0
41
1
10
60.3495292447845
20
32.9593757239945
30
0
41
1
10
60.3533434973667
20
32.9754661173276
30
0
0
SPLINE
5
11D
100
AcDbEntity
8
1
62
256
6
ByLayer
370
18
48
1
60
0
100
AcDbSpline
70
4
71
3
72
8
73
4
40
0
40
0
40
0
40
0
40
1
40
1
40
1
40
1
41
1
10
59.2286707873782
20
34.3398032123997
30
0
41
1
10
59.2347978471827
20
34.3371579698505
30
0
41
1
10
59.2409260264619
20
34.3345122439892
30
0
41
1
10
59.2470553771698
20
34.3318660123855
30
0
0
SPLINE
5
11E
100
AcDbEntity
8
1
62
256
6
ByLayer
370
18
48
1
60
0
100
AcDbSpline
70
4
71
3
72
16
73
12
40
0
40
0
40
0
40
0
40
0.250000000000008
40
0.250000000000008
40
0.500000000000016
40
0.500000000000016
40
0.750000000000024
40
0.750000000000024
40
0.875000000000012
40
0.875000000000012
40
1
40
1
40
1
40
1
41
1
10
61.5599610027513
20
35.1158476968063
30
0
41
1
10
61.5840368603299
20
35.0866413461068
30
0
41
1
10
61.6056185481867
20
35.055364051224
30
0
41
1
10
61.6422893312784
20
34.9892398540078
30
0
41
1
10
61.6574648627151
20
34.9543833378597
30
0
41
1
10
61.6767255726907
20
34.8821150116119
30
0
41
1
10
61.6810846327846
20
34.8441753225603
30
0
41
1
10
61.6686180450786
20
34.7923736910061
30
0
41
1
10
61.6609905812335
20
34.7763488980033
30
0
41
1
10
61.6388813304415
20
34.7515133684769
30
0
41
1
10
61.6245504323538
20
34.7428269095014
30
0
41
1
10
61.6087086166793
20
34.7380849524674
30
0
0
SPLINE
5
11F
100
AcDbEntity
8
1
62
256
6
ByLayer
370
18
48
1
60
0
100
AcDbSpline
70
4
71
3
72
20
73
16
40
0
40
0
40
0
40
0
40
0.125000000000001
40
0.125000000000001
40
0.250000000000003
40
0.250000000000003
40
0.375000000000004
40
0.375000000000004
40
0.500000000000005
40
0.500000000000005
40
0.750000000000008
40
0.750000000000008
40
0.875000000000004
40
0.875000000000004
40
1
40
1
40
1
40
1
41
1
10
59.9572277451327
20
35.3365250704144
30
0
41
1
10
59.9603158477226
20
35.3100323733145
30
0
41
1
10
59.9552057262197
20
35.2827470754629
30
0
41
1
10
59.9369454537028
20
35.2298248736798
30
0
41
1
10
59.9237263236445
20
35.2043159203386
30
0
41
1
10
59.892359125211
20
35.1555436378584
30
0
41
1
10
59.8739371700641
20
35.1320293131293
30
0
41
1
10
59.8340627561407
20
35.0882473352466
30
0
41
1
10
59.8124346484897
20
35.0677127672633
30
0
41
1
10
59.7425833324659
20
35.0100493686081
30
0
41
1
10
59.6910277264398
20
34.9779523860743
30
0
41
1
10
59.6097258140044
20
34.9455023949946
30
0
41
1
10
59.5819149603583
20
34.9373563228164
30
0
41
1
10
59.5265689719984
20
34.9296019656594
30
0
41
1
10
59.4989901642988
20
34.9298159078564
30
0
41
1
10
59.4736356663814
20
34.9378825240109
30
0
0
SPLINE
5
120
100
AcDbEntity
8
1
62
256
6
ByLayer
370
18
48
1
60
0
100
AcDbSpline
70
4
71
3
72
8
73
4
40
0
40
0
40
0
40
0
40
1
40
1
40
1
40
1
41
1
10
61.4898502864963
20
33.4943828401143
30
0
41
1
10
61.4834907005051
20
33.4964061631263
30
0
41
1
10
61.4771299525542
20
33.4984298558195
30
0
41
1
10
61.470767988718
20
33.5004539353506
30
0
0
SPLINE
5
121
100
AcDbEntity
8
1
62
256
6
ByLayer
370
18
48
1
60
0
100
AcDbSpline
70
4
71
3
72
8
73
4
40
0
40
0
40
0
40
0
40
1
40
1
40
1
40
1
41
1
10
60.5910601577327
20
35.4628703420339
30
0
41
1
10
60.5924877015999
20
35.4563511175019
30
0
41
1
10
60.5939155062936
20
35.4498307018428
30
0
41
1
10
60.5953435839185
20
35.4433090397771
30
0
0
SPLINE
5
122
100
AcDbEntity
8
1
62
256
6
ByLayer
370
18
48
1
60
0
100
AcDbSpline
70
4
71
3
72
16
73
12
40
0
40
0
40
0
40
0
40
0.25000000000001
40
0.25000000000001
40
0.500000000000021
40
0.500000000000021
40
0.750000000000031
40
0.750000000000031
40
0.875000000000016
40
0.875000000000016
40
1
40
1
40
1
40
1
41
1
10
61.7926286127331
20
33.7254808843193
30
0
41
1
10
61.7793730998648
20
33.6900274046886
30
0
41
1
10
61.763077011863
20
33.6556984673067
30
0
41
1
10
61.7241471688149
20
33.5908785389645
30
0
41
1
10
61.7015483060615
20
33.5603078851503
30
0
41
1
10
61.6485924546297
20
33.5074934578926
30
0
41
1
10
61.6179152501462
20
33.4847485565889
30
0
41
1
10
61.5668204274099
20
33.4696441224636
30
0
41
1
10
61.5491288176565
20
33.4682373034186
30
0
41
1
10
61.5165659927741
20
33.4749667115
30
0
41
1
10
61.5018778495886
20
33.4830344038151
30
0
41
1
10
61.4898502864963
20
33.4943828401143
30
0
0
SPLINE
5
123
100
AcDbEntity
8
1
62
256
6
ByLayer
370
18
48
1
60
0
100
AcDbSpline
70
4
71
3
72
8
73
4
40
0
40
0
40
0
40
0
40
1
40
1
40
1
40
1
41
1
10
60.3533434973667
20
32.9754661173276
30
0
41
1
10
60.3519159534995
20
32.9819853418596
30
0
41
1
10
60.3504881488058
20
32.9885057575187
30
0
41
1
10
60.3490600711809
20
32.9950274195844
30
0
0
SPLINE
5
124
100
AcDbEntity
8
1
62
256
6
ByLayer
370
18
48
1
60
0
100
AcDbSpline
70
4
71
3
72
8
73
4
40
0
40
0
40
0
40
0
40
1
40
1
40
1
40
1
41
1
10
60.9871759099671
20
33.101811388943
30
0
41
1
10
60.987948881528
20
33.0951800997194
30
0
41
1
10
60.9887217053603
20
33.0885500778541
30
0
41
1
10
60.9894943880157
20
33.0819212671383
30
0
0
SPLINE
5
125
100
AcDbEntity
8
1
62
256
6
ByLayer
370
18
48
1
60
0
100
AcDbSpline
70
4
71
3
72
16
73
12
40
0
40
0
40
0
40
0
40
0.125000000000023
40
0.125000000000023
40
0.250000000000045
40
0.250000000000045
40
0.50000000000003
40
0.50000000000003
40
0.750000000000015
40
0.750000000000015
40
1
40
1
40
1
40
1
41
1
10
61.7157328677212
20
34.0985332469618
30
0
41
1
10
61.7322701110161
20
34.0992078281009
30
0
41
1
10
61.7486561136279
20
34.0956874123477
30
0
41
1
10
61.7779224383805
20
34.0791668549636
30
0
41
1
10
61.7902590609405
20
34.066419284015
30
0
41
1
10
61.8185327504141
20
34.0219854365196
30
0
41
1
10
61.8269586940122
20
33.9843926825181
30
0
41
1
10
61.8322507873788
20
33.9096980153347
30
0
41
1
10
61.8292213431019
20
33.871759307457
30
0
41
1
10
61.8160824248397
20
33.7974552318848
30
0
41
1
10
61.8058811126534
20
33.7609263054544
30
0
41
1
10
61.7926286127331
20
33.7254808843193
30
0
0
SPLINE
5
126
100
AcDbEntity
8
1
62
256
6
ByLayer
370
18
48
1
60
0
100
AcDbSpline
70
4
71
3
72
18
73
14
40
0
40
0
40
0
40
0
40
0.125
40
0.125
40
0.25
40
0.25
40
0.375
40
0.375
40
0.5
40
0.5
40
0.75
40
0.75
40
1
40
1
40
1
40
1
41
1
10
59.454553368603
20
34.9439536192472
30
0
41
1
10
59.4425218618836
20
34.9553057764998
30
0
41
1
10
59.4277658024001
20
34.9634158457105
30
0
41
1
10
59.3950312890419
20
34.9701179375074
30
0
41
1
10
59.3773320332222
20
34.9686241353337
30
0
41
1
10
59.3436847026494
20
34.9586653280753
30
0
41
1
10
59.327268320459
20
34.9502603103661
30
0
41
1
10
59.2966637499332
20
34.9296696959726
30
0
41
1
10
59.2824559787069
20
34.9175352861775
30
0
41
1
10
59.2427488930774
20
34.8778985704057
30
0
41
1
10
59.2201491239455
20
34.8472999826846
30
0
41
1
10
59.1812681610363
20
34.782519702196
30
0
41
1
10
59.1650189496577
20
34.7482780141476
30
0
41
1
10
59.1517750423662
20
34.7128555750422
30
0
0
SPLINE
5
127
100
AcDbEntity
8
1
62
256
6
ByLayer
370
18
48
1
60
0
100
AcDbSpline
70
4
71
3
72
8
73
4
40
0
40
0
40
0
40
0
40
1
40
1
40
1
40
1
41
1
10
59.33569503842
20
33.7002515068941
30
0
41
1
10
59.3406270805441
20
33.7047474084141
30
0
41
1
10
59.3455600238013
20
33.70924413138
30
0
41
1
10
59.3504939100126
20
33.7137417139146
30
0
0
SPLINE
5
128
100
AcDbEntity
8
1
62
256
6
ByLayer
370
18
48
1
60
0
100
AcDbSpline
70
4
71
3
72
16
73
12
40
0
40
0
40
0
40
0
40
0.249999999999993
40
0.249999999999993
40
0.499999999999985
40
0.499999999999985
40
0.749999999999978
40
0.749999999999978
40
0.874999999999989
40
0.874999999999989
40
1
40
1
40
1
40
1
41
1
10
60.2395342175679
20
35.6095350421678
30
0
41
1
10
60.2768655880148
20
35.6157821710989
30
0
41
1
10
60.3147433638733
20
35.618833813598
30
0
41
1
10
60.3903439900133
20
35.6175295447241
30
0
41
1
10
60.4281183842033
20
35.6132436823902
30
0
41
1
10
60.5003349456108
20
35.5937897834
30
0
41
1
10
60.535371210188
20
35.5785949956521
30
0
41
1
10
60.5739994452185
20
35.5418977982232
30
0
41
1
10
60.5840635911267
20
35.5272798242655
30
0
41
1
10
60.594517165217
20
35.4957148866576
30
0
41
1
10
60.5948744103148
20
35.478960735367
30
0
41
1
10
60.5910601577327
20
35.4628703420339
30
0
0
SPLINE
5
129
100
AcDbEntity
8
1
62
256
6
ByLayer
370
18
48
1
60
0
100
AcDbSpline
70
4
71
3
72
8
73
4
40
0
40
0
40
0
40
0
40
1
40
1
40
1
40
1
41
1
10
61.6087086166793
20
34.7380849524674
30
0
41
1
10
61.6037765745553
20
34.7335890509474
30
0
41
1
10
61.5988436312981
20
34.7290923279815
30
0
41
1
10
61.5939097450868
20
34.7245947454469
30
0
0
SPLINE
5
12A
100
AcDbEntity
8
1
62
256
6
ByLayer
370
18
48
1
60
0
100
AcDbSpline
70
4
71
3
72
16
73
12
40
0
40
0
40
0
40
0
40
0.124999999999993
40
0.124999999999993
40
0.249999999999986
40
0.249999999999986
40
0.499999999999991
40
0.499999999999991
40
0.749999999999995
40
0.749999999999995
40
1
40
1
40
1
40
1
41
1
10
60.9894943880157
20
33.0819212671383
30
0
41
1
10
60.9983472140665
20
33.0679368849058
30
0
41
1
10
61.0034914458983
20
33.051985982501
30
0
41
1
10
61.0038173858953
20
33.0183803230978
30
0
41
1
10
60.9989459768972
20
33.0013227090895
30
0
41
1
10
60.9746019809152
20
32.954620051999
30
0
41
1
10
60.9462586727507
20
32.9285265937915
30
0
41
1
10
60.884217240126
20
32.8865961729052
30
0
41
1
10
60.8498466331787
20
32.8702503946693
30
0
41
1
10
60.7789279569973
20
32.8444769938766
30
0
41
1
10
60.7421923226425
20
32.8350471261666
30
0
41
1
10
60.7048694375315
20
32.8288014171937
30
0
0
SPLINE
5
12B
100
AcDbEntity
8
1
62
256
6
ByLayer
370
18
48
1
60
0
100
AcDbSpline
70
4
71
3
72
16
73
12
40
0
40
0
40
0
40
0
40
0.125000000000001
40
0.125000000000001
40
0.250000000000002
40
0.250000000000002
40
0.500000000000001
40
0.500000000000001
40
0.75
40
0.75
40
1
40
1
40
1
40
1
41
1
10
61.198440307255
20
35.2357802095042
30
0
41
1
10
61.2061247244992
20
35.2504391728758
30
0
41
1
10
61.2173664952792
20
35.2628696595274
30
0
41
1
10
61.2463068800349
20
35.2799547615465
30
0
41
1
10
61.2635149115929
20
35.2842648046062
30
0
41
1
10
61.3161325970486
20
35.2865336142014
30
0
41
1
10
61.3529018488111
20
35.2750343184074
30
0
41
1
10
61.4202353748025
20
35.2422700721103
30
0
41
1
10
61.4515765374729
20
35.2206771424684
30
0
41
1
10
61.5093562953921
20
35.1721464676889
30
0
41
1
10
61.5358906175607
20
35.1450474089685
30
0
41
1
10
61.5599610027513
20
35.1158476968063
30
0
0
SPLINE
5
12C
100
AcDbEntity
8
1
62
256
6
ByLayer
370
18
48
1
60
0
100
AcDbSpline
70
4
71
3
72
8
73
4
40
0
40
0
40
0
40
0
40
1
40
1
40
1
40
1
41
1
10
59.4736356663814
20
34.9378825240109
30
0
41
1
10
59.4672737025452
20
34.939906603542
30
0
41
1
10
59.4609129545943
20
34.9419302962352
30
0
41
1
10
59.454553368603
20
34.9439536192472
30
0
0
SPLINE
5
12D
100
AcDbEntity
8
1
62
256
6
ByLayer
370
18
48
1
60
0
100
AcDbSpline
70
4
71
3
72
18
73
14
40
0
40
0
40
0
40
0
40
0.124999999999988
40
0.124999999999988
40
0.249999999999976
40
0.249999999999976
40
0.499999999999984
40
0.499999999999984
40
0.749999999999992
40
0.749999999999992
40
0.874999999999996
40
0.874999999999996
40
1
40
1
40
1
40
1
41
1
10
61.5939097450868
20
34.7245947454469
30
0
41
1
10
61.5742946583533
20
34.7067142213067
30
0
41
1
10
61.5602860660666
20
34.6829238563603
30
0
41
1
10
61.5393127089682
20
34.6310856120978
30
0
41
1
10
61.5324882014292
20
34.6030147295876
30
0
41
1
10
61.5199450212637
20
34.5166614496774
30
0
41
1
10
61.5219235793255
20
34.4558508906247
30
0
41
1
10
61.5418484483793
20
34.3369136726952
30
0
41
1
10
61.5597081194583
20
34.2789856827332
30
0
41
1
10
61.5997583780796
20
34.2013109246765
30
0
41
1
10
61.615390540961
20
34.1769674823694
30
0
41
1
10
61.6520328227659
20
34.1348928085635
30
0
41
1
10
61.6729592675485
20
34.1169999423705
30
0
41
1
10
61.6973482779296
20
34.1064704469759
30
0
0
SPLINE
5
12E
100
AcDbEntity
8
1
62
256
6
ByLayer
370
18
48
1
60
0
100
AcDbSpline
70
4
71
3
72
8
73
4
40
0
40
0
40
0
40
0
40
1
40
1
40
1
40
1
41
1
10
59.7620294595872
20
33.2145091716479
30
0
41
1
10
59.7566730804402
20
33.2105241140279
30
0
41
1
10
59.7513177249933
20
33.2065398180238
30
0
41
1
10
59.7459633478443
20
33.2025562498573
30
0
0
SPLINE
5
12F
100
AcDbEntity
8
1
62
256
6
ByLayer
370
18
48
1
60
0
100
AcDbSpline
70
4
71
3
72
18
73
14
40
0
40
0
40
0
40
0
40
0.125000000000002
40
0.125000000000002
40
0.250000000000004
40
0.250000000000004
40
0.500000000000008
40
0.500000000000008
40
0.750000000000011
40
0.750000000000011
40
0.875000000000006
40
0.875000000000006
40
1
40
1
40
1
40
1
41
1
10
61.470767988718
20
33.5004539353506
30
0
41
1
10
61.4454754572129
20
33.5085008366891
30
0
41
1
10
61.4178681006607
20
33.5087374510074
30
0
41
1
10
61.3624881856925
20
33.500981788926
30
0
41
1
10
61.3347658345625
20
33.492856544568
30
0
41
1
10
61.2537101103774
20
33.4605426172805
30
0
41
1
10
61.2020359004503
20
33.4284238562097
30
0
41
1
10
61.1089956827948
20
33.3516998044774
30
0
41
1
10
61.0677584074372
20
33.3072688806387
30
0
41
1
10
61.0205152230379
20
33.2337469602162
30
0
41
1
10
61.0072492650251
20
33.2080373888912
30
0
41
1
10
60.9891326695556
20
33.1552669050926
30
0
41
1
10
60.9841002152772
20
33.1281976392035
30
0
41
1
10
60.9871759099671
20
33.101811388943
30
0
0
SPLINE
5
130
100
AcDbEntity
8
1
62
256
6
ByLayer
370
18
48
1
60
0
100
AcDbSpline
70
4
71
3
72
8
73
4
40
0
40
0
40
0
40
0
40
1
40
1
40
1
40
1
41
1
10
59.9572277451323
20
35.3365250704185
30
0
41
1
10
59.9564547735713
20
35.3431563596421
30
0
41
1
10
59.9556819497391
20
35.3497863815074
30
0
41
1
10
59.9549092670836
20
35.3564151922232
30
0
0
SPLINE
5
131
100
AcDbEntity
8
1
62
256
6
ByLayer
370
18
48
1
60
0
100
AcDbSpline
70
4
71
3
72
18
73
14
40
0
40
0
40
0
40
0
40
0.125
40
0.125
40
0.25
40
0.25
40
0.5
40
0.5
40
0.75
40
0.75
40
0.875
40
0.875
40
1
40
1
40
1
40
1
41
1
10
59.2470553771698
20
34.3318660123855
30
0
41
1
10
59.2714507626104
20
34.3213337646793
30
0
41
1
10
59.2924614620129
20
34.3033724350028
30
0
41
1
10
59.3291987608315
20
34.2611227091978
30
0
41
1
10
59.3447989807573
20
34.2367677869545
30
0
41
1
10
59.384787053014
20
34.1590919778407
30
0
41
1
10
59.4027083211985
20
34.1008669170026
30
0
41
1
10
59.4225376629595
20
33.9817798859477
30
0
41
1
10
59.4244479277014
20
33.9216093197595
30
0
41
1
10
59.4119227517025
20
33.8353679657448
30
0
41
1
10
59.4051006848958
20
33.8073360126526
30
0
41
1
10
59.3842752380716
20
33.7557416459993
30
0
41
1
10
59.3702320088211
20
33.7317343721691
30
0
41
1
10
59.3504939100126
20
33.7137417139146
30
0
0
SPLINE
5
132
100
AcDbEntity
8
1
62
256
6
ByLayer
370
18
48
1
60
0
100
AcDbSpline
70
4
71
3
72
16
73
12
40
0
40
0
40
0
40
0
40
0.124999999999993
40
0.124999999999993
40
0.249999999999986
40
0.249999999999986
40
0.499999999999991
40
0.499999999999991
40
0.749999999999995
40
0.749999999999995
40
1
40
1
40
1
40
1
41
1
10
59.9549092670836
20
35.3564151922232
30
0
41
1
10
59.9460564410328
20
35.3703995744557
30
0
41
1
10
59.940912209201
20
35.3863504768605
30
0
41
1
10
59.9405862692041
20
35.4199561362638
30
0
41
1
10
59.9454576782021
20
35.4370137502719
30
0
41
1
10
59.9698016741842
20
35.4837164073625
30
0
41
1
10
59.9981449823487
20
35.50980986557
30
0
41
1
10
60.0601864149734
20
35.5517402864564
30
0
41
1
10
60.0945570219207
20
35.5680860646922
30
0
41
1
10
60.1654756981021
20
35.5938594654849
30
0
41
1
10
60.2022113324569
20
35.6032893331949
30
0
41
1
10
60.2395342175679
20
35.6095350421678
30
0
0
SPLINE
5
133
100
AcDbEntity
8
1
62
256
6
ByLayer
370
18
48
1
60
0
100
AcDbSpline
70
4
71
3
72
8
73
4
40
0
40
0
40
0
40
0
40
1
40
1
40
1
40
1
41
1
10
61.1823741955121
20
35.2238272877136
30
0
41
1
10
61.1877305746592
20
35.2278123453336
30
0
41
1
10
61.1930859301061
20
35.2317966413377
30
0
41
1
10
61.198440307255
20
35.2357802095042
30
0
0
SPLINE
5
134
100
AcDbEntity
8
1
62
256
6
ByLayer
370
18
48
1
60
0
100
AcDbSpline
70
4
71
3
72
18
73
14
40
0
40
0
40
0
40
0
40
0.124999999999982
40
0.124999999999982
40
0.249999999999964
40
0.249999999999964
40
0.499999999999967
40
0.499999999999967
40
0.749999999999969
40
0.749999999999969
40
0.874999999999985
40
0.874999999999985
40
1
40
1
40
1
40
1
41
1
10
60.5953435839185
20
35.4433090397771
30
0
41
1
10
60.6010210286902
20
35.4173816142983
30
0
41
1
10
60.6146197929557
20
35.3933546350337
30
0
41
1
10
60.6490263508254
20
35.3492720528525
30
0
41
1
10
60.6699241944164
20
35.3293264147003
30
0
41
1
10
60.7384367384359
20
35.2752870620776
30
0
41
1
10
60.7920895064249
20
35.2465952640956
30
0
41
1
10
60.9050545931341
20
35.2043820978986
30
0
41
1
10
60.9641515395709
20
35.1908850317753
30
0
41
1
10
61.0514449825914
20
35.1867321941411
30
0
41
1
10
61.0803431034856
20
35.1880983231589
30
0
41
1
10
61.1351019807599
20
35.1987941331517
30
0
41
1
10
61.161060879821
20
35.2079705328477
30
0
41
1
10
61.1823741955121
20
35.2238272877136
30
0
0
SPLINE
5
135
100
AcDbEntity
8
1
62
256
6
ByLayer
370
18
48
1
60
0
100
AcDbSpline
70
4
71
3
72
16
73
12
40
0
40
0
40
0
40
0
40
0.25
40
0.25
40
0.5
40
0.5
40
0.75
40
0.75
40
0.875
40
0.875
40
1
40
1
40
1
40
1
41
1
10
59.384442652348
20
33.3224887625552
30
0
41
1
10
59.3603667947694
20
33.3516951132547
30
0
41
1
10
59.3387851069127
20
33.3829724081375
30
0
41
1
10
59.3021143238209
20
33.4490966053537
30
0
41
1
10
59.2869387923841
20
33.4839531215018
30
0
41
1
10
59.2676780824086
20
33.5562214477497
30
0
41
1
10
59.2633190223148
20
33.5941611368012
30
0
41
1
10
59.2757856100207
20
33.6459627683554
30
0
41
1
10
59.2834130738659
20
33.6619875613581
30
0
41
1
10
59.3055223246579
20
33.6868230908846
30
0
41
1
10
59.3198532227456
20
33.6955095498601
30
0
41
1
10
59.33569503842
20
33.7002515068941
30
0
0
SPLINE
5
136
100
AcDbEntity
8
1
62
256
6
ByLayer
370
18
48
1
60
0
100
AcDbSpline
70
4
71
3
72
16
73
12
40
0
40
0
40
0
40
0
40
0.250000000000009
40
0.250000000000009
40
0.500000000000018
40
0.500000000000018
40
0.750000000000027
40
0.750000000000027
40
0.875000000000014
40
0.875000000000014
40
1
40
1
40
1
40
1
41
1
10
59.1517750423662
20
34.7128555750422
30
0
41
1
10
59.1385306513869
20
34.6774318422549
30
0
41
1
10
59.1282976100076
20
34.6408070194527
30
0
41
1
10
59.1151519307372
20
34.5663457228298
30
0
41
1
10
59.1121510436284
20
34.5284471217726
30
0
41
1
10
59.1174674427013
20
34.4538443781961
30
0
41
1
10
59.1256975873895
20
34.4165520106073
30
0
41
1
10
59.1543499176437
20
34.371630414693
30
0
41
1
10
59.1667790407869
20
34.3589616423368
30
0
41
1
10
59.1957696537401
20
34.3426768504591
30
0
41
1
10
59.2121480241474
20
34.3391292219261
30
0
41
1
10
59.2286707873782
20
34.3398032123997
30
0
0
SPLINE
5
137
100
AcDbEntity
8
1
62
256
6
ByLayer
370
18
48
1
60
0
100
AcDbSpline
70
4
71
3
72
18
73
14
40
0
40
0
40
0
40
0
40
0.124999999999982
40
0.124999999999982
40
0.249999999999964
40
0.249999999999964
40
0.499999999999967
40
0.499999999999967
40
0.749999999999969
40
0.749999999999969
40
0.874999999999985
40
0.874999999999985
40
1
40
1
40
1
40
1
41
1
10
60.3490600711809
20
32.9950274195844
30
0
41
1
10
60.3433826264092
20
33.0209548450632
30
0
41
1
10
60.3297838621437
20
33.0449818243278
30
0
41
1
10
60.295377304274
20
33.089064406509
30
0
41
1
10
60.274479460683
20
33.1090100446611
30
0
41
1
10
60.2059669166634
20
33.1630493972839
30
0
41
1
10
60.1523141486745
20
33.1917411952659
30
0
41
1
10
60.0393490619652
20
33.2339543614629
30
0
41
1
10
59.9802521155285
20
33.2474514275862
30
0
41
1
10
59.892958672508
20
33.2516042652204
30
0
41
1
10
59.8640605516138
20
33.2502381362025
30
0
41
1
10
59.8093016743394
20
33.2395423262098
30
0
41
1
10
59.7833427752784
20
33.2303659265138
30
0
41
1
10
59.7620294595872
20
33.2145091716479
30
0
0
SPLINE
5
138
100
AcDbEntity
8
1
62
256
6
ByLayer
370
18
48
1
60
0
100
AcDbSpline
70
4
71
3
72
16
73
12
40
0
40
0
40
0
40
0
40
0.125
40
0.125
40
0.25
40
0.25
40
0.5
40
0.5
40
0.75
40
0.75
40
1
40
1
40
1
40
1
41
1
10
59.7459633478443
20
33.2025562498573
30
0
41
1
10
59.7382789306001
20
33.1878972864857
30
0
41
1
10
59.7270371598201
20
33.1754667998341
30
0
41
1
10
59.6980967750645
20
33.1583816978149
30
0
41
1
10
59.6808887435064
20
33.1540716547553
30
0
41
1
10
59.6282710580508
20
33.1518028451601
30
0
41
1
10
59.5915018062882
20
33.1633021409541
30
0
41
1
10
59.5241682802969
20
33.1960663872512
30
0
41
1
10
59.4928271176264
20
33.217659316893
30
0
41
1
10
59.4350473597073
20
33.2661899916726
30
0
41
1
10
59.4085130375387
20
33.293289050393
30
0
41
1
10
59.384442652348
20
33.3224887625552
30
0
0
SPLINE
5
139
100
AcDbEntity
8
1
62
256
6
ByLayer
370
18
48
1
60
0
100
AcDbSpline
70
4
71
3
72
8
73
4
40
0
40
0
40
0
40
0
40
1
40
1
40
1
40
1
41
1
10
61.6973482779296
20
34.1064704469759
30
0
41
1
10
61.7034776286375
20
34.1038242153723
30
0
41
1
10
61.7096058079167
20
34.101178489511
30
0
41
1
10
61.7157328677212
20
34.0985332469618
30
0
0
SPLINE
5
13A
100
AcDbEntity
8
1
62
256
6
ByLayer
370
18
48
1
60
0
100
AcDbSpline
70
4
71
3
72
16
73
12
40
0
40
0
40
0
40
0
40
0.25
40
0.25
40
0.499999999999999
40
0.499999999999999
40
0.625
40
0.625
40
0.75
40
0.75
40
1
40
1
40
1
40
1
41
1
10
22.2792076144253
20
13.815598702883
30
0
41
1
10
22.3158574025273
20
14.6739578065593
30
0
41
1
10
22.3558287621216
20
15.5145912895851
30
0
41
1
10
22.4416616712251
20
17.1496022744173
30
0
41
1
10
22.4875463951775
20
17.9447758207215
30
0
41
1
10
22.5606958203191
20
19.1050167716996
30
0
41
1
10
22.5858260596266
20
19.4867083210837
30
0
41
1
10
22.6373644495774
20
20.2372314080137
30
0
41
1
10
22.6637673418707
20
20.60602602775
30
0
41
1
10
22.7448248804373
20
21.6935421291583
30
0
41
1
10
22.8013312676606
20
22.3933664699547
30
0
41
1
10
22.8601551163564
20
23.0695409606361
30
0
0
SPLINE
5
13B
100
AcDbEntity
8
1
62
256
6
ByLayer
370
18
48
1
60
0
100
AcDbSpline
70
4
71
3
72
16
73
12
40
0
40
0
40
0
40
0
40
0.124999999999995
40
0.124999999999995
40
0.249999999999991
40
0.249999999999991
40
0.499999999999994
40
0.499999999999994
40
0.749999999999997
40
0.749999999999997
40
1
40
1
40
1
40
1
41
1
10
10.5386751345949
20
-30.0805927603169
30
0
41
1
10
10.5071959726828
20
-30.0805927603169
30
0
41
1
10
10.4765695733598
20
-30.078685990659
30
0
41
1
10
10.4184736929998
20
-30.0717959485601
30
0
41
1
10
10.3920418953325
20
-30.0669872793661
30
0
41
1
10
10.318236731126
20
-30.0496472407049
30
0
41
1
10
10.2791703657593
20
-30.0350452819074
30
0
41
1
10
10.2125137122669
20
-30.0032932993814
30
0
41
1
10
10.1857347330744
20
-29.9863830332716
30
0
41
1
10
10.1400559187762
20
-29.9511519005795
30
0
41
1
10
10.1212556944726
20
-29.9327613369587
30
0
41
1
10
10.1056624327026
20
-29.913954846469
30
0
0
SPLINE
5
13C
100
AcDbEntity
8
1
62
256
6
ByLayer
370
18
48
1
60
0
100
AcDbSpline
70
4
71
3
72
16
73
12
40
0
40
0
40
0
40
0
40
0.25
40
0.25
40
0.499999999999999
40
0.499999999999999
40
0.749999999999999
40
0.749999999999999
40
0.874999999999999
40
0.874999999999999
40
1
40
1
40
1
40
1
41
1
10
10.1056624327026
20
-9.86941261896635
30
0
41
1
10
10.1212498345488
20
-9.81243201498819
30
0
41
1
10
10.1399018475136
20
-9.75655023082982
30
0
41
1
10
10.185486409689
20
-9.64780841973405
30
0
41
1
10
10.2124982207835
20
-9.59456078532622
30
0
41
1
10
10.2791799968771
20
-9.4946569987064
30
0
41
1
10
10.3189381439131
20
-9.4477803973522
30
0
41
1
10
10.3915918423741
20
-9.39323398486468
30
0
41
1
10
10.4185844965197
20
-9.37745951316353
30
0
41
1
10
10.4761894743047
20
-9.35548920253862
30
0
41
1
10
10.5072412025891
20
-9.34922131452512
30
0
41
1
10
10.5386751345949
20
-9.34922131452512
30
0
0
SPLINE
5
13D
100
AcDbEntity
8
1
62
256
6
ByLayer
370
18
48
1
60
0
100
AcDbSpline
70
4
71
3
72
12
73
8
40
0
40
0
40
0
40
0
40
0.499999999999997
40
0.499999999999997
40
0.749999999999999
40
0.749999999999999
40
1
40
1
40
1
40
1
41
1
10
23.4381386097998
20
-27.8362828301581
30
0
41
1
10
23.460038955762
20
-27.9717302104039
30
0
41
1
10
23.5052284539445
20
-28.101071620214
30
0
41
1
10
23.6086658209874
20
-28.2864523637292
30
0
41
1
10
23.6491219641291
20
-28.3468031465991
30
0
41
1
10
23.7425719092645
20
-28.464656979574
30
0
41
1
10
23.7958940265
20
-28.5224544682242
30
0
41
1
10
23.855106465052
20
-28.5780533885942
30
0
0
SPLINE
5
13E
100
AcDbEntity
8
1
62
256
6
ByLayer
370
18
48
1
60
0
100
AcDbSpline
70
4
71
3
72
10
73
6
40
0
40
0
40
0
40
0
40
0.5
40
0.5
40
1
40
1
40
1
40
1
41
1
10
22.2792076144253
20
30.1772077103125
30
0
41
1
10
22.3771527755505
20
30.063742040383
30
0
41
1
10
22.4754450473881
20
29.9545861242061
30
0
41
1
10
22.6702712407371
20
29.7463149602944
30
0
41
1
10
22.7668241741846
20
29.6472012758754
30
0
41
1
10
22.8601551163564
20
29.5546413907602
30
0
0
SPLINE
5
13F
100
AcDbEntity
8
1
62
256
6
ByLayer
370
18
48
1
60
0
100
AcDbSpline
70
4
71
3
72
8
73
4
40
0
40
0
40
0
40
0
40
1
40
1
40
1
40
1
41
1
10
55.76802792322
20
21.3517384988524
30
0
41
1
10
55.7787249328567
20
21.3833263129261
30
0
41
1
10
55.7894066065722
20
21.4149195916219
30
0
41
1
10
55.8000713790947
20
21.4465188779974
30
0
0
SPLINE
5
140
100
AcDbEntity
8
1
62
256
6
ByLayer
370
18
48
1
60
0
100
AcDbSpline
70
4
71
3
72
16
73
12
40
0
40
0
40
0
40
0
40
0.124999999999996
40
0.124999999999996
40
0.249999999999991
40
0.249999999999991
40
0.499999999999994
40
0.499999999999994
40
0.749999999999997
40
0.749999999999997
40
1
40
1
40
1
40
1
41
1
10
13.4613248654052
20
30.0805927603168
30
0
41
1
10
13.4928040273173
20
30.0805927603168
30
0
41
1
10
13.5234304266402
20
30.0786859906589
30
0
41
1
10
13.5815263070002
20
30.07179594856
30
0
41
1
10
13.6079581046676
20
30.0669872793661
30
0
41
1
10
13.6817632688741
20
30.0496472407049
30
0
41
1
10
13.7208296342407
20
30.0350452819074
30
0
41
1
10
13.7874862877331
20
30.0032932993814
30
0
41
1
10
13.8142652669256
20
29.9863830332715
30
0
41
1
10
13.8599440812238
20
29.9511519005795
30
0
41
1
10
13.8787443055273
20
29.9327613369587
30
0
41
1
10
13.8943375672974
20
29.913954846469
30
0
0
SPLINE
5
141
100
AcDbEntity
8
1
62
256
6
ByLayer
370
18
48
1
60
0
100
AcDbSpline
70
4
71
3
72
16
73
12
40
0
40
0
40
0
40
0
40
0.250000000000002
40
0.250000000000002
40
0.500000000000005
40
0.500000000000005
40
0.750000000000007
40
0.750000000000007
40
0.875000000000004
40
0.875000000000004
40
1
40
1
40
1
40
1
41
1
10
13.8943375672973
20
-29.913954846469
30
0
41
1
10
13.8787501654512
20
-29.9327542695084
30
0
41
1
10
13.8600981524864
20
-29.9510098933135
30
0
41
1
10
13.814513590311
20
-29.9862144781928
30
0
41
1
10
13.7875017792165
20
-30.0032856662984
30
0
41
1
10
13.7208200031229
20
-30.0350501233766
30
0
41
1
10
13.6810618560868
20
-30.0498069467437
30
0
41
1
10
13.6084081576259
20
-30.0668840803112
30
0
41
1
10
13.5814155034803
20
-30.0718038277879
30
0
41
1
10
13.5238105256953
20
-30.07864614904
30
0
41
1
10
13.4927587974109
20
-30.0805927603169
30
0
41
1
10
13.4613248654052
20
-30.0805927603169
30
0
0
SPLINE
5
142
100
AcDbEntity
8
1
62
256
6
ByLayer
370
18
48
1
60
0
100
AcDbSpline
70
4
71
3
72
16
73
12
40
0
40
0
40
0
40
0
40
0.124999999999998
40
0.124999999999998
40
0.249999999999997
40
0.249999999999997
40
0.499999999999998
40
0.499999999999998
40
0.749999999999999
40
0.749999999999999
40
1
40
1
40
1
40
1
41
1
10
13.4613248654052
20
-9.34922131452532
30
0
41
1
10
13.4928040273173
20
-9.34922131452532
30
0
41
1
10
13.5234304266402
20
-9.35536120669474
30
0
41
1
10
13.5815263070002
20
-9.37748487924983
30
0
41
1
10
13.6079581046675
20
-9.39290424748327
30
0
41
1
10
13.681763268874
20
-9.44829073160867
30
0
41
1
10
13.7208296342407
20
-9.49467220053427
30
0
41
1
10
13.7874862877331
20
-9.59453680346914
30
0
41
1
10
13.8142652669256
20
-9.64728479257946
30
0
41
1
10
13.8599440812238
20
-9.75611455014885
30
0
41
1
10
13.8787443055273
20
-9.81241059371445
30
0
41
1
10
13.8943375672974
20
-9.86941261896632
30
0
0
SPLINE
5
143
100
AcDbEntity
8
1
62
256
6
ByLayer
370
18
48
1
60
0
100
AcDbSpline
70
4
71
3
72
16
73
12
40
0
40
0
40
0
40
0
40
0.124999999999998
40
0.124999999999998
40
0.249999999999995
40
0.249999999999995
40
0.499999999999997
40
0.499999999999997
40
0.749999999999998
40
0.749999999999998
40
1
40
1
40
1
40
1
41
1
10
10.5386751345949
20
9.34922131452521
30
0
41
1
10
10.5071959726828
20
9.34922131452521
30
0
41
1
10
10.4765695733598
20
9.35536120669468
30
0
41
1
10
10.4184736929998
20
9.37748487924975
30
0
41
1
10
10.3920418953325
20
9.39290424748319
30
0
41
1
10
10.318236731126
20
9.44829073160861
30
0
41
1
10
10.2791703657593
20
9.49467220053424
30
0
41
1
10
10.2125137122669
20
9.59453680346914
30
0
41
1
10
10.1857347330744
20
9.64728479257946
30
0
41
1
10
10.1400559187762
20
9.75611455014888
30
0
41
1
10
10.1212556944727
20
9.81241059371439
30
0
41
1
10
10.1056624327026
20
9.86941261896629
30
0
0
SPLINE
5
144
100
AcDbEntity
8
1
62
256
6
ByLayer
370
18
48
1
60
0
100
AcDbSpline
70
4
71
3
72
10
73
6
40
0
40
0
40
0
40
0
40
0.5
40
0.5
40
1
40
1
40
1
40
1
41
1
10
23.9163275370601
20
28.6329856342526
30
0
41
1
10
23.7059765961483
20
28.7941371065138
30
0
41
1
10
23.5150513550292
20
28.952355031267
30
0
41
1
10
23.1649945295896
20
29.2603351085114
30
0
41
1
10
23.0058940735202
20
29.4101064614219
30
0
41
1
10
22.8601551163564
20
29.5546413907602
30
0
0
SPLINE
5
145
100
AcDbEntity
8
1
62
256
6
ByLayer
370
18
48
1
60
0
100
AcDbSpline
70
4
71
3
72
24
73
20
40
0
40
0
40
0
40
0
40
0.250000000000001
40
0.250000000000001
40
0.312500000000001
40
0.312500000000001
40
0.375000000000001
40
0.375000000000001
40
0.500000000000001
40
0.500000000000001
40
0.625000000000001
40
0.625000000000001
40
0.750000000000001
40
0.750000000000001
40
0.875000000000002
40
0.875000000000002
40
0.937500000000001
40
0.937500000000001
40
1
40
1
40
1
40
1
41
1
10
47.3982678715951
20
26.7025504322869
30
0
41
1
10
47.1588098231251
20
26.6418226333687
30
0
41
1
10
46.9231863869253
20
26.5906278786786
30
0
41
1
10
46.6331412298952
20
26.5370834244343
30
0
41
1
10
46.5752529243806
20
26.5268848425244
30
0
41
1
10
46.4617600573244
20
26.5077983155242
30
0
41
1
10
46.4059414760616
20
26.498868829182
30
0
41
1
10
46.2413110751774
20
26.4737855490998
30
0
41
1
10
46.1352834904097
20
26.4593332426317
30
0
41
1
10
45.9317467878264
20
26.4343659239688
30
0
41
1
10
45.8334345831342
20
26.4237944990209
30
0
41
1
10
45.6546410179665
20
26.4066524323118
30
0
41
1
10
45.5734331740069
20
26.3999787048659
30
0
41
1
10
45.432647974916
20
26.3895986956448
30
0
41
1
10
45.3755614962667
20
26.3860607301382
30
0
41
1
10
45.3155636001911
20
26.3825566169841
30
0
41
1
10
45.299921181806
20
26.3816961306636
30
0
41
1
10
45.279128629084
20
26.3805692005696
30
0
41
1
10
45.2737749994513
20
26.3802903723458
30
0
41
1
10
45.2737907297062
20
26.3802911916102
30
0
0
SPLINE
5
146
100
AcDbEntity
8
1
62
256
6
ByLayer
370
18
48
1
60
0
100
AcDbSpline
70
4
71
3
72
16
73
12
40
0
40
0
40
0
40
0
40
0.25
40
0.25
40
0.5
40
0.5
40
0.75
40
0.75
40
0.875
40
0.875
40
1
40
1
40
1
40
1
41
1
10
10.1056624327027
20
29.913954846469
30
0
41
1
10
10.1212498345488
20
29.9327542695084
30
0
41
1
10
10.1399018475136
20
29.9510098933135
30
0
41
1
10
10.185486409689
20
29.9862144781928
30
0
41
1
10
10.2124982207835
20
30.0032856662984
30
0
41
1
10
10.2791799968771
20
30.0350501233766
30
0
41
1
10
10.3189381439132
20
30.0498069467437
30
0
41
1
10
10.3915918423742
20
30.0668840803112
30
0
41
1
10
10.4185844965197
20
30.0718038277879
30
0
41
1
10
10.4761894743047
20
30.0786461490401
30
0
41
1
10
10.5072412025892
20
30.0805927603169
30
0
41
1
10
10.5386751345949
20
30.0805927603169
30
0
0
SPLINE
5
147
100
AcDbEntity
8
1
62
256
6
ByLayer
370
18
48
1
60
0
100
AcDbSpline
70
4
71
3
72
24
73
20
40
0
40
0
40
0
40
0
40
0.25
40
0.25
40
0.375000000000001
40
0.375000000000001
40
0.500000000000001
40
0.500000000000001
40
0.625000000000001
40
0.625000000000001
40
0.687500000000001
40
0.687500000000001
40
0.75
40
0.75
40
0.875
40
0.875
40
0.9375
40
0.9375
40
1
40
1
40
1
40
1
41
1
10
27.4229174021668
20
26.8356251527822
30
0
41
1
10
27.0487937127411
20
26.9487244832477
30
0
41
1
10
26.6901193377287
20
27.0788075998333
30
0
41
1
10
26.1724667883008
20
27.2963072424751
30
0
41
1
10
26.0023578573037
20
27.3730595686711
30
0
41
1
10
25.6767498907252
20
27.5296102429899
30
0
41
1
10
25.5205261436635
20
27.6096498653247
30
0
41
1
10
25.2203072338189
20
27.7721267123939
30
0
41
1
10
25.0763137671292
20
27.8545701128492
30
0
41
1
10
24.8692918866066
20
27.9790296152437
30
0
41
1
10
24.8019535760282
20
28.0205505837826
30
0
41
1
10
24.6718935840786
20
28.1025989726562
30
0
41
1
10
24.6089663204979
20
28.1432492470639
30
0
41
1
10
24.426339482736
20
28.2637442690602
30
0
41
1
10
24.3127599198284
20
28.3421563756933
30
0
41
1
10
24.1546523214779
20
28.455224499347
30
0
41
1
10
24.1040018405043
20
28.4921503997552
30
0
41
1
10
24.0069201806234
20
28.5641143995258
30
0
41
1
10
23.9603473828557
20
28.5992616921208
30
0
41
1
10
23.9163275370598
20
28.6329856342528
30
0
0
SPLINE
5
148
100
AcDbEntity
8
1
62
256
6
ByLayer
370
18
48
1
60
0
100
AcDbSpline
70
4
71
3
72
10
73
6
40
0
40
0
40
0
40
0
40
0.5
40
0.5
40
1
40
1
40
1
40
1
41
1
10
22.2792076144253
20
-30.3802062027681
30
0
41
1
10
22.3812004986505
20
-30.2635700599984
30
0
41
1
10
22.480394972975
20
-30.1501340986845
30
0
41
1
10
22.6742778407791
20
-29.9284152011205
30
0
41
1
10
22.7689392454568
20
-29.8201631284919
30
0
41
1
10
22.8601551163564
20
-29.7158512696605
30
0
0
SPLINE
5
149
100
AcDbEntity
8
1
62
256
6
ByLayer
370
18
48
1
60
0
100
AcDbSpline
70
4
71
3
72
16
73
12
40
0
40
0
40
0
40
0
40
0.125
40
0.125
40
0.250000000000001
40
0.250000000000001
40
0.500000000000001
40
0.500000000000001
40
0.75
40
0.75
40
1
40
1
40
1
40
1
41
1
10
22.8601551163564
20
-23.0695409606361
30
0
41
1
10
22.830725436601
20
-22.731249618592
30
0
41
1
10
22.8018541349352
20
-22.386805044694
30
0
41
1
10
22.7452724829062
20
-21.6851224104223
30
0
41
1
10
22.7175614921657
20
-21.3278548180752
30
0
41
1
10
22.6364442375312
20
-20.2392526218385
30
0
41
1
10
22.5849753668912
20
-19.4902020848552
30
0
41
1
10
22.4874730985304
20
-17.9435316192821
30
0
41
1
10
22.4413940922014
20
-17.144797461855
30
0
41
1
10
22.3556184443567
20
-15.5102911256221
30
0
41
1
10
22.3158233913973
20
-14.6731612463461
30
0
41
1
10
22.2792076144253
20
-13.815598702883
30
0
0
SPLINE
5
14A
100
AcDbEntity
8
1
62
256
6
ByLayer
370
18
48
1
60
0
100
AcDbSpline
70
4
71
3
72
8
73
4
40
0
40
0
40
0
40
0
40
1
40
1
40
1
40
1
41
1
10
55.5806934853703
20
21.4217799751043
30
0
41
1
10
55.5933438203469
20
21.4526374707594
30
0
41
1
10
55.6060093146048
20
21.4834890293474
30
0
41
1
10
55.6186915057476
20
21.5143340338088
30
0
0
SPLINE
5
14B
100
AcDbEntity
8
1
62
256
6
ByLayer
370
18
48
1
60
0
100
AcDbSpline
70
4
71
3
72
12
73
8
40
0
40
0
40
0
40
0
40
0.249999999999999
40
0.249999999999999
40
0.499999999999999
40
0.499999999999999
40
1
40
1
40
1
40
1
41
1
10
23.9163275370599
20
28.6329856342525
30
0
41
1
10
23.8484596583214
20
28.5747426925619
30
0
41
1
10
23.7876780444456
20
28.5143171458881
30
0
41
1
10
23.6798673358265
20
28.388954162252
30
0
41
1
10
23.6327147698508
20
28.3237976648269
30
0
41
1
10
23.5127608225953
20
28.1227567773662
30
0
41
1
10
23.4618078098313
20
27.9826700672508
30
0
41
1
10
23.4381386097998
20
27.8362828301581
30
0
0
SPLINE
5
14C
100
AcDbEntity
8
1
62
256
6
ByLayer
370
18
48
1
60
0
100
AcDbSpline
70
4
71
3
72
16
73
12
40
0
40
0
40
0
40
0
40
0.25
40
0.25
40
0.5
40
0.5
40
0.75
40
0.75
40
0.875
40
0.875
40
1
40
1
40
1
40
1
41
1
10
13.8943375672973
20
9.86941261896635
30
0
41
1
10
13.8787501654512
20
9.81243201498822
30
0
41
1
10
13.8600981524864
20
9.75655023082987
30
0
41
1
10
13.814513590311
20
9.64780841973413
30
0
41
1
10
13.7875017792165
20
9.59456078532631
30
0
41
1
10
13.7208200031229
20
9.49465699870652
30
0
41
1
10
13.6810618560869
20
9.44778039735232
30
0
41
1
10
13.6084081576259
20
9.39323398486482
30
0
41
1
10
13.5814155034803
20
9.37745951316367
30
0
41
1
10
13.5238105256953
20
9.35548920253876
30
0
41
1
10
13.4927587974109
20
9.34922131452527
30
0
41
1
10
13.4613248654052
20
9.34922131452527
30
0
0
SPLINE
5
14D
100
AcDbEntity
8
SK1
62
256
6
ByLayer
370
18
48
1
60
0
100
AcDbSpline
70
4
71
3
72
30
73
26
40
0
40
0
40
0
40
0
40
0.0312500000000001
40
0.0312500000000001
40
0.0625000000000002
40
0.0625000000000002
40
0.0937500000000004
40
0.0937500000000004
40
0.125000000000001
40
0.125000000000001
40
0.156250000000001
40
0.156250000000001
40
0.187500000000001
40
0.187500000000001
40
0.250000000000001
40
0.250000000000001
40
0.312500000000001
40
0.312500000000001
40
0.375000000000002
40
0.375000000000002
40
0.500000000000001
40
0.500000000000001
40
0.750000000000001
40
0.750000000000001
40
1
40
1
40
1
40
1
41
1
10
-0.394913799811292
20
-6.32721828439901
30
0
41
1
10
-0.411169702827039
20
-6.34154884003178
30
0
41
1
10
-0.428432689769124
20
-6.35475565889095
30
0
41
1
10
-0.465972582494857
20
-6.37782646793312
30
0
41
1
10
-0.486169045069261
20
-6.38756903357606
30
0
41
1
10
-0.528834802002649
20
-6.40107546113691
30
0
41
1
10
-0.551911827630903
20
-6.40484674033522
30
0
41
1
10
-0.59759647995736
20
-6.40444689916174
30
0
41
1
10
-0.620666657452972
20
-6.40029767867213
30
0
41
1
10
-0.663770142860585
20
-6.38592912502898
30
0
41
1
10
-0.684186273479156
20
-6.37571954267724
30
0
41
1
10
-0.72165089236654
20
-6.35216508603165
30
0
41
1
10
-0.739125153205379
20
-6.33860938748936
30
0
41
1
10
-0.788099585621694
20
-6.29500212833881
30
0
41
1
10
-0.815900527777785
20
-6.26261583511768
30
0
41
1
10
-0.866746075133193
20
-6.19452170639303
30
0
41
1
10
-0.889657313576322
20
-6.15866825589433
30
0
41
1
10
-0.931589886782064
20
-6.08609644673811
30
0
41
1
10
-0.950735693127655
20
-6.04915001273994
30
0
41
1
10
-1.00449108222139
20
-5.93690912819585
30
0
41
1
10
-1.03548744556025
20
-5.86023563385643
30
0
41
1
10
-1.12012055686517
20
-5.62666112956316
30
0
41
1
10
-1.16550143381957
20
-5.46603055324547
30
0
41
1
10
-1.24438554784462
20
-5.14161561829971
30
0
41
1
10
-1.27772950254064
20
-4.97729333579235
30
0
41
1
10
-1.30710678118655
20
-4.81115156937966
30
0
0
SPLINE
5
14E
100
AcDbEntity
8
SK1
62
256
6
ByLayer
370
18
48
1
60
0
100
AcDbSpline
70
4
71
3
72
26
73
22
40
0
40
0
40
0
40
0
40
0.250000000000001
40
0.250000000000001
40
0.500000000000002
40
0.500000000000002
40
0.625000000000001
40
0.625000000000001
40
0.75
40
0.75
40
0.8125
40
0.8125
40
0.875
40
0.875
40
0.90625
40
0.90625
40
0.9375
40
0.9375
40
0.96875
40
0.96875
40
1
40
1
40
1
40
1
41
1
10
-0.200000000000017
20
-7.03415845154797
30
0
41
1
10
-0.200331074104753
20
-6.96758473110461
30
0
41
1
10
-0.201942367211245
20
-6.90082001005126
30
0
41
1
10
-0.208808543904553
20
-6.76684756094051
30
0
41
1
10
-0.213983771374956
20
-6.69957538529246
30
0
41
1
10
-0.226629907857017
20
-6.59846295367004
30
0
41
1
10
-0.231660540619686
20
-6.56479252713518
30
0
41
1
10
-0.244399284272618
20
-6.49761038234348
30
0
41
1
10
-0.252034596555063
20
-6.46403779666809
30
0
41
1
10
-0.267439101060546
20
-6.41481626716185
30
0
41
1
10
-0.27323621273078
20
-6.3985772093198
30
0
41
1
10
-0.287365755981312
20
-6.36675955901518
30
0
41
1
10
-0.295589616969295
20
-6.35108461281939
30
0
41
1
10
-0.312078412289935
20
-6.33025774259031
30
0
41
1
10
-0.31822232846153
20
-6.32386838427445
30
0
41
1
10
-0.332669805034101
20
-6.31363504737985
30
0
41
1
10
-0.340967609456641
20
-6.31005507464135
30
0
41
1
10
-0.357929669282498
20
-6.30825311318182
30
0
41
1
10
-0.366577726601435
20
-6.31005499812107
30
0
41
1
10
-0.381850124236081
20
-6.31686284615006
30
0
41
1
10
-0.388651860853344
20
-6.32169800880934
30
0
41
1
10
-0.394913799811292
20
-6.32721828439901
30
0
0
SPLINE
5
14F
100
AcDbEntity
8
SK1
62
256
6
ByLayer
370
18
48
1
60
0
100
AcDbSpline
70
4
71
3
72
26
73
22
40
0
40
0
40
0
40
0
40
0.125
40
0.125
40
0.25
40
0.25
40
0.3125
40
0.3125
40
0.375
40
0.375
40
0.5
40
0.5
40
0.625
40
0.625
40
0.6875
40
0.6875
40
0.75
40
0.75
40
0.875
40
0.875
40
1
40
1
40
1
40
1
41
1
10
-1.30710678118655
20
-4.8111515693796
30
0
41
1
10
-1.37464191770107
20
-4.42920989906065
30
0
41
1
10
-1.43848245106358
20
-4.04286538655003
30
0
41
1
10
-1.55492025426076
20
-3.25980613133493
30
0
41
1
10
-1.60753025207396
20
-2.86309861159856
30
0
41
1
10
-1.67414509281366
20
-2.25856982386534
30
0
41
1
10
-1.69427910225542
20
-2.05547235697085
30
0
41
1
10
-1.72965319111884
20
-1.645754391335
30
0
41
1
10
-1.74483270143611
20
-1.4397386518647
30
0
41
1
10
-1.78166793652733
20
-0.822835760757442
30
0
41
1
10
-1.79446799978049
20
-0.411266468230451
30
0
41
1
10
-1.79444348243319
20
0.412504785751906
30
0
41
1
10
-1.78161417600103
20
0.824706824148052
30
0
41
1
10
-1.74458111668804
20
1.44346492154571
30
0
41
1
10
-1.72931046442918
20
1.65009418594528
30
0
41
1
10
-1.69395938565037
20
2.05879746438532
30
0
41
1
10
-1.67384597566206
20
2.26145078101035
30
0
41
1
10
-1.6073049440175
20
2.86481056040475
30
0
41
1
10
-1.55475828557684
20
3.26095452027204
30
0
41
1
10
-1.43842306954178
20
4.04321174825219
30
0
41
1
10
-1.374622793295
20
4.42931851789501
30
0
41
1
10
-1.3071067811866
20
4.81115177825131
30
0
0
SPLINE
5
150
100
AcDbEntity
8
SK1
62
256
6
ByLayer
370
18
48
1
60
0
100
AcDbSpline
70
4
71
3
72
26
73
22
40
0
40
0
40
0
40
0
40
0.249999999999998
40
0.249999999999998
40
0.499999999999997
40
0.499999999999997
40
0.624999999999995
40
0.624999999999995
40
0.687499999999996
40
0.687499999999996
40
0.749999999999997
40
0.749999999999997
40
0.812499999999998
40
0.812499999999998
40
0.874999999999999
40
0.874999999999999
40
0.906249999999999
40
0.906249999999999
40
0.937499999999999
40
0.937499999999999
40
1
40
1
40
1
40
1
41
1
10
-1.30710678118655
20
4.8111517782514
30
0
41
1
10
-1.27776094215346
20
4.97711562958054
30
0
41
1
10
-1.24445474088375
20
5.14127607213081
30
0
41
1
10
-1.16566607649324
20
5.46540943550505
30
0
41
1
10
-1.12035621530214
20
5.62583403983149
30
0
41
1
10
-1.03597558707764
20
5.85897875620614
30
0
41
1
10
-1.00507947149285
20
5.93551305897722
30
0
41
1
10
-0.951537336733765
20
6.0475612269523
30
0
41
1
10
-0.932473247849742
20
6.08444613540038
30
0
41
1
10
-0.890745707221583
20
6.15690597798837
30
0
41
1
10
-0.867964363687605
20
6.19272059446334
30
0
41
1
10
-0.817121234833081
20
6.2611484240964
30
0
41
1
10
-0.789394425857836
20
6.29356478838184
30
0
41
1
10
-0.724939898133925
20
6.35151567711236
30
0
41
1
10
-0.687353820702384
20
6.37772088294383
30
0
41
1
10
-0.622102468665219
20
6.39998734213981
30
0
41
1
10
-0.59968773121858
20
6.40423336369165
30
0
41
1
10
-0.553245972254473
20
6.40502240224973
30
0
41
1
10
-0.530471361560501
20
6.40147524378972
30
0
41
1
10
-0.464893989702375
20
6.38107100049211
30
0
41
1
10
-0.427672788643832
20
6.3561003895035
30
0
41
1
10
-0.394913799811292
20
6.32722135062522
30
0
0
SPLINE
5
151
100
AcDbEntity
8
SK1
62
256
6
ByLayer
370
18
48
1
60
0
100
AcDbSpline
70
4
71
3
72
24
73
20
40
0
40
0
40
0
40
0
40
0.0312500000000002
40
0.0312500000000002
40
0.0625000000000004
40
0.0625000000000004
40
0.0937500000000006
40
0.0937500000000006
40
0.125000000000001
40
0.125000000000001
40
0.187500000000001
40
0.187500000000001
40
0.250000000000002
40
0.250000000000002
40
0.375000000000001
40
0.375000000000001
40
0.5
40
0.5
40
1
40
1
40
1
40
1
41
1
10
-0.394913799811292
20
6.32722135061286
30
0
41
1
10
-0.388622933830277
20
6.3216755700586
30
0
41
1
10
-0.381718055746603
20
6.31678135987394
30
0
41
1
10
-0.366393862507636
20
6.31000229927824
30
0
41
1
10
-0.357848061635195
20
6.30823128443399
30
0
41
1
10
-0.340711445902059
20
6.31011955599655
30
0
41
1
10
-0.332293755173566
20
6.31383663914295
30
0
41
1
10
-0.317887705763354
20
6.3241797145505
30
0
41
1
10
-0.311700702543845
20
6.33067859325865
30
0
41
1
10
-0.295298997789217
20
6.35157922031669
30
0
41
1
10
-0.28708597388453
20
6.36730565066406
30
0
41
1
10
-0.272955344086199
20
6.39930333387312
30
0
41
1
10
-0.267171029982791
20
6.41559723945636
30
0
41
1
10
-0.251809441444209
20
6.46492374650356
30
0
41
1
10
-0.244218821653561
20
6.4984317022799
30
0
41
1
10
-0.23149114194635
20
6.56582630636572
30
0
41
1
10
-0.226489017484568
20
6.5994729106236
30
0
41
1
10
-0.205553494580016
20
6.76746969392423
30
0
41
1
10
-0.200661630206753
20
6.90111811484644
30
0
41
1
10
-0.200000000000017
20
7.03416121607441
30
0
0
SPLINE
5
152
100
AcDbEntity
8
SK1
62
256
6
ByLayer
370
18
48
1
60
0
100
AcDbSpline
70
4
71
3
72
21
73
17
40
0
40
0
40
0
40
0
40
0.0620686614440081
40
0.130354572255682
40
0.198640483067355
40
0.266926393879028
40
0.335212304690702
40
0.403498215502375
40
0.471784126314049
40
0.608355947937396
40
0.676641858749069
40
0.744927769560742
40
0.813213680372416
40
0.881499591184089
40
0.949785501995763
40
1
40
1
40
1
40
1
41
1
10
-0.394913799811292
20
-6.32721828439904
30
0
41
1
10
-0.394913799811292
20
-6.90653762641452
30
0
41
1
10
-0.394913799811292
20
-8.09321756934102
30
0
41
1
10
-0.394913799811292
20
-9.80498157314139
30
0
41
1
10
-0.394913799811292
20
-11.4638140893219
30
0
41
1
10
-0.394913799811292
20
-13.0147246633634
30
0
41
1
10
-0.394913799811292
20
-14.4558606687731
30
0
41
1
10
-0.394913799811292
20
-15.7849097442956
30
0
41
1
10
-0.394913799811292
20
-17.4047594204778
30
0
41
1
10
-0.394913799811292
20
-18.7870404111631
30
0
41
1
10
-0.394913799811292
20
-19.9145928494951
30
0
41
1
10
-0.394913799811292
20
-20.6247618481558
30
0
41
1
10
-0.394913799811292
20
-21.1908658435729
30
0
41
1
10
-0.394913799811292
20
-21.6019834098091
30
0
41
1
10
-0.394913799811292
20
-21.8217920994478
30
0
41
1
10
-0.394913799811292
20
-21.8658541715748
30
0
41
1
10
-0.394913799811263
20
-21.8654696411387
30
0
0
SPLINE
5
153
100
AcDbEntity
8
SK1
62
256
6
ByLayer
370
18
48
1
60
0
100
AcDbSpline
70
4
71
3
72
21
73
17
40
0
40
0
40
0
40
0
40
0.0502202404528595
40
0.118505745642886
40
0.186791250832913
40
0.255076756022939
40
0.323362261212966
40
0.391647766402992
40
0.528218776783046
40
0.596504281973072
40
0.664789787163099
40
0.733075292353126
40
0.801360797543152
40
0.869646302733179
40
0.937931807923205
40
1
40
1
40
1
40
1
41
1
10
-0.394913799811292
20
21.8654694309585
30
0
41
1
10
-0.394913799811292
20
21.8658585504888
30
0
41
1
10
-0.394913799811292
20
21.821798500365
30
0
41
1
10
-0.394913799811292
20
21.6019829919256
30
0
41
1
10
-0.394913799811292
20
21.1908660117695
30
0
41
1
10
-0.394913799811292
20
20.6247611340725
30
0
41
1
10
-0.394913799811292
20
19.9145926563567
30
0
41
1
10
-0.394913799811292
20
18.7870406318774
30
0
41
1
10
-0.394913799811292
20
17.4047589502432
30
0
41
1
10
-0.394913799811292
20
15.7849099352292
30
0
41
1
10
-0.394913799811292
20
14.4558608746283
30
0
41
1
10
-0.394913799811292
20
13.014724351229
30
0
41
1
10
-0.394913799811292
20
11.4638144327396
30
0
41
1
10
-0.394913799811292
20
9.80498177095927
30
0
41
1
10
-0.394913799811292
20
8.09321828866487
30
0
41
1
10
-0.394913799811292
20
6.90653972901185
30
0
41
1
10
-0.394913799811292
20
6.32722135061286
30
0
0
SPLINE
5
154
100
AcDbEntity
8
SK1
62
256
6
ByLayer
370
18
48
1
60
0
100
AcDbSpline
70
4
71
3
72
49
73
45
40
0
40
0
40
0
40
0
40
0.0209154016987416
40
0.0490970632887519
40
0.0772787248787623
40
0.105460386468773
40
0.133642048058783
40
0.161823709648793
40
0.218187032828814
40
0.246368694418825
40
0.274550356008835
40
0.302732017598845
40
0.330913679188856
40
0.359095340778866
40
0.387277002368876
40
0.415458663958887
40
0.429549494753892
40
0.443640325548897
40
0.457731156343902
40
0.471821987138907
40
0.485912817933913
40
0.492958233331415
40
0.500003648728918
40
0.50704906412642
40
0.514094479523923
40
0.528185310318928
40
0.542276141113933
40
0.556366971908939
40
0.570457802703944
40
0.584548633498949
40
0.612730295088959
40
0.64091195667897
40
0.66909361826898
40
0.697275279858991
40
0.725456941449001
40
0.753638603039011
40
0.781820264629022
40
0.838183587809042
40
0.866365249399053
40
0.894546910989063
40
0.922728572579073
40
0.950910234169084
40
0.979091895759094
40
1
40
1
40
1
40
1
41
1
10
-1.99503997793926
20
21.8252652025236
30
0
41
1
10
-1.99503997793926
20
21.826007506017
30
0
41
1
10
-1.99503997793931
20
21.7822239542142
30
0
41
1
10
-1.99503997793928
20
21.5622159608078
30
0
41
1
10
-1.99503997793928
20
21.1516905297668
30
0
41
1
10
-1.99503997793928
20
20.5863476884834
30
0
41
1
10
-1.99503997793928
20
19.8770915138249
30
0
41
1
10
-1.99503997793928
20
18.7508484467722
30
0
41
1
10
-1.99503997793928
20
17.370463175446
30
0
41
1
10
-1.99503997793928
20
15.752471971849
30
0
41
1
10
-1.99503997793928
20
14.4250897201646
30
0
41
1
10
-1.99503997793928
20
12.985830725026
30
0
41
1
10
-1.99503997793928
20
11.4370507512064
30
0
41
1
10
-1.99503997793928
20
9.78067154978808
30
0
41
1
10
-1.99503997793928
20
8.01821733349291
30
0
41
1
10
-1.99503997793928
20
6.46319635117558
30
0
41
1
10
-1.99503997793928
20
5.16749918372616
30
0
41
1
10
-1.99503997793928
20
4.17226659327741
30
0
41
1
10
-1.99503997793928
20
3.15436880408234
30
0
41
1
10
-1.99503997793928
20
2.11640247274798
30
0
41
1
10
-1.99503997793928
20
1.23881045451824
30
0
41
1
10
-1.99503997793928
20
0.53126948289281
30
0
41
1
10
-1.99503997793928
20
7.43625606E-08
30
0
41
1
10
-1.99503997793928
20
-0.53126937109505
30
0
41
1
10
-1.99503997793928
20
-1.23881043770962
30
0
41
1
10
-1.99503997793928
20
-2.11640245296422
30
0
41
1
10
-1.99503997793928
20
-3.15436853749512
30
0
41
1
10
-1.99503997793928
20
-4.17226658860133
30
0
41
1
10
-1.99503997793928
20
-5.16749921349111
30
0
41
1
10
-1.99503997793928
20
-6.46319592062625
30
0
41
1
10
-1.99503997793928
20
-8.01821749841287
30
0
41
1
10
-1.99503997793928
20
-9.7806713457135
30
0
41
1
10
-1.99503997793928
20
-11.4370504129058
30
0
41
1
10
-1.99503997793928
20
-12.9858310385527
30
0
41
1
10
-1.99503997793928
20
-14.4250895103889
30
0
41
1
10
-1.99503997793928
20
-15.7524717843982
30
0
41
1
10
-1.99503997793928
20
-17.370463645283
30
0
41
1
10
-1.99503997793928
20
-18.7508482253859
30
0
41
1
10
-1.99503997793928
20
-19.8770917100388
30
0
41
1
10
-1.99503997793928
20
-20.5863484011186
30
0
41
1
10
-1.99503997793928
20
-21.1516903613971
30
0
41
1
10
-1.99503997793928
20
-21.5622163798915
30
0
41
1
10
-1.99503997793931
20
-21.7822038862521
30
0
41
1
10
-1.99503997793931
20
-21.8259945973157
30
0
41
1
10
-1.99503997793931
20
-21.8252660420979
30
0
0
SPLINE
5
155
100
AcDbEntity
8
SK1
62
256
6
ByLayer
370
18
48
1
60
0
100
AcDbSpline
70
4
71
3
72
49
73
45
40
0
40
0
40
0
40
0
40
0.0136745487646295
40
0.0422819420024243
40
0.070889335240219
40
0.0994967284780138
40
0.128104121715809
40
0.156711514953603
40
0.213926301429193
40
0.242533694666988
40
0.271141087904782
40
0.299748481142577
40
0.328355874380372
40
0.356963267618167
40
0.385570660855961
40
0.414178054093756
40
0.428481750712654
40
0.442785447331551
40
0.457089143950448
40
0.471392840569346
40
0.485696537188243
40
0.492848385497692
40
0.500000233807141
40
0.507152082116589
40
0.514303930426038
40
0.528607627044935
40
0.542911323663833
40
0.55721502028273
40
0.571518716901627
40
0.585822413520525
40
0.61442980675832
40
0.643037199996114
40
0.671644593233909
40
0.700251986471704
40
0.728859379709499
40
0.757466772947293
40
0.786074166185088
40
0.843288952660678
40
0.871896345898473
40
0.900503739136267
40
0.929111132374062
40
0.957718525611857
40
0.986325918849652
40
1
40
1
40
1
40
1
41
1
10
-2.19999999999999
20
22.0135803379862
30
0
41
1
10
-2.19999999999999
20
22.0052602913675
30
0
41
1
10
-2.19999999999996
20
21.9553633712753
30
0
41
1
10
-2.19999999999999
20
21.7550269215783
30
0
41
1
10
-2.19999999999999
20
21.3416333570605
30
0
41
1
10
-2.19999999999999
20
20.7725957724454
30
0
41
1
10
-2.19999999999999
20
20.0589162847047
30
0
41
1
10
-2.19999999999999
20
18.9263267207688
30
0
41
1
10
-2.19999999999999
20
17.5367466797247
30
0
41
1
10
-2.19999999999999
20
15.9097478536278
30
0
41
1
10
-2.19999999999999
20
14.5742840575192
30
0
41
1
10
-2.19999999999999
20
13.1259218425112
30
0
41
1
10
-2.19999999999999
20
11.5668148046225
30
0
41
1
10
-2.19999999999999
20
9.89853996914991
30
0
41
1
10
-2.19999999999999
20
8.12208977576526
30
0
41
1
10
-2.19999999999999
20
6.55235660022589
30
0
41
1
10
-2.19999999999999
20
5.24422917335971
30
0
41
1
10
-2.19999999999999
20
4.2375522406841
30
0
41
1
10
-2.19999999999999
20
3.20644372216569
30
0
41
1
10
-2.19999999999999
20
2.15314018801405
30
0
41
1
10
-2.19999999999999
20
1.26034253962158
30
0
41
1
10
-2.19999999999999
20
0.540965390862539
30
0
41
1
10
-2.19999999999999
20
2.64082871E-08
30
0
41
1
10
-2.19999999999999
20
-0.540965319759152
30
0
41
1
10
-2.19999999999999
20
-1.26034245765445
30
0
41
1
10
-2.19999999999999
20
-2.15314020845372
30
0
41
1
10
-2.19999999999999
20
-3.20644349821168
30
0
41
1
10
-2.19999999999999
20
-4.23755215854527
30
0
41
1
10
-2.19999999999999
20
-5.24422924769223
30
0
41
1
10
-2.19999999999999
20
-6.55235618011341
30
0
41
1
10
-2.19999999999999
20
-8.12208991237512
30
0
41
1
10
-2.19999999999999
20
-9.89853979541101
30
0
41
1
10
-2.19999999999999
20
-11.5668144415121
30
0
41
1
10
-2.19999999999999
20
-13.1259221492871
30
0
41
1
10
-2.19999999999999
20
-14.574283866752
30
0
41
1
10
-2.19999999999999
20
-15.9097476492909
30
0
41
1
10
-2.19999999999999
20
-17.5367471514895
30
0
41
1
10
-2.19999999999999
20
-18.9263265026412
30
0
41
1
10
-2.19999999999999
20
-20.0589164660072
30
0
41
1
10
-2.19999999999999
20
-20.7725964921017
30
0
41
1
10
-2.19999999999999
20
-21.3416331895302
30
0
41
1
10
-2.19999999999999
20
-21.7550273348429
30
0
41
1
10
-2.20000000000002
20
-21.9553627333829
30
0
41
1
10
-2.19999999999996
20
-22.0052594607419
30
0
41
1
10
-2.19999999999999
20
-22.0135796617114
30
0
0
SPLINE
5
156
100
AcDbEntity
8
SK1
62
256
6
ByLayer
370
18
48
1
60
0
100
AcDbSpline
70
4
71
3
72
49
73
45
40
0
40
0
40
0
40
0
40
0.0160119814456265
40
0.044481888705858
40
0.0729517959660896
40
0.101421703226321
40
0.129891610486553
40
0.158361517746784
40
0.215301332267247
40
0.243771239527479
40
0.27224114678771
40
0.300711054047942
40
0.329180961308173
40
0.357650868568405
40
0.386120775828637
40
0.414590683088868
40
0.428825636718984
40
0.4430605903491
40
0.457295543979215
40
0.471530497609331
40
0.485765451239447
40
0.492882928054505
40
0.500000404869563
40
0.50711788168462
40
0.514235358499678
40
0.528470312129794
40
0.54270526575991
40
0.556940219390026
40
0.571175173020141
40
0.585410126650257
40
0.613880033910489
40
0.64234994117072
40
0.670819848430952
40
0.699289755691183
40
0.727759662951415
40
0.756229570211646
40
0.784699477471878
40
0.841639291992341
40
0.870109199252572
40
0.898579106512804
40
0.927049013773036
40
0.955518921033267
40
0.983988828293499
40
1
40
1
40
1
40
1
41
1
10
-36.5
20
21.1558714112156
30
0
41
1
10
-36.5
20
21.1495818101355
30
0
41
1
10
-36.5
20
21.1027904771801
30
0
41
1
10
-36.5
20
20.9025884164263
30
0
41
1
10
-36.5
20
20.5018751860753
30
0
41
1
10
-36.5
20
19.9491724688865
30
0
41
1
10
-36.5
20
19.2550489357272
30
0
41
1
10
-36.5
20
18.1505179338898
30
0
41
1
10
-36.5
20
16.8015889830236
30
0
41
1
10
-36.5
20
15.2144138486304
30
0
41
1
10
-36.5
20
13.9146794509994
30
0
41
1
10
-36.5
20
12.5065635742002
30
0
41
1
10
-36.5
20
10.9931136245939
30
0
41
1
10
-36.5
20
9.37743069816284
30
0
41
1
10
-36.5
20
7.6628582618342
30
0
41
1
10
-36.5
20
6.15816931379931
30
0
41
1
10
-36.5
20
4.9049974336175
30
0
41
1
10
-36.5
20
3.94891719908253
30
0
41
1
10
-36.5
20
2.97621477071243
30
0
41
1
10
-36.5
20
1.99071870036124
30
0
41
1
10
-36.5
20
1.16514681856438
30
0
41
1
10
-36.5
20
0.498098713248481
30
0
41
1
10
-36.5
20
2.384194602E-07
30
0
41
1
10
-36.5
20
-0.498098462230814
30
0
41
1
10
-36.5
20
-1.16514702467006
30
0
41
1
10
-36.5
20
-1.99071854296869
30
0
41
1
10
-36.5
20
-2.97621435827227
30
0
41
1
10
-36.5
20
-3.94891745941501
30
0
41
1
10
-36.5
20
-4.90499731091177
30
0
41
1
10
-36.5
20
-6.15816884754437
30
0
41
1
10
-36.5
20
-7.6628585236061
30
0
41
1
10
-36.5
20
-9.37743039030653
30
0
41
1
10
-36.5
20
-10.9931133711701
30
0
41
1
10
-36.5
20
-12.5065639108223
30
0
41
1
10
-36.5
20
-13.9146791761936
30
0
41
1
10
-36.5
20
-15.2144137189484
30
0
41
1
10
-36.5
20
-16.8015894462653
30
0
41
1
10
-36.5
20
-18.1505177013548
30
0
41
1
10
-36.5
20
-19.2550491829544
30
0
41
1
10
-36.5
20
-19.9491731575018
30
0
41
1
10
-36.5
20
-20.5018750148337
30
0
41
1
10
-36.5
20
-20.9025888554179
30
0
41
1
10
-36.5
20
-21.1027889291507
30
0
41
1
10
-36.5
20
-21.1495803290845
30
0
41
1
10
-36.5
20
-21.155870589106
30
0
0
SPLINE
5
157
100
AcDbEntity
8
1
62
256
6
ByLayer
370
18
48
1
60
0
100
AcDbSpline
70
4
71
3
72
16
73
12
40
0
40
0
40
0
40
0
40
0.250033193272126
40
0.250033193272126
40
0.500066386544252
40
0.500066386544252
40
0.750099579816377
40
0.750099579816377
40
0.87511617645244
40
0.87511617645244
40
1
40
1
40
1
40
1
41
1
10
22.2792076144253
20
30.1772077103125
30
0
41
1
10
22.0926009213492
20
30.3933843258796
30
0
41
1
10
21.9422890145947
20
30.5839758663021
30
0
41
1
10
21.6947536051178
20
30.9127235121366
30
0
41
1
10
21.5976643074865
20
31.0508965666199
30
0
41
1
10
21.445669155491
20
31.2735011493866
30
0
41
1
10
21.3908124779694
20
31.357944447644
30
0
41
1
10
21.3361403416229
20
31.4429482846737
30
0
41
1
10
21.3225433421958
20
31.4643578971655
30
0
41
1
10
21.3044978386149
20
31.4928451689129
30
0
41
1
10
21.3000383806321
20
31.4999390629943
30
0
41
1
10
21.3000002462784
20
31.4999996091692
30
0
0
SPLINE
5
158
100
AcDbEntity
8
SK1
62
256
6
ByLayer
370
18
48
1
60
0
100
AcDbSpline
70
4
71
3
72
49
73
45
40
0
40
0
40
0
40
0
40
0.02053382883729
40
0.048735829752311
40
0.0769378306673319
40
0.105139831582353
40
0.133341832497374
40
0.161543833412394
40
0.217947835242436
40
0.246149836157457
40
0.274351837072478
40
0.302553837987499
40
0.33075583890252
40
0.358957839817541
40
0.387159840732561
40
0.415361841647582
40
0.429462842105093
40
0.443563842562603
40
0.457664843020114
40
0.471765843477624
40
0.485866843935135
40
0.49291734416389
40
0.499967844392645
40
0.5070183446214
40
0.514068844850155
40
0.528169845307666
40
0.542270845765176
40
0.556371846222687
40
0.570472846680197
40
0.584573847137708
40
0.612775848052729
40
0.640977848967749
40
0.66917984988277
40
0.697381850797791
40
0.725583851712812
40
0.753785852627833
40
0.781987853542854
40
0.838391855372896
40
0.866593856287917
40
0.894795857202937
40
0.922997858117958
40
0.951199859032979
40
0.979401859948
40
1
40
1
40
1
40
1
41
1
10
-38
20
-20.2928923507856
30
0
41
1
10
-38
20
-20.2928754798416
30
0
41
1
10
-38
20
-20.2516081388482
30
0
41
1
10
-38
20
-20.0459066437045
30
0
41
1
10
-38
20
-19.6579362347721
30
0
41
1
10
-38
20
-19.1216505379956
30
0
41
1
10
-38
20
-18.4471799717542
30
0
41
1
10
-38
20
-17.3708466567051
30
0
41
1
10
-38
20
-16.0627718728323
30
0
41
1
10
-38
20
-14.5156181768618
30
0
41
1
10
-38
20
-13.2517907463501
30
0
41
1
10
-38
20
-11.8841222937699
30
0
41
1
10
-38
20
-10.4165562193455
30
0
41
1
10
-38
20
-8.85372672313898
30
0
41
1
10
-38
20
-7.20134092284709
30
0
41
1
10
-38
20
-5.76201911469511
30
0
41
1
10
-38
20
-4.5640765607352
30
0
41
1
10
-38
20
-3.65884583736087
30
0
41
1
10
-38
20
-2.74483905839463
30
0
41
1
10
-38
20
-1.82748828650287
30
0
41
1
10
-38
20
-1.06947767603967
30
0
41
1
10
-38
20
-0.455018198724474
30
0
41
1
10
-38
20
4.514861303E-07
30
0
41
1
10
-38
20
0.455018630552075
30
0
41
1
10
-38
20
1.06947718042707
30
0
41
1
10
-38
20
1.82748862261292
30
0
41
1
10
-38
20
2.74483966025932
30
0
41
1
10
-38
20
3.65884523285217
30
0
41
1
10
-38
20
4.56407688146012
30
0
41
1
10
-38
20
5.76201962732219
30
0
41
1
10
-38
20
7.20134053529003
30
0
41
1
10
-38
20
8.85372716578038
30
0
41
1
10
-38
20
10.4165563625368
30
0
41
1
10
-38
20
11.884121927153
30
0
41
1
10
-38
20
13.2517911056129
30
0
41
1
10
-38
20
14.5156182315173
30
0
41
1
10
-38
20
16.0627714181563
30
0
41
1
10
-38
20
17.3708469037194
30
0
41
1
10
-38
20
18.4471796582741
30
0
41
1
10
-38
20
19.121649880576
30
0
41
1
10
-38
20
19.6579364097435
30
0
41
1
10
-38
20
20.0459061788578
30
0
41
1
10
-38
20
20.2517794138697
30
0
41
1
10
-38
20
20.2929841156427
30
0
41
1
10
-38
20
20.2928919198438
30
0
0
SPLINE
5
159
100
AcDbEntity
8
SK1
62
256
6
ByLayer
370
18
48
1
60
0
100
AcDbSpline
70
4
71
3
72
11
73
7
40
0
40
0
40
0
40
0
40
0.24260137289863
40
0.502561214665899
40
0.761098879312195
40
1
40
1
40
1
40
1
41
1
10
-0.199999999999989
20
22.0603316233164
30
0
41
1
10
-0.200957649232748
20
22.03467763457
30
0
41
1
10
-0.211248088565583
20
21.9856476021506
30
0
41
1
10
-0.255178473897388
20
21.9196695750854
30
0
41
1
10
-0.321112940270211
20
21.8764518787731
30
0
41
1
10
-0.369683556830324
20
21.8664032520323
30
0
41
1
10
-0.394913799811292
20
21.8654753908017
30
0
0
SPLINE
5
15A
100
AcDbEntity
8
SK1
62
256
6
ByLayer
370
18
48
1
60
0
100
AcDbSpline
70
4
71
3
72
11
73
7
40
0
40
0
40
0
40
0
40
0.238901121200236
40
0.497438786084572
40
0.757398627621475
40
1
40
1
40
1
40
1
41
1
10
-0.394913799811292
20
-21.8654754627471
30
0
41
1
10
-0.369683556841096
20
-21.8664033239634
30
0
41
1
10
-0.321112940313157
20
-21.8764519506625
30
0
41
1
10
-0.255178473954459
20
-21.9196696467454
30
0
41
1
10
-0.211248088575957
20
-21.9856476735436
30
0
41
1
10
-0.200957649243719
20
-22.0346777057893
30
0
41
1
10
-0.200000000000017
20
-22.0603316944385
30
0
0
SPLINE
5
15B
100
AcDbEntity
8
SK1
62
256
6
ByLayer
370
18
48
1
60
0
100
AcDbSpline
70
4
71
2
72
6
73
3
40
0
40
0
40
0
40
1
40
1
40
1
41
1
10
-36.5
20
21.1556411500792
30
0
41
1
10
-37.2500000202692
20
20.7228363924583
30
0
41
1
10
-38
20
20.2900294978113
30
0
0
SPLINE
5
15C
100
AcDbEntity
8
SK1
62
256
6
ByLayer
370
18
48
1
60
0
100
AcDbSpline
70
4
71
2
72
6
73
3
40
0
40
0
40
0
40
1
40
1
40
1
41
1
10
-38
20
-20.2900295032223
30
0
41
1
10
-37.2500000202654
20
-20.7228363958853
30
0
41
1
10
-36.5
20
-21.1556411516461
30
0
0
SPLINE
5
15D
100
AcDbEntity
8
SK1
62
256
6
ByLayer
370
18
48
1
60
0
100
AcDbSpline
70
4
71
2
72
6
73
3
40
0
40
0
40
0
40
1
40
1
40
1
41
1
10
-0.394913799811292
20
21.8654705382346
30
0
41
1
10
-1.19497688887515
20
21.8453761190377
30
0
41
1
10
-1.99503997793928
20
21.8252816998361
30
0
0
SPLINE
5
15E
100
AcDbEntity
8
SK1
62
256
6
ByLayer
370
18
48
1
60
0
100
AcDbSpline
70
4
71
2
72
6
73
3
40
0
40
0
40
0
40
1
40
1
40
1
41
1
10
-1.99503997793928
20
-21.8252817664983
30
0
41
1
10
-1.19497688887515
20
-21.845376185605
30
0
41
1
10
-0.394913799811292
20
-21.8654706047072
30
0
0
SPLINE
5
15F
100
AcDbEntity
8
SK1
62
256
6
ByLayer
370
18
48
1
60
0
100
AcDbSpline
70
4
71
3
72
13
73
9
40
0
40
0
40
0
40
0
40
0.239488446613139
40
0.368403116187249
40
0.500046645745247
40
0.631682415479622
40
0.760575689762793
40
1
40
1
40
1
40
1
41
1
10
-1.99503997793928
20
21.825286524797
30
0
41
1
10
-2.0211096495122
20
21.8248845959364
30
0
41
1
10
-2.05883938576716
20
21.8310551084546
30
0
41
1
10
-2.1062761997685
20
21.8540920367489
30
0
41
1
10
-2.1388629218354
20
21.8792518859041
30
0
41
1
10
-2.16563526915769
20
21.9105242864783
30
0
41
1
10
-2.19103234710849
20
21.9567296167895
30
0
41
1
10
-2.19909149085342
20
21.9940920912339
30
0
41
1
10
-2.19999999999999
20
22.0201427571469
30
0
0
SPLINE
5
160
100
AcDbEntity
8
SK1
62
256
6
ByLayer
370
18
48
1
60
0
100
AcDbSpline
70
4
71
3
72
13
73
9
40
0
40
0
40
0
40
0
40
0.239424309709105
40
0.36831758382101
40
0.499953353497804
40
0.631596883124593
40
0.760511552875627
40
1
40
1
40
1
40
1
41
1
10
-2.19999999999999
20
-22.0201428284389
30
0
41
1
10
-2.19909149084521
20
-21.994092162624
30
0
41
1
10
-2.19103234710033
20
-21.956729688326
30
0
41
1
10
-2.1656352691468
20
-21.910524358218
30
0
41
1
10
-2.13886292182099
20
-21.8792519577777
30
0
41
1
10
-2.1062761997531
20
-21.8540921087329
30
0
41
1
10
-2.05883938574669
20
-21.8310551805396
30
0
41
1
10
-2.02110964950145
20
-21.8248846680467
30
0
41
1
10
-1.99503997793928
20
-21.8252865969123
30
0
0
SPLINE
5
161
100
AcDbEntity
8
SK1
62
256
6
ByLayer
370
18
48
1
60
0
100
AcDbSpline
70
4
71
2
72
6
73
3
40
0
40
0
40
0
40
1
40
1
40
1
41
1
10
-2.19999999999999
20
22.0136642719968
30
0
41
1
10
-19.3500000008246
20
21.5830599810351
30
0
41
1
10
-36.5
20
21.1524539804128
30
0
0
SPLINE
5
162
100
AcDbEntity
8
SK1
62
256
6
ByLayer
370
18
48
1
60
0
100
AcDbSpline
70
4
71
2
72
6
73
3
40
0
40
0
40
0
40
1
40
1
40
1
41
1
10
-36.5
20
-21.152454254977
30
0
41
1
10
-19.3500000008244
20
-21.5830602558515
30
0
41
1
10
-2.19999999999999
20
-22.0136645469338
30
0
0
LINE
5
77
100
AcDbEntity
8
1
62
256
6
ByLayer
370
18
48
1
60
0
100
AcDbLine
10
57.277553
20
23.633128
30
0
11
64.1704
21
32.455569
31
0
39
0
210
0
220
0
230
1
0
LINE
5
78
100
AcDbEntity
8
1
62
256
6
ByLayer
370
18
48
1
60
0
100
AcDbLine
10
56.524111
20
35.3144
30
0
11
55.938166
21
24.133904
31
0
39
0
210
0
220
0
230
1
0
LINE
5
79
100
AcDbEntity
8
1
62
256
6
ByLayer
370
18
48
1
60
0
100
AcDbLine
10
64.420293
20
33.123937
30
0
11
65.006238
21
44.304432
31
0
39
0
210
0
220
0
230
1
0
LINE
5
7A
100
AcDbEntity
8
1
62
256
6
ByLayer
370
18
48
1
60
0
100
AcDbLine
10
55.950321
20
24.135397
30
0
11
55.938166
21
24.133904
31
0
39
0
210
0
220
0
230
1
0
LINE
5
7B
100
AcDbEntity
8
1
62
256
6
ByLayer
370
18
48
1
60
0
100
AcDbLine
10
57.26936
20
23.642228
30
0
11
57.277553
21
23.633128
31
0
39
0
210
0
220
0
230
1
0
LINE
5
7C
100
AcDbEntity
8
1
62
256
6
ByLayer
370
18
48
1
60
0
100
AcDbLine
10
63.66685
20
44.805209
30
0
11
56.774004
21
35.982767
31
0
39
0
210
0
220
0
230
1
0
LINE
5
7D
100
AcDbEntity
8
1
62
256
6
ByLayer
370
18
48
1
60
0
100
AcDbLine
10
64.994083
20
44.30294
30
0
11
65.006238
21
44.304432
31
0
39
0
210
0
220
0
230
1
0
LINE
5
7E
100
AcDbEntity
8
1
62
256
6
ByLayer
370
18
48
1
60
0
100
AcDbLine
10
63.675044
20
44.796108
30
0
11
63.66685
21
44.805209
31
0
39
0
210
0
220
0
230
1
0
LINE
5
7F
100
AcDbEntity
8
1
62
256
6
ByLayer
370
18
48
1
60
0
100
AcDbLine
10
55.618692
20
21.514334
30
0
11
55.800071
21
21.446519
31
0
39
0
210
0
220
0
230
1
0
LINE
5
80
100
AcDbEntity
8
1
62
256
6
ByLayer
370
18
48
1
60
0
100
AcDbLine
10
10.538675
20
30.080593
30
0
11
10.538675
21
9.349221
31
0
39
0
210
0
220
0
230
1
0
LINE
5
81
100
AcDbEntity
8
1
62
256
6
ByLayer
370
18
48
1
60
0
100
AcDbLine
10
55.548583
20
33.391011
30
0
11
54.903044
21
32.564758
31
0
39
0
210
0
220
0
230
1
0
LINE
5
82
100
AcDbEntity
8
1
62
256
6
ByLayer
370
18
48
1
60
0
100
AcDbLine
10
55.721161
20
26.173503
30
0
11
50.603356
21
28.086972
31
0
39
0
210
0
220
0
230
1
0
LINE
5
83
100
AcDbEntity
8
1
62
256
6
ByLayer
370
18
48
1
60
0
100
AcDbLine
10
59.102196
20
25.443191
30
0
11
59.068537
21
25.562536
31
0
39
0
210
0
220
0
230
1
0
LINE
5
84
100
AcDbEntity
8
1
62
256
6
ByLayer
370
18
48
1
60
0
100
AcDbLine
10
63.709539
20
31.599565
30
0
11
63.695818
21
31.337761
31
0
39
0
210
0
220
0
230
1
0
LINE
5
85
100
AcDbEntity
8
1
62
256
6
ByLayer
370
18
48
1
60
0
100
AcDbLine
10
58.624576
20
24.994293
30
0
11
59.068537
21
25.562536
31
0
39
0
210
0
220
0
230
1
0
LINE
5
86
100
AcDbEntity
8
1
62
256
6
ByLayer
370
18
48
1
60
0
100
AcDbLine
10
63.695818
20
31.337761
30
0
11
63.644784
21
30.363965
31
0
39
0
210
0
220
0
230
1
0
LINE
5
87
100
AcDbEntity
8
1
62
256
6
ByLayer
370
18
48
1
60
0
100
AcDbLine
10
51.775293
20
3.350673
30
0
11
62.895536
21
16.067464
31
0
39
0
210
0
220
0
230
1
0
LINE
5
88
100
AcDbEntity
8
1
62
256
6
ByLayer
370
18
48
1
60
0
100
AcDbLine
10
63.526104
20
28.099409
30
0
11
63.310042
21
23.976703
31
0
39
0
210
0
220
0
230
1
0
LINE
5
89
100
AcDbEntity
8
1
62
256
6
ByLayer
370
18
48
1
60
0
100
AcDbLine
10
63.589908
20
29.316873
30
0
11
63.538874
21
28.343077
31
0
39
0
210
0
220
0
230
1
0
LINE
5
8A
100
AcDbEntity
8
1
62
256
6
ByLayer
370
18
48
1
60
0
100
AcDbLine
10
55.715502
20
26.065519
30
0
11
55.81456
21
26.044915
31
0
39
0
210
0
220
0
230
1
0
LINE
5
8B
100
AcDbEntity
8
1
62
256
6
ByLayer
370
18
48
1
60
0
100
AcDbLine
10
54.903044
20
32.564758
30
0
11
54.302693
21
31.796344
31
0
39
0
210
0
220
0
230
1
0
LINE
5
8C
100
AcDbEntity
8
1
62
256
6
ByLayer
370
18
48
1
60
0
100
AcDbLine
10
22.279208
20
30.177208
30
0
11
22.279208
21
13.815599
31
0
39
0
210
0
220
0
230
1
0
LINE
5
8D
100
AcDbEntity
8
1
62
256
6
ByLayer
370
18
48
1
60
0
100
AcDbLine
10
59.102196
20
25.443191
30
0
11
58.779426
21
25.030065
31
0
39
0
210
0
220
0
230
1
0
LINE
5
8E
100
AcDbEntity
8
1
62
256
6
ByLayer
370
18
48
1
60
0
100
AcDbLine
10
57.732273
20
22.322173
30
0
11
57.638605
21
22.357194
31
0
39
0
210
0
220
0
230
1
0
LINE
5
8F
100
AcDbEntity
8
1
62
256
6
ByLayer
370
18
48
1
60
0
100
AcDbLine
10
55.748599
20
26.697049
30
0
11
51.111402
21
28.430826
31
0
39
0
210
0
220
0
230
1
0
LINE
5
90
100
AcDbEntity
8
1
62
256
6
ByLayer
370
18
48
1
60
0
100
AcDbLine
10
54.734922
20
23.442837
30
0
11
54.828589
21
23.407816
31
0
39
0
210
0
220
0
230
1
0
LINE
5
91
100
AcDbEntity
8
1
62
256
6
ByLayer
370
18
48
1
60
0
100
AcDbLine
10
55.715502
20
26.065519
30
0
11
54.734922
21
23.442837
31
0
39
0
210
0
220
0
230
1
0
LINE
5
92
100
AcDbEntity
8
1
62
256
6
ByLayer
370
18
48
1
60
0
100
AcDbLine
10
13.461325
20
9.349221
30
0
11
10.538675
21
9.349221
31
0
39
0
210
0
220
0
230
1
0
LINE
5
93
100
AcDbEntity
8
1
62
256
6
ByLayer
370
18
48
1
60
0
100
AcDbLine
10
55.748599
20
26.697049
30
0
11
55.8523
21
26.765038
31
0
39
0
210
0
220
0
230
1
0
LINE
5
94
100
AcDbEntity
8
1
62
256
6
ByLayer
370
18
48
1
60
0
100
AcDbLine
10
54.302693
20
31.796344
30
0
11
54.15247
21
31.604067
31
0
39
0
210
0
220
0
230
1
0
LINE
5
95
100
AcDbEntity
8
1
62
256
6
ByLayer
370
18
48
1
60
0
100
AcDbLine
10
51.208418
20
28.501315
30
0
11
55.8523
21
26.765038
31
0
39
0
210
0
220
0
230
1
0
LINE
5
96
100
AcDbEntity
8
1
62
256
6
ByLayer
370
18
48
1
60
0
100
AcDbLine
10
13.461325
20
30.080593
30
0
11
13.461325
21
9.349221
31
0
39
0
210
0
220
0
230
1
0
LINE
5
97
100
AcDbEntity
8
1
62
256
6
ByLayer
370
18
48
1
60
0
100
AcDbLine
10
57.732273
20
22.322173
30
0
11
58.712853
21
24.944855
31
0
39
0
210
0
220
0
230
1
0
LINE
5
98
100
AcDbEntity
8
1
62
256
6
ByLayer
370
18
48
1
60
0
100
AcDbLine
10
10.538675
20
-9.349221
30
0
11
10.538675
21
-30.080593
31
0
39
0
210
0
220
0
230
1
0
LINE
5
99
100
AcDbEntity
8
1
62
256
6
ByLayer
370
18
48
1
60
0
100
AcDbLine
10
54.15247
20
31.604067
30
0
11
53.362331
21
30.592736
31
0
39
0
210
0
220
0
230
1
0
LINE
5
9A
100
AcDbEntity
8
1
62
256
6
ByLayer
370
18
48
1
60
0
100
AcDbLine
10
51.775293
20
3.350673
30
0
11
49.999996
21
1.320494
31
0
39
0
210
0
220
0
230
1
0
LINE
5
9B
100
AcDbEntity
8
1
62
256
6
ByLayer
370
18
48
1
60
0
100
AcDbLine
10
44.694213
20
26.365012
30
0
11
30.606
21
26.365012
31
0
39
0
210
0
220
0
230
1
0
LINE
5
9C
100
AcDbEntity
8
1
62
256
6
ByLayer
370
18
48
1
60
0
100
AcDbLine
10
22.279208
20
-13.815599
30
0
11
22.279208
21
-30.380206
31
0
39
0
210
0
220
0
230
1
0
LINE
5
9D
100
AcDbEntity
8
1
62
256
6
ByLayer
370
18
48
1
60
0
100
AcDbLine
10
51.008643
20
21.652839
30
0
11
52.026368
21
22.887439
31
0
39
0
210
0
220
0
230
1
0
LINE
5
9E
100
AcDbEntity
8
1
62
256
6
ByLayer
370
18
48
1
60
0
100
AcDbLine
10
13.894338
20
-9.869413
30
0
11
13.894338
21
-29.913955
31
0
39
0
210
0
220
0
230
1
0
LINE
5
9F
100
AcDbEntity
8
1
62
256
6
ByLayer
370
18
48
1
60
0
100
AcDbLine
10
49.999996
20
1.320494
30
0
11
51.585356
21
20.284951
31
0
39
0
210
0
220
0
230
1
0
LINE
5
A0
100
AcDbEntity
8
1
62
256
6
ByLayer
370
18
48
1
60
0
100
AcDbLine
10
51.775293
20
3.350673
30
0
11
53.179795
21
20.151662
31
0
39
0
210
0
220
0
230
1
0
LINE
5
A1
100
AcDbEntity
8
1
62
256
6
ByLayer
370
18
48
1
60
0
100
AcDbLine
10
59.068537
20
25.562536
30
0
11
63.310042
21
23.976703
31
0
39
0
210
0
220
0
230
1
0
LINE
5
A2
100
AcDbEntity
8
1
62
256
6
ByLayer
370
18
48
1
60
0
100
AcDbLine
10
58.712853
20
24.944855
30
0
11
58.624576
21
24.994293
31
0
39
0
210
0
220
0
230
1
0
LINE
5
A3
100
AcDbEntity
8
1
62
256
6
ByLayer
370
18
48
1
60
0
100
AcDbLine
10
10.105662
20
-9.869413
30
0
11
10.105662
21
-29.913955
31
0
39
0
210
0
220
0
230
1
0
LINE
5
A4
100
AcDbEntity
8
1
62
256
6
ByLayer
370
18
48
1
60
0
100
AcDbLine
10
22.860155
20
-23.069541
30
0
11
22.860155
21
-29.715851
31
0
39
0
210
0
220
0
230
1
0
LINE
5
A5
100
AcDbEntity
8
1
62
256
6
ByLayer
370
18
48
1
60
0
100
AcDbLine
10
10.538675
20
30.080593
30
0
11
13.461325
21
30.080593
31
0
39
0
210
0
220
0
230
1
0
LINE
5
A6
100
AcDbEntity
8
1
62
256
6
ByLayer
370
18
48
1
60
0
100
AcDbLine
10
10.105662
20
29.913955
30
0
11
10.105662
21
9.869413
31
0
39
0
210
0
220
0
230
1
0
LINE
5
A7
100
AcDbEntity
8
1
62
256
6
ByLayer
370
18
48
1
60
0
100
AcDbLine
10
63.310042
20
23.976703
30
0
11
63.304554
21
23.871994
31
0
39
0
210
0
220
0
230
1
0
LINE
5
A8
100
AcDbEntity
8
1
62
256
6
ByLayer
370
18
48
1
60
0
100
AcDbLine
10
49.999996
20
1.320494
30
0
11
27.422917
21
-24.498007
31
0
39
0
210
0
220
0
230
1
0
LINE
5
A9
100
AcDbEntity
8
1
62
256
6
ByLayer
370
18
48
1
60
0
100
AcDbLine
10
51.585356
20
20.284951
30
0
11
53.179795
21
20.151662
31
0
39
0
210
0
220
0
230
1
0
LINE
5
AA
100
AcDbEntity
8
1
62
256
6
ByLayer
370
18
48
1
60
0
100
AcDbLine
10
63.277116
20
23.348448
30
0
11
63.304554
21
23.871994
31
0
39
0
210
0
220
0
230
1
0
LINE
5
AB
100
AcDbEntity
8
1
62
256
6
ByLayer
370
18
48
1
60
0
100
AcDbLine
10
55.580693
20
21.42178
30
0
11
55.768028
21
21.351738
31
0
39
0
210
0
220
0
230
1
0
LINE
5
AC
100
AcDbEntity
8
1
62
256
6
ByLayer
370
18
48
1
60
0
100
AcDbLine
10
62.895536
20
16.067464
30
0
11
63.277116
21
23.348448
31
0
39
0
210
0
220
0
230
1
0
LINE
5
AD
100
AcDbEntity
8
1
62
256
6
ByLayer
370
18
48
1
60
0
100
AcDbLine
10
55.8523
20
26.765038
30
0
11
55.81456
21
26.044915
31
0
39
0
210
0
220
0
230
1
0
LINE
5
AE
100
AcDbEntity
8
1
62
256
6
ByLayer
370
18
48
1
60
0
100
AcDbLine
10
55.721161
20
26.173503
30
0
11
55.715502
21
26.065519
31
0
39
0
210
0
220
0
230
1
0
LINE
5
AF
100
AcDbEntity
8
1
62
256
6
ByLayer
370
18
48
1
60
0
100
AcDbLine
10
63.304554
20
23.871994
30
0
11
59.102196
21
25.443191
31
0
39
0
210
0
220
0
230
1
0
LINE
5
B0
100
AcDbEntity
8
1
62
256
6
ByLayer
370
18
48
1
60
0
100
AcDbLine
10
56.310338
20
34.366013
30
0
11
56.148934
21
34.159425
31
0
39
0
210
0
220
0
230
1
0
LINE
5
B1
100
AcDbEntity
8
1
62
256
6
ByLayer
370
18
48
1
60
0
100
AcDbLine
10
58.712853
20
24.944855
30
0
11
58.779426
21
25.030065
31
0
39
0
210
0
220
0
230
1
0
LINE
5
B2
100
AcDbEntity
8
1
62
256
6
ByLayer
370
18
48
1
60
0
100
AcDbLine
10
57.638605
20
22.357194
30
0
11
58.624576
21
24.994293
31
0
39
0
210
0
220
0
230
1
0
LINE
5
B3
100
AcDbEntity
8
1
62
256
6
ByLayer
370
18
48
1
60
0
100
AcDbLine
10
63.277116
20
23.348448
30
0
11
58.779426
21
25.030065
31
0
39
0
210
0
220
0
230
1
0
LINE
5
B4
100
AcDbEntity
8
1
62
256
6
ByLayer
370
18
48
1
60
0
100
AcDbLine
10
27.422917
20
-24.498007
30
0
11
27.422917
21
26.835625
31
0
39
0
210
0
220
0
230
1
0
LINE
5
B5
100
AcDbEntity
8
1
62
256
6
ByLayer
370
18
48
1
60
0
100
AcDbLine
10
22.860155
20
29.554641
30
0
11
22.860155
21
23.069541
31
0
39
0
210
0
220
0
230
1
0
LINE
5
B6
100
AcDbEntity
8
1
62
256
6
ByLayer
370
18
48
1
60
0
100
AcDbLine
10
55.721161
20
26.173503
30
0
11
55.748599
21
26.697049
31
0
39
0
210
0
220
0
230
1
0
LINE
5
B7
100
AcDbEntity
8
1
62
256
6
ByLayer
370
18
48
1
60
0
100
AcDbLine
10
23.438139
20
27.836283
30
0
11
23.438139
21
-27.836283
31
0
39
0
210
0
220
0
230
1
0
LINE
5
B8
100
AcDbEntity
8
1
62
256
6
ByLayer
370
18
48
1
60
0
100
AcDbLine
10
55.81456
20
26.044915
30
0
11
54.828589
21
23.407816
31
0
39
0
210
0
220
0
230
1
0
LINE
5
B9
100
AcDbEntity
8
1
62
256
6
ByLayer
370
18
48
1
60
0
100
AcDbLine
10
10.538675
20
-9.349221
30
0
11
13.461325
21
-9.349221
31
0
39
0
210
0
220
0
230
1
0
LINE
5
BA
100
AcDbEntity
8
1
62
256
6
ByLayer
370
18
48
1
60
0
100
AcDbLine
10
63.538874
20
28.343077
30
0
11
63.526104
21
28.099409
31
0
39
0
210
0
220
0
230
1
0
LINE
5
BB
100
AcDbEntity
8
1
62
256
6
ByLayer
370
18
48
1
60
0
100
AcDbLine
10
13.461325
20
-9.349221
30
0
11
13.461325
21
-30.080593
31
0
39
0
210
0
220
0
230
1
0
LINE
5
BC
100
AcDbEntity
8
1
62
256
6
ByLayer
370
18
48
1
60
0
100
AcDbLine
10
22.860155
20
-29.715851
30
0
11
23.855106
21
-28.578053
31
0
39
0
210
0
220
0
230
1
0
LINE
5
BD
100
AcDbEntity
8
1
62
256
6
ByLayer
370
18
48
1
60
0
100
AcDbLine
10
52.026368
20
22.887439
30
0
11
47.398268
21
26.70255
31
0
39
0
210
0
220
0
230
1
0
LINE
5
BE
100
AcDbEntity
8
1
62
256
6
ByLayer
370
18
48
1
60
0
100
AcDbLine
10
27.422917
20
-24.498007
30
0
11
23.855106
21
-28.578053
31
0
39
0
210
0
220
0
230
1
0
LINE
5
BF
100
AcDbEntity
8
1
62
256
6
ByLayer
370
18
48
1
60
0
100
AcDbLine
10
56.148934
20
34.159425
30
0
11
55.548583
21
33.391011
31
0
39
0
210
0
220
0
230
1
0
LINE
5
C0
100
AcDbEntity
8
1
62
256
6
ByLayer
370
18
48
1
60
0
100
AcDbLine
10
13.461325
20
-30.080593
30
0
11
10.538675
21
-30.080593
31
0
39
0
210
0
220
0
230
1
0
LINE
5
C1
100
AcDbEntity
8
1
62
256
6
ByLayer
370
18
48
1
60
0
100
AcDbLine
10
13.894338
20
29.913955
30
0
11
13.894338
21
9.869413
31
0
39
0
210
0
220
0
230
1
0
LINE
5
C2
100
AcDbEntity
8
1
62
256
6
ByLayer
370
18
48
1
60
0
100
AcDbLine
10
51.008643
20
21.652839
30
0
11
45.273786
21
26.380291
31
0
39
0
210
0
220
0
230
1
0
LINE
5
C3
100
AcDbEntity
8
1
62
256
6
ByLayer
370
18
48
1
60
0
100
AcDbLine
10
63.644784
20
30.363965
30
0
11
63.589908
21
29.316873
31
0
39
0
210
0
220
0
230
1
0
LINE
5
C4
100
AcDbEntity
8
SK1
62
256
6
ByLayer
370
18
48
1
60
0
100
AcDbLine
10
-1.307107
20
-4.811152
30
0
11
-1.307107
21
4.811152
31
0
39
0
210
0
220
0
230
1
0
LINE
5
C6
100
AcDbEntity
8
SK1
62
256
6
ByLayer
370
18
48
1
60
0
100
AcDbLine
10
-0.2
20
-7.034158
30
0
11
-0.2
21
-22.533485
31
0
39
0
210
0
220
0
230
1
0
LINE
5
C7
100
AcDbEntity
8
SK1
62
256
6
ByLayer
370
18
48
1
60
0
100
AcDbLine
10
-0.2
20
22.533485
30
0
11
-0.2
21
7.034161
31
0
39
0
210
0
220
0
230
1
0
LINE
5
C8
100
AcDbEntity
8
1
62
256
6
ByLayer
370
18
48
1
60
0
100
AcDbLine
10
63.709539
20
31.599565
30
0
11
63.72449
21
31.884855
31
0
39
0
210
0
220
0
230
1
0
LINE
5
C9
100
AcDbEntity
8
1
62
256
6
ByLayer
370
18
48
1
60
0
100
AcDbLine
10
56.310338
20
34.366013
30
0
11
56.486221
21
34.591133
31
0
39
0
210
0
220
0
230
1
0
LINE
5
CA
100
AcDbEntity
8
1
62
256
6
ByLayer
370
18
48
1
60
0
100
AcDbLine
10
63.709539
20
31.599565
30
0
11
63.548611
21
31.659733
31
0
39
0
210
0
220
0
230
1
0
LINE
5
CB
100
AcDbEntity
8
1
62
256
6
ByLayer
370
18
48
1
60
0
100
AcDbLine
10
56.471266
20
34.305844
30
0
11
56.310338
21
34.366013
31
0
39
0
210
0
220
0
230
1
0
LINE
5
CC
100
AcDbEntity
8
1
62
256
6
ByLayer
370
18
48
1
60
0
100
AcDbLine
10
54.15247
20
31.604067
30
0
11
56.287901
21
30.805662
31
0
39
0
210
0
220
0
230
1
0
LINE
5
CD
100
AcDbEntity
8
1
62
256
6
ByLayer
370
18
48
1
60
0
100
AcDbLine
10
61.390673
20
28.897814
30
0
11
63.526104
21
28.099409
31
0
39
0
210
0
220
0
230
1
0
LINE
5
CE
100
AcDbEntity
8
1
62
256
6
ByLayer
370
18
48
1
60
0
100
AcDbLine
10
56.148934
20
34.159425
30
0
11
56.457538
21
34.044043
31
0
39
0
210
0
220
0
230
1
0
LINE
5
CF
100
AcDbEntity
8
1
62
256
6
ByLayer
370
18
48
1
60
0
100
AcDbLine
10
63.387215
20
31.453143
30
0
11
63.695818
21
31.337761
31
0
39
0
210
0
220
0
230
1
0
LINE
5
D0
100
AcDbEntity
8
1
62
256
6
ByLayer
370
18
48
1
60
0
100
AcDbLine
10
55.548583
20
33.391011
30
0
11
56.406527
21
33.070238
31
0
39
0
210
0
220
0
230
1
0
LINE
5
D1
100
AcDbEntity
8
1
62
256
6
ByLayer
370
18
48
1
60
0
100
AcDbLine
10
62.78684
20
30.684737
30
0
11
63.644784
21
30.363965
31
0
39
0
210
0
220
0
230
1
0
LINE
5
D2
100
AcDbEntity
8
1
62
256
6
ByLayer
370
18
48
1
60
0
100
AcDbLine
10
54.903044
20
32.564758
30
0
11
56.351714
21
32.023123
31
0
39
0
210
0
220
0
230
1
0
LINE
5
D3
100
AcDbEntity
8
1
62
256
6
ByLayer
370
18
48
1
60
0
100
AcDbLine
10
62.141238
20
29.858508
30
0
11
63.589908
21
29.316873
31
0
39
0
210
0
220
0
230
1
0
LINE
5
D4
100
AcDbEntity
8
1
62
256
6
ByLayer
370
18
48
1
60
0
100
AcDbLine
10
54.302693
20
31.796344
30
0
11
56.300594
21
31.049359
31
0
39
0
210
0
220
0
230
1
0
LINE
5
D5
100
AcDbEntity
8
1
62
256
6
ByLayer
370
18
48
1
60
0
100
AcDbLine
10
61.540972
20
29.090062
30
0
11
63.538874
21
28.343077
31
0
39
0
210
0
220
0
230
1
0
LINE
5
D6
100
AcDbEntity
8
1
62
256
6
ByLayer
370
18
48
1
60
0
100
AcDbLine
10
22.279208
20
-30.380206
30
0
11
21.3
21
-31.5
31
0
39
0
210
0
220
0
230
1
0
LINE
5
D7
100
AcDbEntity
8
1
62
256
6
ByLayer
370
18
48
1
60
0
100
AcDbLine
10
0.3
20
-31.5
30
0
11
0.3
21
31.5
31
0
39
0
210
0
220
0
230
1
0
LINE
5
D8
100
AcDbEntity
8
1
62
256
6
ByLayer
370
18
48
1
60
0
100
AcDbLine
10
0
20
-31.2
30
0
11
0
21
31.2
31
0
39
0
210
0
220
0
230
1
0
LINE
5
D9
100
AcDbEntity
8
81
62
256
6
ByLayer
370
18
48
1
60
0
100
AcDbLine
10
65
20
45
30
0
11
75
21
45
31
0
39
0
210
0
220
0
230
1
0
LINE
5
DA
100
AcDbEntity
8
80
62
256
6
ByLayer
370
18
48
1
60
0
100
AcDbLine
10
0
20
0
30
0
11
-10
21
0
31
0
39
0
210
0
220
0
230
1
0
LINE
5
DB
100
AcDbEntity
8
1
62
256
6
ByLayer
370
18
48
1
60
0
100
AcDbLine
10
21.308275
20
31.5
30
0
11
0.3
21
31.5
31
0
39
0
210
0
220
0
230
1
0
LINE
5
DC
100
AcDbEntity
8
1
62
256
6
ByLayer
370
18
48
1
60
0
100
AcDbLine
10
0.3
20
-31.5
30
0
11
21.3
21
-31.5
31
0
39
0
210
0
220
0
230
1
0
LINE
5
DD
100
AcDbEntity
8
1
62
256
6
ByLayer
370
18
48
1
60
0
100
AcDbLine
10
0
20
-31.2
30
0
11
0.3
21
-31.5
31
0
39
0
210
0
220
0
230
1
0
LINE
5
DE
100
AcDbEntity
8
1
62
256
6
ByLayer
370
18
48
1
60
0
100
AcDbLine
10
0.3
20
31.5
30
0
11
0
21
31.2
31
0
39
0
210
0
220
0
230
1
0
LINE
5
DF
100
AcDbEntity
8
2
62
256
6
ByLayer
370
13
48
1
60
0
100
AcDbLine
10
88.6
20
0
30
0
11
88.6
21
45
31
0
39
0
210
0
220
0
230
1
0
LINE
5
E1
100
AcDbEntity
8
2
62
256
6
ByLayer
370
13
48
1
60
0
100
AcDbLine
10
66.5875
20
45
30
0
11
91.775
21
45
31
0
39
0
210
0
220
0
230
1
0
LINE
5
E2
100
AcDbEntity
8
2
62
256
6
ByLayer
370
13
48
1
60
0
100
AcDbLine
10
51.5875
20
0
30
0
11
91.775
21
0
31
0
39
0
210
0
220
0
230
1
0
LINE
5
E3
100
AcDbEntity
8
1
62
256
6
ByLayer
370
13
48
1
60
0
100
AcDbLine
10
88.6
20
45
30
0
11
89.450739
21
41.825003
31
0
39
0
210
0
220
0
230
1
0
LINE
5
E4
100
AcDbEntity
8
1
62
256
6
ByLayer
370
13
48
1
60
0
100
AcDbLine
10
88.6
20
45
30
0
11
87.749261
21
41.824997
31
0
39
0
210
0
220
0
230
1
0
LINE
5
E5
100
AcDbEntity
8
1
62
256
6
ByLayer
370
13
48
1
60
0
100
AcDbLine
10
89.450739
20
41.825003
30
0
11
87.749261
21
41.824997
31
0
39
0
210
0
220
0
230
1
0
LINE
5
E6
100
AcDbEntity
8
1
62
256
6
ByLayer
370
13
48
1
60
0
100
AcDbLine
10
88.6
20
0
30
0
11
87.749261
21
3.174997
31
0
39
0
210
0
220
0
230
1
0
LINE
5
E7
100
AcDbEntity
8
1
62
256
6
ByLayer
370
13
48
1
60
0
100
AcDbLine
10
88.6
20
0
30
0
11
89.450739
21
3.175003
31
0
39
0
210
0
220
0
230
1
0
LINE
5
E8
100
AcDbEntity
8
1
62
256
6
ByLayer
370
13
48
1
60
0
100
AcDbLine
10
87.749261
20
3.174997
30
0
11
89.450739
21
3.175003
31
0
39
0
210
0
220
0
230
1
0
LINE
5
E9
100
AcDbEntity
8
2
62
256
6
ByLayer
370
13
48
1
60
0
100
AcDbLine
10
49.597147
20
44.235461
30
0
11
49.405998
21
44.225444
31
0
39
0
210
0
220
0
230
1
0
LINE
5
EA
100
AcDbEntity
8
2
62
256
6
ByLayer
370
13
48
1
60
0
100
AcDbLine
10
65
20
46.5875
30
0
11
65
21
60.658093
31
0
39
0
210
0
220
0
230
1
0
LINE
5
EB
100
AcDbEntity
8
1
62
256
6
ByLayer
370
13
48
1
60
0
100
AcDbLine
10
52.576646
20
44.39161
30
0
11
51.761206
21
47.575856
31
0
39
0
210
0
220
0
230
1
0
LINE
5
EC
100
AcDbEntity
8
1
62
256
6
ByLayer
370
13
48
1
60
0
100
AcDbLine
10
52.576646
20
44.39161
30
0
11
53.462579
21
47.556974
31
0
39
0
210
0
220
0
230
1
0
LINE
5
ED
100
AcDbEntity
8
1
62
256
6
ByLayer
370
13
48
1
60
0
100
AcDbLine
10
51.761206
20
47.575856
30
0
11
53.462579
21
47.556974
31
0
39
0
210
0
220
0
230
1
0
LINE
5
EE
100
AcDbEntity
8
1
62
256
6
ByLayer
370
13
48
1
60
0
100
AcDbLine
10
65
20
57.483093
30
0
11
61.885347
21
56.432713
31
0
39
0
210
0
220
0
230
1
0
LINE
5
EF
100
AcDbEntity
8
1
62
256
6
ByLayer
370
13
48
1
60
0
100
AcDbLine
10
65
20
57.483093
30
0
11
61.777435
21
58.130765
31
0
39
0
210
0
220
0
230
1
0
LINE
5
F0
100
AcDbEntity
8
1
62
256
6
ByLayer
370
13
48
1
60
0
100
AcDbLine
10
61.885347
20
56.432713
30
0
11
61.777435
21
58.130765
31
0
39
0
210
0
220
0
230
1
0
MTEXT
5
163
100
AcDbEntity
8
2
62
256
6
ByLayer
370
13
48
1
60
0
100
AcDbMText
10
87.713328
20
17.186275
30
0
210
0
220
0
230
1
1
\W0.7640;45.0
40
4.5
41
0
44
1.084337
50
90
71
7
72
5
7
iso_b_vert
0
MTEXT
5
166
100
AcDbEntity
8
2
62
256
6
ByLayer
370
13
48
1
60
0
100
AcDbMText
10
50.861629
20
49.802378
30
0
210
0
220
0
230
1
1
\W0.8292;93%%d0'
40
4.5
41
0
44
1.084337
50
46.4999999999999
71
7
72
5
7
iso_b_vert
0
MTEXT
5
167
100
AcDbEntity
8
SK6
62
256
6
ByLayer
370
13
48
1
60
0
100
AcDbMText
10
0.353024
20
-46.177256
30
0
210
0
220
0
230
1
1
\W0.7683;C6-TR-V13UBR-45065C1
40
3.5
41
0
44
1.084337
50
0
71
7
72
5
7
iso_b_vert
0
DIMENSION
5
16A
100
AcDbEntity
8
2
62
256
6
ByLayer
370
13
48
1
60
0
100
AcDbDimension
2
_U0
10
0
20
62.5
30
0
11
32.5
21
62.5
31
0
70
32
71
1
72
1
41
1
210
0
220
0
230
1
3
Standard
100
AcDbAlignedDimension
13
65
23
45
33
0
14
0
24
31.5
34
0
50
0
100
AcDbRotatedDimension
1001
ACAD
1000
DSTYLE
1002
{
1070
   371
1070
    13
1070
   372
1070
    13
1070
     3
1000

1070
   170
1070
     0
1070
   144
1040
1.0
1070
   277
1070
     2
1070
   284
1070
     8
1070
   278
1070
    46
1070
   146
1040
0.777778
1070
   345
1005
16
1070
   347
1005
16
1070
   346
1005
16
1070
   344
1005
16B
1070
   343
1005
16B
1070
   172
1070
     1
1070
    76
1070
     0
1070
    75
1070
     0
1070
   282
1070
     0
1070
   281
1070
     0
1070
    71
1070
     0
1070
    74
1070
     0
1070
   279
1070
     0
1070
   173
1070
     1
1070
   340
1005
164
1070
   271
1070
     1
1070
   272
1070
     2
1070
    77
1070
     1
1070
    73
1070
     1
1070
   171
1070
     3
1070
   274
1070
     4
1070
   177
1070
   150
1070
   176
1070
     9
1070
   178
1070
    43
1070
    78
1070
     8
1070
    48
1040
-0.1
1070
    41
1040
3.175
1070
   147
1040
2.25
1070
    42
1040
1.5875
1070
    44
1040
3.175
1070
   140
1040
4.5
1002
}
1001
ACAD_DSTYLE_DIM_LINETYPE
1070
   380
1005
16
1001
ACAD_DSTYLE_DIM_EXT1_LINETYPE
1070
   381
1005
16
1001
ACAD_DSTYLE_DIM_EXT2_LINETYPE
1070
   382
1005
16
0
ENDSEC
0
SECTION
2
OBJECTS
0
DICTIONARY
5
1fc
330
0
100
AcDbDictionary
280
0
281
1
3
ACAD_GROUP
350
1fd
3
ACAD_MLINESTYLE
350
1fe
0
DICTIONARY
5
1fd
330
0
100
AcDbDictionary
280
0
281
1
0
DICTIONARY
5
1fe
330
0
100
AcDbDictionary
280
0
281
1
3
Standard
350
18
0
MLINESTYLE
5
18
330
1fe
100
AcDbMlineStyle
2
Standard
70
0
3

62
256
51
90
52
90
71
2
49
-0.5
62
256
6
ByLayer
49
0.5
62
256
6
ByLayer
0
RASTERVARIABLES
5
1ec
330

100
AcDbRasterVariables
90
0
70
1
71
1
72
1
0
ENDSEC
0
EOF
