0
SECTION
2
HEADER
9
$ACADVER
1
AC1015
9
$DWGCODEPAGE
3
ANSI_1252
9
$HANDSEED
5
211
9
$ANGBASE
50
0
9
$ANGDIR
70
0
9
$ATTMODE
70
1
9
$AUNITS
70
0
9
$AUPREC
70
0
9
$CECOLOR
62
256
9
$CELTSCALE
40
1
9
$CELTYPE
6
ByLayer
9
$CELWEIGHT
370
18
9
$CLAYER
8
0
9
$CMLJUST
70
0
9
$CMLSCALE
40
1
9
$CMLSTYLE
2
Standard
9
$DIMSTYLE
2
Standard
9
$TEXTSIZE
40
0.2
9
$TEXTSTYLE
7
Standard
9
$LUNITS
70
2
9
$LUPREC
70
4
9
$EXTNAMES
290
1
9
$INSUNITS
70
4
9
$LTSCALE
40
1
9
$LWDISPLAY
290
1
9
$PDMODE
70
0
9
$PDSIZE
40
0
9
$PLINEGEN
70
0
0
ENDSEC
0
SECTION
2
CLASSES
0
CLASS
1
RASTERVARIABLES
2
AcDbRasterVariables
3
ISM
90
0
280
0
281
0
0
ENDSEC
0
SECTION
2
TABLES
0
TABLE
2
VPORT
5
207
100
AcDbSymbolTable
0
VPORT
5
1
100
AcDbSymbolTableRecord
100
AcDbViewportTableRecord
2
*Active
70
0
10
0
20
0
11
1
21
1
12
-1
22
1
13
0
23
0
14
0.5
24
0.5
15
10
25
10
16
0
26
0
36
1
17
0
27
0
37
0
0
ENDTAB
0
TABLE
2
LTYPE
5
208
100
AcDbSymbolTable
0
LTYPE
5
14
100
AcDbSymbolTableRecord
100
AcDbLinetypeTableRecord
70
0
2
ByBlock
3

72
65
73
0
40
0
0
LTYPE
5
15
100
AcDbSymbolTableRecord
100
AcDbLinetypeTableRecord
70
0
2
ByLayer
3

72
65
73
0
40
0
0
LTYPE
5
16
100
AcDbSymbolTableRecord
100
AcDbLinetypeTableRecord
70
0
2
Continuous
3
Solid line
72
65
73
0
40
0
0
LTYPE
5
6E
100
AcDbSymbolTableRecord
100
AcDbLinetypeTableRecord
70
0
2
CENTER
3
____ _ ____ _ ____ _ ____
72
65
73
4
40
47.5
49
22
74
0
49
-8.5
74
0
49
8.5
74
0
49
-8.5
74
0
0
LTYPE
5
6F
100
AcDbSymbolTableRecord
100
AcDbLinetypeTableRecord
70
0
2
DASHED
3
__ __ __ __ __ __ __ __ __
72
65
73
2
40
25.72
49
12.86
74
0
49
-12.86
74
0
0
ENDTAB
0
TABLE
2
LAYER
5
209
100
AcDbSymbolTable
0
LAYER
5
10
100
AcDbSymbolTableRecord
100
AcDbLayerTableRecord
2
0
70
0
62
7
6
Continuous
290
1
370
-3
390
0
0
LAYER
5
71
100
AcDbSymbolTableRecord
100
AcDbLayerTableRecord
2
81
70
0
62
-3
6
Continuous
290
1
370
-3
390
0
0
LAYER
5
73
100
AcDbSymbolTableRecord
100
AcDbLayerTableRecord
2
80
70
0
62
-6
6
Continuous
290
1
370
-3
390
0
0
LAYER
5
75
100
AcDbSymbolTableRecord
100
AcDbLayerTableRecord
2
1
70
0
62
4
6
Continuous
290
1
370
-3
390
0
0
LAYER
5
E5
100
AcDbSymbolTableRecord
100
AcDbLayerTableRecord
2
2
70
0
62
7
6
Continuous
290
1
370
-3
390
0
0
LAYER
5
17C
100
AcDbSymbolTableRecord
100
AcDbLayerTableRecord
2
Defpoints
70
0
62
7
6
Continuous
290
0
370
-3
390
0
0
LAYER
5
1f5
100
AcDbSymbolTableRecord
100
AcDbLayerTableRecord
2
SK1
70
0
62
4
6
Continuous
290
1
370
-3
390
0
0
LAYER
5
1f6
100
AcDbSymbolTableRecord
100
AcDbLayerTableRecord
2
SK6
70
0
62
5
6
Continuous
290
1
370
-3
390
0
0
ENDTAB
0
TABLE
2
STYLE
5
20a
100
AcDbSymbolTable
0
STYLE
5
11
100
AcDbSymbolTableRecord
100
AcDbTextStyleTableRecord
2
Standard
3
txt
70
0
71
0
40
0
41
1
42
0
50
0
0
STYLE
5
16C
100
AcDbSymbolTableRecord
100
AcDbTextStyleTableRecord
2
iso_b_vert
3
simplex.shx
70
0
71
0
40
0
41
1
42
0
50
0
0
STYLE
5
16D
100
AcDbSymbolTableRecord
100
AcDbTextStyleTableRecord
2
DWGDirectTextStyle
3
simplex
70
0
71
0
40
0
41
1
42
0
50
0
0
ENDTAB
0
TABLE
2
DIMSTYLE
5
20b
100
AcDbSymbolTable
100
AcDbDimStyleTable
0
DIMSTYLE
105
27
100
AcDbSymbolTableRecord
100
AcDbDimStyleTableRecord
2
Standard
70
0
3
<>
41
0.18
42
0.0625
44
0.18
140
0.18
147
0.09
73
0
74
0
77
1
271
2
275
0
278
52
280
0
340
11
0
ENDTAB
0
TABLE
2
VIEW
5
20c
100
AcDbSymbolTable
0
ENDTAB
0
TABLE
2
UCS
5
20d
100
AcDbSymbolTable
0
ENDTAB
0
TABLE
2
APPID
5
20e
100
AcDbSymbolTable
0
APPID
5
12
100
AcDbSymbolTableRecord
100
AcDbRegAppTableRecord
2
ACAD
70
0
0
APPID
5
171
100
AcDbSymbolTableRecord
100
AcDbRegAppTableRecord
2
ACAD_DSTYLE_DIMBREAK
70
0
0
APPID
5
1B4
100
AcDbSymbolTableRecord
100
AcDbRegAppTableRecord
2
ACAD_DSTYLE_DIM_LINETYPE
70
0
0
APPID
5
1B5
100
AcDbSymbolTableRecord
100
AcDbRegAppTableRecord
2
ACAD_DSTYLE_DIM_EXT1_LINETYPE
70
0
0
APPID
5
1B6
100
AcDbSymbolTableRecord
100
AcDbRegAppTableRecord
2
ACAD_DSTYLE_DIM_EXT2_LINETYPE
70
0
0
APPID
5
1F1
100
AcDbSymbolTableRecord
100
AcDbRegAppTableRecord
2
ACAD_MLEADERVER
70
0
0
ENDTAB
0
TABLE
2
BLOCK_RECORD
5
20f
100
AcDbSymbolTable
0
BLOCK_RECORD
5
1F
100
AcDbSymbolTableRecord
100
AcDbBlockTableRecord
2
*Model_Space
340
0
70
0
0
BLOCK_RECORD
5
1B
100
AcDbSymbolTableRecord
100
AcDbBlockTableRecord
2
*Paper_Space
340
0
70
0
0
BLOCK_RECORD
5
23
100
AcDbSymbolTableRecord
100
AcDbBlockTableRecord
2
*Paper_Space0
340
0
70
0
0
BLOCK_RECORD
5
173
100
AcDbSymbolTableRecord
100
AcDbBlockTableRecord
2
_Closed
340
0
70
0
0
BLOCK_RECORD
5
17D
100
AcDbSymbolTableRecord
100
AcDbBlockTableRecord
2
*D2
340
0
70
0
0
BLOCK_RECORD
5
189
100
AcDbSymbolTableRecord
100
AcDbBlockTableRecord
2
_U0
340
0
70
0
0
ENDTAB
0
ENDSEC
0
SECTION
2
BLOCKS
0
BLOCK
5
20
100
AcDbEntity
8
0
100
AcDbBlockBegin
2
*Model_Space
70
0
10
0
20
0
30
0
3
*Model_Space
0
ENDBLK
5
21
100
AcDbEntity
8
0
100
AcDbBlockEnd
0
BLOCK
5
1C
100
AcDbEntity
8
0
100
AcDbBlockBegin
2
*Paper_Space
70
0
10
0
20
0
30
0
3
*Paper_Space
0
ENDBLK
5
1D
100
AcDbEntity
8
0
100
AcDbBlockEnd
0
BLOCK
5
24
100
AcDbEntity
8
0
100
AcDbBlockBegin
2
*Paper_Space0
70
0
10
0
20
0
30
0
3
*Paper_Space0
0
ENDBLK
5
25
100
AcDbEntity
8
0
100
AcDbBlockEnd
0
BLOCK
5
174
100
AcDbEntity
8
0
100
AcDbBlockBegin
2
_Closed
70
0
10
0
20
0
30
0
3
_Closed
0
LINE
5
176
100
AcDbEntity
8
0
62
256
6
ByLayer
370
-2
48
1
60
0
100
AcDbLine
10
-1
20
0.166667
30
0
11
0
21
0
31
0
39
0
210
0
220
0
230
1
0
LINE
5
177
100
AcDbEntity
8
0
62
256
6
ByLayer
370
-2
48
1
60
0
100
AcDbLine
10
0
20
0
30
0
11
-1
21
-0.166667
31
0
39
0
210
0
220
0
230
1
0
LINE
5
178
100
AcDbEntity
8
0
62
256
6
ByLayer
370
-2
48
1
60
0
100
AcDbLine
10
-1
20
0.166667
30
0
11
-1
21
-0.166667
31
0
39
0
210
0
220
0
230
1
0
LINE
5
179
100
AcDbEntity
8
0
62
256
6
ByLayer
370
-2
48
1
60
0
100
AcDbLine
10
0
20
0
30
0
11
-1
21
0
31
0
39
0
210
0
220
0
230
1
0
ENDBLK
5
175
100
AcDbEntity
8
0
100
AcDbBlockEnd
0
BLOCK
5
17E
100
AcDbEntity
8
0
100
AcDbBlockBegin
2
*D2
70
1
10
0
20
0
30
0
3
*D2
0
LINE
5
180
100
AcDbEntity
8
0
62
256
6
ByLayer
370
-2
48
1
60
0
100
AcDbLine
10
65
20
46.5875
30
0
11
65
21
65.675
31
0
39
0
210
0
220
0
230
1
0
LINE
5
181
100
AcDbEntity
8
0
62
256
6
ByLayer
370
-2
48
1
60
0
100
AcDbLine
10
0
20
33.0875
30
0
11
0
21
65.675
31
0
39
0
210
0
220
0
230
1
0
LINE
5
182
100
AcDbEntity
8
0
62
256
6
ByLayer
370
-2
48
1
60
0
100
AcDbLine
10
61.825
20
62.5
30
0
11
3.175
21
62.5
31
0
39
0
210
0
220
0
230
1
0
SOLID
5
183
100
AcDbEntity
8
0
62
256
6
ByLayer
370
-1
48
1
60
0
100
AcDbTrace
10
61.825
20
61.970833
30
0
11
61.825
21
63.029167
31
0
12
65
22
62.5
32
0
13
65
23
62.5
33
0
39
0
210
0
220
0
230
1
0
SOLID
5
184
100
AcDbEntity
8
0
62
256
6
ByLayer
370
-1
48
1
60
0
100
AcDbTrace
10
3.175
20
63.029167
30
0
11
3.175
21
61.970833
31
0
12
0
22
62.5
32
0
13
0
23
62.5
33
0
39
0
210
0
220
0
230
1
0
MTEXT
5
185
100
AcDbEntity
8
0
62
256
6
ByLayer
370
18
48
1
60
0
100
AcDbMText
10
32.5
20
71.89375
30
0
210
0
220
0
230
1
1
\A1;65
40
4.5
41
0
44
1
50
0
71
5
72
5
7
iso_b_vert
0
POINT
5
186
100
AcDbEntity
8
Defpoints
62
0
6
ByLayer
370
-1
48
1
60
0
100
AcDbPoint
10
65
20
45
30
0
39
0
210
0
220
0
230
1
50
360
0
POINT
5
187
100
AcDbEntity
8
Defpoints
62
0
6
ByLayer
370
-1
48
1
60
0
100
AcDbPoint
10
0
20
31.5
30
0
39
0
210
0
220
0
230
1
50
360
0
POINT
5
188
100
AcDbEntity
8
Defpoints
62
0
6
ByLayer
370
-1
48
1
60
0
100
AcDbPoint
10
0
20
62.5
30
0
39
0
210
0
220
0
230
1
50
360
0
ENDBLK
5
17F
100
AcDbEntity
8
0
100
AcDbBlockEnd
0
BLOCK
5
194
100
AcDbEntity
8
0
100
AcDbBlockBegin
2
_U0
70
0
10
0
20
0
30
0
3
_U0
0
MTEXT
5
18A
100
AcDbEntity
8
2
62
256
6
ByLayer
370
13
48
1
60
0
100
AcDbMText
10
27.457816
20
63.827672
30
0
210
0
220
0
230
1
1
\W0.7346;65.0
40
4.5
41
0
44
1.084337
50
0
71
7
72
5
7
iso_b_vert
0
LINE
5
18B
100
AcDbEntity
8
2
62
256
6
ByLayer
370
13
48
1
60
0
100
AcDbLine
10
65
20
46.5875
30
0
11
65
21
65.675
31
0
39
0
210
0
220
0
230
1
0
LINE
5
18C
100
AcDbEntity
8
2
62
256
6
ByLayer
370
13
48
1
60
0
100
AcDbLine
10
0
20
33.0875
30
0
11
0
21
65.675
31
0
39
0
210
0
220
0
230
1
0
LINE
5
18D
100
AcDbEntity
8
2
62
256
6
ByLayer
370
13
48
1
60
0
100
AcDbLine
10
65
20
62.5
30
0
11
0
21
62.5
31
0
39
0
210
0
220
0
230
1
0
LINE
5
18E
100
AcDbEntity
8
2
62
256
6
ByLayer
370
13
48
1
60
0
100
AcDbLine
10
65
20
62.5
30
0
11
61.825003
21
61.649261
31
0
39
0
210
0
220
0
230
1
0
LINE
5
18F
100
AcDbEntity
8
2
62
256
6
ByLayer
370
13
48
1
60
0
100
AcDbLine
10
65
20
62.5
30
0
11
61.824997
21
63.350739
31
0
39
0
210
0
220
0
230
1
0
LINE
5
190
100
AcDbEntity
8
2
62
256
6
ByLayer
370
13
48
1
60
0
100
AcDbLine
10
61.825003
20
61.649261
30
0
11
61.824997
21
63.350739
31
0
39
0
210
0
220
0
230
1
0
LINE
5
191
100
AcDbEntity
8
2
62
256
6
ByLayer
370
13
48
1
60
0
100
AcDbLine
10
0
20
62.5
30
0
11
3.174997
21
63.350739
31
0
39
0
210
0
220
0
230
1
0
LINE
5
192
100
AcDbEntity
8
2
62
256
6
ByLayer
370
13
48
1
60
0
100
AcDbLine
10
0
20
62.5
30
0
11
3.175003
21
61.649261
31
0
39
0
210
0
220
0
230
1
0
LINE
5
193
100
AcDbEntity
8
2
62
256
6
ByLayer
370
13
48
1
60
0
100
AcDbLine
10
3.174997
20
63.350739
30
0
11
3.175003
21
61.649261
31
0
39
0
210
0
220
0
230
1
0
ENDBLK
5
195
100
AcDbEntity
8
0
100
AcDbBlockEnd
0
ENDSEC
0
SECTION
2
ENTITIES
0
ARC
5
F5
100
AcDbEntity
8
1
62
256
6
ByLayer
370
18
48
1
60
0
100
AcDbCircle
39
0
10
55.472197
20
38.090585
30
0
40
1.0744
210
0
220
0
230
1
100
AcDbArc
50
95
51
155
0
ARC
5
F6
100
AcDbEntity
8
1
62
256
6
ByLayer
370
18
48
1
60
0
100
AcDbCircle
39
0
10
55.472197
20
38.090585
30
0
40
1.0744
210
0
220
0
230
1
100
AcDbArc
50
275
51
335
0
ARC
5
F7
100
AcDbEntity
8
1
62
256
6
ByLayer
370
18
48
1
60
0
100
AcDbCircle
39
0
10
55.472197
20
38.090585
30
0
40
1.4097
210
0
220
0
230
1
100
AcDbArc
50
245
51
305
0
ARC
5
F8
100
AcDbEntity
8
1
62
256
6
ByLayer
370
18
48
1
60
0
100
AcDbCircle
39
0
10
55.472197
20
38.090585
30
0
40
1.4097
210
0
220
0
230
1
100
AcDbArc
50
185
51
245
0
ARC
5
F9
100
AcDbEntity
8
1
62
256
6
ByLayer
370
18
48
1
60
0
100
AcDbCircle
39
0
10
55.472197
20
38.090585
30
0
40
1.0744
210
0
220
0
230
1
100
AcDbArc
50
35
51
95
0
ARC
5
FA
100
AcDbEntity
8
1
62
256
6
ByLayer
370
18
48
1
60
0
100
AcDbCircle
39
0
10
55.472197
20
38.090585
30
0
40
1.4097
210
0
220
0
230
1
100
AcDbArc
50
305
51
5
0
ARC
5
FB
100
AcDbEntity
8
1
62
256
6
ByLayer
370
18
48
1
60
0
100
AcDbCircle
39
0
10
55.472197
20
38.090585
30
0
40
1.4097
210
0
220
0
230
1
100
AcDbArc
50
125
51
185
0
ARC
5
FC
100
AcDbEntity
8
1
62
256
6
ByLayer
370
18
48
1
60
0
100
AcDbCircle
39
0
10
55.472197
20
38.090585
30
0
40
1.0744
210
0
220
0
230
1
100
AcDbArc
50
155
51
215
0
ARC
5
FE
100
AcDbEntity
8
1
62
256
6
ByLayer
370
18
48
1
60
0
100
AcDbCircle
39
0
10
55.472197
20
38.090585
30
0
40
1.0744
210
0
220
0
230
1
100
AcDbArc
50
215
51
275
0
ARC
5
100
100
AcDbEntity
8
1
62
256
6
ByLayer
370
18
48
1
60
0
100
AcDbCircle
39
0
10
55.472197
20
38.090585
30
0
40
1.4097
210
0
220
0
230
1
100
AcDbArc
50
5
51
65
0
ARC
5
101
100
AcDbEntity
8
1
62
256
6
ByLayer
370
18
48
1
60
0
100
AcDbCircle
39
0
10
55.472197
20
38.090585
30
0
40
1.4097
210
0
220
0
230
1
100
AcDbArc
50
65
51
125
0
ARC
5
102
100
AcDbEntity
8
1
62
256
6
ByLayer
370
18
48
1
60
0
100
AcDbCircle
39
0
10
55.472197
20
38.090585
30
0
40
1.0744
210
0
220
0
230
1
100
AcDbArc
50
335
51
35
0
ARC
5
105
100
AcDbEntity
8
1
62
256
6
ByLayer
370
18
48
1
60
0
100
AcDbCircle
39
0
10
46.738194
20
31.974971
30
0
40
0.793800000000105
210
0
220
0
230
1
100
AcDbArc
50
152.5
51
277.5
0
ARC
5
106
100
AcDbEntity
8
1
62
256
6
ByLayer
370
18
48
1
60
0
100
AcDbCircle
39
0
10
64.2062
20
44.2062
30
0
40
0.793800000000105
210
0
220
0
230
1
100
AcDbArc
50
332.5
51
97.5
0
ARC
5
108
100
AcDbEntity
8
1
62
256
6
ByLayer
370
18
48
1
60
0
100
AcDbCircle
39
0
10
40.748923
20
48.515718
30
0
40
11
210
0
220
0
230
1
100
AcDbArc
50
270
51
287.5
0
ARC
5
109
100
AcDbEntity
8
1
62
256
6
ByLayer
370
18
48
1
60
0
100
AcDbCircle
39
0
10
22.352608
20
-7.478682
30
0
40
41.6
210
0
220
0
230
1
100
AcDbArc
50
46.806034
51
56.680281
0
ARC
5
10A
100
AcDbEntity
8
1
62
256
6
ByLayer
370
18
48
1
60
0
100
AcDbCircle
39
0
10
45.557895
20
31.148516
30
0
40
1.6
210
0
220
0
230
1
100
AcDbArc
50
218.583322
51
305
0
ARC
5
10B
100
AcDbEntity
8
1
62
256
6
ByLayer
370
18
48
1
60
0
100
AcDbCircle
39
0
10
42.677094
20
23.439198
30
0
40
4.6
210
0
220
0
230
1
100
AcDbArc
50
56.680281
51
93.887683
0
ARC
5
10C
100
AcDbEntity
8
1
62
256
6
ByLayer
370
18
48
1
60
0
100
AcDbCircle
39
0
10
47.941638
20
19.245867
30
0
40
3
210
0
220
0
230
1
100
AcDbArc
50
45.727371
51
46.243467
0
ARC
5
10D
100
AcDbEntity
8
1
62
256
6
ByLayer
370
18
48
1
60
0
100
AcDbCircle
39
0
10
22.352608
20
-7.478682
30
0
40
40
210
0
220
0
230
1
100
AcDbArc
50
46.243467
51
56.680281
0
ARC
5
10E
100
AcDbEntity
8
1
62
256
6
ByLayer
370
18
48
1
60
0
100
AcDbCircle
39
0
10
45.557895
20
31.148516
30
0
40
1.6
210
0
220
0
230
1
100
AcDbArc
50
125
51
211.416678
0
ARC
5
10F
100
AcDbEntity
8
1
62
256
6
ByLayer
370
18
48
1
60
0
100
AcDbCircle
39
0
10
42.677094
20
23.439198
30
0
40
3
210
0
220
0
230
1
100
AcDbArc
50
56.680281
51
93.887683
0
ARC
5
110
100
AcDbEntity
8
1
62
256
6
ByLayer
370
18
48
1
60
0
100
AcDbCircle
39
0
10
39.761659
20
66.340249
30
0
40
38.4
210
0
220
0
230
1
100
AcDbArc
50
244.198509
51
273.887683
0
ARC
5
111
100
AcDbEntity
8
1
62
256
6
ByLayer
370
18
48
1
60
0
100
AcDbCircle
39
0
10
39.761659
20
66.340249
30
0
40
40
210
0
220
0
230
1
100
AcDbArc
50
252.004366
51
273.887683
0
ARC
5
112
100
AcDbEntity
8
1
62
256
6
ByLayer
370
18
48
1
60
0
100
AcDbCircle
39
0
10
45.557895
20
31.148516
30
0
40
1.50000000000001
210
0
220
0
230
1
100
AcDbArc
50
218.700879
51
305
0
ARC
5
113
100
AcDbEntity
8
1
62
256
6
ByLayer
370
18
48
1
60
0
100
AcDbCircle
39
0
10
45.557895
20
31.148516
30
0
40
1.5
210
0
220
0
230
1
100
AcDbArc
50
125
51
211.299121
0
ARC
5
114
100
AcDbEntity
8
SK1
62
256
6
ByLayer
370
18
48
1
60
0
100
AcDbCircle
39
0
10
-0.6
20
23.45
30
0
40
0.999999999999994
210
0
220
0
230
1
100
AcDbArc
50
293.578178
51
306.869898
0
ARC
5
115
100
AcDbEntity
8
SK1
62
256
6
ByLayer
370
18
48
1
60
0
100
AcDbCircle
39
0
10
-0.6
20
-23.45
30
0
40
0.999999999999994
210
0
220
0
230
1
100
AcDbArc
50
53.130102
51
66.421822
0
ARC
5
116
100
AcDbEntity
8
1
62
256
6
ByLayer
370
18
48
1
60
0
100
AcDbCircle
39
0
10
22.279208
20
32.7
30
0
40
1.2
210
0
220
0
230
1
100
AcDbArc
50
337.210543
51
345
0
ARC
5
117
100
AcDbEntity
8
2
62
256
6
ByLayer
370
13
48
1
60
0
100
AcDbCircle
39
0
10
65
20
45.288807
30
0
40
12.2675892988694
210
0
220
0
230
1
100
AcDbArc
50
90
51
197.5
0
CIRCLE
5
FD
100
AcDbEntity
8
1
62
256
6
ByLayer
370
18
48
1
60
0
100
AcDbCircle
10
55.472197
20
38.090585
30
0
40
2.2
39
0
210
0
220
0
230
1
0
CIRCLE
5
FF
100
AcDbEntity
8
1
62
256
6
ByLayer
370
18
48
1
60
0
100
AcDbCircle
10
55.472197
20
38.090585
30
0
40
1.5
39
0
210
0
220
0
230
1
0
CIRCLE
5
103
100
AcDbEntity
8
1
62
256
6
ByLayer
370
18
48
1
60
0
100
AcDbCircle
10
55.472197
20
38.090585
30
0
40
2.20386856458349
39
0
210
0
220
0
230
1
0
CIRCLE
5
104
100
AcDbEntity
8
1
62
256
6
ByLayer
370
18
48
1
60
0
100
AcDbCircle
10
55.472197
20
38.090585
30
0
40
2.28743682147944
39
0
210
0
220
0
230
1
0
CIRCLE
5
107
100
AcDbEntity
8
1
62
256
6
ByLayer
370
18
48
1
60
0
100
AcDbCircle
10
55.472197
20
38.090585
30
0
40
2.31999999999998
39
0
210
0
220
0
230
1
0
ELLIPSE
5
118
100
AcDbEntity
8
1
62
256
6
ByLayer
370
18
48
1
60
0
100
AcDbEllipse
10
57.158826
20
35.681829
30
0
11
0.685997850597959
21
-0.979706462960904
31
0
210
2.34291072916505E-15
220
-5.71924156285234E-30
230
1
40
0.995819
41
-0.304233038584706
42
0.304233038584744
0
ELLIPSE
5
119
100
AcDbEntity
8
1
62
256
6
ByLayer
370
18
48
1
60
0
100
AcDbEllipse
10
53.785568
20
40.499341
30
0
11
-0.685997850598
21
0.979706462960875
31
0
210
2.34291072916505E-15
220
-5.52202633654708E-30
230
1
40
0.995819
41
-0.304233038584755
42
0.304233038584712
0
ELLIPSE
5
11A
100
AcDbEntity
8
1
62
256
6
ByLayer
370
18
48
1
60
0
100
AcDbEllipse
10
24.755893
20
0
30
0
11
1.93793955492944E-15
21
31.6500000000902
31
0
210
0
220
0
230
1
40
0.087489
41
0.503813111862616
42
0.754089131277842
0
ELLIPSE
5
11B
100
AcDbEntity
8
1
62
256
6
ByLayer
370
18
48
1
60
0
100
AcDbEllipse
10
-2.347154
20
0
30
0
11
14.753683160657
21
31.0932549155822
31
0
210
0
220
0
230
1
40
0.341999
41
-1.0912395857528
42
-0.157806186645435
0
ELLIPSE
5
11C
100
AcDbEntity
8
1
62
256
6
ByLayer
370
18
48
1
60
0
100
AcDbEllipse
10
24.755893
20
0
30
0
11
1.93793955490863E-15
21
31.6499999997504
31
0
210
0
220
0
230
1
40
0.087489
41
2.38750352230962
42
2.63182332242363
0
ELLIPSE
5
11D
100
AcDbEntity
8
1
62
256
6
ByLayer
370
18
48
1
60
0
100
AcDbEllipse
10
26.347154
20
0
30
0
11
14.7536831606558
21
31.0932549155804
31
0
210
0
220
0
230
1
40
0.341999
41
2.05035306783695
42
2.98378646694436
0
ELLIPSE
5
11E
100
AcDbEntity
8
1
62
256
6
ByLayer
370
18
48
1
60
0
100
AcDbEllipse
10
26.347154
20
0
30
0
11
14.753683160654
21
-31.0932549155782
31
0
210
0
220
0
230
1
40
0.341999
41
-2.98378646694435
42
-2.0503530678369
0
ELLIPSE
5
11F
100
AcDbEntity
8
1
62
256
6
ByLayer
370
18
48
1
60
0
100
AcDbEllipse
10
24.755893
20
0
30
0
11
1.92875500727006E-15
21
31.499999999997
31
0
210
0
220
0
230
1
40
0.087489
41
1.11676672625315
42
2.02482592733665
0
ELLIPSE
5
120
100
AcDbEntity
8
1
62
256
6
ByLayer
370
18
48
1
60
0
100
AcDbEllipse
10
-2.347154
20
0
30
0
11
14.753683160657
21
-31.0932549155821
31
0
210
0
220
0
230
1
40
0.341999
41
0.157806186645431
42
1.0912395857528
0
POINT
5
70
100
AcDbEntity
8
81
62
256
6
ByLayer
370
18
48
1
60
0
100
AcDbPoint
10
65
20
45
30
0
39
0
210
0
220
0
230
1
50
360
0
POINT
5
72
100
AcDbEntity
8
80
62
256
6
ByLayer
370
18
48
1
60
0
100
AcDbPoint
10
0
20
0
30
0
39
0
210
0
220
0
230
1
50
360
0
POINT
5
74
100
AcDbEntity
8
1
62
256
6
ByLayer
370
18
48
1
60
1
100
AcDbPoint
10
65
20
45
30
0
39
0
210
0
220
0
230
1
50
360
0
POINT
5
76
100
AcDbEntity
8
1
62
256
6
ByLayer
370
18
48
1
60
1
100
AcDbPoint
10
0
20
31.5
30
0
39
0
210
0
220
0
230
1
50
360
0
SPLINE
5
121
100
AcDbEntity
8
1
62
256
6
ByLayer
370
18
48
1
60
0
100
AcDbSpline
70
4
71
3
72
16
73
12
40
0
40
0
40
0
40
0
40
0.125
40
0.125
40
0.25
40
0.25
40
0.5
40
0.5
40
0.75
40
0.75
40
1
40
1
40
1
40
1
41
1
10
54.2978697185278
20
37.6641148731828
30
0
41
1
10
54.283233860752
20
37.6563865394246
30
0
41
1
10
54.2669285178782
20
37.6525096589215
30
0
41
1
10
54.2334008805502
20
37.6548213933369
30
0
41
1
10
54.2167780558182
20
37.661016110377
30
0
41
1
10
54.1721293753444
20
37.6889493101873
30
0
41
1
10
54.1483401448888
20
37.7192525145271
30
0
41
1
10
54.1114066961978
20
37.7843925170266
30
0
41
1
10
54.0978079932819
20
37.8199396458426
30
0
41
1
10
54.0776782584858
20
37.8926618611333
30
0
41
1
10
54.0711597045634
20
37.9300241106807
30
0
41
1
10
54.0678615688426
20
37.967721974471
30
0
0
SPLINE
5
122
100
AcDbEntity
8
1
62
256
6
ByLayer
370
18
48
1
60
0
100
AcDbSpline
70
4
71
3
72
8
73
4
40
0
40
0
40
0
40
0
40
1
40
1
40
1
40
1
41
1
10
54.6698023387895
20
37.1329400429137
30
0
41
1
10
54.6723183919379
20
37.1391212763299
30
0
41
1
10
54.6748349047943
20
37.1453036391189
30
0
41
1
10
54.6773518986933
20
37.1514871836941
30
0
0
SPLINE
5
123
100
AcDbEntity
8
1
62
256
6
ByLayer
370
18
48
1
60
0
100
AcDbSpline
70
4
71
3
72
18
73
14
40
0
40
0
40
0
40
0
40
0.125000000000011
40
0.125000000000011
40
0.250000000000022
40
0.250000000000022
40
0.375000000000033
40
0.375000000000033
40
0.500000000000045
40
0.500000000000045
40
0.750000000000022
40
0.750000000000022
40
1
40
1
40
1
40
1
41
1
10
55.0440494539962
20
39.264302479839
30
0
41
1
10
55.0405639068905
20
39.2804728103737
30
0
41
1
10
55.0329966456122
20
39.2955144549257
30
0
41
1
10
55.0098153824761
20
39.3195788568228
30
0
41
1
10
54.9943828633681
20
39.3283727442161
30
0
41
1
10
54.9610124865224
20
39.3392234882393
30
0
41
1
10
54.9427226615849
20
39.3415950342896
30
0
41
1
10
54.9058379811083
20
39.3419603893524
30
0
41
1
10
54.8872559793695
20
39.3400074746922
30
0
41
1
10
54.8320818472041
20
39.3298321601443
30
0
41
1
10
54.7961255546793
20
39.3174157128578
30
0
41
1
10
54.7273907800085
20
39.2860510070904
30
0
41
1
10
54.6946046736934
20
39.267035189897
30
0
41
1
10
54.6636265324184
20
39.2453440618565
30
0
0
SPLINE
5
124
100
AcDbEntity
8
1
62
256
6
ByLayer
370
18
48
1
60
0
100
AcDbSpline
70
4
71
3
72
20
73
16
40
0
40
0
40
0
40
0
40
0.124999999999997
40
0.124999999999997
40
0.249999999999994
40
0.249999999999994
40
0.374999999999992
40
0.374999999999992
40
0.499999999999989
40
0.499999999999989
40
0.749999999999981
40
0.749999999999981
40
0.87499999999999
40
0.87499999999999
40
1
40
1
40
1
40
1
41
1
10
55.6806714904234
20
39.3031129916425
30
0
41
1
10
55.6682108477705
20
39.279530545588
30
0
41
1
10
55.6485448999333
20
39.2599384217549
30
0
41
1
10
55.603520665979
20
39.2266665815474
30
0
41
1
10
55.5781780044373
20
39.2131313827663
30
0
41
1
10
55.5247025497588
20
39.1907034443231
30
0
41
1
10
55.4962018738929
20
39.1817589837977
30
0
41
1
10
55.4385419397851
20
39.1682622259748
30
0
41
1
10
55.4090867424813
20
39.1635894457942
30
0
41
1
10
55.3188595349957
20
39.1556317498907
30
0
41
1
10
55.2581912788057
20
39.1583812028105
30
0
41
1
10
55.1728083662469
20
39.1776882256185
30
0
41
1
10
55.1452747273411
20
39.1867270751613
30
0
41
1
10
55.0952705326415
20
39.2116848193482
30
0
41
1
10
55.07266329316
20
39.2274819434036
30
0
41
1
10
55.0563369691276
20
39.2484907987846
30
0
0
SPLINE
5
125
100
AcDbEntity
8
1
62
256
6
ByLayer
370
18
48
1
60
0
100
AcDbSpline
70
4
71
3
72
8
73
4
40
0
40
0
40
0
40
0
40
1
40
1
40
1
40
1
41
1
10
54.2416545580431
20
38.3066570977304
30
0
41
1
10
54.2482656897824
20
38.3075687484947
30
0
41
1
10
54.2548780294413
20
38.3084805658266
30
0
41
1
10
54.2614916330784
20
38.3093925574564
30
0
0
SPLINE
5
126
100
AcDbEntity
8
1
62
256
6
ByLayer
370
18
48
1
60
0
100
AcDbSpline
70
4
71
3
72
8
73
4
40
0
40
0
40
0
40
0
40
1
40
1
40
1
40
1
41
1
10
56.626514038069
20
38.5163052068779
30
0
41
1
10
56.6331855318907
20
38.5165555106695
30
0
41
1
10
56.6398557506703
20
38.5168057666236
30
0
41
1
10
56.6465247509573
20
38.5170559768618
30
0
0
SPLINE
5
127
100
AcDbEntity
8
1
62
256
6
ByLayer
370
18
48
1
60
0
100
AcDbSpline
70
4
71
3
72
18
73
14
40
0
40
0
40
0
40
0
40
0.124999999999997
40
0.124999999999997
40
0.249999999999994
40
0.249999999999994
40
0.499999999999988
40
0.499999999999988
40
0.749999999999982
40
0.749999999999982
40
0.874999999999991
40
0.874999999999991
40
1
40
1
40
1
40
1
41
1
10
56.6829028364067
20
37.8717782925882
30
0
41
1
10
56.656609889345
20
37.8681525918416
30
0
41
1
10
56.6315900304915
20
37.8564808830942
30
0
41
1
10
56.5849438327818
20
37.825639068695
30
0
41
1
10
56.5634200544648
20
37.8063705629147
30
0
41
1
10
56.5041718548817
20
37.7423090989439
30
0
41
1
10
56.4713589564777
20
37.6910728570574
30
0
41
1
10
56.4204127808321
20
37.581768010858
30
0
41
1
10
56.4023206286815
20
37.5239122081875
30
0
41
1
10
56.3913316282575
20
37.4372136896046
30
0
41
1
10
56.3904262255219
20
37.4082974667254
30
0
41
1
10
56.3967927319079
20
37.3528682092147
30
0
41
1
10
56.4039041320798
20
37.326269360754
30
0
41
1
10
56.4180397823862
20
37.3037776402542
30
0
0
SPLINE
5
128
100
AcDbEntity
8
1
62
256
6
ByLayer
370
18
48
1
60
0
100
AcDbSpline
70
4
71
3
72
8
73
4
40
0
40
0
40
0
40
0
40
1
40
1
40
1
40
1
41
1
10
54.5156991447762
20
38.8943476105077
30
0
41
1
10
54.5192503333423
20
38.8886971919604
30
0
41
1
10
54.5228021707458
20
38.8830457410255
30
0
41
1
10
54.5263546870988
20
38.8773932097904
30
0
0
SPLINE
5
129
100
AcDbEntity
8
1
62
256
6
ByLayer
370
18
48
1
60
0
100
AcDbSpline
70
4
71
3
72
8
73
4
40
0
40
0
40
0
40
0
40
1
40
1
40
1
40
1
41
1
10
55.0563369691276
20
39.2484907987846
30
0
41
1
10
55.0522403593896
20
39.25376235173
30
0
41
1
10
55.0481445325871
20
39.2590328971871
30
0
41
1
10
55.0440494539962
20
39.264302479839
30
0
0
SPLINE
5
12A
100
AcDbEntity
8
1
62
256
6
ByLayer
370
18
48
1
60
0
100
AcDbSpline
70
4
71
3
72
16
73
12
40
0
40
0
40
0
40
0
40
0.125000000000022
40
0.125000000000022
40
0.250000000000044
40
0.250000000000044
40
0.500000000000029
40
0.500000000000029
40
0.750000000000015
40
0.750000000000015
40
1
40
1
40
1
40
1
41
1
10
55.2543678084941
20
36.8603526876975
30
0
41
1
10
55.2537428129698
20
36.8438134961784
30
0
41
1
10
55.2489476185361
20
36.8277542147807
30
0
41
1
10
55.2301817791415
20
36.7998742963335
30
0
41
1
10
55.2165055844495
20
36.7885758663529
30
0
41
1
10
55.1699903835679
20
36.7638755747224
30
0
41
1
10
55.1318524235657
20
36.7584250989813
30
0
41
1
10
55.0569728022531
20
36.7590097954153
30
0
41
1
10
55.0193887342089
20
36.7650065376396
30
0
41
1
10
54.9463445809496
20
36.78393478358
30
0
41
1
10
54.9107286467379
20
36.7969706750609
30
0
41
1
10
54.8764322711667
20
36.8129633376368
30
0
0
SPLINE
5
12B
100
AcDbEntity
8
1
62
256
6
ByLayer
370
18
48
1
60
0
100
AcDbSpline
70
4
71
3
72
18
73
14
40
0
40
0
40
0
40
0
40
0.124999999999988
40
0.124999999999988
40
0.249999999999976
40
0.249999999999976
40
0.499999999999978
40
0.499999999999978
40
0.749999999999981
40
0.749999999999981
40
0.87499999999999
40
0.87499999999999
40
1
40
1
40
1
40
1
41
1
10
54.6773518986933
20
37.1514871836941
30
0
41
1
10
54.6873584232711
20
37.1760703941632
30
0
41
1
10
54.689760356417
20
37.2035740819032
30
0
41
1
10
54.6863736605034
20
37.2593917813093
30
0
41
1
10
54.6804485341631
20
37.2876661730074
30
0
41
1
10
54.6545937787524
20
37.3710073509602
30
0
41
1
10
54.6266283408862
20
37.4250422754931
30
0
41
1
10
54.5574406551435
20
37.5238153809276
30
0
41
1
10
54.5163821363498
20
37.5684115456343
30
0
41
1
10
54.4467935169986
20
37.6212775584553
30
0
41
1
10
54.4222040347715
20
37.6365197716645
30
0
41
1
10
54.3710176364613
20
37.6587208441562
30
0
41
1
10
54.344426657897
20
37.6658616151812
30
0
41
1
10
54.3178804314161
20
37.6648656431667
30
0
0
SPLINE
5
12C
100
AcDbEntity
8
1
62
256
6
ByLayer
370
18
48
1
60
0
100
AcDbSpline
70
4
71
3
72
8
73
4
40
0
40
0
40
0
40
0
40
1
40
1
40
1
40
1
41
1
10
54.3178804314161
20
37.6648656431667
30
0
41
1
10
54.3112089375944
20
37.6646153393751
30
0
41
1
10
54.3045387188147
20
37.6643650834211
30
0
41
1
10
54.2978697185278
20
37.6641148731828
30
0
0
SPLINE
5
12D
100
AcDbEntity
8
1
62
256
6
ByLayer
370
18
48
1
60
0
100
AcDbSpline
70
4
71
3
72
8
73
4
40
0
40
0
40
0
40
0
40
1
40
1
40
1
40
1
41
1
10
56.702739911442
20
37.8745137523142
30
0
41
1
10
56.6961287797026
20
37.87360210155
30
0
41
1
10
56.6895164400437
20
37.8726902842181
30
0
41
1
10
56.6829028364067
20
37.8717782925882
30
0
0
SPLINE
5
12E
100
AcDbEntity
8
1
62
256
6
ByLayer
370
18
48
1
60
0
100
AcDbSpline
70
4
71
3
72
16
73
12
40
0
40
0
40
0
40
0
40
0.24999999999999
40
0.24999999999999
40
0.499999999999979
40
0.499999999999979
40
0.749999999999968
40
0.749999999999968
40
0.874999999999984
40
0.874999999999984
40
1
40
1
40
1
40
1
41
1
10
54.8764322711667
20
36.8129633376368
30
0
41
1
10
54.8421280983347
20
36.8289596361349
30
0
41
1
10
54.8091835619386
20
36.8478989061203
30
0
41
1
10
54.7476178520853
20
36.8917944544174
30
0
41
1
10
54.7189145237305
20
36.9167221982729
30
0
41
1
10
54.6704177739429
20
36.9736585766919
30
0
41
1
10
54.6501498933024
20
37.0060257579806
30
0
41
1
10
54.639100874695
20
37.0581481526735
30
0
41
1
10
54.6390864601068
20
37.0758956028483
30
0
41
1
10
54.6483499734635
20
37.1078300641361
30
0
41
1
10
54.657545214208
20
37.1218399448344
30
0
41
1
10
54.6698023387895
20
37.1329400429137
30
0
0
SPLINE
5
12F
100
AcDbEntity
8
1
62
256
6
ByLayer
370
18
48
1
60
0
100
AcDbSpline
70
4
71
3
72
18
73
14
40
0
40
0
40
0
40
0
40
0.124999999999995
40
0.124999999999995
40
0.249999999999991
40
0.249999999999991
40
0.499999999999982
40
0.499999999999982
40
0.749999999999973
40
0.749999999999973
40
0.874999999999986
40
0.874999999999986
40
1
40
1
40
1
40
1
41
1
10
55.8880575003574
20
36.93268005126
30
0
41
1
10
55.8717710778735
20
36.9536375609825
30
0
41
1
10
55.8491531521658
20
36.969469539975
30
0
41
1
10
55.7991202585426
20
36.994445424982
30
0
41
1
10
55.7716713538853
20
37.0034513108998
30
0
41
1
10
55.6865683988915
20
37.0227310248818
30
0
41
1
10
55.6257900626214
20
37.0255297075282
30
0
41
1
10
55.5056562012331
20
37.0149979667632
30
0
41
1
10
55.4465055302889
20
37.0017383287995
30
0
41
1
10
55.3659279105135
20
36.9679058230375
30
0
41
1
10
55.3404330255509
20
36.9542318133676
30
0
41
1
10
55.2956131336267
20
36.9210036283486
30
0
41
1
10
55.2761335552343
20
36.9015455509129
30
0
41
1
10
55.2637229790598
20
36.8780578583986
30
0
0
SPLINE
5
130
100
AcDbEntity
8
1
62
256
6
ByLayer
370
18
48
1
60
0
100
AcDbSpline
70
4
71
3
72
8
73
4
40
0
40
0
40
0
40
0
40
1
40
1
40
1
40
1
41
1
10
56.4180397823862
20
37.3037776402542
30
0
41
1
10
56.4215922987393
20
37.2981251090192
30
0
41
1
10
56.4251441361428
20
37.2924736580842
30
0
41
1
10
56.4286953247089
20
37.2868232395369
30
0
0
SPLINE
5
131
100
AcDbEntity
8
1
62
256
6
ByLayer
370
18
48
1
60
0
100
AcDbSpline
70
4
71
3
72
16
73
12
40
0
40
0
40
0
40
0
40
0.249999999999987
40
0.249999999999987
40
0.499999999999973
40
0.499999999999973
40
0.749999999999959
40
0.749999999999959
40
0.87499999999998
40
0.87499999999998
40
1
40
1
40
1
40
1
41
1
10
56.2807679370666
20
36.9358267881881
30
0
41
1
10
56.2497626497847
20
36.9141166523089
30
0
41
1
10
56.2168884926502
20
36.8950554818667
30
0
41
1
10
56.1480909777852
20
36.8636857872802
30
0
41
1
10
56.1121512541699
20
36.8512918476796
30
0
41
1
10
56.0385945291658
20
36.8377606195721
30
0
41
1
10
56.0004297876006
20
36.8363917107009
30
0
41
1
10
55.9497659603868
20
36.8528841772464
30
0
41
1
10
55.9343890103889
20
36.8617454189342
30
0
41
1
10
55.9113647123358
20
36.8857350874733
30
0
41
1
10
55.9038294201193
20
36.9007033399012
30
0
41
1
10
55.9003450154889
20
36.9168683702057
30
0
0
SPLINE
5
132
100
AcDbEntity
8
1
62
256
6
ByLayer
370
18
48
1
60
0
100
AcDbSpline
70
4
71
3
72
8
73
4
40
0
40
0
40
0
40
0
40
1
40
1
40
1
40
1
41
1
10
56.2745921306956
20
39.0482308071309
30
0
41
1
10
56.2720760775472
20
39.0420495737147
30
0
41
1
10
56.2695595646908
20
39.0358672109257
30
0
41
1
10
56.2670425707918
20
39.0296836663505
30
0
0
SPLINE
5
133
100
AcDbEntity
8
1
62
256
6
ByLayer
370
18
48
1
60
0
100
AcDbSpline
70
4
71
3
72
18
73
14
40
0
40
0
40
0
40
0
40
0.124999999999995
40
0.124999999999995
40
0.249999999999989
40
0.249999999999989
40
0.500000000000006
40
0.500000000000006
40
0.750000000000023
40
0.750000000000023
40
0.875000000000011
40
0.875000000000011
40
1
40
1
40
1
40
1
41
1
10
54.5263546870988
20
38.8773932097905
30
0
41
1
10
54.5404940323322
20
38.854895610165
30
0
41
1
10
54.5476360907989
20
38.8281926168124
30
0
41
1
10
54.5539817526503
20
38.7725652761357
30
0
41
1
10
54.5530435225809
20
38.7436576850299
30
0
41
1
10
54.5420026774199
20
38.6569935229879
30
0
41
1
10
54.52379302626
20
38.5988580074439
30
0
41
1
10
54.472683268982
20
38.4894838035787
30
0
41
1
10
54.4401765842147
20
38.4388136783348
30
0
41
1
10
54.3810066178622
20
38.3748342577534
30
0
41
1
10
54.3595069008817
20
38.3555964522799
30
0
41
1
10
54.3131207337015
20
38.3248718465036
30
0
41
1
10
54.2879494710743
20
38.3130409960567
30
0
41
1
10
54.2614916330784
20
38.3093925574564
30
0
0
SPLINE
5
134
100
AcDbEntity
8
1
62
256
6
ByLayer
370
18
48
1
60
0
100
AcDbSpline
70
4
71
3
72
18
73
14
40
0
40
0
40
0
40
0
40
0.12499999999999
40
0.12499999999999
40
0.24999999999998
40
0.24999999999998
40
0.499999999999987
40
0.499999999999987
40
0.749999999999993
40
0.749999999999993
40
0.874999999999997
40
0.874999999999997
40
1
40
1
40
1
40
1
41
1
10
56.2670425707918
20
39.0296836663505
30
0
41
1
10
56.257036046214
20
39.0051004558815
30
0
41
1
10
56.2546341130681
20
38.9775967681415
30
0
41
1
10
56.2580208089817
20
38.9217790687354
30
0
41
1
10
56.263945935322
20
38.8935046770372
30
0
41
1
10
56.2898006907327
20
38.8101634990844
30
0
41
1
10
56.3177661285989
20
38.7561285745516
30
0
41
1
10
56.3869538143416
20
38.6573554691171
30
0
41
1
10
56.4280123331353
20
38.6127593044103
30
0
41
1
10
56.4976009524865
20
38.5598932915894
30
0
41
1
10
56.5221904347136
20
38.5446510783801
30
0
41
1
10
56.5733768330238
20
38.5224500058885
30
0
41
1
10
56.599967811588
20
38.5153092348634
30
0
41
1
10
56.626514038069
20
38.5163052068779
30
0
0
SPLINE
5
135
100
AcDbEntity
8
1
62
256
6
ByLayer
370
18
48
1
60
0
100
AcDbSpline
70
4
71
3
72
16
73
12
40
0
40
0
40
0
40
0
40
0.125
40
0.125
40
0.25
40
0.25
40
0.5
40
0.5
40
0.75
40
0.75
40
1
40
1
40
1
40
1
41
1
10
56.6465247509573
20
38.5170559768618
30
0
41
1
10
56.661160608733
20
38.5247843106201
30
0
41
1
10
56.6774659516068
20
38.5286611911232
30
0
41
1
10
56.7109935889349
20
38.5263494567078
30
0
41
1
10
56.7276164136669
20
38.5201547396676
30
0
41
1
10
56.7722650941407
20
38.4922215398573
30
0
41
1
10
56.7960543245962
20
38.4619183355175
30
0
41
1
10
56.8329877732872
20
38.396778333018
30
0
41
1
10
56.8465864762031
20
38.361231204202
30
0
41
1
10
56.8667162109993
20
38.2885089889113
30
0
41
1
10
56.8732347649217
20
38.251146739364
30
0
41
1
10
56.8765329006425
20
38.2134488755737
30
0
0
SPLINE
5
136
100
AcDbEntity
8
1
62
256
6
ByLayer
370
18
48
1
60
0
100
AcDbSpline
70
4
71
3
72
8
73
4
40
0
40
0
40
0
40
0
40
1
40
1
40
1
40
1
41
1
10
55.6806714904252
20
39.3031129916461
30
0
41
1
10
55.6837904678939
20
39.3090158266727
30
0
41
1
10
55.6869088492701
20
39.3149175335617
30
0
41
1
10
55.690026660991
20
39.3208181623472
30
0
0
SPLINE
5
137
100
AcDbEntity
8
1
62
256
6
ByLayer
370
18
48
1
60
0
100
AcDbSpline
70
4
71
3
72
8
73
4
40
0
40
0
40
0
40
0
40
1
40
1
40
1
40
1
41
1
10
55.2637229790598
20
36.8780578583986
30
0
41
1
10
55.2606040015912
20
36.872155023372
30
0
41
1
10
55.257485620215
20
36.8662533164829
30
0
41
1
10
55.2543678084941
20
36.8603526876975
30
0
0
SPLINE
5
138
100
AcDbEntity
8
1
62
256
6
ByLayer
370
18
48
1
60
0
100
AcDbSpline
70
4
71
3
72
8
73
4
40
0
40
0
40
0
40
0
40
1
40
1
40
1
40
1
41
1
10
55.9003450154889
20
36.9168683702057
30
0
41
1
10
55.896249936898
20
36.9221379528576
30
0
41
1
10
55.8921541100955
20
36.9274084983147
30
0
41
1
10
55.8880575003574
20
36.93268005126
30
0
0
SPLINE
5
139
100
AcDbEntity
8
1
62
256
6
ByLayer
370
18
48
1
60
0
100
AcDbSpline
70
4
71
3
72
16
73
12
40
0
40
0
40
0
40
0
40
0.250000000000008
40
0.250000000000008
40
0.500000000000016
40
0.500000000000016
40
0.750000000000024
40
0.750000000000024
40
0.875000000000012
40
0.875000000000012
40
1
40
1
40
1
40
1
41
1
10
54.0678615688426
20
37.967721974471
30
0
41
1
10
54.0645626832926
20
38.0054284088484
30
0
41
1
10
54.0644923040309
20
38.0434288492759
30
0
41
1
10
54.0717241090426
20
38.1186940921595
30
0
41
1
10
54.0789605043031
20
38.1560157756157
30
0
41
1
10
54.1040204795197
20
38.2264833821422
30
0
41
1
10
54.1219173404444
20
38.260219472302
30
0
41
1
10
54.1615321490508
20
38.2958494004494
30
0
41
1
10
54.1768946844605
20
38.3047356089364
30
0
41
1
10
54.2091824958702
20
38.3126804016851
30
0
41
1
10
54.2259130288313
20
38.3117220299556
30
0
41
1
10
54.2416545580431
20
38.3066570977304
30
0
0
SPLINE
5
13A
100
AcDbEntity
8
1
62
256
6
ByLayer
370
18
48
1
60
0
100
AcDbSpline
70
4
71
3
72
16
73
12
40
0
40
0
40
0
40
0
40
0.25000000000001
40
0.25000000000001
40
0.500000000000021
40
0.500000000000021
40
0.750000000000032
40
0.750000000000032
40
0.875000000000016
40
0.875000000000016
40
1
40
1
40
1
40
1
41
1
10
56.0679621983184
20
39.3682075124079
30
0
41
1
10
56.1022663711504
20
39.3522112139097
30
0
41
1
10
56.1352109075465
20
39.3332719439244
30
0
41
1
10
56.1967766173998
20
39.2893763956272
30
0
41
1
10
56.2254799457546
20
39.2644486517717
30
0
41
1
10
56.2739766955422
20
39.2075122733527
30
0
41
1
10
56.2942445761826
20
39.175145092064
30
0
41
1
10
56.30529359479
20
39.1230226973711
30
0
41
1
10
56.3053080093783
20
39.1052752471963
30
0
41
1
10
56.2960444960216
20
39.0733407859085
30
0
41
1
10
56.286849255277
20
39.0593309052102
30
0
41
1
10
56.2745921306956
20
39.0482308071309
30
0
0
SPLINE
5
13B
100
AcDbEntity
8
1
62
256
6
ByLayer
370
18
48
1
60
0
100
AcDbSpline
70
4
71
3
72
16
73
12
40
0
40
0
40
0
40
0
40
0.249999999999992
40
0.249999999999992
40
0.499999999999984
40
0.499999999999984
40
0.749999999999976
40
0.749999999999976
40
0.874999999999988
40
0.874999999999988
40
1
40
1
40
1
40
1
41
1
10
56.8765329006425
20
38.2134488755737
30
0
41
1
10
56.8798317861925
20
38.1757424411963
30
0
41
1
10
56.8799021654541
20
38.1377420007687
30
0
41
1
10
56.8726703604424
20
38.0624767578851
30
0
41
1
10
56.865433965182
20
38.0251550744289
30
0
41
1
10
56.8403739899654
20
37.9546874679025
30
0
41
1
10
56.8224771290407
20
37.9209513777426
30
0
41
1
10
56.7828623204343
20
37.8853214495953
30
0
41
1
10
56.7674997850246
20
37.8764352411082
30
0
41
1
10
56.7352119736149
20
37.8684904483595
30
0
41
1
10
56.7184814406538
20
37.869448820089
30
0
41
1
10
56.702739911442
20
37.8745137523142
30
0
0
SPLINE
5
13C
100
AcDbEntity
8
1
62
256
6
ByLayer
370
18
48
1
60
0
100
AcDbSpline
70
4
71
3
72
16
73
12
40
0
40
0
40
0
40
0
40
0.125000000000008
40
0.125000000000008
40
0.250000000000015
40
0.250000000000015
40
0.50000000000001
40
0.50000000000001
40
0.750000000000005
40
0.750000000000005
40
1
40
1
40
1
40
1
41
1
10
55.690026660991
20
39.3208181623472
30
0
41
1
10
55.6906516565152
20
39.3373573538663
30
0
41
1
10
55.695446850949
20
39.3534166352639
30
0
41
1
10
55.7142126903436
20
39.3812965537112
30
0
41
1
10
55.7278888850357
20
39.3925949836917
30
0
41
1
10
55.7744040859172
20
39.4172952753223
30
0
41
1
10
55.8125420459194
20
39.4227457510634
30
0
41
1
10
55.8874216672319
20
39.4221610546294
30
0
41
1
10
55.9250057352762
20
39.4161643124051
30
0
41
1
10
55.9980498885355
20
39.3972360664646
30
0
41
1
10
56.0336658227473
20
39.3842001749837
30
0
41
1
10
56.0679621983184
20
39.3682075124079
30
0
0
SPLINE
5
13D
100
AcDbEntity
8
1
62
256
6
ByLayer
370
18
48
1
60
0
100
AcDbSpline
70
4
71
3
72
16
73
12
40
0
40
0
40
0
40
0
40
0.25
40
0.25
40
0.499999999999999
40
0.499999999999999
40
0.749999999999999
40
0.749999999999999
40
0.874999999999999
40
0.874999999999999
40
1
40
1
40
1
40
1
41
1
10
54.6636265324184
20
39.2453440618565
30
0
41
1
10
54.6326472597742
20
39.2236521416227
30
0
41
1
10
54.6034694143228
20
39.1992647244577
30
0
41
1
10
54.5504603729522
20
39.1453450145994
30
0
41
1
10
54.5265212592871
20
39.1158115061307
30
0
41
1
10
54.4886471837389
20
39.0513181898134
30
0
41
1
10
54.4743072319206
20
39.0159229677656
30
0
41
1
10
54.4724764955496
20
38.9626730455795
30
0
41
1
10
54.4755439897568
20
38.9451924456352
30
0
41
1
10
54.4902121054292
20
38.9153512581836
30
0
41
1
10
54.5017005504814
20
38.9031507534527
30
0
41
1
10
54.5156991447762
20
38.8943476105077
30
0
0
SPLINE
5
13E
100
AcDbEntity
8
1
62
256
6
ByLayer
370
18
48
1
60
0
100
AcDbSpline
70
4
71
3
72
16
73
12
40
0
40
0
40
0
40
0
40
0.125000000000016
40
0.125000000000016
40
0.250000000000033
40
0.250000000000033
40
0.500000000000022
40
0.500000000000022
40
0.750000000000011
40
0.750000000000011
40
1
40
1
40
1
40
1
41
1
10
56.4286953247089
20
37.2868232395369
30
0
41
1
10
56.4427061869604
20
37.2780123817762
30
0
41
1
10
56.4542163354004
20
37.2658299808816
30
0
41
1
10
56.4689781333338
20
37.2356383280189
30
0
41
1
10
56.4719247633738
20
37.2181451809982
30
0
41
1
10
56.470058242966
20
37.1655116895574
30
0
41
1
10
56.4557095134194
20
37.1297580094765
30
0
41
1
10
56.4177633407978
20
37.065202703411
30
0
41
1
10
56.3937779756695
20
37.0356523168192
30
0
41
1
10
56.3408635572063
20
36.981858347469
30
0
41
1
10
56.311766176917
20
36.9575319894026
30
0
41
1
10
56.2807679370666
20
36.9358267881881
30
0
0
SPLINE
5
13F
100
AcDbEntity
8
1
62
256
6
ByLayer
370
18
48
1
60
0
100
AcDbSpline
70
4
71
3
72
16
73
12
40
0
40
0
40
0
40
0
40
0.249999999999999
40
0.249999999999999
40
0.499999999999998
40
0.499999999999998
40
0.749999999999997
40
0.749999999999997
40
0.874999999999998
40
0.874999999999998
40
1
40
1
40
1
40
1
41
1
10
13.8943375672973
20
9.86941261896635
30
0
41
1
10
13.8787501654512
20
9.81243201498822
30
0
41
1
10
13.8600981524864
20
9.7565502308299
30
0
41
1
10
13.814513590311
20
9.64780841973413
30
0
41
1
10
13.7875017792165
20
9.59456078532631
30
0
41
1
10
13.7208200031229
20
9.49465699870649
30
0
41
1
10
13.6810618560869
20
9.44778039735232
30
0
41
1
10
13.6084081576259
20
9.39323398486479
30
0
41
1
10
13.5814155034803
20
9.37745951316367
30
0
41
1
10
13.5238105256953
20
9.35548920253876
30
0
41
1
10
13.4927587974109
20
9.34922131452527
30
0
41
1
10
13.4613248654052
20
9.34922131452527
30
0
0
SPLINE
5
140
100
AcDbEntity
8
1
62
256
6
ByLayer
370
18
48
1
60
0
100
AcDbSpline
70
4
71
3
72
8
73
4
40
0
40
0
40
0
40
0
40
1
40
1
40
1
40
1
41
1
10
44.1924565843479
20
30.3145034514415
30
0
41
1
10
44.2203599346919
20
30.3327686930963
30
0
41
1
10
44.2482724154046
20
30.3510204555473
30
0
41
1
10
44.2761949441594
20
30.369257359351
30
0
0
SPLINE
5
141
100
AcDbEntity
8
1
62
256
6
ByLayer
370
18
48
1
60
0
100
AcDbSpline
70
4
71
3
72
20
73
16
40
0
40
0
40
0
40
0
40
0.125
40
0.125
40
0.25
40
0.25
40
0.375
40
0.375
40
0.5
40
0.5
40
0.625
40
0.625
40
0.75
40
0.75
40
1
40
1
40
1
40
1
41
1
10
25.0808498452541
20
29.1317308905222
30
0
41
1
10
24.9567747085319
20
29.0941397779688
30
0
41
1
10
24.8389186170764
20
29.0533982307804
30
0
41
1
10
24.6170790047044
20
28.9663004308866
30
0
41
1
10
24.512730703403
20
28.9198328396309
30
0
41
1
10
24.3167998356178
20
28.8208459836277
30
0
41
1
10
24.2249087874753
20
28.7681196026891
30
0
41
1
10
24.0553483250324
20
28.657141150884
30
0
41
1
10
23.9783688767525
20
28.5994008634757
30
0
41
1
10
23.8390373332919
20
28.4793692588137
30
0
41
1
10
23.7766891374495
20
28.4170775787313
30
0
41
1
10
23.6661628665131
20
28.287795346431
30
0
41
1
10
23.617856667338
20
28.2205752576074
30
0
41
1
10
23.4950734067069
20
28.0131269386104
30
0
41
1
10
23.4430823687605
20
27.8685424670427
30
0
41
1
10
23.4190994755986
20
27.717426832415
30
0
0
SPLINE
5
142
100
AcDbEntity
8
1
62
256
6
ByLayer
370
18
48
1
60
0
100
AcDbSpline
70
4
71
3
72
8
73
4
40
0
40
0
40
0
40
0
40
1
40
1
40
1
40
1
41
1
10
23.4383186059721
20
32.3795358683479
30
0
41
1
10
23.8969252432913
20
34.0916014519414
30
0
41
1
10
24.3555522193009
20
35.8036616757517
30
0
41
1
10
24.814192189349
20
37.5157184752892
30
0
0
SPLINE
5
143
100
AcDbEntity
8
1
62
256
6
ByLayer
370
18
48
1
60
0
100
AcDbSpline
70
4
71
3
72
16
73
12
40
0
40
0
40
0
40
0
40
0.249999999999999
40
0.249999999999999
40
0.499999999999999
40
0.499999999999999
40
0.749999999999998
40
0.749999999999998
40
0.874999999999999
40
0.874999999999999
40
1
40
1
40
1
40
1
41
1
10
10.1056624327026
20
29.913954846469
30
0
41
1
10
10.1212498345488
20
29.9327542695084
30
0
41
1
10
10.1399018475136
20
29.9510098933135
30
0
41
1
10
10.185486409689
20
29.9862144781928
30
0
41
1
10
10.2124982207835
20
30.0032856662985
30
0
41
1
10
10.2791799968771
20
30.0350501233766
30
0
41
1
10
10.3189381439131
20
30.0498069467437
30
0
41
1
10
10.3915918423742
20
30.0668840803112
30
0
41
1
10
10.4185844965197
20
30.0718038277879
30
0
41
1
10
10.4761894743047
20
30.0786461490401
30
0
41
1
10
10.5072412025891
20
30.0805927603169
30
0
41
1
10
10.5386751345949
20
30.0805927603169
30
0
0
SPLINE
5
144
100
AcDbEntity
8
1
62
256
6
ByLayer
370
18
48
1
60
0
100
AcDbSpline
70
4
71
3
72
16
73
12
40
0
40
0
40
0
40
0
40
0.124999999999998
40
0.124999999999998
40
0.249999999999997
40
0.249999999999997
40
0.499999999999998
40
0.499999999999998
40
0.749999999999999
40
0.749999999999999
40
1
40
1
40
1
40
1
41
1
10
13.4613248654052
20
-9.34922131452532
30
0
41
1
10
13.4928040273173
20
-9.34922131452532
30
0
41
1
10
13.5234304266402
20
-9.35536120669474
30
0
41
1
10
13.5815263070002
20
-9.37748487924983
30
0
41
1
10
13.6079581046675
20
-9.39290424748327
30
0
41
1
10
13.681763268874
20
-9.44829073160867
30
0
41
1
10
13.7208296342407
20
-9.49467220053427
30
0
41
1
10
13.7874862877331
20
-9.59453680346914
30
0
41
1
10
13.8142652669256
20
-9.64728479257946
30
0
41
1
10
13.8599440812238
20
-9.75611455014885
30
0
41
1
10
13.8787443055273
20
-9.81241059371445
30
0
41
1
10
13.8943375672974
20
-9.86941261896632
30
0
0
SPLINE
5
145
100
AcDbEntity
8
1
62
256
6
ByLayer
370
18
48
1
60
0
100
AcDbSpline
70
4
71
3
72
10
73
6
40
0
40
0
40
0
40
0
40
0.5
40
0.5
40
1
40
1
40
1
40
1
41
1
10
22.2792076144253
20
-29.6975775837653
30
0
41
1
10
22.3752053067163
20
-29.5208751256316
30
0
41
1
10
22.472189123385
20
-29.3423575134311
30
0
41
1
10
22.666633773012
20
-28.9844442476011
30
0
41
1
10
22.7641311489283
20
-28.8049813295366
30
0
41
1
10
22.8601551163563
20
-28.6282305068935
30
0
0
SPLINE
5
146
100
AcDbEntity
8
1
62
256
6
ByLayer
370
18
48
1
60
0
100
AcDbSpline
70
4
71
3
72
16
73
12
40
0
40
0
40
0
40
0
40
0.249999999999999
40
0.249999999999999
40
0.499999999999999
40
0.499999999999999
40
0.624999999999999
40
0.624999999999999
40
0.749999999999999
40
0.749999999999999
40
1
40
1
40
1
40
1
41
1
10
22.2792076144253
20
13.8155987028831
30
0
41
1
10
22.3158574025273
20
14.6739578065593
30
0
41
1
10
22.3558287621216
20
15.5145912895852
30
0
41
1
10
22.4416616712252
20
17.1496022744174
30
0
41
1
10
22.4875463951775
20
17.9447758207215
30
0
41
1
10
22.5606958203191
20
19.1050167716996
30
0
41
1
10
22.5858260596267
20
19.4867083210837
30
0
41
1
10
22.6373644495774
20
20.2372314080137
30
0
41
1
10
22.6637673418707
20
20.60602602775
30
0
41
1
10
22.7448248804373
20
21.6935421291583
30
0
41
1
10
22.8013312676606
20
22.3933664699547
30
0
41
1
10
22.8601551163564
20
23.069540960636
30
0
0
SPLINE
5
147
100
AcDbEntity
8
1
62
256
6
ByLayer
370
18
48
1
60
0
100
AcDbSpline
70
4
71
3
72
14
73
10
40
0
40
0
40
0
40
0
40
0.25
40
0.25
40
0.5
40
0.5
40
0.75
40
0.75
40
1
40
1
40
1
40
1
41
1
10
23.4383186059721
20
32.3795358683479
30
0
41
1
10
23.4224833692086
20
32.3204199252613
30
0
41
1
10
23.4018362189876
20
32.2617290394371
30
0
41
1
10
23.3521662287926
20
32.1491767877089
30
0
41
1
10
23.3232593586371
20
32.0953140719579
30
0
41
1
10
23.2574603710526
20
31.9923215156669
30
0
41
1
10
23.2203555496972
20
31.9429530593129
30
0
41
1
10
23.1386920398945
20
31.8502517932748
30
0
41
1
10
23.0947782375807
20
31.8075728885254
30
0
41
1
10
23.0478850077706
20
31.7684434581035
30
0
0
SPLINE
5
148
100
AcDbEntity
8
1
62
256
6
ByLayer
370
18
48
1
60
0
100
AcDbSpline
70
4
71
3
72
16
73
12
40
0
40
0
40
0
40
0
40
0.125000000000001
40
0.125000000000001
40
0.250000000000002
40
0.250000000000002
40
0.500000000000001
40
0.500000000000001
40
0.750000000000001
40
0.750000000000001
40
1
40
1
40
1
40
1
41
1
10
13.4613248654052
20
30.0805927603168
30
0
41
1
10
13.4928040273173
20
30.0805927603168
30
0
41
1
10
13.5234304266402
20
30.0786859906589
30
0
41
1
10
13.5815263070002
20
30.07179594856
30
0
41
1
10
13.6079581046675
20
30.0669872793661
30
0
41
1
10
13.681763268874
20
30.0496472407049
30
0
41
1
10
13.7208296342407
20
30.0350452819074
30
0
41
1
10
13.7874862877331
20
30.0032932993814
30
0
41
1
10
13.8142652669256
20
29.9863830332715
30
0
41
1
10
13.8599440812238
20
29.9511519005795
30
0
41
1
10
13.8787443055273
20
29.9327613369587
30
0
41
1
10
13.8943375672974
20
29.913954846469
30
0
0
SPLINE
5
149
100
AcDbEntity
8
1
62
256
6
ByLayer
370
18
48
1
60
0
100
AcDbSpline
70
4
71
3
72
18
73
14
40
0
40
0
40
0
40
0
40
0.25
40
0.25
40
0.5
40
0.5
40
0.625
40
0.625
40
0.75
40
0.75
40
0.875
40
0.875
40
1
40
1
40
1
40
1
41
1
10
50.8265735943686
20
22.8494120522591
30
0
41
1
10
50.74702900533
20
22.7029947366037
30
0
41
1
10
50.6689914353438
20
22.559351383162
30
0
41
1
10
50.5159867534541
20
22.2777164526689
30
0
41
1
10
50.4443840531255
20
22.1459177306881
30
0
41
1
10
50.3452856130684
20
21.9635077420999
30
0
41
1
10
50.3135764408143
20
21.9051408319277
30
0
41
1
10
50.2551273056858
20
21.7975538097137
30
0
41
1
10
50.2280838448737
20
21.7477750505802
30
0
41
1
10
50.1784253524477
20
21.6563689191464
30
0
41
1
10
50.1556390368198
20
21.6144262652433
30
0
41
1
10
50.1159787627517
20
21.5414238028836
30
0
41
1
10
50.0990229103118
20
21.5102132525634
30
0
41
1
10
50.0849245384071
20
21.4842624519577
30
0
0
SPLINE
5
14A
100
AcDbEntity
8
1
62
256
6
ByLayer
370
18
48
1
60
0
100
AcDbSpline
70
4
71
3
72
18
73
14
40
0
40
0
40
0
40
0
40
0.125000000000001
40
0.125000000000001
40
0.250000000000002
40
0.250000000000002
40
0.500000000000001
40
0.500000000000001
40
0.624999999999999
40
0.624999999999999
40
0.749999999999998
40
0.749999999999998
40
1
40
1
40
1
40
1
41
1
10
25.0808498452541
20
29.1317308905222
30
0
41
1
10
25.165041263765
20
29.0985127407082
30
0
41
1
10
25.2516293480524
20
29.0646788813112
30
0
41
1
10
25.4296932494102
20
28.9958538941821
30
0
41
1
10
25.5207875313004
20
28.9610132255797
30
0
41
1
10
25.7972962073472
20
28.8564473077652
30
0
41
1
10
25.9870365352822
20
28.7862507339597
30
0
41
1
10
26.2797220606711
20
28.6806139592363
30
0
41
1
10
26.3786354552631
20
28.6453426607965
30
0
41
1
10
26.579230537644
20
28.5747242072501
30
0
41
1
10
26.6812309943269
20
28.539268790419
30
0
41
1
10
26.9885033289706
20
28.4338726158745
30
0
41
1
10
27.1952287861161
20
28.3648235722217
30
0
41
1
10
27.4038782679655
20
28.2970468247953
30
0
0
SPLINE
5
14B
100
AcDbEntity
8
1
62
256
6
ByLayer
370
18
48
1
60
0
100
AcDbSpline
70
4
71
3
72
16
73
12
40
0
40
0
40
0
40
0
40
0.124999999999999
40
0.124999999999999
40
0.249999999999999
40
0.249999999999999
40
0.499999999999999
40
0.499999999999999
40
0.75
40
0.75
40
1
40
1
40
1
40
1
41
1
10
10.5386751345949
20
-30.0805927603169
30
0
41
1
10
10.5071959726828
20
-30.0805927603169
30
0
41
1
10
10.4765695733598
20
-30.078685990659
30
0
41
1
10
10.4184736929998
20
-30.0717959485601
30
0
41
1
10
10.3920418953325
20
-30.0669872793661
30
0
41
1
10
10.318236731126
20
-30.049647240705
30
0
41
1
10
10.2791703657593
20
-30.0350452819075
30
0
41
1
10
10.2125137122669
20
-30.0032932993814
30
0
41
1
10
10.1857347330744
20
-29.9863830332716
30
0
41
1
10
10.1400559187761
20
-29.9511519005795
30
0
41
1
10
10.1212556944726
20
-29.9327613369587
30
0
41
1
10
10.1056624327026
20
-29.9139548464691
30
0
0
SPLINE
5
14C
100
AcDbEntity
8
1
62
256
6
ByLayer
370
18
48
1
60
0
100
AcDbSpline
70
4
71
3
72
8
73
4
40
0
40
0
40
0
40
0
40
1
40
1
40
1
40
1
41
1
10
22.8601551163563
20
30.0864334097366
30
0
41
1
10
23.5183269673359
20
29.7795941501425
30
0
41
1
10
24.2601571451195
20
29.4555393444775
30
0
41
1
10
25.0808498452541
20
29.1317308905222
30
0
0
SPLINE
5
14D
100
AcDbEntity
8
1
62
256
6
ByLayer
370
18
48
1
60
0
100
AcDbSpline
70
4
71
3
72
16
73
12
40
0
40
0
40
0
40
0
40
0.125
40
0.125
40
0.250000000000001
40
0.250000000000001
40
0.5
40
0.5
40
0.75
40
0.75
40
1
40
1
40
1
40
1
41
1
10
22.8601551163564
20
-23.0695409606361
30
0
41
1
10
22.830725436601
20
-22.731249618592
30
0
41
1
10
22.8018541349352
20
-22.386805044694
30
0
41
1
10
22.7452724829063
20
-21.6851224104223
30
0
41
1
10
22.7175614921657
20
-21.3278548180752
30
0
41
1
10
22.6364442375312
20
-20.2392526218385
30
0
41
1
10
22.5849753668912
20
-19.4902020848553
30
0
41
1
10
22.4874730985304
20
-17.9435316192822
30
0
41
1
10
22.4413940922014
20
-17.1447974618551
30
0
41
1
10
22.3556184443567
20
-15.5102911256223
30
0
41
1
10
22.3158233913973
20
-14.6731612463462
30
0
41
1
10
22.2792076144253
20
-13.8155987028832
30
0
0
SPLINE
5
14E
100
AcDbEntity
8
1
62
256
6
ByLayer
370
18
48
1
60
0
100
AcDbSpline
70
4
71
3
72
24
73
20
40
0
40
0
40
0
40
0
40
0.249999999999999
40
0.249999999999999
40
0.374999999999999
40
0.374999999999999
40
0.499999999999998
40
0.499999999999998
40
0.624999999999998
40
0.624999999999998
40
0.749999999999998
40
0.749999999999998
40
0.812499999999998
40
0.812499999999998
40
0.874999999999999
40
0.874999999999999
40
0.937499999999999
40
0.937499999999999
40
1
40
1
40
1
40
1
41
1
10
22.2792076144251
20
31.4867460744995
30
0
41
1
10
22.0555655091871
20
31.4855743627623
30
0
41
1
10
21.8355835253735
20
31.4839986880932
30
0
41
1
10
21.5132163097889
20
31.4804897800766
30
0
41
1
10
21.4070415394612
20
31.4791256178137
30
0
41
1
10
21.1979733867157
20
31.4758203327167
30
0
41
1
10
21.094600910474
20
31.4738701073361
30
0
41
1
10
20.8959493245173
20
31.4691431255936
30
0
41
1
10
20.7999277559569
20
31.4663552800845
30
0
41
1
10
20.6211597664002
20
31.459507920424
30
0
41
1
10
20.5391157938153
20
31.4554984963803
30
0
41
1
10
20.4330035284147
20
31.4479665022939
30
0
41
1
10
20.4007054850919
20
31.4452004592167
30
0
41
1
10
20.3455058739645
20
31.439188561491
30
0
41
1
10
20.3222592846448
20
31.4359138042357
30
0
41
1
10
20.2869314293353
20
31.4287545078973
30
0
41
1
10
20.2753812084615
20
31.4249792953694
30
0
41
1
10
20.2649763794801
20
31.4170069863124
30
0
41
1
10
20.2662739971059
20
31.4127523571381
30
0
41
1
10
20.2740068861871
20
31.4084383565946
30
0
0
SPLINE
5
14F
100
AcDbEntity
8
1
62
256
6
ByLayer
370
18
48
1
60
0
100
AcDbSpline
70
4
71
3
72
14
73
10
40
0
40
0
40
0
40
0
40
0.500000000000001
40
0.500000000000001
40
0.750000000000001
40
0.750000000000001
40
0.875000000000001
40
0.875000000000001
40
1
40
1
40
1
40
1
41
1
10
20.2740068861871
20
31.4084383565946
30
0
41
1
10
20.420544938863
20
31.3266881553109
30
0
41
1
10
20.6616620983228
20
31.1929480269838
30
0
41
1
10
21.162008074298
20
30.9271351627934
30
0
41
1
10
21.3521007160633
20
30.8276312234101
30
0
41
1
10
21.6734730563862
20
30.6634781560272
30
0
41
1
10
21.7868583812984
20
30.6061730921118
30
0
41
1
10
22.0246848939
20
30.4875310038732
30
0
41
1
10
22.1491545276793
20
30.4261769308814
30
0
41
1
10
22.2792076144253
20
30.3629801733786
30
0
0
SPLINE
5
150
100
AcDbEntity
8
1
62
256
6
ByLayer
370
18
48
1
60
0
100
AcDbSpline
70
4
71
3
72
8
73
4
40
0
40
0
40
0
40
0
40
1
40
1
40
1
40
1
41
1
10
44.3071718716181
20
30.1506730425838
30
0
41
1
10
44.3338790923019
20
30.1706465344285
30
0
41
1
10
44.3605767694473
20
30.1906332161729
30
0
41
1
10
44.3872639206643
20
30.2106344219446
30
0
0
SPLINE
5
151
100
AcDbEntity
8
1
62
256
6
ByLayer
370
18
48
1
60
0
100
AcDbSpline
70
4
71
3
72
16
73
12
40
0
40
0
40
0
40
0
40
0.25
40
0.25
40
0.500000000000001
40
0.500000000000001
40
0.750000000000001
40
0.750000000000001
40
0.875000000000001
40
0.875000000000001
40
1
40
1
40
1
40
1
41
1
10
13.8943375672973
20
-29.913954846469
30
0
41
1
10
13.8787501654512
20
-29.9327542695084
30
0
41
1
10
13.8600981524864
20
-29.9510098933135
30
0
41
1
10
13.814513590311
20
-29.9862144781928
30
0
41
1
10
13.7875017792165
20
-30.0032856662984
30
0
41
1
10
13.7208200031229
20
-30.0350501233766
30
0
41
1
10
13.6810618560868
20
-30.0498069467437
30
0
41
1
10
13.6084081576259
20
-30.0668840803112
30
0
41
1
10
13.5814155034803
20
-30.0718038277879
30
0
41
1
10
13.5238105256953
20
-30.07864614904
30
0
41
1
10
13.4927587974109
20
-30.0805927603169
30
0
41
1
10
13.4613248654052
20
-30.0805927603169
30
0
0
SPLINE
5
152
100
AcDbEntity
8
1
62
256
6
ByLayer
370
18
48
1
60
0
100
AcDbSpline
70
4
71
3
72
16
73
12
40
0
40
0
40
0
40
0
40
0.124999999999997
40
0.124999999999997
40
0.249999999999994
40
0.249999999999994
40
0.499999999999996
40
0.499999999999996
40
0.749999999999998
40
0.749999999999998
40
1
40
1
40
1
40
1
41
1
10
10.5386751345949
20
9.34922131452518
30
0
41
1
10
10.5071959726828
20
9.34922131452518
30
0
41
1
10
10.4765695733598
20
9.35536120669462
30
0
41
1
10
10.4184736929998
20
9.37748487924972
30
0
41
1
10
10.3920418953325
20
9.39290424748316
30
0
41
1
10
10.318236731126
20
9.44829073160858
30
0
41
1
10
10.2791703657593
20
9.49467220053418
30
0
41
1
10
10.2125137122669
20
9.59453680346908
30
0
41
1
10
10.1857347330744
20
9.6472847925794
30
0
41
1
10
10.1400559187762
20
9.75611455014882
30
0
41
1
10
10.1212556944726
20
9.81241059371436
30
0
41
1
10
10.1056624327026
20
9.86941261896627
30
0
0
SPLINE
5
153
100
AcDbEntity
8
1
62
256
6
ByLayer
370
18
48
1
60
0
100
AcDbSpline
70
4
71
3
72
16
73
12
40
0
40
0
40
0
40
0
40
0.249999999999999
40
0.249999999999999
40
0.499999999999998
40
0.499999999999998
40
0.749999999999997
40
0.749999999999997
40
0.874999999999998
40
0.874999999999998
40
1
40
1
40
1
40
1
41
1
10
10.1056624327026
20
-9.86941261896627
30
0
41
1
10
10.1212498345488
20
-9.8124320149881
30
0
41
1
10
10.1399018475136
20
-9.75655023082976
30
0
41
1
10
10.185486409689
20
-9.64780841973399
30
0
41
1
10
10.2124982207835
20
-9.59456078532617
30
0
41
1
10
10.2791799968771
20
-9.49465699870635
30
0
41
1
10
10.3189381439131
20
-9.44778039735215
30
0
41
1
10
10.3915918423741
20
-9.39323398486462
30
0
41
1
10
10.4185844965197
20
-9.37745951316347
30
0
41
1
10
10.4761894743047
20
-9.35548920253856
30
0
41
1
10
10.5072412025892
20
-9.3492213145251
30
0
41
1
10
10.5386751345949
20
-9.3492213145251
30
0
0
SPLINE
5
154
100
AcDbEntity
8
1
62
256
6
ByLayer
370
18
48
1
60
0
100
AcDbSpline
70
4
71
3
72
12
73
8
40
0
40
0
40
0
40
0
40
0.50000000000001
40
0.50000000000001
40
0.750000000000005
40
0.750000000000005
40
1
40
1
40
1
40
1
41
1
10
22.2792076144253
20
31.4867460744995
30
0
41
1
10
22.4189809103457
20
31.4874783785135
30
0
41
1
10
22.5545090890619
20
31.5119357876087
30
0
41
1
10
22.7518324985981
20
31.5839649560013
30
0
41
1
10
22.8148028738542
20
31.6133509369549
30
0
41
1
10
22.9354312832703
20
31.6827284905088
30
0
41
1
10
22.9934522246659
20
31.7230227479544
30
0
41
1
10
23.0478850077706
20
31.7684434581036
30
0
0
SPLINE
5
155
100
AcDbEntity
8
1
62
256
6
ByLayer
370
18
48
1
60
0
100
AcDbSpline
70
4
71
3
72
12
73
8
40
0
40
0
40
0
40
0
40
0.500000000000003
40
0.500000000000003
40
0.750000000000002
40
0.750000000000002
40
1
40
1
40
1
40
1
41
1
10
22.8601551163563
20
30.0864334097366
30
0
41
1
10
22.7826606672234
20
30.1225612680751
30
0
41
1
10
22.6984851867601
20
30.1620929550088
30
0
41
1
10
22.5570387404187
20
30.2292569824787
30
0
41
1
10
22.5073240904241
20
30.2529738466563
30
0
41
1
10
22.4003084924673
20
30.3043362215881
30
0
41
1
10
22.3431734017389
20
30.3318972483172
30
0
41
1
10
22.2792076144253
20
30.3629801733786
30
0
0
SPLINE
5
156
100
AcDbEntity
8
SK1
62
256
6
ByLayer
370
18
48
1
60
0
100
AcDbSpline
70
4
71
3
72
26
73
22
40
0
40
0
40
0
40
0
40
0.250000000000001
40
0.250000000000001
40
0.500000000000002
40
0.500000000000002
40
0.625000000000001
40
0.625000000000001
40
0.75
40
0.75
40
0.8125
40
0.8125
40
0.875
40
0.875
40
0.90625
40
0.90625
40
0.9375
40
0.9375
40
0.96875
40
0.96875
40
1
40
1
40
1
40
1
41
1
10
-0.200000000000017
20
-7.03415845154797
30
0
41
1
10
-0.200331074104753
20
-6.96758473110461
30
0
41
1
10
-0.201942367211245
20
-6.90082001005126
30
0
41
1
10
-0.208808543904553
20
-6.76684756094051
30
0
41
1
10
-0.213983771374956
20
-6.69957538529246
30
0
41
1
10
-0.226629907857017
20
-6.59846295367004
30
0
41
1
10
-0.231660540619686
20
-6.56479252713518
30
0
41
1
10
-0.244399284272618
20
-6.49761038234348
30
0
41
1
10
-0.252034596555063
20
-6.46403779666809
30
0
41
1
10
-0.267439101060546
20
-6.41481626716185
30
0
41
1
10
-0.27323621273078
20
-6.3985772093198
30
0
41
1
10
-0.287365755981312
20
-6.36675955901518
30
0
41
1
10
-0.295589616969295
20
-6.35108461281939
30
0
41
1
10
-0.312078412289935
20
-6.33025774259031
30
0
41
1
10
-0.31822232846153
20
-6.32386838427445
30
0
41
1
10
-0.332669805034101
20
-6.31363504737985
30
0
41
1
10
-0.340967609456641
20
-6.31005507464135
30
0
41
1
10
-0.357929669282498
20
-6.30825311318182
30
0
41
1
10
-0.366577726601435
20
-6.31005499812107
30
0
41
1
10
-0.381850124236081
20
-6.31686284615006
30
0
41
1
10
-0.388651860853344
20
-6.32169800880934
30
0
41
1
10
-0.394913799811292
20
-6.32721828439901
30
0
0
SPLINE
5
157
100
AcDbEntity
8
SK1
62
256
6
ByLayer
370
18
48
1
60
0
100
AcDbSpline
70
4
71
3
72
24
73
20
40
0
40
0
40
0
40
0
40
0.0312500000000002
40
0.0312500000000002
40
0.0625000000000004
40
0.0625000000000004
40
0.0937500000000006
40
0.0937500000000006
40
0.125000000000001
40
0.125000000000001
40
0.187500000000001
40
0.187500000000001
40
0.250000000000002
40
0.250000000000002
40
0.375000000000001
40
0.375000000000001
40
0.5
40
0.5
40
1
40
1
40
1
40
1
41
1
10
-0.394913799811292
20
6.32722135061286
30
0
41
1
10
-0.388622933830277
20
6.3216755700586
30
0
41
1
10
-0.381718055746603
20
6.31678135987394
30
0
41
1
10
-0.366393862507636
20
6.31000229927824
30
0
41
1
10
-0.357848061635195
20
6.30823128443399
30
0
41
1
10
-0.340711445902059
20
6.31011955599655
30
0
41
1
10
-0.332293755173566
20
6.31383663914295
30
0
41
1
10
-0.317887705763354
20
6.3241797145505
30
0
41
1
10
-0.311700702543845
20
6.33067859325865
30
0
41
1
10
-0.295298997789217
20
6.35157922031669
30
0
41
1
10
-0.28708597388453
20
6.36730565066406
30
0
41
1
10
-0.272955344086199
20
6.39930333387312
30
0
41
1
10
-0.267171029982791
20
6.41559723945636
30
0
41
1
10
-0.251809441444209
20
6.46492374650356
30
0
41
1
10
-0.244218821653561
20
6.4984317022799
30
0
41
1
10
-0.23149114194635
20
6.56582630636572
30
0
41
1
10
-0.226489017484568
20
6.5994729106236
30
0
41
1
10
-0.205553494580016
20
6.76746969392423
30
0
41
1
10
-0.200661630206753
20
6.90111811484644
30
0
41
1
10
-0.200000000000017
20
7.03416121607441
30
0
0
SPLINE
5
158
100
AcDbEntity
8
SK1
62
256
6
ByLayer
370
18
48
1
60
0
100
AcDbSpline
70
4
71
3
72
26
73
22
40
0
40
0
40
0
40
0
40
0.125
40
0.125
40
0.25
40
0.25
40
0.3125
40
0.3125
40
0.375
40
0.375
40
0.5
40
0.5
40
0.625
40
0.625
40
0.6875
40
0.6875
40
0.75
40
0.75
40
0.875
40
0.875
40
1
40
1
40
1
40
1
41
1
10
-1.30710678118655
20
-4.8111515693796
30
0
41
1
10
-1.37464191770107
20
-4.42920989906065
30
0
41
1
10
-1.43848245106358
20
-4.04286538655003
30
0
41
1
10
-1.55492025426076
20
-3.25980613133493
30
0
41
1
10
-1.60753025207396
20
-2.86309861159856
30
0
41
1
10
-1.67414509281366
20
-2.25856982386534
30
0
41
1
10
-1.69427910225542
20
-2.05547235697085
30
0
41
1
10
-1.72965319111884
20
-1.645754391335
30
0
41
1
10
-1.74483270143611
20
-1.4397386518647
30
0
41
1
10
-1.78166793652733
20
-0.822835760757442
30
0
41
1
10
-1.79446799978049
20
-0.411266468230451
30
0
41
1
10
-1.79444348243319
20
0.412504785751906
30
0
41
1
10
-1.78161417600103
20
0.824706824148052
30
0
41
1
10
-1.74458111668804
20
1.44346492154571
30
0
41
1
10
-1.72931046442918
20
1.65009418594528
30
0
41
1
10
-1.69395938565037
20
2.05879746438532
30
0
41
1
10
-1.67384597566206
20
2.26145078101035
30
0
41
1
10
-1.6073049440175
20
2.86481056040475
30
0
41
1
10
-1.55475828557684
20
3.26095452027204
30
0
41
1
10
-1.43842306954178
20
4.04321174825219
30
0
41
1
10
-1.374622793295
20
4.42931851789501
30
0
41
1
10
-1.3071067811866
20
4.81115177825131
30
0
0
SPLINE
5
159
100
AcDbEntity
8
SK1
62
256
6
ByLayer
370
18
48
1
60
0
100
AcDbSpline
70
4
71
3
72
30
73
26
40
0
40
0
40
0
40
0
40
0.0312500000000001
40
0.0312500000000001
40
0.0625000000000002
40
0.0625000000000002
40
0.0937500000000004
40
0.0937500000000004
40
0.125000000000001
40
0.125000000000001
40
0.156250000000001
40
0.156250000000001
40
0.187500000000001
40
0.187500000000001
40
0.250000000000001
40
0.250000000000001
40
0.312500000000001
40
0.312500000000001
40
0.375000000000002
40
0.375000000000002
40
0.500000000000001
40
0.500000000000001
40
0.750000000000001
40
0.750000000000001
40
1
40
1
40
1
40
1
41
1
10
-0.394913799811292
20
-6.32721828439901
30
0
41
1
10
-0.411169702827039
20
-6.34154884003178
30
0
41
1
10
-0.428432689769124
20
-6.35475565889095
30
0
41
1
10
-0.465972582494857
20
-6.37782646793312
30
0
41
1
10
-0.486169045069261
20
-6.38756903357606
30
0
41
1
10
-0.528834802002649
20
-6.40107546113691
30
0
41
1
10
-0.551911827630903
20
-6.40484674033522
30
0
41
1
10
-0.59759647995736
20
-6.40444689916174
30
0
41
1
10
-0.620666657452972
20
-6.40029767867213
30
0
41
1
10
-0.663770142860585
20
-6.38592912502898
30
0
41
1
10
-0.684186273479156
20
-6.37571954267724
30
0
41
1
10
-0.72165089236654
20
-6.35216508603165
30
0
41
1
10
-0.739125153205379
20
-6.33860938748936
30
0
41
1
10
-0.788099585621694
20
-6.29500212833881
30
0
41
1
10
-0.815900527777785
20
-6.26261583511768
30
0
41
1
10
-0.866746075133193
20
-6.19452170639303
30
0
41
1
10
-0.889657313576322
20
-6.15866825589433
30
0
41
1
10
-0.931589886782064
20
-6.08609644673811
30
0
41
1
10
-0.950735693127655
20
-6.04915001273994
30
0
41
1
10
-1.00449108222139
20
-5.93690912819585
30
0
41
1
10
-1.03548744556025
20
-5.86023563385643
30
0
41
1
10
-1.12012055686517
20
-5.62666112956316
30
0
41
1
10
-1.16550143381957
20
-5.46603055324547
30
0
41
1
10
-1.24438554784462
20
-5.14161561829971
30
0
41
1
10
-1.27772950254064
20
-4.97729333579235
30
0
41
1
10
-1.30710678118655
20
-4.81115156937966
30
0
0
SPLINE
5
15A
100
AcDbEntity
8
SK1
62
256
6
ByLayer
370
18
48
1
60
0
100
AcDbSpline
70
4
71
3
72
26
73
22
40
0
40
0
40
0
40
0
40
0.249999999999998
40
0.249999999999998
40
0.499999999999997
40
0.499999999999997
40
0.624999999999995
40
0.624999999999995
40
0.687499999999996
40
0.687499999999996
40
0.749999999999997
40
0.749999999999997
40
0.812499999999998
40
0.812499999999998
40
0.874999999999999
40
0.874999999999999
40
0.906249999999999
40
0.906249999999999
40
0.937499999999999
40
0.937499999999999
40
1
40
1
40
1
40
1
41
1
10
-1.30710678118655
20
4.8111517782514
30
0
41
1
10
-1.27776094215346
20
4.97711562958054
30
0
41
1
10
-1.24445474088375
20
5.14127607213081
30
0
41
1
10
-1.16566607649324
20
5.46540943550505
30
0
41
1
10
-1.12035621530214
20
5.62583403983149
30
0
41
1
10
-1.03597558707764
20
5.85897875620614
30
0
41
1
10
-1.00507947149285
20
5.93551305897722
30
0
41
1
10
-0.951537336733765
20
6.0475612269523
30
0
41
1
10
-0.932473247849742
20
6.08444613540038
30
0
41
1
10
-0.890745707221583
20
6.15690597798837
30
0
41
1
10
-0.867964363687605
20
6.19272059446334
30
0
41
1
10
-0.817121234833081
20
6.2611484240964
30
0
41
1
10
-0.789394425857836
20
6.29356478838184
30
0
41
1
10
-0.724939898133925
20
6.35151567711236
30
0
41
1
10
-0.687353820702384
20
6.37772088294383
30
0
41
1
10
-0.622102468665219
20
6.39998734213981
30
0
41
1
10
-0.59968773121858
20
6.40423336369165
30
0
41
1
10
-0.553245972254473
20
6.40502240224973
30
0
41
1
10
-0.530471361560501
20
6.40147524378972
30
0
41
1
10
-0.464893989702375
20
6.38107100049211
30
0
41
1
10
-0.427672788643832
20
6.3561003895035
30
0
41
1
10
-0.394913799811292
20
6.32722135062522
30
0
0
SPLINE
5
15B
100
AcDbEntity
8
SK1
62
256
6
ByLayer
370
18
48
1
60
0
100
AcDbSpline
70
4
71
3
72
21
73
17
40
0
40
0
40
0
40
0
40
0.0620686614938236
40
0.130354572360302
40
0.198640483226781
40
0.26692639409326
40
0.335212304959739
40
0.403498215826217
40
0.471784126692696
40
0.608355948425654
40
0.676641859292133
40
0.744927770158611
40
0.81321368102509
40
0.881499591891569
40
0.949785502758048
40
1
40
1
40
1
40
1
41
1
10
-0.394913799811292
20
-6.32721828439904
30
0
41
1
10
-0.394913799811292
20
-6.90653762641452
30
0
41
1
10
-0.394913799811292
20
-8.09321756934102
30
0
41
1
10
-0.394913799811292
20
-9.80498157314139
30
0
41
1
10
-0.394913799811292
20
-11.4638140893219
30
0
41
1
10
-0.394913799811292
20
-13.0147246633634
30
0
41
1
10
-0.394913799811292
20
-14.4558606687731
30
0
41
1
10
-0.394913799811292
20
-15.7849097442956
30
0
41
1
10
-0.394913799811292
20
-17.4047594204778
30
0
41
1
10
-0.394913799811292
20
-18.7870404111631
30
0
41
1
10
-0.394913799811292
20
-19.9145928494951
30
0
41
1
10
-0.394913799811292
20
-20.6247618481558
30
0
41
1
10
-0.394913799811292
20
-21.1908658435729
30
0
41
1
10
-0.394913799811292
20
-21.6019834098091
30
0
41
1
10
-0.394913799811292
20
-21.8217920985033
30
0
41
1
10
-0.394913799811235
20
-21.8658541709779
30
0
41
1
10
-0.394913799811292
20
-21.8654696411571
30
0
0
SPLINE
5
15C
100
AcDbEntity
8
SK1
62
256
6
ByLayer
370
18
48
1
60
0
100
AcDbSpline
70
4
71
3
72
21
73
17
40
0
40
0
40
0
40
0
40
0.0502202375639131
40
0.118505742961644
40
0.186791248359375
40
0.255076753757105
40
0.323362259154836
40
0.391647764552567
40
0.528218775348028
40
0.596504280745759
40
0.664789786143489
40
0.73307529154122
40
0.801360796938951
40
0.869646302336682
40
0.937931807734412
40
1
40
1
40
1
40
1
41
1
10
-0.394913799811263
20
21.8654694310292
30
0
41
1
10
-0.394913799811292
20
21.865858548227
30
0
41
1
10
-0.39491379981132
20
21.8217984967855
30
0
41
1
10
-0.394913799811292
20
21.6019829919256
30
0
41
1
10
-0.394913799811292
20
21.1908660117695
30
0
41
1
10
-0.394913799811292
20
20.6247611340725
30
0
41
1
10
-0.394913799811292
20
19.9145926563567
30
0
41
1
10
-0.394913799811292
20
18.7870406318774
30
0
41
1
10
-0.394913799811292
20
17.4047589502432
30
0
41
1
10
-0.394913799811292
20
15.7849099352292
30
0
41
1
10
-0.394913799811292
20
14.4558608746283
30
0
41
1
10
-0.394913799811292
20
13.014724351229
30
0
41
1
10
-0.394913799811292
20
11.4638144327396
30
0
41
1
10
-0.394913799811292
20
9.80498177095927
30
0
41
1
10
-0.394913799811292
20
8.09321828866487
30
0
41
1
10
-0.394913799811292
20
6.90653972901185
30
0
41
1
10
-0.394913799811292
20
6.32722135061286
30
0
0
SPLINE
5
15D
100
AcDbEntity
8
SK1
62
256
6
ByLayer
370
18
48
1
60
0
100
AcDbSpline
70
4
71
3
72
49
73
45
40
0
40
0
40
0
40
0
40
0.0209153909942711
40
0.0490970524468996
40
0.0772787138995281
40
0.105460375352157
40
0.133642036804785
40
0.161823698257414
40
0.218187021162671
40
0.246368682615299
40
0.274550344067928
40
0.302732005520556
40
0.330913666973185
40
0.359095328425813
40
0.387276989878442
40
0.415458651331071
40
0.429549482057385
40
0.443640312783699
40
0.457731143510013
40
0.471821974236327
40
0.485912804962642
40
0.492958220325799
40
0.500003635688956
40
0.507049051052113
40
0.51409446641527
40
0.528185297141585
40
0.542276127867899
40
0.556366958594213
40
0.570457789320527
40
0.584548620046842
40
0.61273028149947
40
0.640911942952099
40
0.669093604404727
40
0.697275265857356
40
0.725456927309984
40
0.753638588762613
40
0.781820250215241
40
0.838183573120498
40
0.866365234573127
40
0.894546896025755
40
0.922728557478384
40
0.950910218931012
40
0.979091880383641
40
1
40
1
40
1
40
1
41
1
10
-1.99503997793926
20
21.8252652036524
30
0
41
1
10
-1.99503997793926
20
21.8260074871069
30
0
41
1
10
-1.99503997793928
20
21.7822239240294
30
0
41
1
10
-1.99503997793928
20
21.5622159608078
30
0
41
1
10
-1.99503997793928
20
21.1516905297668
30
0
41
1
10
-1.99503997793928
20
20.5863476884834
30
0
41
1
10
-1.99503997793928
20
19.8770915138249
30
0
41
1
10
-1.99503997793928
20
18.7508484467722
30
0
41
1
10
-1.99503997793928
20
17.370463175446
30
0
41
1
10
-1.99503997793928
20
15.752471971849
30
0
41
1
10
-1.99503997793928
20
14.4250897201646
30
0
41
1
10
-1.99503997793928
20
12.985830725026
30
0
41
1
10
-1.99503997793928
20
11.4370507512064
30
0
41
1
10
-1.99503997793928
20
9.78067154978808
30
0
41
1
10
-1.99503997793928
20
8.01821733349291
30
0
41
1
10
-1.99503997793928
20
6.46319635117558
30
0
41
1
10
-1.99503997793928
20
5.16749918372616
30
0
41
1
10
-1.99503997793928
20
4.17226659327741
30
0
41
1
10
-1.99503997793928
20
3.15436880408234
30
0
41
1
10
-1.99503997793928
20
2.11640247274798
30
0
41
1
10
-1.99503997793928
20
1.23881045451824
30
0
41
1
10
-1.99503997793928
20
0.53126948289281
30
0
41
1
10
-1.99503997793928
20
7.43625606E-08
30
0
41
1
10
-1.99503997793928
20
-0.53126937109505
30
0
41
1
10
-1.99503997793928
20
-1.23881043770962
30
0
41
1
10
-1.99503997793928
20
-2.11640245296422
30
0
41
1
10
-1.99503997793928
20
-3.15436853749512
30
0
41
1
10
-1.99503997793928
20
-4.17226658860133
30
0
41
1
10
-1.99503997793928
20
-5.16749921349111
30
0
41
1
10
-1.99503997793928
20
-6.46319592062625
30
0
41
1
10
-1.99503997793928
20
-8.01821749841287
30
0
41
1
10
-1.99503997793928
20
-9.7806713457135
30
0
41
1
10
-1.99503997793928
20
-11.4370504129058
30
0
41
1
10
-1.99503997793928
20
-12.9858310385527
30
0
41
1
10
-1.99503997793928
20
-14.4250895103889
30
0
41
1
10
-1.99503997793928
20
-15.7524717843982
30
0
41
1
10
-1.99503997793928
20
-17.370463645283
30
0
41
1
10
-1.99503997793928
20
-18.7508482253859
30
0
41
1
10
-1.99503997793928
20
-19.8770917100388
30
0
41
1
10
-1.99503997793928
20
-20.5863484011186
30
0
41
1
10
-1.99503997793928
20
-21.1516903613971
30
0
41
1
10
-1.99503997793928
20
-21.5622163798915
30
0
41
1
10
-1.99503997793928
20
-21.7822039303153
30
0
41
1
10
-1.99503997793928
20
-21.8259946249289
30
0
41
1
10
-1.99503997793928
20
-21.8252660404799
30
0
0
SPLINE
5
15E
100
AcDbEntity
8
SK1
62
256
6
ByLayer
370
18
48
1
60
0
100
AcDbSpline
70
4
71
3
72
49
73
45
40
0
40
0
40
0
40
0
40
0.0136745491461899
40
0.0422819423821526
40
0.0708893356181153
40
0.0994967288540781
40
0.128104122090041
40
0.156711515326004
40
0.213926301797929
40
0.242533695033892
40
0.271141088269855
40
0.299748481505817
40
0.32835587474178
40
0.356963267977743
40
0.385570661213705
40
0.414178054449668
40
0.42848175106765
40
0.442785447685631
40
0.457089144303612
40
0.471392840921594
40
0.485696537539575
40
0.492848385848566
40
0.500000234157556
40
0.507152082466547
40
0.514303930775538
40
0.528607627393519
40
0.542911324011501
40
0.557215020629482
40
0.571518717247463
40
0.585822413865445
40
0.614429807101407
40
0.64303720033737
40
0.671644593573333
40
0.700251986809296
40
0.728859380045258
40
0.757466773281221
40
0.786074166517184
40
0.843288952989109
40
0.871896346225072
40
0.900503739461035
40
0.929111132696998
40
0.95771852593296
40
0.986325919168923
40
1
40
1
40
1
40
1
41
1
10
-2.19999999999999
20
22.0135803386843
30
0
41
1
10
-2.19999999999999
20
22.0052602922701
30
0
41
1
10
-2.19999999999996
20
21.9553633723561
30
0
41
1
10
-2.19999999999999
20
21.7550269215783
30
0
41
1
10
-2.19999999999999
20
21.3416333570605
30
0
41
1
10
-2.19999999999999
20
20.7725957724454
30
0
41
1
10
-2.19999999999999
20
20.0589162847047
30
0
41
1
10
-2.19999999999999
20
18.9263267207688
30
0
41
1
10
-2.19999999999999
20
17.5367466797247
30
0
41
1
10
-2.19999999999999
20
15.9097478536278
30
0
41
1
10
-2.19999999999999
20
14.5742840575192
30
0
41
1
10
-2.19999999999999
20
13.1259218425112
30
0
41
1
10
-2.19999999999999
20
11.5668148046225
30
0
41
1
10
-2.19999999999999
20
9.89853996914991
30
0
41
1
10
-2.19999999999999
20
8.12208977576526
30
0
41
1
10
-2.19999999999999
20
6.55235660022589
30
0
41
1
10
-2.19999999999999
20
5.24422917335971
30
0
41
1
10
-2.19999999999999
20
4.2375522406841
30
0
41
1
10
-2.19999999999999
20
3.20644372216569
30
0
41
1
10
-2.19999999999999
20
2.15314018801405
30
0
41
1
10
-2.19999999999999
20
1.26034253962158
30
0
41
1
10
-2.19999999999999
20
0.540965390862539
30
0
41
1
10
-2.19999999999999
20
2.64082871E-08
30
0
41
1
10
-2.19999999999999
20
-0.540965319759152
30
0
41
1
10
-2.19999999999999
20
-1.26034245765445
30
0
41
1
10
-2.19999999999999
20
-2.15314020845372
30
0
41
1
10
-2.19999999999999
20
-3.20644349821168
30
0
41
1
10
-2.19999999999999
20
-4.23755215854527
30
0
41
1
10
-2.19999999999999
20
-5.24422924769223
30
0
41
1
10
-2.19999999999999
20
-6.55235618011341
30
0
41
1
10
-2.19999999999999
20
-8.12208991237512
30
0
41
1
10
-2.19999999999999
20
-9.89853979541101
30
0
41
1
10
-2.19999999999999
20
-11.5668144415121
30
0
41
1
10
-2.19999999999999
20
-13.1259221492871
30
0
41
1
10
-2.19999999999999
20
-14.574283866752
30
0
41
1
10
-2.19999999999999
20
-15.9097476492909
30
0
41
1
10
-2.19999999999999
20
-17.5367471514895
30
0
41
1
10
-2.19999999999999
20
-18.9263265026412
30
0
41
1
10
-2.19999999999999
20
-20.0589164660072
30
0
41
1
10
-2.19999999999999
20
-20.7725964921017
30
0
41
1
10
-2.19999999999999
20
-21.3416331895302
30
0
41
1
10
-2.19999999999999
20
-21.7550273348429
30
0
41
1
10
-2.19999999999999
20
-21.9553627324831
30
0
41
1
10
-2.19999999999999
20
-22.0052594599904
30
0
41
1
10
-2.19999999999999
20
-22.0135796611301
30
0
0
SPLINE
5
15F
100
AcDbEntity
8
SK1
62
256
6
ByLayer
370
18
48
1
60
0
100
AcDbSpline
70
4
71
3
72
49
73
45
40
0
40
0
40
0
40
0
40
0.0160119830809548
40
0.0444818903425205
40
0.0729517976040863
40
0.101421704865652
40
0.129891612127218
40
0.158361519388784
40
0.215301333911915
40
0.243771241173481
40
0.272241148435047
40
0.300711055696612
40
0.329180962958178
40
0.357650870219744
40
0.38612077748131
40
0.414590684742876
40
0.428825638373659
40
0.443060592004441
40
0.457295545635224
40
0.471530499266007
40
0.48576545289679
40
0.492882929712181
40
0.500000406527573
40
0.507117883342964
40
0.514235360158356
40
0.528470313789139
40
0.542705267419921
40
0.556940221050704
40
0.571175174681487
40
0.58541012831227
40
0.613880035573836
40
0.642349942835402
40
0.670819850096967
40
0.699289757358533
40
0.727759664620099
40
0.756229571881665
40
0.784699479143231
40
0.841639293666362
40
0.870109200927928
40
0.898579108189494
40
0.927049015451059
40
0.955518922712625
40
0.983988829974191
40
1
40
1
40
1
40
1
41
1
10
-36.5
20
21.1558714131419
30
0
41
1
10
-36.5
20
21.1495818135744
30
0
41
1
10
-36.5
20
21.1027904816659
30
0
41
1
10
-36.5
20
20.9025884164263
30
0
41
1
10
-36.5
20
20.5018751860753
30
0
41
1
10
-36.5
20
19.9491724688865
30
0
41
1
10
-36.5
20
19.2550489357272
30
0
41
1
10
-36.5
20
18.1505179338898
30
0
41
1
10
-36.5
20
16.8015889830236
30
0
41
1
10
-36.5
20
15.2144138486304
30
0
41
1
10
-36.5
20
13.9146794509994
30
0
41
1
10
-36.5
20
12.5065635742002
30
0
41
1
10
-36.5
20
10.9931136245939
30
0
41
1
10
-36.5
20
9.37743069816284
30
0
41
1
10
-36.5
20
7.6628582618342
30
0
41
1
10
-36.5
20
6.15816931379931
30
0
41
1
10
-36.5
20
4.9049974336175
30
0
41
1
10
-36.5
20
3.94891719908253
30
0
41
1
10
-36.5
20
2.97621477071243
30
0
41
1
10
-36.5
20
1.99071870036124
30
0
41
1
10
-36.5
20
1.16514681856438
30
0
41
1
10
-36.5
20
0.498098713248481
30
0
41
1
10
-36.5
20
2.384194602E-07
30
0
41
1
10
-36.5
20
-0.498098462230814
30
0
41
1
10
-36.5
20
-1.16514702467006
30
0
41
1
10
-36.5
20
-1.99071854296869
30
0
41
1
10
-36.5
20
-2.97621435827227
30
0
41
1
10
-36.5
20
-3.94891745941501
30
0
41
1
10
-36.5
20
-4.90499731091177
30
0
41
1
10
-36.5
20
-6.15816884754437
30
0
41
1
10
-36.5
20
-7.6628585236061
30
0
41
1
10
-36.5
20
-9.37743039030653
30
0
41
1
10
-36.5
20
-10.9931133711701
30
0
41
1
10
-36.5
20
-12.5065639108223
30
0
41
1
10
-36.5
20
-13.9146791761936
30
0
41
1
10
-36.5
20
-15.2144137189484
30
0
41
1
10
-36.5
20
-16.8015894462653
30
0
41
1
10
-36.5
20
-18.1505177013548
30
0
41
1
10
-36.5
20
-19.2550491829544
30
0
41
1
10
-36.5
20
-19.9491731575018
30
0
41
1
10
-36.5
20
-20.5018750148337
30
0
41
1
10
-36.5
20
-20.9025888554179
30
0
41
1
10
-36.5
20
-21.1027889245363
30
0
41
1
10
-36.5
20
-21.149580325547
30
0
41
1
10
-36.5
20
-21.1558705871243
30
0
0
SPLINE
5
160
100
AcDbEntity
8
SK1
62
256
6
ByLayer
370
18
48
1
60
0
100
AcDbSpline
70
4
71
3
72
49
73
45
40
0
40
0
40
0
40
0
40
0.0205331680837225
40
0.0487351843811278
40
0.076937200678533
40
0.105139216975938
40
0.133341233273343
40
0.161543249570749
40
0.217947282165559
40
0.246149298462964
40
0.27435131476037
40
0.302553331057775
40
0.33075534735518
40
0.358957363652585
40
0.38715937994999
40
0.415361396247396
40
0.429462404396098
40
0.443563412544801
40
0.457664420693503
40
0.471765428842206
40
0.485866436990908
40
0.49291694106526
40
0.499967445139611
40
0.507017949213963
40
0.514068453288314
40
0.528169461437016
40
0.542270469585719
40
0.556371477734422
40
0.570472485883124
40
0.584573494031827
40
0.612775510329232
40
0.640977526626637
40
0.669179542924042
40
0.697381559221448
40
0.725583575518853
40
0.753785591816258
40
0.781987608113663
40
0.838391640708474
40
0.866593657005879
40
0.894795673303284
40
0.92299768960069
40
0.951199705898095
40
0.9794017221955
40
1
40
1
40
1
40
1
41
1
10
-38
20
-20.2928923490735
30
0
41
1
10
-38
20
-20.2928743418645
30
0
41
1
10
-38
20
-20.2516063423099
30
0
41
1
10
-38
20
-20.0459066437045
30
0
41
1
10
-38
20
-19.6579362347721
30
0
41
1
10
-38
20
-19.1216505379956
30
0
41
1
10
-38
20
-18.4471799717542
30
0
41
1
10
-38
20
-17.3708466567051
30
0
41
1
10
-38
20
-16.0627718728323
30
0
41
1
10
-38
20
-14.5156181768618
30
0
41
1
10
-38
20
-13.2517907463501
30
0
41
1
10
-38
20
-11.8841222937699
30
0
41
1
10
-38
20
-10.4165562193455
30
0
41
1
10
-38
20
-8.85372672313898
30
0
41
1
10
-38
20
-7.20134092284709
30
0
41
1
10
-38
20
-5.76201911469511
30
0
41
1
10
-38
20
-4.5640765607352
30
0
41
1
10
-38
20
-3.65884583736087
30
0
41
1
10
-38
20
-2.74483905839463
30
0
41
1
10
-38
20
-1.82748828650287
30
0
41
1
10
-38
20
-1.06947767603967
30
0
41
1
10
-38
20
-0.455018198724474
30
0
41
1
10
-38
20
4.514861303E-07
30
0
41
1
10
-38
20
0.455018630552075
30
0
41
1
10
-38
20
1.06947718042707
30
0
41
1
10
-38
20
1.82748862261292
30
0
41
1
10
-38
20
2.74483966025932
30
0
41
1
10
-38
20
3.65884523285217
30
0
41
1
10
-38
20
4.56407688146012
30
0
41
1
10
-38
20
5.76201962732219
30
0
41
1
10
-38
20
7.20134053529003
30
0
41
1
10
-38
20
8.85372716578038
30
0
41
1
10
-38
20
10.4165563625368
30
0
41
1
10
-38
20
11.884121927153
30
0
41
1
10
-38
20
13.2517911056129
30
0
41
1
10
-38
20
14.5156182315173
30
0
41
1
10
-38
20
16.0627714181563
30
0
41
1
10
-38
20
17.3708469037194
30
0
41
1
10
-38
20
18.4471796582741
30
0
41
1
10
-38
20
19.121649880576
30
0
41
1
10
-38
20
19.6579364097435
30
0
41
1
10
-38
20
20.0459061788578
30
0
41
1
10
-38
20
20.2517797521274
30
0
41
1
10
-38
20
20.2929843292938
30
0
41
1
10
-38
20
20.292891918143
30
0
0
SPLINE
5
161
100
AcDbEntity
8
SK1
62
256
6
ByLayer
370
18
48
1
60
0
100
AcDbSpline
70
4
71
3
72
11
73
7
40
0
40
0
40
0
40
0
40
0.24260137289863
40
0.502561214665899
40
0.761098879312195
40
1
40
1
40
1
40
1
41
1
10
-0.199999999999989
20
22.0603316233164
30
0
41
1
10
-0.200957649232748
20
22.03467763457
30
0
41
1
10
-0.211248088565583
20
21.9856476021506
30
0
41
1
10
-0.255178473897388
20
21.9196695750854
30
0
41
1
10
-0.321112940270211
20
21.8764518787731
30
0
41
1
10
-0.369683556830324
20
21.8664032520323
30
0
41
1
10
-0.394913799811292
20
21.8654753908017
30
0
0
SPLINE
5
162
100
AcDbEntity
8
SK1
62
256
6
ByLayer
370
18
48
1
60
0
100
AcDbSpline
70
4
71
3
72
11
73
7
40
0
40
0
40
0
40
0
40
0.238901121200236
40
0.497438786084572
40
0.757398627621475
40
1
40
1
40
1
40
1
41
1
10
-0.394913799811292
20
-21.8654754627471
30
0
41
1
10
-0.369683556841096
20
-21.8664033239634
30
0
41
1
10
-0.321112940313157
20
-21.8764519506625
30
0
41
1
10
-0.255178473954459
20
-21.9196696467454
30
0
41
1
10
-0.211248088575957
20
-21.9856476735436
30
0
41
1
10
-0.200957649243719
20
-22.0346777057893
30
0
41
1
10
-0.200000000000017
20
-22.0603316944385
30
0
0
SPLINE
5
163
100
AcDbEntity
8
SK1
62
256
6
ByLayer
370
18
48
1
60
0
100
AcDbSpline
70
4
71
2
72
6
73
3
40
0
40
0
40
0
40
1
40
1
40
1
41
1
10
-36.5
20
21.1556411500792
30
0
41
1
10
-37.2500000202692
20
20.7228363924583
30
0
41
1
10
-38
20
20.2900294978113
30
0
0
SPLINE
5
164
100
AcDbEntity
8
SK1
62
256
6
ByLayer
370
18
48
1
60
0
100
AcDbSpline
70
4
71
2
72
6
73
3
40
0
40
0
40
0
40
1
40
1
40
1
41
1
10
-38
20
-20.2900295032223
30
0
41
1
10
-37.2500000202654
20
-20.7228363958853
30
0
41
1
10
-36.5
20
-21.1556411516461
30
0
0
SPLINE
5
165
100
AcDbEntity
8
SK1
62
256
6
ByLayer
370
18
48
1
60
0
100
AcDbSpline
70
4
71
2
72
6
73
3
40
0
40
0
40
0
40
1
40
1
40
1
41
1
10
-0.394913799811292
20
21.8654705382346
30
0
41
1
10
-1.19497688887515
20
21.8453761190377
30
0
41
1
10
-1.99503997793928
20
21.8252816998361
30
0
0
SPLINE
5
166
100
AcDbEntity
8
SK1
62
256
6
ByLayer
370
18
48
1
60
0
100
AcDbSpline
70
4
71
2
72
6
73
3
40
0
40
0
40
0
40
1
40
1
40
1
41
1
10
-1.99503997793928
20
-21.8252817664983
30
0
41
1
10
-1.19497688887515
20
-21.845376185605
30
0
41
1
10
-0.394913799811292
20
-21.8654706047072
30
0
0
SPLINE
5
167
100
AcDbEntity
8
SK1
62
256
6
ByLayer
370
18
48
1
60
0
100
AcDbSpline
70
4
71
3
72
13
73
9
40
0
40
0
40
0
40
0
40
0.239488446613139
40
0.368403116187249
40
0.500046645745247
40
0.631682415479622
40
0.760575689762793
40
1
40
1
40
1
40
1
41
1
10
-1.99503997793928
20
21.825286524797
30
0
41
1
10
-2.0211096495122
20
21.8248845959364
30
0
41
1
10
-2.05883938576716
20
21.8310551084546
30
0
41
1
10
-2.1062761997685
20
21.8540920367489
30
0
41
1
10
-2.1388629218354
20
21.8792518859041
30
0
41
1
10
-2.16563526915769
20
21.9105242864783
30
0
41
1
10
-2.19103234710849
20
21.9567296167895
30
0
41
1
10
-2.19909149085342
20
21.9940920912339
30
0
41
1
10
-2.19999999999999
20
22.0201427571469
30
0
0
SPLINE
5
168
100
AcDbEntity
8
SK1
62
256
6
ByLayer
370
18
48
1
60
0
100
AcDbSpline
70
4
71
3
72
13
73
9
40
0
40
0
40
0
40
0
40
0.239424309709105
40
0.36831758382101
40
0.499953353497804
40
0.631596883124593
40
0.760511552875627
40
1
40
1
40
1
40
1
41
1
10
-2.19999999999999
20
-22.0201428284389
30
0
41
1
10
-2.19909149084521
20
-21.994092162624
30
0
41
1
10
-2.19103234710033
20
-21.956729688326
30
0
41
1
10
-2.1656352691468
20
-21.910524358218
30
0
41
1
10
-2.13886292182099
20
-21.8792519577777
30
0
41
1
10
-2.1062761997531
20
-21.8540921087329
30
0
41
1
10
-2.05883938574669
20
-21.8310551805396
30
0
41
1
10
-2.02110964950145
20
-21.8248846680467
30
0
41
1
10
-1.99503997793928
20
-21.8252865969123
30
0
0
SPLINE
5
169
100
AcDbEntity
8
SK1
62
256
6
ByLayer
370
18
48
1
60
0
100
AcDbSpline
70
4
71
2
72
6
73
3
40
0
40
0
40
0
40
1
40
1
40
1
41
1
10
-2.19999999999999
20
22.0136642719968
30
0
41
1
10
-19.3500000008246
20
21.5830599810351
30
0
41
1
10
-36.5
20
21.1524539804128
30
0
0
SPLINE
5
16A
100
AcDbEntity
8
SK1
62
256
6
ByLayer
370
18
48
1
60
0
100
AcDbSpline
70
4
71
2
72
6
73
3
40
0
40
0
40
0
40
1
40
1
40
1
41
1
10
-36.5
20
-21.152454254977
30
0
41
1
10
-19.3500000008244
20
-21.5830602558515
30
0
41
1
10
-2.19999999999999
20
-22.0136645469338
30
0
0
LINE
5
77
100
AcDbEntity
8
1
62
256
6
ByLayer
370
18
48
1
60
0
100
AcDbLine
10
46.843405
20
31.175821
30
0
11
57.521066
21
34.542475
31
0
39
0
210
0
220
0
230
1
0
LINE
5
78
100
AcDbEntity
8
1
62
256
6
ByLayer
370
18
48
1
60
0
100
AcDbLine
10
46.841806
20
31.187962
30
0
11
46.843405
21
31.175821
31
0
39
0
210
0
220
0
230
1
0
LINE
5
79
100
AcDbEntity
8
1
62
256
6
ByLayer
370
18
48
1
60
0
100
AcDbLine
10
64.102588
20
44.993209
30
0
11
64.10099
21
45.00535
31
0
39
0
210
0
220
0
230
1
0
LINE
5
7A
100
AcDbEntity
8
1
62
256
6
ByLayer
370
18
48
1
60
0
100
AcDbLine
10
52.838818
20
41.229417
30
0
11
46.023223
21
32.347161
31
0
39
0
210
0
220
0
230
1
0
LINE
5
7B
100
AcDbEntity
8
1
62
256
6
ByLayer
370
18
48
1
60
0
100
AcDbLine
10
64.910309
20
43.839664
30
0
11
64.921171
21
43.83401
31
0
39
0
210
0
220
0
230
1
0
LINE
5
7C
100
AcDbEntity
8
1
62
256
6
ByLayer
370
18
48
1
60
0
100
AcDbLine
10
58.105576
20
34.951753
30
0
11
64.921171
21
43.83401
31
0
39
0
210
0
220
0
230
1
0
LINE
5
7D
100
AcDbEntity
8
1
62
256
6
ByLayer
370
18
48
1
60
0
100
AcDbLine
10
46.034085
20
32.341507
30
0
11
46.023223
21
32.347161
31
0
39
0
210
0
220
0
230
1
0
LINE
5
7E
100
AcDbEntity
8
1
62
256
6
ByLayer
370
18
48
1
60
0
100
AcDbLine
10
64.10099
20
45.00535
30
0
11
53.423329
21
41.638696
31
0
39
0
210
0
220
0
230
1
0
LINE
5
7F
100
AcDbEntity
8
1
62
256
6
ByLayer
370
18
48
1
60
0
100
AcDbLine
10
22.860155
20
30.086433
30
0
11
22.860155
21
23.069541
31
0
39
0
210
0
220
0
230
1
0
LINE
5
80
100
AcDbEntity
8
1
62
256
6
ByLayer
370
18
48
1
60
0
100
AcDbLine
10
44.325025
20
25.946053
30
0
11
45.203922
21
27.283042
31
0
39
0
210
0
220
0
230
1
0
LINE
5
81
100
AcDbEntity
8
1
62
256
6
ByLayer
370
18
48
1
60
0
100
AcDbLine
10
46.999626
20
34.150961
30
0
11
46.933799
21
34.065174
31
0
39
0
210
0
220
0
230
1
0
LINE
5
82
100
AcDbEntity
8
1
62
256
6
ByLayer
370
18
48
1
60
0
100
AcDbLine
10
52.611946
20
26.135737
30
0
11
52.878622
21
26.626607
31
0
39
0
210
0
220
0
230
1
0
LINE
5
83
100
AcDbEntity
8
1
62
256
6
ByLayer
370
18
48
1
60
0
100
AcDbLine
10
50.94544
20
40.196848
30
0
11
49.94544
21
39.881549
31
0
39
0
210
0
220
0
230
1
0
LINE
5
84
100
AcDbEntity
8
1
62
256
6
ByLayer
370
18
48
1
60
0
100
AcDbLine
10
52.878622
20
26.626607
30
0
11
49.372371
21
31.634053
31
0
39
0
210
0
220
0
230
1
0
LINE
5
85
100
AcDbEntity
8
1
62
256
6
ByLayer
370
18
48
1
60
0
100
AcDbLine
10
49.372371
20
31.634053
30
0
11
49.41223
21
31.751473
31
0
39
0
210
0
220
0
230
1
0
LINE
5
86
100
AcDbEntity
8
1
62
256
6
ByLayer
370
18
48
1
60
0
100
AcDbLine
10
22.279208
20
30.36298
30
0
11
22.279208
21
13.815599
31
0
39
0
210
0
220
0
230
1
0
LINE
5
87
100
AcDbEntity
8
1
62
256
6
ByLayer
370
18
48
1
60
0
100
AcDbLine
10
46.999626
20
34.150961
30
0
11
47.318778
21
34.566888
31
0
39
0
210
0
220
0
230
1
0
LINE
5
88
100
AcDbEntity
8
1
62
256
6
ByLayer
370
18
48
1
60
0
100
AcDbLine
10
55.686887
20
31.795765
30
0
11
55.617467
21
31.667986
31
0
39
0
210
0
220
0
230
1
0
LINE
5
89
100
AcDbEntity
8
1
62
256
6
ByLayer
370
18
48
1
60
0
100
AcDbLine
10
55.156039
20
30.818637
30
0
11
55.031923
21
30.590177
31
0
39
0
210
0
220
0
230
1
0
LINE
5
8A
100
AcDbEntity
8
1
62
256
6
ByLayer
370
18
48
1
60
0
100
AcDbLine
10
47.003764
20
33.992087
30
0
11
44.69753
21
32.377244
31
0
39
0
210
0
220
0
230
1
0
LINE
5
8B
100
AcDbEntity
8
1
62
256
6
ByLayer
370
18
48
1
60
0
100
AcDbLine
10
13.461325
20
-30.080593
30
0
11
10.538675
21
-30.080593
31
0
39
0
210
0
220
0
230
1
0
LINE
5
8C
100
AcDbEntity
8
1
62
256
6
ByLayer
370
18
48
1
60
0
100
AcDbLine
10
47.442749
20
34.564183
30
0
11
47.003764
21
33.992087
31
0
39
0
210
0
220
0
230
1
0
LINE
5
8D
100
AcDbEntity
8
1
62
256
6
ByLayer
370
18
48
1
60
0
100
AcDbLine
10
46.41826
20
29.919788
30
0
11
48.724493
21
31.534631
31
0
39
0
210
0
220
0
230
1
0
LINE
5
8E
100
AcDbEntity
8
1
62
256
6
ByLayer
370
18
48
1
60
0
100
AcDbLine
10
44.24544
20
38.084346
30
0
11
44.74544
21
38.241995
31
0
39
0
210
0
220
0
230
1
0
LINE
5
8F
100
AcDbEntity
8
1
62
256
6
ByLayer
370
18
48
1
60
0
100
AcDbLine
10
10.538675
20
30.080593
30
0
11
13.461325
21
30.080593
31
0
39
0
210
0
220
0
230
1
0
LINE
5
90
100
AcDbEntity
8
1
62
256
6
ByLayer
370
18
48
1
60
0
100
AcDbLine
10
50.016424
20
21.412723
30
0
11
50.084925
21
21.484262
31
0
39
0
210
0
220
0
230
1
0
LINE
5
91
100
AcDbEntity
8
1
62
256
6
ByLayer
370
18
48
1
60
0
100
AcDbLine
10
48.769243
20
31.443887
30
0
11
48.872371
21
31.476403
31
0
39
0
210
0
220
0
230
1
0
LINE
5
92
100
AcDbEntity
8
1
62
256
6
ByLayer
370
18
48
1
60
0
100
AcDbLine
10
56.814782
20
33.871877
30
0
11
56.681428
21
33.626413
31
0
39
0
210
0
220
0
230
1
0
LINE
5
93
100
AcDbEntity
8
1
62
256
6
ByLayer
370
18
48
1
60
0
100
AcDbLine
10
10.105662
20
29.913955
30
0
11
10.105662
21
9.869413
31
0
39
0
210
0
220
0
230
1
0
LINE
5
94
100
AcDbEntity
8
1
62
256
6
ByLayer
370
18
48
1
60
0
100
AcDbLine
10
49.372371
20
31.634053
30
0
11
48.872371
21
31.476403
31
0
39
0
210
0
220
0
230
1
0
LINE
5
95
100
AcDbEntity
8
1
62
256
6
ByLayer
370
18
48
1
60
0
100
AcDbLine
10
23.419099
20
-27.599385
30
0
11
23.40468
21
-27.625927
31
0
39
0
210
0
220
0
230
1
0
LINE
5
96
100
AcDbEntity
8
1
62
256
6
ByLayer
370
18
48
1
60
0
100
AcDbLine
10
10.105662
20
-9.869413
30
0
11
10.105662
21
-29.913955
31
0
39
0
210
0
220
0
230
1
0
LINE
5
97
100
AcDbEntity
8
1
62
256
6
ByLayer
370
18
48
1
60
0
100
AcDbLine
10
22.860155
20
-23.069541
30
0
11
22.860155
21
-28.628231
31
0
39
0
210
0
220
0
230
1
0
LINE
5
98
100
AcDbEntity
8
1
62
256
6
ByLayer
370
18
48
1
60
0
100
AcDbLine
10
10.538675
20
30.080593
30
0
11
10.538675
21
9.349221
31
0
39
0
210
0
220
0
230
1
0
LINE
5
99
100
AcDbEntity
8
1
62
256
6
ByLayer
370
18
48
1
60
0
100
AcDbLine
10
44.640173
20
32.45916
30
0
11
44.69753
21
32.377244
31
0
39
0
210
0
220
0
230
1
0
LINE
5
9A
100
AcDbEntity
8
1
62
256
6
ByLayer
370
18
48
1
60
0
100
AcDbLine
10
55.686887
20
31.795765
30
0
11
55.633394
21
31.758309
31
0
39
0
210
0
220
0
230
1
0
LINE
5
9B
100
AcDbEntity
8
1
62
256
6
ByLayer
370
18
48
1
60
0
100
AcDbLine
10
44.84544
20
38.273525
30
0
11
47.442749
21
34.564183
31
0
39
0
210
0
220
0
230
1
0
LINE
5
9C
100
AcDbEntity
8
1
62
256
6
ByLayer
370
18
48
1
60
0
100
AcDbLine
10
49.01544
20
39.588321
30
0
11
48.782731
21
39.514948
31
0
39
0
210
0
220
0
230
1
0
LINE
5
9D
100
AcDbEntity
8
1
62
256
6
ByLayer
370
18
48
1
60
0
100
AcDbLine
10
52.12547
20
40.56891
30
0
11
51.87544
21
40.490075
31
0
39
0
210
0
220
0
230
1
0
LINE
5
9E
100
AcDbEntity
8
1
62
256
6
ByLayer
370
18
48
1
60
0
100
AcDbLine
10
55.031923
20
30.590177
30
0
11
52.931957
21
26.724781
31
0
39
0
210
0
220
0
230
1
0
LINE
5
9F
100
AcDbEntity
8
1
62
256
6
ByLayer
370
18
48
1
60
0
100
AcDbLine
10
47.318778
20
34.566888
30
0
11
44.74544
21
38.241995
31
0
39
0
210
0
220
0
230
1
0
LINE
5
A0
100
AcDbEntity
8
1
62
256
6
ByLayer
370
18
48
1
60
0
100
AcDbLine
10
13.461325
20
9.349221
30
0
11
10.538675
21
9.349221
31
0
39
0
210
0
220
0
230
1
0
LINE
5
A1
100
AcDbEntity
8
1
62
256
6
ByLayer
370
18
48
1
60
0
100
AcDbLine
10
13.461325
20
-9.349221
30
0
11
13.461325
21
-30.080593
31
0
39
0
210
0
220
0
230
1
0
LINE
5
A2
100
AcDbEntity
8
1
62
256
6
ByLayer
370
18
48
1
60
0
100
AcDbLine
10
55.617467
20
31.667986
30
0
11
55.156039
21
30.818637
31
0
39
0
210
0
220
0
230
1
0
LINE
5
A3
100
AcDbEntity
8
1
62
256
6
ByLayer
370
18
48
1
60
0
100
AcDbLine
10
49.41223
20
31.751473
30
0
11
52.931957
21
26.724781
31
0
39
0
210
0
220
0
230
1
0
LINE
5
A4
100
AcDbEntity
8
1
62
256
6
ByLayer
370
18
48
1
60
0
100
AcDbLine
10
42.473691
20
26.432294
30
0
11
42.36521
21
28.028612
31
0
39
0
210
0
220
0
230
1
0
LINE
5
A5
100
AcDbEntity
8
1
62
256
6
ByLayer
370
18
48
1
60
0
100
AcDbLine
10
50.826574
20
22.849412
30
0
11
52.611946
21
26.135737
31
0
39
0
210
0
220
0
230
1
0
LINE
5
A6
100
AcDbEntity
8
1
62
256
6
ByLayer
370
18
48
1
60
0
100
AcDbLine
10
52.931957
20
26.724781
30
0
11
52.878622
21
26.626607
31
0
39
0
210
0
220
0
230
1
0
LINE
5
A7
100
AcDbEntity
8
1
62
256
6
ByLayer
370
18
48
1
60
0
100
AcDbLine
10
55.617467
20
31.667986
30
0
11
55.633394
21
31.758309
31
0
39
0
210
0
220
0
230
1
0
LINE
5
A8
100
AcDbEntity
8
1
62
256
6
ByLayer
370
18
48
1
60
0
100
AcDbLine
10
46.475617
20
29.837873
30
0
11
46.41826
21
29.919788
31
0
39
0
210
0
220
0
230
1
0
LINE
5
A9
100
AcDbEntity
8
1
62
256
6
ByLayer
370
18
48
1
60
0
100
AcDbLine
10
46.933799
20
34.065174
30
0
11
44.640173
21
32.45916
31
0
39
0
210
0
220
0
230
1
0
LINE
5
AA
100
AcDbEntity
8
1
62
256
6
ByLayer
370
18
48
1
60
0
100
AcDbLine
10
46.999626
20
34.150961
30
0
11
44.24544
21
38.084346
31
0
39
0
210
0
220
0
230
1
0
LINE
5
AB
100
AcDbEntity
8
1
62
256
6
ByLayer
370
18
48
1
60
0
100
AcDbLine
10
44.276195
20
30.369257
30
0
11
44.387264
21
30.210634
31
0
39
0
210
0
220
0
230
1
0
LINE
5
AC
100
AcDbEntity
8
1
62
256
6
ByLayer
370
18
48
1
60
0
100
AcDbLine
10
44.192457
20
30.314503
30
0
11
44.307172
21
30.150673
31
0
39
0
210
0
220
0
230
1
0
LINE
5
AD
100
AcDbEntity
8
1
62
256
6
ByLayer
370
18
48
1
60
0
100
AcDbLine
10
51.87544
20
40.490075
30
0
11
50.94544
21
40.196848
31
0
39
0
210
0
220
0
230
1
0
LINE
5
AE
100
AcDbEntity
8
1
62
256
6
ByLayer
370
18
48
1
60
0
100
AcDbLine
10
44.84544
20
38.273525
30
0
11
44.74544
21
38.241995
31
0
39
0
210
0
220
0
230
1
0
LINE
5
AF
100
AcDbEntity
8
1
62
256
6
ByLayer
370
18
48
1
60
0
100
AcDbLine
10
49.94544
20
39.881549
30
0
11
49.01544
21
39.588321
31
0
39
0
210
0
220
0
230
1
0
LINE
5
B0
100
AcDbEntity
8
1
62
256
6
ByLayer
370
18
48
1
60
0
100
AcDbLine
10
52.611946
20
26.135737
30
0
11
48.872371
21
31.476403
31
0
39
0
210
0
220
0
230
1
0
LINE
5
B1
100
AcDbEntity
8
1
62
256
6
ByLayer
370
18
48
1
60
0
100
AcDbLine
10
46.475617
20
29.837873
30
0
11
48.769243
21
31.443887
31
0
39
0
210
0
220
0
230
1
0
LINE
5
B2
100
AcDbEntity
8
1
62
256
6
ByLayer
370
18
48
1
60
0
100
AcDbLine
10
10.538675
20
-9.349221
30
0
11
10.538675
21
-30.080593
31
0
39
0
210
0
220
0
230
1
0
LINE
5
B3
100
AcDbEntity
8
1
62
256
6
ByLayer
370
18
48
1
60
0
100
AcDbLine
10
27.403878
20
-20.264623
30
0
11
27.403878
21
28.297047
31
0
39
0
210
0
220
0
230
1
0
LINE
5
B4
100
AcDbEntity
8
1
62
256
6
ByLayer
370
18
48
1
60
0
100
AcDbLine
10
24.814192
20
37.515718
30
0
11
40.748923
21
37.515718
31
0
39
0
210
0
220
0
230
1
0
LINE
5
B5
100
AcDbEntity
8
1
62
256
6
ByLayer
370
18
48
1
60
0
100
AcDbLine
10
47.318778
20
34.566888
30
0
11
47.442749
21
34.564183
31
0
39
0
210
0
220
0
230
1
0
LINE
5
B6
100
AcDbEntity
8
1
62
256
6
ByLayer
370
18
48
1
60
0
100
AcDbLine
10
23.419099
20
27.717427
30
0
11
23.419099
21
-27.599385
31
0
39
0
210
0
220
0
230
1
0
LINE
5
B7
100
AcDbEntity
8
1
62
256
6
ByLayer
370
18
48
1
60
0
100
AcDbLine
10
48.782731
20
39.514948
30
0
11
44.84544
21
38.273525
31
0
39
0
210
0
220
0
230
1
0
LINE
5
B8
100
AcDbEntity
8
1
62
256
6
ByLayer
370
18
48
1
60
0
100
AcDbLine
10
56.681428
20
33.626413
30
0
11
56.18541
21
32.713395
31
0
39
0
210
0
220
0
230
1
0
LINE
5
B9
100
AcDbEntity
8
1
62
256
6
ByLayer
370
18
48
1
60
0
100
AcDbLine
10
27.403878
20
-20.264623
30
0
11
23.419099
21
-27.599385
31
0
39
0
210
0
220
0
230
1
0
LINE
5
BA
100
AcDbEntity
8
1
62
256
6
ByLayer
370
18
48
1
60
0
100
AcDbLine
10
46.933799
20
34.065174
30
0
11
47.003764
21
33.992087
31
0
39
0
210
0
220
0
230
1
0
LINE
5
BB
100
AcDbEntity
8
1
62
256
6
ByLayer
370
18
48
1
60
0
100
AcDbLine
10
22.860155
20
-28.628231
30
0
11
23.40468
21
-27.625927
31
0
39
0
210
0
220
0
230
1
0
LINE
5
BC
100
AcDbEntity
8
1
62
256
6
ByLayer
370
18
48
1
60
0
100
AcDbLine
10
44.056687
20
38.024832
30
0
11
44.24544
21
38.084346
31
0
39
0
210
0
220
0
230
1
0
LINE
5
BD
100
AcDbEntity
8
1
62
256
6
ByLayer
370
18
48
1
60
0
100
AcDbLine
10
10.538675
20
-9.349221
30
0
11
13.461325
21
-9.349221
31
0
39
0
210
0
220
0
230
1
0
LINE
5
BE
100
AcDbEntity
8
1
62
256
6
ByLayer
370
18
48
1
60
0
100
AcDbLine
10
22.279208
20
-13.815599
30
0
11
22.279208
21
-29.697578
31
0
39
0
210
0
220
0
230
1
0
LINE
5
BF
100
AcDbEntity
8
1
62
256
6
ByLayer
370
18
48
1
60
0
100
AcDbLine
10
56.18541
20
32.713395
30
0
11
55.686887
21
31.795765
31
0
39
0
210
0
220
0
230
1
0
LINE
5
C0
100
AcDbEntity
8
1
62
256
6
ByLayer
370
18
48
1
60
0
100
AcDbLine
10
48.769243
20
31.443887
30
0
11
48.724493
21
31.534631
31
0
39
0
210
0
220
0
230
1
0
LINE
5
C1
100
AcDbEntity
8
1
62
256
6
ByLayer
370
18
48
1
60
0
100
AcDbLine
10
13.894338
20
29.913955
30
0
11
13.894338
21
9.869413
31
0
39
0
210
0
220
0
230
1
0
LINE
5
C2
100
AcDbEntity
8
1
62
256
6
ByLayer
370
18
48
1
60
0
100
AcDbLine
10
13.894338
20
-9.869413
30
0
11
13.894338
21
-29.913955
31
0
39
0
210
0
220
0
230
1
0
LINE
5
C3
100
AcDbEntity
8
1
62
256
6
ByLayer
370
18
48
1
60
0
100
AcDbLine
10
48.724493
20
31.534631
30
0
11
49.41223
21
31.751473
31
0
39
0
210
0
220
0
230
1
0
LINE
5
C4
100
AcDbEntity
8
1
62
256
6
ByLayer
370
18
48
1
60
0
100
AcDbLine
10
13.461325
20
30.080593
30
0
11
13.461325
21
9.349221
31
0
39
0
210
0
220
0
230
1
0
LINE
5
C5
100
AcDbEntity
8
1
62
256
6
ByLayer
370
18
48
1
60
0
100
AcDbLine
10
50.035858
20
21.393946
30
0
11
27.403878
21
-20.264623
31
0
39
0
210
0
220
0
230
1
0
LINE
5
C6
100
AcDbEntity
8
SK1
62
256
6
ByLayer
370
18
48
1
60
0
100
AcDbLine
10
-1.307107
20
-4.811152
30
0
11
-1.307107
21
4.811152
31
0
39
0
210
0
220
0
230
1
0
LINE
5
C8
100
AcDbEntity
8
SK1
62
256
6
ByLayer
370
18
48
1
60
0
100
AcDbLine
10
-0.2
20
22.533485
30
0
11
-0.2
21
7.034161
31
0
39
0
210
0
220
0
230
1
0
LINE
5
C9
100
AcDbEntity
8
1
62
256
6
ByLayer
370
18
48
1
60
0
100
AcDbLine
10
56.814782
20
33.871877
30
0
11
57.108412
21
34.41236
31
0
39
0
210
0
220
0
230
1
0
LINE
5
CA
100
AcDbEntity
8
1
62
256
6
ByLayer
370
18
48
1
60
0
100
AcDbLine
10
52.12547
20
40.56891
30
0
11
52.397929
21
40.654816
31
0
39
0
210
0
220
0
230
1
0
LINE
5
CB
100
AcDbEntity
8
1
62
256
6
ByLayer
370
18
48
1
60
0
100
AcDbLine
10
56.814782
20
33.871877
30
0
11
56.557865
21
34.238793
31
0
39
0
210
0
220
0
230
1
0
LINE
5
CC
100
AcDbEntity
8
1
62
256
6
ByLayer
370
18
48
1
60
0
100
AcDbLine
10
48.782731
20
39.514948
30
0
11
50.090374
21
37.64744
31
0
39
0
210
0
220
0
230
1
0
LINE
5
CD
100
AcDbEntity
8
1
62
256
6
ByLayer
370
18
48
1
60
0
100
AcDbLine
10
53.215068
20
33.184915
30
0
11
55.031923
21
30.590177
31
0
39
0
210
0
220
0
230
1
0
LINE
5
CE
100
AcDbEntity
8
1
62
256
6
ByLayer
370
18
48
1
60
0
100
AcDbLine
10
52.224015
20
40.428173
30
0
11
52.12547
21
40.56891
31
0
39
0
210
0
220
0
230
1
0
LINE
5
CF
100
AcDbEntity
8
1
62
256
6
ByLayer
370
18
48
1
60
0
100
AcDbLine
10
49.01544
20
39.588321
30
0
11
50.238954
21
37.840961
31
0
39
0
210
0
220
0
230
1
0
LINE
5
D0
100
AcDbEntity
8
1
62
256
6
ByLayer
370
18
48
1
60
0
100
AcDbLine
10
53.447801
20
33.258253
30
0
11
55.156039
21
30.818637
31
0
39
0
210
0
220
0
230
1
0
LINE
5
D1
100
AcDbEntity
8
1
62
256
6
ByLayer
370
18
48
1
60
0
100
AcDbLine
10
51.87544
20
40.490075
30
0
11
52.064415
21
40.220191
31
0
39
0
210
0
220
0
230
1
0
LINE
5
D2
100
AcDbEntity
8
1
62
256
6
ByLayer
370
18
48
1
60
0
100
AcDbLine
10
56.307822
20
34.159978
30
0
11
56.681428
21
33.626413
31
0
39
0
210
0
220
0
230
1
0
LINE
5
D3
100
AcDbEntity
8
1
62
256
6
ByLayer
370
18
48
1
60
0
100
AcDbLine
10
49.94544
20
39.881549
30
0
11
50.832494
21
38.614704
31
0
39
0
210
0
220
0
230
1
0
LINE
5
D4
100
AcDbEntity
8
1
62
256
6
ByLayer
370
18
48
1
60
0
100
AcDbLine
10
54.377778
20
33.551514
30
0
11
55.633394
21
31.758309
31
0
39
0
210
0
220
0
230
1
0
LINE
5
D5
100
AcDbEntity
8
1
62
256
6
ByLayer
370
18
48
1
60
0
100
AcDbLine
10
50.94544
20
40.196848
30
0
11
51.470829
21
39.446514
31
0
39
0
210
0
220
0
230
1
0
LINE
5
D6
100
AcDbEntity
8
1
62
256
6
ByLayer
370
18
48
1
60
0
100
AcDbLine
10
55.3778
20
33.866782
30
0
11
56.18541
21
32.713395
31
0
39
0
210
0
220
0
230
1
0
LINE
5
D7
100
AcDbEntity
8
1
62
256
6
ByLayer
370
18
48
1
60
0
100
AcDbLine
10
23.438319
20
32.389417
30
0
11
23.438319
21
32.379536
31
0
39
0
210
0
220
0
230
1
0
LINE
5
D8
100
AcDbEntity
8
1
62
256
6
ByLayer
370
18
48
1
60
0
100
AcDbLine
10
0
20
-31.2
30
0
11
0
21
31.2
31
0
39
0
210
0
220
0
230
1
0
LINE
5
D9
100
AcDbEntity
8
1
62
256
6
ByLayer
370
18
48
1
60
0
100
AcDbLine
10
22.279208
20
31.5
30
0
11
22.279208
21
31.486746
31
0
39
0
210
0
220
0
230
1
0
LINE
5
DA
100
AcDbEntity
8
1
62
256
6
ByLayer
370
18
48
1
60
0
100
AcDbLine
10
21.3
20
-31.5
30
0
11
22.279208
21
-29.697578
31
0
39
0
210
0
220
0
230
1
0
LINE
5
DB
100
AcDbEntity
8
1
62
256
6
ByLayer
370
18
48
1
60
0
100
AcDbLine
10
0.3
20
-31.5
30
0
11
0.3
21
31.5
31
0
39
0
210
0
220
0
230
1
0
LINE
5
DC
100
AcDbEntity
8
SK1
62
256
6
ByLayer
370
18
48
1
60
0
100
AcDbLine
10
-0.2
20
-7.034158
30
0
11
-0.2
21
-22.533485
31
0
39
0
210
0
220
0
230
1
0
LINE
5
DD
100
AcDbEntity
8
81
62
256
6
ByLayer
370
18
48
1
60
0
100
AcDbLine
10
65
20
45
30
0
11
75
21
45
31
0
39
0
210
0
220
0
230
1
0
LINE
5
DE
100
AcDbEntity
8
80
62
256
6
ByLayer
370
18
48
1
60
0
100
AcDbLine
10
0
20
0
30
0
11
-10
21
0
31
0
39
0
210
0
220
0
230
1
0
LINE
5
DF
100
AcDbEntity
8
1
62
256
6
ByLayer
370
18
48
1
60
0
100
AcDbLine
10
24.811907
20
37.515718
30
0
11
23.438319
21
32.389417
31
0
39
0
210
0
220
0
230
1
0
LINE
5
E0
100
AcDbEntity
8
1
62
256
6
ByLayer
370
18
48
1
60
0
100
AcDbLine
10
0
20
-31.2
30
0
11
0.3
21
-31.5
31
0
39
0
210
0
220
0
230
1
0
LINE
5
E1
100
AcDbEntity
8
1
62
256
6
ByLayer
370
18
48
1
60
0
100
AcDbLine
10
0.3
20
31.5
30
0
11
0
21
31.2
31
0
39
0
210
0
220
0
230
1
0
LINE
5
E2
100
AcDbEntity
8
1
62
256
6
ByLayer
370
18
48
1
60
0
100
AcDbLine
10
22.279208
20
31.5
30
0
11
0.3
21
31.5
31
0
39
0
210
0
220
0
230
1
0
LINE
5
E3
100
AcDbEntity
8
1
62
256
6
ByLayer
370
18
48
1
60
0
100
AcDbLine
10
0.3
20
-31.5
30
0
11
21.3
21
-31.5
31
0
39
0
210
0
220
0
230
1
0
LINE
5
E4
100
AcDbEntity
8
2
62
256
6
ByLayer
370
13
48
1
60
0
100
AcDbLine
10
88.6
20
0
30
0
11
88.6
21
45
31
0
39
0
210
0
220
0
230
1
0
LINE
5
E6
100
AcDbEntity
8
2
62
256
6
ByLayer
370
13
48
1
60
0
100
AcDbLine
10
66.5875
20
45
30
0
11
91.775
21
45
31
0
39
0
210
0
220
0
230
1
0
LINE
5
E7
100
AcDbEntity
8
2
62
256
6
ByLayer
370
13
48
1
60
0
100
AcDbLine
10
51.5875
20
0
30
0
11
91.775
21
0
31
0
39
0
210
0
220
0
230
1
0
LINE
5
E8
100
AcDbEntity
8
1
62
256
6
ByLayer
370
13
48
1
60
0
100
AcDbLine
10
88.6
20
45
30
0
11
89.450739
21
41.825003
31
0
39
0
210
0
220
0
230
1
0
LINE
5
E9
100
AcDbEntity
8
1
62
256
6
ByLayer
370
13
48
1
60
0
100
AcDbLine
10
88.6
20
45
30
0
11
87.749261
21
41.824997
31
0
39
0
210
0
220
0
230
1
0
LINE
5
EA
100
AcDbEntity
8
1
62
256
6
ByLayer
370
13
48
1
60
0
100
AcDbLine
10
89.450739
20
41.825003
30
0
11
87.749261
21
41.824997
31
0
39
0
210
0
220
0
230
1
0
LINE
5
EB
100
AcDbEntity
8
1
62
256
6
ByLayer
370
13
48
1
60
0
100
AcDbLine
10
88.6
20
0
30
0
11
87.749261
21
3.174997
31
0
39
0
210
0
220
0
230
1
0
LINE
5
EC
100
AcDbEntity
8
1
62
256
6
ByLayer
370
13
48
1
60
0
100
AcDbLine
10
88.6
20
0
30
0
11
89.450739
21
3.175003
31
0
39
0
210
0
220
0
230
1
0
LINE
5
ED
100
AcDbEntity
8
1
62
256
6
ByLayer
370
13
48
1
60
0
100
AcDbLine
10
87.749261
20
3.174997
30
0
11
89.450739
21
3.175003
31
0
39
0
210
0
220
0
230
1
0
LINE
5
EE
100
AcDbEntity
8
2
62
256
6
ByLayer
370
13
48
1
60
0
100
AcDbLine
10
65
20
46.5875
30
0
11
65
21
60.731396
31
0
39
0
210
0
220
0
230
1
0
LINE
5
EF
100
AcDbEntity
8
1
62
256
6
ByLayer
370
13
48
1
60
0
100
AcDbLine
10
53.300192
20
41.599871
30
0
11
51.716
21
44.479923
31
0
39
0
210
0
220
0
230
1
0
LINE
5
F0
100
AcDbEntity
8
1
62
256
6
ByLayer
370
13
48
1
60
0
100
AcDbLine
10
53.300192
20
41.599871
30
0
11
53.368268
21
44.886171
31
0
39
0
210
0
220
0
230
1
0
LINE
5
F1
100
AcDbEntity
8
1
62
256
6
ByLayer
370
13
48
1
60
0
100
AcDbLine
10
51.716
20
44.479923
30
0
11
53.368268
21
44.886171
31
0
39
0
210
0
220
0
230
1
0
LINE
5
F2
100
AcDbEntity
8
1
62
256
6
ByLayer
370
13
48
1
60
0
100
AcDbLine
10
65
20
57.556396
30
0
11
61.886277
21
56.503262
31
0
39
0
210
0
220
0
230
1
0
LINE
5
F3
100
AcDbEntity
8
1
62
256
6
ByLayer
370
13
48
1
60
0
100
AcDbLine
10
65
20
57.556396
30
0
11
61.776864
21
58.201218
31
0
39
0
210
0
220
0
230
1
0
LINE
5
F4
100
AcDbEntity
8
1
62
256
6
ByLayer
370
13
48
1
60
0
100
AcDbLine
10
61.886277
20
56.503262
30
0
11
61.776864
21
58.201218
31
0
39
0
210
0
220
0
230
1
0
MTEXT
5
16B
100
AcDbEntity
8
2
62
256
6
ByLayer
370
13
48
1
60
0
100
AcDbMText
10
87.713328
20
17.186275
30
0
210
0
220
0
230
1
1
\W0.7640;45.0
40
4.5
41
0
44
1.084337
50
90
71
7
72
5
7
iso_b_vert
0
MTEXT
5
16E
100
AcDbEntity
8
2
62
256
6
ByLayer
370
13
48
1
60
0
100
AcDbMText
10
48.88537
20
45.837771
30
0
210
0
220
0
230
1
1
\W0.7685;107%%d30'
40
4.5
41
0
44
1.084337
50
53.75
71
7
72
5
7
iso_b_vert
0
MTEXT
5
16F
100
AcDbEntity
8
SK6
62
256
6
ByLayer
370
13
48
1
60
0
100
AcDbMText
10
0.353024
20
-46.177256
30
0
210
0
220
0
230
1
1
\W0.7683;C6-TR-V13HBR-45065C1
40
3.5
41
0
44
1.084337
50
0
71
7
72
5
7
iso_b_vert
0
DIMENSION
5
172
100
AcDbEntity
8
2
62
256
6
ByLayer
370
13
48
1
60
0
100
AcDbDimension
2
_U0
10
0
20
62.5
30
0
11
32.5
21
62.5
31
0
70
32
71
1
72
1
41
1
210
0
220
0
230
1
3
Standard
100
AcDbAlignedDimension
13
65
23
45
33
0
14
0
24
31.5
34
0
50
0
100
AcDbRotatedDimension
1001
ACAD
1000
DSTYLE
1002
{
1070
   371
1070
    13
1070
   372
1070
    13
1070
     3
1000

1070
   170
1070
     0
1070
   144
1040
1.0
1070
   277
1070
     2
1070
   284
1070
     8
1070
   278
1070
    46
1070
   146
1040
0.777778
1070
   345
1005
16
1070
   347
1005
16
1070
   346
1005
16
1070
   344
1005
173
1070
   343
1005
173
1070
   172
1070
     1
1070
    76
1070
     0
1070
    75
1070
     0
1070
   282
1070
     0
1070
   281
1070
     0
1070
    71
1070
     0
1070
    74
1070
     0
1070
   279
1070
     0
1070
   173
1070
     1
1070
   340
1005
16C
1070
   271
1070
     1
1070
   272
1070
     2
1070
    77
1070
     1
1070
    73
1070
     1
1070
   171
1070
     3
1070
   274
1070
     4
1070
   177
1070
   150
1070
   176
1070
     9
1070
   178
1070
    43
1070
    78
1070
     8
1070
    48
1040
-0.1
1070
    41
1040
3.175
1070
   147
1040
2.25
1070
    42
1040
1.5875
1070
    44
1040
3.175
1070
   140
1040
4.5
1002
}
1001
ACAD_DSTYLE_DIM_LINETYPE
1070
   380
1005
16
1001
ACAD_DSTYLE_DIM_EXT1_LINETYPE
1070
   381
1005
16
1001
ACAD_DSTYLE_DIM_EXT2_LINETYPE
1070
   382
1005
16
0
ENDSEC
0
SECTION
2
OBJECTS
0
DICTIONARY
5
204
330
0
100
AcDbDictionary
280
0
281
1
3
ACAD_GROUP
350
205
3
ACAD_MLINESTYLE
350
206
0
DICTIONARY
5
205
330
0
100
AcDbDictionary
280
0
281
1
0
DICTIONARY
5
206
330
0
100
AcDbDictionary
280
0
281
1
3
Standard
350
18
0
MLINESTYLE
5
18
330
206
100
AcDbMlineStyle
2
Standard
70
0
3

62
256
51
90
52
90
71
2
49
-0.5
62
256
6
ByLayer
49
0.5
62
256
6
ByLayer
0
RASTERVARIABLES
5
1f4
330

100
AcDbRasterVariables
90
0
70
1
71
1
72
1
0
ENDSEC
0
EOF
