0
SECTION
2
HEADER
9
$ACADVER
1
AC1015
9
$DWGCODEPAGE
3
ANSI_1252
9
$HANDSEED
5
208
9
$ANGBASE
50
0
9
$ANGDIR
70
0
9
$ATTMODE
70
1
9
$AUNITS
70
0
9
$AUPREC
70
0
9
$CECOLOR
62
256
9
$CELTSCALE
40
1
9
$CELTYPE
6
ByLayer
9
$CELWEIGHT
370
18
9
$CLAYER
8
0
9
$CMLJUST
70
0
9
$CMLSCALE
40
1
9
$CMLSTYLE
2
Standard
9
$DIMSTYLE
2
Standard
9
$TEXTSIZE
40
0.2
9
$TEXTSTYLE
7
Standard
9
$LUNITS
70
2
9
$LUPREC
70
4
9
$EXTNAMES
290
1
9
$INSUNITS
70
4
9
$LTSCALE
40
1
9
$LWDISPLAY
290
1
9
$PDMODE
70
0
9
$PDSIZE
40
0
9
$PLINEGEN
70
0
0
ENDSEC
0
SECTION
2
CLASSES
0
CLASS
1
RASTERVARIABLES
2
AcDbRasterVariables
3
ISM
90
0
280
0
281
0
0
ENDSEC
0
SECTION
2
TABLES
0
TABLE
2
VPORT
5
1fe
100
AcDbSymbolTable
0
VPORT
5
1
100
AcDbSymbolTableRecord
100
AcDbViewportTableRecord
2
*Active
70
0
10
0
20
0
11
1
21
1
12
-1
22
1
13
0
23
0
14
0.5
24
0.5
15
10
25
10
16
0
26
0
36
1
17
0
27
0
37
0
0
ENDTAB
0
TABLE
2
LTYPE
5
1ff
100
AcDbSymbolTable
0
LTYPE
5
14
100
AcDbSymbolTableRecord
100
AcDbLinetypeTableRecord
70
0
2
ByBlock
3

72
65
73
0
40
0
0
LTYPE
5
15
100
AcDbSymbolTableRecord
100
AcDbLinetypeTableRecord
70
0
2
ByLayer
3

72
65
73
0
40
0
0
LTYPE
5
16
100
AcDbSymbolTableRecord
100
AcDbLinetypeTableRecord
70
0
2
Continuous
3
Solid line
72
65
73
0
40
0
0
LTYPE
5
6E
100
AcDbSymbolTableRecord
100
AcDbLinetypeTableRecord
70
0
2
CENTER
3
____ _ ____ _ ____ _ ____
72
65
73
4
40
47.5
49
22
74
0
49
-8.5
74
0
49
8.5
74
0
49
-8.5
74
0
0
LTYPE
5
6F
100
AcDbSymbolTableRecord
100
AcDbLinetypeTableRecord
70
0
2
DASHED
3
__ __ __ __ __ __ __ __ __
72
65
73
2
40
25.72
49
12.86
74
0
49
-12.86
74
0
0
ENDTAB
0
TABLE
2
LAYER
5
200
100
AcDbSymbolTable
0
LAYER
5
10
100
AcDbSymbolTableRecord
100
AcDbLayerTableRecord
2
0
70
0
62
7
6
Continuous
290
1
370
-3
390
0
0
LAYER
5
71
100
AcDbSymbolTableRecord
100
AcDbLayerTableRecord
2
81
70
0
62
-3
6
Continuous
290
1
370
-3
390
0
0
LAYER
5
73
100
AcDbSymbolTableRecord
100
AcDbLayerTableRecord
2
80
70
0
62
-6
6
Continuous
290
1
370
-3
390
0
0
LAYER
5
75
100
AcDbSymbolTableRecord
100
AcDbLayerTableRecord
2
1
70
0
62
4
6
Continuous
290
1
370
-3
390
0
0
LAYER
5
DC
100
AcDbSymbolTableRecord
100
AcDbLayerTableRecord
2
2
70
0
62
7
6
Continuous
290
1
370
-3
390
0
0
LAYER
5
173
100
AcDbSymbolTableRecord
100
AcDbLayerTableRecord
2
Defpoints
70
0
62
7
6
Continuous
290
0
370
-3
390
0
0
LAYER
5
1ec
100
AcDbSymbolTableRecord
100
AcDbLayerTableRecord
2
SK1
70
0
62
4
6
Continuous
290
1
370
-3
390
0
0
LAYER
5
1ed
100
AcDbSymbolTableRecord
100
AcDbLayerTableRecord
2
SK6
70
0
62
5
6
Continuous
290
1
370
-3
390
0
0
ENDTAB
0
TABLE
2
STYLE
5
201
100
AcDbSymbolTable
0
STYLE
5
11
100
AcDbSymbolTableRecord
100
AcDbTextStyleTableRecord
2
Standard
3
txt
70
0
71
0
40
0
41
1
42
0
50
0
0
STYLE
5
163
100
AcDbSymbolTableRecord
100
AcDbTextStyleTableRecord
2
iso_b_vert
3
simplex.shx
70
0
71
0
40
0
41
1
42
0
50
0
0
STYLE
5
164
100
AcDbSymbolTableRecord
100
AcDbTextStyleTableRecord
2
DWGDirectTextStyle
3
simplex
70
0
71
0
40
0
41
1
42
0
50
0
0
ENDTAB
0
TABLE
2
DIMSTYLE
5
202
100
AcDbSymbolTable
100
AcDbDimStyleTable
0
DIMSTYLE
105
27
100
AcDbSymbolTableRecord
100
AcDbDimStyleTableRecord
2
Standard
70
0
3
<>
41
0.18
42
0.0625
44
0.18
140
0.18
147
0.09
73
0
74
0
77
1
271
2
275
0
278
52
280
0
340
11
0
ENDTAB
0
TABLE
2
VIEW
5
203
100
AcDbSymbolTable
0
ENDTAB
0
TABLE
2
UCS
5
204
100
AcDbSymbolTable
0
ENDTAB
0
TABLE
2
APPID
5
205
100
AcDbSymbolTable
0
APPID
5
12
100
AcDbSymbolTableRecord
100
AcDbRegAppTableRecord
2
ACAD
70
0
0
APPID
5
168
100
AcDbSymbolTableRecord
100
AcDbRegAppTableRecord
2
ACAD_DSTYLE_DIMBREAK
70
0
0
APPID
5
1AB
100
AcDbSymbolTableRecord
100
AcDbRegAppTableRecord
2
ACAD_DSTYLE_DIM_LINETYPE
70
0
0
APPID
5
1AC
100
AcDbSymbolTableRecord
100
AcDbRegAppTableRecord
2
ACAD_DSTYLE_DIM_EXT1_LINETYPE
70
0
0
APPID
5
1AD
100
AcDbSymbolTableRecord
100
AcDbRegAppTableRecord
2
ACAD_DSTYLE_DIM_EXT2_LINETYPE
70
0
0
APPID
5
1E8
100
AcDbSymbolTableRecord
100
AcDbRegAppTableRecord
2
ACAD_MLEADERVER
70
0
0
ENDTAB
0
TABLE
2
BLOCK_RECORD
5
206
100
AcDbSymbolTable
0
BLOCK_RECORD
5
1F
100
AcDbSymbolTableRecord
100
AcDbBlockTableRecord
2
*Model_Space
340
0
70
0
0
BLOCK_RECORD
5
1B
100
AcDbSymbolTableRecord
100
AcDbBlockTableRecord
2
*Paper_Space
340
0
70
0
0
BLOCK_RECORD
5
23
100
AcDbSymbolTableRecord
100
AcDbBlockTableRecord
2
*Paper_Space0
340
0
70
0
0
BLOCK_RECORD
5
16A
100
AcDbSymbolTableRecord
100
AcDbBlockTableRecord
2
_Closed
340
0
70
0
0
BLOCK_RECORD
5
174
100
AcDbSymbolTableRecord
100
AcDbBlockTableRecord
2
*D2
340
0
70
0
0
BLOCK_RECORD
5
180
100
AcDbSymbolTableRecord
100
AcDbBlockTableRecord
2
_U0
340
0
70
0
0
ENDTAB
0
ENDSEC
0
SECTION
2
BLOCKS
0
BLOCK
5
20
100
AcDbEntity
8
0
100
AcDbBlockBegin
2
*Model_Space
70
0
10
0
20
0
30
0
3
*Model_Space
0
ENDBLK
5
21
100
AcDbEntity
8
0
100
AcDbBlockEnd
0
BLOCK
5
1C
100
AcDbEntity
8
0
100
AcDbBlockBegin
2
*Paper_Space
70
0
10
0
20
0
30
0
3
*Paper_Space
0
ENDBLK
5
1D
100
AcDbEntity
8
0
100
AcDbBlockEnd
0
BLOCK
5
24
100
AcDbEntity
8
0
100
AcDbBlockBegin
2
*Paper_Space0
70
0
10
0
20
0
30
0
3
*Paper_Space0
0
ENDBLK
5
25
100
AcDbEntity
8
0
100
AcDbBlockEnd
0
BLOCK
5
16B
100
AcDbEntity
8
0
100
AcDbBlockBegin
2
_Closed
70
0
10
0
20
0
30
0
3
_Closed
0
LINE
5
16D
100
AcDbEntity
8
0
62
256
6
ByLayer
370
-2
48
1
60
0
100
AcDbLine
10
-1
20
0.166667
30
0
11
0
21
0
31
0
39
0
210
0
220
0
230
1
0
LINE
5
16E
100
AcDbEntity
8
0
62
256
6
ByLayer
370
-2
48
1
60
0
100
AcDbLine
10
0
20
0
30
0
11
-1
21
-0.166667
31
0
39
0
210
0
220
0
230
1
0
LINE
5
16F
100
AcDbEntity
8
0
62
256
6
ByLayer
370
-2
48
1
60
0
100
AcDbLine
10
-1
20
0.166667
30
0
11
-1
21
-0.166667
31
0
39
0
210
0
220
0
230
1
0
LINE
5
170
100
AcDbEntity
8
0
62
256
6
ByLayer
370
-2
48
1
60
0
100
AcDbLine
10
0
20
0
30
0
11
-1
21
0
31
0
39
0
210
0
220
0
230
1
0
ENDBLK
5
16C
100
AcDbEntity
8
0
100
AcDbBlockEnd
0
BLOCK
5
175
100
AcDbEntity
8
0
100
AcDbBlockBegin
2
*D2
70
1
10
0
20
0
30
0
3
*D2
0
LINE
5
177
100
AcDbEntity
8
0
62
256
6
ByLayer
370
-2
48
1
60
0
100
AcDbLine
10
60
20
2.1695
30
0
11
60
21
21.257
31
0
39
0
210
0
220
0
230
1
0
LINE
5
178
100
AcDbEntity
8
0
62
256
6
ByLayer
370
-2
48
1
60
0
100
AcDbLine
10
0
20
23.4125
30
0
11
0
21
14.907
31
0
39
0
210
0
220
0
230
1
0
LINE
5
179
100
AcDbEntity
8
0
62
256
6
ByLayer
370
-2
48
1
60
0
100
AcDbLine
10
56.825
20
18.082
30
0
11
3.175
21
18.082
31
0
39
0
210
0
220
0
230
1
0
SOLID
5
17A
100
AcDbEntity
8
0
62
256
6
ByLayer
370
-1
48
1
60
0
100
AcDbTrace
10
56.825
20
17.552833
30
0
11
56.825
21
18.611167
31
0
12
60
22
18.082
32
0
13
60
23
18.082
33
0
39
0
210
0
220
0
230
1
0
SOLID
5
17B
100
AcDbEntity
8
0
62
256
6
ByLayer
370
-1
48
1
60
0
100
AcDbTrace
10
3.175
20
18.611167
30
0
11
3.175
21
17.552833
31
0
12
0
22
18.082
32
0
13
0
23
18.082
33
0
39
0
210
0
220
0
230
1
0
MTEXT
5
17C
100
AcDbEntity
8
0
62
256
6
ByLayer
370
18
48
1
60
0
100
AcDbMText
10
30
20
27.47575
30
0
210
0
220
0
230
1
1
\A1;60
40
4.5
41
0
44
1
50
0
71
5
72
5
7
iso_b_vert
0
POINT
5
17D
100
AcDbEntity
8
Defpoints
62
0
6
ByLayer
370
-1
48
1
60
0
100
AcDbPoint
10
60
20
0.582
30
0
39
0
210
0
220
0
230
1
50
360
0
POINT
5
17E
100
AcDbEntity
8
Defpoints
62
0
6
ByLayer
370
-1
48
1
60
0
100
AcDbPoint
10
0
20
25
30
0
39
0
210
0
220
0
230
1
50
360
0
POINT
5
17F
100
AcDbEntity
8
Defpoints
62
0
6
ByLayer
370
-1
48
1
60
0
100
AcDbPoint
10
0
20
18.082
30
0
39
0
210
0
220
0
230
1
50
360
0
ENDBLK
5
176
100
AcDbEntity
8
0
100
AcDbBlockEnd
0
BLOCK
5
18B
100
AcDbEntity
8
0
100
AcDbBlockBegin
2
_U0
70
0
10
0
20
0
30
0
3
_U0
0
MTEXT
5
181
100
AcDbEntity
8
2
62
256
6
ByLayer
370
13
48
1
60
0
100
AcDbMText
10
24.957816
20
19.409672
30
0
210
0
220
0
230
1
1
\W0.7346;60.0
40
4.5
41
0
44
1.084337
50
0
71
7
72
5
7
iso_b_vert
0
LINE
5
182
100
AcDbEntity
8
2
62
256
6
ByLayer
370
13
48
1
60
0
100
AcDbLine
10
60
20
2.1695
30
0
11
60
21
21.257
31
0
39
0
210
0
220
0
230
1
0
LINE
5
183
100
AcDbEntity
8
2
62
256
6
ByLayer
370
13
48
1
60
0
100
AcDbLine
10
0
20
23.4125
30
0
11
0
21
14.907
31
0
39
0
210
0
220
0
230
1
0
LINE
5
184
100
AcDbEntity
8
2
62
256
6
ByLayer
370
13
48
1
60
0
100
AcDbLine
10
60
20
18.082
30
0
11
0
21
18.082
31
0
39
0
210
0
220
0
230
1
0
LINE
5
185
100
AcDbEntity
8
2
62
256
6
ByLayer
370
13
48
1
60
0
100
AcDbLine
10
60
20
18.082
30
0
11
56.825003
21
17.231261
31
0
39
0
210
0
220
0
230
1
0
LINE
5
186
100
AcDbEntity
8
2
62
256
6
ByLayer
370
13
48
1
60
0
100
AcDbLine
10
60
20
18.082
30
0
11
56.824997
21
18.932739
31
0
39
0
210
0
220
0
230
1
0
LINE
5
187
100
AcDbEntity
8
2
62
256
6
ByLayer
370
13
48
1
60
0
100
AcDbLine
10
56.825003
20
17.231261
30
0
11
56.824997
21
18.932739
31
0
39
0
210
0
220
0
230
1
0
LINE
5
188
100
AcDbEntity
8
2
62
256
6
ByLayer
370
13
48
1
60
0
100
AcDbLine
10
0
20
18.082
30
0
11
3.174997
21
18.932739
31
0
39
0
210
0
220
0
230
1
0
LINE
5
189
100
AcDbEntity
8
2
62
256
6
ByLayer
370
13
48
1
60
0
100
AcDbLine
10
0
20
18.082
30
0
11
3.175003
21
17.231261
31
0
39
0
210
0
220
0
230
1
0
LINE
5
18A
100
AcDbEntity
8
2
62
256
6
ByLayer
370
13
48
1
60
0
100
AcDbLine
10
3.174997
20
18.932739
30
0
11
3.175003
21
17.231261
31
0
39
0
210
0
220
0
230
1
0
ENDBLK
5
18C
100
AcDbEntity
8
0
100
AcDbBlockEnd
0
ENDSEC
0
SECTION
2
ENTITIES
0
ARC
5
ED
100
AcDbEntity
8
1
62
256
6
ByLayer
370
18
48
1
60
0
100
AcDbCircle
39
0
10
48.543951
20
-3.8E-05
30
0
40
1.0744
210
0
220
0
230
1
100
AcDbArc
50
180
51
240
0
ARC
5
EF
100
AcDbEntity
8
1
62
256
6
ByLayer
370
18
48
1
60
0
100
AcDbCircle
39
0
10
48.543951
20
-3.8E-05
30
0
40
1.0744
210
0
220
0
230
1
100
AcDbArc
50
240
51
300
0
ARC
5
F0
100
AcDbEntity
8
1
62
256
6
ByLayer
370
18
48
1
60
0
100
AcDbCircle
39
0
10
48.543951
20
-3.8E-05
30
0
40
1.4097
210
0
220
0
230
1
100
AcDbArc
50
210
51
270
0
ARC
5
F1
100
AcDbEntity
8
1
62
256
6
ByLayer
370
18
48
1
60
0
100
AcDbCircle
39
0
10
48.543951
20
-3.8E-05
30
0
40
1.0744
210
0
220
0
230
1
100
AcDbArc
50
300
51
0
0
ARC
5
F2
100
AcDbEntity
8
1
62
256
6
ByLayer
370
18
48
1
60
0
100
AcDbCircle
39
0
10
48.543951
20
-3.8E-05
30
0
40
1.4097
210
0
220
0
230
1
100
AcDbArc
50
150
51
210
0
ARC
5
F4
100
AcDbEntity
8
1
62
256
6
ByLayer
370
18
48
1
60
0
100
AcDbCircle
39
0
10
48.543951
20
-3.8E-05
30
0
40
1.4097
210
0
220
0
230
1
100
AcDbArc
50
90
51
150
0
ARC
5
F5
100
AcDbEntity
8
1
62
256
6
ByLayer
370
18
48
1
60
0
100
AcDbCircle
39
0
10
48.543951
20
-3.8E-05
30
0
40
1.4097
210
0
220
0
230
1
100
AcDbArc
50
330
51
30
0
ARC
5
F6
100
AcDbEntity
8
1
62
256
6
ByLayer
370
18
48
1
60
0
100
AcDbCircle
39
0
10
48.543951
20
-3.8E-05
30
0
40
1.0744
210
0
220
0
230
1
100
AcDbArc
50
120
51
180
0
ARC
5
F7
100
AcDbEntity
8
1
62
256
6
ByLayer
370
18
48
1
60
0
100
AcDbCircle
39
0
10
48.543951
20
-3.8E-05
30
0
40
1.0744
210
0
220
0
230
1
100
AcDbArc
50
60
51
120
0
ARC
5
F8
100
AcDbEntity
8
1
62
256
6
ByLayer
370
18
48
1
60
0
100
AcDbCircle
39
0
10
48.543951
20
-3.8E-05
30
0
40
1.4097
210
0
220
0
230
1
100
AcDbArc
50
30
51
90
0
ARC
5
F9
100
AcDbEntity
8
1
62
256
6
ByLayer
370
18
48
1
60
0
100
AcDbCircle
39
0
10
48.543951
20
-3.8E-05
30
0
40
1.4097
210
0
220
0
230
1
100
AcDbArc
50
270
51
330
0
ARC
5
FD
100
AcDbEntity
8
1
62
256
6
ByLayer
370
18
48
1
60
0
100
AcDbCircle
39
0
10
59.2062
20
-3.8E-05
30
0
40
0.793799999999983
210
0
220
0
230
1
100
AcDbArc
50
297.5
51
62.5
0
ARC
5
FE
100
AcDbEntity
8
1
62
256
6
ByLayer
370
18
48
1
60
0
100
AcDbCircle
39
0
10
37.881703
20
-3.8E-05
30
0
40
0.793799999999983
210
0
220
0
230
1
100
AcDbArc
50
117.5
51
242.5
0
ARC
5
FF
100
AcDbEntity
8
1
62
256
6
ByLayer
370
18
48
1
60
0
100
AcDbCircle
39
0
10
36.440823
20
-3.8E-05
30
0
40
1.6
210
0
220
0
230
1
100
AcDbArc
50
90
51
176.416678
0
ARC
5
100
100
AcDbEntity
8
1
62
256
6
ByLayer
370
18
48
1
60
0
100
AcDbCircle
39
0
10
67.798907
20
-39.671893
30
0
40
50
210
0
220
0
230
1
100
AcDbArc
50
137.140341
51
149.335329
0
ARC
5
101
100
AcDbEntity
8
1
62
256
6
ByLayer
370
18
48
1
60
0
100
AcDbCircle
39
0
10
36.440823
20
-3.8E-05
30
0
40
1.6
210
0
220
0
230
1
100
AcDbArc
50
183.583322
51
270
0
ARC
5
102
100
AcDbEntity
8
1
62
256
6
ByLayer
370
18
48
1
60
0
100
AcDbCircle
39
0
10
40.84826
20
17.493767
30
0
40
11
210
0
220
0
230
1
100
AcDbArc
50
221.973717
51
252.5
0
ARC
5
103
100
AcDbEntity
8
1
62
256
6
ByLayer
370
18
48
1
60
0
100
AcDbCircle
39
0
10
28.948741
20
-3.621032
30
0
40
4.6
210
0
220
0
230
1
100
AcDbArc
50
317.140341
51
352.29279
0
ARC
5
104
100
AcDbEntity
8
1
62
256
6
ByLayer
370
18
48
1
60
0
100
AcDbCircle
39
0
10
2.19265
20
-3.8E-05
30
0
40
31.6
210
0
220
0
230
1
100
AcDbArc
50
352.29279
51
7.707213
0
ARC
5
105
100
AcDbEntity
8
1
62
256
6
ByLayer
370
18
48
1
60
0
100
AcDbCircle
39
0
10
67.798942
20
39.671781
30
0
40
48.4
210
0
220
0
230
1
100
AcDbArc
50
203.362455
51
222.859604
0
ARC
5
106
100
AcDbEntity
8
1
62
256
6
ByLayer
370
18
48
1
60
0
100
AcDbCircle
39
0
10
2.19265
20
-3.8E-05
30
0
40
30
210
0
220
0
230
1
100
AcDbArc
50
352.29279
51
7.707213
0
ARC
5
107
100
AcDbEntity
8
1
62
256
6
ByLayer
370
18
48
1
60
0
100
AcDbCircle
39
0
10
28.948741
20
3.620957
30
0
40
4.6
210
0
220
0
230
1
100
AcDbArc
50
7.707213
51
42.859604
0
ARC
5
108
100
AcDbEntity
8
1
62
256
6
ByLayer
370
18
48
1
60
0
100
AcDbCircle
39
0
10
36.440823
20
-3.8E-05
30
0
40
1.5
210
0
220
0
230
1
100
AcDbArc
50
90
51
176.299121
0
ARC
5
109
100
AcDbEntity
8
1
62
256
6
ByLayer
370
18
48
1
60
0
100
AcDbCircle
39
0
10
67.798942
20
39.671781
30
0
40
50
210
0
220
0
230
1
100
AcDbArc
50
210.664594
51
222.859604
0
ARC
5
10A
100
AcDbEntity
8
1
62
256
6
ByLayer
370
18
48
1
60
0
100
AcDbCircle
39
0
10
36.440823
20
-3.8E-05
30
0
40
1.5
210
0
220
0
230
1
100
AcDbArc
50
183.700879
51
270
0
ARC
5
10B
100
AcDbEntity
8
1
62
256
6
ByLayer
370
18
48
1
60
0
100
AcDbCircle
39
0
10
28.948741
20
-3.621032
30
0
40
3
210
0
220
0
230
1
100
AcDbArc
50
317.140341
51
352.29279
0
ARC
5
10C
100
AcDbEntity
8
1
62
256
6
ByLayer
370
18
48
1
60
0
100
AcDbCircle
39
0
10
40.84826
20
-17.493844
30
0
40
11
210
0
220
0
230
1
100
AcDbArc
50
107.5
51
138.026137
0
ARC
5
10D
100
AcDbEntity
8
1
62
256
6
ByLayer
370
18
48
1
60
0
100
AcDbCircle
39
0
10
28.948741
20
3.620957
30
0
40
3
210
0
220
0
230
1
100
AcDbArc
50
7.707213
51
42.859604
0
ARC
5
10E
100
AcDbEntity
8
1
62
256
6
ByLayer
370
18
48
1
60
0
100
AcDbCircle
39
0
10
67.798907
20
-39.671893
30
0
40
48.4
210
0
220
0
230
1
100
AcDbArc
50
137.140341
51
156.637419
0
ARC
5
10F
100
AcDbEntity
8
SK1
62
256
6
ByLayer
370
18
48
1
60
0
100
AcDbCircle
39
0
10
-0.6
20
18.75
30
0
40
0.999999999999998
210
0
220
0
230
1
100
AcDbArc
50
293.578178
51
306.869898
0
ARC
5
110
100
AcDbEntity
8
SK1
62
256
6
ByLayer
370
18
48
1
60
0
100
AcDbCircle
39
0
10
-0.6
20
-18.75
30
0
40
0.999999999999998
210
0
220
0
230
1
100
AcDbArc
50
53.130102
51
66.421822
0
ARC
5
111
100
AcDbEntity
8
2
62
256
6
ByLayer
370
13
48
1
60
0
100
AcDbCircle
39
0
10
60
20
0.370238
30
0
40
12.620955734433
210
0
220
0
230
1
100
AcDbArc
50
48.286998
51
204.213002
0
CIRCLE
5
EE
100
AcDbEntity
8
1
62
256
6
ByLayer
370
18
48
1
60
0
100
AcDbCircle
10
48.543951
20
-3.8E-05
30
0
40
1.5
39
0
210
0
220
0
230
1
0
CIRCLE
5
F3
100
AcDbEntity
8
1
62
256
6
ByLayer
370
18
48
1
60
0
100
AcDbCircle
10
48.543951
20
-3.8E-05
30
0
40
2.2
39
0
210
0
220
0
230
1
0
CIRCLE
5
FA
100
AcDbEntity
8
1
62
256
6
ByLayer
370
18
48
1
60
0
100
AcDbCircle
10
48.543951
20
-3.8E-05
30
0
40
2.32000000000003
39
0
210
0
220
0
230
1
0
CIRCLE
5
FB
100
AcDbEntity
8
1
62
256
6
ByLayer
370
18
48
1
60
0
100
AcDbCircle
10
48.543951
20
-3.8E-05
30
0
40
2.20386856458364
39
0
210
0
220
0
230
1
0
CIRCLE
5
FC
100
AcDbEntity
8
1
62
256
6
ByLayer
370
18
48
1
60
0
100
AcDbCircle
10
48.543951
20
-3.8E-05
30
0
40
2.28743682147949
39
0
210
0
220
0
230
1
0
ELLIPSE
5
112
100
AcDbEntity
8
1
62
256
6
ByLayer
370
18
48
1
60
0
100
AcDbEllipse
10
48.543951
20
-2.940586
30
0
11
-2.19694518457337E-16
21
-1.19600075442802
31
0
210
0
220
0
230
1
40
0.995819
41
-0.304233038584707
42
0.304233038584764
0
ELLIPSE
5
113
100
AcDbEntity
8
1
62
256
6
ByLayer
370
18
48
1
60
0
100
AcDbEllipse
10
48.543951
20
2.94051
30
0
11
-3.49814164747728E-14
21
1.19600075442802
31
0
210
2.34291072916505E-15
220
5.71924156285234E-30
230
1
40
0.995819
41
-0.30423303858476
42
0.304233038584707
0
ELLIPSE
5
114
100
AcDbEntity
8
1
62
256
6
ByLayer
370
18
48
1
60
0
100
AcDbEllipse
10
22.187217
20
0
30
0
11
-7.31216438310302E-13
21
24.9999999999992
31
0
210
2.34291072916505E-15
220
5.71924156285232E-30
230
1
40
0.087489
41
1.05997997918287
42
2.08161267440692
0
ELLIPSE
5
115
100
AcDbEntity
8
1
62
256
6
ByLayer
370
18
48
1
60
0
100
AcDbEllipse
10
21.056258
20
0
30
0
11
11.7092723497274
21
-24.6771864409362
31
0
210
2.34291072916505E-15
220
5.71924156285233E-30
230
1
40
0.341999
41
-2.97437958168081
42
-2.05975995310049
0
ELLIPSE
5
116
100
AcDbEntity
8
1
62
256
6
ByLayer
370
18
48
1
60
0
100
AcDbEllipse
10
-1.056258
20
0
30
0
11
11.7092723497282
21
24.6771864409401
31
0
210
2.34291072916505E-15
220
5.52202633654708E-30
230
1
40
0.341999
41
-1.08183270048921
42
-0.167213071908972
0
ELLIPSE
5
117
100
AcDbEntity
8
1
62
256
6
ByLayer
370
18
48
1
60
0
100
AcDbEllipse
10
21.056258
20
0
30
0
11
11.7092723497267
21
24.6771864409378
31
0
210
2.34291072916505E-15
220
5.71924156285234E-30
230
1
40
0.341999
41
2.05975995310052
42
2.97437958168082
0
ELLIPSE
5
118
100
AcDbEntity
8
1
62
256
6
ByLayer
370
18
48
1
60
0
100
AcDbEllipse
10
-1.056258
20
0
30
0
11
11.7092723497283
21
-24.6771864409375
31
0
210
2.34291072916505E-15
220
5.52202633654708E-30
230
1
40
0.341999
41
0.167213071908977
42
1.08183270048927
0
POINT
5
70
100
AcDbEntity
8
81
62
256
6
ByLayer
370
18
48
1
60
0
100
AcDbPoint
10
60
20
0.582
30
0
39
0
210
0
220
0
230
1
50
360
0
POINT
5
72
100
AcDbEntity
8
80
62
256
6
ByLayer
370
18
48
1
60
0
100
AcDbPoint
10
0
20
0
30
0
39
0
210
0
220
0
230
1
50
360
0
POINT
5
74
100
AcDbEntity
8
1
62
256
6
ByLayer
370
18
48
1
60
1
100
AcDbPoint
10
60
20
0.582
30
0
39
0
210
0
220
0
230
1
50
360
0
POINT
5
76
100
AcDbEntity
8
1
62
256
6
ByLayer
370
18
48
1
60
1
100
AcDbPoint
10
0
20
25
30
0
39
0
210
0
220
0
230
1
50
360
0
SPLINE
5
119
100
AcDbEntity
8
1
62
256
6
ByLayer
370
18
48
1
60
0
100
AcDbSpline
70
4
71
3
72
8
73
4
40
0
40
0
40
0
40
0
40
1
40
1
40
1
40
1
41
1
10
49.4280192951758
20
-0.882844076615442
30
0
41
1
10
49.4220808716999
20
-0.879798867819346
30
0
41
1
10
49.416141363215
20
-0.87675310263333
30
0
41
1
10
49.4102007193665
20
-0.873706755235702
30
0
0
SPLINE
5
11A
100
AcDbEntity
8
1
62
256
6
ByLayer
370
18
48
1
60
0
100
AcDbSpline
70
4
71
3
72
16
73
12
40
0
40
0
40
0
40
0
40
0.25
40
0.25
40
0.5
40
0.5
40
0.750000000000001
40
0.750000000000001
40
0.875
40
0.875
40
1
40
1
40
1
40
1
41
1
10
48.5439513660009
20
-1.40973824092455
30
0
41
1
10
48.5061008991699
20
-1.40973824092455
30
0
41
1
10
48.4682389279339
20
-1.40649639576165
30
0
41
1
10
48.3938903853599
20
-1.39273231180476
30
0
41
1
10
48.3573414155808
20
-1.38227065417075
30
0
41
1
10
48.2893260803251
20
-1.35116438313924
30
0
41
1
10
48.2572781803802
20
-1.3303953311783
30
0
41
1
10
48.2252364929344
20
-1.28782591602695
30
0
41
1
10
48.2177230323376
20
-1.27174735560166
30
0
41
1
10
48.212622540109
20
-1.23888997474933
30
0
41
1
10
48.2150354269715
20
-1.22230663411722
30
0
41
1
10
48.2214530502709
20
-1.20706644410655
30
0
0
SPLINE
5
11B
100
AcDbEntity
8
1
62
256
6
ByLayer
370
18
48
1
60
0
100
AcDbSpline
70
4
71
3
72
8
73
4
40
0
40
0
40
0
40
0
40
1
40
1
40
1
40
1
41
1
10
48.2214530502709
20
1.20698996225747
30
0
41
1
10
48.2211210667102
20
1.20032453227085
30
0
41
1
10
48.2207890224928
20
1.19365788444387
30
0
41
1
10
48.2204569148036
20
1.18698996225746
30
0
0
SPLINE
5
11C
100
AcDbEntity
8
1
62
256
6
ByLayer
370
18
48
1
60
0
100
AcDbSpline
70
4
71
3
72
8
73
4
40
0
40
0
40
0
40
0
40
1
40
1
40
1
40
1
41
1
10
47.6598834368261
20
0.882767594766335
30
0
41
1
10
47.665821860302
20
0.87972238597024
30
0
41
1
10
47.6717613687869
20
0.876676620784224
30
0
41
1
10
47.6777020126354
20
0.873630273386595
30
0
0
SPLINE
5
11D
100
AcDbEntity
8
1
62
256
6
ByLayer
370
18
48
1
60
0
100
AcDbSpline
70
4
71
3
72
8
73
4
40
0
40
0
40
0
40
0
40
1
40
1
40
1
40
1
41
1
10
47.3542075614381
20
0.313321447946294
30
0
41
1
10
47.3485990252788
20
0.316943022735075
30
0
41
1
10
47.3429915610112
20
0.320563905376019
30
0
41
1
10
47.337385121096
20
0.324184126566564
30
0
0
SPLINE
5
11E
100
AcDbEntity
8
1
62
256
6
ByLayer
370
18
48
1
60
0
100
AcDbSpline
70
4
71
3
72
16
73
12
40
0
40
0
40
0
40
0
40
0.124999999999984
40
0.124999999999984
40
0.249999999999968
40
0.249999999999968
40
0.499999999999978
40
0.499999999999978
40
0.749999999999989
40
0.749999999999989
40
1
40
1
40
1
40
1
41
1
10
49.4280192951758
20
0.882767594766335
30
0
41
1
10
49.4380177520688
20
0.895957224604587
30
0
41
1
10
49.4511569707865
20
0.90636180725636
30
0
41
1
10
49.482520310758
20
0.918436056161966
30
0
41
1
10
49.5002037068027
20
0.919846845163448
30
0
41
1
10
49.5524742339457
20
0.913400116389397
30
0
41
1
10
49.5868412862985
20
0.895989849547306
30
0
41
1
10
49.6478437130753
20
0.852561707920302
30
0
41
1
10
49.6751911892117
20
0.826092128455798
30
0
41
1
10
49.7241686608246
20
0.768690611976126
30
0
41
1
10
49.745866445963
20
0.737583774197901
30
0
41
1
10
49.7647873777159
20
0.704811759075454
30
0
0
SPLINE
5
11F
100
AcDbEntity
8
1
62
256
6
ByLayer
370
18
48
1
60
0
100
AcDbSpline
70
4
71
3
72
8
73
4
40
0
40
0
40
0
40
0
40
1
40
1
40
1
40
1
41
1
10
49.4102007193665
20
0.873630273386624
30
0
41
1
10
49.416141363215
20
0.876676620784224
30
0
41
1
10
49.4220808716999
20
0.879722385970268
30
0
41
1
10
49.4280192951758
20
0.882767594766335
30
0
0
SPLINE
5
120
100
AcDbEntity
8
1
62
256
6
ByLayer
370
18
48
1
60
0
100
AcDbSpline
70
4
71
3
72
16
73
12
40
0
40
0
40
0
40
0
40
0.125000000000007
40
0.125000000000007
40
0.250000000000013
40
0.250000000000013
40
0.500000000000009
40
0.500000000000009
40
0.750000000000004
40
0.750000000000004
40
1
40
1
40
1
40
1
41
1
10
47.337385121096
20
0.324184126566564
30
0
41
1
10
47.3209633381431
20
0.326248229315411
30
0
41
1
10
47.3053830958921
20
0.332424835184867
30
0
41
1
10
47.2792448196224
20
0.353549159894982
30
0
41
1
10
47.2691813424854
20
0.368158035594121
30
0
41
1
10
47.2486291098036
20
0.416649004356145
30
0
41
1
10
47.2465233169991
20
0.4551168781679
30
0
41
1
10
47.2536319774988
20
0.529660600262645
30
0
41
1
10
47.2628815676743
20
0.566578999058407
30
0
41
1
10
47.2881040033551
20
0.637695491928099
30
0
41
1
10
47.3041944225332
20
0.672039743953007
30
0
41
1
10
47.323115354286
20
0.704811759075454
30
0
0
SPLINE
5
121
100
AcDbEntity
8
1
62
256
6
ByLayer
370
18
48
1
60
0
100
AcDbSpline
70
4
71
3
72
18
73
14
40
0
40
0
40
0
40
0
40
0.125
40
0.125
40
0.25
40
0.25
40
0.5
40
0.5
40
0.75
40
0.75
40
0.875
40
0.875
40
1
40
1
40
1
40
1
41
1
10
47.3542075614381
20
-0.3133979297954
30
0
41
1
10
47.3765047767571
20
-0.299000049392049
30
0
41
1
10
47.3942477924042
20
-0.277848039608529
30
0
41
1
10
47.4234892906338
20
-0.230182328059385
30
0
41
1
10
47.4348532361098
20
-0.203622789447621
30
0
41
1
10
47.461476796212
20
-0.1205240146829
30
0
41
1
10
47.4695620100665
20
-0.0602208795965566
30
0
41
1
10
47.4695407016732
20
0.0603737378685594
30
0
41
1
10
47.4614868412953
20
0.120454976247117
30
0
41
1
10
47.4348058807324
20
0.203674671020821
30
0
41
1
10
47.4234059304328
20
0.230264308718205
30
0
41
1
10
47.3942104996601
20
0.277809674567521
30
0
41
1
10
47.3765242232069
20
0.298911010474512
30
0
41
1
10
47.3542075614381
20
0.313321447946294
30
0
0
SPLINE
5
122
100
AcDbEntity
8
1
62
256
6
ByLayer
370
18
48
1
60
0
100
AcDbSpline
70
4
71
3
72
16
73
12
40
0
40
0
40
0
40
0
40
0.25
40
0.25
40
0.5
40
0.5
40
0.75
40
0.75
40
0.875
40
0.875
40
1
40
1
40
1
40
1
41
1
10
47.323115354286
20
-0.704888240924561
30
0
41
1
10
47.3041901208705
20
-0.672108775103766
30
0
41
1
10
47.2880666555187
20
-0.637698423594657
30
0
41
1
10
47.2628124305982
20
-0.566428655012771
30
0
41
1
10
47.2535980069854
20
-0.529545489884839
30
0
41
1
10
47.2465291602878
20
-0.455089346190761
30
0
41
1
10
47.2484917369261
20
-0.416950524720107
30
0
41
1
10
47.2693370881485
20
-0.367916901836168
30
0
41
1
10
47.2795047996347
20
-0.353370773876406
30
0
41
1
10
47.3054098800403
20
-0.33252492760846
30
0
41
1
10
47.3209779177386
20
-0.326322878611791
30
0
41
1
10
47.337385121096
20
-0.324260608415671
30
0
0
SPLINE
5
123
100
AcDbEntity
8
1
62
256
6
ByLayer
370
18
48
1
60
0
100
AcDbSpline
70
4
71
3
72
18
73
14
40
0
40
0
40
0
40
0
40
0.12499999999999
40
0.12499999999999
40
0.24999999999998
40
0.24999999999998
40
0.499999999999977
40
0.499999999999977
40
0.749999999999975
40
0.749999999999975
40
0.874999999999988
40
0.874999999999988
40
1
40
1
40
1
40
1
41
1
10
48.2204569148037
20
-1.18706644410656
30
0
41
1
10
48.2191365922732
20
-1.16055754900498
30
0
41
1
10
48.2096899222831
20
-1.13461564182308
30
0
41
1
10
48.1830309543069
20
-1.08545890573691
30
0
41
1
10
48.1657116918943
20
-1.06233767096163
30
0
41
1
10
48.1070578219758
20
-0.997731604191614
30
0
41
1
10
48.0588763819905
20
-0.960578036055381
30
0
41
1
10
47.9544277255093
20
-0.900299180932706
30
0
41
1
10
47.8983689165937
20
-0.877233409429238
30
0
41
1
10
47.8129580665431
20
-0.858729951687252
30
0
41
1
10
47.7842307896699
20
-0.855307779399936
30
0
41
1
10
47.7284575796258
20
-0.856819081198779
30
0
41
1
10
47.70134014845
20
-0.861585177952151
30
0
41
1
10
47.6777020126354
20
-0.87370675523573
30
0
0
SPLINE
5
124
100
AcDbEntity
8
1
62
256
6
ByLayer
370
18
48
1
60
0
100
AcDbSpline
70
4
71
3
72
16
73
12
40
0
40
0
40
0
40
0
40
0.125000000000006
40
0.125000000000006
40
0.250000000000013
40
0.250000000000013
40
0.500000000000008
40
0.500000000000008
40
0.750000000000004
40
0.750000000000004
40
1
40
1
40
1
40
1
41
1
10
49.7505176109059
20
-0.324260608415671
30
0
41
1
10
49.7669393938588
20
-0.326324711164517
30
0
41
1
10
49.7825196361098
20
-0.332501317033973
30
0
41
1
10
49.8086579123795
20
-0.353625641744088
30
0
41
1
10
49.8187213895165
20
-0.368234517443227
30
0
41
1
10
49.8392736221983
20
-0.416725486205252
30
0
41
1
10
49.8413794150028
20
-0.455193360017006
30
0
41
1
10
49.8342707545031
20
-0.529737082111751
30
0
41
1
10
49.8250211643276
20
-0.566655480907514
30
0
41
1
10
49.7997987286468
20
-0.637771973777177
30
0
41
1
10
49.7837083094687
20
-0.672116225802085
30
0
41
1
10
49.7647873777159
20
-0.704888240924561
30
0
0
SPLINE
5
125
100
AcDbEntity
8
1
62
256
6
ByLayer
370
18
48
1
60
0
100
AcDbSpline
70
4
71
3
72
8
73
4
40
0
40
0
40
0
40
0
40
1
40
1
40
1
40
1
41
1
10
47.337385121096
20
-0.324260608415671
30
0
41
1
10
47.3429915610112
20
-0.320640387225126
30
0
41
1
10
47.3485990252788
20
-0.317019504584209
30
0
41
1
10
47.3542075614381
20
-0.3133979297954
30
0
0
SPLINE
5
126
100
AcDbEntity
8
1
62
256
6
ByLayer
370
18
48
1
60
0
100
AcDbSpline
70
4
71
3
72
8
73
4
40
0
40
0
40
0
40
0
40
1
40
1
40
1
40
1
41
1
10
48.2214530502709
20
-1.20706644410657
30
0
41
1
10
48.2211210667102
20
-1.20040101411996
30
0
41
1
10
48.2207890224928
20
-1.19373436629297
30
0
41
1
10
48.2204569148037
20
-1.18706644410656
30
0
0
SPLINE
5
127
100
AcDbEntity
8
1
62
256
6
ByLayer
370
18
48
1
60
0
100
AcDbSpline
70
4
71
3
72
16
73
12
40
0
40
0
40
0
40
0
40
0.25
40
0.25
40
0.5
40
0.5
40
0.75
40
0.75
40
0.875
40
0.875
40
1
40
1
40
1
40
1
41
1
10
47.323115354286
20
0.704811759075454
30
0
41
1
10
47.3420405877015
20
0.737591224896249
30
0
41
1
10
47.3637790935857
20
0.768759731242483
30
0
41
1
10
47.4128734112392
20
0.826265415867454
30
0
41
1
10
47.4402079574055
20
0.852686923361375
30
0
41
1
10
47.5011544459637
20
0.896036796023907
30
0
41
1
10
47.5351649225468
20
0.913406565533649
30
0
41
1
10
47.588051961215
20
0.919870773266211
30
0
41
1
10
47.605733133298
20
0.918338340800716
30
0
41
1
10
47.6367387059323
20
0.906326806216299
30
0
41
1
10
47.649893856768
20
0.895945514580859
30
0
41
1
10
47.6598834368261
20
0.882767594766335
30
0
0
SPLINE
5
128
100
AcDbEntity
8
1
62
256
6
ByLayer
370
18
48
1
60
0
100
AcDbSpline
70
4
71
3
72
16
73
12
40
0
40
0
40
0
40
0
40
0.25
40
0.25
40
0.5
40
0.5
40
0.75
40
0.75
40
0.875
40
0.875
40
1
40
1
40
1
40
1
41
1
10
49.7647873777159
20
-0.704888240924561
30
0
41
1
10
49.7458621443003
20
-0.737667706745356
30
0
41
1
10
49.7241236384162
20
-0.768836213091589
30
0
41
1
10
49.6750293207627
20
-0.82634189771656
30
0
41
1
10
49.6476947745964
20
-0.852763405210482
30
0
41
1
10
49.5867482860382
20
-0.896113277873013
30
0
41
1
10
49.5527378094551
20
-0.913483047382755
30
0
41
1
10
49.4998507707869
20
-0.919947255115318
30
0
41
1
10
49.4821695987039
20
-0.918414822649822
30
0
41
1
10
49.4511640260696
20
-0.906403288065405
30
0
41
1
10
49.4380088752339
20
-0.896021996429965
30
0
41
1
10
49.4280192951758
20
-0.882844076615442
30
0
0
SPLINE
5
129
100
AcDbEntity
8
1
62
256
6
ByLayer
370
18
48
1
60
0
100
AcDbSpline
70
4
71
3
72
16
73
12
40
0
40
0
40
0
40
0
40
0.25
40
0.25
40
0.5
40
0.5
40
0.75
40
0.75
40
0.875
40
0.875
40
1
40
1
40
1
40
1
41
1
10
49.7647873777159
20
0.704811759075454
30
0
41
1
10
49.7837126111314
20
0.672032293254659
30
0
41
1
10
49.7998360764832
20
0.637621941745522
30
0
41
1
10
49.8250903014037
20
0.566352173163665
30
0
41
1
10
49.8343047250165
20
0.529469008035733
30
0
41
1
10
49.841373571714
20
0.455012864341654
30
0
41
1
10
49.8394109950758
20
0.416874042870973
30
0
41
1
10
49.8185656438534
20
0.367840419987061
30
0
41
1
10
49.8083979323672
20
0.3532942920273
30
0
41
1
10
49.7824928519616
20
0.332448445759354
30
0
41
1
10
49.7669248142633
20
0.326246396762684
30
0
41
1
10
49.7505176109059
20
0.324184126566564
30
0
0
SPLINE
5
12A
100
AcDbEntity
8
1
62
256
6
ByLayer
370
18
48
1
60
0
100
AcDbSpline
70
4
71
3
72
16
73
12
40
0
40
0
40
0
40
0
40
0.249999999999993
40
0.249999999999993
40
0.499999999999987
40
0.499999999999987
40
0.74999999999998
40
0.74999999999998
40
0.87499999999999
40
0.87499999999999
40
1
40
1
40
1
40
1
41
1
10
48.5439513660009
20
1.40966175907545
30
0
41
1
10
48.5061326571784
20
1.40966175907545
30
0
41
1
10
48.4682435175997
20
1.40642048106417
30
0
41
1
10
48.3938939779655
20
1.39265677755006
30
0
41
1
10
48.3573444795279
20
1.38219525521833
30
0
41
1
10
48.2893280065753
20
1.35108910059705
30
0
41
1
10
48.2572795404023
20
1.33032009055987
30
0
41
1
10
48.2252369883579
20
1.28775037518645
30
0
41
1
10
48.2177232722874
20
1.27167166361085
30
0
41
1
10
48.2126224872713
20
1.23881390839054
30
0
41
1
10
48.2150353484962
20
1.22223033862653
30
0
41
1
10
48.2214530502709
20
1.20698996225747
30
0
0
SPLINE
5
12B
100
AcDbEntity
8
1
62
256
6
ByLayer
370
18
48
1
60
0
100
AcDbSpline
70
4
71
3
72
18
73
14
40
0
40
0
40
0
40
0
40
0.125
40
0.125
40
0.25
40
0.25
40
0.5
40
0.5
40
0.75
40
0.75
40
0.875
40
0.875
40
1
40
1
40
1
40
1
41
1
10
49.7336951705638
20
0.313321447946294
30
0
41
1
10
49.7113979552448
20
0.298923567542943
30
0
41
1
10
49.6936549395977
20
0.277771557759422
30
0
41
1
10
49.664413441368
20
0.230105846210279
30
0
41
1
10
49.6530494958921
20
0.203546307598515
30
0
41
1
10
49.6264259357899
20
0.120447532833794
30
0
41
1
10
49.6183407219354
20
0.0601443977474503
30
0
41
1
10
49.6183620303286
20
-0.0604502197176657
30
0
41
1
10
49.6264158907066
20
-0.120531458096224
30
0
41
1
10
49.6530968512695
20
-0.203751152869927
30
0
41
1
10
49.6644968015692
20
-0.230340790567311
30
0
41
1
10
49.6936922323418
20
-0.277886156416628
30
0
41
1
10
49.711378508795
20
-0.298987492323619
30
0
41
1
10
49.7336951705638
20
-0.3133979297954
30
0
0
SPLINE
5
12C
100
AcDbEntity
8
1
62
256
6
ByLayer
370
18
48
1
60
0
100
AcDbSpline
70
4
71
3
72
18
73
14
40
0
40
0
40
0
40
0
40
0.125
40
0.125
40
0.25
40
0.25
40
0.375
40
0.375
40
0.5
40
0.5
40
0.75
40
0.75
40
1
40
1
40
1
40
1
41
1
10
48.866449681731
20
1.20698996225747
30
0
41
1
10
48.8728694092566
20
1.22223514925938
30
0
41
1
10
48.8752982045898
20
1.23889694590059
30
0
41
1
10
48.8701119993857
20
1.27190557620895
30
0
41
1
10
48.8625143864026
20
1.28796083635825
30
0
41
1
10
48.8414027050792
20
1.31598970733782
30
0
41
1
10
48.8277808205242
20
1.32842297674222
30
0
41
1
10
48.7977762181638
20
1.34987844167247
30
0
41
1
10
48.7814345876212
20
1.35893690597385
30
0
41
1
10
48.7304022638089
20
1.38224835836687
30
0
41
1
10
48.6938268116955
20
1.39270108232012
30
0
41
1
10
48.6195325243488
20
1.40643326658119
30
0
41
1
10
48.5817686936765
20
1.40966175907545
30
0
41
1
10
48.5439513660009
20
1.40966175907545
30
0
0
SPLINE
5
12D
100
AcDbEntity
8
1
62
256
6
ByLayer
370
18
48
1
60
0
100
AcDbSpline
70
4
71
3
72
16
73
12
40
0
40
0
40
0
40
0
40
0.12500000000001
40
0.12500000000001
40
0.25000000000002
40
0.25000000000002
40
0.500000000000013
40
0.500000000000013
40
0.750000000000007
40
0.750000000000007
40
1
40
1
40
1
40
1
41
1
10
48.866449681731
20
-1.20706644410655
30
0
41
1
10
48.8728730077909
20
-1.22232017669364
30
0
41
1
10
48.8753140313243
20
-1.23890136521487
30
0
41
1
10
48.8700889676224
20
-1.27209993883062
30
0
41
1
10
48.8624690487147
20
-1.28811960353121
30
0
41
1
10
48.8307507542536
20
-1.33016384351919
30
0
41
1
10
48.7984894947053
20
-1.35122145048885
30
0
41
1
10
48.7303784074287
20
-1.38233703095659
30
0
41
1
10
48.6937813411168
20
-1.39278585028788
30
0
41
1
10
48.6195814338232
20
-1.40650082667787
30
0
41
1
10
48.5817932295066
20
-1.40973824092455
30
0
41
1
10
48.5439513660009
20
-1.40973824092455
30
0
0
SPLINE
5
12E
100
AcDbEntity
8
1
62
256
6
ByLayer
370
18
48
1
60
0
100
AcDbSpline
70
4
71
3
72
8
73
4
40
0
40
0
40
0
40
0
40
1
40
1
40
1
40
1
41
1
10
49.7505176109059
20
0.324184126566564
30
0
41
1
10
49.7449111709907
20
0.320563905376048
30
0
41
1
10
49.7393037067231
20
0.316943022735103
30
0
41
1
10
49.7336951705638
20
0.313321447946294
30
0
0
SPLINE
5
12F
100
AcDbEntity
8
1
62
256
6
ByLayer
370
18
48
1
60
0
100
AcDbSpline
70
4
71
3
72
8
73
4
40
0
40
0
40
0
40
0
40
1
40
1
40
1
40
1
41
1
10
48.8674458171983
20
-1.18706644410656
30
0
41
1
10
48.8671137095091
20
-1.19373436629297
30
0
41
1
10
48.8667816652917
20
-1.20040101411993
30
0
41
1
10
48.866449681731
20
-1.20706644410655
30
0
0
SPLINE
5
130
100
AcDbEntity
8
1
62
256
6
ByLayer
370
18
48
1
60
0
100
AcDbSpline
70
4
71
3
72
8
73
4
40
0
40
0
40
0
40
0
40
1
40
1
40
1
40
1
41
1
10
48.8674458171983
20
1.18698996225746
30
0
41
1
10
48.8671137095091
20
1.19365788444387
30
0
41
1
10
48.8667816652917
20
1.20032453227085
30
0
41
1
10
48.866449681731
20
1.20698996225747
30
0
0
SPLINE
5
131
100
AcDbEntity
8
1
62
256
6
ByLayer
370
18
48
1
60
0
100
AcDbSpline
70
4
71
3
72
8
73
4
40
0
40
0
40
0
40
0
40
1
40
1
40
1
40
1
41
1
10
49.7336951705638
20
-0.3133979297954
30
0
41
1
10
49.7393037067231
20
-0.317019504584181
30
0
41
1
10
49.7449111709907
20
-0.320640387225126
30
0
41
1
10
49.7505176109059
20
-0.324260608415671
30
0
0
SPLINE
5
132
100
AcDbEntity
8
1
62
256
6
ByLayer
370
18
48
1
60
0
100
AcDbSpline
70
4
71
3
72
18
73
14
40
0
40
0
40
0
40
0
40
0.125
40
0.125
40
0.25
40
0.25
40
0.5
40
0.5
40
0.75
40
0.75
40
0.875
40
0.875
40
1
40
1
40
1
40
1
41
1
10
48.2204569148036
20
1.18698996225746
30
0
41
1
10
48.2191350953369
20
1.16045101228136
30
0
41
1
10
48.2096693193632
20
1.13448068424435
30
0
41
1
10
48.1829608494121
20
1.08527371229977
30
0
41
1
10
48.1656115832428
20
1.06213214660951
30
0
41
1
10
48.106858931135
20
0.997473789728048
30
0
41
1
10
48.0585972963305
20
0.960296590143798
30
0
41
1
10
47.9539961680914
20
0.900017839897458
30
0
41
1
10
47.8983050609444
20
0.877156371626
30
0
41
1
10
47.8131387739893
20
0.858685996903773
30
0
41
1
10
47.7844928849664
20
0.855259040270823
30
0
41
1
10
47.7288726514044
20
0.856696929106363
30
0
41
1
10
47.7014676631278
20
0.86144330689325
30
0
41
1
10
47.6777020126354
20
0.873630273386624
30
0
0
SPLINE
5
133
100
AcDbEntity
8
1
62
256
6
ByLayer
370
18
48
1
60
0
100
AcDbSpline
70
4
71
3
72
20
73
16
40
0
40
0
40
0
40
0
40
0.125
40
0.125
40
0.25
40
0.25
40
0.375
40
0.375
40
0.5
40
0.5
40
0.75
40
0.75
40
0.875
40
0.875
40
1
40
1
40
1
40
1
41
1
10
49.4102007193629
20
0.873630273384748
30
0
41
1
10
49.3864672230922
20
0.861459795497382
30
0
41
1
10
49.3591202411498
20
0.85669079148542
30
0
41
1
10
49.3031546043266
20
0.855260935223129
30
0
41
1
10
49.2746316402348
20
0.858709502966462
30
0
41
1
10
49.2179629752087
20
0.871009872068356
30
0
41
1
10
49.1894862565162
20
0.880030315040614
30
0
41
1
10
49.1345125813639
20
0.902046797804587
30
0
41
1
10
49.1077040996737
20
0.915113887468607
30
0
41
1
10
49.0292299513536
20
0.960347524732924
30
0
41
1
10
48.9811104466797
20
0.997397626897993
30
0
41
1
10
48.9222429126486
20
1.06218664081098
30
0
41
1
10
48.9048731471617
20
1.08538347937545
30
0
41
1
10
48.8782272828205
20
1.13450889434532
30
0
41
1
10
48.8687693745038
20
1.16041612066672
30
0
41
1
10
48.8674458171983
20
1.18698996225746
30
0
0
SPLINE
5
134
100
AcDbEntity
8
1
62
256
6
ByLayer
370
18
48
1
60
0
100
AcDbSpline
70
4
71
3
72
16
73
12
40
0
40
0
40
0
40
0
40
0.124999999999984
40
0.124999999999984
40
0.249999999999968
40
0.249999999999968
40
0.499999999999979
40
0.499999999999979
40
0.749999999999989
40
0.749999999999989
40
1
40
1
40
1
40
1
41
1
10
47.6598834368261
20
-0.882844076615442
30
0
41
1
10
47.6498849799331
20
-0.896033706453693
30
0
41
1
10
47.6367457612154
20
-0.906438289105438
30
0
41
1
10
47.6053824212438
20
-0.918512538011072
30
0
41
1
10
47.5876990251992
20
-0.919923327012555
30
0
41
1
10
47.5354284980562
20
-0.913476598238503
30
0
41
1
10
47.5010614457034
20
-0.896066331396412
30
0
41
1
10
47.4400590189266
20
-0.852638189769408
30
0
41
1
10
47.4127115427902
20
-0.826168610304933
30
0
41
1
10
47.3637340711774
20
-0.768767093825261
30
0
41
1
10
47.3420362860389
20
-0.737660256047036
30
0
41
1
10
47.323115354286
20
-0.704888240924561
30
0
0
SPLINE
5
135
100
AcDbEntity
8
1
62
256
6
ByLayer
370
18
48
1
60
0
100
AcDbSpline
70
4
71
3
72
18
73
14
40
0
40
0
40
0
40
0
40
0.12499999999999
40
0.12499999999999
40
0.249999999999979
40
0.249999999999979
40
0.499999999999986
40
0.499999999999986
40
0.749999999999993
40
0.749999999999993
40
0.874999999999996
40
0.874999999999996
40
1
40
1
40
1
40
1
41
1
10
49.4102007193665
20
-0.873706755235702
30
0
41
1
10
49.386583181517
20
-0.861595740537467
30
0
41
1
10
49.3593934958799
20
-0.856805843139085
30
0
41
1
10
49.303493029674
20
-0.855314818602096
30
0
41
1
10
49.2748098217855
20
-0.858753122438571
30
0
41
1
10
49.1895323917648
20
-0.877245830433253
30
0
41
1
10
49.1332657379249
20
-0.900395397383363
30
0
41
1
10
49.0288383898371
20
-0.960711159725832
30
0
41
1
10
48.9808334412994
20
-0.997726626600894
30
0
41
1
10
48.9221035518116
20
-1.06244286363264
30
0
41
1
10
48.9047762252381
20
-1.08561032904268
30
0
41
1
10
48.8781984459667
20
-1.13466699669087
30
0
41
1
10
48.868767291244
20
-1.16053442935123
30
0
41
1
10
48.8674458171983
20
-1.18706644410656
30
0
0
SPLINE
5
136
100
AcDbEntity
8
1
62
256
6
ByLayer
370
18
48
1
60
0
100
AcDbSpline
70
4
71
3
72
8
73
4
40
0
40
0
40
0
40
0
40
1
40
1
40
1
40
1
41
1
10
47.6777020126354
20
-0.87370675523573
30
0
41
1
10
47.6717613687869
20
-0.87675310263333
30
0
41
1
10
47.665821860302
20
-0.879798867819375
30
0
41
1
10
47.6598834368261
20
-0.882844076615442
30
0
0
SPLINE
5
137
100
AcDbEntity
8
1
62
256
6
ByLayer
370
18
48
1
60
0
100
AcDbSpline
70
4
71
3
72
8
73
4
40
0
40
0
40
0
40
0
40
1
40
1
40
1
40
1
41
1
10
34.8439513660012
20
-0.100038240924505
30
0
41
1
10
34.8772849646954
20
-0.0989955467129278
30
0
41
1
10
34.9106183111962
20
-0.0979365740201104
30
0
41
1
10
34.9439513660012
20
-0.0968596665153427
30
0
0
SPLINE
5
138
100
AcDbEntity
8
1
62
256
6
ByLayer
370
18
48
1
60
0
100
AcDbSpline
70
4
71
3
72
16
73
12
40
0
40
0
40
0
40
0
40
0.125
40
0.125
40
0.25
40
0.25
40
0.5
40
0.5
40
0.75
40
0.75
40
1
40
1
40
1
40
1
41
1
10
21.3030945698756
20
-21.28332648657
30
0
41
1
10
21.2629535909253
20
-21.3848236528718
30
0
41
1
10
21.2209534368928
20
-21.4920159321954
30
0
41
1
10
21.1362372743385
20
-21.7105750485993
30
0
41
1
10
21.0934727613013
20
-21.822056572521
30
0
41
1
10
20.9662226642854
20
-22.1574186196551
30
0
41
1
10
20.8828851268622
20
-22.3819983685133
30
0
41
1
10
20.7247667204916
20
-22.8172532227882
30
0
41
1
10
20.6498762578125
20
-23.0281683948801
30
0
41
1
10
20.5107858460706
20
-23.427562706798
30
0
41
1
10
20.4465488330462
20
-23.6161187902844
30
0
41
1
10
20.3881911879679
20
-23.790331996584
30
0
0
SPLINE
5
139
100
AcDbEntity
8
1
62
256
6
ByLayer
370
18
48
1
60
0
100
AcDbSpline
70
4
71
3
72
16
73
12
40
0
40
0
40
0
40
0
40
0.250000000000003
40
0.250000000000003
40
0.500000000000007
40
0.500000000000007
40
0.750000000000008
40
0.750000000000008
40
0.875000000000004
40
0.875000000000004
40
1
40
1
40
1
40
1
41
1
10
11.8943375672973
20
-23.6665017920809
30
0
41
1
10
11.8788923030149
20
-23.6860254491251
30
0
41
1
10
11.8604037172645
20
-23.7049589195931
30
0
41
1
10
11.8151421892067
20
-23.7414301198899
30
0
41
1
10
11.7882878950993
20
-23.7590955179201
30
0
41
1
10
11.7218733396746
20
-23.7919356634172
30
0
41
1
10
11.6822221825145
20
-23.8071882416308
30
0
41
1
10
11.6094109295817
20
-23.8248834464053
30
0
41
1
10
11.5822992776726
20
-23.8299908115613
30
0
41
1
10
11.5243601613891
20
-23.8370993498304
30
0
41
1
10
11.4930267682388
20
-23.8391299750504
30
0
41
1
10
11.4613248654052
20
-23.8391299750504
30
0
0
SPLINE
5
13A
100
AcDbEntity
8
1
62
256
6
ByLayer
370
18
48
1
60
0
100
AcDbSpline
70
4
71
3
72
16
73
12
40
0
40
0
40
0
40
0
40
0.249999999999999
40
0.249999999999999
40
0.499999999999998
40
0.499999999999998
40
0.749999999999998
40
0.749999999999998
40
0.874999999999999
40
0.874999999999999
40
1
40
1
40
1
40
1
41
1
10
8.10566243270262
20
-8.05584836782774
30
0
41
1
10
8.12110769698504
20
-7.9984916943491
30
0
41
1
10
8.13959628273545
20
-7.94218253951254
30
0
41
1
10
8.18485781079318
20
-7.83248598676804
30
0
41
1
10
8.21171210490064
20
-7.77870179643023
30
0
41
1
10
8.27812666032531
20
-7.67767014498889
30
0
41
1
10
8.31777781748548
20
-7.63015704912689
30
0
41
1
10
8.39058907041829
20
-7.57464889660889
30
0
41
1
10
8.41770072232737
20
-7.5585498960358
30
0
41
1
10
8.47563983861085
20
-7.53610198950835
30
0
41
1
10
8.50697323176124
20
-7.5296667942647
30
0
41
1
10
8.5386751345948
20
-7.5296667942647
30
0
0
SPLINE
5
13B
100
AcDbEntity
8
1
62
256
6
ByLayer
370
18
48
1
60
0
100
AcDbSpline
70
4
71
3
72
16
73
12
40
0
40
0
40
0
40
0
40
0.25
40
0.25
40
0.500000000000001
40
0.500000000000001
40
0.750000000000001
40
0.750000000000001
40
0.875
40
0.875
40
1
40
1
40
1
40
1
41
1
10
20.8057828998951
20
19.5392027283778
30
0
41
1
10
20.8193365139161
20
19.6729040265229
30
0
41
1
10
20.8417569810759
20
19.8068483898408
30
0
41
1
10
20.9024440891379
20
20.0779232027891
30
0
41
1
10
20.9407535515548
20
20.2150476683732
30
0
41
1
10
21.0300508052609
20
20.4973622924053
30
0
41
1
10
21.0810973008034
20
20.6425143052153
30
0
41
1
10
21.1627026551963
20
20.871982194714
30
0
41
1
10
21.1907180201055
20
20.9504503082043
30
0
41
1
10
21.2471513079188
20
21.1127503147954
30
0
41
1
10
21.2756976054706
20
21.1969731349202
30
0
41
1
10
21.3030901441425
20
21.2833125369105
30
0
0
SPLINE
5
13C
100
AcDbEntity
8
1
62
256
6
ByLayer
370
18
48
1
60
0
100
AcDbSpline
70
4
71
3
72
16
73
12
40
0
40
0
40
0
40
0
40
0.124999999999999
40
0.124999999999999
40
0.249999999999997
40
0.249999999999997
40
0.499999999999996
40
0.499999999999996
40
0.749999999999998
40
0.749999999999998
40
1
40
1
40
1
40
1
41
1
10
8.53867513459485
20
-23.8391299750503
30
0
41
1
10
8.50692224136543
20
-23.8391299750503
30
0
41
1
10
8.47600932946898
20
-23.8371392949586
30
0
41
1
10
8.41759599948892
20
-23.8299833264009
30
0
41
1
10
8.39103491659969
20
-23.824989671385
30
0
41
1
10
8.31704385770789
20
-23.8070141183761
30
0
41
1
10
8.27807345100132
20
-23.7919105160783
30
0
41
1
10
8.2117396173519
20
-23.7591079584198
30
0
41
1
10
8.18512193927677
20
-23.7416171457992
30
0
41
1
10
8.13975567725331
20
-23.7051129235882
30
0
41
1
10
8.1211137629262
20
-23.6860331168061
30
0
41
1
10
8.10566243270247
20
-23.6665017920809
30
0
0
SPLINE
5
13D
100
AcDbEntity
8
1
62
256
6
ByLayer
370
18
48
1
60
0
100
AcDbSpline
70
4
71
3
72
8
73
4
40
0
40
0
40
0
40
0
40
1
40
1
40
1
40
1
41
1
10
34.8439513660012
20
0.0999617590755122
30
0
41
1
10
34.8772849646954
20
0.0989190648639351
30
0
41
1
10
34.9106183111962
20
0.0978600921711745
30
0
41
1
10
34.9439513660012
20
0.0967831846664069
30
0
0
SPLINE
5
13E
100
AcDbEntity
8
1
62
256
6
ByLayer
370
18
48
1
60
0
100
AcDbSpline
70
4
71
3
72
16
73
12
40
0
40
0
40
0
40
0
40
0.250000000000001
40
0.250000000000001
40
0.500000000000001
40
0.500000000000001
40
0.749999999999999
40
0.749999999999999
40
0.875
40
0.875
40
1
40
1
40
1
40
1
41
1
10
11.8943375672973
20
8.05584836782776
30
0
41
1
10
11.8788923030149
20
7.99849169434916
30
0
41
1
10
11.8604037172645
20
7.9421825395126
30
0
41
1
10
11.8151421892068
20
7.83248598676812
30
0
41
1
10
11.7882878950993
20
7.77870179643034
30
0
41
1
10
11.7218733396746
20
7.67767014498901
30
0
41
1
10
11.6822221825145
20
7.63015704912704
30
0
41
1
10
11.6094109295817
20
7.57464889660901
30
0
41
1
10
11.5822992776726
20
7.55854989603594
30
0
41
1
10
11.5243601613891
20
7.5361019895085
30
0
41
1
10
11.4930267682388
20
7.52966679426484
30
0
41
1
10
11.4613248654052
20
7.52966679426481
30
0
0
SPLINE
5
13F
100
AcDbEntity
8
1
62
256
6
ByLayer
370
18
48
1
60
0
100
AcDbSpline
70
4
71
3
72
16
73
12
40
0
40
0
40
0
40
0
40
0.125000000000002
40
0.125000000000002
40
0.250000000000004
40
0.250000000000004
40
0.500000000000002
40
0.500000000000002
40
0.750000000000001
40
0.750000000000001
40
1
40
1
40
1
40
1
41
1
10
11.4613248654051
20
23.8391299750503
30
0
41
1
10
11.4930777586346
20
23.8391299750503
30
0
41
1
10
11.523990670531
20
23.8371392949586
30
0
41
1
10
11.582404000511
20
23.8299833264009
30
0
41
1
10
11.6089650834002
20
23.8249896713849
30
0
41
1
10
11.6829561422921
20
23.8070141183761
30
0
41
1
10
11.7219265489986
20
23.7919105160783
30
0
41
1
10
11.788260382648
20
23.7591079584197
30
0
41
1
10
11.8148780607232
20
23.7416171457992
30
0
41
1
10
11.8602443227466
20
23.7051129235882
30
0
41
1
10
11.8788862370737
20
23.6860331168061
30
0
41
1
10
11.8943375672974
20
23.6665017920809
30
0
0
SPLINE
5
140
100
AcDbEntity
8
1
62
256
6
ByLayer
370
18
48
1
60
0
100
AcDbSpline
70
4
71
3
72
18
73
14
40
0
40
0
40
0
40
0
40
0.125
40
0.125
40
0.25
40
0.25
40
0.375
40
0.375
40
0.5
40
0.5
40
0.75
40
0.75
40
1
40
1
40
1
40
1
41
1
10
21.3030945698756
20
-21.28332648657
30
0
41
1
10
21.4100947172657
20
-21.0127747452331
30
0
41
1
10
21.5238125041943
20
-20.7322045687097
30
0
41
1
10
21.762360205425
20
-20.1595244272493
30
0
41
1
10
21.8872474929756
20
-19.8672399531279
30
0
41
1
10
22.1475514590563
20
-19.2743809486861
30
0
41
1
10
22.283265166082
20
-18.973202599838
30
0
41
1
10
22.5611957439884
20
-18.3726226892459
30
0
41
1
10
22.7038679490321
20
-18.0721453861441
30
0
41
1
10
23.1430194154367
20
-17.1708168063491
30
0
41
1
10
23.4505902599322
20
-16.5701370908687
30
0
41
1
10
24.0966538158378
20
-15.370094924844
30
0
41
1
10
24.4351233884934
20
-14.7707300333091
30
0
41
1
10
24.7905616922622
20
-14.1712619990311
30
0
0
SPLINE
5
141
100
AcDbEntity
8
1
62
256
6
ByLayer
370
18
48
1
60
0
100
AcDbSpline
70
4
71
3
72
16
73
12
40
0
40
0
40
0
40
0
40
0.125
40
0.125
40
0.250000000000001
40
0.250000000000001
40
0.500000000000001
40
0.500000000000001
40
0.75
40
0.75
40
1
40
1
40
1
40
1
41
1
10
20.2792076144253
20
12.2222386758028
30
0
41
1
10
20.2962050902856
20
12.5689040943873
30
0
41
1
10
20.3138880963498
20
12.9109169911888
30
0
41
1
10
20.3506109682305
20
13.5857341175211
30
0
41
1
10
20.3696642470369
20
13.9187379241189
30
0
41
1
10
20.4286382729582
20
14.9006371949406
30
0
41
1
10
20.4704214442926
20
15.5334695208824
30
0
41
1
10
20.5587833972626
20
16.7568234988324
30
0
41
1
10
20.605424756694
20
17.3478530750523
30
0
41
1
10
20.7026030037542
20
18.4791868993761
30
0
41
1
10
20.753223078465
20
19.0207198835365
30
0
41
1
10
20.8057828998951
20
19.5392027283778
30
0
0
SPLINE
5
142
100
AcDbEntity
8
1
62
256
6
ByLayer
370
18
48
1
60
0
100
AcDbSpline
70
4
71
3
72
30
73
26
40
0
40
0
40
0
40
0
40
0.250000000000002
40
0.250000000000002
40
0.500000000000004
40
0.500000000000004
40
0.625000000000006
40
0.625000000000006
40
0.687500000000005
40
0.687500000000005
40
0.750000000000004
40
0.750000000000004
40
0.812500000000003
40
0.812500000000003
40
0.843750000000003
40
0.843750000000003
40
0.875000000000002
40
0.875000000000002
40
0.906250000000002
40
0.906250000000002
40
0.937500000000001
40
0.937500000000001
40
0.968750000000001
40
0.968750000000001
40
1
40
1
40
1
40
1
41
1
10
23.3670391870036
20
-20.4789496298477
30
0
41
1
10
23.0859618684495
20
-20.7914041346263
30
0
41
1
10
22.8052515005072
20
-21.1034507254108
30
0
41
1
10
22.2448174531616
20
-21.7264470725555
30
0
41
1
10
21.9671733898466
20
-22.0350850613981
30
0
41
1
10
21.5571564760886
20
-22.4908729292991
30
0
41
1
10
21.4211070382243
20
-22.6421098201019
30
0
41
1
10
21.2212269862254
20
-22.8643028557538
30
0
41
1
10
21.1553776965042
20
-22.9375030247169
30
0
41
1
10
21.0256544376078
20
-23.081707533374
30
0
41
1
10
20.9616710973127
20
-23.1528334534902
30
0
41
1
10
20.8380168453298
20
-23.2902914606531
30
0
41
1
10
20.7781494591405
20
-23.3568419550166
30
0
41
1
10
20.6925446357607
20
-23.4520030047711
30
0
41
1
10
20.6647161000192
20
-23.4829380919513
30
0
41
1
10
20.6108457940507
20
-23.5428220408243
30
0
41
1
10
20.5847778983747
20
-23.5717999443989
30
0
41
1
10
20.5360271815114
20
-23.6259927948697
30
0
41
1
10
20.5132098207804
20
-23.6513573002102
30
0
41
1
10
20.471606889511
20
-23.6976044444265
30
0
41
1
10
20.452991263658
20
-23.7182981673743
30
0
41
1
10
20.4221466364135
20
-23.7525860379869
30
0
41
1
10
20.4097554226467
20
-23.7663605060979
30
0
41
1
10
20.392608086931
20
-23.7854220309369
30
0
41
1
10
20.3881838305256
20
-23.790340175351
30
0
41
1
10
20.3881943650456
20
-23.7903284648428
30
0
0
SPLINE
5
143
100
AcDbEntity
8
1
62
256
6
ByLayer
370
18
48
1
60
0
100
AcDbSpline
70
4
71
3
72
16
73
12
40
0
40
0
40
0
40
0
40
0.124999999999998
40
0.124999999999998
40
0.249999999999997
40
0.249999999999997
40
0.499999999999998
40
0.499999999999998
40
0.749999999999999
40
0.749999999999999
40
1
40
1
40
1
40
1
41
1
10
8.53867513459485
20
7.52966679426501
30
0
41
1
10
8.50692224136543
20
7.52966679426501
30
0
41
1
10
8.47600932946901
20
7.53597576299643
30
0
41
1
10
8.41759599948895
20
7.55857361750103
30
0
41
1
10
8.39103491659972
20
7.57431556968106
30
0
41
1
10
8.31704385770792
20
7.63070347545334
30
0
41
1
10
8.27807345100132
20
7.6777476510423
30
0
41
1
10
8.2117396173519
20
7.7786633825045
30
0
41
1
10
8.18512193927677
20
7.83191947486043
30
0
41
1
10
8.13975567725331
20
7.94172327888185
30
0
41
1
10
8.1211137629262
20
7.99846916820707
30
0
41
1
10
8.10566243270247
20
8.05584836782771
30
0
0
SPLINE
5
144
100
AcDbEntity
8
1
62
256
6
ByLayer
370
18
48
1
60
0
100
AcDbSpline
70
4
71
3
72
18
73
14
40
0
40
0
40
0
40
0
40
0.25
40
0.25
40
0.499999999999999
40
0.499999999999999
40
0.624999999999999
40
0.624999999999999
40
0.749999999999999
40
0.749999999999999
40
0.875
40
0.875
40
1
40
1
40
1
40
1
41
1
10
24.7905616922622
20
14.1712078366237
30
0
41
1
10
24.4357514991317
20
14.7696183684424
30
0
41
1
10
24.0976818682842
20
15.3682123459954
30
0
41
1
10
23.4521105744557
20
16.5671899062661
30
0
41
1
10
23.1446304632435
20
17.1675767639098
30
0
41
1
10
22.705434734842
20
18.068834503357
30
0
41
1
10
22.5627172684909
20
18.3693503110694
30
0
41
1
10
22.2846382735078
20
18.9701448852213
30
0
41
1
10
22.1492251284742
20
19.2706013753836
30
0
41
1
10
21.8889232767418
20
19.863324178069
30
0
41
1
10
21.7636364314622
20
20.156449593522
30
0
41
1
10
21.523481587423
20
20.732950978229
30
0
41
1
10
21.4093887790518
20
21.0145329197719
30
0
41
1
10
21.3030901441424
20
21.2833125369125
30
0
0
SPLINE
5
145
100
AcDbEntity
8
1
62
256
6
ByLayer
370
18
48
1
60
0
100
AcDbSpline
70
4
71
3
72
16
73
12
40
0
40
0
40
0
40
0
40
0.124999999999997
40
0.124999999999997
40
0.249999999999995
40
0.249999999999995
40
0.499999999999996
40
0.499999999999996
40
0.749999999999998
40
0.749999999999998
40
1
40
1
40
1
40
1
41
1
10
11.4613248654051
20
-7.52966679426513
30
0
41
1
10
11.4930777586345
20
-7.52966679426513
30
0
41
1
10
11.523990670531
20
-7.53597576299654
30
0
41
1
10
11.582404000511
20
-7.55857361750114
30
0
41
1
10
11.6089650834002
20
-7.57431556968117
30
0
41
1
10
11.682956142292
20
-7.63070347545346
30
0
41
1
10
11.7219265489986
20
-7.67774765104235
30
0
41
1
10
11.788260382648
20
-7.77866338250456
30
0
41
1
10
11.8148780607231
20
-7.83191947486046
30
0
41
1
10
11.8602443227466
20
-7.94172327888185
30
0
41
1
10
11.8788862370737
20
-7.9984691682071
30
0
41
1
10
11.8943375672974
20
-8.05584836782771
30
0
0
SPLINE
5
146
100
AcDbEntity
8
1
62
256
6
ByLayer
370
18
48
1
60
0
100
AcDbSpline
70
4
71
3
72
16
73
12
40
0
40
0
40
0
40
0
40
0.25
40
0.25
40
0.5
40
0.5
40
0.75
40
0.75
40
0.875
40
0.875
40
1
40
1
40
1
40
1
41
1
10
20.3881894953695
20
23.7903276533827
30
0
41
1
10
20.4464492663358
20
23.6164053126414
30
0
41
1
10
20.5106358317101
20
23.4279866671225
30
0
41
1
10
20.6497623572891
20
23.0284756365878
30
0
41
1
10
20.7246958402108
20
22.8174346415316
30
0
41
1
10
20.8828378800213
20
22.3821072994185
30
0
41
1
10
20.9661724757714
20
22.1575327862462
30
0
41
1
10
21.0934173382922
20
21.8221795100096
30
0
41
1
10
21.1361794408466
20
21.7107024445846
30
0
41
1
10
21.2209064604903
20
21.4921121994932
30
0
41
1
10
21.26291982412
20
21.3848845208356
30
0
41
1
10
21.3030901441424
20
21.2833125369125
30
0
0
SPLINE
5
147
100
AcDbEntity
8
1
62
256
6
ByLayer
370
18
48
1
60
0
100
AcDbSpline
70
4
71
3
72
16
73
12
40
0
40
0
40
0
40
0
40
0.125000000000001
40
0.125000000000001
40
0.250000000000002
40
0.250000000000002
40
0.500000000000001
40
0.500000000000001
40
0.750000000000001
40
0.750000000000001
40
1
40
1
40
1
40
1
41
1
10
21.3030945698756
20
-21.28332648657
30
0
41
1
10
21.2759667773901
20
-21.1978209279097
30
0
41
1
10
21.2476815732272
20
-21.1143080808789
30
0
41
1
10
21.1914463477002
20
-20.9525129313783
30
0
41
1
10
21.1634947283791
20
-20.8742046606157
30
0
41
1
10
21.0819758544941
20
-20.644994077187
30
0
41
1
10
21.0308443420789
20
-20.4997212539284
30
0
41
1
10
20.9412352691508
20
-20.2167183235512
30
0
41
1
10
20.9027023093043
20
-20.0790238046022
30
0
41
1
10
20.8416410960795
20
-19.8063834422497
30
0
41
1
10
20.8192763660471
20
-19.6723106904496
30
0
41
1
10
20.8057828998944
20
-19.5392027283707
30
0
0
SPLINE
5
148
100
AcDbEntity
8
1
62
256
6
ByLayer
370
18
48
1
60
0
100
AcDbSpline
70
4
71
3
72
8
73
4
40
0
40
0
40
0
40
0
40
1
40
1
40
1
40
1
41
1
10
20.3881894953695
20
23.7903276533827
30
0
41
1
10
20.3522293873799
20
23.8303022611155
30
0
41
1
10
20.3159246174851
20
23.8706600079776
30
0
41
1
10
20.2792076144253
20
23.9114760087212
30
0
0
SPLINE
5
149
100
AcDbEntity
8
1
62
256
6
ByLayer
370
18
48
1
60
0
100
AcDbSpline
70
4
71
3
72
16
73
12
40
0
40
0
40
0
40
0
40
0.250000000000001
40
0.250000000000001
40
0.500000000000001
40
0.500000000000001
40
0.750000000000002
40
0.750000000000002
40
0.875000000000001
40
0.875000000000001
40
1
40
1
40
1
40
1
41
1
10
8.10566243270262
20
23.6665017920809
30
0
41
1
10
8.12110769698504
20
23.6860254491252
30
0
41
1
10
8.13959628273545
20
23.7049589195931
30
0
41
1
10
8.18485781079318
20
23.7414301198899
30
0
41
1
10
8.21171210490067
20
23.7590955179201
30
0
41
1
10
8.27812666032531
20
23.7919356634172
30
0
41
1
10
8.31777781748548
20
23.8071882416308
30
0
41
1
10
8.39058907041832
20
23.8248834464053
30
0
41
1
10
8.4177007223274
20
23.8299908115613
30
0
41
1
10
8.47563983861085
20
23.8370993498304
30
0
41
1
10
8.50697323176121
20
23.8391299750505
30
0
41
1
10
8.53867513459477
20
23.8391299750505
30
0
0
SPLINE
5
14A
100
AcDbEntity
8
1
62
256
6
ByLayer
370
18
48
1
60
0
100
AcDbSpline
70
4
71
3
72
8
73
4
40
0
40
0
40
0
40
0
40
1
40
1
40
1
40
1
41
1
10
20.2792076144253
20
-23.9114816100617
30
0
41
1
10
20.3159239495627
20
-23.8706665618334
30
0
41
1
10
20.3522293786465
20
-23.8303082898692
30
0
41
1
10
20.3881911879676
20
-23.7903319965839
30
0
0
SPLINE
5
14B
100
AcDbEntity
8
1
62
256
6
ByLayer
370
18
48
1
60
0
100
AcDbSpline
70
4
71
3
72
14
73
10
40
0
40
0
40
0
40
0
40
0.125
40
0.125
40
0.25
40
0.25
40
0.500000000000001
40
0.500000000000001
40
1
40
1
40
1
40
1
41
1
10
20.8057828998944
20
-19.5392027283705
30
0
41
1
10
20.7793653982493
20
-19.2786040232409
30
0
41
1
10
20.7534216947909
20
-19.0120233028348
30
0
41
1
10
20.7025081069542
20
-18.4665667524625
30
0
41
1
10
20.6775054295913
20
-18.1873003397035
30
0
41
1
10
20.6042905091128
20
-17.3340405659815
30
0
41
1
10
20.5578661102976
20
-16.7447334586951
30
0
41
1
10
20.4258231090754
20
-14.9147793202827
30
0
41
1
10
20.3473781606124
20
-13.6125845791208
30
0
41
1
10
20.2792076144253
20
-12.2222386758028
30
0
0
SPLINE
5
14C
100
AcDbEntity
8
SK1
62
256
6
ByLayer
370
18
48
1
60
0
100
AcDbSpline
70
4
71
3
72
24
73
20
40
0
40
0
40
0
40
0
40
0.125
40
0.125
40
0.25
40
0.25
40
0.375
40
0.375
40
0.4375
40
0.4375
40
0.5
40
0.5
40
0.625
40
0.625
40
0.75
40
0.75
40
0.875
40
0.875
40
1
40
1
40
1
40
1
41
1
10
-1.30710678118655
20
-3.91808269248796
30
0
41
1
10
-1.36342296385064
20
-3.60715642249775
30
0
41
1
10
-1.41678689271535
20
-3.2928718767493
30
0
41
1
10
-1.51435013598103
20
-2.65639932915295
30
0
41
1
10
-1.55846884179033
20
-2.33418302861881
30
0
41
1
10
-1.63296978491243
20
-1.68004719877027
30
0
41
1
10
-1.66337509736468
20
-1.34813830750838
30
0
41
1
10
-1.69497255616443
20
-0.841409485072944
30
0
41
1
10
-1.70313796781008
20
-0.670747237856517
30
0
41
1
10
-1.71388361409092
20
-0.331968562037986
30
0
41
1
10
-1.71646782396985
20
-0.163187101305908
30
0
41
1
10
-1.71631112713956
20
0.341413573150788
30
0
41
1
10
-1.70526445338857
20
0.675435342837005
30
0
41
1
10
-1.66399327242203
20
1.33914312869118
30
0
41
1
10
-1.63408221528164
20
1.66887252592326
30
0
41
1
10
-1.55971183331712
20
2.32463254151128
30
0
41
1
10
-1.51508950477916
20
2.65135896403521
30
0
41
1
10
-1.41696122519085
20
3.29195215520878
30
0
41
1
10
-1.3634250101253
20
3.60714571014046
30
0
41
1
10
-1.30710678118655
20
3.91808311129771
30
0
0
SPLINE
5
14D
100
AcDbEntity
8
SK1
62
256
6
ByLayer
370
18
48
1
60
0
100
AcDbSpline
70
4
71
3
72
30
73
26
40
0
40
0
40
0
40
0
40
0.0312499999999992
40
0.0312499999999992
40
0.0624999999999983
40
0.0624999999999983
40
0.0937499999999974
40
0.0937499999999974
40
0.124999999999996
40
0.124999999999996
40
0.156249999999995
40
0.156249999999995
40
0.187499999999995
40
0.187499999999995
40
0.249999999999995
40
0.249999999999995
40
0.312499999999995
40
0.312499999999995
40
0.374999999999995
40
0.374999999999995
40
0.499999999999996
40
0.499999999999996
40
0.749999999999998
40
0.749999999999998
40
1
40
1
40
1
40
1
41
1
10
-0.394913799811292
20
-5.38724256160785
30
0
41
1
10
-0.411056331481689
20
-5.40096705709072
30
0
41
1
10
-0.428167571421085
20
-5.41359596702645
30
0
41
1
10
-0.465243842399843
20
-5.43564998709786
30
0
41
1
10
-0.485181785775097
20
-5.44498472977625
30
0
41
1
10
-0.527084358655003
20
-5.45802310642136
30
0
41
1
10
-0.549712129856715
20
-5.46177888945653
30
0
41
1
10
-0.594583752204926
20
-5.46190211761595
30
0
41
1
10
-0.617332847382016
20
-5.45828493727092
30
0
41
1
10
-0.65999803098677
20
-5.4452224540847
30
0
41
1
10
-0.68038049642405
20
-5.43574711585012
30
0
41
1
10
-0.717826906306101
20
-5.41366379171245
30
0
41
1
10
-0.735187935399324
20
-5.40097830060952
30
0
41
1
10
-0.784458452137187
20
-5.35950654192544
30
0
41
1
10
-0.812482621038896
20
-5.32846061496338
30
0
41
1
10
-0.863582196387256
20
-5.26323158283498
30
0
41
1
10
-0.886670718365792
20
-5.22873034693703
30
0
41
1
10
-0.929029640850729
20
-5.15857889561175
30
0
41
1
10
-0.948347177186207
20
-5.12284414993096
30
0
41
1
10
-1.00255771394654
20
-5.01423503792978
30
0
41
1
10
-1.03377854809037
20
-4.93997760418031
30
0
41
1
10
-1.11900192184814
20
-4.7135824866773
30
0
41
1
10
-1.16471148040887
20
-4.55749423011596
30
0
41
1
10
-1.24415567180659
20
-4.24116014101821
30
0
41
1
10
-1.2776606709638
20
-4.08065708556941
30
0
41
1
10
-1.30710678118655
20
-3.91808269248796
30
0
0
SPLINE
5
14E
100
AcDbEntity
8
SK1
62
256
6
ByLayer
370
18
48
1
60
0
100
AcDbSpline
70
4
71
3
72
24
73
20
40
0
40
0
40
0
40
0
40
0.249999999999997
40
0.249999999999997
40
0.499999999999993
40
0.499999999999993
40
0.624999999999992
40
0.624999999999992
40
0.74999999999999
40
0.74999999999999
40
0.812499999999992
40
0.812499999999992
40
0.874999999999994
40
0.874999999999994
40
0.906249999999995
40
0.906249999999995
40
0.937499999999995
40
0.937499999999995
40
1
40
1
40
1
40
1
41
1
10
-0.200000000000017
20
-6.07843116862739
30
0
41
1
10
-0.200329859654715
20
-6.01357702681142
30
0
41
1
10
-0.201930655445096
20
-5.94848814748187
30
0
41
1
10
-0.208773542204625
20
-5.81776970228745
30
0
41
1
10
-0.21393305804412
20
-5.75209301058706
30
0
41
1
10
-0.226581907125791
20
-5.65322539656964
30
0
41
1
10
-0.231616433421522
20
-5.620292949023
30
0
41
1
10
-0.244374377579447
20
-5.55456420326016
30
0
41
1
10
-0.252035382751387
20
-5.5216922026982
30
0
41
1
10
-0.267422418729041
20
-5.47365965349914
30
0
41
1
10
-0.273206407019217
20
-5.45783596374676
30
0
41
1
10
-0.287231048809645
20
-5.42690966193129
30
0
41
1
10
-0.29549596440873
20
-5.41144453452645
30
0
41
1
10
-0.312019326339538
20
-5.39094692539047
30
0
41
1
10
-0.31824990755598
20
-5.3846016561252
30
0
41
1
10
-0.332559804953718
20
-5.37459778054648
30
0
41
1
10
-0.340894665895007
20
-5.37098941600732
30
0
41
1
10
-0.366449401847348
20
-5.36811434840897
30
0
41
1
10
-0.382302316356146
20
-5.37652018847757
30
0
41
1
10
-0.394913799811292
20
-5.38724256160015
30
0
0
SPLINE
5
14F
100
AcDbEntity
8
SK1
62
256
6
ByLayer
370
18
48
1
60
0
100
AcDbSpline
70
4
71
3
72
22
73
18
40
0
40
0
40
0
40
0
40
0.0625000000000058
40
0.0625000000000058
40
0.0937500000000075
40
0.0937500000000075
40
0.125000000000009
40
0.125000000000009
40
0.18750000000001
40
0.18750000000001
40
0.250000000000011
40
0.250000000000011
40
0.500000000000007
40
0.500000000000007
40
0.750000000000004
40
0.750000000000004
40
1
40
1
40
1
40
1
41
1
10
-0.394913799809103
20
5.38724490303883
30
0
41
1
10
-0.382385932375456
20
5.37659363360643
30
0
41
1
10
-0.366686804044832
20
5.36823758676641
30
0
41
1
10
-0.341344926981606
20
5.37086979141571
30
0
41
1
10
-0.333033202589888
20
5.37434773304165
30
0
41
1
10
-0.318577749103383
20
5.38430052549947
30
0
41
1
10
-0.312400979321552
20
5.3905410449475
30
0
41
1
10
-0.29583148662644
20
5.410906494014
30
0
41
1
10
-0.287591117890003
20
5.42618911912558
30
0
41
1
10
-0.273296210573392
20
5.45757128507671
30
0
41
1
10
-0.267463037667568
20
5.47353830586394
30
0
41
1
10
-0.241665889113364
20
5.55405133317612
30
0
41
1
10
-0.230738304264008
20
5.62066281404071
30
0
41
1
10
-0.213920028330762
20
5.75227393156237
30
0
41
1
10
-0.208771139684643
20
5.81781617640928
30
0
41
1
10
-0.201932717755426
20
5.94845143863401
30
0
41
1
10
-0.200330038101583
20
6.01354333629556
30
0
41
1
10
-0.199999999999989
20
6.0784324458115
30
0
0
SPLINE
5
150
100
AcDbEntity
8
SK1
62
256
6
ByLayer
370
18
48
1
60
0
100
AcDbSpline
70
4
71
3
72
26
73
22
40
0
40
0
40
0
40
0
40
0.249999999999999
40
0.249999999999999
40
0.499999999999999
40
0.499999999999999
40
0.625
40
0.625
40
0.6875
40
0.6875
40
0.75
40
0.75
40
0.8125
40
0.8125
40
0.875
40
0.875
40
0.90625
40
0.90625
40
0.9375
40
0.9375
40
1
40
1
40
1
40
1
41
1
10
-1.30710678118655
20
3.91808311129773
30
0
41
1
10
-1.27767538362411
20
4.08057618757042
30
0
41
1
10
-1.24419096070108
20
4.24098765739043
30
0
41
1
10
-1.16481584483415
20
4.55711269541769
30
0
41
1
10
-1.11911162318859
20
4.71322546119322
30
0
41
1
10
-1.0339602723048
20
4.93953094779033
30
0
41
1
10
-1.00277623392986
20
5.0137326356863
30
0
41
1
10
-0.948685190430894
20
5.12220258194967
30
0
41
1
10
-0.929418355061557
20
5.15788155457773
30
0
41
1
10
-0.887207638430709
20
5.22789848621389
30
0
41
1
10
-0.864122395129186
20
5.26246883011049
30
0
41
1
10
-0.813063784086893
20
5.32779515181227
30
0
41
1
10
-0.785188235536367
20
5.35873160222482
30
0
41
1
10
-0.720059017960523
20
5.41387289777205
30
0
41
1
10
-0.681945823788453
20
5.43835586444305
30
0
41
1
10
-0.618145771845548
20
5.45811097994067
30
0
41
1
10
-0.595598556706562
20
5.46181779364258
30
0
41
1
10
-0.550367797420364
20
5.46186904162573
30
0
41
1
10
-0.528055384786171
20
5.45826434527575
30
0
41
1
10
-0.464148785594205
20
5.43856597575441
30
0
41
1
10
-0.427340171474128
20
5.41481400234181
30
0
41
1
10
-0.394913799811292
20
5.38724490303858
30
0
0
SPLINE
5
151
100
AcDbEntity
8
SK1
62
256
6
ByLayer
370
18
48
1
60
0
100
AcDbSpline
70
4
71
3
72
20
73
16
40
0
40
0
40
0
40
0
40
0.0453727252316417
40
0.113628745424867
40
0.181884765618092
40
0.250140785811317
40
0.318396806004542
40
0.386652826197766
40
0.454908846390991
40
0.591420886777441
40
0.727932927163891
40
0.796188947357116
40
0.864444967550341
40
0.932700987743566
40
1
40
1
40
1
40
1
41
1
10
-0.394913799811292
20
-5.38724256160785
30
0
41
1
10
-0.394913799811292
20
-5.7190547501427
30
0
41
1
10
-0.394913799811292
20
-6.5348354946259
30
0
41
1
10
-0.394913799811292
20
-7.7796880789966
30
0
41
1
10
-0.394913799811292
20
-9.09679923539034
30
0
41
1
10
-0.394913799811292
20
-10.3283869583107
30
0
41
1
10
-0.394913799811292
20
-11.4729576347282
30
0
41
1
10
-0.394913799811292
20
-12.5286533763275
30
0
41
1
10
-0.394913799811292
20
-13.8156305223415
30
0
41
1
10
-0.394913799811292
20
-15.1889742433629
30
0
41
1
10
-0.394913799811292
20
-16.224825355641
30
0
41
1
10
-0.394913799811292
20
-16.8259463034278
30
0
41
1
10
-0.394913799811292
20
-17.1536380024563
30
0
41
1
10
-0.394913799811292
20
-17.3455727751661
30
0
41
1
10
-0.394913799811292
20
-17.3740994375443
30
0
41
1
10
-0.394913799811292
20
-17.3602758927702
30
0
0
SPLINE
5
152
100
AcDbEntity
8
SK1
62
256
6
ByLayer
370
18
48
1
60
0
100
AcDbSpline
70
4
71
3
72
20
73
16
40
0
40
0
40
0
40
0
40
0.0672997441999374
40
0.135555718039599
40
0.203811691879261
40
0.272067665718922
40
0.408579613398246
40
0.545091561077569
40
0.613347534917231
40
0.681603508756892
40
0.749859482596554
40
0.818115456436216
40
0.886371430275877
40
0.954627404115539
40
1
40
1
40
1
40
1
41
1
10
-0.394913799811292
20
17.360275311229
30
0
41
1
10
-0.394913799811292
20
17.3740997080861
30
0
41
1
10
-0.394913799811292
20
17.3455729044396
30
0
41
1
10
-0.394913799811292
20
17.1536376810083
30
0
41
1
10
-0.394913799811292
20
16.8259464323311
30
0
41
1
10
-0.394913799811292
20
16.2248245878661
30
0
41
1
10
-0.394913799811292
20
15.1889746622834
30
0
41
1
10
-0.394913799811292
20
13.8156301488903
30
0
41
1
10
-0.394913799811292
20
12.5286535254346
30
0
41
1
10
-0.394913799811292
20
11.4729578043957
30
0
41
1
10
-0.394913799811292
20
10.3283867090429
30
0
41
1
10
-0.394913799811292
20
9.09679950047928
30
0
41
1
10
-0.394913799811292
20
7.77968825069564
30
0
41
1
10
-0.394913799811292
20
6.53483606378791
30
0
41
1
10
-0.394913799811292
20
5.71905630139054
30
0
41
1
10
-0.394913799811292
20
5.38724490303878
30
0
0
SPLINE
5
153
100
AcDbEntity
8
SK1
62
256
6
ByLayer
370
18
48
1
60
0
100
AcDbSpline
70
4
71
3
72
45
73
41
40
0
40
0
40
0
40
0
40
0.0144246343596335
40
0.0429878922350388
40
0.0715511501104442
40
0.10011440798585
40
0.15724092373666
40
0.214367439487471
40
0.242930697362876
40
0.271493955238282
40
0.300057213113687
40
0.328620470989092
40
0.357183728864498
40
0.385746986739903
40
0.414310244615308
40
0.428591873553011
40
0.442873502490714
40
0.471436760366119
40
0.485718389303822
40
0.492859203772673
40
0.500000018241525
40
0.507140832710376
40
0.514281647179227
40
0.52856327611693
40
0.557126533992335
40
0.571408162930038
40
0.585689791867741
40
0.614253049743146
40
0.642816307618551
40
0.671379565493957
40
0.699942823369362
40
0.728506081244767
40
0.757069339120173
40
0.785632596995578
40
0.842759112746389
40
0.8998856284972
40
0.928448886372605
40
0.95701214424801
40
0.985575402123416
40
1
40
1
40
1
40
1
41
1
10
-1.99503997793931
20
17.3207624224218
30
0
41
1
10
-1.99503997793931
20
17.3143028549467
30
0
41
1
10
-1.99503997793928
20
17.2745742791223
30
0
41
1
10
-1.99503997793928
20
17.1138751154123
30
0
41
1
10
-1.99503997793928
20
16.7867763596001
30
0
41
1
10
-1.99503997793928
20
16.1866009265939
30
0
41
1
10
-1.99503997793928
20
15.1524691326423
30
0
41
1
10
-1.99503997793928
20
13.7813331880937
30
0
41
1
10
-1.99503997793928
20
12.4962106263157
30
0
41
1
10
-1.99503997793928
20
11.4421779521075
30
0
41
1
10
-1.99503997793928
20
10.2994799380558
30
0
41
1
10
-1.99503997793928
20
9.07001746022104
30
0
41
1
10
-1.99503997793928
20
7.75535376586828
30
0
41
1
10
-1.99503997793928
20
6.35676341745574
30
0
41
1
10
-1.99503997793928
20
5.12318926412425
30
0
41
1
10
-1.99503997793928
20
4.09531236648536
30
0
41
1
10
-1.99503997793928
20
3.04236295320669
30
0
41
1
10
-1.99503997793928
20
1.95640625727882
30
0
41
1
10
-1.99503997793928
20
0.981337226851394
30
0
41
1
10
-1.99503997793928
20
0.420771319084707
30
0
41
1
10
-1.99503997793928
20
6.88173714E-08
30
0
41
1
10
-1.99503997793928
20
-0.420771221994357
30
0
41
1
10
-1.99503997793928
20
-0.981337209960486
30
0
41
1
10
-1.99503997793928
20
-1.95640624898675
30
0
41
1
10
-1.99503997793928
20
-3.04236280324244
30
0
41
1
10
-1.99503997793928
20
-4.0953123914187
30
0
41
1
10
-1.99503997793928
20
-5.12318891405303
30
0
41
1
10
-1.99503997793928
20
-6.35676356337376
30
0
41
1
10
-1.99503997793928
20
-7.7553535878281
30
0
41
1
10
-1.99503997793928
20
-9.07001720037854
30
0
41
1
10
-1.99503997793928
20
-10.2994801886281
30
0
41
1
10
-1.99503997793928
20
-11.4421777785236
30
0
41
1
10
-1.99503997793928
20
-12.4962104807245
30
0
41
1
10
-1.99503997793928
20
-13.7813335607202
30
0
41
1
10
-1.99503997793928
20
-15.152468715744
30
0
41
1
10
-1.99503997793928
20
-16.1866016937524
30
0
41
1
10
-1.99503997793928
20
-16.786776230537
30
0
41
1
10
-1.99503997793928
20
-17.1138754381145
30
0
41
1
10
-1.99503997793928
20
-17.274574754231
30
0
41
1
10
-1.99503997793928
20
-17.3143030657246
30
0
41
1
10
-1.99503997793931
20
-17.3207625774754
30
0
0
SPLINE
5
154
100
AcDbEntity
8
SK1
62
256
6
ByLayer
370
18
48
1
60
0
100
AcDbSpline
70
4
71
3
72
45
73
41
40
0
40
0
40
0
40
0
40
0.013897064242081
40
0.0424913605423351
40
0.0710856568425893
40
0.0996799531428434
40
0.156868545743352
40
0.21405713834386
40
0.242651434644114
40
0.271245730944368
40
0.299840027244622
40
0.328434323544876
40
0.357028619845131
40
0.385622916145385
40
0.414217212445639
40
0.428514360595766
40
0.442811508745893
40
0.471405805046147
40
0.485702953196274
40
0.492851527271338
40
0.500000101346401
40
0.507148675421465
40
0.514297249496528
40
0.528594397646655
40
0.55718869394691
40
0.571485842097037
40
0.585782990247164
40
0.614377286547418
40
0.642971582847672
40
0.671565879147926
40
0.70016017544818
40
0.728754471748434
40
0.757348768048688
40
0.785943064348943
40
0.843131656949451
40
0.900320249549959
40
0.928914545850213
40
0.957508842150467
40
0.986103138450721
40
1
40
1
40
1
40
1
41
1
10
-2.19999999999996
20
17.5147945420983
30
0
41
1
10
-2.19999999999996
20
17.5080193385539
30
0
41
1
10
-2.19999999999996
20
17.4676802383621
30
0
41
1
10
-2.19999999999999
20
17.3066644250431
30
0
41
1
10
-2.19999999999999
20
16.9766929599708
30
0
41
1
10
-2.19999999999999
20
16.3719288388599
30
0
41
1
10
-2.19999999999999
20
15.3294666616432
30
0
41
1
10
-2.19999999999999
20
13.9476224427057
30
0
41
1
10
-2.19999999999999
20
12.6535104390874
30
0
41
1
10
-2.19999999999999
20
11.5914144609754
30
0
41
1
10
-2.19999999999999
20
10.4396347881955
30
0
41
1
10
-2.19999999999999
20
9.19987052615136
30
0
41
1
10
-2.19999999999999
20
7.87333982787851
30
0
41
1
10
-2.19999999999999
20
6.4607857552443
30
0
41
1
10
-2.19999999999999
20
5.21252898167785
30
0
41
1
10
-2.19999999999999
20
4.17223684682958
30
0
41
1
10
-2.19999999999999
20
3.10486150423552
30
0
41
1
10
-2.19999999999999
20
1.99745537289451
30
0
41
1
10
-2.19999999999999
20
1.00299597482069
30
0
41
1
10
-2.19999999999999
20
0.430523794544825
30
0
41
1
10
-2.19999999999999
20
2.03164063E-08
30
0
41
1
10
-2.19999999999999
20
-0.430523737893537
30
0
41
1
10
-2.19999999999999
20
-1.00299590932914
30
0
41
1
10
-2.19999999999999
20
-1.99745538275133
30
0
41
1
10
-2.19999999999999
20
-3.10486136355075
30
0
41
1
10
-2.19999999999999
20
-4.17223690222141
30
0
41
1
10
-2.19999999999999
20
-5.21252864051553
30
0
41
1
10
-2.19999999999999
20
-6.46078587277509
30
0
41
1
10
-2.19999999999999
20
-7.87333968058334
30
0
41
1
10
-2.19999999999999
20
-9.19987024087132
30
0
41
1
10
-2.19999999999999
20
-10.4396350324424
30
0
41
1
10
-2.19999999999999
20
-11.5914143063801
30
0
41
1
10
-2.19999999999999
20
-12.6535102764493
30
0
41
1
10
-2.19999999999999
20
-13.9476228193307
30
0
41
1
10
-2.19999999999999
20
-15.3294662349403
30
0
41
1
10
-2.19999999999999
20
-16.3719296090069
30
0
41
1
10
-2.19999999999999
20
-16.9766928316826
30
0
41
1
10
-2.19999999999999
20
-17.3066647416643
30
0
41
1
10
-2.19999999999999
20
-17.4676803375965
30
0
41
1
10
-2.19999999999999
20
-17.5080192395907
30
0
41
1
10
-2.19999999999999
20
-17.5147944580797
30
0
0
SPLINE
5
155
100
AcDbEntity
8
SK1
62
256
6
ByLayer
370
18
48
1
60
0
100
AcDbSpline
70
4
71
3
72
45
73
41
40
0
40
0
40
0
40
0
40
0.0162257221805154
40
0.0446830379098205
40
0.0731403536391257
40
0.101597669368431
40
0.158512300827041
40
0.215426932285651
40
0.243884248014957
40
0.272341563744261
40
0.300798879473567
40
0.329256195202872
40
0.357713510932177
40
0.386170826661482
40
0.414628142390787
40
0.42885680025544
40
0.443085458120092
40
0.471542773849397
40
0.48577143171405
40
0.492885760646376
40
0.500000089578702
40
0.507114418511029
40
0.514228747443355
40
0.528457405308007
40
0.556914721037313
40
0.571143378901965
40
0.585372036766618
40
0.613829352495923
40
0.642286668225228
40
0.670743983954533
40
0.699201299683838
40
0.727658615413143
40
0.756115931142448
40
0.784573246871753
40
0.841487878330364
40
0.898402509788974
40
0.926859825518279
40
0.955317141247584
40
0.983774456976889
40
1
40
1
40
1
40
1
41
1
10
-28.5
20
16.8573189969728
30
0
41
1
10
-28.5
20
16.8521406009425
30
0
41
1
10
-28.5
20
16.814204940876
30
0
41
1
10
-28.5
20
16.6531187925377
30
0
41
1
10
-28.5
20
16.3328856609547
30
0
41
1
10
-28.5
20
15.7436769514769
30
0
41
1
10
-28.5
20
14.7294543359372
30
0
41
1
10
-28.5
20
13.3839106046769
30
0
41
1
10
-28.5
20
12.1202723366856
30
0
41
1
10
-28.5
20
11.0855105352455
30
0
41
1
10
-28.5
20
9.96451720849825
30
0
41
1
10
-28.5
20
8.75967545377557
30
0
41
1
10
-28.5
20
7.47337327542297
30
0
41
1
10
-28.5
20
6.10815549439155
30
0
41
1
10
-28.5
20
4.9096720321497
30
0
41
1
10
-28.5
20
3.9114668992739
30
0
41
1
10
-28.5
20
2.89299469927084
30
0
41
1
10
-28.5
20
1.85830102725041
30
0
41
1
10
-28.5
20
0.929573956929886
30
0
41
1
10
-28.5
20
0.39746341502854
30
0
41
1
10
-28.5
20
1.847321585E-07
30
0
41
1
10
-28.5
20
-0.397463221290906
30
0
41
1
10
-28.5
20
-0.929574056191939
30
0
41
1
10
-28.5
20
-1.85830097558352
30
0
41
1
10
-28.5
20
-2.89299452712916
30
0
41
1
10
-28.5
20
-3.91146685141305
30
0
41
1
10
-28.5
20
-4.90967166078667
30
0
41
1
10
-28.5
20
-6.10815570815362
30
0
41
1
10
-28.5
20
-7.47337302390386
30
0
41
1
10
-28.5
20
-8.75967525472745
30
0
41
1
10
-28.5
20
-9.96451747418803
30
0
41
1
10
-28.5
20
-11.0855103162798
30
0
41
1
10
-28.5
20
-12.1202722318355
30
0
41
1
10
-28.5
20
-13.3839109677473
30
0
41
1
10
-28.5
20
-14.7294539424715
30
0
41
1
10
-28.5
20
-15.7436777114932
30
0
41
1
10
-28.5
20
-16.3328855300396
30
0
41
1
10
-28.5
20
-16.653119129773
30
0
41
1
10
-28.5
20
-16.8142051013273
30
0
41
1
10
-28.5
20
-16.8521405490354
30
0
41
1
10
-28.5000000000001
20
-16.8573190030521
30
0
0
SPLINE
5
156
100
AcDbEntity
8
1
62
256
6
ByLayer
370
18
48
1
60
0
100
AcDbSpline
70
4
71
3
72
28
73
24
40
0
40
0
40
0
40
0
40
0.0218111916369002
40
0.0218111916369002
40
0.0555418402011452
40
0.0555418402011452
40
0.0892724887653902
40
0.0892724887653902
40
0.123003137329635
40
0.123003137329635
40
0.190464434458125
40
0.190464434458125
40
0.257925731586616
40
0.257925731586616
40
0.325387028715106
40
0.325387028715106
40
0.460309622972085
40
0.460309622972085
40
0.595232217229064
40
0.595232217229064
40
0.730154811486042
40
0.730154811486042
40
1
40
1
40
1
40
1
41
1
10
20.4565499792978
20
23.7143355698703
30
0
41
1
10
20.4681440349462
20
23.7014471818067
30
0
41
1
10
20.4808699626
20
23.6873005622765
30
0
41
1
10
20.5153423259836
20
23.6489797873699
30
0
41
1
10
20.5383608800039
20
23.6233914974848
30
0
41
1
10
20.5876919815494
20
23.5685531907177
30
0
41
1
10
20.6140687800987
20
23.5392317499823
30
0
41
1
10
20.6684015650504
20
23.4788333839344
30
0
41
1
10
20.6964974478338
20
23.4476009445463
30
0
41
1
10
20.7830071777028
20
23.3514334770408
30
0
41
1
10
20.8436146021789
20
23.2840599858423
30
0
41
1
10
20.9689857162486
20
23.1446927429126
30
0
41
1
10
21.0334601334626
20
23.0730205572318
30
0
41
1
10
21.1633645499538
20
22.9286139249296
30
0
41
1
10
21.2290924456564
20
22.8555483254444
30
0
41
1
10
21.4280828205335
20
22.6343431449531
30
0
41
1
10
21.5631268367667
20
22.4842231403872
30
0
41
1
10
21.8365250270977
20
22.1803034353488
30
0
41
1
10
21.9751252611015
20
22.0262302054356
30
0
41
1
10
22.2539735021987
20
21.7162520191055
30
0
41
1
10
22.3932919625375
20
21.5613803818012
30
0
41
1
10
22.8109966200928
20
21.0970441835122
30
0
41
1
10
23.0891356087173
20
20.7878544288904
30
0
41
1
10
23.3670315126387
20
20.478934896362
30
0
0
SPLINE
5
157
100
AcDbEntity
8
SK1
62
256
6
ByLayer
370
18
48
1
60
0
100
AcDbSpline
70
4
71
3
72
45
73
41
40
0
40
0
40
0
40
0
40
0.0183375337620572
40
0.0466705861532993
40
0.0750036385445415
40
0.103336690935784
40
0.160002795718268
40
0.216668900500752
40
0.245001952891994
40
0.273335005283236
40
0.301668057674479
40
0.330001110065721
40
0.358334162456963
40
0.386667214848205
40
0.415000267239447
40
0.429166793435068
40
0.443333319630689
40
0.471666372021931
40
0.485832898217552
40
0.492916161315363
40
0.499999424413174
40
0.507082687510984
40
0.514165950608795
40
0.528332476804415
40
0.556665529195658
40
0.570832055391279
40
0.5849985815869
40
0.613331633978142
40
0.641664686369384
40
0.669997738760626
40
0.698330791151868
40
0.726663843543111
40
0.754996895934353
40
0.783329948325595
40
0.839996053108079
40
0.896662157890563
40
0.924995210281806
40
0.953328262673048
40
0.98166131506429
40
1
40
1
40
1
40
1
41
1
10
-30
20
-15.9933017800559
30
0
41
1
10
-30
20
-15.990152864043
30
0
41
1
10
-30
20
-15.9551832661086
30
0
41
1
10
-30
20
-15.7965331178349
30
0
41
1
10
-30
20
-15.4890632796305
30
0
41
1
10
-30
20
-14.9202435431778
30
0
41
1
10
-30
20
-13.9430327235571
30
0
41
1
10
-30
20
-12.6450678356931
30
0
41
1
10
-30
20
-11.42137036219
30
0
41
1
10
-30
20
-10.4224345134304
30
0
41
1
10
-30
20
-9.34179268341308
30
0
41
1
10
-30
20
-8.18272261240929
30
0
41
1
10
-30
20
-6.94914665451273
30
0
41
1
10
-30
20
-5.64597210397025
30
0
41
1
10
-30
20
-4.51272453462846
30
0
41
1
10
-30
20
-3.56968201835696
30
0
41
1
10
-30
20
-2.61530592334967
30
0
41
1
10
-30
20
-1.67591474804155
30
0
41
1
10
-30
20
-0.833341855678952
30
0
41
1
10
-30
20
-0.354131622770439
30
0
41
1
10
-30
20
4.002277763E-07
30
0
41
1
10
-30
20
0.354131996183753
30
0
41
1
10
-30
20
0.8333415404785
30
0
41
1
10
-30
20
1.675914880346
30
0
41
1
10
-30
20
2.61530613672116
30
0
41
1
10
-30
20
3.56968220154852
30
0
41
1
10
-30
20
4.51272494557483
30
0
41
1
10
-30
20
5.64597176408017
30
0
41
1
10
-30
20
6.94914704263559
30
0
41
1
10
-30
20
8.18272269843541
30
0
41
1
10
-30
20
9.34179238961872
30
0
41
1
10
-30
20
10.4224348167646
30
0
41
1
10
-30
20
11.4213703912989
30
0
41
1
10
-30
20
12.6450674903883
30
0
41
1
10
-30
20
13.9430330734595
30
0
41
1
10
-30
20
14.9202427964398
30
0
41
1
10
-30
20
15.4890634139888
30
0
41
1
10
-30
20
15.7965327535813
30
0
41
1
10
-30
20
15.9551851558868
30
0
41
1
10
-30
20
15.9901543680123
30
0
41
1
10
-30
20
15.9933022198349
30
0
0
SPLINE
5
158
100
AcDbEntity
8
SK1
62
256
6
ByLayer
370
18
48
1
60
0
100
AcDbSpline
70
4
71
3
72
11
73
7
40
0
40
0
40
0
40
0
40
0.242589954178652
40
0.502544718947562
40
0.761087572808605
40
1
40
1
40
1
40
1
41
1
10
-0.199999999999989
20
17.5545583467653
30
0
41
1
10
-0.20095788927037
20
17.528914023106
30
0
41
1
10
-0.211248315226271
20
17.4799022728817
30
0
41
1
10
-0.255179720944199
20
17.413949611085
30
0
41
1
10
-0.321113897423828
20
17.3707504109673
30
0
41
1
10
-0.369683795840189
20
17.3607068368228
30
0
41
1
10
-0.394913799811292
20
17.359780267379
30
0
0
SPLINE
5
159
100
AcDbEntity
8
SK1
62
256
6
ByLayer
370
18
48
1
60
0
100
AcDbSpline
70
4
71
3
72
11
73
7
40
0
40
0
40
0
40
0
40
0.238912427113125
40
0.497455280942488
40
0.757410045745046
40
1
40
1
40
1
40
1
41
1
10
-0.394913799811292
20
-17.3597801301672
30
0
41
1
10
-0.369683795838398
20
-17.3607066995757
30
0
41
1
10
-0.321113897416467
20
-17.3707502735068
30
0
41
1
10
-0.255179720936411
20
-17.4139494728385
30
0
41
1
10
-0.211248315224623
20
-17.4799021334557
30
0
41
1
10
-0.20095788926875
20
-17.5289138828002
30
0
41
1
10
-0.199999999999989
20
-17.5545582060013
30
0
0
SPLINE
5
15A
100
AcDbEntity
8
SK1
62
256
6
ByLayer
370
18
48
1
60
0
100
AcDbSpline
70
4
71
2
72
6
73
3
40
0
40
0
40
0
40
1
40
1
40
1
41
1
10
-28.5
20
16.8588088260863
30
0
41
1
10
-29.2499999297871
20
16.4259984461422
30
0
41
1
10
-30
20
15.9931873508859
30
0
0
SPLINE
5
15B
100
AcDbEntity
8
SK1
62
256
6
ByLayer
370
18
48
1
60
0
100
AcDbSpline
70
4
71
2
72
6
73
3
40
0
40
0
40
0
40
1
40
1
40
1
41
1
10
-30
20
-15.9931874249211
30
0
41
1
10
-29.2499999297894
20
-16.425998517687
30
0
41
1
10
-28.5
20
-16.8588088951667
30
0
0
SPLINE
5
15C
100
AcDbEntity
8
SK1
62
256
6
ByLayer
370
18
48
1
60
0
100
AcDbSpline
70
4
71
2
72
6
73
3
40
0
40
0
40
0
40
1
40
1
40
1
41
1
10
-0.394913799811292
20
17.3602209523781
30
0
41
1
10
-1.19497688886898
20
17.3401342706943
30
0
41
1
10
-1.99503997793928
20
17.3200475850767
30
0
0
SPLINE
5
15D
100
AcDbEntity
8
SK1
62
256
6
ByLayer
370
18
48
1
60
0
100
AcDbSpline
70
4
71
2
72
6
73
3
40
0
40
0
40
0
40
1
40
1
40
1
41
1
10
-1.99503997793928
20
-17.3200478774323
30
0
41
1
10
-1.19497688886898
20
-17.340134563042
30
0
41
1
10
-0.394913799811292
20
-17.3602212447177
30
0
0
SPLINE
5
15E
100
AcDbEntity
8
SK1
62
256
6
ByLayer
370
18
48
1
60
0
100
AcDbSpline
70
4
71
3
72
13
73
9
40
0
40
0
40
0
40
0
40
0.239505987673083
40
0.368426538155688
40
0.500072261058321
40
0.631705987654816
40
0.760593443052916
40
1
40
1
40
1
40
1
41
1
10
-1.99503997793928
20
17.3252686883828
30
0
41
1
10
-2.02110925982339
20
17.3248665791032
30
0
41
1
10
-2.05883863809936
20
17.3310361992814
30
0
41
1
10
-2.10627567686484
20
17.3540696096461
30
0
41
1
10
-2.13886243911927
20
17.3792256041407
30
0
41
1
10
-2.16563490776915
20
17.4104933211739
30
0
41
1
10
-2.19103207710595
20
17.4566915621889
30
0
41
1
10
-2.19909121921685
20
17.4940488942773
30
0
41
1
10
-2.19999999999999
20
17.5200961072231
30
0
0
SPLINE
5
15F
100
AcDbEntity
8
SK1
62
256
6
ByLayer
370
18
48
1
60
0
100
AcDbSpline
70
4
71
3
72
13
73
9
40
0
40
0
40
0
40
0
40
0.239406556342956
40
0.368294011542631
40
0.499927738071791
40
0.631573461053609
40
0.76049401174041
40
1
40
1
40
1
40
1
41
1
10
-2.19999999999999
20
-17.5200962264206
30
0
41
1
10
-2.19909121920765
20
-17.4940490135991
30
0
41
1
10
-2.19103207709688
20
-17.4566916816953
30
0
41
1
10
-2.16563490775661
20
-17.4104934409328
30
0
41
1
10
-2.13886243910255
20
-17.379225724067
30
0
41
1
10
-2.10627567684702
20
-17.3540697297104
30
0
41
1
10
-2.05883863807622
20
-17.3310363194718
30
0
41
1
10
-2.0211092598112
20
-17.3248666993254
30
0
41
1
10
-1.99503997793928
20
-17.3252688086104
30
0
0
SPLINE
5
160
100
AcDbEntity
8
SK1
62
256
6
ByLayer
370
18
48
1
60
0
100
AcDbSpline
70
4
71
2
72
6
73
3
40
0
40
0
40
0
40
1
40
1
40
1
41
1
10
-2.19999999999999
20
17.5148287077807
30
0
41
1
10
-15.3499999982431
20
17.1846805562453
30
0
41
1
10
-28.5
20
16.8545313165689
30
0
0
SPLINE
5
161
100
AcDbEntity
8
SK1
62
256
6
ByLayer
370
18
48
1
60
0
100
AcDbSpline
70
4
71
2
72
6
73
3
40
0
40
0
40
0
40
1
40
1
40
1
41
1
10
-28.5
20
-16.8545316091351
30
0
41
1
10
-15.3499999982428
20
-17.1846808487114
30
0
41
1
10
-2.19999999999999
20
-17.5148290000611
30
0
0
LINE
5
77
100
AcDbEntity
8
1
62
256
6
ByLayer
370
18
48
1
60
0
100
AcDbLine
10
48.187174
20
4.081587
30
0
11
37.509512
21
0.714933
31
0
39
0
210
0
220
0
230
1
0
LINE
5
78
100
AcDbEntity
8
1
62
256
6
ByLayer
370
18
48
1
60
0
100
AcDbLine
10
37.515167
20
0.704071
30
0
11
37.509512
21
0.714933
31
0
39
0
210
0
220
0
230
1
0
LINE
5
79
100
AcDbEntity
8
1
62
256
6
ByLayer
370
18
48
1
60
0
100
AcDbLine
10
59.572736
20
-0.704147
30
0
11
59.57839
21
-0.715009
31
0
39
0
210
0
220
0
230
1
0
LINE
5
7A
100
AcDbEntity
8
1
62
256
6
ByLayer
370
18
48
1
60
0
100
AcDbLine
10
59.572736
20
0.704071
30
0
11
59.57839
21
0.714933
31
0
39
0
210
0
220
0
230
1
0
LINE
5
7B
100
AcDbEntity
8
1
62
256
6
ByLayer
370
18
48
1
60
0
100
AcDbLine
10
37.509512
20
-0.715009
30
0
11
48.187174
21
-4.081663
31
0
39
0
210
0
220
0
230
1
0
LINE
5
7C
100
AcDbEntity
8
1
62
256
6
ByLayer
370
18
48
1
60
0
100
AcDbLine
10
37.515167
20
-0.704147
30
0
11
37.509512
21
-0.715009
31
0
39
0
210
0
220
0
230
1
0
LINE
5
7D
100
AcDbEntity
8
1
62
256
6
ByLayer
370
18
48
1
60
0
100
AcDbLine
10
59.57839
20
0.714933
30
0
11
48.900729
21
4.081587
31
0
39
0
210
0
220
0
230
1
0
LINE
5
7E
100
AcDbEntity
8
1
62
256
6
ByLayer
370
18
48
1
60
0
100
AcDbLine
10
48.900729
20
-4.081663
30
0
11
59.57839
21
-0.715009
31
0
39
0
210
0
220
0
230
1
0
LINE
5
7F
100
AcDbEntity
8
1
62
256
6
ByLayer
370
18
48
1
60
0
100
AcDbLine
10
46.043951
20
4.321752
30
0
11
46.973951
21
4.028524
31
0
39
0
210
0
220
0
230
1
0
LINE
5
80
100
AcDbEntity
8
1
62
256
6
ByLayer
370
18
48
1
60
0
100
AcDbLine
10
39.240823
20
1.599962
30
0
11
39.256215
21
1.499962
31
0
39
0
210
0
220
0
230
1
0
LINE
5
81
100
AcDbEntity
8
1
62
256
6
ByLayer
370
18
48
1
60
0
100
AcDbLine
10
39.343951
20
1.632478
30
0
11
39.343951
21
6.434254
31
0
39
0
210
0
220
0
230
1
0
LINE
5
82
100
AcDbEntity
8
1
62
256
6
ByLayer
370
18
48
1
60
0
100
AcDbLine
10
34.843951
20
-0.100038
30
0
11
34.843951
21
0.099962
31
0
39
0
210
0
220
0
230
1
0
LINE
5
83
100
AcDbEntity
8
1
62
256
6
ByLayer
370
18
48
1
60
0
100
AcDbLine
10
46.973951
20
-4.0286
30
0
11
46.043951
21
-4.321828
31
0
39
0
210
0
220
0
230
1
0
LINE
5
84
100
AcDbEntity
8
1
62
256
6
ByLayer
370
18
48
1
60
0
100
AcDbLine
10
31.92164
20
4.02329
30
0
11
33.507186
21
4.237868
31
0
39
0
210
0
220
0
230
1
0
LINE
5
85
100
AcDbEntity
8
1
62
256
6
ByLayer
370
18
48
1
60
0
100
AcDbLine
10
20.279208
20
-12.222239
30
0
11
20.279208
21
-23.911482
31
0
39
0
210
0
220
0
230
1
0
LINE
5
86
100
AcDbEntity
8
1
62
256
6
ByLayer
370
18
48
1
60
0
100
AcDbLine
10
34.943951
20
0.096783
30
0
11
34.943951
21
-0.09686
31
0
39
0
210
0
220
0
230
1
0
LINE
5
87
100
AcDbEntity
8
1
62
256
6
ByLayer
370
18
48
1
60
0
100
AcDbLine
10
8.538675
20
-7.529667
30
0
11
8.538675
21
-23.83913
31
0
39
0
210
0
220
0
230
1
0
LINE
5
88
100
AcDbEntity
8
1
62
256
6
ByLayer
370
18
48
1
60
0
100
AcDbLine
10
31.147807
20
-5.661647
30
0
11
32.320642
21
-6.749975
31
0
39
0
210
0
220
0
230
1
0
LINE
5
89
100
AcDbEntity
8
1
62
256
6
ByLayer
370
18
48
1
60
0
100
AcDbLine
10
47.223981
20
-3.949766
30
0
11
46.973951
21
-4.0286
31
0
39
0
210
0
220
0
230
1
0
LINE
5
8A
100
AcDbEntity
8
1
62
256
6
ByLayer
370
18
48
1
60
0
100
AcDbLine
10
39.343951
20
-6.43433
30
0
11
39.843951
21
-6.276681
31
0
39
0
210
0
220
0
230
1
0
LINE
5
8B
100
AcDbEntity
8
1
62
256
6
ByLayer
370
18
48
1
60
0
100
AcDbLine
10
39.256215
20
1.499962
30
0
11
36.440823
21
1.499962
31
0
39
0
210
0
220
0
230
1
0
LINE
5
8C
100
AcDbEntity
8
1
62
256
6
ByLayer
370
18
48
1
60
0
100
AcDbLine
10
44.113951
20
-4.930355
30
0
11
43.881242
21
-5.003728
31
0
39
0
210
0
220
0
230
1
0
LINE
5
8D
100
AcDbEntity
8
1
62
256
6
ByLayer
370
18
48
1
60
0
100
AcDbLine
10
11.461325
20
-23.83913
30
0
11
8.538675
21
-23.83913
31
0
39
0
210
0
220
0
230
1
0
LINE
5
8E
100
AcDbEntity
8
1
62
256
6
ByLayer
370
18
48
1
60
0
100
AcDbLine
10
8.105662
20
-8.055848
30
0
11
8.105662
21
-23.666502
31
0
39
0
210
0
220
0
230
1
0
LINE
5
8F
100
AcDbEntity
8
1
62
256
6
ByLayer
370
18
48
1
60
0
100
AcDbLine
10
46.043951
20
-4.321828
30
0
11
45.043951
21
-4.637127
31
0
39
0
210
0
220
0
230
1
0
LINE
5
90
100
AcDbEntity
8
1
62
256
6
ByLayer
370
18
48
1
60
0
100
AcDbLine
10
39.343951
20
-1.632554
30
0
11
39.240823
21
-1.600038
31
0
39
0
210
0
220
0
230
1
0
LINE
5
91
100
AcDbEntity
8
1
62
256
6
ByLayer
370
18
48
1
60
0
100
AcDbLine
10
39.343951
20
-6.43433
30
0
11
39.343951
21
-1.632554
31
0
39
0
210
0
220
0
230
1
0
LINE
5
92
100
AcDbEntity
8
1
62
256
6
ByLayer
370
18
48
1
60
0
100
AcDbLine
10
39.240823
20
1.599962
30
0
11
39.343951
21
1.632478
31
0
39
0
210
0
220
0
230
1
0
LINE
5
93
100
AcDbEntity
8
1
62
256
6
ByLayer
370
18
48
1
60
0
100
AcDbLine
10
43.881242
20
5.003651
30
0
11
44.113951
21
4.930279
31
0
39
0
210
0
220
0
230
1
0
LINE
5
94
100
AcDbEntity
8
1
62
256
6
ByLayer
370
18
48
1
60
0
100
AcDbLine
10
44.113951
20
4.930279
30
0
11
45.043951
21
4.637051
31
0
39
0
210
0
220
0
230
1
0
LINE
5
95
100
AcDbEntity
8
1
62
256
6
ByLayer
370
18
48
1
60
0
100
AcDbLine
10
39.843951
20
6.276604
30
0
11
39.343951
21
6.434254
31
0
39
0
210
0
220
0
230
1
0
LINE
5
96
100
AcDbEntity
8
1
62
256
6
ByLayer
370
18
48
1
60
0
100
AcDbLine
10
39.843951
20
1.790127
30
0
11
39.843951
21
6.276604
31
0
39
0
210
0
220
0
230
1
0
LINE
5
97
100
AcDbEntity
8
1
62
256
6
ByLayer
370
18
48
1
60
0
100
AcDbLine
10
8.538675
20
23.83913
30
0
11
11.461325
21
23.83913
31
0
39
0
210
0
220
0
230
1
0
LINE
5
98
100
AcDbEntity
8
1
62
256
6
ByLayer
370
18
48
1
60
0
100
AcDbLine
10
11.894338
20
-8.055848
30
0
11
11.894338
21
-23.666502
31
0
39
0
210
0
220
0
230
1
0
LINE
5
99
100
AcDbEntity
8
1
62
256
6
ByLayer
370
18
48
1
60
0
100
AcDbLine
10
39.943951
20
6.245074
30
0
11
43.881242
21
5.003651
31
0
39
0
210
0
220
0
230
1
0
LINE
5
9A
100
AcDbEntity
8
1
62
256
6
ByLayer
370
18
48
1
60
0
100
AcDbLine
10
36.440823
20
1.599962
30
0
11
39.240823
21
1.599962
31
0
39
0
210
0
220
0
230
1
0
LINE
5
9B
100
AcDbEntity
8
1
62
256
6
ByLayer
370
18
48
1
60
0
100
AcDbLine
10
39.843951
20
-6.276681
30
0
11
39.843951
21
-1.790204
31
0
39
0
210
0
220
0
230
1
0
LINE
5
9C
100
AcDbEntity
8
1
62
256
6
ByLayer
370
18
48
1
60
0
100
AcDbLine
10
31.92164
20
-4.023365
30
0
11
33.507186
21
-4.237942
31
0
39
0
210
0
220
0
230
1
0
LINE
5
9D
100
AcDbEntity
8
1
62
256
6
ByLayer
370
18
48
1
60
0
100
AcDbLine
10
24.790562
20
-14.171262
30
0
11
24.790562
21
14.171208
31
0
39
0
210
0
220
0
230
1
0
LINE
5
9E
100
AcDbEntity
8
1
62
256
6
ByLayer
370
18
48
1
60
0
100
AcDbLine
10
37.540496
20
7.002881
30
0
11
39.343951
21
6.434254
31
0
39
0
210
0
220
0
230
1
0
LINE
5
9F
100
AcDbEntity
8
1
62
256
6
ByLayer
370
18
48
1
60
0
100
AcDbLine
10
20.805783
20
19.539203
30
0
11
20.805783
21
-19.539203
31
0
39
0
210
0
220
0
230
1
0
LINE
5
A0
100
AcDbEntity
8
1
62
256
6
ByLayer
370
18
48
1
60
0
100
AcDbLine
10
8.538675
20
-7.529667
30
0
11
11.461325
21
-7.529667
31
0
39
0
210
0
220
0
230
1
0
LINE
5
A1
100
AcDbEntity
8
1
62
256
6
ByLayer
370
18
48
1
60
0
100
AcDbLine
10
45.043951
20
-4.637127
30
0
11
44.113951
21
-4.930355
31
0
39
0
210
0
220
0
230
1
0
LINE
5
A2
100
AcDbEntity
8
1
62
256
6
ByLayer
370
18
48
1
60
0
100
AcDbLine
10
31.147809
20
5.66157
30
0
11
32.320645
21
6.749897
31
0
39
0
210
0
220
0
230
1
0
LINE
5
A3
100
AcDbEntity
8
1
62
256
6
ByLayer
370
18
48
1
60
0
100
AcDbLine
10
43.881242
20
-5.003728
30
0
11
39.943951
21
-6.245151
31
0
39
0
210
0
220
0
230
1
0
LINE
5
A4
100
AcDbEntity
8
1
62
256
6
ByLayer
370
18
48
1
60
0
100
AcDbLine
10
39.843951
20
6.276604
30
0
11
39.943951
21
6.245074
31
0
39
0
210
0
220
0
230
1
0
LINE
5
A5
100
AcDbEntity
8
1
62
256
6
ByLayer
370
18
48
1
60
0
100
AcDbLine
10
39.240823
20
-1.600038
30
0
11
36.440823
21
-1.600038
31
0
39
0
210
0
220
0
230
1
0
LINE
5
A6
100
AcDbEntity
8
1
62
256
6
ByLayer
370
18
48
1
60
0
100
AcDbLine
10
11.894338
20
23.666502
30
0
11
11.894338
21
8.055848
31
0
39
0
210
0
220
0
230
1
0
LINE
5
A7
100
AcDbEntity
8
1
62
256
6
ByLayer
370
18
48
1
60
0
100
AcDbLine
10
36.440823
20
-1.500038
30
0
11
39.256215
21
-1.500038
31
0
39
0
210
0
220
0
230
1
0
LINE
5
A8
100
AcDbEntity
8
1
62
256
6
ByLayer
370
18
48
1
60
0
100
AcDbLine
10
39.343951
20
1.632478
30
0
11
39.843951
21
1.790127
31
0
39
0
210
0
220
0
230
1
0
LINE
5
A9
100
AcDbEntity
8
1
62
256
6
ByLayer
370
18
48
1
60
0
100
AcDbLine
10
11.461325
20
-7.529667
30
0
11
11.461325
21
-23.83913
31
0
39
0
210
0
220
0
230
1
0
LINE
5
AA
100
AcDbEntity
8
1
62
256
6
ByLayer
370
18
48
1
60
0
100
AcDbLine
10
23.367032
20
20.478935
30
0
11
32.670291
21
10.137081
31
0
39
0
210
0
220
0
230
1
0
LINE
5
AB
100
AcDbEntity
8
1
62
256
6
ByLayer
370
18
48
1
60
0
100
AcDbLine
10
36.440823
20
1.599962
30
0
11
36.440823
21
1.499962
31
0
39
0
210
0
220
0
230
1
0
LINE
5
AC
100
AcDbEntity
8
1
62
256
6
ByLayer
370
18
48
1
60
0
100
AcDbLine
10
45.043951
20
4.637051
30
0
11
46.043951
21
4.321752
31
0
39
0
210
0
220
0
230
1
0
LINE
5
AD
100
AcDbEntity
8
1
62
256
6
ByLayer
370
18
48
1
60
0
100
AcDbLine
10
39.943951
20
-6.245151
30
0
11
39.843951
21
-6.276681
31
0
39
0
210
0
220
0
230
1
0
LINE
5
AE
100
AcDbEntity
8
1
62
256
6
ByLayer
370
18
48
1
60
0
100
AcDbLine
10
39.843951
20
-1.790204
30
0
11
39.343951
21
-1.632554
31
0
39
0
210
0
220
0
230
1
0
LINE
5
AF
100
AcDbEntity
8
1
62
256
6
ByLayer
370
18
48
1
60
0
100
AcDbLine
10
39.843951
20
1.790127
30
0
11
39.943951
21
1.716804
31
0
39
0
210
0
220
0
230
1
0
LINE
5
B0
100
AcDbEntity
8
1
62
256
6
ByLayer
370
18
48
1
60
0
100
AcDbLine
10
39.343951
20
-6.43433
30
0
11
37.540496
21
-7.002957
31
0
39
0
210
0
220
0
230
1
0
LINE
5
B1
100
AcDbEntity
8
1
62
256
6
ByLayer
370
18
48
1
60
0
100
AcDbLine
10
8.105662
20
23.666502
30
0
11
8.105662
21
8.055848
31
0
39
0
210
0
220
0
230
1
0
LINE
5
B2
100
AcDbEntity
8
1
62
256
6
ByLayer
370
18
48
1
60
0
100
AcDbLine
10
32.67031
20
-10.137137
30
0
11
23.367039
21
-20.47895
31
0
39
0
210
0
220
0
230
1
0
LINE
5
B3
100
AcDbEntity
8
1
62
256
6
ByLayer
370
18
48
1
60
0
100
AcDbLine
10
36.440823
20
-1.600038
30
0
11
36.440823
21
-1.500038
31
0
39
0
210
0
220
0
230
1
0
LINE
5
B4
100
AcDbEntity
8
1
62
256
6
ByLayer
370
18
48
1
60
0
100
AcDbLine
10
39.256215
20
-1.500038
30
0
11
39.943951
21
-1.716881
31
0
39
0
210
0
220
0
230
1
0
LINE
5
B5
100
AcDbEntity
8
1
62
256
6
ByLayer
370
18
48
1
60
0
100
AcDbLine
10
39.943951
20
-1.716881
30
0
11
39.943951
21
-6.245151
31
0
39
0
210
0
220
0
230
1
0
LINE
5
B6
100
AcDbEntity
8
1
62
256
6
ByLayer
370
18
48
1
60
0
100
AcDbLine
10
8.538675
20
23.83913
30
0
11
8.538675
21
7.529667
31
0
39
0
210
0
220
0
230
1
0
LINE
5
B7
100
AcDbEntity
8
1
62
256
6
ByLayer
370
18
48
1
60
0
100
AcDbLine
10
39.943951
20
6.245074
30
0
11
39.943951
21
1.716804
31
0
39
0
210
0
220
0
230
1
0
LINE
5
B8
100
AcDbEntity
8
1
62
256
6
ByLayer
370
18
48
1
60
0
100
AcDbLine
10
11.461325
20
7.529667
30
0
11
8.538675
21
7.529667
31
0
39
0
210
0
220
0
230
1
0
LINE
5
B9
100
AcDbEntity
8
1
62
256
6
ByLayer
370
18
48
1
60
0
100
AcDbLine
10
39.943951
20
1.716804
30
0
11
39.256215
21
1.499962
31
0
39
0
210
0
220
0
230
1
0
LINE
5
BA
100
AcDbEntity
8
1
62
256
6
ByLayer
370
18
48
1
60
0
100
AcDbLine
10
39.240823
20
-1.600038
30
0
11
39.256215
21
-1.500038
31
0
39
0
210
0
220
0
230
1
0
LINE
5
BB
100
AcDbEntity
8
1
62
256
6
ByLayer
370
18
48
1
60
0
100
AcDbLine
10
39.843951
20
-1.790204
30
0
11
39.943951
21
-1.716881
31
0
39
0
210
0
220
0
230
1
0
LINE
5
BC
100
AcDbEntity
8
1
62
256
6
ByLayer
370
18
48
1
60
0
100
AcDbLine
10
46.973951
20
4.028524
30
0
11
47.223981
21
3.94969
31
0
39
0
210
0
220
0
230
1
0
LINE
5
BD
100
AcDbEntity
8
1
62
256
6
ByLayer
370
18
48
1
60
0
100
AcDbLine
10
11.461325
20
23.83913
30
0
11
11.461325
21
7.529667
31
0
39
0
210
0
220
0
230
1
0
LINE
5
BE
100
AcDbEntity
8
1
62
256
6
ByLayer
370
18
48
1
60
0
100
AcDbLine
10
20.279208
20
23.911476
30
0
11
20.279208
21
12.222239
31
0
39
0
210
0
220
0
230
1
0
LINE
5
BF
100
AcDbEntity
8
SK1
62
256
6
ByLayer
370
18
48
1
60
0
100
AcDbLine
10
-1.307107
20
-3.918083
30
0
11
-1.307107
21
3.918083
31
0
39
0
210
0
220
0
230
1
0
LINE
5
C1
100
AcDbEntity
8
SK1
62
256
6
ByLayer
370
18
48
1
60
0
100
AcDbLine
10
-0.2
20
-6.078431
30
0
11
-0.2
21
-17.833485
31
0
39
0
210
0
220
0
230
1
0
LINE
5
C2
100
AcDbEntity
8
SK1
62
256
6
ByLayer
370
18
48
1
60
0
100
AcDbLine
10
-0.2
20
17.833485
30
0
11
-0.2
21
6.078432
31
0
39
0
210
0
220
0
230
1
0
LINE
5
C3
100
AcDbEntity
8
1
62
256
6
ByLayer
370
18
48
1
60
0
100
AcDbLine
10
47.223981
20
-3.949766
30
0
11
47.496441
21
-3.86386
31
0
39
0
210
0
220
0
230
1
0
LINE
5
C4
100
AcDbEntity
8
1
62
256
6
ByLayer
370
18
48
1
60
0
100
AcDbLine
10
47.496441
20
3.863784
30
0
11
47.223981
21
3.94969
31
0
39
0
210
0
220
0
230
1
0
LINE
5
C5
100
AcDbEntity
8
1
62
256
6
ByLayer
370
18
48
1
60
0
100
AcDbLine
10
47.223981
20
-3.949766
30
0
11
47.223981
21
-3.777959
31
0
39
0
210
0
220
0
230
1
0
LINE
5
C6
100
AcDbEntity
8
1
62
256
6
ByLayer
370
18
48
1
60
0
100
AcDbLine
10
43.881242
20
5.003651
30
0
11
43.881242
21
2.723845
31
0
39
0
210
0
220
0
230
1
0
LINE
5
C7
100
AcDbEntity
8
1
62
256
6
ByLayer
370
18
48
1
60
0
100
AcDbLine
10
43.881242
20
-2.723922
30
0
11
43.881242
21
-5.003728
31
0
39
0
210
0
220
0
230
1
0
LINE
5
C8
100
AcDbEntity
8
1
62
256
6
ByLayer
370
18
48
1
60
0
100
AcDbLine
10
47.223981
20
3.777882
30
0
11
47.223981
21
3.94969
31
0
39
0
210
0
220
0
230
1
0
LINE
5
C9
100
AcDbEntity
8
1
62
256
6
ByLayer
370
18
48
1
60
0
100
AcDbLine
10
44.113951
20
4.930279
30
0
11
44.113951
21
2.7973
31
0
39
0
210
0
220
0
230
1
0
LINE
5
CA
100
AcDbEntity
8
1
62
256
6
ByLayer
370
18
48
1
60
0
100
AcDbLine
10
44.113951
20
-2.797377
30
0
11
44.113951
21
-4.930355
31
0
39
0
210
0
220
0
230
1
0
LINE
5
CB
100
AcDbEntity
8
1
62
256
6
ByLayer
370
18
48
1
60
0
100
AcDbLine
10
45.043951
20
4.637051
30
0
11
45.043951
21
3.090437
31
0
39
0
210
0
220
0
230
1
0
LINE
5
CC
100
AcDbEntity
8
1
62
256
6
ByLayer
370
18
48
1
60
0
100
AcDbLine
10
45.043951
20
-3.090513
30
0
11
45.043951
21
-4.637127
31
0
39
0
210
0
220
0
230
1
0
LINE
5
CD
100
AcDbEntity
8
1
62
256
6
ByLayer
370
18
48
1
60
0
100
AcDbLine
10
46.973951
20
4.028524
30
0
11
46.973951
21
3.699056
31
0
39
0
210
0
220
0
230
1
0
LINE
5
CE
100
AcDbEntity
8
1
62
256
6
ByLayer
370
18
48
1
60
0
100
AcDbLine
10
46.043951
20
4.321752
30
0
11
46.043951
21
3.405802
31
0
39
0
210
0
220
0
230
1
0
LINE
5
CF
100
AcDbEntity
8
1
62
256
6
ByLayer
370
18
48
1
60
0
100
AcDbLine
10
46.043951
20
-3.405879
30
0
11
46.043951
21
-4.321828
31
0
39
0
210
0
220
0
230
1
0
LINE
5
D0
100
AcDbEntity
8
1
62
256
6
ByLayer
370
18
48
1
60
0
100
AcDbLine
10
46.973951
20
-3.699132
30
0
11
46.973951
21
-4.0286
31
0
39
0
210
0
220
0
230
1
0
LINE
5
D1
100
AcDbEntity
8
1
62
256
6
ByLayer
370
18
48
1
60
0
100
AcDbLine
10
0
20
-24.7
30
0
11
0
21
24.7
31
0
39
0
210
0
220
0
230
1
0
LINE
5
D2
100
AcDbEntity
8
1
62
256
6
ByLayer
370
18
48
1
60
0
100
AcDbLine
10
20.279208
20
23.911476
30
0
11
19.3
21
25
31
0
39
0
210
0
220
0
230
1
0
LINE
5
D3
100
AcDbEntity
8
1
62
256
6
ByLayer
370
18
48
1
60
0
100
AcDbLine
10
19.3
20
-25
30
0
11
20.279208
21
-23.911482
31
0
39
0
210
0
220
0
230
1
0
LINE
5
D4
100
AcDbEntity
8
1
62
256
6
ByLayer
370
18
48
1
60
0
100
AcDbLine
10
0.3
20
-25
30
0
11
0.3
21
25
31
0
39
0
210
0
220
0
230
1
0
LINE
5
D5
100
AcDbEntity
8
81
62
256
6
ByLayer
370
18
48
1
60
0
100
AcDbLine
10
60
20
0.582
30
0
11
70
21
0.582
31
0
39
0
210
0
220
0
230
1
0
LINE
5
D6
100
AcDbEntity
8
80
62
256
6
ByLayer
370
18
48
1
60
0
100
AcDbLine
10
0
20
0
30
0
11
-10
21
0
31
0
39
0
210
0
220
0
230
1
0
LINE
5
D7
100
AcDbEntity
8
1
62
256
6
ByLayer
370
18
48
1
60
0
100
AcDbLine
10
0
20
-24.7
30
0
11
0.3
21
-25
31
0
39
0
210
0
220
0
230
1
0
LINE
5
D8
100
AcDbEntity
8
1
62
256
6
ByLayer
370
18
48
1
60
0
100
AcDbLine
10
0.3
20
25
30
0
11
0
21
24.7
31
0
39
0
210
0
220
0
230
1
0
LINE
5
D9
100
AcDbEntity
8
1
62
256
6
ByLayer
370
18
48
1
60
0
100
AcDbLine
10
19.3
20
25
30
0
11
0.3
21
25
31
0
39
0
210
0
220
0
230
1
0
LINE
5
DA
100
AcDbEntity
8
1
62
256
6
ByLayer
370
18
48
1
60
0
100
AcDbLine
10
0.3
20
-25
30
0
11
19.3
21
-25
31
0
39
0
210
0
220
0
230
1
0
LINE
5
DB
100
AcDbEntity
8
2
62
256
6
ByLayer
370
13
48
1
60
0
100
AcDbLine
10
83.6
20
11.832
30
0
11
83.6
21
-18.309066
31
0
39
0
210
0
220
0
230
1
0
LINE
5
DD
100
AcDbEntity
8
2
62
256
6
ByLayer
370
13
48
1
60
0
100
AcDbLine
10
61.5875
20
0.582
30
0
11
86.775
21
0.582
31
0
39
0
210
0
220
0
230
1
0
LINE
5
DE
100
AcDbEntity
8
2
62
256
6
ByLayer
370
13
48
1
60
0
100
AcDbLine
10
51.5875
20
0
30
0
11
86.775
21
0
31
0
39
0
210
0
220
0
230
1
0
LINE
5
DF
100
AcDbEntity
8
1
62
256
6
ByLayer
370
13
48
1
60
0
100
AcDbLine
10
83.6
20
0.582
30
0
11
82.749261
21
3.756997
31
0
39
0
210
0
220
0
230
1
0
LINE
5
E0
100
AcDbEntity
8
1
62
256
6
ByLayer
370
13
48
1
60
0
100
AcDbLine
10
83.6
20
0.582
30
0
11
84.450739
21
3.757003
31
0
39
0
210
0
220
0
230
1
0
LINE
5
E1
100
AcDbEntity
8
1
62
256
6
ByLayer
370
13
48
1
60
0
100
AcDbLine
10
82.749261
20
3.756997
30
0
11
84.450739
21
3.757003
31
0
39
0
210
0
220
0
230
1
0
LINE
5
E2
100
AcDbEntity
8
1
62
256
6
ByLayer
370
13
48
1
60
0
100
AcDbLine
10
83.6
20
0
30
0
11
84.450739
21
-3.174997
31
0
39
0
210
0
220
0
230
1
0
LINE
5
E3
100
AcDbEntity
8
1
62
256
6
ByLayer
370
13
48
1
60
0
100
AcDbLine
10
83.6
20
0
30
0
11
82.749261
21
-3.175003
31
0
39
0
210
0
220
0
230
1
0
LINE
5
E4
100
AcDbEntity
8
1
62
256
6
ByLayer
370
13
48
1
60
0
100
AcDbLine
10
84.450739
20
-3.174997
30
0
11
82.749261
21
-3.175003
31
0
39
0
210
0
220
0
230
1
0
LINE
5
E5
100
AcDbEntity
8
2
62
256
6
ByLayer
370
13
48
1
60
0
100
AcDbLine
10
45.532554
20
4.931806
30
0
11
44.935129
21
5.120174
31
0
39
0
210
0
220
0
230
1
0
LINE
5
E6
100
AcDbEntity
8
2
62
256
6
ByLayer
370
13
48
1
60
0
100
AcDbLine
10
60
20
2.1695
30
0
11
60
21
16.166194
31
0
39
0
210
0
220
0
230
1
0
LINE
5
E7
100
AcDbEntity
8
1
62
256
6
ByLayer
370
13
48
1
60
0
100
AcDbLine
10
47.963181
20
4.165433
30
0
11
48.025399
21
0.879023
31
0
39
0
210
0
220
0
230
1
0
LINE
5
E8
100
AcDbEntity
8
1
62
256
6
ByLayer
370
13
48
1
60
0
100
AcDbLine
10
47.963181
20
4.165433
30
0
11
46.373856
21
1.288204
31
0
39
0
210
0
220
0
230
1
0
LINE
5
E9
100
AcDbEntity
8
1
62
256
6
ByLayer
370
13
48
1
60
0
100
AcDbLine
10
48.025399
20
0.879023
30
0
11
46.373856
21
1.288204
31
0
39
0
210
0
220
0
230
1
0
LINE
5
EA
100
AcDbEntity
8
1
62
256
6
ByLayer
370
13
48
1
60
0
100
AcDbLine
10
60
20
12.991194
30
0
11
63.221975
21
13.641761
31
0
39
0
210
0
220
0
230
1
0
LINE
5
EB
100
AcDbEntity
8
1
62
256
6
ByLayer
370
13
48
1
60
0
100
AcDbLine
10
60
20
12.991194
30
0
11
63.115602
21
11.943612
31
0
39
0
210
0
220
0
230
1
0
LINE
5
EC
100
AcDbEntity
8
1
62
256
6
ByLayer
370
13
48
1
60
0
100
AcDbLine
10
63.221975
20
13.641761
30
0
11
63.115602
21
11.943612
31
0
39
0
210
0
220
0
230
1
0
MTEXT
5
162
100
AcDbEntity
8
2
62
256
6
ByLayer
370
13
48
1
60
0
100
AcDbMText
10
82.713328
20
-18.106566
30
0
210
0
220
0
230
1
1
\W0.7121;0.6
40
4.5
41
0
44
1.084337
50
90
71
7
72
5
7
iso_b_vert
0
MTEXT
5
165
100
AcDbEntity
8
2
62
256
6
ByLayer
370
13
48
1
60
0
100
AcDbMText
10
45.439577
20
6.767065
30
0
210
0
220
0
230
1
1
\W0.8203;72%%d30'
40
4.5
41
0
44
1.084337
50
36.25
71
7
72
5
7
iso_b_vert
0
MTEXT
5
166
100
AcDbEntity
8
SK6
62
256
6
ByLayer
370
13
48
1
60
0
100
AcDbMText
10
0.353024
20
-39.677256
30
0
210
0
220
0
230
1
1
\W0.7740;C5-TR-V13VBN-00060C1
40
3.5
41
0
44
1.084337
50
0
71
7
72
5
7
iso_b_vert
0
DIMENSION
5
169
100
AcDbEntity
8
2
62
256
6
ByLayer
370
13
48
1
60
0
100
AcDbDimension
2
_U0
10
0
20
18.082
30
0
11
30
21
18.082
31
0
70
32
71
1
72
1
41
1
210
0
220
0
230
1
3
Standard
100
AcDbAlignedDimension
13
60
23
0.582
33
0
14
0
24
25
34
0
50
0
100
AcDbRotatedDimension
1001
ACAD
1000
DSTYLE
1002
{
1070
   371
1070
    13
1070
   372
1070
    13
1070
     3
1000

1070
   170
1070
     0
1070
   144
1040
1.0
1070
   277
1070
     2
1070
   284
1070
     8
1070
   278
1070
    46
1070
   146
1040
0.777778
1070
   345
1005
16
1070
   347
1005
16
1070
   346
1005
16
1070
   344
1005
16A
1070
   343
1005
16A
1070
   172
1070
     1
1070
    76
1070
     0
1070
    75
1070
     0
1070
   282
1070
     0
1070
   281
1070
     0
1070
    71
1070
     0
1070
    74
1070
     0
1070
   279
1070
     0
1070
   173
1070
     1
1070
   340
1005
163
1070
   271
1070
     1
1070
   272
1070
     2
1070
    77
1070
     1
1070
    73
1070
     1
1070
   171
1070
     3
1070
   274
1070
     4
1070
   177
1070
   150
1070
   176
1070
     9
1070
   178
1070
    43
1070
    78
1070
     8
1070
    48
1040
-0.1
1070
    41
1040
3.175
1070
   147
1040
2.25
1070
    42
1040
1.5875
1070
    44
1040
3.175
1070
   140
1040
4.5
1002
}
1001
ACAD_DSTYLE_DIM_LINETYPE
1070
   380
1005
16
1001
ACAD_DSTYLE_DIM_EXT1_LINETYPE
1070
   381
1005
16
1001
ACAD_DSTYLE_DIM_EXT2_LINETYPE
1070
   382
1005
16
0
ENDSEC
0
SECTION
2
OBJECTS
0
DICTIONARY
5
1fb
330
0
100
AcDbDictionary
280
0
281
1
3
ACAD_GROUP
350
1fc
3
ACAD_MLINESTYLE
350
1fd
0
DICTIONARY
5
1fc
330
0
100
AcDbDictionary
280
0
281
1
0
DICTIONARY
5
1fd
330
0
100
AcDbDictionary
280
0
281
1
3
Standard
350
18
0
MLINESTYLE
5
18
330
1fd
100
AcDbMlineStyle
2
Standard
70
0
3

62
256
51
90
52
90
71
2
49
-0.5
62
256
6
ByLayer
49
0.5
62
256
6
ByLayer
0
RASTERVARIABLES
5
1eb
330

100
AcDbRasterVariables
90
0
70
1
71
1
72
1
0
ENDSEC
0
EOF
