0
SECTION
2
HEADER
9
$ACADVER
1
AC1015
9
$DWGCODEPAGE
3
ANSI_1252
9
$HANDSEED
5
22d
9
$ANGBASE
50
0
9
$ANGDIR
70
0
9
$ATTMODE
70
1
9
$AUNITS
70
0
9
$AUPREC
70
0
9
$CECOLOR
62
256
9
$CELTSCALE
40
1
9
$CELTYPE
6
ByLayer
9
$CELWEIGHT
370
18
9
$CLAYER
8
0
9
$CMLJUST
70
0
9
$CMLSCALE
40
1
9
$CMLSTYLE
2
Standard
9
$DIMSTYLE
2
Standard
9
$TEXTSIZE
40
0.2
9
$TEXTSTYLE
7
Standard
9
$LUNITS
70
2
9
$LUPREC
70
4
9
$EXTNAMES
290
1
9
$INSUNITS
70
4
9
$LTSCALE
40
1
9
$LWDISPLAY
290
1
9
$PDMODE
70
0
9
$PDSIZE
40
0
9
$PLINEGEN
70
0
0
ENDSEC
0
SECTION
2
CLASSES
0
CLASS
1
RASTERVARIABLES
2
AcDbRasterVariables
3
ISM
90
0
280
0
281
0
0
ENDSEC
0
SECTION
2
TABLES
0
TABLE
2
VPORT
5
223
100
AcDbSymbolTable
0
VPORT
5
1
100
AcDbSymbolTableRecord
100
AcDbViewportTableRecord
2
*Active
70
0
10
0
20
0
11
1
21
1
12
-1
22
1
13
0
23
0
14
0.5
24
0.5
15
10
25
10
16
0
26
0
36
1
17
0
27
0
37
0
0
ENDTAB
0
TABLE
2
LTYPE
5
224
100
AcDbSymbolTable
0
LTYPE
5
14
100
AcDbSymbolTableRecord
100
AcDbLinetypeTableRecord
70
0
2
ByBlock
3

72
65
73
0
40
0
0
LTYPE
5
15
100
AcDbSymbolTableRecord
100
AcDbLinetypeTableRecord
70
0
2
ByLayer
3

72
65
73
0
40
0
0
LTYPE
5
16
100
AcDbSymbolTableRecord
100
AcDbLinetypeTableRecord
70
0
2
Continuous
3
Solid line
72
65
73
0
40
0
0
LTYPE
5
6E
100
AcDbSymbolTableRecord
100
AcDbLinetypeTableRecord
70
0
2
CENTER
3
____ _ ____ _ ____ _ ____
72
65
73
4
40
47.5
49
22
74
0
49
-8.5
74
0
49
8.5
74
0
49
-8.5
74
0
0
LTYPE
5
6F
100
AcDbSymbolTableRecord
100
AcDbLinetypeTableRecord
70
0
2
DASHED
3
__ __ __ __ __ __ __ __ __
72
65
73
2
40
25.72
49
12.86
74
0
49
-12.86
74
0
0
ENDTAB
0
TABLE
2
LAYER
5
225
100
AcDbSymbolTable
0
LAYER
5
10
100
AcDbSymbolTableRecord
100
AcDbLayerTableRecord
2
0
70
0
62
7
6
Continuous
290
1
370
-3
390
0
0
LAYER
5
71
100
AcDbSymbolTableRecord
100
AcDbLayerTableRecord
2
2
70
0
62
7
6
Continuous
290
1
370
-3
390
0
0
LAYER
5
8A
100
AcDbSymbolTableRecord
100
AcDbLayerTableRecord
2
81
70
0
62
-3
6
Continuous
290
1
370
-3
390
0
0
LAYER
5
8C
100
AcDbSymbolTableRecord
100
AcDbLayerTableRecord
2
80
70
0
62
-6
6
Continuous
290
1
370
-3
390
0
0
LAYER
5
8E
100
AcDbSymbolTableRecord
100
AcDbLayerTableRecord
2
1
70
0
62
4
6
Continuous
290
1
370
-3
390
0
0
LAYER
5
17B
100
AcDbSymbolTableRecord
100
AcDbLayerTableRecord
2
Defpoints
70
0
62
7
6
Continuous
290
0
370
-3
390
0
0
LAYER
5
210
100
AcDbSymbolTableRecord
100
AcDbLayerTableRecord
2
SK2
70
0
62
7
6
Continuous
290
1
370
-3
390
0
0
LAYER
5
211
100
AcDbSymbolTableRecord
100
AcDbLayerTableRecord
2
SK1
70
0
62
4
6
Continuous
290
1
370
-3
390
0
0
LAYER
5
212
100
AcDbSymbolTableRecord
100
AcDbLayerTableRecord
2
SK6
70
0
62
5
6
Continuous
290
1
370
-3
390
0
0
ENDTAB
0
TABLE
2
STYLE
5
226
100
AcDbSymbolTable
0
STYLE
5
11
100
AcDbSymbolTableRecord
100
AcDbTextStyleTableRecord
2
Standard
3
txt
70
0
71
0
40
0
41
1
42
0
50
0
0
STYLE
5
16C
100
AcDbSymbolTableRecord
100
AcDbTextStyleTableRecord
2
iso_b_vert
3
simplex.shx
70
0
71
0
40
0
41
1
42
0
50
0
0
STYLE
5
16D
100
AcDbSymbolTableRecord
100
AcDbTextStyleTableRecord
2
DWGDirectTextStyle
3
simplex
70
0
71
0
40
0
41
1
42
0
50
0
0
ENDTAB
0
TABLE
2
DIMSTYLE
5
227
100
AcDbSymbolTable
100
AcDbDimStyleTable
0
DIMSTYLE
105
27
100
AcDbSymbolTableRecord
100
AcDbDimStyleTableRecord
2
Standard
70
0
3
<>
41
0.18
42
0.0625
44
0.18
140
0.18
147
0.09
73
0
74
0
77
1
271
2
275
0
278
52
280
0
340
11
0
ENDTAB
0
TABLE
2
VIEW
5
228
100
AcDbSymbolTable
0
ENDTAB
0
TABLE
2
UCS
5
229
100
AcDbSymbolTable
0
ENDTAB
0
TABLE
2
APPID
5
22a
100
AcDbSymbolTable
0
APPID
5
12
100
AcDbSymbolTableRecord
100
AcDbRegAppTableRecord
2
ACAD
70
0
0
APPID
5
170
100
AcDbSymbolTableRecord
100
AcDbRegAppTableRecord
2
ACAD_DSTYLE_DIMBREAK
70
0
0
APPID
5
1CF
100
AcDbSymbolTableRecord
100
AcDbRegAppTableRecord
2
ACAD_DSTYLE_DIM_LINETYPE
70
0
0
APPID
5
1D0
100
AcDbSymbolTableRecord
100
AcDbRegAppTableRecord
2
ACAD_DSTYLE_DIM_EXT1_LINETYPE
70
0
0
APPID
5
1D1
100
AcDbSymbolTableRecord
100
AcDbRegAppTableRecord
2
ACAD_DSTYLE_DIM_EXT2_LINETYPE
70
0
0
APPID
5
20C
100
AcDbSymbolTableRecord
100
AcDbRegAppTableRecord
2
ACAD_MLEADERVER
70
0
0
ENDTAB
0
TABLE
2
BLOCK_RECORD
5
22b
100
AcDbSymbolTable
0
BLOCK_RECORD
5
1F
100
AcDbSymbolTableRecord
100
AcDbBlockTableRecord
2
*Model_Space
340
0
70
0
0
BLOCK_RECORD
5
1B
100
AcDbSymbolTableRecord
100
AcDbBlockTableRecord
2
*Paper_Space
340
0
70
0
0
BLOCK_RECORD
5
23
100
AcDbSymbolTableRecord
100
AcDbBlockTableRecord
2
*Paper_Space0
340
0
70
0
0
BLOCK_RECORD
5
172
100
AcDbSymbolTableRecord
100
AcDbBlockTableRecord
2
_Closed
340
0
70
0
0
BLOCK_RECORD
5
17C
100
AcDbSymbolTableRecord
100
AcDbBlockTableRecord
2
*D2
340
0
70
0
0
BLOCK_RECORD
5
188
100
AcDbSymbolTableRecord
100
AcDbBlockTableRecord
2
_U0
340
0
70
0
0
BLOCK_RECORD
5
198
100
AcDbSymbolTableRecord
100
AcDbBlockTableRecord
2
*D4
340
0
70
0
0
BLOCK_RECORD
5
1A4
100
AcDbSymbolTableRecord
100
AcDbBlockTableRecord
2
_U1
340
0
70
0
0
ENDTAB
0
ENDSEC
0
SECTION
2
BLOCKS
0
BLOCK
5
20
100
AcDbEntity
8
0
100
AcDbBlockBegin
2
*Model_Space
70
0
10
0
20
0
30
0
3
*Model_Space
0
ENDBLK
5
21
100
AcDbEntity
8
0
100
AcDbBlockEnd
0
BLOCK
5
1C
100
AcDbEntity
8
0
100
AcDbBlockBegin
2
*Paper_Space
70
0
10
0
20
0
30
0
3
*Paper_Space
0
ENDBLK
5
1D
100
AcDbEntity
8
0
100
AcDbBlockEnd
0
BLOCK
5
24
100
AcDbEntity
8
0
100
AcDbBlockBegin
2
*Paper_Space0
70
0
10
0
20
0
30
0
3
*Paper_Space0
0
ENDBLK
5
25
100
AcDbEntity
8
0
100
AcDbBlockEnd
0
BLOCK
5
173
100
AcDbEntity
8
0
100
AcDbBlockBegin
2
_Closed
70
0
10
0
20
0
30
0
3
_Closed
0
LINE
5
175
100
AcDbEntity
8
0
62
256
6
ByLayer
370
-2
48
1
60
0
100
AcDbLine
10
-1
20
0.166667
30
0
11
0
21
0
31
0
39
0
210
0
220
0
230
1
0
LINE
5
176
100
AcDbEntity
8
0
62
256
6
ByLayer
370
-2
48
1
60
0
100
AcDbLine
10
0
20
0
30
0
11
-1
21
-0.166667
31
0
39
0
210
0
220
0
230
1
0
LINE
5
177
100
AcDbEntity
8
0
62
256
6
ByLayer
370
-2
48
1
60
0
100
AcDbLine
10
-1
20
0.166667
30
0
11
-1
21
-0.166667
31
0
39
0
210
0
220
0
230
1
0
LINE
5
178
100
AcDbEntity
8
0
62
256
6
ByLayer
370
-2
48
1
60
0
100
AcDbLine
10
0
20
0
30
0
11
-1
21
0
31
0
39
0
210
0
220
0
230
1
0
ENDBLK
5
174
100
AcDbEntity
8
0
100
AcDbBlockEnd
0
BLOCK
5
17D
100
AcDbEntity
8
0
100
AcDbBlockBegin
2
*D2
70
1
10
0
20
0
30
0
3
*D2
0
LINE
5
17F
100
AcDbEntity
8
0
62
256
6
ByLayer
370
-2
48
1
60
0
100
AcDbLine
10
66.5875
20
-45
30
0
11
94.025
21
-45
31
0
39
0
210
0
220
0
230
1
0
LINE
5
180
100
AcDbEntity
8
0
62
256
6
ByLayer
370
-2
48
1
60
0
100
AcDbLine
10
51.5875
20
0
30
0
11
94.025
21
0
31
0
39
0
210
0
220
0
230
1
0
LINE
5
181
100
AcDbEntity
8
0
62
256
6
ByLayer
370
-2
48
1
60
0
100
AcDbLine
10
90.85
20
-41.825
30
0
11
90.85
21
-3.175
31
0
39
0
210
0
220
0
230
1
0
SOLID
5
182
100
AcDbEntity
8
0
62
256
6
ByLayer
370
-1
48
1
60
0
100
AcDbTrace
10
90.320833
20
-41.825
30
0
11
91.379167
21
-41.825
31
0
12
90.85
22
-45
32
0
13
90.85
23
-45
33
0
39
0
210
0
220
0
230
1
0
SOLID
5
183
100
AcDbEntity
8
0
62
256
6
ByLayer
370
-1
48
1
60
0
100
AcDbTrace
10
91.379167
20
-3.175
30
0
11
90.320833
21
-3.175
31
0
12
90.85
22
0
32
0
13
90.85
23
0
33
0
39
0
210
0
220
0
230
1
0
MTEXT
5
184
100
AcDbEntity
8
0
62
256
6
ByLayer
370
18
48
1
60
0
100
AcDbMText
10
81.45625
20
-22.5
30
0
210
0
220
0
230
1
1
\A1;45
40
4.5
41
0
44
1
50
90
71
5
72
5
7
iso_b_vert
0
POINT
5
185
100
AcDbEntity
8
Defpoints
62
0
6
ByLayer
370
-1
48
1
60
0
100
AcDbPoint
10
65
20
-45
30
0
39
0
210
0
220
0
230
1
50
360
0
POINT
5
186
100
AcDbEntity
8
Defpoints
62
0
6
ByLayer
370
-1
48
1
60
0
100
AcDbPoint
10
50
20
0
30
0
39
0
210
0
220
0
230
1
50
360
0
POINT
5
187
100
AcDbEntity
8
Defpoints
62
0
6
ByLayer
370
-1
48
1
60
0
100
AcDbPoint
10
90.85
20
0
30
0
39
0
210
0
220
0
230
1
50
360
0
ENDBLK
5
17E
100
AcDbEntity
8
0
100
AcDbBlockEnd
0
BLOCK
5
193
100
AcDbEntity
8
0
100
AcDbBlockBegin
2
_U0
70
0
10
0
20
0
30
0
3
_U0
0
MTEXT
5
189
100
AcDbEntity
8
2
62
256
6
ByLayer
370
13
48
1
60
0
100
AcDbMText
10
89.963328
20
-27.815099
30
0
210
0
220
0
230
1
1
\W0.7640;45.0
40
4.5
41
0
44
1.084337
50
90
71
7
72
5
7
iso_b_vert
0
LINE
5
18A
100
AcDbEntity
8
2
62
256
6
ByLayer
370
13
48
1
60
0
100
AcDbLine
10
66.5875
20
-45
30
0
11
94.025
21
-45
31
0
39
0
210
0
220
0
230
1
0
LINE
5
18B
100
AcDbEntity
8
2
62
256
6
ByLayer
370
13
48
1
60
0
100
AcDbLine
10
51.5875
20
0
30
0
11
94.025
21
0
31
0
39
0
210
0
220
0
230
1
0
LINE
5
18C
100
AcDbEntity
8
2
62
256
6
ByLayer
370
13
48
1
60
0
100
AcDbLine
10
90.85
20
-45
30
0
11
90.85
21
0
31
0
39
0
210
0
220
0
230
1
0
LINE
5
18D
100
AcDbEntity
8
2
62
256
6
ByLayer
370
13
48
1
60
0
100
AcDbLine
10
90.85
20
-45
30
0
11
89.999261
21
-41.825003
31
0
39
0
210
0
220
0
230
1
0
LINE
5
18E
100
AcDbEntity
8
2
62
256
6
ByLayer
370
13
48
1
60
0
100
AcDbLine
10
90.85
20
-45
30
0
11
91.700739
21
-41.824997
31
0
39
0
210
0
220
0
230
1
0
LINE
5
18F
100
AcDbEntity
8
2
62
256
6
ByLayer
370
13
48
1
60
0
100
AcDbLine
10
89.999261
20
-41.825003
30
0
11
91.700739
21
-41.824997
31
0
39
0
210
0
220
0
230
1
0
LINE
5
190
100
AcDbEntity
8
2
62
256
6
ByLayer
370
13
48
1
60
0
100
AcDbLine
10
90.85
20
0
30
0
11
91.700739
21
-3.174997
31
0
39
0
210
0
220
0
230
1
0
LINE
5
191
100
AcDbEntity
8
2
62
256
6
ByLayer
370
13
48
1
60
0
100
AcDbLine
10
90.85
20
0
30
0
11
89.999261
21
-3.175003
31
0
39
0
210
0
220
0
230
1
0
LINE
5
192
100
AcDbEntity
8
2
62
256
6
ByLayer
370
13
48
1
60
0
100
AcDbLine
10
91.700739
20
-3.174997
30
0
11
89.999261
21
-3.175003
31
0
39
0
210
0
220
0
230
1
0
ENDBLK
5
194
100
AcDbEntity
8
0
100
AcDbBlockEnd
0
BLOCK
5
199
100
AcDbEntity
8
0
100
AcDbBlockBegin
2
*D4
70
1
10
0
20
0
30
0
3
*D4
0
LINE
5
19B
100
AcDbEntity
8
0
62
256
6
ByLayer
370
-2
48
1
60
0
100
AcDbLine
10
0
20
-29.9125
30
0
11
0
21
41.525
31
0
39
0
210
0
220
0
230
1
0
LINE
5
19C
100
AcDbEntity
8
0
62
256
6
ByLayer
370
-2
48
1
60
0
100
AcDbLine
10
65
20
-43.4125
30
0
11
65
21
41.525
31
0
39
0
210
0
220
0
230
1
0
LINE
5
19D
100
AcDbEntity
8
0
62
256
6
ByLayer
370
-2
48
1
60
0
100
AcDbLine
10
3.175
20
38.35
30
0
11
61.825
21
38.35
31
0
39
0
210
0
220
0
230
1
0
SOLID
5
19E
100
AcDbEntity
8
0
62
256
6
ByLayer
370
-1
48
1
60
0
100
AcDbTrace
10
3.175
20
38.879167
30
0
11
3.175
21
37.820833
31
0
12
0
22
38.35
32
0
13
0
23
38.35
33
0
39
0
210
0
220
0
230
1
0
SOLID
5
19F
100
AcDbEntity
8
0
62
256
6
ByLayer
370
-1
48
1
60
0
100
AcDbTrace
10
61.825
20
37.820833
30
0
11
61.825
21
38.879167
31
0
12
65
22
38.35
32
0
13
65
23
38.35
33
0
39
0
210
0
220
0
230
1
0
MTEXT
5
1A0
100
AcDbEntity
8
0
62
256
6
ByLayer
370
18
48
1
60
0
100
AcDbMText
10
32.5
20
47.74375
30
0
210
0
220
0
230
1
1
\A1;65
40
4.5
41
0
44
1
50
0
71
5
72
5
7
iso_b_vert
0
POINT
5
1A1
100
AcDbEntity
8
Defpoints
62
0
6
ByLayer
370
-1
48
1
60
0
100
AcDbPoint
10
0
20
-31.5
30
0
39
0
210
0
220
0
230
1
50
360
0
POINT
5
1A2
100
AcDbEntity
8
Defpoints
62
0
6
ByLayer
370
-1
48
1
60
0
100
AcDbPoint
10
65
20
-45
30
0
39
0
210
0
220
0
230
1
50
360
0
POINT
5
1A3
100
AcDbEntity
8
Defpoints
62
0
6
ByLayer
370
-1
48
1
60
0
100
AcDbPoint
10
65
20
38.35
30
0
39
0
210
0
220
0
230
1
50
360
0
ENDBLK
5
19A
100
AcDbEntity
8
0
100
AcDbBlockEnd
0
BLOCK
5
1AF
100
AcDbEntity
8
0
100
AcDbBlockBegin
2
_U1
70
0
10
0
20
0
30
0
3
_U1
0
MTEXT
5
1A5
100
AcDbEntity
8
2
62
256
6
ByLayer
370
13
48
1
60
0
100
AcDbMText
10
27.457816
20
39.677672
30
0
210
0
220
0
230
1
1
\W0.7346;65.0
40
4.5
41
0
44
1.084337
50
0
71
7
72
5
7
iso_b_vert
0
LINE
5
1A6
100
AcDbEntity
8
2
62
256
6
ByLayer
370
13
48
1
60
0
100
AcDbLine
10
0
20
-29.9125
30
0
11
0
21
41.525
31
0
39
0
210
0
220
0
230
1
0
LINE
5
1A7
100
AcDbEntity
8
2
62
256
6
ByLayer
370
13
48
1
60
0
100
AcDbLine
10
65
20
-43.4125
30
0
11
65
21
41.525
31
0
39
0
210
0
220
0
230
1
0
LINE
5
1A8
100
AcDbEntity
8
2
62
256
6
ByLayer
370
13
48
1
60
0
100
AcDbLine
10
0
20
38.35
30
0
11
65
21
38.35
31
0
39
0
210
0
220
0
230
1
0
LINE
5
1A9
100
AcDbEntity
8
2
62
256
6
ByLayer
370
13
48
1
60
0
100
AcDbLine
10
0
20
38.35
30
0
11
3.174997
21
39.200739
31
0
39
0
210
0
220
0
230
1
0
LINE
5
1AA
100
AcDbEntity
8
2
62
256
6
ByLayer
370
13
48
1
60
0
100
AcDbLine
10
0
20
38.35
30
0
11
3.175003
21
37.499261
31
0
39
0
210
0
220
0
230
1
0
LINE
5
1AB
100
AcDbEntity
8
2
62
256
6
ByLayer
370
13
48
1
60
0
100
AcDbLine
10
3.174997
20
39.200739
30
0
11
3.175003
21
37.499261
31
0
39
0
210
0
220
0
230
1
0
LINE
5
1AC
100
AcDbEntity
8
2
62
256
6
ByLayer
370
13
48
1
60
0
100
AcDbLine
10
65
20
38.35
30
0
11
61.825003
21
37.499261
31
0
39
0
210
0
220
0
230
1
0
LINE
5
1AD
100
AcDbEntity
8
2
62
256
6
ByLayer
370
13
48
1
60
0
100
AcDbLine
10
65
20
38.35
30
0
11
61.824997
21
39.200739
31
0
39
0
210
0
220
0
230
1
0
LINE
5
1AE
100
AcDbEntity
8
2
62
256
6
ByLayer
370
13
48
1
60
0
100
AcDbLine
10
61.825003
20
37.499261
30
0
11
61.824997
21
39.200739
31
0
39
0
210
0
220
0
230
1
0
ENDBLK
5
1B0
100
AcDbEntity
8
0
100
AcDbBlockEnd
0
ENDSEC
0
SECTION
2
ENTITIES
0
ARC
5
EF
100
AcDbEntity
8
1
62
256
6
ByLayer
370
18
48
1
60
0
100
AcDbCircle
39
0
10
22.279208
20
-32.7
30
0
40
1.2
210
0
220
0
230
1
100
AcDbArc
50
15
51
90
0
ARC
5
F0
100
AcDbEntity
8
SK1
62
256
6
ByLayer
370
18
48
1
60
0
100
AcDbCircle
39
0
10
-0.6
20
23.45
30
0
40
0.999999999999994
210
0
220
0
230
1
100
AcDbArc
50
293.578178
51
306.869898
0
ARC
5
F1
100
AcDbEntity
8
SK1
62
256
6
ByLayer
370
18
48
1
60
0
100
AcDbCircle
39
0
10
-0.6
20
-23.45
30
0
40
0.999999999999994
210
0
220
0
230
1
100
AcDbArc
50
53.130102
51
66.421822
0
ARC
5
F2
100
AcDbEntity
8
1
62
256
6
ByLayer
370
18
48
1
60
0
100
AcDbCircle
39
0
10
52.311683
20
-36.510141
30
0
40
3.1
210
0
220
0
230
1
100
AcDbArc
50
359.917653
51
10.736723
0
ARC
5
F3
100
AcDbEntity
8
2
62
256
6
ByLayer
370
13
48
1
60
0
100
AcDbCircle
39
0
10
65
20
-45.042688
30
0
40
13.6233048568463
210
0
220
0
230
1
100
AcDbArc
50
177
51
270
0
ARC
5
F4
100
AcDbEntity
8
2
62
256
6
ByLayer
370
13
48
1
60
0
100
AcDbCircle
39
0
10
65
20
-45.042688
30
0
40
13.6233048568463
210
0
220
0
230
1
100
AcDbArc
50
109.087682
51
177
0
ELLIPSE
5
F5
100
AcDbEntity
8
1
62
256
6
ByLayer
370
18
48
1
60
0
100
AcDbEllipse
10
53.799913
20
-37.960096
30
0
11
1.43056483480842
21
1.46832702536239
31
0
210
0
220
0
230
1
40
0.987534
41
-1.28237035513308
42
-0.571250554407561
0
ELLIPSE
5
F6
100
AcDbEntity
8
1
62
256
6
ByLayer
370
18
48
1
60
0
100
AcDbEllipse
10
53.766089
20
-37.927143
30
0
11
-1.6399157862438
21
-1.68320415102518
31
0
210
0
220
0
230
1
40
0.987534
41
1.84468920867109
42
2.58487518896786
0
ELLIPSE
5
F7
100
AcDbEntity
8
1
62
256
6
ByLayer
370
18
48
1
60
0
100
AcDbEllipse
10
53.87328
20
-37.417496
30
0
11
1.60502396100457
21
1.64739129674805
31
0
210
0
220
0
230
1
40
0.987534
41
2.79643670011415
42
-1.508464956065
0
ELLIPSE
5
F8
100
AcDbEntity
8
1
62
256
6
ByLayer
370
18
48
1
60
0
100
AcDbEllipse
10
53.726545
20
-38.502697
30
0
11
1.60502396100457
21
1.64739129674805
31
0
210
0
220
0
230
1
40
0.987534
41
-0.345155953475642
42
1.6331276975248
0
ELLIPSE
5
F9
100
AcDbEntity
8
1
62
256
6
ByLayer
370
18
48
1
60
0
100
AcDbEllipse
10
53.839457
20
-37.384542
30
0
11
-1.81437491243994
21
-1.86226842241084
31
0
210
0
220
0
230
1
40
0.987534
41
-0.358200154506135
42
1.64617189855529
0
ELLIPSE
5
FA
100
AcDbEntity
8
1
62
256
6
ByLayer
370
18
48
1
60
0
100
AcDbEllipse
10
53.799913
20
-37.960096
30
0
11
1.43056483480842
21
1.46832702536239
31
0
210
0
220
0
230
1
40
0.987534
41
1.85922229845671
42
2.57034209918224
0
ELLIPSE
5
FB
100
AcDbEntity
8
1
62
256
6
ByLayer
370
18
48
1
60
0
100
AcDbEllipse
10
52.413153
20
-36.609001
30
0
11
-2.07011761240945
21
-2.12476188566912
31
0
210
0
220
0
230
1
40
0.987534
41
2.39569958081243
42
2.57344301399116
0
ELLIPSE
5
FC
100
AcDbEntity
8
1
62
256
6
ByLayer
370
18
48
1
60
0
100
AcDbEllipse
10
52.413153
20
-36.609001
30
0
11
-2.07011761240945
21
-2.12476188566912
31
0
210
0
220
0
230
1
40
0.987534
41
0.568128557658155
42
0.77884610017807
0
ELLIPSE
5
FD
100
AcDbEntity
8
1
62
256
6
ByLayer
370
18
48
1
60
0
100
AcDbEllipse
10
51.910443
20
-39.477581
30
0
11
-0.743236521476909
21
0.100496134965002
31
0
210
0
220
0
230
1
40
0.094506
41
1.46162555916843
42
2.45986682561355
0
ELLIPSE
5
FE
100
AcDbEntity
8
1
62
256
6
ByLayer
370
18
48
1
60
0
100
AcDbEllipse
10
52.413153
20
-36.609001
30
0
11
-1.98883403863609
21
-2.04133269379649
31
0
210
0
220
0
230
1
40
0.987534
41
2.48103667899873
42
2.61033144127994
0
ELLIPSE
5
FF
100
AcDbEntity
8
1
62
256
6
ByLayer
370
18
48
1
60
0
100
AcDbEllipse
10
52.413153
20
-36.609001
30
0
11
-1.98883403863609
21
-2.04133269379649
31
0
210
0
220
0
230
1
40
0.987534
41
0.531237106419731
42
0.623697033631012
0
ELLIPSE
5
100
100
AcDbEntity
8
1
62
256
6
ByLayer
370
18
48
1
60
0
100
AcDbEllipse
10
53.10645
20
-37.898549
30
0
11
1.81437491243994
21
1.86226842241084
31
0
210
0
220
0
230
1
40
0.987534
41
4.50208707387499E-06
42
0.295427974417335
0
ELLIPSE
5
101
100
AcDbEntity
8
1
62
256
6
ByLayer
370
18
48
1
60
0
100
AcDbEllipse
10
53.766089
20
-37.927143
30
0
11
-1.6399157862438
21
-1.68320415102518
31
0
210
0
220
0
230
1
40
0.987534
41
-0.779605793836933
42
-0.556717464621931
0
ELLIPSE
5
102
100
AcDbEntity
8
1
62
256
6
ByLayer
370
18
48
1
60
0
100
AcDbEllipse
10
53.692722
20
-38.469743
30
0
11
-1.81437491243994
21
-1.86226842241084
31
0
210
0
220
0
230
1
40
0.987534
41
2.78339249908366
42
-1.66159581697612
0
ELLIPSE
5
103
100
AcDbEntity
8
1
62
256
6
ByLayer
370
18
48
1
60
0
100
AcDbEllipse
10
38.782415
20
-36.321371
30
0
11
1.08513576494004
21
1.11377976801879
31
0
210
0
220
0
230
1
40
0.987534
41
-1.67193793297371
42
-1.22888052776353
0
ELLIPSE
5
104
100
AcDbEntity
8
1
62
256
6
ByLayer
370
18
48
1
60
0
100
AcDbEllipse
10
38.782415
20
-36.321371
30
0
11
1.08513576494004
21
1.11377976801879
31
0
210
0
220
0
230
1
40
0.987534
41
1.46965472061608
42
1.91271212582627
0
ELLIPSE
5
105
100
AcDbEntity
8
1
62
256
6
ByLayer
370
18
48
1
60
0
100
AcDbEllipse
10
38.806655
20
-36.344988
30
0
11
-2.25750109297816
21
-2.31709167173041
31
0
210
0
220
0
230
1
40
0.987534
41
0
42
6.28318530717959
0
ELLIPSE
5
106
100
AcDbEntity
8
1
62
256
6
ByLayer
370
18
48
1
60
0
100
AcDbEllipse
10
38.355676
20
-35.905608
30
0
11
1.08513576494004
21
1.11377976801879
31
0
210
0
220
0
230
1
40
0.987534
41
-0.181682976566916
42
-0.0737497442195363
0
ELLIPSE
5
107
100
AcDbEntity
8
1
62
256
6
ByLayer
370
18
48
1
60
0
100
AcDbEllipse
10
38.355676
20
-35.905608
30
0
11
1.08513576494004
21
1.11377976801879
31
0
210
0
220
0
230
1
40
0.987534
41
-2.94636776416736
42
-2.71913548417031
0
ELLIPSE
5
108
100
AcDbEntity
8
1
62
256
6
ByLayer
370
18
48
1
60
0
100
AcDbEllipse
10
38.782415
20
-36.321371
30
0
11
1.08513576494004
21
1.11377976801879
31
0
210
0
220
0
230
1
40
0.987534
41
0.422457169419465
42
0.865514574629676
0
ELLIPSE
5
109
100
AcDbEntity
8
1
62
256
6
ByLayer
370
18
48
1
60
0
100
AcDbEllipse
10
38.720405
20
-36.260957
30
0
11
-2.79134601913838
21
-2.86502834217052
31
0
210
0
220
0
230
1
40
0.987534
41
0
42
6.28318530717959
0
ELLIPSE
5
10A
100
AcDbEntity
8
1
62
256
6
ByLayer
370
18
48
1
60
0
100
AcDbEllipse
10
38.782415
20
-36.321371
30
0
11
1.08513576494004
21
1.11377976801879
31
0
210
0
220
0
230
1
40
0.987534
41
-2.7191354841703
42
-2.27607807896013
0
ELLIPSE
5
10B
100
AcDbEntity
8
1
62
256
6
ByLayer
370
18
48
1
60
0
100
AcDbEllipse
10
38.242932
20
-35.795762
30
0
11
1.08513576494004
21
1.11377976801879
31
0
210
0
220
0
230
1
40
0.987534
41
-2.89375355746273
42
-0.166163632018602
0
ELLIPSE
5
10C
100
AcDbEntity
8
1
62
256
6
ByLayer
370
18
48
1
60
0
100
AcDbEllipse
10
38.355676
20
-35.905608
30
0
11
1.08513576494004
21
1.11377976801879
31
0
210
0
220
0
230
1
40
0.987534
41
-1.22888052776353
42
-0.624740381777117
0
ELLIPSE
5
10D
100
AcDbEntity
8
1
62
256
6
ByLayer
370
18
48
1
60
0
100
AcDbEllipse
10
38.782415
20
-36.321371
30
0
11
1.08513576494004
21
1.11377976801879
31
0
210
0
220
0
230
1
40
0.987534
41
2.51685227181267
42
2.95990967702286
0
ELLIPSE
5
10E
100
AcDbEntity
8
1
62
256
6
ByLayer
370
18
48
1
60
0
100
AcDbEllipse
10
38.806655
20
-36.344988
30
0
11
-1.34500374549763
21
-1.38050740565861
31
0
210
0
220
0
230
1
40
0.987534
41
0
42
6.28318530717959
0
ELLIPSE
5
10F
100
AcDbEntity
8
1
62
256
6
ByLayer
370
18
48
1
60
0
100
AcDbEllipse
10
38.782415
20
-36.321371
30
0
11
1.08513576494004
21
1.11377976801879
31
0
210
0
220
0
230
1
40
0.987534
41
-0.624740381777107
42
-0.181682976566916
0
ELLIPSE
5
110
100
AcDbEntity
8
1
62
256
6
ByLayer
370
18
48
1
60
0
100
AcDbEllipse
10
38.355676
20
-35.905608
30
0
11
1.08513576494004
21
1.11377976801879
31
0
210
0
220
0
230
1
40
0.987534
41
-2.27607807896014
42
-1.67193793297371
0
ELLIPSE
5
111
100
AcDbEntity
8
1
62
256
6
ByLayer
370
13
48
1
60
0
100
AcDbEllipse
10
43.044643
20
-31.374112
30
0
11
-0.553907725672321
21
-0.568529061649
31
0
210
0
220
0
230
1
40
0.987534
41
-2.42779361148545
42
-1.05273380226923
0
ELLIPSE
5
112
100
AcDbEntity
8
1
62
256
6
ByLayer
370
13
48
1
60
0
100
AcDbEllipse
10
56.495676
20
-32.07905
30
0
11
-0.553907725672321
21
-0.568529061649
31
0
210
0
220
0
230
1
40
0.987534
41
3.14159257807088
42
-2.42779361148544
0
ELLIPSE
5
113
100
AcDbEntity
8
1
62
256
6
ByLayer
370
13
48
1
60
0
100
AcDbEllipse
10
53.985941
20
-38.141341
30
0
11
1.79902250933444
21
1.84651076652865
31
0
210
0
220
0
230
1
40
0.987534
41
0
42
6.28318530717959
0
ELLIPSE
5
114
100
AcDbEntity
8
1
62
256
6
ByLayer
370
13
48
1
60
0
100
AcDbEllipse
10
50.760278
20
-43.506114
30
0
11
0.553907725672321
21
0.568529061649
31
0
210
0
220
0
230
1
40
0.987534
41
2.89546060709726
42
-2.42779361148546
0
ELLIPSE
5
115
100
AcDbEntity
8
1
62
256
6
ByLayer
370
13
48
1
60
0
100
AcDbEllipse
10
57.211604
20
-32.776567
30
0
11
0.553907725672321
21
0.568529061649
31
0
210
0
220
0
230
1
40
0.987534
41
-0.246132046492534
42
0.713799042104344
0
ELLIPSE
5
116
100
AcDbEntity
8
1
62
256
6
ByLayer
370
13
48
1
60
0
100
AcDbEllipse
10
64.211311
20
-44.211053
30
0
11
0.553907725672321
21
0.568529061649
31
0
210
0
220
0
230
1
40
0.987534
41
-2.42779361148546
42
-0.246132046492514
0
ELLIPSE
5
117
100
AcDbEntity
8
1
62
256
6
ByLayer
370
13
48
1
60
0
100
AcDbEllipse
10
50.04435
20
-42.808598
30
0
11
-0.553907725672321
21
-0.568529061649
31
0
210
0
220
0
230
1
40
0.987534
41
-0.246132046492543
42
4.10353307402339E-07
0
ELLIPSE
5
118
100
AcDbEntity
8
1
62
256
6
ByLayer
370
13
48
1
60
0
100
AcDbEllipse
10
43.760572
20
-32.071628
30
0
11
0.553907725672321
21
0.568529061649
31
0
210
0
220
0
230
1
40
0.987534
41
0.713799042104348
42
2.89546060709726
0
ELLIPSE
5
119
100
AcDbEntity
8
1
62
256
6
ByLayer
370
13
48
1
60
0
100
AcDbEllipse
10
53.270013
20
-37.443824
30
0
11
1.79902250933443
21
1.84651076652864
31
0
210
0
220
0
230
1
40
0.987534
41
-2.94392098325667
42
-2.19828343574266
0
ELLIPSE
5
11A
100
AcDbEntity
8
1
62
256
6
ByLayer
370
13
48
1
60
0
100
AcDbEllipse
10
53.270013
20
-37.443824
30
0
11
1.79902250933443
21
1.84651076652864
31
0
210
0
220
0
230
1
40
0.987534
41
-0.602158336189429
42
-0.19767820865308
0
ELLIPSE
5
11B
100
AcDbEntity
8
1
62
256
6
ByLayer
370
18
48
1
60
0
100
AcDbEllipse
10
211.939119
20
0
30
0
11
278.932664426704
21
3.54396673496443
31
0
210
0
220
0
230
1
40
0.112755
41
-2.30196569873944
42
-2.26464219464851
0
ELLIPSE
5
11C
100
AcDbEntity
8
1
62
256
6
ByLayer
370
18
48
1
60
0
100
AcDbEllipse
10
42.433763
20
-22.901891
30
0
11
2.09350951435378
21
2.14877125662789
31
0
210
0
220
0
230
1
40
0.987534
41
-2.41464327552781
42
-1.78606625277689
0
ELLIPSE
5
11D
100
AcDbEntity
8
1
62
256
6
ByLayer
370
18
48
1
60
0
100
AcDbEllipse
10
41.075351
20
-21.578415
30
0
11
-3.21004792200913
21
-3.2947825934961
31
0
210
0
220
0
230
1
40
0.987534
41
0.726949378062005
42
1.11288593641332
0
ELLIPSE
5
11E
100
AcDbEntity
8
1
62
256
6
ByLayer
370
18
48
1
60
0
100
AcDbEllipse
10
-2.347154
20
0
30
0
11
14.7536831606561
21
31.093254915581
31
0
210
0
220
0
230
1
40
0.341999
41
-1.09123958575283
42
-0.157806186645435
0
ELLIPSE
5
11F
100
AcDbEntity
8
1
62
256
6
ByLayer
370
18
48
1
60
0
100
AcDbEllipse
10
26.347154
20
0
30
0
11
14.7536831606567
21
31.0932549155813
31
0
210
0
220
0
230
1
40
0.341999
41
2.05035306783698
42
2.98378646694436
0
ELLIPSE
5
120
100
AcDbEntity
8
1
62
256
6
ByLayer
370
18
48
1
60
0
100
AcDbEllipse
10
47.205577
20
-34.560967
30
0
11
1.81437491243994
21
1.86226842241084
31
0
210
0
220
0
230
1
40
0.987534
41
2.55412283489789
42
2.89546060709725
0
ELLIPSE
5
121
100
AcDbEntity
8
1
62
256
6
ByLayer
370
18
48
1
60
0
100
AcDbEllipse
10
40.22607
20
-65.608929
30
0
11
27.9134601913837
21
28.6502834217052
31
0
210
0
220
0
230
1
40
0.987534
41
0.726949378061992
42
0.939272810415737
0
ELLIPSE
5
122
100
AcDbEntity
8
1
62
256
6
ByLayer
370
18
48
1
60
0
100
AcDbEllipse
10
48.835717
20
-37.223909
30
0
11
1.81437491243996
21
1.86226842241085
31
0
210
0
220
0
230
1
40
0.987534
41
2.89546060709725
42
-3.04638692788296
0
ELLIPSE
5
123
100
AcDbEntity
8
1
62
256
6
ByLayer
370
18
48
1
60
0
100
AcDbEllipse
10
105.072193
20
-0.000344
30
0
11
277.60902606448
21
3.52704825768961
31
0
210
0
220
0
230
1
40
0.112754
41
-1.88058807921047
42
-1.87507249710599
0
ELLIPSE
5
124
100
AcDbEntity
8
1
62
256
6
ByLayer
370
18
48
1
60
0
100
AcDbEllipse
10
29.010546
20
0
30
0
11
1.00420255791752
21
31.4988669355908
31
0
210
0
220
0
230
1
40
0.266056
41
1.04242167704795
42
2.33768738514727
0
ELLIPSE
5
125
100
AcDbEntity
8
1
62
256
6
ByLayer
370
18
48
1
60
0
100
AcDbEllipse
10
44.443729
20
-30.145
30
0
11
1.67480761148303
21
1.71901700530231
31
0
210
0
220
0
230
1
40
0.987534
41
1.43827488114104
42
2.89546060709724
0
ELLIPSE
5
126
100
AcDbEntity
8
1
62
256
6
ByLayer
370
18
48
1
60
0
100
AcDbEllipse
10
38.867658
20
-64.285453
30
0
11
26.7969217837284
21
27.504272084837
31
0
210
0
220
0
230
1
40
0.987534
41
0.726949378062008
42
1.2713745535639
0
ELLIPSE
5
127
100
AcDbEntity
8
1
62
256
6
ByLayer
370
18
48
1
60
0
100
AcDbEllipse
10
45.054467
20
-29.649839
30
0
11
-1.75515773520034
21
-1.80148810711794
31
0
210
0
220
0
230
1
40
0.987534
41
2.89546060709726
42
-1.38535746035304
0
ELLIPSE
5
128
100
AcDbEntity
8
1
62
256
6
ByLayer
370
18
48
1
60
0
100
AcDbEllipse
10
41.019571
20
-26.322827
30
0
11
0.0626865939572257
21
1.59877152555893
31
0
210
0
220
0
230
1
40
0.117616
41
1.27595123686384
42
1.46525697858413
0
ELLIPSE
5
129
100
AcDbEntity
8
1
62
256
6
ByLayer
370
18
48
1
60
0
100
AcDbEllipse
10
-2.347154
20
0
30
0
11
14.753683160655
21
-31.0932549155796
31
0
210
0
220
0
230
1
40
0.341999
41
0.157806186645442
42
1.09123958575286
0
ELLIPSE
5
12A
100
AcDbEntity
8
1
62
256
6
ByLayer
370
18
48
1
60
0
100
AcDbEllipse
10
22.382119
20
7.66867
30
0
11
-27.9134601913838
21
-28.6502834217052
31
0
210
0
220
0
230
1
40
0.987534
41
1.3555264008129
42
1.5188672938964
0
ELLIPSE
5
12B
100
AcDbEntity
8
1
62
256
6
ByLayer
370
18
48
1
60
0
100
AcDbEllipse
10
26.347154
20
0
30
0
11
14.753683160657
21
-31.0932549155818
31
0
210
0
220
0
230
1
40
0.341999
41
-2.98378646694437
42
-2.05035306783699
0
POINT
5
70
100
AcDbEntity
8
2
62
256
6
ByLayer
370
18
48
1
60
0
100
AcDbPoint
10
37.267277
20
-34.8452
30
0
39
0
210
0
220
0
230
1
50
360
0
POINT
5
72
100
AcDbEntity
8
SK2
62
256
6
ByLayer
370
18
48
1
60
0
100
AcDbPoint
10
52.090343
20
-36.343391
30
0
39
0
210
0
220
0
230
1
50
360
0
POINT
5
74
100
AcDbEntity
8
2
62
256
6
ByLayer
370
18
48
1
60
0
100
AcDbPoint
10
52.90923
20
-37.09232
30
0
39
0
210
0
220
0
230
1
50
360
0
POINT
5
75
100
AcDbEntity
8
2
62
256
6
ByLayer
370
18
48
1
60
0
100
AcDbPoint
10
53.985941
20
-38.141341
30
0
39
0
210
0
220
0
230
1
50
360
0
POINT
5
76
100
AcDbEntity
8
2
62
256
6
ByLayer
370
18
48
1
60
0
100
AcDbPoint
10
53.985941
20
-38.141341
30
0
39
0
210
0
220
0
230
1
50
360
0
POINT
5
77
100
AcDbEntity
8
2
62
256
6
ByLayer
370
18
48
1
60
0
100
AcDbPoint
10
0
20
0
30
0
39
0
210
0
220
0
230
1
50
360
0
POINT
5
78
100
AcDbEntity
8
2
62
256
6
ByLayer
370
18
48
1
60
0
100
AcDbPoint
10
38.676275
20
36.217961
30
0
39
0
210
0
220
0
230
1
50
360
0
POINT
5
79
100
AcDbEntity
8
2
62
256
6
ByLayer
370
18
48
1
60
0
100
AcDbPoint
10
52.912049
20
37.095066
30
0
39
0
210
0
220
0
230
1
50
360
0
POINT
5
7A
100
AcDbEntity
8
2
62
256
6
ByLayer
370
18
48
1
60
0
100
AcDbPoint
10
53.985941
20
38.141341
30
0
39
0
210
0
220
0
230
1
50
360
0
POINT
5
7B
100
AcDbEntity
8
2
62
256
6
ByLayer
370
18
48
1
60
0
100
AcDbPoint
10
53.985941
20
38.141341
30
0
39
0
210
0
220
0
230
1
50
360
0
POINT
5
7C
100
AcDbEntity
8
2
62
256
6
ByLayer
370
18
48
1
60
0
100
AcDbPoint
10
34.856606
20
10.909
30
0
39
0
210
0
220
0
230
1
50
360
0
POINT
5
7D
100
AcDbEntity
8
2
62
256
6
ByLayer
370
18
48
1
60
0
100
AcDbPoint
10
0
20
3.5
30
0
39
0
210
0
220
0
230
1
50
360
0
POINT
5
7E
100
AcDbEntity
8
2
62
256
6
ByLayer
370
18
48
1
60
0
100
AcDbPoint
10
44.114357
20
22.575063
30
0
39
0
210
0
220
0
230
1
50
360
0
POINT
5
7F
100
AcDbEntity
8
SK2
62
256
6
ByLayer
370
18
48
1
60
0
100
AcDbPoint
10
37.169609
20
11.400644
30
0
39
0
210
0
220
0
230
1
50
360
0
POINT
5
80
100
AcDbEntity
8
SK2
62
256
6
ByLayer
370
18
48
1
60
0
100
AcDbPoint
10
43.259866
20
26.165217
30
0
39
0
210
0
220
0
230
1
50
360
0
POINT
5
81
100
AcDbEntity
8
2
62
256
6
ByLayer
370
18
48
1
60
0
100
AcDbPoint
10
37.601561
20
11.049361
30
0
39
0
210
0
220
0
230
1
50
360
0
POINT
5
82
100
AcDbEntity
8
SK2
62
256
6
ByLayer
370
18
48
1
60
0
100
AcDbPoint
10
62.147392
20
40.839505
30
0
39
0
210
0
220
0
230
1
50
360
0
POINT
5
83
100
AcDbEntity
8
SK2
62
256
6
ByLayer
370
18
48
1
60
0
100
AcDbPoint
10
63.282548
20
42.693856
30
0
39
0
210
0
220
0
230
1
50
360
0
POINT
5
84
100
AcDbEntity
8
SK2
62
256
6
ByLayer
370
18
48
1
60
0
100
AcDbPoint
10
60.245168
20
44.003196
30
0
39
0
210
0
220
0
230
1
50
360
0
POINT
5
85
100
AcDbEntity
8
SK2
62
256
6
ByLayer
370
18
48
1
60
0
100
AcDbPoint
10
62.426547
20
44.117518
30
0
39
0
210
0
220
0
230
1
50
360
0
POINT
5
86
100
AcDbEntity
8
SK2
62
256
6
ByLayer
370
18
48
1
60
0
100
AcDbPoint
10
64.211311
20
44.211053
30
0
39
0
210
0
220
0
230
1
50
360
0
POINT
5
87
100
AcDbEntity
8
2
62
256
6
ByLayer
370
18
48
1
60
0
100
AcDbPoint
10
53.985941
20
38.141341
30
0
39
0
210
0
220
0
230
1
50
360
0
POINT
5
88
100
AcDbEntity
8
2
62
256
6
ByLayer
370
18
48
1
60
0
100
AcDbPoint
10
53.985941
20
38.141341
30
0
39
0
210
0
220
0
230
1
50
360
0
POINT
5
89
100
AcDbEntity
8
81
62
256
6
ByLayer
370
70
48
1
60
0
100
AcDbPoint
10
65
20
-45
30
0
39
0
210
0
220
0
230
1
50
360
0
POINT
5
8B
100
AcDbEntity
8
80
62
256
6
ByLayer
370
70
48
1
60
0
100
AcDbPoint
10
0
20
0
30
0
39
0
210
0
220
0
230
1
50
360
0
POINT
5
8D
100
AcDbEntity
8
1
62
256
6
ByLayer
370
18
48
1
60
1
100
AcDbPoint
10
65
20
-45
30
0
39
0
210
0
220
0
230
1
50
360
0
POINT
5
8F
100
AcDbEntity
8
1
62
256
6
ByLayer
370
18
48
1
60
1
100
AcDbPoint
10
50
20
0
30
0
39
0
210
0
220
0
230
1
50
360
0
POINT
5
90
100
AcDbEntity
8
1
62
256
6
ByLayer
370
18
48
1
60
1
100
AcDbPoint
10
0
20
-31.5
30
0
39
0
210
0
220
0
230
1
50
360
0
POINT
5
91
100
AcDbEntity
8
1
62
256
6
ByLayer
370
18
48
1
60
1
100
AcDbPoint
10
65
20
-45
30
0
39
0
210
0
220
0
230
1
50
360
0
SPLINE
5
12C
100
AcDbEntity
8
1
62
256
6
ByLayer
370
18
48
1
60
0
100
AcDbSpline
70
4
71
3
72
8
73
4
40
0
40
0
40
0
40
0
40
1
40
1
40
1
40
1
41
1
10
56.0366893787653
20
-37.3538447707127
30
0
41
1
10
55.9536220891925
20
-37.3988360200735
30
0
41
1
10
55.8705138550302
20
-37.4438058454781
30
0
41
1
10
55.7873448772387
20
-37.4887438200527
30
0
0
SPLINE
5
12D
100
AcDbEntity
8
1
62
256
6
ByLayer
370
18
48
1
60
0
100
AcDbSpline
70
4
71
3
72
8
73
4
40
0
40
0
40
0
40
0
40
1
40
1
40
1
40
1
41
1
10
51.8124805890263
20
-38.4314487100402
30
0
41
1
10
51.706771553796
20
-38.4544263086294
30
0
41
1
10
51.6011133001407
20
-38.4774260521968
30
0
41
1
10
51.4954892945956
20
-38.50044069546
30
0
0
SPLINE
5
12E
100
AcDbEntity
8
1
62
256
6
ByLayer
370
18
48
1
60
0
100
AcDbSpline
70
4
71
3
72
8
73
4
40
0
40
0
40
0
40
0
40
1
40
1
40
1
40
1
41
1
10
55.5969536515226
20
-38.8968150097576
30
0
41
1
10
55.6680005718404
20
-38.9415278046682
30
0
41
1
10
55.7389813909299
20
-38.9862483717985
30
0
41
1
10
55.8099176640589
20
-39.0309741495332
30
0
0
SPLINE
5
12F
100
AcDbEntity
8
1
62
256
6
ByLayer
370
18
48
1
60
0
100
AcDbSpline
70
4
71
3
72
10
73
6
40
0
40
0
40
0
40
0
40
0.252353247498643
40
0.252353247498643
40
1
40
1
40
1
40
1
41
1
10
51.7522780228666
20
-39.3263082043393
30
0
41
1
10
51.8079389058432
20
-39.3379936284428
30
0
41
1
10
51.8630119979474
20
-39.3496656840471
30
0
41
1
10
52.0790180920822
20
-39.3958677650833
30
0
41
1
10
52.2360341672493
20
-39.4303087053728
30
0
41
1
10
52.3855681966359
20
-39.4645794767676
30
0
0
SPLINE
5
130
100
AcDbEntity
8
1
62
256
6
ByLayer
370
18
48
1
60
0
100
AcDbSpline
70
4
71
3
72
12
73
8
40
0
40
0
40
0
40
0
40
0.120108820820871
40
0.120108820820871
40
0.854141574200687
40
0.854141574200687
40
1
40
1
40
1
40
1
41
1
10
51.5364815652753
20
-38.7575984149387
30
0
41
1
10
51.5418237126107
20
-38.7639031819818
30
0
41
1
10
51.5471819431721
20
-38.770152135775
30
0
41
1
10
51.5853897376961
20
-38.8141888303632
30
0
41
1
10
51.6187343489563
20
-38.8498530952404
30
0
41
1
10
51.6580172498504
20
-38.8891235177665
30
0
41
1
10
51.6645253491216
20
-38.8955320406424
30
0
41
1
10
51.6710149289801
20
-38.9018318967693
30
0
0
SPLINE
5
131
100
AcDbEntity
8
1
62
256
6
ByLayer
370
18
48
1
60
0
100
AcDbSpline
70
4
71
3
72
16
73
12
40
0
40
0
40
0
40
0
40
0.0531894190671831
40
0.0531894190671831
40
0.269002407341923
40
0.269002407341923
40
0.700628383891407
40
0.700628383891407
40
0.916441372166149
40
0.916441372166149
40
1
40
1
40
1
40
1
41
1
10
55.3144981281424
20
-36.4375102462594
30
0
41
1
10
55.3089622379003
20
-36.4246084860798
30
0
41
1
10
55.303309230999
20
-36.4116786514999
30
0
41
1
10
55.2741109383085
20
-36.3462170709484
30
0
41
1
10
55.2485785995767
20
-36.2931864945957
30
0
41
1
10
55.1666060375833
20
-36.1365145319423
30
0
41
1
10
55.1050799424896
20
-36.03562734735
30
0
41
1
10
55.001892500852
20
-35.8907678116566
30
0
41
1
10
54.9656802942053
20
-35.8435511496949
30
0
41
1
10
54.9128352456988
20
-35.7796396429969
30
0
41
1
10
54.8977836406642
20
-35.7619551819073
30
0
41
1
10
54.8824717331852
20
-35.7444747472217
30
0
0
SPLINE
5
132
100
AcDbEntity
8
1
62
256
6
ByLayer
370
18
48
1
60
0
100
AcDbSpline
70
4
71
3
72
8
73
4
40
0
40
0
40
0
40
0
40
1
40
1
40
1
40
1
41
1
10
51.8183000763182
20
-36.8918158187834
30
0
41
1
10
51.8798031775306
20
-36.9356761893826
30
0
41
1
10
51.9413253563426
20
-36.9795306343977
30
0
41
1
10
52.0028718147424
20
-37.0233775203353
30
0
0
SPLINE
5
133
100
AcDbEntity
8
1
62
256
6
ByLayer
370
18
48
1
60
0
100
AcDbSpline
70
4
71
3
72
10
73
6
40
0
40
0
40
0
40
0
40
0.5
40
0.5
40
1
40
1
40
1
40
1
41
1
10
38.135199826316
20
-34.731209052014
30
0
41
1
10
38.0790515125259
20
-34.7980315612996
30
0
41
1
10
38.0223978874469
20
-34.8661557318047
30
0
41
1
10
37.9096671827565
20
-35.0035060582156
30
0
41
1
10
37.8535433829216
20
-35.0727856832468
30
0
41
1
10
37.7977060382886
20
-35.142782134752
30
0
0
SPLINE
5
134
100
AcDbEntity
8
1
62
256
6
ByLayer
370
18
48
1
60
0
100
AcDbSpline
70
4
71
3
72
10
73
6
40
0
40
0
40
0
40
0
40
0.5
40
0.5
40
1
40
1
40
1
40
1
41
1
10
39.4552347482418
20
-37.9364802143792
30
0
41
1
10
39.5056757565127
20
-37.8640971791098
30
0
41
1
10
39.5571849235114
20
-37.7909608548428
30
0
41
1
10
39.661253663349
20
-37.6451713305524
30
0
41
1
10
39.7138533366677
20
-37.5724582119055
30
0
41
1
10
39.7671233987945
20
-37.4999605028391
30
0
0
SPLINE
5
135
100
AcDbEntity
8
1
62
256
6
ByLayer
370
18
48
1
60
0
100
AcDbSpline
70
4
71
3
72
10
73
6
40
0
40
0
40
0
40
0
40
0.5
40
0.5
40
1
40
1
40
1
40
1
41
1
10
38.2436395436872
20
-37.7765946489603
30
0
41
1
10
38.1558816366143
20
-37.7669044983054
30
0
41
1
10
38.0683902005987
20
-37.7576729135473
30
0
41
1
10
37.8973609574444
20
-37.7403335688384
30
0
41
1
10
37.8133494161092
20
-37.7321703823451
30
0
41
1
10
37.7304790131283
20
-37.7243917198618
30
0
0
SPLINE
5
136
100
AcDbEntity
8
1
62
256
6
ByLayer
370
18
48
1
60
0
100
AcDbSpline
70
4
71
3
72
10
73
6
40
0
40
0
40
0
40
0
40
0.5
40
0.5
40
1
40
1
40
1
40
1
41
1
10
37.0704615521654
20
-36.1217561386793
30
0
41
1
10
37.1006445692713
20
-36.1991945755577
30
0
41
1
10
37.131596696935
20
-36.2780913858239
30
0
41
1
10
37.1944612978691
20
-36.4370341866102
30
0
41
1
10
37.2263973707822
20
-36.5171422932973
30
0
41
1
10
37.2589308634342
20
-36.5980054649168
30
0
0
SPLINE
5
137
100
AcDbEntity
8
1
62
256
6
ByLayer
370
18
48
1
60
0
100
AcDbSpline
70
4
71
3
72
10
73
6
40
0
40
0
40
0
40
0
40
0.5
40
0.5
40
1
40
1
40
1
40
1
41
1
10
39.8599555614295
20
-34.9432975465313
30
0
41
1
10
39.7711657530834
20
-34.9299607139633
30
0
41
1
10
39.6817723202646
20
-34.9167942938631
30
0
41
1
10
39.5013897082464
20
-34.8909119573962
30
0
41
1
10
39.41097022622
20
-34.878282347499
30
0
41
1
10
39.321189893396
20
-34.8661479886308
30
0
0
SPLINE
5
138
100
AcDbEntity
8
1
62
256
6
ByLayer
370
18
48
1
60
0
100
AcDbSpline
70
4
71
3
72
8
73
4
40
0
40
0
40
0
40
0
40
1
40
1
40
1
40
1
41
1
10
37.5164045643848
20
-37.2231957648223
30
0
41
1
10
37.5877449657624
20
-37.3926293973144
30
0
41
1
10
37.6591058034305
20
-37.5593360182746
30
0
41
1
10
37.7304790131283
20
-37.7243917198618
30
0
0
SPLINE
5
139
100
AcDbEntity
8
1
62
256
6
ByLayer
370
18
48
1
60
0
100
AcDbSpline
70
4
71
3
72
10
73
6
40
0
40
0
40
0
40
0
40
0.5
40
0.5
40
1
40
1
40
1
40
1
41
1
10
38.6483603568749
20
-34.7834119811125
30
0
41
1
10
38.560602449802
20
-34.7737218304575
30
0
41
1
10
38.4731110137865
20
-34.7644902456995
30
0
41
1
10
38.3020817706322
20
-34.7471509009905
30
0
41
1
10
38.218070229297
20
-34.7389877144972
30
0
41
1
10
38.135199826316
20
-34.731209052014
30
0
0
SPLINE
5
13A
100
AcDbEntity
8
1
62
256
6
ByLayer
370
18
48
1
60
0
100
AcDbSpline
70
4
71
3
72
8
73
4
40
0
40
0
40
0
40
0
40
1
40
1
40
1
40
1
41
1
10
40.0484248726983
20
-35.4195468727688
30
0
41
1
10
39.9823023322831
20
-35.2551969091576
30
0
41
1
10
39.9199789507903
20
-35.0972953205758
30
0
41
1
10
39.8599555614295
20
-34.9432975465313
30
0
0
SPLINE
5
13B
100
AcDbEntity
8
1
62
256
6
ByLayer
370
18
48
1
60
0
100
AcDbSpline
70
4
71
3
72
8
73
4
40
0
40
0
40
0
40
0
40
1
40
1
40
1
40
1
41
1
10
37.3823502027181
20
-35.6852364271392
30
0
41
1
10
37.2740817215695
20
-35.8325840466838
30
0
41
1
10
37.1707709502809
20
-35.9778117777211
30
0
41
1
10
37.0704615521654
20
-36.1217561386793
30
0
0
SPLINE
5
13C
100
AcDbEntity
8
1
62
256
6
ByLayer
370
18
48
1
60
0
100
AcDbSpline
70
4
71
3
72
10
73
6
40
0
40
0
40
0
40
0
40
0.5
40
0.5
40
1
40
1
40
1
40
1
41
1
10
40.5199730223924
20
-36.5459331277139
30
0
41
1
10
40.4840826997673
20
-36.4629341648516
30
0
41
1
10
40.4479861140233
20
-36.3790252008236
30
0
41
1
10
40.3764595482364
20
-36.2116432021578
30
0
41
1
10
40.3409993488072
20
-36.128101601855
30
0
41
1
10
40.3058985736489
20
-36.0447371726743
30
0
0
SPLINE
5
13D
100
AcDbEntity
8
1
62
256
6
ByLayer
370
18
48
1
60
0
100
AcDbSpline
70
4
71
3
72
8
73
4
40
0
40
0
40
0
40
0
40
1
40
1
40
1
40
1
41
1
10
40.182479234365
20
-36.9575062104519
30
0
41
1
10
40.295965576476
20
-36.8152422597881
30
0
41
1
10
40.4083138039399
20
-36.6788195611293
30
0
41
1
10
40.5199730223924
20
-36.5459331277139
30
0
0
SPLINE
5
13E
100
AcDbEntity
8
1
62
256
6
ByLayer
370
18
48
1
60
0
100
AcDbSpline
70
4
71
3
72
10
73
6
40
0
40
0
40
0
40
0
40
0.5
40
0.5
40
1
40
1
40
1
40
1
41
1
10
39.4552347482418
20
-37.9364802143792
30
0
41
1
10
39.3664449398956
20
-37.9231433818112
30
0
41
1
10
39.2770515070769
20
-37.9099769617109
30
0
41
1
10
39.0966688950587
20
-37.8840946252441
30
0
41
1
10
39.0062494130323
20
-37.8714650153469
30
0
41
1
10
38.9164690802082
20
-37.8593306564786
30
0
0
SPLINE
5
13F
100
AcDbEntity
8
SK1
62
256
6
ByLayer
370
18
48
1
60
0
100
AcDbSpline
70
4
71
3
72
26
73
22
40
0
40
0
40
0
40
0
40
0.0312499999999998
40
0.0312499999999998
40
0.0624999999999998
40
0.0624999999999998
40
0.0937499999999997
40
0.0937499999999997
40
0.125
40
0.125
40
0.1875
40
0.1875
40
0.25
40
0.25
40
0.374999999999999
40
0.374999999999999
40
0.499999999999998
40
0.499999999999998
40
0.749999999999999
40
0.749999999999999
40
1
40
1
40
1
40
1
41
1
10
-0.394913799811292
20
6.32721828439901
30
0
41
1
10
-0.388651860853344
20
6.32169800880934
30
0
41
1
10
-0.381850124236081
20
6.31686284615006
30
0
41
1
10
-0.366577726601435
20
6.31005499812107
30
0
41
1
10
-0.357929669282484
20
6.30825311318182
30
0
41
1
10
-0.340967609456655
20
6.31005507464135
30
0
41
1
10
-0.332669805034101
20
6.31363504737985
30
0
41
1
10
-0.31822232846153
20
6.32386838427445
30
0
41
1
10
-0.312078412289921
20
6.33025774259031
30
0
41
1
10
-0.295589616969295
20
6.35108461281939
30
0
41
1
10
-0.287365755981312
20
6.36675955901518
30
0
41
1
10
-0.27323621273078
20
6.3985772093198
30
0
41
1
10
-0.267439101060546
20
6.41481626716185
30
0
41
1
10
-0.252034596555063
20
6.46403779666809
30
0
41
1
10
-0.244399284272618
20
6.49761038234348
30
0
41
1
10
-0.231660540619686
20
6.56479252713518
30
0
41
1
10
-0.226629907857017
20
6.59846295367004
30
0
41
1
10
-0.213983771374956
20
6.69957538529246
30
0
41
1
10
-0.208808543904553
20
6.76684756094051
30
0
41
1
10
-0.201942367211231
20
6.90082001005126
30
0
41
1
10
-0.200331074104739
20
6.96758473110461
30
0
41
1
10
-0.200000000000003
20
7.03415845154797
30
0
0
SPLINE
5
140
100
AcDbEntity
8
SK1
62
256
6
ByLayer
370
18
48
1
60
0
100
AcDbSpline
70
4
71
3
72
26
73
22
40
0
40
0
40
0
40
0
40
0.0625000000000007
40
0.0625000000000007
40
0.093750000000001
40
0.093750000000001
40
0.125000000000001
40
0.125000000000001
40
0.187500000000002
40
0.187500000000002
40
0.250000000000003
40
0.250000000000003
40
0.312500000000004
40
0.312500000000004
40
0.375000000000005
40
0.375000000000005
40
0.500000000000003
40
0.500000000000003
40
0.750000000000002
40
0.750000000000002
40
1
40
1
40
1
40
1
41
1
10
-0.394913799811292
20
-6.32722135062522
30
0
41
1
10
-0.427672788643832
20
-6.3561003895035
30
0
41
1
10
-0.464893989702375
20
-6.38107100049211
30
0
41
1
10
-0.530471361560501
20
-6.40147524378972
30
0
41
1
10
-0.553245972254473
20
-6.40502240224973
30
0
41
1
10
-0.599687731218594
20
-6.40423336369165
30
0
41
1
10
-0.622102468665219
20
-6.39998734213981
30
0
41
1
10
-0.68735382070237
20
-6.37772088294383
30
0
41
1
10
-0.724939898133925
20
-6.35151567711236
30
0
41
1
10
-0.789394425857822
20
-6.29356478838184
30
0
41
1
10
-0.817121234833081
20
-6.2611484240964
30
0
41
1
10
-0.867964363687605
20
-6.19272059446334
30
0
41
1
10
-0.890745707221569
20
-6.15690597798837
30
0
41
1
10
-0.932473247849742
20
-6.08444613540038
30
0
41
1
10
-0.951537336733779
20
-6.0475612269523
30
0
41
1
10
-1.00507947149285
20
-5.93551305897722
30
0
41
1
10
-1.03597558707763
20
-5.85897875620614
30
0
41
1
10
-1.12035621530214
20
-5.62583403983149
30
0
41
1
10
-1.16566607649324
20
-5.46540943550505
30
0
41
1
10
-1.24445474088377
20
-5.14127607213081
30
0
41
1
10
-1.27776094215345
20
-4.97711562958054
30
0
41
1
10
-1.30710678118655
20
-4.8111517782514
30
0
0
SPLINE
5
141
100
AcDbEntity
8
SK1
62
256
6
ByLayer
370
18
48
1
60
0
100
AcDbSpline
70
4
71
3
72
49
73
45
40
0
40
0
40
0
40
0
40
0.0160115520767502
40
0.0444814593620364
40
0.0729513666473226
40
0.101421273932609
40
0.129891181217895
40
0.158361088503181
40
0.215300903073754
40
0.24377081035904
40
0.272240717644326
40
0.300710624929612
40
0.329180532214899
40
0.357650439500185
40
0.386120346785471
40
0.414590254070757
40
0.4288252077134
40
0.443060161356043
40
0.457295114998687
40
0.47153006864133
40
0.485765022283973
40
0.492882499105294
40
0.499999975926616
40
0.507117452747937
40
0.514234929569259
40
0.528469883211902
40
0.542704836854545
40
0.556939790497188
40
0.571174744139831
40
0.585409697782475
40
0.613879605067761
40
0.642349512353047
40
0.670819419638333
40
0.699289326923619
40
0.727759234208905
40
0.756229141494192
40
0.784699048779478
40
0.84163886335005
40
0.870108770635337
40
0.898578677920623
40
0.927048585205909
40
0.955518492491195
40
0.983988399776482
40
1
40
1
40
1
40
1
41
1
10
-36.5
20
21.1558710373762
30
0
41
1
10
-36.5
20
21.1495811293023
30
0
41
1
10
-36.5
20
21.1027899729656
30
0
41
1
10
-36.5
20
20.9025888554179
30
0
41
1
10
-36.5
20
20.5018750148337
30
0
41
1
10
-36.5
20
19.9491731575018
30
0
41
1
10
-36.5
20
19.2550491829544
30
0
41
1
10
-36.5
20
18.1505177013548
30
0
41
1
10
-36.5
20
16.8015894462653
30
0
41
1
10
-36.5
20
15.2144137189484
30
0
41
1
10
-36.5
20
13.9146791761936
30
0
41
1
10
-36.5
20
12.5065639108223
30
0
41
1
10
-36.5
20
10.9931133711701
30
0
41
1
10
-36.5
20
9.37743039030653
30
0
41
1
10
-36.5
20
7.6628585236061
30
0
41
1
10
-36.5
20
6.15816884754437
30
0
41
1
10
-36.5
20
4.90499731091177
30
0
41
1
10
-36.5
20
3.94891745941501
30
0
41
1
10
-36.5
20
2.97621435827227
30
0
41
1
10
-36.5
20
1.99071854296869
30
0
41
1
10
-36.5
20
1.16514702467006
30
0
41
1
10
-36.5
20
0.498098462230814
30
0
41
1
10
-36.5
20
-2.384194602E-07
30
0
41
1
10
-36.5
20
-0.498098713248481
30
0
41
1
10
-36.5
20
-1.16514681856438
30
0
41
1
10
-36.5
20
-1.99071870036124
30
0
41
1
10
-36.5
20
-2.97621477071243
30
0
41
1
10
-36.5
20
-3.94891719908253
30
0
41
1
10
-36.5
20
-4.9049974336175
30
0
41
1
10
-36.5
20
-6.15816931379931
30
0
41
1
10
-36.5
20
-7.6628582618342
30
0
41
1
10
-36.5
20
-9.37743069816284
30
0
41
1
10
-36.5
20
-10.9931136245939
30
0
41
1
10
-36.5
20
-12.5065635742002
30
0
41
1
10
-36.5
20
-13.9146794509994
30
0
41
1
10
-36.5
20
-15.2144138486304
30
0
41
1
10
-36.5
20
-16.8015889830236
30
0
41
1
10
-36.5
20
-18.1505179338898
30
0
41
1
10
-36.5
20
-19.2550489357272
30
0
41
1
10
-36.5
20
-19.9491724688865
30
0
41
1
10
-36.5
20
-20.5018751860753
30
0
41
1
10
-36.5
20
-20.9025884164263
30
0
41
1
10
-36.5
20
-21.1027894309513
30
0
41
1
10
-36.5
20
-21.149581008071
30
0
41
1
10
-36.5
20
-21.1558709619422
30
0
0
SPLINE
5
142
100
AcDbEntity
8
SK1
62
256
6
ByLayer
370
18
48
1
60
0
100
AcDbSpline
70
4
71
3
72
30
73
26
40
0
40
0
40
0
40
0
40
0.249999999999999
40
0.249999999999999
40
0.499999999999999
40
0.499999999999999
40
0.624999999999999
40
0.624999999999999
40
0.6875
40
0.6875
40
0.75
40
0.75
40
0.812500000000001
40
0.812500000000001
40
0.843750000000001
40
0.843750000000001
40
0.875000000000001
40
0.875000000000001
40
0.90625
40
0.90625
40
0.9375
40
0.9375
40
0.96875
40
0.96875
40
1
40
1
40
1
40
1
41
1
10
-1.30710678118655
20
4.81115156937966
30
0
41
1
10
-1.27772950254064
20
4.97729333579235
30
0
41
1
10
-1.24438554784463
20
5.14161561829971
30
0
41
1
10
-1.16550143381956
20
5.46603055324547
30
0
41
1
10
-1.12012055686519
20
5.62666112956316
30
0
41
1
10
-1.03548744556026
20
5.86023563385643
30
0
41
1
10
-1.00449108222138
20
5.93690912819585
30
0
41
1
10
-0.950735693127641
20
6.04915001273994
30
0
41
1
10
-0.931589886782064
20
6.08609644673811
30
0
41
1
10
-0.889657313576308
20
6.15866825589433
30
0
41
1
10
-0.866746075133207
20
6.19452170639303
30
0
41
1
10
-0.815900527777771
20
6.26261583511768
30
0
41
1
10
-0.78809958562168
20
6.29500212833881
30
0
41
1
10
-0.739125153205379
20
6.33860938748936
30
0
41
1
10
-0.72165089236654
20
6.35216508603165
30
0
41
1
10
-0.684186273479156
20
6.37571954267724
30
0
41
1
10
-0.663770142860585
20
6.38592912502898
30
0
41
1
10
-0.620666657452972
20
6.40029767867213
30
0
41
1
10
-0.59759647995736
20
6.40444689916177
30
0
41
1
10
-0.551911827630903
20
6.40484674033524
30
0
41
1
10
-0.528834802002649
20
6.40107546113694
30
0
41
1
10
-0.486169045069261
20
6.38756903357606
30
0
41
1
10
-0.465972582494871
20
6.37782646793312
30
0
41
1
10
-0.428432689769139
20
6.35475565889095
30
0
41
1
10
-0.411169702827024
20
6.34154884003178
30
0
41
1
10
-0.394913799811292
20
6.32721828439901
30
0
0
SPLINE
5
143
100
AcDbEntity
8
SK1
62
256
6
ByLayer
370
18
48
1
60
0
100
AcDbSpline
70
4
71
3
72
24
73
20
40
0
40
0
40
0
40
0
40
0.5
40
0.5
40
0.624999999999999
40
0.624999999999999
40
0.749999999999998
40
0.749999999999998
40
0.812499999999998
40
0.812499999999998
40
0.874999999999999
40
0.874999999999999
40
0.906249999999999
40
0.906249999999999
40
0.9375
40
0.9375
40
0.96875
40
0.96875
40
1
40
1
40
1
40
1
41
1
10
-0.200000000000003
20
-7.03416121607441
30
0
41
1
10
-0.200661630206767
20
-6.90111811484644
30
0
41
1
10
-0.205553494580016
20
-6.76746969392423
30
0
41
1
10
-0.226489017484568
20
-6.5994729106236
30
0
41
1
10
-0.23149114194635
20
-6.56582630636572
30
0
41
1
10
-0.244218821653547
20
-6.4984317022799
30
0
41
1
10
-0.251809441444209
20
-6.46492374650356
30
0
41
1
10
-0.267171029982776
20
-6.41559723945636
30
0
41
1
10
-0.272955344086213
20
-6.39930333387312
30
0
41
1
10
-0.28708597388453
20
-6.36730565066406
30
0
41
1
10
-0.295298997789217
20
-6.35157922031669
30
0
41
1
10
-0.311700702543831
20
-6.33067859325865
30
0
41
1
10
-0.31788770576334
20
-6.3241797145505
30
0
41
1
10
-0.332293755173566
20
-6.31383663914295
30
0
41
1
10
-0.340711445902059
20
-6.31011955599655
30
0
41
1
10
-0.357848061635195
20
-6.30823128443399
30
0
41
1
10
-0.366393862507621
20
-6.31000229927824
30
0
41
1
10
-0.381718055746603
20
-6.31678135987394
30
0
41
1
10
-0.388622933830263
20
-6.3216755700586
30
0
41
1
10
-0.394913799811292
20
-6.32722135061286
30
0
0
SPLINE
5
144
100
AcDbEntity
8
SK1
62
256
6
ByLayer
370
18
48
1
60
0
100
AcDbSpline
70
4
71
3
72
21
73
17
40
0
40
0
40
0
40
0
40
0.0502145023401264
40
0.118500412840066
40
0.186786323340006
40
0.255072233839946
40
0.323358144339885
40
0.391644054839825
40
0.528215875839705
40
0.596501786339644
40
0.664787696839584
40
0.733073607339524
40
0.801359517839464
40
0.869645428339403
40
0.937931338839343
40
1
40
1
40
1
40
1
41
1
10
-0.394913799811292
20
21.8654696410338
30
0
41
1
10
-0.394913799811306
20
21.8658541749697
30
0
41
1
10
-0.394913799811306
20
21.82179210482
30
0
41
1
10
-0.394913799811292
20
21.6019834098091
30
0
41
1
10
-0.394913799811292
20
21.1908658435729
30
0
41
1
10
-0.394913799811292
20
20.6247618481558
30
0
41
1
10
-0.394913799811292
20
19.9145928494951
30
0
41
1
10
-0.394913799811292
20
18.7870404111631
30
0
41
1
10
-0.394913799811292
20
17.4047594204778
30
0
41
1
10
-0.394913799811292
20
15.7849097442956
30
0
41
1
10
-0.394913799811292
20
14.4558606687731
30
0
41
1
10
-0.394913799811292
20
13.0147246633634
30
0
41
1
10
-0.394913799811292
20
11.4638140893219
30
0
41
1
10
-0.394913799811292
20
9.80498157314139
30
0
41
1
10
-0.394913799811292
20
8.09321756934102
30
0
41
1
10
-0.394913799811292
20
6.90653762641452
30
0
41
1
10
-0.394913799811292
20
6.32721828439901
30
0
0
SPLINE
5
145
100
AcDbEntity
8
SK1
62
256
6
ByLayer
370
18
48
1
60
0
100
AcDbSpline
70
4
71
3
72
26
73
22
40
0
40
0
40
0
40
0
40
0.125
40
0.125
40
0.25
40
0.25
40
0.3125
40
0.3125
40
0.375
40
0.375
40
0.5
40
0.5
40
0.625
40
0.625
40
0.6875
40
0.6875
40
0.75
40
0.75
40
0.875
40
0.875
40
1
40
1
40
1
40
1
41
1
10
-1.30710678118659
20
-4.81115177825131
30
0
41
1
10
-1.37462279329502
20
-4.42931851789501
30
0
41
1
10
-1.4384230695418
20
-4.04321174825219
30
0
41
1
10
-1.55475828557684
20
-3.26095452027204
30
0
41
1
10
-1.60730494401749
20
-2.86481056040475
30
0
41
1
10
-1.67384597566205
20
-2.26145078101035
30
0
41
1
10
-1.69395938565039
20
-2.05879746438532
30
0
41
1
10
-1.72931046442918
20
-1.65009418594528
30
0
41
1
10
-1.74458111668802
20
-1.44346492154571
30
0
41
1
10
-1.78161417600103
20
-0.824706824148052
30
0
41
1
10
-1.79444348243321
20
-0.412504785751906
30
0
41
1
10
-1.79446799978049
20
0.411266468230451
30
0
41
1
10
-1.78166793652733
20
0.822835760757442
30
0
41
1
10
-1.7448327014361
20
1.4397386518647
30
0
41
1
10
-1.72965319111884
20
1.645754391335
30
0
41
1
10
-1.69427910225544
20
2.05547235697085
30
0
41
1
10
-1.67414509281366
20
2.25856982386534
30
0
41
1
10
-1.60753025207397
20
2.86309861159856
30
0
41
1
10
-1.55492025426076
20
3.25980613133493
30
0
41
1
10
-1.43848245106358
20
4.04286538655003
30
0
41
1
10
-1.37464191770107
20
4.42920989906065
30
0
41
1
10
-1.30710678118655
20
4.8111515693796
30
0
0
SPLINE
5
146
100
AcDbEntity
8
SK1
62
256
6
ByLayer
370
18
48
1
60
0
100
AcDbSpline
70
4
71
3
72
49
73
45
40
0
40
0
40
0
40
0
40
0.0136745363870217
40
0.0422819296170192
40
0.0708893228470167
40
0.0994967160770142
40
0.128104109307012
40
0.156711502537009
40
0.213926288997004
40
0.242533682227002
40
0.271141075456999
40
0.299748468686997
40
0.328355861916994
40
0.356963255146992
40
0.385570648376989
40
0.414178041606987
40
0.428481738221985
40
0.442785434836984
40
0.457089131451983
40
0.471392828066982
40
0.48569652468198
40
0.49284837298948
40
0.500000221296979
40
0.507152069604478
40
0.514303917911978
40
0.528607614526976
40
0.542911311141975
40
0.557215007756974
40
0.571518704371973
40
0.585822400986971
40
0.614429794216969
40
0.643037187446966
40
0.671644580676964
40
0.700251973906961
40
0.728859367136959
40
0.757466760366956
40
0.786074153596954
40
0.843288940056949
40
0.871896333286946
40
0.900503726516944
40
0.929111119746941
40
0.957718512976939
40
0.986325906206936
40
1
40
1
40
1
40
1
41
1
10
-2.2
20
22.013580492679
30
0
41
1
10
-2.2
20
22.0052605351999
30
0
41
1
10
-2.2
20
21.9553640199145
30
0
41
1
10
-2.2
20
21.7550273348429
30
0
41
1
10
-2.2
20
21.3416331895302
30
0
41
1
10
-2.2
20
20.7725964921017
30
0
41
1
10
-2.2
20
20.0589164660072
30
0
41
1
10
-2.2
20
18.9263265026412
30
0
41
1
10
-2.2
20
17.5367471514895
30
0
41
1
10
-2.2
20
15.9097476492909
30
0
41
1
10
-2.2
20
14.574283866752
30
0
41
1
10
-2.2
20
13.1259221492871
30
0
41
1
10
-2.2
20
11.5668144415121
30
0
41
1
10
-2.2
20
9.89853979541101
30
0
41
1
10
-2.2
20
8.12208991237512
30
0
41
1
10
-2.2
20
6.55235618011341
30
0
41
1
10
-2.2
20
5.24422924769223
30
0
41
1
10
-2.2
20
4.23755215854527
30
0
41
1
10
-2.2
20
3.20644349821168
30
0
41
1
10
-2.2
20
2.15314020845372
30
0
41
1
10
-2.2
20
1.26034245765445
30
0
41
1
10
-2.2
20
0.540965319759152
30
0
41
1
10
-2.2
20
-2.64082871E-08
30
0
41
1
10
-2.2
20
-0.540965390862539
30
0
41
1
10
-2.2
20
-1.26034253962158
30
0
41
1
10
-2.2
20
-2.15314018801405
30
0
41
1
10
-2.2
20
-3.20644372216569
30
0
41
1
10
-2.2
20
-4.2375522406841
30
0
41
1
10
-2.2
20
-5.24422917335971
30
0
41
1
10
-2.2
20
-6.55235660022589
30
0
41
1
10
-2.2
20
-8.12208977576526
30
0
41
1
10
-2.2
20
-9.89853996914991
30
0
41
1
10
-2.2
20
-11.5668148046225
30
0
41
1
10
-2.2
20
-13.1259218425112
30
0
41
1
10
-2.2
20
-14.5742840575192
30
0
41
1
10
-2.2
20
-15.9097478536278
30
0
41
1
10
-2.2
20
-17.5367466797247
30
0
41
1
10
-2.2
20
-18.9263267207688
30
0
41
1
10
-2.2
20
-20.0589162847047
30
0
41
1
10
-2.2
20
-20.7725957724454
30
0
41
1
10
-2.2
20
-21.3416333570605
30
0
41
1
10
-2.2
20
-21.7550269215783
30
0
41
1
10
-2.2
20
-21.9553620855157
30
0
41
1
10
-2.2
20
-22.0052592175443
30
0
41
1
10
-2.19999999999999
20
-22.013579507508
30
0
0
SPLINE
5
147
100
AcDbEntity
8
SK1
62
256
6
ByLayer
370
18
48
1
60
0
100
AcDbSpline
70
4
71
3
72
21
73
17
40
0
40
0
40
0
40
0
40
0.0620681923480454
40
0.130353697836494
40
0.198639203324941
40
0.266924708813389
40
0.335210214301838
40
0.403495719790285
40
0.471781225278734
40
0.60835223625563
40
0.676637741744078
40
0.744923247232526
40
0.813208752720974
40
0.881494258209422
40
0.94977976369787
40
1
40
1
40
1
40
1
41
1
10
-0.394913799811292
20
-6.32722135061286
30
0
41
1
10
-0.394913799811292
20
-6.90653972901185
30
0
41
1
10
-0.394913799811292
20
-8.09321828866487
30
0
41
1
10
-0.394913799811292
20
-9.80498177095927
30
0
41
1
10
-0.394913799811292
20
-11.4638144327396
30
0
41
1
10
-0.394913799811292
20
-13.014724351229
30
0
41
1
10
-0.394913799811292
20
-14.4558608746283
30
0
41
1
10
-0.394913799811292
20
-15.7849099352292
30
0
41
1
10
-0.394913799811292
20
-17.4047589502432
30
0
41
1
10
-0.394913799811292
20
-18.7870406318774
30
0
41
1
10
-0.394913799811292
20
-19.9145926563567
30
0
41
1
10
-0.394913799811292
20
-20.6247611340725
30
0
41
1
10
-0.394913799811292
20
-21.1908660117695
30
0
41
1
10
-0.394913799811292
20
-21.6019829919256
30
0
41
1
10
-0.394913799811292
20
-21.8217984952221
30
0
41
1
10
-0.394913799811292
20
-21.8658585472392
30
0
41
1
10
-0.394913799811292
20
-21.8654694310601
30
0
0
SPLINE
5
148
100
AcDbEntity
8
SK1
62
256
6
ByLayer
370
18
48
1
60
0
100
AcDbSpline
70
4
71
3
72
49
73
45
40
0
40
0
40
0
40
0
40
0.0205373642207562
40
0.0487392799749951
40
0.0769411957292341
40
0.105143111483473
40
0.133345027237712
40
0.161546942991951
40
0.217950774500429
40
0.246152690254668
40
0.274354606008907
40
0.302556521763146
40
0.330758437517385
40
0.358960353271624
40
0.387162269025863
40
0.415364184780102
40
0.429465142657221
40
0.44356610053434
40
0.45766705841146
40
0.471768016288579
40
0.485868974165699
40
0.492919453104259
40
0.499969932042818
40
0.507020410981378
40
0.514070889919938
40
0.528171847797057
40
0.542272805674177
40
0.556373763551296
40
0.570474721428416
40
0.584575679305535
40
0.612777595059774
40
0.640979510814013
40
0.669181426568252
40
0.697383342322491
40
0.72558525807673
40
0.753787173830969
40
0.781989089585208
40
0.838392921093686
40
0.866594836847925
40
0.894796752602164
40
0.922998668356403
40
0.951200584110642
40
0.979402499864881
40
1
40
1
40
1
40
1
41
1
10
-38
20
-20.2928922794247
30
0
41
1
10
-38
20
-20.292881449296
30
0
41
1
10
-38
20
-20.2516170891709
30
0
41
1
10
-38
20
-20.0459061788578
30
0
41
1
10
-38
20
-19.6579364097435
30
0
41
1
10
-38
20
-19.121649880576
30
0
41
1
10
-38
20
-18.4471796582741
30
0
41
1
10
-38
20
-17.3708469037194
30
0
41
1
10
-38
20
-16.0627714181563
30
0
41
1
10
-38
20
-14.5156182315173
30
0
41
1
10
-38
20
-13.2517911056129
30
0
41
1
10
-38
20
-11.884121927153
30
0
41
1
10
-38
20
-10.4165563625368
30
0
41
1
10
-38
20
-8.85372716578038
30
0
41
1
10
-38
20
-7.20134053529003
30
0
41
1
10
-38
20
-5.76201962732219
30
0
41
1
10
-38
20
-4.56407688146012
30
0
41
1
10
-38
20
-3.65884523285217
30
0
41
1
10
-38
20
-2.74483966025932
30
0
41
1
10
-38
20
-1.82748862261292
30
0
41
1
10
-38
20
-1.06947718042707
30
0
41
1
10
-38
20
-0.455018630552075
30
0
41
1
10
-38
20
-4.514861303E-07
30
0
41
1
10
-38
20
0.455018198724474
30
0
41
1
10
-38
20
1.06947767603967
30
0
41
1
10
-38
20
1.82748828650287
30
0
41
1
10
-38
20
2.74483905839463
30
0
41
1
10
-38
20
3.65884583736087
30
0
41
1
10
-38
20
4.5640765607352
30
0
41
1
10
-38
20
5.76201911469511
30
0
41
1
10
-38
20
7.20134092284709
30
0
41
1
10
-38
20
8.85372672313898
30
0
41
1
10
-38
20
10.4165562193455
30
0
41
1
10
-38
20
11.8841222937699
30
0
41
1
10
-38
20
13.2517907463501
30
0
41
1
10
-38
20
14.5156181768618
30
0
41
1
10
-38
20
16.0627718728323
30
0
41
1
10
-38
20
17.3708466567051
30
0
41
1
10
-38
20
18.4471799717542
30
0
41
1
10
-38
20
19.1216505379956
30
0
41
1
10
-38
20
19.6579362347721
30
0
41
1
10
-38
20
20.0459066437045
30
0
41
1
10
-38
20
20.2517785371456
30
0
41
1
10
-38
20
20.2929832609799
30
0
41
1
10
-38
20
20.2928920058097
30
0
0
SPLINE
5
149
100
AcDbEntity
8
SK1
62
256
6
ByLayer
370
18
48
1
60
0
100
AcDbSpline
70
4
71
3
72
49
73
45
40
0
40
0
40
0
40
0
40
0.020915293777449
40
0.0490969552359839
40
0.0772786166945188
40
0.105460278153054
40
0.133641939611589
40
0.161823601070124
40
0.218186923987193
40
0.246368585445728
40
0.274550246904263
40
0.302731908362798
40
0.330913569821333
40
0.359095231279868
40
0.387276892738403
40
0.415458554196938
40
0.429549384926205
40
0.443640215655473
40
0.45773104638474
40
0.471821877114007
40
0.485912707843275
40
0.492958123207909
40
0.500003538572542
40
0.507048953937176
40
0.51409436930181
40
0.528185200031077
40
0.542276030760345
40
0.556366861489612
40
0.57045769221888
40
0.584548522948147
40
0.612730184406682
40
0.640911845865217
40
0.669093507323752
40
0.697275168782287
40
0.725456830240822
40
0.753638491699356
40
0.781820153157891
40
0.838183476074961
40
0.866365137533496
40
0.894546798992031
40
0.922728460450566
40
0.950910121909101
40
0.979091783367636
40
1
40
1
40
1
40
1
41
1
10
-1.9950399779393
20
21.825265283642
30
0
41
1
10
-1.99503997793931
20
21.8260074223377
30
0
41
1
10
-1.9950399779393
20
21.7822243547452
30
0
41
1
10
-1.9950399779393
20
21.5622163798915
30
0
41
1
10
-1.9950399779393
20
21.1516903613971
30
0
41
1
10
-1.9950399779393
20
20.5863484011186
30
0
41
1
10
-1.9950399779393
20
19.8770917100388
30
0
41
1
10
-1.9950399779393
20
18.7508482253859
30
0
41
1
10
-1.9950399779393
20
17.370463645283
30
0
41
1
10
-1.9950399779393
20
15.7524717843982
30
0
41
1
10
-1.9950399779393
20
14.4250895103889
30
0
41
1
10
-1.9950399779393
20
12.9858310385527
30
0
41
1
10
-1.9950399779393
20
11.4370504129058
30
0
41
1
10
-1.9950399779393
20
9.7806713457135
30
0
41
1
10
-1.9950399779393
20
8.01821749841287
30
0
41
1
10
-1.9950399779393
20
6.46319592062625
30
0
41
1
10
-1.9950399779393
20
5.16749921349111
30
0
41
1
10
-1.9950399779393
20
4.17226658860133
30
0
41
1
10
-1.9950399779393
20
3.15436853749512
30
0
41
1
10
-1.9950399779393
20
2.11640245296422
30
0
41
1
10
-1.9950399779393
20
1.23881043770962
30
0
41
1
10
-1.9950399779393
20
0.53126937109505
30
0
41
1
10
-1.9950399779393
20
-7.43625606E-08
30
0
41
1
10
-1.9950399779393
20
-0.53126948289281
30
0
41
1
10
-1.9950399779393
20
-1.23881045451824
30
0
41
1
10
-1.9950399779393
20
-2.11640247274798
30
0
41
1
10
-1.9950399779393
20
-3.15436880408234
30
0
41
1
10
-1.9950399779393
20
-4.17226659327741
30
0
41
1
10
-1.9950399779393
20
-5.16749918372616
30
0
41
1
10
-1.9950399779393
20
-6.46319635117558
30
0
41
1
10
-1.9950399779393
20
-8.01821733349291
30
0
41
1
10
-1.9950399779393
20
-9.78067154978808
30
0
41
1
10
-1.9950399779393
20
-11.4370507512064
30
0
41
1
10
-1.9950399779393
20
-12.985830725026
30
0
41
1
10
-1.9950399779393
20
-14.4250897201646
30
0
41
1
10
-1.9950399779393
20
-15.752471971849
30
0
41
1
10
-1.9950399779393
20
-17.370463175446
30
0
41
1
10
-1.9950399779393
20
-18.7508484467722
30
0
41
1
10
-1.9950399779393
20
-19.8770915138249
30
0
41
1
10
-1.9950399779393
20
-20.5863476884834
30
0
41
1
10
-1.9950399779393
20
-21.1516905297668
30
0
41
1
10
-1.9950399779393
20
-21.5622159608078
30
0
41
1
10
-1.9950399779393
20
-21.7822034990296
30
0
41
1
10
-1.9950399779393
20
-21.8259946892047
30
0
41
1
10
-1.99503997793931
20
-21.8252659606575
30
0
0
SPLINE
5
14A
100
AcDbEntity
8
1
62
256
6
ByLayer
370
18
48
1
60
0
100
AcDbSpline
70
4
71
3
72
16
73
12
40
0
40
0
40
0
40
0
40
0.250000000000001
40
0.250000000000001
40
0.500000000000001
40
0.500000000000001
40
0.750000000000002
40
0.750000000000002
40
0.875000000000001
40
0.875000000000001
40
1
40
1
40
1
40
1
41
1
10
10.1056624327026
20
29.913954846469
30
0
41
1
10
10.1212556944726
20
29.9327613369587
30
0
41
1
10
10.1400559187762
20
29.9511519005795
30
0
41
1
10
10.1857347330744
20
29.9863830332716
30
0
41
1
10
10.2125137122669
20
30.0032932993814
30
0
41
1
10
10.2791703657593
20
30.0350452819075
30
0
41
1
10
10.318236731126
20
30.0496472407049
30
0
41
1
10
10.3920418953325
20
30.0669872793661
30
0
41
1
10
10.4184736929998
20
30.0717959485601
30
0
41
1
10
10.4765695733598
20
30.078685990659
30
0
41
1
10
10.5071959726828
20
30.0805927603169
30
0
41
1
10
10.5386751345949
20
30.0805927603169
30
0
0
SPLINE
5
14B
100
AcDbEntity
8
1
62
256
6
ByLayer
370
18
48
1
60
0
100
AcDbSpline
70
4
71
3
72
16
73
12
40
0
40
0
40
0
40
0
40
0.25
40
0.25
40
0.5
40
0.5
40
0.75
40
0.75
40
0.875
40
0.875
40
1
40
1
40
1
40
1
41
1
10
13.8943375672974
20
9.86941261896629
30
0
41
1
10
13.8787443055274
20
9.81241059371439
30
0
41
1
10
13.8599440812238
20
9.75611455014882
30
0
41
1
10
13.8142652669256
20
9.64728479257943
30
0
41
1
10
13.7874862877331
20
9.59453680346908
30
0
41
1
10
13.7208296342407
20
9.49467220053421
30
0
41
1
10
13.681763268874
20
9.44829073160861
30
0
41
1
10
13.6079581046675
20
9.39290424748322
30
0
41
1
10
13.5815263070002
20
9.37748487924978
30
0
41
1
10
13.5234304266402
20
9.35536120669471
30
0
41
1
10
13.4928040273173
20
9.34922131452524
30
0
41
1
10
13.4613248654052
20
9.34922131452524
30
0
0
SPLINE
5
14C
100
AcDbEntity
8
1
62
256
6
ByLayer
370
18
48
1
60
0
100
AcDbSpline
70
4
71
3
72
8
73
4
40
0
40
0
40
0
40
0
40
1
40
1
40
1
40
1
41
1
10
47.0437815871781
20
-39.1132911194122
30
0
41
1
10
47.0973161234497
20
-39.1582191643127
30
0
41
1
10
47.1508499737069
20
-39.2031460888192
30
0
41
1
10
47.2043831316818
20
-39.248071882696
30
0
0
SPLINE
5
14D
100
AcDbEntity
8
1
62
256
6
ByLayer
370
18
48
1
60
0
100
AcDbSpline
70
4
71
3
72
16
73
12
40
0
40
0
40
0
40
0
40
0.249999999999998
40
0.249999999999998
40
0.499999999999997
40
0.499999999999997
40
0.749999999999995
40
0.749999999999995
40
0.874999999999998
40
0.874999999999998
40
1
40
1
40
1
40
1
41
1
10
13.8943375672974
20
-29.913954846469
30
0
41
1
10
13.8787443055274
20
-29.9327613369587
30
0
41
1
10
13.8599440812238
20
-29.9511519005795
30
0
41
1
10
13.8142652669256
20
-29.9863830332716
30
0
41
1
10
13.7874862877331
20
-30.0032932993814
30
0
41
1
10
13.7208296342407
20
-30.0350452819074
30
0
41
1
10
13.6817632688741
20
-30.0496472407049
30
0
41
1
10
13.6079581046676
20
-30.0669872793661
30
0
41
1
10
13.5815263070002
20
-30.0717959485601
30
0
41
1
10
13.5234304266402
20
-30.078685990659
30
0
41
1
10
13.4928040273173
20
-30.0805927603168
30
0
41
1
10
13.4613248654052
20
-30.0805927603168
30
0
0
SPLINE
5
14E
100
AcDbEntity
8
1
62
256
6
ByLayer
370
18
48
1
60
0
100
AcDbSpline
70
4
71
3
72
8
73
4
40
0
40
0
40
0
40
0
40
1
40
1
40
1
40
1
41
1
10
22.5691983644847
20
-22.9431735395134
30
0
41
1
10
22.4716646522544
20
-22.5200281238114
30
0
41
1
10
22.3748767386275
20
-22.0942943161816
30
0
41
1
10
22.2792076144253
20
-21.6646776030299
30
0
0
SPLINE
5
14F
100
AcDbEntity
8
1
62
256
6
ByLayer
370
18
48
1
60
0
100
AcDbSpline
70
4
71
3
72
8
73
4
40
0
40
0
40
0
40
0
40
1
40
1
40
1
40
1
41
1
10
25.7325747543669
20
-40.7002671407105
30
0
41
1
10
25.6871231014812
20
-40.697885120518
30
0
41
1
10
25.6642895957448
20
-40.6966884671891
30
0
41
1
10
25.6642565106353
20
-40.696686733272
30
0
0
SPLINE
5
150
100
AcDbEntity
8
1
62
256
6
ByLayer
370
18
48
1
60
0
100
AcDbSpline
70
4
71
3
72
10
73
6
40
0
40
0
40
0
40
0
40
0.5
40
0.5
40
1
40
1
40
1
40
1
41
1
10
22.2792076144245
20
-29.2554966414404
30
0
41
1
10
21.6514337624049
20
-29.4694181048117
30
0
41
1
10
21.0560430419851
20
-29.679005531637
30
0
41
1
10
19.9285788696068
20
-30.0798741117486
30
0
41
1
10
19.3964940365961
20
-30.2711766509182
30
0
41
1
10
18.896142849237
20
-30.4481889267203
30
0
0
SPLINE
5
151
100
AcDbEntity
8
1
62
256
6
ByLayer
370
18
48
1
60
0
100
AcDbSpline
70
4
71
3
72
20
73
16
40
0
40
0
40
0
40
0
40
0.125
40
0.125
40
0.25
40
0.25
40
0.375
40
0.375
40
0.5
40
0.5
40
0.625
40
0.625
40
0.75
40
0.75
40
1
40
1
40
1
40
1
41
1
10
22.279207614426
20
-30.9207597302154
30
0
41
1
10
22.3471388468779
20
-30.9223012692463
30
0
41
1
10
22.4141073283612
20
-30.9297802505255
30
0
41
1
10
22.546199116418
20
-30.9561177077013
30
0
41
1
10
22.6116094254186
20
-30.9751837842749
30
0
41
1
10
22.736375088288
20
-31.0232107669732
30
0
41
1
10
22.7962666855913
20
-31.0522250974023
30
0
41
1
10
22.9112064300984
20
-31.1199763749486
30
0
41
1
10
22.9667048431031
20
-31.1591479692539
30
0
41
1
10
23.0694628292353
20
-31.2448873277736
30
0
41
1
10
23.1169660274595
20
-31.2914711454595
30
0
41
1
10
23.204477727094
20
-31.391820879617
30
0
41
1
10
23.2447387678452
20
-31.4460071769513
30
0
41
1
10
23.3519287549996
20
-31.6168156777352
30
0
41
1
10
23.4046236196399
20
-31.7392679529536
30
0
41
1
10
23.4383186059721
20
-31.8704075044984
30
0
0
SPLINE
5
152
100
AcDbEntity
8
1
62
256
6
ByLayer
370
18
48
1
60
0
100
AcDbSpline
70
4
71
3
72
16
73
12
40
0
40
0
40
0
40
0
40
0.125
40
0.125
40
0.25
40
0.25
40
0.5
40
0.5
40
0.75
40
0.75
40
1
40
1
40
1
40
1
41
1
10
13.4613248654052
20
-9.34922131452521
30
0
41
1
10
13.4927587974109
20
-9.34922131452521
30
0
41
1
10
13.5238105256953
20
-9.35548920253868
30
0
41
1
10
13.5814155034803
20
-9.37745951316361
30
0
41
1
10
13.6084081576259
20
-9.39323398486474
30
0
41
1
10
13.6810618560869
20
-9.44778039735226
30
0
41
1
10
13.7208200031229
20
-9.49465699870646
30
0
41
1
10
13.7875017792165
20
-9.59456078532625
30
0
41
1
10
13.814513590311
20
-9.64780841973408
30
0
41
1
10
13.8600981524864
20
-9.75655023082984
30
0
41
1
10
13.8787501654512
20
-9.81243201498819
30
0
41
1
10
13.8943375672973
20
-9.86941261896635
30
0
0
SPLINE
5
153
100
AcDbEntity
8
1
62
256
6
ByLayer
370
18
48
1
60
0
100
AcDbSpline
70
4
71
3
72
16
73
12
40
0
40
0
40
0
40
0
40
0.125
40
0.125
40
0.25
40
0.25
40
0.5
40
0.5
40
0.75
40
0.75
40
1
40
1
40
1
40
1
41
1
10
13.4613248654052
20
30.0805927603169
30
0
41
1
10
13.4927587974109
20
30.0805927603169
30
0
41
1
10
13.5238105256953
20
30.0786461490401
30
0
41
1
10
13.5814155034803
20
30.0718038277879
30
0
41
1
10
13.6084081576259
20
30.0668840803112
30
0
41
1
10
13.6810618560869
20
30.0498069467437
30
0
41
1
10
13.7208200031229
20
30.0350501233766
30
0
41
1
10
13.7875017792165
20
30.0032856662985
30
0
41
1
10
13.814513590311
20
29.9862144781928
30
0
41
1
10
13.8600981524864
20
29.9510098933135
30
0
41
1
10
13.8787501654512
20
29.9327542695084
30
0
41
1
10
13.8943375672973
20
29.913954846469
30
0
0
SPLINE
5
154
100
AcDbEntity
8
1
62
256
6
ByLayer
370
18
48
1
60
0
100
AcDbSpline
70
4
71
3
72
18
73
14
40
0
40
0
40
0
40
0
40
0.250000000000003
40
0.250000000000003
40
0.312500000000003
40
0.312500000000003
40
0.375000000000003
40
0.375000000000003
40
0.500000000000003
40
0.500000000000003
40
0.750000000000002
40
0.750000000000002
40
1
40
1
40
1
40
1
41
1
10
33.8692852644579
20
-26.4456159231403
30
0
41
1
10
32.8635770620496
20
-26.5819508556447
30
0
41
1
10
31.8697419867742
20
-26.7475056243646
30
0
41
1
10
30.6428454297138
20
-26.9870818581737
30
0
41
1
10
30.3980345536555
20
-27.0366749435725
30
0
41
1
10
29.9130839689067
20
-27.1383408354986
30
0
41
1
10
29.6725775635164
20
-27.190481954927
30
0
41
1
10
28.956915549869
20
-27.3505347345837
30
0
41
1
10
28.4876127029295
20
-27.462076845135
30
0
41
1
10
27.1028954834395
20
-27.8088455541872
30
0
41
1
10
26.2106104364571
20
-28.0562610349411
30
0
41
1
10
24.4881716127311
20
-28.5701713970983
30
0
41
1
10
23.6580124618896
20
-28.8367142266841
30
0
41
1
10
22.8601551163564
20
-29.1051197120906
30
0
0
SPLINE
5
155
100
AcDbEntity
8
1
62
256
6
ByLayer
370
18
48
1
60
0
100
AcDbSpline
70
4
71
3
72
18
73
14
40
0
40
0
40
0
40
0
40
0.125
40
0.125
40
0.250000000000001
40
0.250000000000001
40
0.5
40
0.5
40
0.75
40
0.75
40
0.875
40
0.875
40
1
40
1
40
1
40
1
41
1
10
22.8601551163563
20
-23.8881914759369
30
0
41
1
10
22.9222748565067
20
-24.0076407376412
30
0
41
1
10
22.9919265837837
20
-24.123920792888
30
0
41
1
10
23.1480948164188
20
-24.3499225768897
30
0
41
1
10
23.2343070767135
20
-24.4591156903684
30
0
41
1
10
23.5175044726538
20
-24.7723214549824
30
0
41
1
10
23.7391762084474
20
-24.963309650013
30
0
41
1
10
24.2693314831527
20
-25.3042927127752
30
0
41
1
10
24.5666763868098
20
-25.447196464906
30
0
41
1
10
25.0722681845447
20
-25.6145043709821
30
0
41
1
10
25.2462281131156
20
-25.6607666064311
30
0
41
1
10
25.605374670585
20
-25.7342333850137
30
0
41
1
10
25.790551195553
20
-25.7614547584465
30
0
41
1
10
25.9819230502798
20
-25.7783576510701
30
0
0
SPLINE
5
156
100
AcDbEntity
8
1
62
256
6
ByLayer
370
18
48
1
60
0
100
AcDbSpline
70
4
71
3
72
8
73
4
40
0
40
0
40
0
40
0
40
1
40
1
40
1
40
1
41
1
10
25.7325747543669
20
-40.7002671407105
30
0
41
1
10
24.9615326707383
20
-37.7586973150047
30
0
41
1
10
24.1951237115593
20
-34.8158629848781
30
0
41
1
10
23.4383186059721
20
-31.8704075044984
30
0
0
SPLINE
5
157
100
AcDbEntity
8
1
62
256
6
ByLayer
370
18
48
1
60
0
100
AcDbSpline
70
4
71
3
72
16
73
12
40
0
40
0
40
0
40
0
40
0.124999999999998
40
0.124999999999998
40
0.249999999999997
40
0.249999999999997
40
0.499999999999998
40
0.499999999999998
40
0.749999999999999
40
0.749999999999999
40
1
40
1
40
1
40
1
41
1
10
10.5386751345949
20
-30.0805927603169
30
0
41
1
10
10.5072412025891
20
-30.0805927603169
30
0
41
1
10
10.4761894743047
20
-30.07864614904
30
0
41
1
10
10.4185844965197
20
-30.0718038277879
30
0
41
1
10
10.3915918423741
20
-30.0668840803112
30
0
41
1
10
10.3189381439131
20
-30.0498069467437
30
0
41
1
10
10.2791799968771
20
-30.0350501233766
30
0
41
1
10
10.2124982207835
20
-30.0032856662984
30
0
41
1
10
10.185486409689
20
-29.9862144781928
30
0
41
1
10
10.1399018475136
20
-29.9510098933135
30
0
41
1
10
10.1212498345488
20
-29.9327542695084
30
0
41
1
10
10.1056624327027
20
-29.913954846469
30
0
0
SPLINE
5
158
100
AcDbEntity
8
1
62
256
6
ByLayer
370
18
48
1
60
0
100
AcDbSpline
70
4
71
3
72
16
73
12
40
0
40
0
40
0
40
0
40
0.249999999999999
40
0.249999999999999
40
0.499999999999999
40
0.499999999999999
40
0.749999999999998
40
0.749999999999998
40
0.874999999999999
40
0.874999999999999
40
1
40
1
40
1
40
1
41
1
10
10.1056624327026
20
-9.86941261896627
30
0
41
1
10
10.1212556944726
20
-9.81241059371436
30
0
41
1
10
10.1400559187762
20
-9.75611455014882
30
0
41
1
10
10.1857347330744
20
-9.64728479257943
30
0
41
1
10
10.2125137122669
20
-9.59453680346908
30
0
41
1
10
10.2791703657594
20
-9.49467220053421
30
0
41
1
10
10.318236731126
20
-9.44829073160858
30
0
41
1
10
10.3920418953325
20
-9.39290424748319
30
0
41
1
10
10.4184736929998
20
-9.37748487924975
30
0
41
1
10
10.4765695733598
20
-9.35536120669468
30
0
41
1
10
10.5071959726828
20
-9.34922131452521
30
0
41
1
10
10.5386751345949
20
-9.34922131452521
30
0
0
SPLINE
5
159
100
AcDbEntity
8
1
62
256
6
ByLayer
370
18
48
1
60
0
100
AcDbSpline
70
4
71
3
72
16
73
12
40
0
40
0
40
0
40
0
40
0.125
40
0.125
40
0.25
40
0.25
40
0.5
40
0.5
40
0.75
40
0.75
40
1
40
1
40
1
40
1
41
1
10
10.5386751345949
20
9.3492213145251
30
0
41
1
10
10.5072412025891
20
9.34922131452512
30
0
41
1
10
10.4761894743047
20
9.35548920253859
30
0
41
1
10
10.4185844965197
20
9.3774595131635
30
0
41
1
10
10.3915918423742
20
9.39323398486465
30
0
41
1
10
10.3189381439131
20
9.44778039735218
30
0
41
1
10
10.2791799968771
20
9.49465699870638
30
0
41
1
10
10.2124982207835
20
9.59456078532617
30
0
41
1
10
10.185486409689
20
9.64780841973402
30
0
41
1
10
10.1399018475136
20
9.75655023082979
30
0
41
1
10
10.1212498345488
20
9.81243201498816
30
0
41
1
10
10.1056624327027
20
9.86941261896629
30
0
0
SPLINE
5
15A
100
AcDbEntity
8
1
62
256
6
ByLayer
370
18
48
1
60
0
100
AcDbSpline
70
4
71
3
72
12
73
8
40
0
40
0
40
0
40
0
40
0.25
40
0.25
40
0.5
40
0.5
40
1
40
1
40
1
40
1
41
1
10
22.2792076144259
20
-29.2554966414395
30
0
41
1
10
22.339314927196
20
-29.235014354282
30
0
41
1
10
22.3955743595024
20
-29.2173059935272
30
0
41
1
10
22.5026227107965
20
-29.1858063493382
30
0
41
1
10
22.5533575979121
20
-29.1720536034156
30
0
41
1
10
22.6968898361102
20
-29.1359372492609
30
0
41
1
10
22.7821746456742
20
-29.118314332737
30
0
41
1
10
22.8601551163566
20
-29.1051197120908
30
0
0
SPLINE
5
15B
100
AcDbEntity
8
1
62
256
6
ByLayer
370
18
48
1
60
0
100
AcDbSpline
70
4
71
3
72
28
73
24
40
0
40
0
40
0
40
0
40
0.0624999999999994
40
0.0624999999999994
40
0.124999999999999
40
0.124999999999999
40
0.187499999999998
40
0.187499999999998
40
0.249999999999998
40
0.249999999999998
40
0.312499999999997
40
0.312499999999997
40
0.374999999999997
40
0.374999999999997
40
0.437499999999996
40
0.437499999999996
40
0.499999999999995
40
0.499999999999995
40
0.624999999999997
40
0.624999999999997
40
0.749999999999999
40
0.749999999999999
40
1
40
1
40
1
40
1
41
1
10
18.8961428492369
20
-30.4481889267205
30
0
41
1
10
18.8546707481212
20
-30.4628607635947
30
0
41
1
10
18.8176673991595
20
-30.4781215103283
30
0
41
1
10
18.7558148565499
20
-30.5096312294639
30
0
41
1
10
18.7305962297145
20
-30.5261127074803
30
0
41
1
10
18.6965344188257
20
-30.5596696406942
30
0
41
1
10
18.6878054633571
20
-30.5764954605783
30
0
41
1
10
18.6892184182131
20
-30.6102684135833
30
0
41
1
10
18.6995067129235
20
-30.6267240567486
30
0
41
1
10
18.7377652208412
20
-30.6580886901685
30
0
41
1
10
18.7660920527038
20
-30.6731478649935
30
0
41
1
10
18.8352876128362
20
-30.7006797345341
30
0
41
1
10
18.8765330067034
20
-30.7134287562197
30
0
41
1
10
18.9690278030321
20
-30.7370588895307
30
0
41
1
10
19.0193747011797
20
-30.7477332559752
30
0
41
1
10
19.1263112793388
20
-30.7673884916372
30
0
41
1
10
19.1831904272517
20
-30.7764001916236
30
0
41
1
10
19.359516139788
20
-30.801133796178
30
0
41
1
10
19.483469195065
20
-30.8145205426397
30
0
41
1
10
19.7397358363074
20
-30.837437758679
30
0
41
1
10
19.873000477276
20
-30.8469699803217
30
0
41
1
10
20.2755068178788
20
-30.8708664794962
30
0
41
1
10
20.5464381059547
20
-30.8807533193615
30
0
41
1
10
20.8189777941569
20
-30.8871243583239
30
0
0
SPLINE
5
15C
100
AcDbEntity
8
1
62
256
6
ByLayer
370
18
48
1
60
0
100
AcDbSpline
70
4
71
3
72
10
73
6
40
0
40
0
40
0
40
0
40
0.5
40
0.5
40
1
40
1
40
1
40
1
41
1
10
22.5691983644847
20
17.6280557393297
30
0
41
1
10
22.6051612553029
20
17.8137540506168
30
0
41
1
10
22.6480958470731
20
17.9984820208173
30
0
41
1
10
22.7460134912438
20
18.3686981798655
30
0
41
1
10
22.8010138959353
20
18.5541884134696
30
0
41
1
10
22.8601551163563
20
18.7418764989446
30
0
0
SPLINE
5
15D
100
AcDbEntity
8
1
62
256
6
ByLayer
370
18
48
1
60
0
100
AcDbSpline
70
4
71
3
72
10
73
6
40
0
40
0
40
0
40
0
40
0.5
40
0.5
40
1
40
1
40
1
40
1
41
1
10
22.8601551163564
20
-23.8881914759369
30
0
41
1
10
22.8010174088541
20
-23.7264853692367
30
0
41
1
10
22.7460177995611
20
-23.5683781635712
30
0
41
1
10
22.64809918331
20
-23.2547399586471
30
0
41
1
10
22.6051628768478
20
-23.099203882114
30
0
41
1
10
22.5691983644847
20
-22.9431735395134
30
0
0
SPLINE
5
15E
100
AcDbEntity
8
1
62
256
6
ByLayer
370
18
48
1
60
0
100
AcDbSpline
70
4
71
3
72
10
73
6
40
0
40
0
40
0
40
0
40
0.5
40
0.5
40
1
40
1
40
1
40
1
41
1
10
22.8601551163564
20
21.4702007825094
30
0
41
1
10
22.7712575322125
20
21.6135058339429
30
0
41
1
10
22.6783117762751
20
21.7633366360216
30
0
41
1
10
22.4848204122338
20
22.0752493853152
30
0
41
1
10
22.3842993979496
20
22.237291686699
30
0
41
1
10
22.2792076144253
20
22.4067021784265
30
0
0
SPLINE
5
15F
100
AcDbEntity
8
1
62
256
6
ByLayer
370
18
48
1
60
0
100
AcDbSpline
70
4
71
3
72
10
73
6
40
0
40
0
40
0
40
0
40
0.5
40
0.5
40
1
40
1
40
1
40
1
41
1
10
23.7383926830171
20
20.0544606263153
30
0
41
1
10
23.5423623862772
20
19.8612103886147
30
0
41
1
10
23.3749384483665
20
19.6540076641216
30
0
41
1
10
23.0850933961547
20
19.2156339110799
30
0
41
1
10
22.9628307984826
20
18.9844011723675
30
0
41
1
10
22.8601551163564
20
18.7418764989446
30
0
0
SPLINE
5
160
100
AcDbEntity
8
1
62
256
6
ByLayer
370
18
48
1
60
0
100
AcDbSpline
70
4
71
3
72
8
73
4
40
0
40
0
40
0
40
0
40
1
40
1
40
1
40
1
41
1
10
22.2792076144253
20
16.1102721265729
30
0
41
1
10
22.3748767386275
20
16.6188308143108
30
0
41
1
10
22.4716646522544
20
17.1244297725993
30
0
41
1
10
22.5691983644847
20
17.6280557393297
30
0
0
SPLINE
5
161
100
AcDbEntity
8
SK1
62
256
6
ByLayer
370
18
48
1
60
0
100
AcDbSpline
70
4
71
3
72
11
73
7
40
0
40
0
40
0
40
0
40
0.238901120687798
40
0.497438785334105
40
0.757398627101372
40
1
40
1
40
1
40
1
41
1
10
-0.394913799811292
20
-21.8654753908016
30
0
41
1
10
-0.369683556830338
20
-21.8664032520323
30
0
41
1
10
-0.321112940270197
20
-21.8764518787731
30
0
41
1
10
-0.255178473897388
20
-21.9196695750854
30
0
41
1
10
-0.211248088565583
20
-21.9856476021506
30
0
41
1
10
-0.200957649232748
20
-22.03467763457
30
0
41
1
10
-0.200000000000003
20
-22.0603316233164
30
0
0
SPLINE
5
162
100
AcDbEntity
8
SK1
62
256
6
ByLayer
370
18
48
1
60
0
100
AcDbSpline
70
4
71
3
72
11
73
7
40
0
40
0
40
0
40
0
40
0.242601372378524
40
0.502561213915428
40
0.761098878799764
40
1
40
1
40
1
40
1
41
1
10
-0.200000000000003
20
22.0603316944385
30
0
41
1
10
-0.200957649243733
20
22.0346777057893
30
0
41
1
10
-0.211248088575971
20
21.9856476735436
30
0
41
1
10
-0.255178473954444
20
21.9196696467454
30
0
41
1
10
-0.321112940313157
20
21.8764519506625
30
0
41
1
10
-0.369683556841096
20
21.8664033239634
30
0
41
1
10
-0.394913799811292
20
21.8654754627471
30
0
0
SPLINE
5
163
100
AcDbEntity
8
SK1
62
256
6
ByLayer
370
18
48
1
60
0
100
AcDbSpline
70
4
71
2
72
6
73
3
40
0
40
0
40
0
40
1
40
1
40
1
41
1
10
-38
20
-20.2900294978113
30
0
41
1
10
-37.2500000202692
20
-20.7228363924583
30
0
41
1
10
-36.5
20
-21.1556411500792
30
0
0
SPLINE
5
164
100
AcDbEntity
8
SK1
62
256
6
ByLayer
370
18
48
1
60
0
100
AcDbSpline
70
4
71
2
72
6
73
3
40
0
40
0
40
0
40
1
40
1
40
1
41
1
10
-36.5
20
21.1556411516461
30
0
41
1
10
-37.2500000202654
20
20.7228363958853
30
0
41
1
10
-38
20
20.2900295032223
30
0
0
SPLINE
5
165
100
AcDbEntity
8
SK1
62
256
6
ByLayer
370
18
48
1
60
0
100
AcDbSpline
70
4
71
2
72
6
73
3
40
0
40
0
40
0
40
1
40
1
40
1
41
1
10
-0.394913799811292
20
21.8654706047072
30
0
41
1
10
-1.19497688887515
20
21.8453761856051
30
0
41
1
10
-1.9950399779393
20
21.8252817664983
30
0
0
SPLINE
5
166
100
AcDbEntity
8
SK1
62
256
6
ByLayer
370
18
48
1
60
0
100
AcDbSpline
70
4
71
2
72
6
73
3
40
0
40
0
40
0
40
1
40
1
40
1
41
1
10
-1.9950399779393
20
-21.8252816998361
30
0
41
1
10
-1.19497688887515
20
-21.8453761190377
30
0
41
1
10
-0.394913799811292
20
-21.8654705382346
30
0
0
SPLINE
5
167
100
AcDbEntity
8
SK1
62
256
6
ByLayer
370
18
48
1
60
0
100
AcDbSpline
70
4
71
3
72
13
73
9
40
0
40
0
40
0
40
0
40
0.239488447124402
40
0.368403116875451
40
0.500046646502257
40
0.631682416179049
40
0.76057569029098
40
1
40
1
40
1
40
1
41
1
10
-1.9950399779393
20
21.8252865969123
30
0
41
1
10
-2.02110964950145
20
21.8248846680468
30
0
41
1
10
-2.05883938574671
20
21.8310551805396
30
0
41
1
10
-2.10627619975313
20
21.8540921087329
30
0
41
1
10
-2.138862921821
20
21.8792519577777
30
0
41
1
10
-2.16563526914683
20
21.910524358218
30
0
41
1
10
-2.19103234710033
20
21.9567296883261
30
0
41
1
10
-2.19909149084521
20
21.994092162624
30
0
41
1
10
-2.2
20
22.0201428284389
30
0
0
SPLINE
5
168
100
AcDbEntity
8
SK1
62
256
6
ByLayer
370
18
48
1
60
0
100
AcDbSpline
70
4
71
3
72
13
73
9
40
0
40
0
40
0
40
0
40
0.239424310237101
40
0.368317584520308
40
0.499953354254708
40
0.631596883812701
40
0.760511553386832
40
1
40
1
40
1
40
1
41
1
10
-2.2
20
-22.0201427571469
30
0
41
1
10
-2.19909149085342
20
-21.9940920912339
30
0
41
1
10
-2.1910323471085
20
-21.9567296167895
30
0
41
1
10
-2.16563526915772
20
-21.9105242864784
30
0
41
1
10
-2.13886292183541
20
-21.8792518859041
30
0
41
1
10
-2.10627619976853
20
-21.8540920367489
30
0
41
1
10
-2.05883938576716
20
-21.8310551084546
30
0
41
1
10
-2.02110964951221
20
-21.8248845959364
30
0
41
1
10
-1.9950399779393
20
-21.825286524797
30
0
0
SPLINE
5
169
100
AcDbEntity
8
SK1
62
256
6
ByLayer
370
18
48
1
60
0
100
AcDbSpline
70
4
71
2
72
6
73
3
40
0
40
0
40
0
40
1
40
1
40
1
41
1
10
-2.2
20
22.0136645469338
30
0
41
1
10
-19.3500000008244
20
21.5830602558515
30
0
41
1
10
-36.5
20
21.152454254977
30
0
0
SPLINE
5
16A
100
AcDbEntity
8
SK1
62
256
6
ByLayer
370
18
48
1
60
0
100
AcDbSpline
70
4
71
2
72
6
73
3
40
0
40
0
40
0
40
1
40
1
40
1
41
1
10
-36.5
20
-21.1524539804128
30
0
41
1
10
-19.3500000008246
20
-21.5830599810351
30
0
41
1
10
-2.2
20
-22.0136642719968
30
0
0
LINE
5
92
100
AcDbEntity
8
1
62
256
6
ByLayer
370
18
48
1
60
0
100
AcDbLine
10
51.43885
20
-38.445258
30
0
11
51.495489
21
-38.500441
31
0
39
0
210
0
220
0
230
1
0
LINE
5
93
100
AcDbEntity
8
1
62
256
6
ByLayer
370
18
48
1
60
0
100
AcDbLine
10
39.621686
20
-35.003783
30
0
11
39.579878
21
-34.902266
31
0
39
0
210
0
220
0
230
1
0
LINE
5
94
100
AcDbEntity
8
1
62
256
6
ByLayer
370
18
48
1
60
0
100
AcDbLine
10
39.015694
20
-37.508243
30
0
11
38.489731
21
-37.443567
31
0
39
0
210
0
220
0
230
1
0
LINE
5
95
100
AcDbEntity
8
1
62
256
6
ByLayer
370
18
48
1
60
0
100
AcDbLine
10
39.87916
20
-35.628973
30
0
11
40.305899
21
-36.044737
31
0
39
0
210
0
220
0
230
1
0
LINE
5
96
100
AcDbEntity
8
1
62
256
6
ByLayer
370
18
48
1
60
0
100
AcDbLine
10
39.015694
20
-37.508243
30
0
11
39.455235
21
-37.93648
31
0
39
0
210
0
220
0
230
1
0
LINE
5
97
100
AcDbEntity
8
1
62
256
6
ByLayer
370
18
48
1
60
0
100
AcDbLine
10
38.489731
20
-37.443567
30
0
11
38.916469
21
-37.859331
31
0
39
0
210
0
220
0
230
1
0
LINE
5
98
100
AcDbEntity
8
1
62
256
6
ByLayer
370
18
48
1
60
0
100
AcDbLine
10
38.24364
20
-37.776595
30
0
11
37.816901
21
-37.360831
31
0
39
0
210
0
220
0
230
1
0
LINE
5
99
100
AcDbEntity
8
1
62
256
6
ByLayer
370
18
48
1
60
0
100
AcDbLine
10
37.816901
20
-37.360831
30
0
11
37.561792
21
-37.329461
31
0
39
0
210
0
220
0
230
1
0
LINE
5
9A
100
AcDbEntity
8
1
62
256
6
ByLayer
370
18
48
1
60
0
100
AcDbLine
10
39.015694
20
-37.508243
30
0
11
39.340385
21
-37.084197
31
0
39
0
210
0
220
0
230
1
0
LINE
5
9B
100
AcDbEntity
8
1
62
256
6
ByLayer
370
18
48
1
60
0
100
AcDbLine
10
40.182479
20
-36.957506
30
0
11
39.755741
21
-36.541742
31
0
39
0
210
0
220
0
230
1
0
LINE
5
9C
100
AcDbEntity
8
1
62
256
6
ByLayer
370
18
48
1
60
0
100
AcDbLine
10
39.755741
20
-36.541742
30
0
11
40.080432
21
-36.117696
31
0
39
0
210
0
220
0
230
1
0
LINE
5
9D
100
AcDbEntity
8
1
62
256
6
ByLayer
370
18
48
1
60
0
100
AcDbLine
10
40.080432
20
-36.117696
30
0
11
40.519973
21
-36.545933
31
0
39
0
210
0
220
0
230
1
0
LINE
5
9E
100
AcDbEntity
8
1
62
256
6
ByLayer
370
18
48
1
60
0
100
AcDbLine
10
40.080432
20
-36.117696
30
0
11
39.87916
21
-35.628973
31
0
39
0
210
0
220
0
230
1
0
LINE
5
9F
100
AcDbEntity
8
1
62
256
6
ByLayer
370
18
48
1
60
0
100
AcDbLine
10
40.048425
20
-35.419547
30
0
11
39.621686
21
-35.003783
31
0
39
0
210
0
220
0
230
1
0
LINE
5
A0
100
AcDbEntity
8
1
62
256
6
ByLayer
370
18
48
1
60
0
100
AcDbLine
10
39.340385
20
-37.084197
30
0
11
39.767123
21
-37.499961
31
0
39
0
210
0
220
0
230
1
0
LINE
5
A1
100
AcDbEntity
8
1
62
256
6
ByLayer
370
13
48
1
60
0
100
AcDbLine
10
64.885323
20
-43.792938
30
0
11
57.885616
21
-32.358452
31
0
39
0
210
0
220
0
230
1
0
LINE
5
A2
100
AcDbEntity
8
1
62
256
6
ByLayer
370
13
48
1
60
0
100
AcDbLine
10
57.262711
20
-31.988699
30
0
11
43.811678
21
-31.28376
31
0
39
0
210
0
220
0
230
1
0
LINE
5
A3
100
AcDbEntity
8
1
62
256
6
ByLayer
370
13
48
1
60
0
100
AcDbLine
10
43.08656
20
-32.489743
30
0
11
43.038638
21
-32.443053
31
0
39
0
210
0
220
0
230
1
0
LINE
5
A4
100
AcDbEntity
8
1
62
256
6
ByLayer
370
13
48
1
60
0
100
AcDbLine
10
43.09575
20
-30.586244
30
0
11
48.587134
21
-30.874035
31
0
39
0
210
0
220
0
230
1
0
LINE
5
A5
100
AcDbEntity
8
1
62
256
6
ByLayer
370
13
48
1
60
0
100
AcDbLine
10
55.233625
20
-31.222363
30
0
11
56.546782
21
-31.291183
31
0
39
0
210
0
220
0
230
1
0
LINE
5
A6
100
AcDbEntity
8
1
62
256
6
ByLayer
370
13
48
1
60
0
100
AcDbLine
10
50.709172
20
-44.293982
30
0
11
64.160205
21
-44.998921
31
0
39
0
210
0
220
0
230
1
0
LINE
5
A7
100
AcDbEntity
8
1
62
256
6
ByLayer
370
13
48
1
60
0
100
AcDbLine
10
49.370338
20
-43.226713
30
0
11
48.555966
21
-41.896382
31
0
39
0
210
0
220
0
230
1
0
LINE
5
A8
100
AcDbEntity
8
1
62
256
6
ByLayer
370
13
48
1
60
0
100
AcDbLine
10
43.09575
20
-30.586244
30
0
11
43.811678
21
-31.28376
31
0
39
0
210
0
220
0
230
1
0
LINE
5
A9
100
AcDbEntity
8
1
62
256
6
ByLayer
370
13
48
1
60
0
100
AcDbLine
10
49.370338
20
-43.226713
30
0
11
50.086267
21
-43.92423
31
0
39
0
210
0
220
0
230
1
0
LINE
5
AA
100
AcDbEntity
8
1
62
256
6
ByLayer
370
13
48
1
60
0
100
AcDbLine
10
43.08656
20
-32.489743
30
0
11
50.086267
21
-43.92423
31
0
39
0
210
0
220
0
230
1
0
LINE
5
AB
100
AcDbEntity
8
1
62
256
6
ByLayer
370
13
48
1
60
0
100
AcDbLine
10
57.262711
20
-31.988699
30
0
11
56.546782
21
-31.291183
31
0
39
0
210
0
220
0
230
1
0
LINE
5
AC
100
AcDbEntity
8
SK1
62
256
6
ByLayer
370
18
48
1
60
0
100
AcDbLine
10
-0.2
20
-22.533485
30
0
11
-0.2
21
-7.034161
31
0
39
0
210
0
220
0
230
1
0
LINE
5
AE
100
AcDbEntity
8
SK1
62
256
6
ByLayer
370
18
48
1
60
0
100
AcDbLine
10
-0.2
20
22.533485
30
0
11
-0.2
21
7.034158
31
0
39
0
210
0
220
0
230
1
0
LINE
5
AF
100
AcDbEntity
8
SK1
62
256
6
ByLayer
370
18
48
1
60
0
100
AcDbLine
10
-1.307107
20
4.811152
30
0
11
-1.307107
21
-4.811152
31
0
39
0
210
0
220
0
230
1
0
LINE
5
B0
100
AcDbEntity
8
1
62
256
6
ByLayer
370
18
48
1
60
0
100
AcDbLine
10
48.241977
20
-30.855919
30
0
11
46.107983
21
-27.369898
31
0
39
0
210
0
220
0
230
1
0
LINE
5
B1
100
AcDbEntity
8
1
62
256
6
ByLayer
370
18
48
1
60
0
100
AcDbLine
10
47.190197
20
-28.324964
30
0
11
46.618665
21
-27.680683
31
0
39
0
210
0
220
0
230
1
0
LINE
5
B2
100
AcDbEntity
8
1
62
256
6
ByLayer
370
18
48
1
60
0
100
AcDbLine
10
22.860155
20
-23.888191
30
0
11
22.860155
21
-29.10512
31
0
39
0
210
0
220
0
230
1
0
LINE
5
B3
100
AcDbEntity
8
1
62
256
6
ByLayer
370
18
48
1
60
0
100
AcDbLine
10
25.981923
20
16.437836
30
0
11
23.738393
21
20.054461
31
0
39
0
210
0
220
0
230
1
0
LINE
5
B4
100
AcDbEntity
8
1
62
256
6
ByLayer
370
18
48
1
60
0
100
AcDbLine
10
48.519974
20
-30.797448
30
0
11
48.469238
21
-30.794567
31
0
39
0
210
0
220
0
230
1
0
LINE
5
B5
100
AcDbEntity
8
1
62
256
6
ByLayer
370
18
48
1
60
0
100
AcDbLine
10
10.538675
20
-9.349221
30
0
11
13.461325
21
-9.349221
31
0
39
0
210
0
220
0
230
1
0
LINE
5
B6
100
AcDbEntity
8
1
62
256
6
ByLayer
370
18
48
1
60
0
100
AcDbLine
10
54.360603
20
-31.792433
30
0
11
49.131025
21
-31.495436
31
0
39
0
210
0
220
0
230
1
0
LINE
5
B7
100
AcDbEntity
8
1
62
256
6
ByLayer
370
18
48
1
60
0
100
AcDbLine
10
44.997791
20
-35.930541
30
0
11
46.627931
21
-38.593483
31
0
39
0
210
0
220
0
230
1
0
LINE
5
B8
100
AcDbEntity
8
1
62
256
6
ByLayer
370
18
48
1
60
0
100
AcDbLine
10
13.461325
20
30.080593
30
0
11
13.461325
21
9.349221
31
0
39
0
210
0
220
0
230
1
0
LINE
5
B9
100
AcDbEntity
8
1
62
256
6
ByLayer
370
18
48
1
60
0
100
AcDbLine
10
13.894338
20
-9.869413
30
0
11
13.894338
21
-29.913955
31
0
39
0
210
0
220
0
230
1
0
LINE
5
BA
100
AcDbEntity
8
1
62
256
6
ByLayer
370
18
48
1
60
0
100
AcDbLine
10
0
20
31.2
30
0
11
0
21
-31.2
31
0
39
0
210
0
220
0
230
1
0
LINE
5
BB
100
AcDbEntity
8
1
62
256
6
ByLayer
370
18
48
1
60
0
100
AcDbLine
10
23.438319
20
-32.389417
30
0
11
23.438319
21
-31.870408
31
0
39
0
210
0
220
0
230
1
0
LINE
5
BC
100
AcDbEntity
8
1
62
256
6
ByLayer
370
18
48
1
60
0
100
AcDbLine
10
22.279208
20
22.406702
30
0
11
16.638288
21
31.5
31
0
39
0
210
0
220
0
230
1
0
LINE
5
BD
100
AcDbEntity
8
1
62
256
6
ByLayer
370
18
48
1
60
0
100
AcDbLine
10
13.461325
20
-9.349221
30
0
11
13.461325
21
-30.080593
31
0
39
0
210
0
220
0
230
1
0
LINE
5
BE
100
AcDbEntity
8
1
62
256
6
ByLayer
370
18
48
1
60
0
100
AcDbLine
10
47.190197
20
-28.324964
30
0
11
49.131025
21
-31.495436
31
0
39
0
210
0
220
0
230
1
0
LINE
5
BF
100
AcDbEntity
8
1
62
256
6
ByLayer
370
18
48
1
60
0
100
AcDbLine
10
42.432158
20
-30.884878
30
0
11
42.061329
21
-30.279103
31
0
39
0
210
0
220
0
230
1
0
LINE
5
C0
100
AcDbEntity
8
1
62
256
6
ByLayer
370
18
48
1
60
0
100
AcDbLine
10
31.758736
20
7.125474
30
0
11
25.981923
21
16.437836
31
0
39
0
210
0
220
0
230
1
0
LINE
5
C1
100
AcDbEntity
8
1
62
256
6
ByLayer
370
18
48
1
60
0
100
AcDbLine
10
31.758736
20
7.125474
30
0
11
49.188231
21
-21.346766
31
0
39
0
210
0
220
0
230
1
0
LINE
5
C2
100
AcDbEntity
8
1
62
256
6
ByLayer
370
18
48
1
60
0
100
AcDbLine
10
42.059883
20
-30.111734
30
0
11
42.492233
21
-30.818007
31
0
39
0
210
0
220
0
230
1
0
LINE
5
C3
100
AcDbEntity
8
1
62
256
6
ByLayer
370
18
48
1
60
0
100
AcDbLine
10
10.538675
20
30.080593
30
0
11
10.538675
21
9.349221
31
0
39
0
210
0
220
0
230
1
0
LINE
5
C4
100
AcDbEntity
8
1
62
256
6
ByLayer
370
18
48
1
60
0
100
AcDbLine
10
25.981923
20
16.437836
30
0
11
25.981923
21
-25.778358
31
0
39
0
210
0
220
0
230
1
0
LINE
5
C5
100
AcDbEntity
8
1
62
256
6
ByLayer
370
18
48
1
60
0
100
AcDbLine
10
22.860155
20
21.470201
30
0
11
22.860155
21
18.741876
31
0
39
0
210
0
220
0
230
1
0
LINE
5
C6
100
AcDbEntity
8
1
62
256
6
ByLayer
370
18
48
1
60
0
100
AcDbLine
10
0.3
20
31.5
30
0
11
0.3
21
-31.5
31
0
39
0
210
0
220
0
230
1
0
LINE
5
C7
100
AcDbEntity
8
1
62
256
6
ByLayer
370
18
48
1
60
0
100
AcDbLine
10
13.461325
20
-30.080593
30
0
11
10.538675
21
-30.080593
31
0
39
0
210
0
220
0
230
1
0
LINE
5
C8
100
AcDbEntity
8
1
62
256
6
ByLayer
370
18
48
1
60
0
100
AcDbLine
10
42.405772
20
-31.409222
30
0
11
44.676083
21
-35.117925
31
0
39
0
210
0
220
0
230
1
0
LINE
5
C9
100
AcDbEntity
8
1
62
256
6
ByLayer
370
18
48
1
60
0
100
AcDbLine
10
13.894338
20
29.913955
30
0
11
13.894338
21
9.869413
31
0
39
0
210
0
220
0
230
1
0
LINE
5
CA
100
AcDbEntity
8
1
62
256
6
ByLayer
370
18
48
1
60
0
100
AcDbLine
10
46.427707
20
-27.544119
30
0
11
48.462106
21
-30.867445
31
0
39
0
210
0
220
0
230
1
0
LINE
5
CB
100
AcDbEntity
8
1
62
256
6
ByLayer
370
18
48
1
60
0
100
AcDbLine
10
22.279208
20
22.406702
30
0
11
22.279208
21
16.110272
31
0
39
0
210
0
220
0
230
1
0
LINE
5
CC
100
AcDbEntity
8
1
62
256
6
ByLayer
370
18
48
1
60
0
100
AcDbLine
10
49.131025
20
-31.495436
30
0
11
48.376136
21
-30.633259
31
0
39
0
210
0
220
0
230
1
0
LINE
5
CD
100
AcDbEntity
8
1
62
256
6
ByLayer
370
18
48
1
60
0
100
AcDbLine
10
13.461325
20
9.349221
30
0
11
10.538675
21
9.349221
31
0
39
0
210
0
220
0
230
1
0
LINE
5
CE
100
AcDbEntity
8
1
62
256
6
ByLayer
370
18
48
1
60
0
100
AcDbLine
10
55.623027
20
-31.858432
30
0
11
49.188309
21
-21.346893
31
0
39
0
210
0
220
0
230
1
0
LINE
5
CF
100
AcDbEntity
8
1
62
256
6
ByLayer
370
18
48
1
60
0
100
AcDbLine
10
10.105662
20
-9.869413
30
0
11
10.105662
21
-29.913955
31
0
39
0
210
0
220
0
230
1
0
LINE
5
D0
100
AcDbEntity
8
1
62
256
6
ByLayer
370
18
48
1
60
0
100
AcDbLine
10
22.569198
20
-22.943174
30
0
11
22.569198
21
17.628056
31
0
39
0
210
0
220
0
230
1
0
LINE
5
D1
100
AcDbEntity
8
1
62
256
6
ByLayer
370
18
48
1
60
0
100
AcDbLine
10
22.279208
20
-21.664678
30
0
11
22.279208
21
-29.255497
31
0
39
0
210
0
220
0
230
1
0
LINE
5
D2
100
AcDbEntity
8
1
62
256
6
ByLayer
370
18
48
1
60
0
100
AcDbLine
10
25.732575
20
-40.700267
30
0
11
48.834507
21
-41.910988
31
0
39
0
210
0
220
0
230
1
0
LINE
5
D3
100
AcDbEntity
8
1
62
256
6
ByLayer
370
18
48
1
60
0
100
AcDbLine
10
10.105662
20
29.913955
30
0
11
10.105662
21
9.869413
31
0
39
0
210
0
220
0
230
1
0
LINE
5
D4
100
AcDbEntity
8
1
62
256
6
ByLayer
370
18
48
1
60
0
100
AcDbLine
10
10.538675
20
30.080593
30
0
11
13.461325
21
30.080593
31
0
39
0
210
0
220
0
230
1
0
LINE
5
D5
100
AcDbEntity
8
1
62
256
6
ByLayer
370
18
48
1
60
0
100
AcDbLine
10
48.469238
20
-30.794567
30
0
11
48.376136
21
-30.633259
31
0
39
0
210
0
220
0
230
1
0
LINE
5
D6
100
AcDbEntity
8
1
62
256
6
ByLayer
370
18
48
1
60
0
100
AcDbLine
10
22.279208
20
-31.5
30
0
11
22.279208
21
-30.92076
31
0
39
0
210
0
220
0
230
1
0
LINE
5
D7
100
AcDbEntity
8
1
62
256
6
ByLayer
370
18
48
1
60
0
100
AcDbLine
10
22.860155
20
21.470201
30
0
11
23.738393
21
20.054461
31
0
39
0
210
0
220
0
230
1
0
LINE
5
D8
100
AcDbEntity
8
1
62
256
6
ByLayer
370
18
48
1
60
0
100
AcDbLine
10
10.538675
20
-9.349221
30
0
11
10.538675
21
-30.080593
31
0
39
0
210
0
220
0
230
1
0
LINE
5
D9
100
AcDbEntity
8
1
62
256
6
ByLayer
370
18
48
1
60
0
100
AcDbLine
10
48.51559
20
-30.870287
30
0
11
48.469238
21
-30.794567
31
0
39
0
210
0
220
0
230
1
0
LINE
5
DA
100
AcDbEntity
8
1
62
256
6
ByLayer
370
18
48
1
60
0
100
AcDbLine
10
47.204383
20
-39.248072
30
0
11
48.834507
21
-41.910988
31
0
39
0
210
0
220
0
230
1
0
LINE
5
DB
100
AcDbEntity
8
81
62
256
6
ByLayer
370
70
48
1
60
0
100
AcDbLine
10
65
20
-45
30
0
11
75
21
-45
31
0
39
0
210
0
220
0
230
1
0
LINE
5
DC
100
AcDbEntity
8
80
62
256
6
ByLayer
370
70
48
1
60
0
100
AcDbLine
10
0
20
0
30
0
11
-10
21
0
31
0
39
0
210
0
220
0
230
1
0
LINE
5
DD
100
AcDbEntity
8
1
62
256
6
ByLayer
370
13
48
1
60
0
100
AcDbLine
10
49.490442
20
-43.377127
30
0
11
50.206371
21
-44.074644
31
0
39
0
210
0
220
0
230
1
0
LINE
5
DE
100
AcDbEntity
8
1
62
256
6
ByLayer
370
13
48
1
60
0
100
AcDbLine
10
57.765512
20
-32.208038
30
0
11
57.049584
21
-31.510521
31
0
39
0
210
0
220
0
230
1
0
LINE
5
DF
100
AcDbEntity
8
1
62
256
6
ByLayer
370
18
48
1
60
0
100
AcDbLine
10
51.668529
20
-38.899428
30
0
11
52.025082
21
-39.24681
31
0
39
0
210
0
220
0
230
1
0
LINE
5
E0
100
AcDbEntity
8
1
62
256
6
ByLayer
370
18
48
1
60
0
100
AcDbLine
10
55.507097
20
-36.607475
30
0
11
54.920825
21
-36.03628
31
0
39
0
210
0
220
0
230
1
0
LINE
5
E1
100
AcDbEntity
8
1
62
256
6
ByLayer
370
18
48
1
60
0
100
AcDbLine
10
23.438319
20
-32.389417
30
0
11
25.66553
21
-40.701483
31
0
39
0
210
0
220
0
230
1
0
LINE
5
E2
100
AcDbEntity
8
1
62
256
6
ByLayer
370
18
48
1
60
0
100
AcDbLine
10
16.638288
20
31.5
30
0
11
0.3
21
31.5
31
0
39
0
210
0
220
0
230
1
0
LINE
5
E3
100
AcDbEntity
8
1
62
256
6
ByLayer
370
18
48
1
60
0
100
AcDbLine
10
0.3
20
-31.5
30
0
11
22.279208
21
-31.5
31
0
39
0
210
0
220
0
230
1
0
LINE
5
E4
100
AcDbEntity
8
1
62
256
6
ByLayer
370
18
48
1
60
0
100
AcDbLine
10
0
20
-31.2
30
0
11
0.3
21
-31.5
31
0
39
0
210
0
220
0
230
1
0
LINE
5
E5
100
AcDbEntity
8
1
62
256
6
ByLayer
370
18
48
1
60
0
100
AcDbLine
10
35.884927
20
-39.082988
30
0
11
35.929059
21
-39.125985
31
0
39
0
210
0
220
0
230
1
0
LINE
5
E6
100
AcDbEntity
8
1
62
256
6
ByLayer
370
18
48
1
60
0
100
AcDbLine
10
41.511751
20
-33.395928
30
0
11
41.467619
21
-33.352931
31
0
39
0
210
0
220
0
230
1
0
LINE
5
E7
100
AcDbEntity
8
1
62
256
6
ByLayer
370
18
48
1
60
0
100
AcDbLine
10
0.3
20
31.5
30
0
11
0
21
31.2
31
0
39
0
210
0
220
0
230
1
0
LINE
5
E8
100
AcDbEntity
8
2
62
256
6
ByLayer
370
13
48
1
60
0
100
AcDbLine
10
65
20
-46.5875
30
0
11
65
21
-61.840993
31
0
39
0
210
0
220
0
230
1
0
LINE
5
E9
100
AcDbEntity
8
1
62
256
6
ByLayer
370
13
48
1
60
0
100
AcDbLine
10
65
20
-58.665993
30
0
11
61.781025
21
-59.331246
31
0
39
0
210
0
220
0
230
1
0
LINE
5
EA
100
AcDbEntity
8
1
62
256
6
ByLayer
370
13
48
1
60
0
100
AcDbLine
10
65
20
-58.665993
30
0
11
61.879654
21
-57.63263
31
0
39
0
210
0
220
0
230
1
0
LINE
5
EB
100
AcDbEntity
8
1
62
256
6
ByLayer
370
13
48
1
60
0
100
AcDbLine
10
61.781025
20
-59.331246
30
0
11
61.879654
21
-57.63263
31
0
39
0
210
0
220
0
230
1
0
LINE
5
EC
100
AcDbEntity
8
1
62
256
6
ByLayer
370
13
48
1
60
0
100
AcDbLine
10
51.395365
20
-44.329699
30
0
11
52.264006
21
-47.499845
31
0
39
0
210
0
220
0
230
1
0
LINE
5
ED
100
AcDbEntity
8
1
62
256
6
ByLayer
370
13
48
1
60
0
100
AcDbLine
10
51.395365
20
-44.329699
30
0
11
50.562556
21
-47.509452
31
0
39
0
210
0
220
0
230
1
0
LINE
5
EE
100
AcDbEntity
8
1
62
256
6
ByLayer
370
13
48
1
60
0
100
AcDbLine
10
52.264006
20
-47.499845
30
0
11
50.562556
21
-47.509452
31
0
39
0
210
0
220
0
230
1
0
MTEXT
5
16B
100
AcDbEntity
8
2
62
256
6
ByLayer
370
13
48
1
60
0
100
AcDbMText
10
50.159039
20
-39.046658
30
0
210
0
220
0
230
1
1
\W0.8292;93%%d0'
40
4.5
41
0
44
1.084337
50
44.904571963642
71
7
72
5
7
iso_b_vert
0
MTEXT
5
16E
100
AcDbEntity
8
SK6
62
256
6
ByLayer
370
13
48
1
60
0
100
AcDbMText
10
13.6855
20
-77.467366
30
0
210
0
220
0
230
1
1
\W0.7408;C6-PDJNL-45065-15C1
40
3.5
41
0
44
1.084337
50
0
71
7
72
5
7
iso_b_vert
0
DIMENSION
5
171
100
AcDbEntity
8
2
62
256
6
ByLayer
370
13
48
1
60
0
100
AcDbDimension
2
_U0
10
90.85
20
0
30
0
11
90.85
21
-22.5
31
0
70
32
71
1
72
1
41
1
210
0
220
0
230
1
3
Standard
100
AcDbAlignedDimension
13
65
23
-45
33
0
14
50
24
0
34
0
50
90
100
AcDbRotatedDimension
1001
ACAD
1000
DSTYLE
1002
{
1070
   371
1070
    13
1070
   372
1070
    13
1070
     3
1000

1070
   170
1070
     0
1070
   144
1040
1.0
1070
   277
1070
     2
1070
   284
1070
     8
1070
   278
1070
    46
1070
   146
1040
0.777778
1070
   345
1005
16
1070
   347
1005
16
1070
   346
1005
16
1070
   344
1005
172
1070
   343
1005
172
1070
   172
1070
     1
1070
    76
1070
     0
1070
    75
1070
     0
1070
   282
1070
     0
1070
   281
1070
     0
1070
    71
1070
     0
1070
    74
1070
     0
1070
   279
1070
     0
1070
   173
1070
     1
1070
   340
1005
16C
1070
   271
1070
     1
1070
   272
1070
     2
1070
    77
1070
     1
1070
    73
1070
     0
1070
   171
1070
     3
1070
   274
1070
     4
1070
   177
1070
   150
1070
   176
1070
     9
1070
   178
1070
    43
1070
    78
1070
     8
1070
    48
1040
-0.1
1070
    41
1040
3.175
1070
   147
1040
2.25
1070
    42
1040
1.5875
1070
    44
1040
3.175
1070
   140
1040
4.5
1002
}
1001
ACAD_DSTYLE_DIM_LINETYPE
1070
   380
1005
16
1001
ACAD_DSTYLE_DIM_EXT1_LINETYPE
1070
   381
1005
16
1001
ACAD_DSTYLE_DIM_EXT2_LINETYPE
1070
   382
1005
16
0
DIMENSION
5
195
100
AcDbEntity
8
2
62
256
6
ByLayer
370
13
48
1
60
0
100
AcDbDimension
2
_U1
10
65
20
38.35
30
0
11
32.5
21
38.35
31
0
70
32
71
1
72
1
41
1
210
0
220
0
230
1
3
Standard
100
AcDbAlignedDimension
13
0
23
-31.5
33
0
14
65
24
-45
34
0
50
0
100
AcDbRotatedDimension
1001
ACAD
1000
DSTYLE
1002
{
1070
   371
1070
    13
1070
   372
1070
    13
1070
     3
1000

1070
   170
1070
     0
1070
   144
1040
1.0
1070
   277
1070
     2
1070
   284
1070
     8
1070
   278
1070
    46
1070
   146
1040
0.777778
1070
   345
1005
16
1070
   347
1005
16
1070
   346
1005
16
1070
   344
1005
172
1070
   343
1005
172
1070
   172
1070
     1
1070
    76
1070
     0
1070
    75
1070
     0
1070
   282
1070
     0
1070
   281
1070
     0
1070
    71
1070
     0
1070
    74
1070
     0
1070
   279
1070
     0
1070
   173
1070
     1
1070
   340
1005
16C
1070
   271
1070
     1
1070
   272
1070
     2
1070
    77
1070
     1
1070
    73
1070
     1
1070
   171
1070
     3
1070
   274
1070
     4
1070
   177
1070
   150
1070
   176
1070
     9
1070
   178
1070
    43
1070
    78
1070
     8
1070
    48
1040
-0.1
1070
    41
1040
3.175
1070
   147
1040
2.25
1070
    42
1040
1.5875
1070
    44
1040
3.175
1070
   140
1040
4.5
1002
}
1001
ACAD_DSTYLE_DIM_LINETYPE
1070
   380
1005
16
1001
ACAD_DSTYLE_DIM_EXT1_LINETYPE
1070
   381
1005
16
1001
ACAD_DSTYLE_DIM_EXT2_LINETYPE
1070
   382
1005
16
0
ENDSEC
0
SECTION
2
OBJECTS
0
DICTIONARY
5
220
330
0
100
AcDbDictionary
280
0
281
1
3
ACAD_GROUP
350
221
3
ACAD_MLINESTYLE
350
222
0
DICTIONARY
5
221
330
0
100
AcDbDictionary
280
0
281
1
0
DICTIONARY
5
222
330
0
100
AcDbDictionary
280
0
281
1
3
Standard
350
18
0
MLINESTYLE
5
18
330
222
100
AcDbMlineStyle
2
Standard
70
0
3

62
256
51
90
52
90
71
2
49
-0.5
62
256
6
ByLayer
49
0.5
62
256
6
ByLayer
0
RASTERVARIABLES
5
20f
330

100
AcDbRasterVariables
90
0
70
1
71
1
72
1
0
ENDSEC
0
EOF
