0
SECTION
2
HEADER
9
$ACADVER
1
AC1015
9
$DWGCODEPAGE
3
ANSI_1252
9
$HANDSEED
5
25c
9
$ANGBASE
50
0
9
$ANGDIR
70
0
9
$ATTMODE
70
1
9
$AUNITS
70
0
9
$AUPREC
70
0
9
$CECOLOR
62
256
9
$CELTSCALE
40
1
9
$CELTYPE
6
ByLayer
9
$CELWEIGHT
370
18
9
$CLAYER
8
0
9
$CMLJUST
70
0
9
$CMLSCALE
40
1
9
$CMLSTYLE
2
Standard
9
$DIMSTYLE
2
Standard
9
$TEXTSIZE
40
0.2
9
$TEXTSTYLE
7
Standard
9
$LUNITS
70
2
9
$LUPREC
70
4
9
$EXTNAMES
290
1
9
$INSUNITS
70
4
9
$LTSCALE
40
1
9
$LWDISPLAY
290
1
9
$PDMODE
70
0
9
$PDSIZE
40
0
9
$PLINEGEN
70
0
0
ENDSEC
0
SECTION
2
CLASSES
0
CLASS
1
RASTERVARIABLES
2
AcDbRasterVariables
3
ISM
90
0
280
0
281
0
0
ENDSEC
0
SECTION
2
TABLES
0
TABLE
2
VPORT
5
252
100
AcDbSymbolTable
0
VPORT
5
1
100
AcDbSymbolTableRecord
100
AcDbViewportTableRecord
2
*Active
70
0
10
0
20
0
11
1
21
1
12
-1
22
1
13
0
23
0
14
0.5
24
0.5
15
10
25
10
16
0
26
0
36
1
17
0
27
0
37
0
0
ENDTAB
0
TABLE
2
LTYPE
5
253
100
AcDbSymbolTable
0
LTYPE
5
14
100
AcDbSymbolTableRecord
100
AcDbLinetypeTableRecord
70
0
2
ByBlock
3

72
65
73
0
40
0
0
LTYPE
5
15
100
AcDbSymbolTableRecord
100
AcDbLinetypeTableRecord
70
0
2
ByLayer
3

72
65
73
0
40
0
0
LTYPE
5
16
100
AcDbSymbolTableRecord
100
AcDbLinetypeTableRecord
70
0
2
Continuous
3
Solid line
72
65
73
0
40
0
0
LTYPE
5
6E
100
AcDbSymbolTableRecord
100
AcDbLinetypeTableRecord
70
0
2
CENTER
3
____ _ ____ _ ____ _ ____
72
65
73
4
40
47.5
49
22
74
0
49
-8.5
74
0
49
8.5
74
0
49
-8.5
74
0
0
LTYPE
5
6F
100
AcDbSymbolTableRecord
100
AcDbLinetypeTableRecord
70
0
2
DASHED
3
__ __ __ __ __ __ __ __ __
72
65
73
2
40
25.72
49
12.86
74
0
49
-12.86
74
0
0
ENDTAB
0
TABLE
2
LAYER
5
254
100
AcDbSymbolTable
0
LAYER
5
10
100
AcDbSymbolTableRecord
100
AcDbLayerTableRecord
2
0
70
0
62
7
6
Continuous
290
1
370
-3
390
0
0
LAYER
5
71
100
AcDbSymbolTableRecord
100
AcDbLayerTableRecord
2
2
70
0
62
7
6
Continuous
290
1
370
-3
390
0
0
LAYER
5
7F
100
AcDbSymbolTableRecord
100
AcDbLayerTableRecord
2
81
70
0
62
-3
6
Continuous
290
1
370
-3
390
0
0
LAYER
5
81
100
AcDbSymbolTableRecord
100
AcDbLayerTableRecord
2
80
70
0
62
-6
6
Continuous
290
1
370
-3
390
0
0
LAYER
5
83
100
AcDbSymbolTableRecord
100
AcDbLayerTableRecord
2
1
70
0
62
4
6
Continuous
290
1
370
-3
390
0
0
LAYER
5
155
100
AcDbSymbolTableRecord
100
AcDbLayerTableRecord
2
Defpoints
70
0
62
7
6
Continuous
290
0
370
-3
390
0
0
LAYER
5
23f
100
AcDbSymbolTableRecord
100
AcDbLayerTableRecord
2
SK2
70
0
62
7
6
Continuous
290
1
370
-3
390
0
0
LAYER
5
240
100
AcDbSymbolTableRecord
100
AcDbLayerTableRecord
2
SK1
70
0
62
4
6
Continuous
290
1
370
-3
390
0
0
LAYER
5
241
100
AcDbSymbolTableRecord
100
AcDbLayerTableRecord
2
SK6
70
0
62
5
6
Continuous
290
1
370
-3
390
0
0
ENDTAB
0
TABLE
2
STYLE
5
255
100
AcDbSymbolTable
0
STYLE
5
11
100
AcDbSymbolTableRecord
100
AcDbTextStyleTableRecord
2
Standard
3
txt
70
0
71
0
40
0
41
1
42
0
50
0
0
STYLE
5
146
100
AcDbSymbolTableRecord
100
AcDbTextStyleTableRecord
2
iso_b_vert
3
simplex.shx
70
0
71
0
40
0
41
1
42
0
50
0
0
STYLE
5
147
100
AcDbSymbolTableRecord
100
AcDbTextStyleTableRecord
2
DWGDirectTextStyle
3
simplex
70
0
71
0
40
0
41
1
42
0
50
0
0
ENDTAB
0
TABLE
2
DIMSTYLE
5
256
100
AcDbSymbolTable
100
AcDbDimStyleTable
0
DIMSTYLE
105
27
100
AcDbSymbolTableRecord
100
AcDbDimStyleTableRecord
2
Standard
70
0
3
<>
41
0.18
42
0.0625
44
0.18
140
0.18
147
0.09
73
0
74
0
77
1
271
2
275
0
278
52
280
0
340
11
0
ENDTAB
0
TABLE
2
VIEW
5
257
100
AcDbSymbolTable
0
ENDTAB
0
TABLE
2
UCS
5
258
100
AcDbSymbolTable
0
ENDTAB
0
TABLE
2
APPID
5
259
100
AcDbSymbolTable
0
APPID
5
12
100
AcDbSymbolTableRecord
100
AcDbRegAppTableRecord
2
ACAD
70
0
0
APPID
5
14A
100
AcDbSymbolTableRecord
100
AcDbRegAppTableRecord
2
ACAD_DSTYLE_DIMBREAK
70
0
0
APPID
5
1FE
100
AcDbSymbolTableRecord
100
AcDbRegAppTableRecord
2
ACAD_DSTYLE_DIM_LINETYPE
70
0
0
APPID
5
1FF
100
AcDbSymbolTableRecord
100
AcDbRegAppTableRecord
2
ACAD_DSTYLE_DIM_EXT1_LINETYPE
70
0
0
APPID
5
200
100
AcDbSymbolTableRecord
100
AcDbRegAppTableRecord
2
ACAD_DSTYLE_DIM_EXT2_LINETYPE
70
0
0
APPID
5
23B
100
AcDbSymbolTableRecord
100
AcDbRegAppTableRecord
2
ACAD_MLEADERVER
70
0
0
ENDTAB
0
TABLE
2
BLOCK_RECORD
5
25a
100
AcDbSymbolTable
0
BLOCK_RECORD
5
1F
100
AcDbSymbolTableRecord
100
AcDbBlockTableRecord
2
*Model_Space
340
0
70
0
0
BLOCK_RECORD
5
1B
100
AcDbSymbolTableRecord
100
AcDbBlockTableRecord
2
*Paper_Space
340
0
70
0
0
BLOCK_RECORD
5
23
100
AcDbSymbolTableRecord
100
AcDbBlockTableRecord
2
*Paper_Space0
340
0
70
0
0
BLOCK_RECORD
5
14C
100
AcDbSymbolTableRecord
100
AcDbBlockTableRecord
2
_Closed
340
0
70
0
0
BLOCK_RECORD
5
156
100
AcDbSymbolTableRecord
100
AcDbBlockTableRecord
2
*D2
340
0
70
0
0
BLOCK_RECORD
5
162
100
AcDbSymbolTableRecord
100
AcDbBlockTableRecord
2
_U0
340
0
70
0
0
BLOCK_RECORD
5
172
100
AcDbSymbolTableRecord
100
AcDbBlockTableRecord
2
*D4
340
0
70
0
0
BLOCK_RECORD
5
17E
100
AcDbSymbolTableRecord
100
AcDbBlockTableRecord
2
_U1
340
0
70
0
0
BLOCK_RECORD
5
18E
100
AcDbSymbolTableRecord
100
AcDbBlockTableRecord
2
*D6
340
0
70
0
0
BLOCK_RECORD
5
19A
100
AcDbSymbolTableRecord
100
AcDbBlockTableRecord
2
_U2
340
0
70
0
0
BLOCK_RECORD
5
1AA
100
AcDbSymbolTableRecord
100
AcDbBlockTableRecord
2
*D8
340
0
70
0
0
BLOCK_RECORD
5
1B6
100
AcDbSymbolTableRecord
100
AcDbBlockTableRecord
2
_U3
340
0
70
0
0
BLOCK_RECORD
5
1C6
100
AcDbSymbolTableRecord
100
AcDbBlockTableRecord
2
*D10
340
0
70
0
0
BLOCK_RECORD
5
1D3
100
AcDbSymbolTableRecord
100
AcDbBlockTableRecord
2
_U4
340
0
70
0
0
ENDTAB
0
ENDSEC
0
SECTION
2
BLOCKS
0
BLOCK
5
20
100
AcDbEntity
8
0
100
AcDbBlockBegin
2
*Model_Space
70
0
10
0
20
0
30
0
3
*Model_Space
0
ENDBLK
5
21
100
AcDbEntity
8
0
100
AcDbBlockEnd
0
BLOCK
5
1C
100
AcDbEntity
8
0
100
AcDbBlockBegin
2
*Paper_Space
70
0
10
0
20
0
30
0
3
*Paper_Space
0
ENDBLK
5
1D
100
AcDbEntity
8
0
100
AcDbBlockEnd
0
BLOCK
5
24
100
AcDbEntity
8
0
100
AcDbBlockBegin
2
*Paper_Space0
70
0
10
0
20
0
30
0
3
*Paper_Space0
0
ENDBLK
5
25
100
AcDbEntity
8
0
100
AcDbBlockEnd
0
BLOCK
5
14D
100
AcDbEntity
8
0
100
AcDbBlockBegin
2
_Closed
70
0
10
0
20
0
30
0
3
_Closed
0
LINE
5
14F
100
AcDbEntity
8
0
62
256
6
ByLayer
370
-2
48
1
60
0
100
AcDbLine
10
-1
20
0.166667
30
0
11
0
21
0
31
0
39
0
210
0
220
0
230
1
0
LINE
5
150
100
AcDbEntity
8
0
62
256
6
ByLayer
370
-2
48
1
60
0
100
AcDbLine
10
0
20
0
30
0
11
-1
21
-0.166667
31
0
39
0
210
0
220
0
230
1
0
LINE
5
151
100
AcDbEntity
8
0
62
256
6
ByLayer
370
-2
48
1
60
0
100
AcDbLine
10
-1
20
0.166667
30
0
11
-1
21
-0.166667
31
0
39
0
210
0
220
0
230
1
0
LINE
5
152
100
AcDbEntity
8
0
62
256
6
ByLayer
370
-2
48
1
60
0
100
AcDbLine
10
0
20
0
30
0
11
-1
21
0
31
0
39
0
210
0
220
0
230
1
0
ENDBLK
5
14E
100
AcDbEntity
8
0
100
AcDbBlockEnd
0
BLOCK
5
157
100
AcDbEntity
8
0
100
AcDbBlockBegin
2
*D2
70
1
10
0
20
0
30
0
3
*D2
0
LINE
5
159
100
AcDbEntity
8
0
62
256
6
ByLayer
370
-2
48
1
60
0
100
AcDbLine
10
0
20
10.7
30
0
11
0
21
-34.151952
31
0
39
0
210
0
220
0
230
1
0
LINE
5
15A
100
AcDbEntity
8
0
62
256
6
ByLayer
370
-2
48
1
60
0
100
AcDbLine
10
40.5
20
-12.726042
30
0
11
40.5
21
-34.151952
31
0
39
0
210
0
220
0
230
1
0
LINE
5
15B
100
AcDbEntity
8
0
62
256
6
ByLayer
370
-2
48
1
60
0
100
AcDbLine
10
3.175
20
-32.151952
30
0
11
37.325
21
-32.151952
31
0
39
0
210
0
220
0
230
1
0
SOLID
5
15C
100
AcDbEntity
8
0
62
256
6
ByLayer
370
-1
48
1
60
0
100
AcDbTrace
10
3.175
20
-31.622786
30
0
11
3.175
21
-32.681119
31
0
12
0
22
-32.151952
32
0
13
0
23
-32.151952
33
0
39
0
210
0
220
0
230
1
0
SOLID
5
15D
100
AcDbEntity
8
0
62
256
6
ByLayer
370
-1
48
1
60
0
100
AcDbTrace
10
37.325
20
-32.681119
30
0
11
37.325
21
-31.622786
31
0
12
40.5
22
-32.151952
32
0
13
40.5
23
-32.151952
33
0
39
0
210
0
220
0
230
1
0
MTEXT
5
15E
100
AcDbEntity
8
0
62
256
6
ByLayer
370
18
48
1
60
0
100
AcDbMText
10
20.25
20
-23.401952
30
0
210
0
220
0
230
1
1
\A1;40.5
40
3.5
41
0
44
1
50
0
71
5
72
5
7
iso_b_vert
0
POINT
5
15F
100
AcDbEntity
8
Defpoints
62
0
6
ByLayer
370
-1
48
1
60
0
100
AcDbPoint
10
0
20
12.7
30
0
39
0
210
0
220
0
230
1
50
360
0
POINT
5
160
100
AcDbEntity
8
Defpoints
62
0
6
ByLayer
370
-1
48
1
60
0
100
AcDbPoint
10
40.5
20
-10.726042
30
0
39
0
210
0
220
0
230
1
50
360
0
POINT
5
161
100
AcDbEntity
8
Defpoints
62
0
6
ByLayer
370
-1
48
1
60
0
100
AcDbPoint
10
40.5
20
-32.151952
30
0
39
0
210
0
220
0
230
1
50
360
0
ENDBLK
5
158
100
AcDbEntity
8
0
100
AcDbBlockEnd
0
BLOCK
5
16D
100
AcDbEntity
8
0
100
AcDbBlockBegin
2
_U0
70
0
10
0
20
0
30
0
3
_U0
0
MTEXT
5
163
100
AcDbEntity
8
2
62
256
6
ByLayer
370
18
48
1
60
0
100
AcDbMText
10
16.144034
20
-31.119319
30
0
210
0
220
0
230
1
1
\W0.7640;40.5
40
3.5
41
0
44
1.084337
50
0
71
7
72
5
7
iso_b_vert
0
LINE
5
164
100
AcDbEntity
8
2
62
256
6
ByLayer
370
13
48
1
60
0
100
AcDbLine
10
0
20
10.7
30
0
11
0
21
-34.151952
31
0
39
0
210
0
220
0
230
1
0
LINE
5
165
100
AcDbEntity
8
2
62
256
6
ByLayer
370
13
48
1
60
0
100
AcDbLine
10
40.5
20
-12.726042
30
0
11
40.5
21
-34.151952
31
0
39
0
210
0
220
0
230
1
0
LINE
5
166
100
AcDbEntity
8
2
62
256
6
ByLayer
370
13
48
1
60
0
100
AcDbLine
10
0
20
-32.151952
30
0
11
40.5
21
-32.151952
31
0
39
0
210
0
220
0
230
1
0
LINE
5
167
100
AcDbEntity
8
2
62
256
6
ByLayer
370
13
48
1
60
0
100
AcDbLine
10
0
20
-32.151952
30
0
11
3.174998
21
-31.733956
31
0
39
0
210
0
220
0
230
1
0
LINE
5
168
100
AcDbEntity
8
2
62
256
6
ByLayer
370
13
48
1
60
0
100
AcDbLine
10
0
20
-32.151952
30
0
11
3.175002
21
-32.569949
31
0
39
0
210
0
220
0
230
1
0
LINE
5
169
100
AcDbEntity
8
2
62
256
6
ByLayer
370
13
48
1
60
0
100
AcDbLine
10
3.174998
20
-31.733956
30
0
11
3.175002
21
-32.569949
31
0
39
0
210
0
220
0
230
1
0
LINE
5
16A
100
AcDbEntity
8
2
62
256
6
ByLayer
370
13
48
1
60
0
100
AcDbLine
10
40.5
20
-32.151952
30
0
11
37.325002
21
-32.569949
31
0
39
0
210
0
220
0
230
1
0
LINE
5
16B
100
AcDbEntity
8
2
62
256
6
ByLayer
370
13
48
1
60
0
100
AcDbLine
10
40.5
20
-32.151952
30
0
11
37.324998
21
-31.733956
31
0
39
0
210
0
220
0
230
1
0
LINE
5
16C
100
AcDbEntity
8
2
62
256
6
ByLayer
370
13
48
1
60
0
100
AcDbLine
10
37.325002
20
-32.569949
30
0
11
37.324998
21
-31.733956
31
0
39
0
210
0
220
0
230
1
0
ENDBLK
5
16E
100
AcDbEntity
8
0
100
AcDbBlockEnd
0
BLOCK
5
173
100
AcDbEntity
8
0
100
AcDbBlockBegin
2
*D4
70
1
10
0
20
0
30
0
3
*D4
0
LINE
5
175
100
AcDbEntity
8
0
62
256
6
ByLayer
370
-2
48
1
60
0
100
AcDbLine
10
2
20
12.7
30
0
11
36.828087
21
12.7
31
0
39
0
210
0
220
0
230
1
0
LINE
5
176
100
AcDbEntity
8
0
62
256
6
ByLayer
370
-2
48
1
60
0
100
AcDbLine
10
38.5
20
-10.726042
30
0
11
32.828087
21
-10.726042
31
0
39
0
210
0
220
0
230
1
0
LINE
5
177
100
AcDbEntity
8
0
62
256
6
ByLayer
370
-2
48
1
60
0
100
AcDbLine
10
34.828087
20
9.525
30
0
11
34.828087
21
-7.551042
31
0
39
0
210
0
220
0
230
1
0
SOLID
5
178
100
AcDbEntity
8
0
62
256
6
ByLayer
370
-1
48
1
60
0
100
AcDbTrace
10
35.357254
20
9.525
30
0
11
34.29892
21
9.525
31
0
12
34.828087
22
12.7
32
0
13
34.828087
23
12.7
33
0
39
0
210
0
220
0
230
1
0
SOLID
5
179
100
AcDbEntity
8
0
62
256
6
ByLayer
370
-1
48
1
60
0
100
AcDbTrace
10
34.29892
20
-7.551042
30
0
11
35.357254
21
-7.551042
31
0
12
34.828087
22
-10.726042
32
0
13
34.828087
23
-10.726042
33
0
39
0
210
0
220
0
230
1
0
MTEXT
5
17A
100
AcDbEntity
8
0
62
256
6
ByLayer
370
18
48
1
60
0
100
AcDbMText
10
26.078087
20
0.986979
30
0
210
0
220
0
230
1
1
\A1;23.4
40
3.5
41
0
44
1
50
90
71
5
72
5
7
iso_b_vert
0
POINT
5
17B
100
AcDbEntity
8
Defpoints
62
0
6
ByLayer
370
-1
48
1
60
0
100
AcDbPoint
10
0
20
12.7
30
0
39
0
210
0
220
0
230
1
50
360
0
POINT
5
17C
100
AcDbEntity
8
Defpoints
62
0
6
ByLayer
370
-1
48
1
60
0
100
AcDbPoint
10
40.5
20
-10.726042
30
0
39
0
210
0
220
0
230
1
50
360
0
POINT
5
17D
100
AcDbEntity
8
Defpoints
62
0
6
ByLayer
370
-1
48
1
60
0
100
AcDbPoint
10
34.828087
20
-10.726042
30
0
39
0
210
0
220
0
230
1
50
360
0
ENDBLK
5
174
100
AcDbEntity
8
0
100
AcDbBlockEnd
0
BLOCK
5
189
100
AcDbEntity
8
0
100
AcDbBlockBegin
2
_U1
70
0
10
0
20
0
30
0
3
_U1
0
MTEXT
5
17F
100
AcDbEntity
8
2
62
256
6
ByLayer
370
18
48
1
60
0
100
AcDbMText
10
34.138453
20
-4.45472
30
0
210
0
220
0
230
1
1
\W0.7694;23.43
40
3.5
41
0
44
1.084337
50
90
71
7
72
5
7
iso_b_vert
0
LINE
5
180
100
AcDbEntity
8
2
62
256
6
ByLayer
370
13
48
1
60
0
100
AcDbLine
10
2
20
12.7
30
0
11
36.828087
21
12.7
31
0
39
0
210
0
220
0
230
1
0
LINE
5
181
100
AcDbEntity
8
2
62
256
6
ByLayer
370
13
48
1
60
0
100
AcDbLine
10
38.5
20
-10.726042
30
0
11
32.828087
21
-10.726042
31
0
39
0
210
0
220
0
230
1
0
LINE
5
182
100
AcDbEntity
8
2
62
256
6
ByLayer
370
13
48
1
60
0
100
AcDbLine
10
34.828087
20
12.7
30
0
11
34.828087
21
-10.726042
31
0
39
0
210
0
220
0
230
1
0
LINE
5
183
100
AcDbEntity
8
2
62
256
6
ByLayer
370
13
48
1
60
0
100
AcDbLine
10
34.828087
20
12.7
30
0
11
35.246084
21
9.525002
31
0
39
0
210
0
220
0
230
1
0
LINE
5
184
100
AcDbEntity
8
2
62
256
6
ByLayer
370
13
48
1
60
0
100
AcDbLine
10
34.828087
20
12.7
30
0
11
34.41009
21
9.524998
31
0
39
0
210
0
220
0
230
1
0
LINE
5
185
100
AcDbEntity
8
2
62
256
6
ByLayer
370
13
48
1
60
0
100
AcDbLine
10
35.246084
20
9.525002
30
0
11
34.41009
21
9.524998
31
0
39
0
210
0
220
0
230
1
0
LINE
5
186
100
AcDbEntity
8
2
62
256
6
ByLayer
370
13
48
1
60
0
100
AcDbLine
10
34.828087
20
-10.726042
30
0
11
34.41009
21
-7.551043
31
0
39
0
210
0
220
0
230
1
0
LINE
5
187
100
AcDbEntity
8
2
62
256
6
ByLayer
370
13
48
1
60
0
100
AcDbLine
10
34.828087
20
-10.726042
30
0
11
35.246084
21
-7.55104
31
0
39
0
210
0
220
0
230
1
0
LINE
5
188
100
AcDbEntity
8
2
62
256
6
ByLayer
370
13
48
1
60
0
100
AcDbLine
10
34.41009
20
-7.551043
30
0
11
35.246084
21
-7.55104
31
0
39
0
210
0
220
0
230
1
0
ENDBLK
5
18A
100
AcDbEntity
8
0
100
AcDbBlockEnd
0
BLOCK
5
18F
100
AcDbEntity
8
0
100
AcDbBlockBegin
2
*D6
70
1
10
0
20
0
30
0
3
*D6
0
LINE
5
191
100
AcDbEntity
8
0
62
256
6
ByLayer
370
-2
48
1
60
0
100
AcDbLine
10
-2
20
-12.7
30
0
11
-13.517193
21
-12.7
31
0
39
0
210
0
220
0
230
1
0
LINE
5
192
100
AcDbEntity
8
0
62
256
6
ByLayer
370
-2
48
1
60
0
100
AcDbLine
10
-2
20
12.7
30
0
11
-13.517193
21
12.7
31
0
39
0
210
0
220
0
230
1
0
LINE
5
193
100
AcDbEntity
8
0
62
256
6
ByLayer
370
-2
48
1
60
0
100
AcDbLine
10
-11.517193
20
-9.525
30
0
11
-11.517193
21
9.525
31
0
39
0
210
0
220
0
230
1
0
SOLID
5
194
100
AcDbEntity
8
0
62
256
6
ByLayer
370
-1
48
1
60
0
100
AcDbTrace
10
-12.046359
20
-9.525
30
0
11
-10.988026
21
-9.525
31
0
12
-11.517193
22
-12.7
32
0
13
-11.517193
23
-12.7
33
0
39
0
210
0
220
0
230
1
0
SOLID
5
195
100
AcDbEntity
8
0
62
256
6
ByLayer
370
-1
48
1
60
0
100
AcDbTrace
10
-10.988026
20
9.525
30
0
11
-12.046359
21
9.525
31
0
12
-11.517193
22
12.7
32
0
13
-11.517193
23
12.7
33
0
39
0
210
0
220
0
230
1
0
MTEXT
5
196
100
AcDbEntity
8
0
62
256
6
ByLayer
370
18
48
1
60
0
100
AcDbMText
10
-20.267193
20
0
30
0
210
0
220
0
230
1
1
\A1;25.4
40
3.5
41
0
44
1
50
90
71
5
72
5
7
iso_b_vert
0
POINT
5
197
100
AcDbEntity
8
Defpoints
62
0
6
ByLayer
370
-1
48
1
60
0
100
AcDbPoint
10
0
20
-12.7
30
0
39
0
210
0
220
0
230
1
50
360
0
POINT
5
198
100
AcDbEntity
8
Defpoints
62
0
6
ByLayer
370
-1
48
1
60
0
100
AcDbPoint
10
0
20
12.7
30
0
39
0
210
0
220
0
230
1
50
360
0
POINT
5
199
100
AcDbEntity
8
Defpoints
62
0
6
ByLayer
370
-1
48
1
60
0
100
AcDbPoint
10
-11.517193
20
12.7
30
0
39
0
210
0
220
0
230
1
50
360
0
ENDBLK
5
190
100
AcDbEntity
8
0
100
AcDbBlockEnd
0
BLOCK
5
1A5
100
AcDbEntity
8
0
100
AcDbBlockBegin
2
_U2
70
0
10
0
20
0
30
0
3
_U2
0
MTEXT
5
19B
100
AcDbEntity
8
SK2
62
256
6
ByLayer
370
18
48
1
60
0
100
AcDbMText
10
-12.206826
20
-4.133966
30
0
210
0
220
0
230
1
1
\W0.7528;25.4
40
3.5
41
0
44
1.084337
50
90
71
7
72
5
7
iso_b_vert
0
LINE
5
19C
100
AcDbEntity
8
SK2
62
256
6
ByLayer
370
13
48
1
60
0
100
AcDbLine
10
-2
20
-12.7
30
0
11
-13.517193
21
-12.7
31
0
39
0
210
0
220
0
230
1
0
LINE
5
19D
100
AcDbEntity
8
SK2
62
256
6
ByLayer
370
13
48
1
60
0
100
AcDbLine
10
-2
20
12.7
30
0
11
-13.517193
21
12.7
31
0
39
0
210
0
220
0
230
1
0
LINE
5
19E
100
AcDbEntity
8
SK2
62
256
6
ByLayer
370
13
48
1
60
0
100
AcDbLine
10
-11.517193
20
-12.7
30
0
11
-11.517193
21
12.7
31
0
39
0
210
0
220
0
230
1
0
LINE
5
19F
100
AcDbEntity
8
SK2
62
256
6
ByLayer
370
13
48
1
60
0
100
AcDbLine
10
-11.517193
20
-12.7
30
0
11
-11.935189
21
-9.525002
31
0
39
0
210
0
220
0
230
1
0
LINE
5
1A0
100
AcDbEntity
8
SK2
62
256
6
ByLayer
370
13
48
1
60
0
100
AcDbLine
10
-11.517193
20
-12.7
30
0
11
-11.099196
21
-9.524998
31
0
39
0
210
0
220
0
230
1
0
LINE
5
1A1
100
AcDbEntity
8
SK2
62
256
6
ByLayer
370
13
48
1
60
0
100
AcDbLine
10
-11.935189
20
-9.525002
30
0
11
-11.099196
21
-9.524998
31
0
39
0
210
0
220
0
230
1
0
LINE
5
1A2
100
AcDbEntity
8
SK2
62
256
6
ByLayer
370
13
48
1
60
0
100
AcDbLine
10
-11.517193
20
12.7
30
0
11
-11.099196
21
9.525002
31
0
39
0
210
0
220
0
230
1
0
LINE
5
1A3
100
AcDbEntity
8
SK2
62
256
6
ByLayer
370
13
48
1
60
0
100
AcDbLine
10
-11.517193
20
12.7
30
0
11
-11.935189
21
9.524998
31
0
39
0
210
0
220
0
230
1
0
LINE
5
1A4
100
AcDbEntity
8
SK2
62
256
6
ByLayer
370
13
48
1
60
0
100
AcDbLine
10
-11.099196
20
9.525002
30
0
11
-11.935189
21
9.524998
31
0
39
0
210
0
220
0
230
1
0
ENDBLK
5
1A6
100
AcDbEntity
8
0
100
AcDbBlockEnd
0
BLOCK
5
1AB
100
AcDbEntity
8
0
100
AcDbBlockBegin
2
*D8
70
1
10
0
20
0
30
0
3
*D8
0
LINE
5
1AD
100
AcDbEntity
8
0
62
256
6
ByLayer
370
-2
48
1
60
0
100
AcDbLine
10
-84
20
14.7
30
0
11
-84
21
28.021295
31
0
39
0
210
0
220
0
230
1
0
LINE
5
1AE
100
AcDbEntity
8
0
62
256
6
ByLayer
370
-2
48
1
60
0
100
AcDbLine
10
40.5
20
-8.726042
30
0
11
40.5
21
28.021295
31
0
39
0
210
0
220
0
230
1
0
LINE
5
1AF
100
AcDbEntity
8
0
62
256
6
ByLayer
370
-2
48
1
60
0
100
AcDbLine
10
-80.825
20
26.021295
30
0
11
37.325
21
26.021295
31
0
39
0
210
0
220
0
230
1
0
SOLID
5
1B0
100
AcDbEntity
8
0
62
256
6
ByLayer
370
-1
48
1
60
0
100
AcDbTrace
10
-80.825
20
26.550461
30
0
11
-80.825
21
25.492128
31
0
12
-84
22
26.021295
32
0
13
-84
23
26.021295
33
0
39
0
210
0
220
0
230
1
0
SOLID
5
1B1
100
AcDbEntity
8
0
62
256
6
ByLayer
370
-1
48
1
60
0
100
AcDbTrace
10
37.325
20
25.492128
30
0
11
37.325
21
26.550461
31
0
12
40.5
22
26.021295
32
0
13
40.5
23
26.021295
33
0
39
0
210
0
220
0
230
1
0
MTEXT
5
1B2
100
AcDbEntity
8
0
62
256
6
ByLayer
370
18
48
1
60
0
100
AcDbMText
10
-21.75
20
34.771295
30
0
210
0
220
0
230
1
1
\A1;124.5
40
3.5
41
0
44
1
50
0
71
5
72
5
7
iso_b_vert
0
POINT
5
1B3
100
AcDbEntity
8
Defpoints
62
0
6
ByLayer
370
-1
48
1
60
0
100
AcDbPoint
10
-84
20
12.7
30
0
39
0
210
0
220
0
230
1
50
360
0
POINT
5
1B4
100
AcDbEntity
8
Defpoints
62
0
6
ByLayer
370
-1
48
1
60
0
100
AcDbPoint
10
40.5
20
-10.726042
30
0
39
0
210
0
220
0
230
1
50
360
0
POINT
5
1B5
100
AcDbEntity
8
Defpoints
62
0
6
ByLayer
370
-1
48
1
60
0
100
AcDbPoint
10
40.5
20
26.021295
30
0
39
0
210
0
220
0
230
1
50
360
0
ENDBLK
5
1AC
100
AcDbEntity
8
0
100
AcDbBlockEnd
0
BLOCK
5
1C1
100
AcDbEntity
8
0
100
AcDbBlockBegin
2
_U3
70
0
10
0
20
0
30
0
3
_U3
0
MTEXT
5
1B7
100
AcDbEntity
8
SK2
62
256
6
ByLayer
370
18
48
1
60
0
100
AcDbMText
10
-26.726266
20
27.053928
30
0
210
0
220
0
230
1
1
\W0.7091;124.5
40
3.5
41
0
44
1.084337
50
0
71
7
72
5
7
iso_b_vert
0
LINE
5
1B8
100
AcDbEntity
8
SK2
62
256
6
ByLayer
370
13
48
1
60
0
100
AcDbLine
10
-84
20
14.7
30
0
11
-84
21
28.021295
31
0
39
0
210
0
220
0
230
1
0
LINE
5
1B9
100
AcDbEntity
8
SK2
62
256
6
ByLayer
370
13
48
1
60
0
100
AcDbLine
10
40.5
20
-8.726042
30
0
11
40.5
21
28.021295
31
0
39
0
210
0
220
0
230
1
0
LINE
5
1BA
100
AcDbEntity
8
SK2
62
256
6
ByLayer
370
13
48
1
60
0
100
AcDbLine
10
-84
20
26.021295
30
0
11
40.5
21
26.021295
31
0
39
0
210
0
220
0
230
1
0
LINE
5
1BB
100
AcDbEntity
8
SK2
62
256
6
ByLayer
370
13
48
1
60
0
100
AcDbLine
10
-84
20
26.021295
30
0
11
-80.825002
21
26.439291
31
0
39
0
210
0
220
0
230
1
0
LINE
5
1BC
100
AcDbEntity
8
SK2
62
256
6
ByLayer
370
13
48
1
60
0
100
AcDbLine
10
-84
20
26.021295
30
0
11
-80.824998
21
25.603298
31
0
39
0
210
0
220
0
230
1
0
LINE
5
1BD
100
AcDbEntity
8
SK2
62
256
6
ByLayer
370
13
48
1
60
0
100
AcDbLine
10
-80.825002
20
26.439291
30
0
11
-80.824998
21
25.603298
31
0
39
0
210
0
220
0
230
1
0
LINE
5
1BE
100
AcDbEntity
8
SK2
62
256
6
ByLayer
370
13
48
1
60
0
100
AcDbLine
10
40.5
20
26.021295
30
0
11
37.325002
21
25.603298
31
0
39
0
210
0
220
0
230
1
0
LINE
5
1BF
100
AcDbEntity
8
SK2
62
256
6
ByLayer
370
13
48
1
60
0
100
AcDbLine
10
40.5
20
26.021295
30
0
11
37.324998
21
26.439291
31
0
39
0
210
0
220
0
230
1
0
LINE
5
1C0
100
AcDbEntity
8
SK2
62
256
6
ByLayer
370
13
48
1
60
0
100
AcDbLine
10
37.325002
20
25.603298
30
0
11
37.324998
21
26.439291
31
0
39
0
210
0
220
0
230
1
0
ENDBLK
5
1C2
100
AcDbEntity
8
0
100
AcDbBlockEnd
0
BLOCK
5
1C7
100
AcDbEntity
8
0
100
AcDbBlockBegin
2
*D10
70
1
10
0
20
0
30
0
3
*D10
0
LINE
5
1C9
100
AcDbEntity
8
0
62
256
6
ByLayer
370
-2
48
1
60
0
100
AcDbLine
10
-84
20
10.7
30
0
11
-84
21
-34.151952
31
0
39
0
210
0
220
0
230
1
0
LINE
5
1CA
100
AcDbEntity
8
0
62
256
6
ByLayer
370
-2
48
1
60
0
100
AcDbLine
10
-81
20
-14.7
30
0
11
-81
21
-34.151952
31
0
39
0
210
0
220
0
230
1
0
LINE
5
1CB
100
AcDbEntity
8
0
62
256
6
ByLayer
370
-2
48
1
60
0
100
AcDbLine
10
-87.175
20
-32.151952
30
0
11
-90.35
21
-32.151952
31
0
39
0
210
0
220
0
230
1
0
LINE
5
1CC
100
AcDbEntity
8
0
62
256
6
ByLayer
370
-2
48
1
60
0
100
AcDbLine
10
-77.825
20
-32.151952
30
0
11
-74.65
21
-32.151952
31
0
39
0
210
0
220
0
230
1
0
SOLID
5
1CD
100
AcDbEntity
8
0
62
256
6
ByLayer
370
-1
48
1
60
0
100
AcDbTrace
10
-87.175
20
-32.681119
30
0
11
-87.175
21
-31.622786
31
0
12
-84
22
-32.151952
32
0
13
-84
23
-32.151952
33
0
39
0
210
0
220
0
230
1
0
SOLID
5
1CE
100
AcDbEntity
8
0
62
256
6
ByLayer
370
-1
48
1
60
0
100
AcDbTrace
10
-77.825
20
-31.622786
30
0
11
-77.825
21
-32.681119
31
0
12
-81
22
-32.151952
32
0
13
-81
23
-32.151952
33
0
39
0
210
0
220
0
230
1
0
MTEXT
5
1CF
100
AcDbEntity
8
0
62
256
6
ByLayer
370
18
48
1
60
0
100
AcDbMText
10
-82.5
20
-23.401952
30
0
210
0
220
0
230
1
1
\A1;3
40
3.5
41
0
44
1
50
0
71
5
72
5
7
iso_b_vert
0
POINT
5
1D0
100
AcDbEntity
8
Defpoints
62
0
6
ByLayer
370
-1
48
1
60
0
100
AcDbPoint
10
-84
20
12.7
30
0
39
0
210
0
220
0
230
1
50
360
0
POINT
5
1D1
100
AcDbEntity
8
Defpoints
62
0
6
ByLayer
370
-1
48
1
60
0
100
AcDbPoint
10
-81
20
-12.7
30
0
39
0
210
0
220
0
230
1
50
360
0
POINT
5
1D2
100
AcDbEntity
8
Defpoints
62
0
6
ByLayer
370
-1
48
1
60
0
100
AcDbPoint
10
-81
20
-32.151952
30
0
39
0
210
0
220
0
230
1
50
360
0
ENDBLK
5
1C8
100
AcDbEntity
8
0
100
AcDbBlockEnd
0
BLOCK
5
1DE
100
AcDbEntity
8
0
100
AcDbBlockBegin
2
_U4
70
0
10
0
20
0
30
0
3
_U4
0
MTEXT
5
1D4
100
AcDbEntity
8
SK2
62
256
6
ByLayer
370
18
48
1
60
0
100
AcDbMText
10
-85.113966
20
-31.119319
30
0
210
0
220
0
230
1
1
\W0.7121;3.0
40
3.5
41
0
44
1.084337
50
0
71
7
72
5
7
iso_b_vert
0
LINE
5
1D5
100
AcDbEntity
8
SK2
62
256
6
ByLayer
370
13
48
1
60
0
100
AcDbLine
10
-84
20
10.7
30
0
11
-84
21
-34.151952
31
0
39
0
210
0
220
0
230
1
0
LINE
5
1D6
100
AcDbEntity
8
SK2
62
256
6
ByLayer
370
13
48
1
60
0
100
AcDbLine
10
-81
20
-14.7
30
0
11
-81
21
-34.151952
31
0
39
0
210
0
220
0
230
1
0
LINE
5
1D7
100
AcDbEntity
8
SK2
62
256
6
ByLayer
370
13
48
1
60
0
100
AcDbLine
10
-92.75
20
-32.151952
30
0
11
-72.25
21
-32.151952
31
0
39
0
210
0
220
0
230
1
0
LINE
5
1D8
100
AcDbEntity
8
SK2
62
256
6
ByLayer
370
13
48
1
60
0
100
AcDbLine
10
-84
20
-32.151952
30
0
11
-87.174998
21
-32.569949
31
0
39
0
210
0
220
0
230
1
0
LINE
5
1D9
100
AcDbEntity
8
SK2
62
256
6
ByLayer
370
13
48
1
60
0
100
AcDbLine
10
-84
20
-32.151952
30
0
11
-87.175002
21
-31.733956
31
0
39
0
210
0
220
0
230
1
0
LINE
5
1DA
100
AcDbEntity
8
SK2
62
256
6
ByLayer
370
13
48
1
60
0
100
AcDbLine
10
-87.174998
20
-32.569949
30
0
11
-87.175002
21
-31.733956
31
0
39
0
210
0
220
0
230
1
0
LINE
5
1DB
100
AcDbEntity
8
SK2
62
256
6
ByLayer
370
13
48
1
60
0
100
AcDbLine
10
-81
20
-32.151952
30
0
11
-77.825002
21
-31.733956
31
0
39
0
210
0
220
0
230
1
0
LINE
5
1DC
100
AcDbEntity
8
SK2
62
256
6
ByLayer
370
13
48
1
60
0
100
AcDbLine
10
-81
20
-32.151952
30
0
11
-77.824998
21
-32.569949
31
0
39
0
210
0
220
0
230
1
0
LINE
5
1DD
100
AcDbEntity
8
SK2
62
256
6
ByLayer
370
13
48
1
60
0
100
AcDbLine
10
-77.825002
20
-31.733956
30
0
11
-77.824998
21
-32.569949
31
0
39
0
210
0
220
0
230
1
0
ENDBLK
5
1DF
100
AcDbEntity
8
0
100
AcDbBlockEnd
0
ENDSEC
0
SECTION
2
ENTITIES
0
ARC
5
DB
100
AcDbEntity
8
1
62
256
6
ByLayer
370
18
48
1
60
0
100
AcDbCircle
39
0
10
1.772277
20
-14.225
30
0
40
1.59999999999049
210
0
220
0
230
1
100
AcDbArc
50
47.997313
51
70.06671
0
ARC
5
DC
100
AcDbEntity
8
1
62
256
6
ByLayer
370
18
48
1
60
0
100
AcDbCircle
39
0
10
1.772277
20
-14.225
30
0
40
1.59999999999893
210
0
220
0
230
1
100
AcDbArc
50
15
51
47.997313
0
ARC
5
DD
100
AcDbEntity
8
1
62
256
6
ByLayer
370
18
48
1
60
0
100
AcDbCircle
39
0
10
30.642034
20
-9.193987
30
0
40
3.1
210
0
220
0
230
1
100
AcDbArc
50
356.074082
51
7.181996
0
ARC
5
DE
100
AcDbEntity
8
1
62
256
6
ByLayer
370
18
48
1
60
0
100
AcDbCircle
39
0
10
30.642034
20
-9.193987
30
0
40
3.1
210
0
220
0
230
1
100
AcDbArc
50
262.818914
51
278.303634
0
ARC
5
DF
100
AcDbEntity
8
2
62
256
6
ByLayer
370
13
48
1
60
0
100
AcDbCircle
39
0
10
40.5
20
-10.726042
30
0
40
5.96865271337737
210
0
220
0
230
1
100
AcDbArc
50
308.513488
51
96.486512
0
ELLIPSE
5
E0
100
AcDbEntity
8
1
62
256
6
ByLayer
370
18
48
1
60
0
100
AcDbEllipse
10
31.832798
20
-10.38475
30
0
11
1.30814754519511
21
1.30814754519512
31
0
210
0
220
0
230
1
40
0.990268
41
-1.53013767099809
42
-0.843510111714205
0
ELLIPSE
5
E1
100
AcDbEntity
8
1
62
256
6
ByLayer
370
18
48
1
60
0
100
AcDbEllipse
10
31.783593
20
-10.335545
30
0
11
-1.66170093578838
21
-1.66170093578839
31
0
210
0
220
0
230
1
40
0.990268
41
1.58467577208526
42
2.32486175238203
0
ELLIPSE
5
E2
100
AcDbEntity
8
1
62
256
6
ByLayer
370
18
48
1
60
0
100
AcDbEllipse
10
32.049118
20
-9.879891
30
0
11
1.48492424049175
21
1.48492424049175
31
0
210
0
220
0
230
1
40
0.990268
41
2.54727469876405
42
-1.77932982788655
0
ELLIPSE
5
E3
100
AcDbEntity
8
1
62
256
6
ByLayer
370
18
48
1
60
0
100
AcDbEllipse
10
31.783593
20
-10.335545
30
0
11
-1.66170093578838
21
-1.66170093578839
31
0
210
0
220
0
230
1
40
0.990268
41
-1.55691688150453
42
-0.816730901207764
0
ELLIPSE
5
E4
100
AcDbEntity
8
1
62
256
6
ByLayer
370
18
48
1
60
0
100
AcDbEllipse
10
31.567273
20
-10.840405
30
0
11
-1.83847763108502
21
-1.83847763108503
31
0
210
0
220
0
230
1
40
0.990268
41
2.52337906249783
42
-1.75543419162033
0
ELLIPSE
5
E5
100
AcDbEntity
8
1
62
256
6
ByLayer
370
18
48
1
60
0
100
AcDbEllipse
10
31.616478
20
-10.88961
30
0
11
1.48492424049175
21
1.48492424049175
31
0
210
0
220
0
230
1
40
0.990268
41
-0.594317954825744
42
1.36226282570324
0
ELLIPSE
5
E6
100
AcDbEntity
8
1
62
256
6
ByLayer
370
18
48
1
60
0
100
AcDbEllipse
10
31.999913
20
-9.830685
30
0
11
-1.83847763108502
21
-1.83847763108503
31
0
210
0
220
0
230
1
40
0.990268
41
-0.618213591091962
42
1.38615846196946
0
ELLIPSE
5
E7
100
AcDbEntity
8
1
62
256
6
ByLayer
370
18
48
1
60
0
100
AcDbEllipse
10
31.832798
20
-10.38475
30
0
11
1.30814754519511
21
1.30814754519512
31
0
210
0
220
0
230
1
40
0.990268
41
1.6114549825917
42
2.29808254187559
0
ELLIPSE
5
E8
100
AcDbEntity
8
1
62
256
6
ByLayer
370
13
48
1
60
0
100
AcDbEllipse
10
30.681398
20
-9.233351
30
0
11
-2.01525432638166
21
-2.01525432638166
31
0
210
0
220
0
230
1
40
0.990268
41
2.41206416218902
42
2.67150516360821
0
ELLIPSE
5
E9
100
AcDbEntity
8
1
62
256
6
ByLayer
370
13
48
1
60
0
100
AcDbEllipse
10
30.681398
20
-9.233351
30
0
11
-2.01525432638166
21
-2.01525432638166
31
0
210
0
220
0
230
1
40
0.990268
41
0.470089299763116
42
0.730062642206022
0
ELLIPSE
5
EA
100
AcDbEntity
8
1
62
256
6
ByLayer
370
18
48
1
60
0
100
AcDbEllipse
10
31.134268
20
-10.4074
30
0
11
1.83847763108502
21
1.83847763108503
31
0
210
0
220
0
230
1
40
0.990268
41
9.57661378112055E-06
42
0.0490444733980834
0
ELLIPSE
5
EB
100
AcDbEntity
8
1
62
256
6
ByLayer
370
13
48
1
60
0
100
AcDbEllipse
10
31.134268
20
-10.4074
30
0
11
1.83847763108502
21
1.83847763108503
31
0
210
0
220
0
230
1
40
0.990268
41
0.04904447339808
42
0.557971860412961
0
ELLIPSE
5
EC
100
AcDbEntity
8
1
62
256
6
ByLayer
370
18
48
1
60
0
100
AcDbEllipse
10
30.681398
20
-9.233351
30
0
11
-2.17370651192841
21
-2.17370651192842
31
0
210
0
220
0
230
1
40
0.990268
41
2.29515864930532
42
2.49401753313291
0
ELLIPSE
5
ED
100
AcDbEntity
8
1
62
256
6
ByLayer
370
18
48
1
60
0
100
AcDbEllipse
10
30.681398
20
-9.233351
30
0
11
-2.17370651192841
21
-2.17370651192842
31
0
210
0
220
0
230
1
40
0.990268
41
0.647597949081288
42
0.923888008323378
0
ELLIPSE
5
EE
100
AcDbEntity
8
1
62
256
6
ByLayer
370
18
48
1
60
0
100
AcDbEllipse
10
31.566908
20
-9.39768
30
0
11
1.83847763108502
21
1.83847763108503
31
0
210
0
220
0
230
1
40
0.990268
41
3.03406399512695
42
-3.14157565168021
0
ELLIPSE
5
EF
100
AcDbEntity
8
1
62
256
6
ByLayer
370
18
48
1
60
0
100
AcDbEllipse
10
31.685183
20
-10.237135
30
0
11
1.66170093578838
21
1.66170093578839
31
0
210
0
220
0
230
1
40
0.990268
41
2.28984156560623
42
2.32486175238203
0
ELLIPSE
5
F0
100
AcDbEntity
8
1
62
256
6
ByLayer
370
13
48
1
60
0
100
AcDbEllipse
10
31.607741
20
-9.974272
30
0
11
-1.66170093578838
21
-1.66170093578839
31
0
210
0
220
0
230
1
40
0.990268
41
-0.560691900710492
42
-3.94427525253534E-05
0
ELLIPSE
5
F1
100
AcDbEntity
8
1
62
256
6
ByLayer
370
13
48
1
60
0
100
AcDbEllipse
10
39.710103
20
-10.404331
30
0
11
0.561266007566778
21
0.561266007566781
31
0
210
0
220
0
230
1
40
0.990268
41
-1.5707963267949
42
0
0
ELLIPSE
5
F2
100
AcDbEntity
8
1
62
256
6
ByLayer
370
13
48
1
60
0
100
AcDbEllipse
10
24.071126
20
-10.480802
30
0
11
0.561266007566778
21
0.561266007566781
31
0
210
0
220
0
230
1
40
0.990268
41
1.5707963267949
42
3.14159265358979
0
ELLIPSE
5
F3
100
AcDbEntity
8
1
62
256
6
ByLayer
370
13
48
1
60
0
100
AcDbEllipse
10
31.852379
20
-18.262055
30
0
11
0.561266007566778
21
0.561266007566781
31
0
210
0
220
0
230
1
40
0.990268
41
-3.14159265358978
42
-1.57079632679491
0
ELLIPSE
5
F4
100
AcDbEntity
8
1
62
256
6
ByLayer
370
13
48
1
60
0
100
AcDbEllipse
10
31.92885
20
-2.623078
30
0
11
0.561266007566778
21
0.561266007566781
31
0
210
0
220
0
230
1
40
0.990268
41
0
42
1.57079632679491
0
ELLIPSE
5
F5
100
AcDbEntity
8
1
62
256
6
ByLayer
370
13
48
1
60
0
100
AcDbEllipse
10
31.890614
20
-10.442566
30
0
11
1.82292128189873
21
1.82292128189874
31
0
210
0
220
0
230
1
40
0.990268
41
0
42
6.28318530717959
0
ELLIPSE
5
F6
100
AcDbEntity
8
1
62
256
6
ByLayer
370
13
48
1
60
0
100
AcDbEllipse
10
31.460171
20
-2.154399
30
0
11
-0.561266007566778
21
-0.56126600756678
31
0
210
0
220
0
230
1
40
0.990268
41
3.14159265358979
42
-1.57079632679489
0
ELLIPSE
5
F7
100
AcDbEntity
8
1
62
256
6
ByLayer
370
18
48
1
60
0
100
AcDbEllipse
10
13.874254
20
7.076369
30
0
11
-3.54394130737917
21
3.54394130737915
31
0
210
0
220
0
230
1
40
0.990193
41
-1.41500537959422
42
1.40952912458143
0
ELLIPSE
5
F8
100
AcDbEntity
8
1
62
256
6
ByLayer
370
18
48
1
60
0
100
AcDbEllipse
10
27.882009
20
-8.763261
30
0
11
-1.76776695296643
21
-1.76776695296643
31
0
210
0
220
0
230
1
40
0.990268
41
-1.5707963267949
42
-1.22263030552196
0
ELLIPSE
5
F9
100
AcDbEntity
8
1
62
256
6
ByLayer
370
18
48
1
60
0
100
AcDbEllipse
10
29.857755
20
-6.787514
30
0
11
-1.76776695296637
21
-1.76776695296637
31
0
210
0
220
0
230
1
40
0.990268
41
-1.91896234806775
42
-1.57079632679489
0
ELLIPSE
5
FA
100
AcDbEntity
8
1
62
256
6
ByLayer
370
18
48
1
60
0
100
AcDbEllipse
10
-146.219139
20
162.005909
30
0
11
160.305150379708
21
-154.647097201384
31
0
210
0
220
0
230
1
40
0.269371
41
-0.0873342171541657
42
0.0761656139048686
0
ELLIPSE
5
FB
100
AcDbEntity
8
1
62
256
6
ByLayer
370
18
48
1
60
0
100
AcDbEllipse
10
24.133987
20
-12.16117
30
0
11
-1.48492424049175
21
-1.48492424049175
31
0
210
0
220
0
230
1
40
0.990268
41
-1.57079632679483
42
-0.203799009161132
0
ELLIPSE
5
FC
100
AcDbEntity
8
1
62
256
6
ByLayer
370
18
48
1
60
0
100
AcDbEllipse
10
24.34199
20
-12.793437
30
0
11
-1.43807192974168
21
-1.43807192974169
31
0
210
0
220
0
230
1
40
0.990268
41
-0.528232923806553
42
1.57079632679489
0
ELLIPSE
5
FD
100
AcDbEntity
8
1
62
256
6
ByLayer
370
18
48
1
60
0
100
AcDbEllipse
10
20.267952
20
-5.601007
30
0
11
-2.28749043713848
21
-2.28749043713849
31
0
210
0
220
0
230
1
40
0.990268
41
0
42
6.28318530717959
0
ELLIPSE
5
FE
100
AcDbEntity
8
1
62
256
6
ByLayer
370
18
48
1
60
0
100
AcDbEllipse
10
20.246793
20
-5.579849
30
0
11
1.09955104474508
21
1.09955104474508
31
0
210
0
220
0
230
1
40
0.990268
41
-2.97914892075614
42
-2.53609151554595
0
ELLIPSE
5
FF
100
AcDbEntity
8
1
62
256
6
ByLayer
370
18
48
1
60
0
100
AcDbEllipse
10
20.267952
20
-5.601007
30
0
11
-1.36287119209427
21
-1.36287119209428
31
0
210
0
220
0
230
1
40
0.990268
41
0
42
6.28318530717959
0
ELLIPSE
5
100
100
AcDbEntity
8
1
62
256
6
ByLayer
370
18
48
1
60
0
100
AcDbEllipse
10
19.874311
20
-5.207367
30
0
11
1.09955104474508
21
1.09955104474508
31
0
210
0
220
0
230
1
40
0.990268
41
-2.53609151554596
42
-1.93195136955954
0
ELLIPSE
5
101
100
AcDbEntity
8
1
62
256
6
ByLayer
370
18
48
1
60
0
100
AcDbEllipse
10
19.874311
20
-5.207367
30
0
11
1.09955104474508
21
1.09955104474508
31
0
210
0
220
0
230
1
40
0.990268
41
-1.48889396434936
42
-0.884753818362947
0
ELLIPSE
5
102
100
AcDbEntity
8
1
62
256
6
ByLayer
370
18
48
1
60
0
100
AcDbEllipse
10
20.246793
20
-5.579849
30
0
11
1.09955104474508
21
1.09955104474508
31
0
210
0
220
0
230
1
40
0.990268
41
-0.884753818362947
42
-0.441696413152751
0
ELLIPSE
5
103
100
AcDbEntity
8
1
62
256
6
ByLayer
370
18
48
1
60
0
100
AcDbEllipse
10
20.246793
20
-5.579849
30
0
11
1.09955104474508
21
1.09955104474508
31
0
210
0
220
0
230
1
40
0.990268
41
0.162443732833632
42
0.605501138043846
0
ELLIPSE
5
104
100
AcDbEntity
8
1
62
256
6
ByLayer
370
18
48
1
60
0
100
AcDbEllipse
10
20.246793
20
-5.579849
30
0
11
1.09955104474508
21
1.09955104474508
31
0
210
0
220
0
230
1
40
0.990268
41
1.20964128403025
42
1.65269868924044
0
ELLIPSE
5
105
100
AcDbEntity
8
1
62
256
6
ByLayer
370
18
48
1
60
0
100
AcDbEllipse
10
20.246793
20
-5.579849
30
0
11
1.09955104474508
21
1.09955104474508
31
0
210
0
220
0
230
1
40
0.990268
41
2.25683883522685
42
2.69989624043704
0
ELLIPSE
5
106
100
AcDbEntity
8
1
62
256
6
ByLayer
370
18
48
1
60
0
100
AcDbEllipse
10
20.246793
20
-5.579849
30
0
11
1.09955104474508
21
1.09955104474508
31
0
210
0
220
0
230
1
40
0.990268
41
-1.93195136955953
42
-1.48889396434936
0
ELLIPSE
5
107
100
AcDbEntity
8
1
62
256
6
ByLayer
370
18
48
1
60
0
100
AcDbEllipse
10
20.192668
20
-5.525724
30
0
11
-2.82842712474619
21
-2.8284271247462
31
0
210
0
220
0
230
1
40
0.990268
41
-1.62163177115185
42
-2.2422677994748E-16
0
ELLIPSE
5
108
100
AcDbEntity
8
1
62
256
6
ByLayer
370
18
48
1
60
0
100
AcDbEllipse
10
20.192668
20
-5.525724
30
0
11
-2.82842712474619
21
-2.8284271247462
31
0
210
0
220
0
230
1
40
0.990268
41
0
42
2.3513048042591
0
ELLIPSE
5
109
100
AcDbEntity
8
1
62
256
6
ByLayer
370
18
48
1
60
0
100
AcDbEllipse
10
20.192668
20
-5.525724
30
0
11
-2.82842712474619
21
-2.8284271247462
31
0
210
0
220
0
230
1
40
0.990268
41
2.35130472193646
42
-2.0666580271638
0
ELLIPSE
5
10A
100
AcDbEntity
8
1
62
256
6
ByLayer
370
13
48
1
60
0
100
AcDbEllipse
10
24.146094
20
7.591983
30
0
11
-1.20070664822886
21
-1.05749872099167
31
0
210
0
220
0
230
1
40
0.138899
41
-1.05442505880734
42
-0.0784581443346863
0
ELLIPSE
5
10B
100
AcDbEntity
8
1
62
256
6
ByLayer
370
18
48
1
60
0
100
AcDbEllipse
10
23.603913
20
-12.05536
30
0
11
1.37452921192209
21
1.37452921192209
31
0
210
0
220
0
230
1
40
0.990268
41
-2.95668043743626
42
-1.5707963267949
0
ELLIPSE
5
10C
100
AcDbEntity
8
1
62
256
6
ByLayer
370
13
48
1
60
0
100
AcDbEllipse
10
13.743256
20
-3.176811
30
0
11
-1.01453170573297
21
-1.23722488580797
31
0
210
0
220
0
230
1
40
0.13851
41
-3.06802367559969
42
-1.58449381140452
0
ELLIPSE
5
10D
100
AcDbEntity
8
1
62
256
6
ByLayer
370
18
48
1
60
0
100
AcDbEllipse
10
23.621335
20
-12.072782
30
0
11
-1.4982645389169
21
-1.4982645389169
31
0
210
0
220
0
230
1
40
0.990268
41
0.329817928770721
42
1.5707963267949
0
ELLIPSE
5
10E
100
AcDbEntity
8
1
62
256
6
ByLayer
370
13
48
1
60
0
100
AcDbEllipse
10
17.392007
20
13.714733
30
0
11
0.935001458188062
21
1.29837293301509
31
0
210
0
220
0
230
1
40
0.137401
41
2.56049086579267
42
3.03197465787003
0
ELLIPSE
5
10F
100
AcDbEntity
8
1
62
256
6
ByLayer
370
13
48
1
60
0
100
AcDbEllipse
10
12.966693
20
7.98393
30
0
11
-5.1435462633813
21
-5.14354626338132
31
0
210
0
220
0
230
1
40
0.990268
41
-1.49985060812572
42
-0.124837861629841
0
ELLIPSE
5
110
100
AcDbEntity
8
1
62
256
6
ByLayer
370
13
48
1
60
0
100
AcDbEllipse
10
7.386421
20
3.357165
30
0
11
-1.2646285311707
21
-0.980160536927001
31
0
210
0
220
0
230
1
40
0.13809
41
-3.03682869530388
42
-1.5532988311087
0
ELLIPSE
5
111
100
AcDbEntity
8
1
62
256
6
ByLayer
370
13
48
1
60
0
100
AcDbEllipse
10
16.567713
20
0.28472
30
0
11
2.03096508045178
21
2.03096508045179
31
0
210
0
220
0
230
1
40
0.990268
41
-3.04396889886169
42
-2.46962441555876
0
ELLIPSE
5
112
100
AcDbEntity
8
1
62
256
6
ByLayer
370
13
48
1
60
0
100
AcDbEllipse
10
13.110426
20
7.840197
30
0
11
4.01648062113689
21
4.01648062113691
31
0
210
0
220
0
230
1
40
0.990268
41
0.159744446669718
42
0.244488371133788
0
ELLIPSE
5
113
100
AcDbEntity
8
1
62
256
6
ByLayer
370
13
48
1
60
0
100
AcDbEllipse
10
13.110426
20
7.840197
30
0
11
4.01648062113689
21
4.01648062113691
31
0
210
0
220
0
230
1
40
0.990268
41
1.31652851554473
42
3.01675479195995
0
ELLIPSE
5
114
100
AcDbEntity
8
1
62
256
6
ByLayer
370
13
48
1
60
0
100
AcDbEllipse
10
20.784542
20
4.649891
30
0
11
2.03096508045178
21
2.03096508045179
31
0
210
0
220
0
230
1
40
0.990268
41
-0.671966135097915
42
-0.062717169688228
0
ELLIPSE
5
115
100
AcDbEntity
8
1
62
256
6
ByLayer
370
13
48
1
60
0
100
AcDbEllipse
10
40.080838
20
28.848352
30
0
11
28.1939159843541
21
28.1939159843542
31
0
210
0
220
0
230
1
40
0.990268
41
3.01675479195996
42
-3.04396889886168
0
ELLIPSE
5
116
100
AcDbEntity
8
1
62
256
6
ByLayer
370
18
48
1
60
0
100
AcDbEllipse
10
19.7759
20
-5.108956
30
0
11
1.09955104474508
21
1.09955104474508
31
0
210
0
220
0
230
1
40
0.990268
41
-3.03279621979954
42
-0.218027271405233
0
ELLIPSE
5
117
100
AcDbEntity
8
1
62
256
6
ByLayer
370
18
48
1
60
0
100
AcDbEllipse
10
19.874311
20
-5.207367
30
0
11
1.09955104474508
21
1.09955104474508
31
0
210
0
220
0
230
1
40
0.990268
41
-0.441696413152751
42
-0.184823606912353
0
ELLIPSE
5
118
100
AcDbEntity
8
1
62
256
6
ByLayer
370
13
48
1
60
0
100
AcDbEllipse
10
16.42398
20
0.428453
30
0
11
-3.1580307226962
21
-3.15803072269621
31
0
210
0
220
0
230
1
40
0.990268
41
0.0976237547281042
42
0.925535134171555
0
ELLIPSE
5
119
100
AcDbEntity
8
1
62
256
6
ByLayer
370
18
48
1
60
0
100
AcDbEllipse
10
19.874311
20
-5.207367
30
0
11
1.09955104474508
21
1.09955104474508
31
0
210
0
220
0
230
1
40
0.990268
41
3.14158897269637
42
-2.97914892075613
0
ELLIPSE
5
11A
100
AcDbEntity
8
1
62
256
6
ByLayer
370
13
48
1
60
0
100
AcDbEllipse
10
-6.950803
20
-19.837789
30
0
11
28.193915984354
21
28.1939159843541
31
0
210
0
220
0
230
1
40
0.990268
41
-0.0627171696882271
42
0.15974444666972
0
ELLIPSE
5
11B
100
AcDbEntity
8
1
62
256
6
ByLayer
370
13
48
1
60
0
100
AcDbEllipse
10
31.421935
20
-9.973888
30
0
11
1.82292128189873
21
1.82292128189874
31
0
210
0
220
0
230
1
40
0.990268
41
-3.01139384918273
42
-2.03877639781741
0
ELLIPSE
5
11C
100
AcDbEntity
8
1
62
256
6
ByLayer
370
13
48
1
60
0
100
AcDbEllipse
10
31.421935
20
-9.973888
30
0
11
1.82292128189873
21
1.82292128189874
31
0
210
0
220
0
230
1
40
0.990268
41
-0.761718853856804
42
-0.130258547657245
0
ELLIPSE
5
11D
100
AcDbEntity
8
1
62
256
6
ByLayer
370
13
48
1
60
0
100
AcDbEllipse
10
23.602447
20
-10.012123
30
0
11
-0.561266007566778
21
-0.56126600756678
31
0
210
0
220
0
230
1
40
0.990268
41
-0.236429022405614
42
0
0
ELLIPSE
5
11E
100
AcDbEntity
8
1
62
256
6
ByLayer
370
13
48
1
60
0
100
AcDbEllipse
10
39.937105
20
28.992085
30
0
11
-29.3209816265985
21
-29.3209816265987
31
0
210
0
220
0
230
1
40
0.990268
41
-0.124837861629836
42
0.0976237547281106
0
POINT
5
70
100
AcDbEntity
8
2
62
256
6
ByLayer
370
18
48
1
60
0
100
AcDbPoint
10
18.293694
20
26.452099
30
0
39
0
210
0
220
0
230
1
50
360
0
POINT
5
72
100
AcDbEntity
8
2
62
256
6
ByLayer
370
18
48
1
60
0
100
AcDbPoint
10
22.324704
20
22.579185
30
0
39
0
210
0
220
0
230
1
50
360
0
POINT
5
73
100
AcDbEntity
8
SK2
62
256
6
ByLayer
370
18
48
1
60
0
100
AcDbPoint
10
19.081748
20
-4.414803
30
0
39
0
210
0
220
0
230
1
50
360
0
POINT
5
75
100
AcDbEntity
8
SK2
62
256
6
ByLayer
370
18
48
1
60
0
100
AcDbPoint
10
30.494851
20
-9.077707
30
0
39
0
210
0
220
0
230
1
50
360
0
POINT
5
76
100
AcDbEntity
8
2
62
256
6
ByLayer
370
18
48
1
60
0
100
AcDbPoint
10
31.890614
20
35.842566
30
0
39
0
210
0
220
0
230
1
50
360
0
POINT
5
77
100
AcDbEntity
8
2
62
256
6
ByLayer
370
18
48
1
60
0
100
AcDbPoint
10
31.890614
20
35.842566
30
0
39
0
210
0
220
0
230
1
50
360
0
POINT
5
78
100
AcDbEntity
8
2
62
256
6
ByLayer
370
18
48
1
60
0
100
AcDbPoint
10
31.109483
20
-9.661435
30
0
39
0
210
0
220
0
230
1
50
360
0
POINT
5
79
100
AcDbEntity
8
2
62
256
6
ByLayer
370
18
48
1
60
0
100
AcDbPoint
10
31.890614
20
-10.442566
30
0
39
0
210
0
220
0
230
1
50
360
0
POINT
5
7A
100
AcDbEntity
8
2
62
256
6
ByLayer
370
18
48
1
60
0
100
AcDbPoint
10
31.890614
20
-10.442566
30
0
39
0
210
0
220
0
230
1
50
360
0
POINT
5
7B
100
AcDbEntity
8
2
62
256
6
ByLayer
370
18
48
1
60
0
100
AcDbPoint
10
0
20
12.7
30
0
39
0
210
0
220
0
230
1
50
360
0
POINT
5
7C
100
AcDbEntity
8
2
62
256
6
ByLayer
370
18
48
1
60
0
100
AcDbPoint
10
20.146767
20
30.879823
30
0
39
0
210
0
220
0
230
1
50
360
0
POINT
5
7D
100
AcDbEntity
8
2
62
256
6
ByLayer
370
18
48
1
60
0
100
AcDbPoint
10
31.109483
20
35.061435
30
0
39
0
210
0
220
0
230
1
50
360
0
POINT
5
7E
100
AcDbEntity
8
81
62
256
6
ByLayer
370
18
48
1
60
0
100
AcDbPoint
10
40.5
20
-10.726042
30
0
39
0
210
0
220
0
230
1
50
360
0
POINT
5
80
100
AcDbEntity
8
80
62
256
6
ByLayer
370
18
48
1
60
0
100
AcDbPoint
10
0
20
0
30
0
39
0
210
0
220
0
230
1
50
360
0
POINT
5
82
100
AcDbEntity
8
1
62
256
6
ByLayer
370
18
48
1
60
1
100
AcDbPoint
10
0
20
12.7
30
0
39
0
210
0
220
0
230
1
50
360
0
POINT
5
84
100
AcDbEntity
8
1
62
256
6
ByLayer
370
18
48
1
60
1
100
AcDbPoint
10
40.5
20
-10.726042
30
0
39
0
210
0
220
0
230
1
50
360
0
POINT
5
85
100
AcDbEntity
8
1
62
256
6
ByLayer
370
18
48
1
60
1
100
AcDbPoint
10
0
20
12.7
30
0
39
0
210
0
220
0
230
1
50
360
0
POINT
5
86
100
AcDbEntity
8
1
62
256
6
ByLayer
370
18
48
1
60
1
100
AcDbPoint
10
40.5
20
-10.726042
30
0
39
0
210
0
220
0
230
1
50
360
0
POINT
5
87
100
AcDbEntity
8
1
62
256
6
ByLayer
370
18
48
1
60
1
100
AcDbPoint
10
0
20
-12.7
30
0
39
0
210
0
220
0
230
1
50
360
0
POINT
5
88
100
AcDbEntity
8
1
62
256
6
ByLayer
370
18
48
1
60
1
100
AcDbPoint
10
0
20
12.7
30
0
39
0
210
0
220
0
230
1
50
360
0
POINT
5
89
100
AcDbEntity
8
1
62
256
6
ByLayer
370
18
48
1
60
1
100
AcDbPoint
10
-84
20
12.7
30
0
39
0
210
0
220
0
230
1
50
360
0
POINT
5
8A
100
AcDbEntity
8
1
62
256
6
ByLayer
370
18
48
1
60
1
100
AcDbPoint
10
40.5
20
-10.726042
30
0
39
0
210
0
220
0
230
1
50
360
0
POINT
5
8B
100
AcDbEntity
8
1
62
256
6
ByLayer
370
18
48
1
60
1
100
AcDbPoint
10
-84
20
12.7
30
0
39
0
210
0
220
0
230
1
50
360
0
POINT
5
8C
100
AcDbEntity
8
1
62
256
6
ByLayer
370
18
48
1
60
1
100
AcDbPoint
10
-81
20
-12.7
30
0
39
0
210
0
220
0
230
1
50
360
0
SPLINE
5
11F
100
AcDbEntity
8
1
62
256
6
ByLayer
370
18
48
1
60
0
100
AcDbSpline
70
4
71
3
72
8
73
4
40
0
40
0
40
0
40
0
40
1
40
1
40
1
40
1
41
1
10
30.1151594577759
20
-8.71323720093866
30
0
41
1
10
30.2383940949576
20
-8.85668371500009
30
0
41
1
10
30.3617319822882
20
-9.00013045994245
30
0
41
1
10
30.4852791940611
20
-9.14357717913339
30
0
0
SPLINE
5
120
100
AcDbEntity
8
1
62
256
6
ByLayer
370
18
48
1
60
0
100
AcDbSpline
70
4
71
3
72
8
73
4
40
0
40
0
40
0
40
0
40
1
40
1
40
1
40
1
41
1
10
34.1206519979244
20
-10.3973775848003
30
0
41
1
10
33.9706114977549
20
-10.4259234492898
30
0
41
1
10
33.820480379721
20
-10.4543880313515
30
0
41
1
10
33.6701656918022
20
-10.4826873921966
30
0
0
SPLINE
5
121
100
AcDbEntity
8
1
62
256
6
ByLayer
370
18
48
1
60
0
100
AcDbSpline
70
4
71
3
72
8
73
4
40
0
40
0
40
0
40
0
40
1
40
1
40
1
40
1
41
1
10
29.9954307256612
20
-10.2868135246063
30
0
41
1
10
29.8123388040078
20
-10.2823356517169
30
0
41
1
10
29.6293989153419
20
-10.2779914631466
30
0
41
1
10
29.4465341760913
20
-10.273713088555
30
0
0
SPLINE
5
122
100
AcDbEntity
8
1
62
256
6
ByLayer
370
18
48
1
60
0
100
AcDbSpline
70
4
71
3
72
8
73
4
40
0
40
0
40
0
40
0
40
1
40
1
40
1
40
1
41
1
10
33.1803172234023
20
-11.6259237376696
30
0
41
1
10
33.2710872014405
20
-11.7365932231259
30
0
41
1
10
33.3616163181392
20
-11.8472311974363
30
0
41
1
10
33.4520267162399
20
-11.9578534724167
30
0
0
SPLINE
5
123
100
AcDbEntity
8
1
62
256
6
ByLayer
370
18
48
1
60
0
100
AcDbSpline
70
4
71
3
72
8
73
4
40
0
40
0
40
0
40
0
40
1
40
1
40
1
40
1
41
1
10
30.5127502992595
20
-12.0487783337824
30
0
41
1
10
30.3841189577098
20
-11.9828945907065
30
0
41
1
10
30.2624099149558
20
-11.9048657270699
30
0
41
1
10
30.1510842153081
20
-11.8179566890895
30
0
0
SPLINE
5
124
100
AcDbEntity
8
1
62
256
6
ByLayer
370
18
48
1
60
0
100
AcDbSpline
70
4
71
3
72
18
73
14
40
0
40
0
40
0
40
0
40
0.528792327767805
40
0.528792327767805
40
0.680535977058268
40
0.680535977058268
40
0.833713400957204
40
0.833713400957204
40
0.912368075451983
40
0.912368075451983
40
0.978358905500683
40
0.978358905500683
40
1
40
1
40
1
40
1
41
1
10
30.1510842153084
20
-11.8179566890897
30
0
41
1
10
29.976545583536
20
-11.6816989819677
30
0
41
1
10
29.8243148488328
20
-11.5175271880551
30
0
41
1
10
29.6790346840697
20
-11.3061232057476
30
0
41
1
10
29.6493804575182
20
-11.2583162353775
30
0
41
1
10
29.5982379340536
20
-11.1672322641414
30
0
41
1
10
29.5763343924791
20
-11.1229627864333
30
0
41
1
10
29.5533526451823
20
-11.0699207985452
30
0
41
1
10
29.547267775285
20
-11.0542219914096
30
0
41
1
10
29.5410378086918
20
-11.0346386033056
30
0
41
1
10
29.5400924673459
20
-11.0292215654564
30
0
41
1
10
29.5419667191232
20
-11.028754961172
30
0
41
1
10
29.5426885401825
20
-11.0291794995974
30
0
41
1
10
29.5436606076404
20
-11.0301515670554
30
0
0
SPLINE
5
125
100
AcDbEntity
8
1
62
256
6
ByLayer
370
18
48
1
60
0
100
AcDbSpline
70
4
71
3
72
14
73
10
40
0
40
0
40
0
40
0
40
0.328130430985098
40
0.328130430985098
40
0.666391163857508
40
0.666391163857508
40
0.908708517667827
40
0.908708517667827
40
1
40
1
40
1
40
1
41
1
10
29.9949135367479
20
-11.7766031127064
30
0
41
1
10
30.0627639787884
20
-11.819555147589
30
0
41
1
10
30.1310523653375
20
-11.8586817236799
30
0
41
1
10
30.2646664906
20
-11.9295194736656
30
0
41
1
10
30.3308862761765
20
-11.9613899102873
30
0
41
1
10
30.4277984758053
20
-12.0068034988185
30
0
41
1
10
30.4637563536659
20
-12.0232986698877
30
0
41
1
10
30.4984690650206
20
-12.0407971947449
30
0
41
1
10
30.5065174715529
20
-12.0450905052807
30
0
41
1
10
30.5127502992595
20
-12.0487783337824
30
0
0
SPLINE
5
126
100
AcDbEntity
8
1
62
256
6
ByLayer
370
18
48
1
60
0
100
AcDbSpline
70
4
71
3
72
8
73
4
40
0
40
0
40
0
40
0
40
1
40
1
40
1
40
1
41
1
10
29.6377375067402
20
-11.6033968467469
30
0
41
1
10
29.7608189590022
20
-11.6626138135453
30
0
41
1
10
29.8799947006322
20
-11.7204133561999
30
0
41
1
10
29.9949135367484
20
-11.776603112707
30
0
0
SPLINE
5
127
100
AcDbEntity
8
1
62
256
6
ByLayer
370
18
48
1
60
0
100
AcDbSpline
70
4
71
3
72
8
73
4
40
0
40
0
40
0
40
0
40
1
40
1
40
1
40
1
41
1
10
30.5127502992595
20
-12.0487783337824
30
0
41
1
10
30.6098562386331
20
-12.0816632606106
30
0
41
1
10
30.7095753304377
20
-12.1083063784235
30
0
41
1
10
30.8105664042043
20
-12.1283950471853
30
0
0
SPLINE
5
128
100
AcDbEntity
8
1
62
256
6
ByLayer
370
18
48
1
60
0
100
AcDbSpline
70
4
71
3
72
12
73
8
40
0
40
0
40
0
40
0
40
0.279075421264708
40
0.279075421264708
40
0.797622329849624
40
0.797622329849624
40
1
40
1
40
1
40
1
41
1
10
33.5410819059914
20
-9.16034284266431
30
0
41
1
10
33.5032195607968
20
-9.04181443474209
30
0
41
1
10
33.4566819690226
20
-8.9248056112022
30
0
41
1
10
33.2993349113736
20
-8.60508286766225
30
0
41
1
10
33.1654956516704
20
-8.40908394759467
30
0
41
1
10
32.9468608978782
20
-8.17297638876786
30
0
41
1
10
32.8814445611308
20
-8.11015091985209
30
0
41
1
10
32.8126063095198
20
-8.05125222768427
30
0
0
SPLINE
5
129
100
AcDbEntity
8
1
62
256
6
ByLayer
370
18
48
1
60
0
100
AcDbSpline
70
4
71
3
72
16
73
12
40
0
40
0
40
0
40
0
40
0.188612797276349
40
0.188612797276349
40
0.476580970388007
40
0.476580970388007
40
0.76846002920206
40
0.76846002920206
40
0.928067657155804
40
0.928067657155804
40
1
40
1
40
1
40
1
41
1
10
29.3393835644195
20
-10.5728674036352
30
0
41
1
10
29.3600172249258
20
-10.6275239776298
30
0
41
1
10
29.3820865703091
20
-10.6799744189317
30
0
41
1
10
29.4406643157789
20
-10.8062906120778
30
0
41
1
10
29.4787695338168
20
-10.8771113932258
30
0
41
1
10
29.55127664139
20
-10.9990891218628
30
0
41
1
10
29.5867852474382
20
-11.0515868938324
30
0
41
1
10
29.6207125913001
20
-11.1009536316171
30
0
41
1
10
29.6284936177702
20
-11.1122294633445
30
0
41
1
10
29.6292669787514
20
-11.1153867818044
30
0
41
1
10
29.6280351984958
20
-11.1145261579116
30
0
41
1
10
29.6252750549505
20
-11.1117660143663
30
0
0
SPLINE
5
12A
100
AcDbEntity
8
1
62
256
6
ByLayer
370
18
48
1
60
0
100
AcDbSpline
70
4
71
3
72
16
73
12
40
0
40
0
40
0
40
0
40
0.108942262920705
40
0.108942262920705
40
0.344030646041536
40
0.344030646041536
40
0.579230656896071
40
0.579230656896071
40
0.81511206801029
40
0.81511206801029
40
1
40
1
40
1
40
1
41
1
10
23.1636153198259
20
5.47448346400617
30
0
41
1
10
23.2390723542997
20
5.39057150755175
30
0
41
1
10
23.3082100918208
20
5.30019875894089
30
0
41
1
10
23.5018315476098
20
5.00054034775462
30
0
41
1
10
23.6008298405975
20
4.76902444589521
30
0
41
1
10
23.7156031355874
20
4.28947540406597
30
0
41
1
10
23.7328873039165
20
4.03487336746053
30
0
41
1
10
23.6837597984884
20
3.53777528177315
30
0
41
1
10
23.616425673076
20
3.28844232033555
30
0
41
1
10
23.4299401091787
20
2.87992503793723
30
0
41
1
10
23.3237615859788
20
2.70928826459036
30
0
41
1
10
23.1988721742907
20
2.55632888955935
30
0
0
SPLINE
5
12B
100
AcDbEntity
8
1
62
256
6
ByLayer
370
18
48
1
60
0
100
AcDbSpline
70
4
71
3
72
16
73
12
40
0
40
0
40
0
40
0
40
0.112182459149705
40
0.112182459149705
40
0.444675994928453
40
0.444675994928453
40
0.756937943072017
40
0.756937943072017
40
0.929633257859065
40
0.929633257859065
40
1
40
1
40
1
40
1
41
1
10
7.52140979078393
20
12.7
30
0
41
1
10
7.63883278718453
20
12.7
30
0
41
1
10
7.7571953255073
20
12.7
30
0
41
1
10
8.22296606599966
20
12.7
30
0
41
1
10
8.57281980182509
20
12.7
30
0
41
1
10
9.21107172249307
20
12.7
30
0
41
1
10
9.51155984255732
20
12.7
30
0
41
1
10
9.91769281330306
20
12.7
30
0
41
1
10
10.0535324589301
20
12.7
30
0
41
1
10
10.202359912383
20
12.7
30
0
41
1
10
10.2406748457857
20
12.7
30
0
41
1
10
10.2712084772012
20
12.7
30
0
0
SPLINE
5
12C
100
AcDbEntity
8
1
62
256
6
ByLayer
370
18
48
1
60
0
100
AcDbSpline
70
4
71
3
72
8
73
4
40
0
40
0
40
0
40
0
40
1
40
1
40
1
40
1
41
1
10
16.7910574752491
20
11.0929399268202
30
0
41
1
10
16.8019295636382
20
11.0855135570205
30
0
41
1
10
16.8127706172474
20
11.0780407926658
30
0
41
1
10
16.8235800929722
20
11.070521992418
30
0
0
SPLINE
5
12D
100
AcDbEntity
8
1
62
256
6
ByLayer
370
18
48
1
60
0
100
AcDbSpline
70
4
71
3
72
8
73
4
40
0
40
0
40
0
40
0
40
1
40
1
40
1
40
1
41
1
10
16.8235800929721
20
11.070521992418
30
0
41
1
10
19.1487748406176
20
9.45317483425529
30
0
41
1
10
21.2622733113844
20
7.58886986853017
30
0
41
1
10
23.1636153198259
20
5.47448346400617
30
0
0
SPLINE
5
12E
100
AcDbEntity
8
1
62
256
6
ByLayer
370
18
48
1
60
0
100
AcDbSpline
70
4
71
3
72
8
73
4
40
0
40
0
40
0
40
0
40
1
40
1
40
1
40
1
41
1
10
28.8434693844275
20
1.79696652132807
30
0
41
1
10
29.2936194690637
20
0.295987832362613
30
0
41
1
10
30.0838792489443
20
-1.06992949871733
30
0
41
1
10
31.1518316817483
20
-2.20237917260315
30
0
0
SPLINE
5
12F
100
AcDbEntity
8
1
62
256
6
ByLayer
370
18
48
1
60
0
100
AcDbSpline
70
4
71
3
72
8
73
4
40
0
40
0
40
0
40
0
40
1
40
1
40
1
40
1
41
1
10
16.5125476381652
20
12.7
30
0
41
1
10
16.9054369445726
20
12.7
30
0
41
1
10
17.4128130206285
20
12.7
30
0
41
1
10
17.9404359057539
20
12.7
30
0
0
SPLINE
5
130
100
AcDbEntity
8
1
62
256
6
ByLayer
370
18
48
1
60
0
100
AcDbSpline
70
4
71
3
72
8
73
4
40
0
40
0
40
0
40
0
40
1
40
1
40
1
40
1
41
1
10
9.97741973092758
20
3.9908084869522
30
0
41
1
10
9.93051694983919
20
4.05333439584427
30
0
41
1
10
9.88522888236142
20
4.11698621027136
30
0
41
1
10
9.84155254674113
20
4.18176328411266
30
0
0
SPLINE
5
131
100
AcDbEntity
8
1
62
256
6
ByLayer
370
18
48
1
60
0
100
AcDbSpline
70
4
71
3
72
16
73
12
40
0
40
0
40
0
40
0
40
0.184768465986232
40
0.184768465986232
40
0.419532471893563
40
0.419532471893563
40
0.655638584101844
40
0.655638584101844
40
0.893837260878676
40
0.893837260878676
40
1
40
1
40
1
40
1
41
1
10
18.7210731810683
20
-2.07732250315809
30
0
41
1
10
18.572421348717
20
-2.2074146279067
30
0
41
1
10
18.4054091955996
20
-2.31946219302574
30
0
41
1
10
18.0040341568423
20
-2.51966036639664
30
0
41
1
10
17.7579249148574
20
-2.59556128644272
30
0
41
1
10
17.2619863545605
20
-2.66285179778279
30
0
41
1
10
17.00525602161
20
-2.65468917368804
30
0
41
1
10
16.5167067631237
20
-2.55601328446494
30
0
41
1
10
16.2782607321703
20
-2.46340639897034
30
0
41
1
10
15.9720147833722
20
-2.27897480009736
30
0
41
1
10
15.88172042604
20
-2.21461031357273
30
0
41
1
10
15.7973463123856
20
-2.14405061231031
30
0
0
SPLINE
5
132
100
AcDbEntity
8
1
62
256
6
ByLayer
370
18
48
1
60
0
100
AcDbSpline
70
4
71
3
72
8
73
4
40
0
40
0
40
0
40
0
40
1
40
1
40
1
40
1
41
1
10
15.7973463123856
20
-2.14405061231031
30
0
41
1
10
13.6146319639191
20
-0.318707913009831
30
0
41
1
10
11.6758810987637
20
1.72659646630723
30
0
41
1
10
9.97741973092758
20
3.9908084869522
30
0
0
SPLINE
5
133
100
AcDbEntity
8
1
62
256
6
ByLayer
370
18
48
1
60
0
100
AcDbSpline
70
4
71
3
72
8
73
4
40
0
40
0
40
0
40
0
40
1
40
1
40
1
40
1
41
1
10
23.1988721742907
20
2.55632888955941
30
0
41
1
10
21.8354025466477
20
0.886407802583534
30
0
41
1
10
20.3427641228294
20
-0.658105417419677
30
0
41
1
10
18.7210731810682
20
-2.07732250315811
30
0
0
SPLINE
5
134
100
AcDbEntity
8
1
62
256
6
ByLayer
370
18
48
1
60
0
100
AcDbSpline
70
4
71
3
72
12
73
8
40
0
40
0
40
0
40
0
40
0.366690567097279
40
0.366690567097279
40
0.928794150213684
40
0.928794150213684
40
1
40
1
40
1
40
1
41
1
10
16.0446942717687
20
12.7
30
0
41
1
10
16.0692910429461
20
12.7
30
0
41
1
10
16.1120495039915
20
12.7
30
0
41
1
10
16.2458520371582
20
12.7
30
0
41
1
10
16.3515489327054
20
12.7
30
0
41
1
10
16.4824174412251
20
12.7
30
0
41
1
10
16.4973911436273
20
12.7
30
0
41
1
10
16.5125476381654
20
12.7
30
0
0
SPLINE
5
135
100
AcDbEntity
8
1
62
256
6
ByLayer
370
18
48
1
60
0
100
AcDbSpline
70
4
71
3
72
10
73
6
40
0
40
0
40
0
40
0
40
0.469456378765608
40
0.469456378765608
40
1
40
1
40
1
40
1
41
1
10
1.77227681923364
20
-12.625
30
0
41
1
10
1.8963506595853
20
-12.625
30
0
41
1
10
2.00649823004926
20
-12.6396423088448
30
0
41
1
10
2.1954530928829
20
-12.6785909124673
30
0
41
1
10
2.27155428571518
20
-12.7040997504771
30
0
41
1
10
2.31775814129617
20
-12.720855682695
30
0
0
SPLINE
5
136
100
AcDbEntity
8
1
62
256
6
ByLayer
370
18
48
1
60
0
100
AcDbSpline
70
4
71
3
72
10
73
6
40
0
40
0
40
0
40
0
40
0.694290207483331
40
0.694290207483331
40
1
40
1
40
1
40
1
41
1
10
17.9404359057539
20
12.7000000000016
30
0
41
1
10
19.2141755307803
20
11.4262603749752
30
0
41
1
10
20.489497608634
20
10.1509382971215
30
0
41
1
10
22.3141058363662
20
8.32633006938931
30
0
41
1
10
22.8704951290164
20
7.76994077673916
30
0
41
1
10
23.4255371123395
20
7.21489879341598
30
0
0
SPLINE
5
137
100
AcDbEntity
8
1
62
256
6
ByLayer
370
18
48
1
60
0
100
AcDbSpline
70
4
71
3
72
10
73
6
40
0
40
0
40
0
40
0
40
0.370277425608
40
0.370277425608
40
1
40
1
40
1
40
1
41
1
10
23.4255371123395
20
7.21489879341598
30
0
41
1
10
23.6235927836009
20
7.01684312215463
30
0
41
1
10
23.8192945230234
20
6.82114138273215
30
0
41
1
10
24.3447236888952
20
6.29571221686038
30
0
41
1
10
24.6753673152399
20
5.96506859051559
30
0
41
1
10
25.0145752449315
20
5.62586066082398
30
0
0
SPLINE
5
138
100
AcDbEntity
8
1
62
256
6
ByLayer
370
18
48
1
60
0
100
AcDbSpline
70
4
71
3
72
8
73
4
40
0
40
0
40
0
40
0
40
1
40
1
40
1
40
1
41
1
10
21.421948866462
20
-6.57509443648621
30
0
41
1
10
21.5682554900544
20
-6.46849453322611
30
0
41
1
10
21.7147438072836
20
-6.36473735914311
30
0
41
1
10
21.8592223289283
20
-6.26428383988298
30
0
0
SPLINE
5
139
100
AcDbEntity
8
1
62
256
6
ByLayer
370
18
48
1
60
0
100
AcDbSpline
70
4
71
3
72
8
73
4
40
0
40
0
40
0
40
0
40
1
40
1
40
1
40
1
41
1
10
21.7062729068102
20
-5.05127942878249
30
0
41
1
10
21.6874983456245
20
-4.87526986188826
30
0
41
1
10
21.6706424316655
20
-4.70283333977068
30
0
41
1
10
21.6552450022784
20
-4.53515873774933
30
0
0
SPLINE
5
13A
100
AcDbEntity
8
1
62
256
6
ByLayer
370
18
48
1
60
0
100
AcDbSpline
70
4
71
3
72
10
73
6
40
0
40
0
40
0
40
0
40
0.300940878612909
40
0.300940878612909
40
1
40
1
40
1
40
1
41
1
10
20.4619455289661
20
-7.32014923364818
30
0
41
1
10
20.5026137870879
20
-7.2867811415361
30
0
41
1
10
20.5436053107779
20
-7.25333332466556
30
0
41
1
10
20.6803835584483
20
-7.14244242356691
30
0
41
1
10
20.7778488038364
20
-7.06457873800528
30
0
41
1
10
20.8768693038488
20
-6.98698894946139
30
0
0
SPLINE
5
13B
100
AcDbEntity
8
1
62
256
6
ByLayer
370
18
48
1
60
0
100
AcDbSpline
70
4
71
3
72
8
73
4
40
0
40
0
40
0
40
0
40
1
40
1
40
1
40
1
41
1
10
20.4619455289661
20
-7.32014923364818
30
0
41
1
10
20.2973971015935
20
-7.24808927295464
30
0
41
1
10
20.1290297182592
20
-7.17499641251138
30
0
41
1
10
19.9624693181762
20
-7.10366429542646
30
0
0
SPLINE
5
13C
100
AcDbEntity
8
1
62
256
6
ByLayer
370
18
48
1
60
0
100
AcDbSpline
70
4
71
3
72
8
73
4
40
0
40
0
40
0
40
0
40
1
40
1
40
1
40
1
41
1
10
19.3378179255603
20
-6.84102477591784
30
0
41
1
10
19.1747262968751
20
-6.77376032136237
30
0
41
1
10
19.0148789430605
20
-6.70885278292488
30
0
41
1
10
18.860691402354
20
-6.64688952527968
30
0
0
SPLINE
5
13D
100
AcDbEntity
8
1
62
256
6
ByLayer
370
18
48
1
60
0
100
AcDbSpline
70
4
71
3
72
8
73
4
40
0
40
0
40
0
40
0
40
1
40
1
40
1
40
1
41
1
10
18.7873138102386
20
-6.10841914666295
30
0
41
1
10
18.8105973061616
20
-6.28893764829442
30
0
41
1
10
18.8353569222396
20
-6.46927787253102
30
0
41
1
10
18.860691402354
20
-6.64688952527968
30
0
0
SPLINE
5
13E
100
AcDbEntity
8
1
62
256
6
ByLayer
370
18
48
1
60
0
100
AcDbSpline
70
4
71
3
72
8
73
4
40
0
40
0
40
0
40
0
40
1
40
1
40
1
40
1
41
1
10
19.0716378505868
20
-4.58460413895924
30
0
41
1
10
18.9298401617316
20
-4.69571297695657
30
0
41
1
10
18.7912555466214
20
-4.80737385315859
30
0
41
1
10
18.6567140757041
20
-4.91776442314602
30
0
0
SPLINE
5
13F
100
AcDbEntity
8
1
62
256
6
ByLayer
370
18
48
1
60
0
100
AcDbSpline
70
4
71
3
72
10
73
6
40
0
40
0
40
0
40
0
40
0.300940878612909
40
0.300940878612909
40
1
40
1
40
1
40
1
41
1
10
18.6567140757041
20
-4.91776442314602
30
0
41
1
10
18.6613683033445
20
-4.96844793321162
30
0
41
1
10
18.6661497670911
20
-5.01950922327842
30
0
41
1
10
18.6824525423093
20
-5.18979086375228
30
0
41
1
10
18.6946312839253
20
-5.31097369396122
30
0
41
1
10
18.7077419802359
20
-5.43388511417919
30
0
0
SPLINE
5
140
100
AcDbEntity
8
1
62
256
6
ByLayer
370
18
48
1
60
0
100
AcDbSpline
70
4
71
3
72
8
73
4
40
0
40
0
40
0
40
0
40
1
40
1
40
1
40
1
41
1
10
21.6552450022784
20
-4.53515873774933
30
0
41
1
10
21.4906965749058
20
-4.46309877705582
30
0
41
1
10
21.3223291915716
20
-4.39000591661255
30
0
41
1
10
21.1557687914885
20
-4.3186737995276
30
0
0
SPLINE
5
141
100
AcDbEntity
8
1
62
256
6
ByLayer
370
18
48
1
60
0
100
AcDbSpline
70
4
71
3
72
8
73
4
40
0
40
0
40
0
40
0
40
1
40
1
40
1
40
1
41
1
10
20.5311173988726
20
-4.05603428001899
30
0
41
1
10
20.3680257701874
20
-3.98876982546352
30
0
41
1
10
20.2081784163728
20
-3.92386228702603
30
0
41
1
10
20.0539908756663
20
-3.86189902938082
30
0
0
SPLINE
5
142
100
AcDbEntity
8
1
62
256
6
ByLayer
370
18
48
1
60
0
100
AcDbSpline
70
4
71
3
72
10
73
6
40
0
40
0
40
0
40
0
40
0.30094087861291
40
0.30094087861291
40
1
40
1
40
1
40
1
41
1
10
20.0539908756663
20
-3.86189902938082
30
0
41
1
10
20.0103189151084
20
-3.89226341905683
30
0
41
1
10
19.9665111443786
20
-3.92289498888763
30
0
41
1
10
19.8211513598336
20
-4.02520435311169
30
0
41
1
10
19.7188866032637
20
-4.09826852749154
30
0
41
1
10
19.6167174132
20
-4.17270962598406
30
0
0
SPLINE
5
143
100
AcDbEntity
8
1
62
256
6
ByLayer
370
18
48
1
60
0
100
AcDbSpline
70
4
71
3
72
10
73
6
40
0
40
0
40
0
40
0
40
0.30094087861292
40
0.30094087861292
40
1
40
1
40
1
40
1
41
1
10
21.8592223289283
20
-6.26428383988298
30
0
41
1
10
21.8515643988518
20
-6.21059662738131
30
0
41
1
10
21.8439666880654
20
-6.15671909027481
30
0
41
1
10
21.8190823759727
20
-5.97785591292632
30
0
41
1
10
21.8021041231748
20
-5.85187357153561
30
0
41
1
10
21.7858447368129
20
-5.72581346126626
30
0
0
SPLINE
5
144
100
AcDbEntity
8
1
62
256
6
ByLayer
370
18
48
1
60
0
100
AcDbSpline
70
4
71
1
72
4
73
2
40
0
40
0
40
1
40
1
41
1
10
30.0832578570573
20
-11.7600571547935
30
0
41
1
10
29.9838251575965
20
-11.6612226800546
30
0
0
LINE
5
8D
100
AcDbEntity
8
1
62
256
6
ByLayer
370
18
48
1
60
0
100
AcDbLine
10
29.348124
20
-10.175303
30
0
11
29.446534
21
-10.273713
31
0
39
0
210
0
220
0
230
1
0
LINE
5
8E
100
AcDbEntity
8
1
62
256
6
ByLayer
370
18
48
1
60
0
100
AcDbLine
10
29.625275
20
-11.111766
30
0
11
29.543661
21
-11.030152
31
0
39
0
210
0
220
0
230
1
0
LINE
5
8F
100
AcDbEntity
8
1
62
256
6
ByLayer
370
18
48
1
60
0
100
AcDbLine
10
30.115159
20
-8.713237
30
0
11
30.062516
21
-8.660594
31
0
39
0
210
0
220
0
230
1
0
LINE
5
90
100
AcDbEntity
8
1
62
256
6
ByLayer
370
13
48
1
60
0
100
AcDbLine
10
23.50986
20
-11.042068
30
0
11
23.041181
21
-10.573389
31
0
39
0
210
0
220
0
230
1
0
LINE
5
91
100
AcDbEntity
8
1
62
256
6
ByLayer
370
13
48
1
60
0
100
AcDbLine
10
23.50986
20
-11.042068
30
0
11
31.291113
21
-18.823321
31
0
39
0
210
0
220
0
230
1
0
LINE
5
92
100
AcDbEntity
8
1
62
256
6
ByLayer
370
13
48
1
60
0
100
AcDbLine
10
32.408183
20
-18.817859
30
0
11
40.265907
21
-10.960135
31
0
39
0
210
0
220
0
230
1
0
LINE
5
93
100
AcDbEntity
8
1
62
256
6
ByLayer
370
13
48
1
60
0
100
AcDbLine
10
32.021437
20
-1.593133
30
0
11
32.490116
21
-2.061812
31
0
39
0
210
0
220
0
230
1
0
LINE
5
94
100
AcDbEntity
8
1
62
256
6
ByLayer
370
13
48
1
60
0
100
AcDbLine
10
40.271369
20
-9.843065
30
0
11
32.490116
21
-2.061812
31
0
39
0
210
0
220
0
230
1
0
LINE
5
95
100
AcDbEntity
8
1
62
256
6
ByLayer
370
13
48
1
60
0
100
AcDbLine
10
31.373046
20
-2.067274
30
0
11
23.515322
21
-9.924998
31
0
39
0
210
0
220
0
230
1
0
LINE
5
96
100
AcDbEntity
8
SK1
62
256
6
ByLayer
370
18
48
1
60
0
100
AcDbLine
10
0
20
-12.625
30
0
11
0
21
12.7
31
0
39
0
210
0
220
0
230
1
0
LINE
5
98
100
AcDbEntity
8
SK1
62
256
6
ByLayer
370
18
48
1
60
0
100
AcDbLine
10
-84
20
9.7
30
0
11
-81
21
12.7
31
0
39
0
210
0
220
0
230
1
0
LINE
5
99
100
AcDbEntity
8
SK1
62
256
6
ByLayer
370
18
48
1
60
0
100
AcDbLine
10
-84
20
9.7
30
0
11
-84
21
-9.625
31
0
39
0
210
0
220
0
230
1
0
LINE
5
9A
100
AcDbEntity
8
SK1
62
256
6
ByLayer
370
18
48
1
60
0
100
AcDbLine
10
-84
20
-9.625
30
0
11
-81
21
-12.625
31
0
39
0
210
0
220
0
230
1
0
LINE
5
9B
100
AcDbEntity
8
SK1
62
256
6
ByLayer
370
18
48
1
60
0
100
AcDbLine
10
0
20
12.7
30
0
11
-81
21
12.7
31
0
39
0
210
0
220
0
230
1
0
LINE
5
9C
100
AcDbEntity
8
SK1
62
256
6
ByLayer
370
18
48
1
60
0
100
AcDbLine
10
0
20
-12.625
30
0
11
-81
21
-12.625
31
0
39
0
210
0
220
0
230
1
0
LINE
5
9D
100
AcDbEntity
8
1
62
256
6
ByLayer
370
18
48
1
60
0
100
AcDbLine
10
3.510468
20
12.7
30
0
11
2.317758
21
12.7
31
0
39
0
210
0
220
0
230
1
0
LINE
5
9E
100
AcDbEntity
8
1
62
256
6
ByLayer
370
18
48
1
60
0
100
AcDbLine
10
2.317758
20
12.7
30
0
11
0.772277
21
12.7
31
0
39
0
210
0
220
0
230
1
0
LINE
5
9F
100
AcDbEntity
8
1
62
256
6
ByLayer
370
18
48
1
60
0
100
AcDbLine
10
0.772277
20
-12.625
30
0
11
0
21
-12.625
31
0
39
0
210
0
220
0
230
1
0
LINE
5
A0
100
AcDbEntity
8
1
62
256
6
ByLayer
370
18
48
1
60
0
100
AcDbLine
10
26.220657
20
-13.762924
30
0
11
25.676896
21
-13.309562
31
0
39
0
210
0
220
0
230
1
0
LINE
5
A1
100
AcDbEntity
8
1
62
256
6
ByLayer
370
18
48
1
60
0
100
AcDbLine
10
0.772277
20
12.7
30
0
11
0
21
12.7
31
0
39
0
210
0
220
0
230
1
0
LINE
5
A2
100
AcDbEntity
8
1
62
256
6
ByLayer
370
18
48
1
60
0
100
AcDbLine
10
0
20
-12.625
30
0
11
0
21
12.7
31
0
39
0
210
0
220
0
230
1
0
LINE
5
A3
100
AcDbEntity
8
1
62
256
6
ByLayer
370
18
48
1
60
0
100
AcDbLine
10
4.005227
20
-16.376558
30
0
11
28.917944
21
-16.620187
31
0
39
0
210
0
220
0
230
1
0
LINE
5
A4
100
AcDbEntity
8
1
62
256
6
ByLayer
370
18
48
1
60
0
100
AcDbLine
10
3.510468
20
12.7
30
0
11
7.52141
21
12.7
31
0
39
0
210
0
220
0
230
1
0
LINE
5
A5
100
AcDbEntity
8
1
62
256
6
ByLayer
370
18
48
1
60
0
100
AcDbLine
10
26.220657
20
-13.762924
30
0
11
25.766067
21
-14.217514
31
0
39
0
210
0
220
0
230
1
0
LINE
5
A6
100
AcDbEntity
8
1
62
256
6
ByLayer
370
18
48
1
60
0
100
AcDbLine
10
2.842942
20
-13.036018
30
0
11
3.510468
21
12.7
31
0
39
0
210
0
220
0
230
1
0
LINE
5
A7
100
AcDbEntity
8
1
62
256
6
ByLayer
370
18
48
1
60
0
100
AcDbLine
10
1.772277
20
-12.625
30
0
11
0.772277
21
-12.625
31
0
39
0
210
0
220
0
230
1
0
LINE
5
A8
100
AcDbEntity
8
1
62
256
6
ByLayer
370
18
48
1
60
0
100
AcDbLine
10
26.131445
20
-7.012698
30
0
11
28.107192
21
-5.036951
31
0
39
0
210
0
220
0
230
1
0
LINE
5
A9
100
AcDbEntity
8
1
62
256
6
ByLayer
370
18
48
1
60
0
100
AcDbLine
10
16.044694
20
12.7
30
0
11
10.271208
21
12.7
31
0
39
0
210
0
220
0
230
1
0
LINE
5
AA
100
AcDbEntity
8
1
62
256
6
ByLayer
370
18
48
1
60
0
100
AcDbLine
10
28.815343
20
-4.538868
30
0
11
31.151832
21
-2.202379
31
0
39
0
210
0
220
0
230
1
0
LINE
5
AB
100
AcDbEntity
8
1
62
256
6
ByLayer
370
18
48
1
60
0
100
AcDbLine
10
22.663514
20
-10.690697
30
0
11
25.633362
21
-7.720849
31
0
39
0
210
0
220
0
230
1
0
LINE
5
AC
100
AcDbEntity
8
1
62
256
6
ByLayer
370
18
48
1
60
0
100
AcDbLine
10
3.317758
20
-13.81089
30
0
11
4.005227
21
-16.376558
31
0
39
0
210
0
220
0
230
1
0
LINE
5
AD
100
AcDbEntity
8
1
62
256
6
ByLayer
370
18
48
1
60
0
100
AcDbLine
10
20.078288
20
-6.936492
30
0
11
20.504387
21
-6.614506
31
0
39
0
210
0
220
0
230
1
0
LINE
5
AE
100
AcDbEntity
8
1
62
256
6
ByLayer
370
18
48
1
60
0
100
AcDbLine
10
21.049466
20
-6.202612
30
0
11
21.475565
21
-5.880626
31
0
39
0
210
0
220
0
230
1
0
LINE
5
AF
100
AcDbEntity
8
1
62
256
6
ByLayer
370
18
48
1
60
0
100
AcDbLine
10
19.337818
20
-6.841025
30
0
11
18.965335
21
-6.468542
31
0
39
0
210
0
220
0
230
1
0
LINE
5
B0
100
AcDbEntity
8
1
62
256
6
ByLayer
370
18
48
1
60
0
100
AcDbLine
10
19.589987
20
-6.731182
30
0
11
19.962469
21
-7.103664
31
0
39
0
210
0
220
0
230
1
0
LINE
5
B1
100
AcDbEntity
8
1
62
256
6
ByLayer
370
18
48
1
60
0
100
AcDbLine
10
20.078288
20
-6.936492
30
0
11
19.589987
21
-6.731182
31
0
39
0
210
0
220
0
230
1
0
LINE
5
B2
100
AcDbEntity
8
1
62
256
6
ByLayer
370
18
48
1
60
0
100
AcDbLine
10
21.421949
20
-6.575094
30
0
11
21.049466
21
-6.202612
31
0
39
0
210
0
220
0
230
1
0
LINE
5
B3
100
AcDbEntity
8
1
62
256
6
ByLayer
370
18
48
1
60
0
100
AcDbLine
10
21.413362
20
-5.353331
30
0
11
21.785845
21
-5.725813
31
0
39
0
210
0
220
0
230
1
0
LINE
5
B4
100
AcDbEntity
8
1
62
256
6
ByLayer
370
18
48
1
60
0
100
AcDbLine
10
20.504387
20
-6.614506
30
0
11
20.876869
21
-6.986989
31
0
39
0
210
0
220
0
230
1
0
LINE
5
B5
100
AcDbEntity
8
1
62
256
6
ByLayer
370
18
48
1
60
0
100
AcDbLine
10
21.475565
20
-5.880626
30
0
11
21.859222
21
-6.264284
31
0
39
0
210
0
220
0
230
1
0
LINE
5
B6
100
AcDbEntity
8
1
62
256
6
ByLayer
370
18
48
1
60
0
100
AcDbLine
10
21.475565
20
-5.880626
30
0
11
21.413362
21
-5.353331
31
0
39
0
210
0
220
0
230
1
0
LINE
5
B7
100
AcDbEntity
8
1
62
256
6
ByLayer
370
18
48
1
60
0
100
AcDbLine
10
20.078288
20
-6.936492
30
0
11
20.461946
21
-7.320149
31
0
39
0
210
0
220
0
230
1
0
LINE
5
B8
100
AcDbEntity
8
1
62
256
6
ByLayer
370
18
48
1
60
0
100
AcDbLine
10
21.706273
20
-5.051279
30
0
11
21.33379
21
-4.678797
31
0
39
0
210
0
220
0
230
1
0
LINE
5
B9
100
AcDbEntity
8
1
62
256
6
ByLayer
370
18
48
1
60
0
100
AcDbLine
10
28.917966
20
-16.620187
30
0
11
29.089673
21
-16.621866
31
0
39
0
210
0
220
0
230
1
0
LINE
5
BA
100
AcDbEntity
8
1
62
256
6
ByLayer
370
18
48
1
60
0
100
AcDbLine
10
24.965066
20
-13.416513
30
0
11
25.424693
21
-12.956886
31
0
39
0
210
0
220
0
230
1
0
LINE
5
BB
100
AcDbEntity
8
1
62
256
6
ByLayer
370
18
48
1
60
0
100
AcDbLine
10
25.676896
20
-13.309562
30
0
11
25.720639
21
-13.252845
31
0
39
0
210
0
220
0
230
1
0
LINE
5
BC
100
AcDbEntity
8
1
62
256
6
ByLayer
370
18
48
1
60
0
100
AcDbLine
10
25.564626
20
-13.096858
30
0
11
25.105019
21
-13.556466
31
0
39
0
210
0
220
0
230
1
0
LINE
5
BD
100
AcDbEntity
8
1
62
256
6
ByLayer
370
18
48
1
60
0
100
AcDbLine
10
29.002961
20
-16.53517
30
0
11
28.917944
21
-16.620187
31
0
39
0
210
0
220
0
230
1
0
LINE
5
BE
100
AcDbEntity
8
1
62
256
6
ByLayer
370
18
48
1
60
0
100
AcDbLine
10
27.367146
20
-14.899354
30
0
11
26.220657
21
-13.762924
31
0
39
0
210
0
220
0
230
1
0
LINE
5
BF
100
AcDbEntity
8
1
62
256
6
ByLayer
370
13
48
1
60
0
100
AcDbLine
10
16.443101
20
12.438207
30
0
11
16.82358
21
11.070522
31
0
39
0
210
0
220
0
230
1
0
LINE
5
C0
100
AcDbEntity
8
1
62
256
6
ByLayer
370
13
48
1
60
0
100
AcDbLine
10
8.629962
20
4.350214
30
0
11
9.97742
21
3.990808
31
0
39
0
210
0
220
0
230
1
0
LINE
5
C1
100
AcDbEntity
8
1
62
256
6
ByLayer
370
13
48
1
60
0
100
AcDbLine
10
23.472262
20
-9.881938
30
0
11
23.515322
21
-9.924998
31
0
39
0
210
0
220
0
230
1
0
LINE
5
C2
100
AcDbEntity
8
1
62
256
6
ByLayer
370
13
48
1
60
0
100
AcDbLine
10
31.373046
20
-2.067274
30
0
11
30.904367
21
-1.598595
31
0
39
0
210
0
220
0
230
1
0
LINE
5
C3
100
AcDbEntity
8
1
62
256
6
ByLayer
370
13
48
1
60
0
100
AcDbLine
10
30.772382
20
-1.73058
30
0
11
30.904367
21
-1.598595
31
0
39
0
210
0
220
0
230
1
0
LINE
5
C4
100
AcDbEntity
8
1
62
256
6
ByLayer
370
13
48
1
60
0
100
AcDbLine
10
24.965066
20
-13.416513
30
0
11
25.105019
21
-13.556466
31
0
39
0
210
0
220
0
230
1
0
LINE
5
C5
100
AcDbEntity
8
1
62
256
6
ByLayer
370
13
48
1
60
0
100
AcDbLine
10
25.766067
20
-14.217514
30
0
11
25.105019
21
-13.556466
31
0
39
0
210
0
220
0
230
1
0
LINE
5
C6
100
AcDbEntity
8
1
62
256
6
ByLayer
370
13
48
1
60
0
100
AcDbLine
10
14.742447
20
-1.932604
30
0
11
15.797346
21
-2.144051
31
0
39
0
210
0
220
0
230
1
0
LINE
5
C7
100
AcDbEntity
8
1
62
256
6
ByLayer
370
13
48
1
60
0
100
AcDbLine
10
0.772277
20
-12.625
30
0
11
0.772277
21
12.7
31
0
39
0
210
0
220
0
230
1
0
LINE
5
C8
100
AcDbEntity
8
1
62
256
6
ByLayer
370
13
48
1
60
0
100
AcDbLine
10
23.163615
20
5.474483
30
0
11
22.937568
21
6.550809
31
0
39
0
210
0
220
0
230
1
0
LINE
5
C9
100
AcDbEntity
8
1
62
256
6
ByLayer
370
13
48
1
60
0
100
AcDbLine
10
2.317758
20
12.7
30
0
11
2.317758
21
-12.720856
31
0
39
0
210
0
220
0
230
1
0
LINE
5
CA
100
AcDbEntity
8
1
62
256
6
ByLayer
370
18
48
1
60
0
100
AcDbLine
10
18.965335
20
-6.468542
30
0
11
18.82855
21
-6.41103
31
0
39
0
210
0
220
0
230
1
0
LINE
5
CB
100
AcDbEntity
8
1
62
256
6
ByLayer
370
18
48
1
60
0
100
AcDbLine
10
21.33379
20
-4.678797
30
0
11
21.298563
21
-4.380174
31
0
39
0
210
0
220
0
230
1
0
LINE
5
CC
100
AcDbEntity
8
80
62
256
6
ByLayer
370
18
48
1
60
0
100
AcDbLine
10
0
20
0
30
0
11
-5
21
0
31
0
39
0
210
0
220
0
230
1
0
LINE
5
CD
100
AcDbEntity
8
1
62
256
6
ByLayer
370
18
48
1
60
0
100
AcDbLine
10
16.230263
20
-2.556731
30
0
11
16.962152
21
-2.636585
31
0
39
0
210
0
220
0
230
1
0
LINE
5
CE
100
AcDbEntity
8
1
62
256
6
ByLayer
370
18
48
1
60
0
100
AcDbLine
10
23.706197
20
4.252253
30
0
11
23.625993
21
4.987341
31
0
39
0
210
0
220
0
230
1
0
LINE
5
CF
100
AcDbEntity
8
1
62
256
6
ByLayer
370
18
48
1
60
0
100
AcDbLine
10
29.94604
20
-11.635973
30
0
11
29.954328
21
-11.644261
31
0
39
0
210
0
220
0
230
1
0
LINE
5
D0
100
AcDbEntity
8
1
62
256
6
ByLayer
370
18
48
1
60
0
100
AcDbLine
10
32.94559
20
-8.17414
30
0
11
32.810078
21
-8.038628
31
0
39
0
210
0
220
0
230
1
0
LINE
5
D1
100
AcDbEntity
8
1
62
256
6
ByLayer
370
18
48
1
60
0
100
AcDbLine
10
29.72843
20
-11.236158
30
0
11
30.161435
21
-11.669163
31
0
39
0
210
0
220
0
230
1
0
LINE
5
D2
100
AcDbEntity
8
1
62
256
6
ByLayer
370
18
48
1
60
0
100
AcDbLine
10
33.405751
20
-9.001928
30
0
11
32.972746
21
-8.568922
31
0
39
0
210
0
220
0
230
1
0
LINE
5
D3
100
AcDbEntity
8
81
62
256
6
ByLayer
370
18
48
1
60
0
100
AcDbLine
10
40.5
20
-10.726042
30
0
11
45.5
21
-10.726042
31
0
39
0
210
0
220
0
230
1
0
LINE
5
D4
100
AcDbEntity
8
2
62
256
6
ByLayer
370
13
48
1
60
0
100
AcDbLine
10
47.5
20
-10.726042
30
0
11
48.468653
21
-10.726042
31
0
39
0
210
0
220
0
230
1
0
LINE
5
D5
100
AcDbEntity
8
1
62
256
6
ByLayer
370
13
48
1
60
0
100
AcDbLine
10
44.720475
20
-6.505567
30
0
11
41.948597
21
-4.901812
31
0
39
0
210
0
220
0
230
1
0
LINE
5
D6
100
AcDbEntity
8
1
62
256
6
ByLayer
370
13
48
1
60
0
100
AcDbLine
10
44.720475
20
-6.505567
30
0
11
42.458127
21
-4.239041
31
0
39
0
210
0
220
0
230
1
0
LINE
5
D7
100
AcDbEntity
8
1
62
256
6
ByLayer
370
13
48
1
60
0
100
AcDbLine
10
41.948597
20
-4.901812
30
0
11
42.458127
21
-4.239041
31
0
39
0
210
0
220
0
230
1
0
LINE
5
D8
100
AcDbEntity
8
1
62
256
6
ByLayer
370
13
48
1
60
0
100
AcDbLine
10
46.468653
20
-10.726042
30
0
11
46.471607
21
-13.928436
31
0
39
0
210
0
220
0
230
1
0
LINE
5
D9
100
AcDbEntity
8
1
62
256
6
ByLayer
370
13
48
1
60
0
100
AcDbLine
10
46.468653
20
-10.726042
30
0
11
45.642665
21
-13.820084
31
0
39
0
210
0
220
0
230
1
0
LINE
5
DA
100
AcDbEntity
8
1
62
256
6
ByLayer
370
13
48
1
60
0
100
AcDbLine
10
46.471607
20
-13.928436
30
0
11
45.642665
21
-13.820084
31
0
39
0
210
0
220
0
230
1
0
MTEXT
5
145
100
AcDbEntity
8
2
62
256
6
ByLayer
370
18
48
1
60
0
100
AcDbMText
10
42.356564
20
-2.654612
30
0
210
0
220
0
230
1
1
\W0.8602;45%%d0'
40
3
41
0
44
1.084337
50
313.80487463824
71
7
72
5
7
iso_b_vert
0
MTEXT
5
148
100
AcDbEntity
8
SK6
62
256
6
ByLayer
370
18
48
1
60
0
100
AcDbMText
10
-36.139298
20
-57.643343
30
0
210
0
220
0
230
1
1
\W0.7875;QS-PSSNL164C1
40
3.5
41
0
44
1.084337
50
0
71
7
72
5
7
iso_b_vert
0
DIMENSION
5
14B
100
AcDbEntity
8
2
62
256
6
ByLayer
370
18
48
1
60
0
100
AcDbDimension
2
_U0
10
40.5
20
-32.151952
30
0
11
20.25
21
-32.151952
31
0
70
32
71
1
72
1
41
1
210
0
220
0
230
1
3
Standard
100
AcDbAlignedDimension
13
0
23
12.7
33
0
14
40.5
24
-10.726042
34
0
50
0
100
AcDbRotatedDimension
1001
ACAD
1000
DSTYLE
1002
{
1070
   371
1070
    13
1070
   372
1070
    13
1070
     3
1000

1070
   170
1070
     0
1070
   144
1040
1.0
1070
   277
1070
     2
1070
   284
1070
     8
1070
   278
1070
    46
1070
   146
1040
1.0
1070
   345
1005
16
1070
   347
1005
16
1070
   346
1005
16
1070
   344
1005
14C
1070
   343
1005
14C
1070
   172
1070
     1
1070
    76
1070
     0
1070
    75
1070
     0
1070
   282
1070
     0
1070
   281
1070
     0
1070
    71
1070
     0
1070
   272
1070
     4
1070
    74
1070
     0
1070
   279
1070
     0
1070
   173
1070
     1
1070
   340
1005
146
1070
   271
1070
     1
1070
    77
1070
     1
1070
    73
1070
     1
1070
   171
1070
     3
1070
   274
1070
     4
1070
   177
1070
     2
1070
   176
1070
     2
1070
   178
1070
     7
1070
    78
1070
     8
1070
    41
1040
3.175
1070
   147
1040
1.75
1070
    42
1040
2.0
1070
    44
1040
2.0
1070
   140
1040
3.5
1002
}
1001
ACAD_DSTYLE_DIM_LINETYPE
1070
   380
1005
16
1001
ACAD_DSTYLE_DIM_EXT1_LINETYPE
1070
   381
1005
16
1001
ACAD_DSTYLE_DIM_EXT2_LINETYPE
1070
   382
1005
16
0
DIMENSION
5
16F
100
AcDbEntity
8
2
62
256
6
ByLayer
370
18
48
1
60
0
100
AcDbDimension
2
_U1
10
34.828087
20
-10.726042
30
0
11
34.828087
21
0.986979
31
0
70
32
71
1
72
1
41
1
210
0
220
0
230
1
3
Standard
100
AcDbAlignedDimension
13
0
23
12.7
33
0
14
40.5
24
-10.726042
34
0
50
90
100
AcDbRotatedDimension
1001
ACAD
1000
DSTYLE
1002
{
1070
   371
1070
    13
1070
   372
1070
    13
1070
     3
1000

1070
   170
1070
     0
1070
   144
1040
1.0
1070
   277
1070
     2
1070
   284
1070
     8
1070
   278
1070
    46
1070
   146
1040
1.0
1070
   345
1005
16
1070
   347
1005
16
1070
   346
1005
16
1070
   344
1005
14C
1070
   343
1005
14C
1070
   172
1070
     1
1070
    76
1070
     0
1070
    75
1070
     0
1070
   282
1070
     0
1070
   281
1070
     0
1070
    71
1070
     0
1070
   272
1070
     4
1070
    74
1070
     0
1070
   279
1070
     0
1070
   173
1070
     1
1070
   340
1005
146
1070
   271
1070
     1
1070
    77
1070
     1
1070
    73
1070
     0
1070
   171
1070
     3
1070
   274
1070
     4
1070
   177
1070
     2
1070
   176
1070
     2
1070
   178
1070
     7
1070
    78
1070
     8
1070
    41
1040
3.175
1070
   147
1040
1.75
1070
    42
1040
2.0
1070
    44
1040
2.0
1070
   140
1040
3.5
1002
}
1001
ACAD_DSTYLE_DIM_LINETYPE
1070
   380
1005
16
1001
ACAD_DSTYLE_DIM_EXT1_LINETYPE
1070
   381
1005
16
1001
ACAD_DSTYLE_DIM_EXT2_LINETYPE
1070
   382
1005
16
0
DIMENSION
5
18B
100
AcDbEntity
8
SK2
62
256
6
ByLayer
370
18
48
1
60
0
100
AcDbDimension
2
_U2
10
-11.517193
20
12.7
30
0
11
-11.517193
21
0
31
0
70
32
71
1
72
1
41
1
210
0
220
0
230
1
3
Standard
100
AcDbAlignedDimension
13
0
23
-12.7
33
0
14
0
24
12.7
34
0
50
90
100
AcDbRotatedDimension
1001
ACAD
1000
DSTYLE
1002
{
1070
   371
1070
    13
1070
   372
1070
    13
1070
     3
1000

1070
   170
1070
     0
1070
   144
1040
1.0
1070
   277
1070
     2
1070
   284
1070
     8
1070
   278
1070
    46
1070
   146
1040
1.0
1070
   345
1005
16
1070
   347
1005
16
1070
   346
1005
16
1070
   344
1005
14C
1070
   343
1005
14C
1070
   172
1070
     1
1070
    76
1070
     0
1070
    75
1070
     0
1070
   282
1070
     0
1070
   281
1070
     0
1070
    71
1070
     0
1070
   272
1070
     4
1070
    74
1070
     0
1070
   279
1070
     0
1070
   173
1070
     1
1070
   340
1005
146
1070
   271
1070
     1
1070
    77
1070
     1
1070
    73
1070
     0
1070
   171
1070
     3
1070
   274
1070
     4
1070
   177
1070
     2
1070
   176
1070
     2
1070
   178
1070
     7
1070
    78
1070
     8
1070
    41
1040
3.175
1070
   147
1040
1.75
1070
    42
1040
2.0
1070
    44
1040
2.0
1070
   140
1040
3.5
1002
}
1001
ACAD_DSTYLE_DIM_LINETYPE
1070
   380
1005
16
1001
ACAD_DSTYLE_DIM_EXT1_LINETYPE
1070
   381
1005
16
1001
ACAD_DSTYLE_DIM_EXT2_LINETYPE
1070
   382
1005
16
0
DIMENSION
5
1A7
100
AcDbEntity
8
SK2
62
256
6
ByLayer
370
18
48
1
60
0
100
AcDbDimension
2
_U3
10
40.5
20
26.021295
30
0
11
-21.75
21
26.021295
31
0
70
32
71
1
72
1
41
1
210
0
220
0
230
1
3
Standard
100
AcDbAlignedDimension
13
-84
23
12.7
33
0
14
40.5
24
-10.726042
34
0
50
0
100
AcDbRotatedDimension
1001
ACAD
1000
DSTYLE
1002
{
1070
   371
1070
    13
1070
   372
1070
    13
1070
     3
1000

1070
   170
1070
     0
1070
   144
1040
1.0
1070
   277
1070
     2
1070
   284
1070
     8
1070
   278
1070
    46
1070
   146
1040
1.0
1070
   345
1005
16
1070
   347
1005
16
1070
   346
1005
16
1070
   344
1005
14C
1070
   343
1005
14C
1070
   172
1070
     1
1070
    76
1070
     0
1070
    75
1070
     0
1070
   282
1070
     0
1070
   281
1070
     0
1070
    71
1070
     0
1070
   272
1070
     4
1070
    74
1070
     0
1070
   279
1070
     0
1070
   173
1070
     1
1070
   340
1005
146
1070
   271
1070
     1
1070
    77
1070
     1
1070
    73
1070
     1
1070
   171
1070
     3
1070
   274
1070
     4
1070
   177
1070
     2
1070
   176
1070
     2
1070
   178
1070
     7
1070
    78
1070
     8
1070
    41
1040
3.175
1070
   147
1040
1.75
1070
    42
1040
2.0
1070
    44
1040
2.0
1070
   140
1040
3.5
1002
}
1001
ACAD_DSTYLE_DIM_LINETYPE
1070
   380
1005
16
1001
ACAD_DSTYLE_DIM_EXT1_LINETYPE
1070
   381
1005
16
1001
ACAD_DSTYLE_DIM_EXT2_LINETYPE
1070
   382
1005
16
0
DIMENSION
5
1C3
100
AcDbEntity
8
SK2
62
256
6
ByLayer
370
18
48
1
60
0
100
AcDbDimension
2
_U4
10
-81
20
-32.151952
30
0
11
-82.5
21
-32.151952
31
0
70
32
71
1
72
1
41
1
210
0
220
0
230
1
3
Standard
100
AcDbAlignedDimension
13
-84
23
12.7
33
0
14
-81
24
-12.7
34
0
50
0
100
AcDbRotatedDimension
1001
ACAD
1000
DSTYLE
1002
{
1070
   371
1070
    13
1070
   372
1070
    13
1070
     3
1000

1070
   170
1070
     0
1070
   144
1040
1.0
1070
   277
1070
     2
1070
   284
1070
     8
1070
   278
1070
    46
1070
   146
1040
1.0
1070
   345
1005
16
1070
   347
1005
16
1070
   346
1005
16
1070
   344
1005
14C
1070
   343
1005
14C
1070
   172
1070
     1
1070
    76
1070
     0
1070
    75
1070
     0
1070
   282
1070
     0
1070
   281
1070
     0
1070
    71
1070
     0
1070
   272
1070
     4
1070
   271
1070
     4
1070
    74
1070
     0
1070
   279
1070
     0
1070
   173
1070
     1
1070
   340
1005
146
1070
    77
1070
     1
1070
    73
1070
     1
1070
   171
1070
     3
1070
   274
1070
     4
1070
   177
1070
     2
1070
   176
1070
     2
1070
   178
1070
     7
1070
    78
1070
     8
1070
    41
1040
3.175
1070
   147
1040
1.75
1070
    42
1040
2.0
1070
    44
1040
2.0
1070
   140
1040
3.5
1002
}
1001
ACAD_DSTYLE_DIM_LINETYPE
1070
   380
1005
16
1001
ACAD_DSTYLE_DIM_EXT1_LINETYPE
1070
   381
1005
16
1001
ACAD_DSTYLE_DIM_EXT2_LINETYPE
1070
   382
1005
16
0
ENDSEC
0
SECTION
2
OBJECTS
0
DICTIONARY
5
24f
330
0
100
AcDbDictionary
280
0
281
1
3
ACAD_GROUP
350
250
3
ACAD_MLINESTYLE
350
251
0
DICTIONARY
5
250
330
0
100
AcDbDictionary
280
0
281
1
0
DICTIONARY
5
251
330
0
100
AcDbDictionary
280
0
281
1
3
Standard
350
18
0
MLINESTYLE
5
18
330
251
100
AcDbMlineStyle
2
Standard
70
0
3

62
256
51
90
52
90
71
2
49
-0.5
62
256
6
ByLayer
49
0.5
62
256
6
ByLayer
0
RASTERVARIABLES
5
23e
330

100
AcDbRasterVariables
90
0
70
1
71
1
72
1
0
ENDSEC
0
EOF
