0
SECTION
2
HEADER
9
$ACADVER
1
AC1015
9
$DWGCODEPAGE
3
ANSI_1252
9
$HANDSEED
5
24b
9
$ANGBASE
50
0
9
$ANGDIR
70
0
9
$ATTMODE
70
1
9
$AUNITS
70
0
9
$AUPREC
70
0
9
$CECOLOR
62
256
9
$CELTSCALE
40
1
9
$CELTYPE
6
ByLayer
9
$CELWEIGHT
370
18
9
$CLAYER
8
0
9
$CMLJUST
70
0
9
$CMLSCALE
40
1
9
$CMLSTYLE
2
Standard
9
$DIMSTYLE
2
Standard
9
$TEXTSIZE
40
0.2
9
$TEXTSTYLE
7
Standard
9
$LUNITS
70
2
9
$LUPREC
70
4
9
$EXTNAMES
290
1
9
$INSUNITS
70
4
9
$LTSCALE
40
1
9
$LWDISPLAY
290
1
9
$PDMODE
70
0
9
$PDSIZE
40
0
9
$PLINEGEN
70
0
0
ENDSEC
0
SECTION
2
CLASSES
0
CLASS
1
RASTERVARIABLES
2
AcDbRasterVariables
3
ISM
90
0
280
0
281
0
0
ENDSEC
0
SECTION
2
TABLES
0
TABLE
2
VPORT
5
241
100
AcDbSymbolTable
0
VPORT
5
1
100
AcDbSymbolTableRecord
100
AcDbViewportTableRecord
2
*Active
70
0
10
0
20
0
11
1
21
1
12
-1
22
1
13
0
23
0
14
0.5
24
0.5
15
10
25
10
16
0
26
0
36
1
17
0
27
0
37
0
0
ENDTAB
0
TABLE
2
LTYPE
5
242
100
AcDbSymbolTable
0
LTYPE
5
14
100
AcDbSymbolTableRecord
100
AcDbLinetypeTableRecord
70
0
2
ByBlock
3

72
65
73
0
40
0
0
LTYPE
5
15
100
AcDbSymbolTableRecord
100
AcDbLinetypeTableRecord
70
0
2
ByLayer
3

72
65
73
0
40
0
0
LTYPE
5
16
100
AcDbSymbolTableRecord
100
AcDbLinetypeTableRecord
70
0
2
Continuous
3
Solid line
72
65
73
0
40
0
0
LTYPE
5
6E
100
AcDbSymbolTableRecord
100
AcDbLinetypeTableRecord
70
0
2
CENTER
3
____ _ ____ _ ____ _ ____
72
65
73
4
40
47.5
49
22
74
0
49
-8.5
74
0
49
8.5
74
0
49
-8.5
74
0
0
LTYPE
5
6F
100
AcDbSymbolTableRecord
100
AcDbLinetypeTableRecord
70
0
2
DASHED
3
__ __ __ __ __ __ __ __ __
72
65
73
2
40
25.72
49
12.86
74
0
49
-12.86
74
0
0
ENDTAB
0
TABLE
2
LAYER
5
243
100
AcDbSymbolTable
0
LAYER
5
10
100
AcDbSymbolTableRecord
100
AcDbLayerTableRecord
2
0
70
0
62
7
6
Continuous
290
1
370
-3
390
0
0
LAYER
5
71
100
AcDbSymbolTableRecord
100
AcDbLayerTableRecord
2
2
70
0
62
7
6
Continuous
290
1
370
-3
390
0
0
LAYER
5
7C
100
AcDbSymbolTableRecord
100
AcDbLayerTableRecord
2
81
70
0
62
-3
6
Continuous
290
1
370
-3
390
0
0
LAYER
5
7E
100
AcDbSymbolTableRecord
100
AcDbLayerTableRecord
2
80
70
0
62
-6
6
Continuous
290
1
370
-3
390
0
0
LAYER
5
80
100
AcDbSymbolTableRecord
100
AcDbLayerTableRecord
2
1
70
0
62
4
6
Continuous
290
1
370
-3
390
0
0
LAYER
5
143
100
AcDbSymbolTableRecord
100
AcDbLayerTableRecord
2
Defpoints
70
0
62
7
6
Continuous
290
0
370
-3
390
0
0
LAYER
5
22e
100
AcDbSymbolTableRecord
100
AcDbLayerTableRecord
2
SK2
70
0
62
7
6
Continuous
290
1
370
-3
390
0
0
LAYER
5
22f
100
AcDbSymbolTableRecord
100
AcDbLayerTableRecord
2
SK1
70
0
62
4
6
Continuous
290
1
370
-3
390
0
0
LAYER
5
230
100
AcDbSymbolTableRecord
100
AcDbLayerTableRecord
2
SK6
70
0
62
5
6
Continuous
290
1
370
-3
390
0
0
ENDTAB
0
TABLE
2
STYLE
5
244
100
AcDbSymbolTable
0
STYLE
5
11
100
AcDbSymbolTableRecord
100
AcDbTextStyleTableRecord
2
Standard
3
txt
70
0
71
0
40
0
41
1
42
0
50
0
0
STYLE
5
134
100
AcDbSymbolTableRecord
100
AcDbTextStyleTableRecord
2
iso_b_vert
3
simplex.shx
70
0
71
0
40
0
41
1
42
0
50
0
0
STYLE
5
135
100
AcDbSymbolTableRecord
100
AcDbTextStyleTableRecord
2
DWGDirectTextStyle
3
simplex
70
0
71
0
40
0
41
1
42
0
50
0
0
ENDTAB
0
TABLE
2
DIMSTYLE
5
245
100
AcDbSymbolTable
100
AcDbDimStyleTable
0
DIMSTYLE
105
27
100
AcDbSymbolTableRecord
100
AcDbDimStyleTableRecord
2
Standard
70
0
3
<>
41
0.18
42
0.0625
44
0.18
140
0.18
147
0.09
73
0
74
0
77
1
271
2
275
0
278
52
280
0
340
11
0
ENDTAB
0
TABLE
2
VIEW
5
246
100
AcDbSymbolTable
0
ENDTAB
0
TABLE
2
UCS
5
247
100
AcDbSymbolTable
0
ENDTAB
0
TABLE
2
APPID
5
248
100
AcDbSymbolTable
0
APPID
5
12
100
AcDbSymbolTableRecord
100
AcDbRegAppTableRecord
2
ACAD
70
0
0
APPID
5
138
100
AcDbSymbolTableRecord
100
AcDbRegAppTableRecord
2
ACAD_DSTYLE_DIMBREAK
70
0
0
APPID
5
1ED
100
AcDbSymbolTableRecord
100
AcDbRegAppTableRecord
2
ACAD_DSTYLE_DIM_LINETYPE
70
0
0
APPID
5
1EE
100
AcDbSymbolTableRecord
100
AcDbRegAppTableRecord
2
ACAD_DSTYLE_DIM_EXT1_LINETYPE
70
0
0
APPID
5
1EF
100
AcDbSymbolTableRecord
100
AcDbRegAppTableRecord
2
ACAD_DSTYLE_DIM_EXT2_LINETYPE
70
0
0
APPID
5
22A
100
AcDbSymbolTableRecord
100
AcDbRegAppTableRecord
2
ACAD_MLEADERVER
70
0
0
ENDTAB
0
TABLE
2
BLOCK_RECORD
5
249
100
AcDbSymbolTable
0
BLOCK_RECORD
5
1F
100
AcDbSymbolTableRecord
100
AcDbBlockTableRecord
2
*Model_Space
340
0
70
0
0
BLOCK_RECORD
5
1B
100
AcDbSymbolTableRecord
100
AcDbBlockTableRecord
2
*Paper_Space
340
0
70
0
0
BLOCK_RECORD
5
23
100
AcDbSymbolTableRecord
100
AcDbBlockTableRecord
2
*Paper_Space0
340
0
70
0
0
BLOCK_RECORD
5
13A
100
AcDbSymbolTableRecord
100
AcDbBlockTableRecord
2
_Closed
340
0
70
0
0
BLOCK_RECORD
5
144
100
AcDbSymbolTableRecord
100
AcDbBlockTableRecord
2
*D2
340
0
70
0
0
BLOCK_RECORD
5
150
100
AcDbSymbolTableRecord
100
AcDbBlockTableRecord
2
_U0
340
0
70
0
0
BLOCK_RECORD
5
160
100
AcDbSymbolTableRecord
100
AcDbBlockTableRecord
2
*D4
340
0
70
0
0
BLOCK_RECORD
5
16C
100
AcDbSymbolTableRecord
100
AcDbBlockTableRecord
2
_U1
340
0
70
0
0
BLOCK_RECORD
5
17C
100
AcDbSymbolTableRecord
100
AcDbBlockTableRecord
2
*D6
340
0
70
0
0
BLOCK_RECORD
5
188
100
AcDbSymbolTableRecord
100
AcDbBlockTableRecord
2
_U2
340
0
70
0
0
BLOCK_RECORD
5
198
100
AcDbSymbolTableRecord
100
AcDbBlockTableRecord
2
*D8
340
0
70
0
0
BLOCK_RECORD
5
1A4
100
AcDbSymbolTableRecord
100
AcDbBlockTableRecord
2
_U3
340
0
70
0
0
BLOCK_RECORD
5
1B4
100
AcDbSymbolTableRecord
100
AcDbBlockTableRecord
2
*D10
340
0
70
0
0
BLOCK_RECORD
5
1C2
100
AcDbSymbolTableRecord
100
AcDbBlockTableRecord
2
_U4
340
0
70
0
0
ENDTAB
0
ENDSEC
0
SECTION
2
BLOCKS
0
BLOCK
5
20
100
AcDbEntity
8
0
100
AcDbBlockBegin
2
*Model_Space
70
0
10
0
20
0
30
0
3
*Model_Space
0
ENDBLK
5
21
100
AcDbEntity
8
0
100
AcDbBlockEnd
0
BLOCK
5
1C
100
AcDbEntity
8
0
100
AcDbBlockBegin
2
*Paper_Space
70
0
10
0
20
0
30
0
3
*Paper_Space
0
ENDBLK
5
1D
100
AcDbEntity
8
0
100
AcDbBlockEnd
0
BLOCK
5
24
100
AcDbEntity
8
0
100
AcDbBlockBegin
2
*Paper_Space0
70
0
10
0
20
0
30
0
3
*Paper_Space0
0
ENDBLK
5
25
100
AcDbEntity
8
0
100
AcDbBlockEnd
0
BLOCK
5
13B
100
AcDbEntity
8
0
100
AcDbBlockBegin
2
_Closed
70
0
10
0
20
0
30
0
3
_Closed
0
LINE
5
13D
100
AcDbEntity
8
0
62
256
6
ByLayer
370
-2
48
1
60
0
100
AcDbLine
10
-1
20
0.166667
30
0
11
0
21
0
31
0
39
0
210
0
220
0
230
1
0
LINE
5
13E
100
AcDbEntity
8
0
62
256
6
ByLayer
370
-2
48
1
60
0
100
AcDbLine
10
0
20
0
30
0
11
-1
21
-0.166667
31
0
39
0
210
0
220
0
230
1
0
LINE
5
13F
100
AcDbEntity
8
0
62
256
6
ByLayer
370
-2
48
1
60
0
100
AcDbLine
10
-1
20
0.166667
30
0
11
-1
21
-0.166667
31
0
39
0
210
0
220
0
230
1
0
LINE
5
140
100
AcDbEntity
8
0
62
256
6
ByLayer
370
-2
48
1
60
0
100
AcDbLine
10
0
20
0
30
0
11
-1
21
0
31
0
39
0
210
0
220
0
230
1
0
ENDBLK
5
13C
100
AcDbEntity
8
0
100
AcDbBlockEnd
0
BLOCK
5
145
100
AcDbEntity
8
0
100
AcDbBlockBegin
2
*D2
70
1
10
0
20
0
30
0
3
*D2
0
LINE
5
147
100
AcDbEntity
8
0
62
256
6
ByLayer
370
-2
48
1
60
0
100
AcDbLine
10
35
20
-12.5
30
0
11
36.522884
21
-12.5
31
0
39
0
210
0
220
0
230
1
0
LINE
5
148
100
AcDbEntity
8
0
62
256
6
ByLayer
370
-2
48
1
60
0
100
AcDbLine
10
38
20
11.176042
30
0
11
32.522884
21
11.176042
31
0
39
0
210
0
220
0
230
1
0
LINE
5
149
100
AcDbEntity
8
0
62
256
6
ByLayer
370
-2
48
1
60
0
100
AcDbLine
10
34.522884
20
-9.325
30
0
11
34.522884
21
8.001042
31
0
39
0
210
0
220
0
230
1
0
SOLID
5
14A
100
AcDbEntity
8
0
62
256
6
ByLayer
370
-1
48
1
60
0
100
AcDbTrace
10
33.993718
20
-9.325
30
0
11
35.052051
21
-9.325
31
0
12
34.522884
22
-12.5
32
0
13
34.522884
23
-12.5
33
0
39
0
210
0
220
0
230
1
0
SOLID
5
14B
100
AcDbEntity
8
0
62
256
6
ByLayer
370
-1
48
1
60
0
100
AcDbTrace
10
35.052051
20
8.001042
30
0
11
33.993718
21
8.001042
31
0
12
34.522884
22
11.176042
32
0
13
34.522884
23
11.176042
33
0
39
0
210
0
220
0
230
1
0
MTEXT
5
14C
100
AcDbEntity
8
0
62
256
6
ByLayer
370
18
48
1
60
0
100
AcDbMText
10
25.772884
20
-0.661979
30
0
210
0
220
0
230
1
1
\A1;23.7
40
3.5
41
0
44
1
50
90
71
5
72
5
7
iso_b_vert
0
POINT
5
14D
100
AcDbEntity
8
Defpoints
62
0
6
ByLayer
370
-1
48
1
60
0
100
AcDbPoint
10
33
20
-12.5
30
0
39
0
210
0
220
0
230
1
50
360
0
POINT
5
14E
100
AcDbEntity
8
Defpoints
62
0
6
ByLayer
370
-1
48
1
60
0
100
AcDbPoint
10
40
20
11.176042
30
0
39
0
210
0
220
0
230
1
50
360
0
POINT
5
14F
100
AcDbEntity
8
Defpoints
62
0
6
ByLayer
370
-1
48
1
60
0
100
AcDbPoint
10
34.522884
20
11.176042
30
0
39
0
210
0
220
0
230
1
50
360
0
ENDBLK
5
146
100
AcDbEntity
8
0
100
AcDbBlockEnd
0
BLOCK
5
15B
100
AcDbEntity
8
0
100
AcDbBlockBegin
2
_U0
70
0
10
0
20
0
30
0
3
_U0
0
MTEXT
5
151
100
AcDbEntity
8
2
62
256
6
ByLayer
370
18
48
1
60
0
100
AcDbMText
10
33.833251
20
-5.919411
30
0
210
0
220
0
230
1
1
\W0.7468;23.68
40
3.5
41
0
44
1.084337
50
90
71
7
72
5
7
iso_b_vert
0
LINE
5
152
100
AcDbEntity
8
2
62
256
6
ByLayer
370
13
48
1
60
0
100
AcDbLine
10
35
20
-12.5
30
0
11
36.522884
21
-12.5
31
0
39
0
210
0
220
0
230
1
0
LINE
5
153
100
AcDbEntity
8
2
62
256
6
ByLayer
370
13
48
1
60
0
100
AcDbLine
10
38
20
11.176042
30
0
11
32.522884
21
11.176042
31
0
39
0
210
0
220
0
230
1
0
LINE
5
154
100
AcDbEntity
8
2
62
256
6
ByLayer
370
13
48
1
60
0
100
AcDbLine
10
34.522884
20
-12.5
30
0
11
34.522884
21
11.176042
31
0
39
0
210
0
220
0
230
1
0
LINE
5
155
100
AcDbEntity
8
2
62
256
6
ByLayer
370
13
48
1
60
0
100
AcDbLine
10
34.522884
20
-12.5
30
0
11
34.104888
21
-9.325002
31
0
39
0
210
0
220
0
230
1
0
LINE
5
156
100
AcDbEntity
8
2
62
256
6
ByLayer
370
13
48
1
60
0
100
AcDbLine
10
34.522884
20
-12.5
30
0
11
34.940881
21
-9.324998
31
0
39
0
210
0
220
0
230
1
0
LINE
5
157
100
AcDbEntity
8
2
62
256
6
ByLayer
370
13
48
1
60
0
100
AcDbLine
10
34.104888
20
-9.325002
30
0
11
34.940881
21
-9.324998
31
0
39
0
210
0
220
0
230
1
0
LINE
5
158
100
AcDbEntity
8
2
62
256
6
ByLayer
370
13
48
1
60
0
100
AcDbLine
10
34.522884
20
11.176042
30
0
11
34.940881
21
8.001043
31
0
39
0
210
0
220
0
230
1
0
LINE
5
159
100
AcDbEntity
8
2
62
256
6
ByLayer
370
13
48
1
60
0
100
AcDbLine
10
34.522884
20
11.176042
30
0
11
34.104888
21
8.00104
31
0
39
0
210
0
220
0
230
1
0
LINE
5
15A
100
AcDbEntity
8
2
62
256
6
ByLayer
370
13
48
1
60
0
100
AcDbLine
10
34.940881
20
8.001043
30
0
11
34.104888
21
8.00104
31
0
39
0
210
0
220
0
230
1
0
ENDBLK
5
15C
100
AcDbEntity
8
0
100
AcDbBlockEnd
0
BLOCK
5
161
100
AcDbEntity
8
0
100
AcDbBlockBegin
2
*D4
70
1
10
0
20
0
30
0
3
*D4
0
LINE
5
163
100
AcDbEntity
8
0
62
256
6
ByLayer
370
-2
48
1
60
0
100
AcDbLine
10
-2
20
12.5
30
0
11
-21.966021
21
12.5
31
0
39
0
210
0
220
0
230
1
0
LINE
5
164
100
AcDbEntity
8
0
62
256
6
ByLayer
370
-2
48
1
60
0
100
AcDbLine
10
-82
20
-12.5
30
0
11
-17.966021
21
-12.5
31
0
39
0
210
0
220
0
230
1
0
LINE
5
165
100
AcDbEntity
8
0
62
256
6
ByLayer
370
-2
48
1
60
0
100
AcDbLine
10
-19.966021
20
9.325
30
0
11
-19.966021
21
-9.325
31
0
39
0
210
0
220
0
230
1
0
SOLID
5
166
100
AcDbEntity
8
0
62
256
6
ByLayer
370
-1
48
1
60
0
100
AcDbTrace
10
-19.436854
20
9.325
30
0
11
-20.495187
21
9.325
31
0
12
-19.966021
22
12.5
32
0
13
-19.966021
23
12.5
33
0
39
0
210
0
220
0
230
1
0
SOLID
5
167
100
AcDbEntity
8
0
62
256
6
ByLayer
370
-1
48
1
60
0
100
AcDbTrace
10
-20.495187
20
-9.325
30
0
11
-19.436854
21
-9.325
31
0
12
-19.966021
22
-12.5
32
0
13
-19.966021
23
-12.5
33
0
39
0
210
0
220
0
230
1
0
MTEXT
5
168
100
AcDbEntity
8
0
62
256
6
ByLayer
370
18
48
1
60
0
100
AcDbMText
10
-28.716021
20
0
30
0
210
0
220
0
230
1
1
\A1;25
40
3.5
41
0
44
1
50
90
71
5
72
5
7
iso_b_vert
0
POINT
5
169
100
AcDbEntity
8
Defpoints
62
0
6
ByLayer
370
-1
48
1
60
0
100
AcDbPoint
10
0
20
12.5
30
0
39
0
210
0
220
0
230
1
50
360
0
POINT
5
16A
100
AcDbEntity
8
Defpoints
62
0
6
ByLayer
370
-1
48
1
60
0
100
AcDbPoint
10
-84
20
-12.5
30
0
39
0
210
0
220
0
230
1
50
360
0
POINT
5
16B
100
AcDbEntity
8
Defpoints
62
0
6
ByLayer
370
-1
48
1
60
0
100
AcDbPoint
10
-19.966021
20
-12.5
30
0
39
0
210
0
220
0
230
1
50
360
0
ENDBLK
5
162
100
AcDbEntity
8
0
100
AcDbBlockEnd
0
BLOCK
5
177
100
AcDbEntity
8
0
100
AcDbBlockBegin
2
_U1
70
0
10
0
20
0
30
0
3
_U1
0
MTEXT
5
16D
100
AcDbEntity
8
SK2
62
256
6
ByLayer
370
18
48
1
60
0
100
AcDbMText
10
-20.655654
20
-3.949699
30
0
210
0
220
0
230
1
1
\W0.7346;25.0
40
3.5
41
0
44
1.084337
50
90
71
7
72
5
7
iso_b_vert
0
LINE
5
16E
100
AcDbEntity
8
SK2
62
256
6
ByLayer
370
13
48
1
60
0
100
AcDbLine
10
-2
20
12.5
30
0
11
-21.966021
21
12.5
31
0
39
0
210
0
220
0
230
1
0
LINE
5
16F
100
AcDbEntity
8
SK2
62
256
6
ByLayer
370
13
48
1
60
0
100
AcDbLine
10
-82
20
-12.5
30
0
11
-17.966021
21
-12.5
31
0
39
0
210
0
220
0
230
1
0
LINE
5
170
100
AcDbEntity
8
SK2
62
256
6
ByLayer
370
13
48
1
60
0
100
AcDbLine
10
-19.966021
20
12.5
30
0
11
-19.966021
21
-12.5
31
0
39
0
210
0
220
0
230
1
0
LINE
5
171
100
AcDbEntity
8
SK2
62
256
6
ByLayer
370
13
48
1
60
0
100
AcDbLine
10
-19.966021
20
12.5
30
0
11
-19.548024
21
9.325002
31
0
39
0
210
0
220
0
230
1
0
LINE
5
172
100
AcDbEntity
8
SK2
62
256
6
ByLayer
370
13
48
1
60
0
100
AcDbLine
10
-19.966021
20
12.5
30
0
11
-20.384017
21
9.324998
31
0
39
0
210
0
220
0
230
1
0
LINE
5
173
100
AcDbEntity
8
SK2
62
256
6
ByLayer
370
13
48
1
60
0
100
AcDbLine
10
-19.548024
20
9.325002
30
0
11
-20.384017
21
9.324998
31
0
39
0
210
0
220
0
230
1
0
LINE
5
174
100
AcDbEntity
8
SK2
62
256
6
ByLayer
370
13
48
1
60
0
100
AcDbLine
10
-19.966021
20
-12.5
30
0
11
-20.384017
21
-9.325002
31
0
39
0
210
0
220
0
230
1
0
LINE
5
175
100
AcDbEntity
8
SK2
62
256
6
ByLayer
370
13
48
1
60
0
100
AcDbLine
10
-19.966021
20
-12.5
30
0
11
-19.548024
21
-9.324998
31
0
39
0
210
0
220
0
230
1
0
LINE
5
176
100
AcDbEntity
8
SK2
62
256
6
ByLayer
370
13
48
1
60
0
100
AcDbLine
10
-20.384017
20
-9.325002
30
0
11
-19.548024
21
-9.324998
31
0
39
0
210
0
220
0
230
1
0
ENDBLK
5
178
100
AcDbEntity
8
0
100
AcDbBlockEnd
0
BLOCK
5
17D
100
AcDbEntity
8
0
100
AcDbBlockBegin
2
*D6
70
1
10
0
20
0
30
0
3
*D6
0
LINE
5
17F
100
AcDbEntity
8
0
62
256
6
ByLayer
370
-2
48
1
60
0
100
AcDbLine
10
-84
20
-14.5
30
0
11
-84
21
-42.344955
31
0
39
0
210
0
220
0
230
1
0
LINE
5
180
100
AcDbEntity
8
0
62
256
6
ByLayer
370
-2
48
1
60
0
100
AcDbLine
10
40
20
9.176042
30
0
11
40
21
-42.344955
31
0
39
0
210
0
220
0
230
1
0
LINE
5
181
100
AcDbEntity
8
0
62
256
6
ByLayer
370
-2
48
1
60
0
100
AcDbLine
10
-80.825
20
-40.344955
30
0
11
36.825
21
-40.344955
31
0
39
0
210
0
220
0
230
1
0
SOLID
5
182
100
AcDbEntity
8
0
62
256
6
ByLayer
370
-1
48
1
60
0
100
AcDbTrace
10
-80.825
20
-39.815788
30
0
11
-80.825
21
-40.874121
31
0
12
-84
22
-40.344955
32
0
13
-84
23
-40.344955
33
0
39
0
210
0
220
0
230
1
0
SOLID
5
183
100
AcDbEntity
8
0
62
256
6
ByLayer
370
-1
48
1
60
0
100
AcDbTrace
10
36.825
20
-40.874121
30
0
11
36.825
21
-39.815788
31
0
12
40
22
-40.344955
32
0
13
40
23
-40.344955
33
0
39
0
210
0
220
0
230
1
0
MTEXT
5
184
100
AcDbEntity
8
0
62
256
6
ByLayer
370
18
48
1
60
0
100
AcDbMText
10
-22
20
-31.594955
30
0
210
0
220
0
230
1
1
\A1;124
40
3.5
41
0
44
1
50
0
71
5
72
5
7
iso_b_vert
0
POINT
5
185
100
AcDbEntity
8
Defpoints
62
0
6
ByLayer
370
-1
48
1
60
0
100
AcDbPoint
10
-84
20
-12.5
30
0
39
0
210
0
220
0
230
1
50
360
0
POINT
5
186
100
AcDbEntity
8
Defpoints
62
0
6
ByLayer
370
-1
48
1
60
0
100
AcDbPoint
10
40
20
11.176042
30
0
39
0
210
0
220
0
230
1
50
360
0
POINT
5
187
100
AcDbEntity
8
Defpoints
62
0
6
ByLayer
370
-1
48
1
60
0
100
AcDbPoint
10
40
20
-40.344955
30
0
39
0
210
0
220
0
230
1
50
360
0
ENDBLK
5
17E
100
AcDbEntity
8
0
100
AcDbBlockEnd
0
BLOCK
5
193
100
AcDbEntity
8
0
100
AcDbBlockBegin
2
_U2
70
0
10
0
20
0
30
0
3
_U2
0
MTEXT
5
189
100
AcDbEntity
8
SK2
62
256
6
ByLayer
370
18
48
1
60
0
100
AcDbMText
10
-26.976266
20
-39.312321
30
0
210
0
220
0
230
1
1
\W0.7091;124.0
40
3.5
41
0
44
1.084337
50
0
71
7
72
5
7
iso_b_vert
0
LINE
5
18A
100
AcDbEntity
8
SK2
62
256
6
ByLayer
370
13
48
1
60
0
100
AcDbLine
10
-84
20
-14.5
30
0
11
-84
21
-42.344955
31
0
39
0
210
0
220
0
230
1
0
LINE
5
18B
100
AcDbEntity
8
SK2
62
256
6
ByLayer
370
13
48
1
60
0
100
AcDbLine
10
40
20
9.176042
30
0
11
40
21
-42.344955
31
0
39
0
210
0
220
0
230
1
0
LINE
5
18C
100
AcDbEntity
8
SK2
62
256
6
ByLayer
370
13
48
1
60
0
100
AcDbLine
10
-84
20
-40.344955
30
0
11
40
21
-40.344955
31
0
39
0
210
0
220
0
230
1
0
LINE
5
18D
100
AcDbEntity
8
SK2
62
256
6
ByLayer
370
13
48
1
60
0
100
AcDbLine
10
-84
20
-40.344955
30
0
11
-80.825002
21
-39.926958
31
0
39
0
210
0
220
0
230
1
0
LINE
5
18E
100
AcDbEntity
8
SK2
62
256
6
ByLayer
370
13
48
1
60
0
100
AcDbLine
10
-84
20
-40.344955
30
0
11
-80.824998
21
-40.762951
31
0
39
0
210
0
220
0
230
1
0
LINE
5
18F
100
AcDbEntity
8
SK2
62
256
6
ByLayer
370
13
48
1
60
0
100
AcDbLine
10
-80.825002
20
-39.926958
30
0
11
-80.824998
21
-40.762951
31
0
39
0
210
0
220
0
230
1
0
LINE
5
190
100
AcDbEntity
8
SK2
62
256
6
ByLayer
370
13
48
1
60
0
100
AcDbLine
10
40
20
-40.344955
30
0
11
36.825002
21
-40.762951
31
0
39
0
210
0
220
0
230
1
0
LINE
5
191
100
AcDbEntity
8
SK2
62
256
6
ByLayer
370
13
48
1
60
0
100
AcDbLine
10
40
20
-40.344955
30
0
11
36.824998
21
-39.926958
31
0
39
0
210
0
220
0
230
1
0
LINE
5
192
100
AcDbEntity
8
SK2
62
256
6
ByLayer
370
13
48
1
60
0
100
AcDbLine
10
36.825002
20
-40.762951
30
0
11
36.824998
21
-39.926958
31
0
39
0
210
0
220
0
230
1
0
ENDBLK
5
194
100
AcDbEntity
8
0
100
AcDbBlockEnd
0
BLOCK
5
199
100
AcDbEntity
8
0
100
AcDbBlockBegin
2
*D8
70
1
10
0
20
0
30
0
3
*D8
0
LINE
5
19B
100
AcDbEntity
8
0
62
256
6
ByLayer
370
-2
48
1
60
0
100
AcDbLine
10
0
20
10.5
30
0
11
0
21
-27.6
31
0
39
0
210
0
220
0
230
1
0
LINE
5
19C
100
AcDbEntity
8
0
62
256
6
ByLayer
370
-2
48
1
60
0
100
AcDbLine
10
40
20
9.176042
30
0
11
40
21
-27.6
31
0
39
0
210
0
220
0
230
1
0
LINE
5
19D
100
AcDbEntity
8
0
62
256
6
ByLayer
370
-2
48
1
60
0
100
AcDbLine
10
3.175
20
-25.6
30
0
11
36.825
21
-25.6
31
0
39
0
210
0
220
0
230
1
0
SOLID
5
19E
100
AcDbEntity
8
0
62
256
6
ByLayer
370
-1
48
1
60
0
100
AcDbTrace
10
3.175
20
-25.070833
30
0
11
3.175
21
-26.129167
31
0
12
0
22
-25.6
32
0
13
0
23
-25.6
33
0
39
0
210
0
220
0
230
1
0
SOLID
5
19F
100
AcDbEntity
8
0
62
256
6
ByLayer
370
-1
48
1
60
0
100
AcDbTrace
10
36.825
20
-26.129167
30
0
11
36.825
21
-25.070833
31
0
12
40
22
-25.6
32
0
13
40
23
-25.6
33
0
39
0
210
0
220
0
230
1
0
MTEXT
5
1A0
100
AcDbEntity
8
0
62
256
6
ByLayer
370
18
48
1
60
0
100
AcDbMText
10
20
20
-16.85
30
0
210
0
220
0
230
1
1
\A1;40
40
3.5
41
0
44
1
50
0
71
5
72
5
7
iso_b_vert
0
POINT
5
1A1
100
AcDbEntity
8
Defpoints
62
0
6
ByLayer
370
-1
48
1
60
0
100
AcDbPoint
10
0
20
12.5
30
0
39
0
210
0
220
0
230
1
50
360
0
POINT
5
1A2
100
AcDbEntity
8
Defpoints
62
0
6
ByLayer
370
-1
48
1
60
0
100
AcDbPoint
10
40
20
11.176042
30
0
39
0
210
0
220
0
230
1
50
360
0
POINT
5
1A3
100
AcDbEntity
8
Defpoints
62
0
6
ByLayer
370
-1
48
1
60
0
100
AcDbPoint
10
40
20
-25.6
30
0
39
0
210
0
220
0
230
1
50
360
0
ENDBLK
5
19A
100
AcDbEntity
8
0
100
AcDbBlockEnd
0
BLOCK
5
1AF
100
AcDbEntity
8
0
100
AcDbBlockBegin
2
_U3
70
0
10
0
20
0
30
0
3
_U3
0
MTEXT
5
1A5
100
AcDbEntity
8
2
62
256
6
ByLayer
370
18
48
1
60
0
100
AcDbMText
10
15.894034
20
-24.567366
30
0
210
0
220
0
230
1
1
\W0.7640;40.0
40
3.5
41
0
44
1.084337
50
0
71
7
72
5
7
iso_b_vert
0
LINE
5
1A6
100
AcDbEntity
8
2
62
256
6
ByLayer
370
13
48
1
60
0
100
AcDbLine
10
0
20
10.5
30
0
11
0
21
-27.6
31
0
39
0
210
0
220
0
230
1
0
LINE
5
1A7
100
AcDbEntity
8
2
62
256
6
ByLayer
370
13
48
1
60
0
100
AcDbLine
10
40
20
9.176042
30
0
11
40
21
-27.6
31
0
39
0
210
0
220
0
230
1
0
LINE
5
1A8
100
AcDbEntity
8
2
62
256
6
ByLayer
370
13
48
1
60
0
100
AcDbLine
10
0
20
-25.6
30
0
11
40
21
-25.6
31
0
39
0
210
0
220
0
230
1
0
LINE
5
1A9
100
AcDbEntity
8
2
62
256
6
ByLayer
370
13
48
1
60
0
100
AcDbLine
10
0
20
-25.6
30
0
11
3.174998
21
-25.182003
31
0
39
0
210
0
220
0
230
1
0
LINE
5
1AA
100
AcDbEntity
8
2
62
256
6
ByLayer
370
13
48
1
60
0
100
AcDbLine
10
0
20
-25.6
30
0
11
3.175002
21
-26.017997
31
0
39
0
210
0
220
0
230
1
0
LINE
5
1AB
100
AcDbEntity
8
2
62
256
6
ByLayer
370
13
48
1
60
0
100
AcDbLine
10
3.174998
20
-25.182003
30
0
11
3.175002
21
-26.017997
31
0
39
0
210
0
220
0
230
1
0
LINE
5
1AC
100
AcDbEntity
8
2
62
256
6
ByLayer
370
13
48
1
60
0
100
AcDbLine
10
40
20
-25.6
30
0
11
36.825002
21
-26.017997
31
0
39
0
210
0
220
0
230
1
0
LINE
5
1AD
100
AcDbEntity
8
2
62
256
6
ByLayer
370
13
48
1
60
0
100
AcDbLine
10
40
20
-25.6
30
0
11
36.824998
21
-25.182003
31
0
39
0
210
0
220
0
230
1
0
LINE
5
1AE
100
AcDbEntity
8
2
62
256
6
ByLayer
370
13
48
1
60
0
100
AcDbLine
10
36.825002
20
-26.017997
30
0
11
36.824998
21
-25.182003
31
0
39
0
210
0
220
0
230
1
0
ENDBLK
5
1B0
100
AcDbEntity
8
0
100
AcDbBlockEnd
0
BLOCK
5
1B5
100
AcDbEntity
8
0
100
AcDbBlockBegin
2
*D10
70
1
10
0
20
0
30
0
3
*D10
0
LINE
5
1B7
100
AcDbEntity
8
0
62
256
6
ByLayer
370
-2
48
1
60
0
100
AcDbLine
10
-84
20
-14.5
30
0
11
-84
21
-27.6
31
0
39
0
210
0
220
0
230
1
0
LINE
5
1B8
100
AcDbEntity
8
0
62
256
6
ByLayer
370
-2
48
1
60
0
100
AcDbLine
10
-81
20
-14.5
30
0
11
-81
21
-27.6
31
0
39
0
210
0
220
0
230
1
0
LINE
5
1B9
100
AcDbEntity
8
0
62
256
6
ByLayer
370
-2
48
1
60
0
100
AcDbLine
10
-81
20
-25.6
30
0
11
-58.316667
21
-25.6
31
0
39
0
210
0
220
0
230
1
0
LINE
5
1BA
100
AcDbEntity
8
0
62
256
6
ByLayer
370
-2
48
1
60
0
100
AcDbLine
10
-87.175
20
-25.6
30
0
11
-90.35
21
-25.6
31
0
39
0
210
0
220
0
230
1
0
LINE
5
1BB
100
AcDbEntity
8
0
62
256
6
ByLayer
370
-2
48
1
60
0
100
AcDbLine
10
-77.825
20
-25.6
30
0
11
-74.65
21
-25.6
31
0
39
0
210
0
220
0
230
1
0
SOLID
5
1BC
100
AcDbEntity
8
0
62
256
6
ByLayer
370
-1
48
1
60
0
100
AcDbTrace
10
-87.175
20
-26.129167
30
0
11
-87.175
21
-25.070833
31
0
12
-84
22
-25.6
32
0
13
-84
23
-25.6
33
0
39
0
210
0
220
0
230
1
0
SOLID
5
1BD
100
AcDbEntity
8
0
62
256
6
ByLayer
370
-1
48
1
60
0
100
AcDbTrace
10
-77.825
20
-25.070833
30
0
11
-77.825
21
-26.129167
31
0
12
-81
22
-25.6
32
0
13
-81
23
-25.6
33
0
39
0
210
0
220
0
230
1
0
MTEXT
5
1BE
100
AcDbEntity
8
0
62
256
6
ByLayer
370
18
48
1
60
0
100
AcDbMText
10
-66.483333
20
-16.85
30
0
210
0
220
0
230
1
1
\A1;3
40
3.5
41
0
44
1
50
0
71
5
72
5
7
iso_b_vert
0
POINT
5
1BF
100
AcDbEntity
8
Defpoints
62
0
6
ByLayer
370
-1
48
1
60
0
100
AcDbPoint
10
-84
20
-12.5
30
0
39
0
210
0
220
0
230
1
50
360
0
POINT
5
1C0
100
AcDbEntity
8
Defpoints
62
0
6
ByLayer
370
-1
48
1
60
0
100
AcDbPoint
10
-81
20
-12.5
30
0
39
0
210
0
220
0
230
1
50
360
0
POINT
5
1C1
100
AcDbEntity
8
Defpoints
62
0
6
ByLayer
370
-1
48
1
60
0
100
AcDbPoint
10
-81
20
-25.6
30
0
39
0
210
0
220
0
230
1
50
360
0
ENDBLK
5
1B6
100
AcDbEntity
8
0
100
AcDbBlockEnd
0
BLOCK
5
1CD
100
AcDbEntity
8
0
100
AcDbBlockBegin
2
_U4
70
0
10
0
20
0
30
0
3
_U4
0
MTEXT
5
1C3
100
AcDbEntity
8
SK2
62
256
6
ByLayer
370
18
48
1
60
0
100
AcDbMText
10
-70.5595
20
-24.567366
30
0
210
0
220
0
230
1
1
\W0.7121;3.0
40
3.5
41
0
44
1.084337
50
0
71
7
72
5
7
iso_b_vert
0
LINE
5
1C4
100
AcDbEntity
8
SK2
62
256
6
ByLayer
370
13
48
1
60
0
100
AcDbLine
10
-84
20
-14.5
30
0
11
-84
21
-27.6
31
0
39
0
210
0
220
0
230
1
0
LINE
5
1C5
100
AcDbEntity
8
SK2
62
256
6
ByLayer
370
13
48
1
60
0
100
AcDbLine
10
-81
20
-14.5
30
0
11
-81
21
-27.6
31
0
39
0
210
0
220
0
230
1
0
LINE
5
1C6
100
AcDbEntity
8
SK2
62
256
6
ByLayer
370
13
48
1
60
0
100
AcDbLine
10
-65.146068
20
-25.6
30
0
11
-92.75
21
-25.6
31
0
39
0
210
0
220
0
230
1
0
LINE
5
1C7
100
AcDbEntity
8
SK2
62
256
6
ByLayer
370
13
48
1
60
0
100
AcDbLine
10
-84
20
-25.6
30
0
11
-87.174998
21
-26.017997
31
0
39
0
210
0
220
0
230
1
0
LINE
5
1C8
100
AcDbEntity
8
SK2
62
256
6
ByLayer
370
13
48
1
60
0
100
AcDbLine
10
-84
20
-25.6
30
0
11
-87.175002
21
-25.182003
31
0
39
0
210
0
220
0
230
1
0
LINE
5
1C9
100
AcDbEntity
8
SK2
62
256
6
ByLayer
370
13
48
1
60
0
100
AcDbLine
10
-87.174998
20
-26.017997
30
0
11
-87.175002
21
-25.182003
31
0
39
0
210
0
220
0
230
1
0
LINE
5
1CA
100
AcDbEntity
8
SK2
62
256
6
ByLayer
370
13
48
1
60
0
100
AcDbLine
10
-81
20
-25.6
30
0
11
-77.825002
21
-25.182003
31
0
39
0
210
0
220
0
230
1
0
LINE
5
1CB
100
AcDbEntity
8
SK2
62
256
6
ByLayer
370
13
48
1
60
0
100
AcDbLine
10
-81
20
-25.6
30
0
11
-77.824998
21
-26.017997
31
0
39
0
210
0
220
0
230
1
0
LINE
5
1CC
100
AcDbEntity
8
SK2
62
256
6
ByLayer
370
13
48
1
60
0
100
AcDbLine
10
-77.825002
20
-25.182003
30
0
11
-77.824998
21
-26.017997
31
0
39
0
210
0
220
0
230
1
0
ENDBLK
5
1CE
100
AcDbEntity
8
0
100
AcDbBlockEnd
0
ENDSEC
0
SECTION
2
ENTITIES
0
ARC
5
D6
100
AcDbEntity
8
1
62
256
6
ByLayer
370
18
48
1
60
0
100
AcDbCircle
39
0
10
1.772277
20
14.025
30
0
40
1.6000000000012
210
0
220
0
230
1
100
AcDbArc
50
312.186144
51
345
0
ARC
5
D7
100
AcDbEntity
8
1
62
256
6
ByLayer
370
18
48
1
60
0
100
AcDbCircle
39
0
10
1.772277
20
14.025
30
0
40
1.59999999998764
210
0
220
0
230
1
100
AcDbArc
50
289.93329
51
312.186144
0
ARC
5
D8
100
AcDbEntity
8
1
62
256
6
ByLayer
370
18
48
1
60
0
100
AcDbCircle
39
0
10
30.142034
20
9.643987
30
0
40
3.1
210
0
220
0
230
1
100
AcDbArc
50
81.696381
51
97.181102
0
ARC
5
D9
100
AcDbEntity
8
1
62
256
6
ByLayer
370
18
48
1
60
0
100
AcDbCircle
39
0
10
30.142034
20
9.643987
30
0
40
3.1
210
0
220
0
230
1
100
AcDbArc
50
352.818008
51
3.925922
0
ARC
5
DA
100
AcDbEntity
8
2
62
256
6
ByLayer
370
13
48
1
60
0
100
AcDbCircle
39
0
10
40
20
11.176042
30
0
40
7.1136912812076
210
0
220
0
230
1
100
AcDbArc
50
180
51
226.514245
0
ARC
5
DB
100
AcDbEntity
8
2
62
256
6
ByLayer
370
13
48
1
60
0
100
AcDbCircle
39
0
10
40
20
11.176042
30
0
40
7.1136912812076
210
0
220
0
230
1
100
AcDbArc
50
96.954027
51
135
0
ELLIPSE
5
DC
100
AcDbEntity
8
1
62
256
6
ByLayer
370
18
48
1
60
0
100
AcDbEllipse
10
31.332798
20
10.83475
30
0
11
-1.30814754519511
21
1.30814754519512
31
0
210
0
220
0
230
1
40
0.990268
41
-2.29808254187559
42
-1.6114549825917
0
ELLIPSE
5
DD
100
AcDbEntity
8
1
62
256
6
ByLayer
370
18
48
1
60
0
100
AcDbEllipse
10
31.283593
20
10.785545
30
0
11
1.66170093578838
21
-1.66170093578839
31
0
210
0
220
0
230
1
40
0.990268
41
0.816730901207763
42
1.55691688150453
0
ELLIPSE
5
DE
100
AcDbEntity
8
1
62
256
6
ByLayer
370
18
48
1
60
0
100
AcDbEllipse
10
31.116478
20
11.33961
30
0
11
-1.48492424049175
21
1.48492424049175
31
0
210
0
220
0
230
1
40
0.990268
41
1.77932982788655
42
-2.54727469876405
0
ELLIPSE
5
DF
100
AcDbEntity
8
1
62
256
6
ByLayer
370
18
48
1
60
0
100
AcDbEllipse
10
31.283593
20
10.785545
30
0
11
1.66170093578838
21
-1.66170093578839
31
0
210
0
220
0
230
1
40
0.990268
41
-2.32486175238203
42
-1.58467577208526
0
ELLIPSE
5
E0
100
AcDbEntity
8
1
62
256
6
ByLayer
370
18
48
1
60
0
100
AcDbEllipse
10
31.499913
20
10.280685
30
0
11
1.83847763108502
21
-1.83847763108503
31
0
210
0
220
0
230
1
40
0.990268
41
1.75543419162033
42
-2.52337906249783
0
ELLIPSE
5
E1
100
AcDbEntity
8
1
62
256
6
ByLayer
370
18
48
1
60
0
100
AcDbEllipse
10
31.549118
20
10.329891
30
0
11
-1.48492424049175
21
1.48492424049175
31
0
210
0
220
0
230
1
40
0.990268
41
-1.36226282570325
42
0.594317954825745
0
ELLIPSE
5
E2
100
AcDbEntity
8
1
62
256
6
ByLayer
370
18
48
1
60
0
100
AcDbEllipse
10
31.067273
20
11.290405
30
0
11
1.83847763108502
21
-1.83847763108503
31
0
210
0
220
0
230
1
40
0.990268
41
-1.38615846196947
42
0.618213591091965
0
ELLIPSE
5
E3
100
AcDbEntity
8
1
62
256
6
ByLayer
370
18
48
1
60
0
100
AcDbEllipse
10
31.332798
20
10.83475
30
0
11
-1.30814754519511
21
1.30814754519512
31
0
210
0
220
0
230
1
40
0.990268
41
0.8435101117142
42
1.53013767099809
0
ELLIPSE
5
E4
100
AcDbEntity
8
1
62
256
6
ByLayer
370
18
48
1
60
0
100
AcDbEllipse
10
30.181398
20
9.683351
30
0
11
2.17370651192841
21
-2.17370651192842
31
0
210
0
220
0
230
1
40
0.990268
41
2.21770460770863
42
2.4939946668504
0
ELLIPSE
5
E5
100
AcDbEntity
8
1
62
256
6
ByLayer
370
18
48
1
60
0
100
AcDbEllipse
10
30.181398
20
9.683351
30
0
11
2.17370651192841
21
-2.17370651192842
31
0
210
0
220
0
230
1
40
0.990268
41
0.64757508279876
42
0.846433966698872
0
ELLIPSE
5
E6
100
AcDbEntity
8
1
62
256
6
ByLayer
370
18
48
1
60
0
100
AcDbEllipse
10
31.066908
20
9.84768
30
0
11
-1.83847763108502
21
1.83847763108503
31
0
210
0
220
0
230
1
40
0.990268
41
-1.70019095900526E-05
42
0.107528658462843
0
ELLIPSE
5
E7
100
AcDbEntity
8
1
62
256
6
ByLayer
370
18
48
1
60
0
100
AcDbEllipse
10
31.185183
20
10.687135
30
0
11
-1.66170093578838
21
1.66170093578839
31
0
210
0
220
0
230
1
40
0.990268
41
0.816730901207759
42
0.85175108798356
0
ELLIPSE
5
E8
100
AcDbEntity
8
1
62
256
6
ByLayer
370
13
48
1
60
0
100
AcDbEllipse
10
30.181398
20
9.683351
30
0
11
2.01525432638165
21
-2.01525432638167
31
0
210
0
220
0
230
1
40
0.990268
41
2.40024534797368
42
2.67150312526278
0
ELLIPSE
5
E9
100
AcDbEntity
8
1
62
256
6
ByLayer
370
13
48
1
60
0
100
AcDbEllipse
10
30.181398
20
9.683351
30
0
11
2.01525432638165
21
-2.01525432638167
31
0
210
0
220
0
230
1
40
0.990268
41
0.470087615027351
42
0.719308393290851
0
ELLIPSE
5
EA
100
AcDbEntity
8
1
62
256
6
ByLayer
370
13
48
1
60
0
100
AcDbEllipse
10
31.107741
20
10.424272
30
0
11
1.66170093578838
21
-1.66170093578839
31
0
210
0
220
0
230
1
40
0.990268
41
-3.14155306000097
42
-2.58090060246249
0
ELLIPSE
5
EB
100
AcDbEntity
8
1
62
256
6
ByLayer
370
13
48
1
60
0
100
AcDbEllipse
10
30.634268
20
10.8574
30
0
11
-1.83847763108502
21
1.83847763108503
31
0
210
0
220
0
230
1
40
0.990268
41
2.58362095731598
42
3.09712276491314
0
ELLIPSE
5
EC
100
AcDbEntity
8
1
62
256
6
ByLayer
370
18
48
1
60
0
100
AcDbEllipse
10
30.634268
20
10.8574
30
0
11
-1.83847763108502
21
1.83847763108503
31
0
210
0
220
0
230
1
40
0.990268
41
3.09712276491313
42
3.14158324156896
0
ELLIPSE
5
ED
100
AcDbEntity
8
1
62
256
6
ByLayer
370
18
48
1
60
0
100
AcDbEllipse
10
19.746793
20
6.029849
30
0
11
-1.09955104474508
21
1.09955104474508
31
0
210
0
220
0
230
1
40
0.990268
41
-0.605501138043865
42
-0.162443732833647
0
ELLIPSE
5
EE
100
AcDbEntity
8
1
62
256
6
ByLayer
370
18
48
1
60
0
100
AcDbEllipse
10
19.374311
20
5.657367
30
0
11
-1.09955104474508
21
1.09955104474508
31
0
210
0
220
0
230
1
40
0.990268
41
-1.20964128403025
42
-0.605501138043869
0
ELLIPSE
5
EF
100
AcDbEntity
8
1
62
256
6
ByLayer
370
18
48
1
60
0
100
AcDbEllipse
10
19.746793
20
6.029849
30
0
11
-1.09955104474508
21
1.09955104474508
31
0
210
0
220
0
230
1
40
0.990268
41
-2.69989624043703
42
-2.25683883522685
0
ELLIPSE
5
F0
100
AcDbEntity
8
1
62
256
6
ByLayer
370
18
48
1
60
0
100
AcDbEllipse
10
19.746793
20
6.029849
30
0
11
-1.09955104474508
21
1.09955104474508
31
0
210
0
220
0
230
1
40
0.990268
41
-1.65269868924044
42
-1.20964128403025
0
ELLIPSE
5
F1
100
AcDbEntity
8
1
62
256
6
ByLayer
370
18
48
1
60
0
100
AcDbEllipse
10
19.746793
20
6.029849
30
0
11
-1.09955104474508
21
1.09955104474508
31
0
210
0
220
0
230
1
40
0.990268
41
1.48889396434935
42
1.93195136955954
0
ELLIPSE
5
F2
100
AcDbEntity
8
1
62
256
6
ByLayer
370
18
48
1
60
0
100
AcDbEllipse
10
19.746793
20
6.029849
30
0
11
-1.09955104474508
21
1.09955104474508
31
0
210
0
220
0
230
1
40
0.990268
41
0.441696413152748
42
0.884753818362944
0
ELLIPSE
5
F3
100
AcDbEntity
8
1
62
256
6
ByLayer
370
18
48
1
60
0
100
AcDbEllipse
10
19.767952
20
6.051007
30
0
11
2.28749043713847
21
-2.28749043713849
31
0
210
0
220
0
230
1
40
0.990268
41
0
42
6.28318530717959
0
ELLIPSE
5
F4
100
AcDbEntity
8
1
62
256
6
ByLayer
370
18
48
1
60
0
100
AcDbEllipse
10
19.374311
20
5.657367
30
0
11
-1.09955104474508
21
1.09955104474508
31
0
210
0
220
0
230
1
40
0.990268
41
-2.25683883522685
42
-1.65269868924045
0
ELLIPSE
5
F5
100
AcDbEntity
8
1
62
256
6
ByLayer
370
18
48
1
60
0
100
AcDbEllipse
10
19.767952
20
6.051007
30
0
11
1.36287119209427
21
-1.36287119209428
31
0
210
0
220
0
230
1
40
0.990268
41
0
42
6.28318530717959
0
ELLIPSE
5
F6
100
AcDbEntity
8
1
62
256
6
ByLayer
370
18
48
1
60
0
100
AcDbEllipse
10
19.746793
20
6.029849
30
0
11
-1.09955104474508
21
1.09955104474508
31
0
210
0
220
0
230
1
40
0.990268
41
2.53609151554595
42
2.97914892075613
0
ELLIPSE
5
F7
100
AcDbEntity
8
1
62
256
6
ByLayer
370
13
48
1
60
0
100
AcDbEllipse
10
31.42885
20
3.073078
30
0
11
-0.561266007566667
21
0.56126600756667
31
0
210
0
220
0
230
1
40
0.990268
41
1.57079632679488
42
3.14159265358978
0
ELLIPSE
5
F8
100
AcDbEntity
8
1
62
256
6
ByLayer
370
13
48
1
60
0
100
AcDbEllipse
10
31.352379
20
18.712055
30
0
11
-0.561266007566667
21
0.56126600756667
31
0
210
0
220
0
230
1
40
0.990268
41
-1.5707963267949
42
-2.71190814172775E-14
0
ELLIPSE
5
F9
100
AcDbEntity
8
1
62
256
6
ByLayer
370
13
48
1
60
0
100
AcDbEllipse
10
23.571126
20
10.930802
30
0
11
-0.561266007566667
21
0.56126600756667
31
0
210
0
220
0
230
1
40
0.990268
41
0
42
1.57079632679487
0
ELLIPSE
5
FA
100
AcDbEntity
8
1
62
256
6
ByLayer
370
13
48
1
60
0
100
AcDbEllipse
10
30.960171
20
2.604399
30
0
11
0.561266007566666
21
-0.561266007566671
31
0
210
0
220
0
230
1
40
0.990268
41
-1.57079632679491
42
0
0
ELLIPSE
5
FB
100
AcDbEntity
8
1
62
256
6
ByLayer
370
13
48
1
60
0
100
AcDbEllipse
10
31.390614
20
10.892566
30
0
11
-1.82292128189381
21
1.82292128189382
31
0
210
0
220
0
230
1
40
0.990268
41
0
42
6.28318530717959
0
ELLIPSE
5
FC
100
AcDbEntity
8
1
62
256
6
ByLayer
370
13
48
1
60
0
100
AcDbEllipse
10
39.210103
20
10.854331
30
0
11
-0.561266007566667
21
0.56126600756667
31
0
210
0
220
0
230
1
40
0.990268
41
3.14159265358978
42
-1.5707963267949
0
ELLIPSE
5
FD
100
AcDbEntity
8
1
62
256
6
ByLayer
370
18
48
1
60
0
100
AcDbEllipse
10
23.633987
20
12.61117
30
0
11
1.48492424049174
21
-1.48492424049176
31
0
210
0
220
0
230
1
40
0.990268
41
-2.93779364442867
42
-1.57079632679488
0
ELLIPSE
5
FE
100
AcDbEntity
8
1
62
256
6
ByLayer
370
18
48
1
60
0
100
AcDbEllipse
10
27.382009
20
9.213261
30
0
11
1.76776695296637
21
-1.76776695296638
31
0
210
0
220
0
230
1
40
0.990268
41
-1.91896234806783
42
-1.5707963267949
0
ELLIPSE
5
FF
100
AcDbEntity
8
1
62
256
6
ByLayer
370
18
48
1
60
0
100
AcDbEllipse
10
29.357755
20
7.237514
30
0
11
1.76776695296636
21
-1.76776695296637
31
0
210
0
220
0
230
1
40
0.990268
41
-1.5707963267949
42
-1.22263030552196
0
ELLIPSE
5
100
100
AcDbEntity
8
1
62
256
6
ByLayer
370
18
48
1
60
0
100
AcDbEllipse
10
23.84199
20
13.243437
30
0
11
1.43807192974168
21
-1.43807192974169
31
0
210
0
220
0
230
1
40
0.990268
41
1.5707963267949
42
-2.61335972978324
0
ELLIPSE
5
101
100
AcDbEntity
8
1
62
256
6
ByLayer
370
13
48
1
60
0
100
AcDbEllipse
10
30.921935
20
10.423888
30
0
11
-1.82292128189379
21
1.8229212818938
31
0
210
0
220
0
230
1
40
0.990268
41
-3.01133392758768
42
-2.37987362218993
0
ELLIPSE
5
102
100
AcDbEntity
8
1
62
256
6
ByLayer
370
13
48
1
60
0
100
AcDbEllipse
10
30.921935
20
10.423888
30
0
11
-1.82292128189379
21
1.8229212818938
31
0
210
0
220
0
230
1
40
0.990268
41
-1.10281607877946
42
-0.130198626054332
0
ELLIPSE
5
103
100
AcDbEntity
8
1
62
256
6
ByLayer
370
13
48
1
60
0
100
AcDbEllipse
10
23.102447
20
10.462123
30
0
11
0.561266007566666
21
-0.561266007566671
31
0
210
0
220
0
230
1
40
0.990268
41
3.14159265358978
42
-2.90516363118415
0
ELLIPSE
5
104
100
AcDbEntity
8
1
62
256
6
ByLayer
370
13
48
1
60
0
100
AcDbEllipse
10
23.646094
20
-7.141983
30
0
11
1.20070664822882
21
-1.05749872099171
31
0
210
0
220
0
230
1
40
0.138899
41
-3.06313450925509
42
-2.0871675947824
0
ELLIPSE
5
105
100
AcDbEntity
8
1
62
256
6
ByLayer
370
13
48
1
60
0
100
AcDbEllipse
10
16.892007
20
-13.264733
30
0
11
-0.935001458188097
21
1.29837293301506
31
0
210
0
220
0
230
1
40
0.137401
41
0.109617995719769
42
0.845895172724685
0
ELLIPSE
5
106
100
AcDbEntity
8
1
62
256
6
ByLayer
370
18
48
1
60
0
100
AcDbEllipse
10
19.374311
20
5.657367
30
0
11
-1.09955104474508
21
1.09955104474508
31
0
210
0
220
0
230
1
40
0.990268
41
-2.96971094742662
42
-2.69989624043703
0
ELLIPSE
5
107
100
AcDbEntity
8
1
62
256
6
ByLayer
370
18
48
1
60
0
100
AcDbEllipse
10
19.374311
20
5.657367
30
0
11
-1.09955104474508
21
1.09955104474508
31
0
210
0
220
0
230
1
40
0.990268
41
-0.162443732833651
42
3.68089343177332E-06
0
ELLIPSE
5
108
100
AcDbEntity
8
1
62
256
6
ByLayer
370
18
48
1
60
0
100
AcDbEllipse
10
19.2759
20
5.558956
30
0
11
-1.09955104474508
21
1.09955104474508
31
0
210
0
220
0
230
1
40
0.990268
41
-2.92356568479705
42
-0.101335863064341
0
ELLIPSE
5
109
100
AcDbEntity
8
1
62
256
6
ByLayer
370
18
48
1
60
0
100
AcDbEllipse
10
19.692668
20
5.975724
30
0
11
2.82842712474618
21
-2.8284271247462
31
0
210
0
220
0
230
1
40
0.990268
41
-1.08396666053526
42
-2.2422677994748E-16
0
ELLIPSE
5
10A
100
AcDbEntity
8
1
62
256
6
ByLayer
370
18
48
1
60
0
100
AcDbEllipse
10
19.692668
20
5.975724
30
0
11
2.82842712474618
21
-2.8284271247462
31
0
210
0
220
0
230
1
40
0.990268
41
0
42
0.790287890492018
0
ELLIPSE
5
10B
100
AcDbEntity
8
1
62
256
6
ByLayer
370
18
48
1
60
0
100
AcDbEllipse
10
19.692668
20
5.975724
30
0
11
2.82842712474618
21
-2.8284271247462
31
0
210
0
220
0
230
1
40
0.990268
41
0.790287808169383
42
-1.53517795143783
0
ELLIPSE
5
10C
100
AcDbEntity
8
1
62
256
6
ByLayer
370
18
48
1
60
0
100
AcDbEllipse
10
23.103913
20
12.50536
30
0
11
-1.37452921192208
21
1.37452921192209
31
0
210
0
220
0
230
1
40
0.990268
41
-1.57079632679489
42
-0.184912216153528
0
ELLIPSE
5
10D
100
AcDbEntity
8
1
62
256
6
ByLayer
370
13
48
1
60
0
100
AcDbEllipse
10
20.284542
20
-4.199891
30
0
11
-2.03096508045178
21
2.03096508045179
31
0
210
0
220
0
230
1
40
0.990268
41
-3.0788754839016
42
-2.46962651849191
0
ELLIPSE
5
10E
100
AcDbEntity
8
1
62
256
6
ByLayer
370
18
48
1
60
0
100
AcDbEllipse
10
23.121335
20
12.522782
30
0
11
1.49826453891689
21
-1.4982645389169
31
0
210
0
220
0
230
1
40
0.990268
41
1.5707963267949
42
2.81177472481907
0
ELLIPSE
5
10F
100
AcDbEntity
8
1
62
256
6
ByLayer
370
13
48
1
60
0
100
AcDbEllipse
10
-7.450803
20
20.287789
30
0
11
-28.193915984354
21
28.1939159843542
31
0
210
0
220
0
230
1
40
0.990268
41
2.9818482069201
42
-3.0788754839016
0
ELLIPSE
5
110
100
AcDbEntity
8
1
62
256
6
ByLayer
370
13
48
1
60
0
100
AcDbEllipse
10
12.610426
20
-7.390197
30
0
11
-4.01648062113683
21
4.01648062113686
31
0
210
0
220
0
230
1
40
0.990268
41
2.80290264499476
42
2.9818482069201
0
POINT
5
70
100
AcDbEntity
8
2
62
256
6
ByLayer
370
18
48
1
60
0
100
AcDbPoint
10
17.793694
20
1.502099
30
0
39
0
210
0
220
0
230
1
50
360
0
POINT
5
72
100
AcDbEntity
8
2
62
256
6
ByLayer
370
18
48
1
60
0
100
AcDbPoint
10
21.824704
20
-2.370815
30
0
39
0
210
0
220
0
230
1
50
360
0
POINT
5
73
100
AcDbEntity
8
SK2
62
256
6
ByLayer
370
18
48
1
60
0
100
AcDbPoint
10
18.581748
20
4.864803
30
0
39
0
210
0
220
0
230
1
50
360
0
POINT
5
75
100
AcDbEntity
8
SK2
62
256
6
ByLayer
370
18
48
1
60
0
100
AcDbPoint
10
29.994851
20
9.527707
30
0
39
0
210
0
220
0
230
1
50
360
0
POINT
5
76
100
AcDbEntity
8
2
62
256
6
ByLayer
370
18
48
1
60
0
100
AcDbPoint
10
31.390614
20
10.892566
30
0
39
0
210
0
220
0
230
1
50
360
0
POINT
5
77
100
AcDbEntity
8
2
62
256
6
ByLayer
370
18
48
1
60
0
100
AcDbPoint
10
31.390614
20
10.892566
30
0
39
0
210
0
220
0
230
1
50
360
0
POINT
5
78
100
AcDbEntity
8
2
62
256
6
ByLayer
370
18
48
1
60
0
100
AcDbPoint
10
0
20
-12.5
30
0
39
0
210
0
220
0
230
1
50
360
0
POINT
5
79
100
AcDbEntity
8
2
62
256
6
ByLayer
370
18
48
1
60
0
100
AcDbPoint
10
19.646767
20
5.929823
30
0
39
0
210
0
220
0
230
1
50
360
0
POINT
5
7A
100
AcDbEntity
8
2
62
256
6
ByLayer
370
18
48
1
60
0
100
AcDbPoint
10
30.609483
20
10.111435
30
0
39
0
210
0
220
0
230
1
50
360
0
POINT
5
7B
100
AcDbEntity
8
81
62
256
6
ByLayer
370
18
48
1
60
0
100
AcDbPoint
10
40
20
11.176042
30
0
39
0
210
0
220
0
230
1
50
360
0
POINT
5
7D
100
AcDbEntity
8
80
62
256
6
ByLayer
370
18
48
1
60
0
100
AcDbPoint
10
0
20
0
30
0
39
0
210
0
220
0
230
1
50
360
0
POINT
5
7F
100
AcDbEntity
8
1
62
256
6
ByLayer
370
18
48
1
60
1
100
AcDbPoint
10
33
20
-12.5
30
0
39
0
210
0
220
0
230
1
50
360
0
POINT
5
81
100
AcDbEntity
8
1
62
256
6
ByLayer
370
18
48
1
60
1
100
AcDbPoint
10
40
20
11.176042
30
0
39
0
210
0
220
0
230
1
50
360
0
POINT
5
82
100
AcDbEntity
8
1
62
256
6
ByLayer
370
18
48
1
60
1
100
AcDbPoint
10
0
20
12.5
30
0
39
0
210
0
220
0
230
1
50
360
0
POINT
5
83
100
AcDbEntity
8
1
62
256
6
ByLayer
370
18
48
1
60
1
100
AcDbPoint
10
-84
20
-12.5
30
0
39
0
210
0
220
0
230
1
50
360
0
POINT
5
84
100
AcDbEntity
8
1
62
256
6
ByLayer
370
18
48
1
60
1
100
AcDbPoint
10
-84
20
-12.5
30
0
39
0
210
0
220
0
230
1
50
360
0
POINT
5
85
100
AcDbEntity
8
1
62
256
6
ByLayer
370
18
48
1
60
1
100
AcDbPoint
10
40
20
11.176042
30
0
39
0
210
0
220
0
230
1
50
360
0
POINT
5
86
100
AcDbEntity
8
1
62
256
6
ByLayer
370
18
48
1
60
1
100
AcDbPoint
10
0
20
12.5
30
0
39
0
210
0
220
0
230
1
50
360
0
POINT
5
87
100
AcDbEntity
8
1
62
256
6
ByLayer
370
18
48
1
60
1
100
AcDbPoint
10
40
20
11.176042
30
0
39
0
210
0
220
0
230
1
50
360
0
POINT
5
88
100
AcDbEntity
8
1
62
256
6
ByLayer
370
18
48
1
60
1
100
AcDbPoint
10
-84
20
-12.5
30
0
39
0
210
0
220
0
230
1
50
360
0
POINT
5
89
100
AcDbEntity
8
1
62
256
6
ByLayer
370
18
48
1
60
1
100
AcDbPoint
10
-81
20
-12.5
30
0
39
0
210
0
220
0
230
1
50
360
0
SPLINE
5
111
100
AcDbEntity
8
1
62
256
6
ByLayer
370
18
48
1
60
0
100
AcDbSpline
70
4
71
3
72
8
73
4
40
0
40
0
40
0
40
0
40
1
40
1
40
1
40
1
41
1
10
28.9465341760913
20
10.7237130885552
30
0
41
1
10
29.1293989153419
20
10.7279914631468
30
0
41
1
10
29.3123388040078
20
10.7323356517171
30
0
41
1
10
29.4954307256612
20
10.7368135246066
30
0
0
SPLINE
5
112
100
AcDbEntity
8
1
62
256
6
ByLayer
370
18
48
1
60
0
100
AcDbSpline
70
4
71
3
72
8
73
4
40
0
40
0
40
0
40
0
40
1
40
1
40
1
40
1
41
1
10
32.9520267162399
20
12.4078534724169
30
0
41
1
10
32.8616163181392
20
12.2972311974365
30
0
41
1
10
32.7710872014405
20
12.1865932231261
30
0
41
1
10
32.6803172234023
20
12.0759237376698
30
0
0
SPLINE
5
113
100
AcDbEntity
8
1
62
256
6
ByLayer
370
18
48
1
60
0
100
AcDbSpline
70
4
71
3
72
8
73
4
40
0
40
0
40
0
40
0
40
1
40
1
40
1
40
1
41
1
10
29.9852791940611
20
9.5935771791336
30
0
41
1
10
29.8617319822882
20
9.45013045994267
30
0
41
1
10
29.7383940949576
20
9.30668371500028
30
0
41
1
10
29.6151594577759
20
9.16323720093888
30
0
0
SPLINE
5
114
100
AcDbEntity
8
1
62
256
6
ByLayer
370
18
48
1
60
0
100
AcDbSpline
70
4
71
3
72
8
73
4
40
0
40
0
40
0
40
0
40
1
40
1
40
1
40
1
41
1
10
33.1701656918022
20
10.9326873921968
30
0
41
1
10
33.320480379721
20
10.9043880313517
30
0
41
1
10
33.4706114977549
20
10.87592344929
30
0
41
1
10
33.6206519979244
20
10.8473775848005
30
0
0
SPLINE
5
115
100
AcDbEntity
8
1
62
256
6
ByLayer
370
18
48
1
60
0
100
AcDbSpline
70
4
71
3
72
8
73
4
40
0
40
0
40
0
40
0
40
1
40
1
40
1
40
1
41
1
10
29.6510842153206
20
12.2679566890994
30
0
41
1
10
29.7624099149649
20
12.3548657270759
30
0
41
1
10
29.8841189577146
20
12.4328945907091
30
0
41
1
10
30.0127502992595
20
12.4987783337826
30
0
0
SPLINE
5
116
100
AcDbEntity
8
1
62
256
6
ByLayer
370
18
48
1
60
0
100
AcDbSpline
70
4
71
3
72
16
73
12
40
0
40
0
40
0
40
0
40
0.073155470232494
40
0.073155470232494
40
0.161953709833042
40
0.161953709833042
40
0.316184758991153
40
0.316184758991153
40
0.642620269060021
40
0.642620269060021
40
1
40
1
40
1
40
1
41
1
10
29.0436606076409
20
11.4801515670566
30
0
41
1
10
29.0404276192438
20
11.4769185786595
30
0
41
1
10
29.0400723874576
20
11.4800558889442
30
0
41
1
10
29.0448957022023
20
11.4978453762189
30
0
41
1
10
29.0512029729822
20
11.5147193757786
30
0
41
1
10
29.0745594299527
20
11.5692320024308
30
0
41
1
10
29.0963395478929
20
11.6135866629387
30
0
41
1
10
29.1757803268025
20
11.7558610373574
30
0
41
1
10
29.2483683296499
20
11.8621949118275
30
0
41
1
10
29.4244479710498
20
12.0708771084855
30
0
41
1
10
29.5323452152426
20
12.1752602829683
30
0
41
1
10
29.6510842153206
20
12.2679566890994
30
0
0
SPLINE
5
117
100
AcDbEntity
8
1
62
256
6
ByLayer
370
18
48
1
60
0
100
AcDbSpline
70
4
71
3
72
14
73
10
40
0
40
0
40
0
40
0
40
0.108914751693231
40
0.108914751693231
40
0.371950816654677
40
0.371950816654677
40
0.829288679141415
40
0.829288679141415
40
1
40
1
40
1
40
1
41
1
10
30.0127502992595
20
12.4987783337827
30
0
41
1
10
30.0053168278887
20
12.4943801105558
30
0
41
1
10
29.9952893368609
20
12.4891168211462
30
0
41
1
10
29.9542653514141
20
12.4687869458388
30
0
41
1
10
29.9131538475339
20
12.4500603223929
30
0
41
1
10
29.7886049737816
20
12.391286590074
30
0
41
1
10
29.694595460537
20
12.3445013935313
30
0
41
1
10
29.5656821685933
20
12.2703092395846
30
0
41
1
10
29.5302693967481
20
12.2489847816591
30
0
41
1
10
29.4949135367503
20
12.2266031127082
30
0
0
SPLINE
5
118
100
AcDbEntity
8
1
62
256
6
ByLayer
370
18
48
1
60
0
100
AcDbSpline
70
4
71
3
72
8
73
4
40
0
40
0
40
0
40
0
40
1
40
1
40
1
40
1
41
1
10
29.4949135367503
20
12.2266031127082
30
0
41
1
10
29.3808784278241
20
12.1708454560839
30
0
41
1
10
29.2630326439174
20
12.113683068687
30
0
41
1
10
29.14161550551
20
12.0552523280672
30
0
0
SPLINE
5
119
100
AcDbEntity
8
1
62
256
6
ByLayer
370
18
48
1
60
0
100
AcDbSpline
70
4
71
3
72
12
73
8
40
0
40
0
40
0
40
0
40
0.424628147669087
40
0.424628147669087
40
0.978787432871914
40
0.978787432871914
40
1
40
1
40
1
40
1
41
1
10
32.3238439283191
20
8.51085982360175
30
0
41
1
10
32.473195336865
20
8.64071277074461
30
0
41
1
10
32.6072841647732
20
8.79049041650259
30
0
41
1
10
32.8661411759448
20
9.16478363027099
30
0
41
1
10
32.9795931594808
20
9.40469259019363
30
0
41
1
10
33.0561316939994
20
9.6580833978301
30
0
41
1
10
33.0589279332038
20
9.66754060391483
30
0
41
1
10
33.0616689826323
20
9.67701079986091
30
0
0
SPLINE
5
11A
100
AcDbEntity
8
1
62
256
6
ByLayer
370
18
48
1
60
0
100
AcDbSpline
70
4
71
3
72
10
73
6
40
0
40
0
40
0
40
0
40
0.816638557951813
40
0.816638557951813
40
1
40
1
40
1
40
1
41
1
10
30.3048404608416
20
12.5770765027409
30
0
41
1
10
30.2238700749162
20
12.560834781565
30
0
41
1
10
30.143958312682
20
12.5404663273922
30
0
41
1
10
30.048048898044
20
12.5104994786554
30
0
41
1
10
30.0303606578941
20
12.5047420818175
30
0
41
1
10
30.0127502992595
20
12.4987783337827
30
0
0
SPLINE
5
11B
100
AcDbEntity
8
1
62
256
6
ByLayer
370
18
48
1
60
0
100
AcDbSpline
70
4
71
3
72
14
73
10
40
0
40
0
40
0
40
0
40
0.162091642687922
40
0.162091642687922
40
0.363951991706635
40
0.363951991706635
40
0.727548767807578
40
0.727548767807578
40
1
40
1
40
1
40
1
41
1
10
29.125275054949
20
11.5617660143647
30
0
41
1
10
29.1318964071931
20
11.5683873666088
30
0
41
1
10
29.1292591803746
20
11.5635931611376
30
0
41
1
10
29.1082013079917
20
11.5325891540284
30
0
41
1
10
29.0865069531252
20
11.501623197191
30
0
41
1
10
29.0177136116637
20
11.3953441237399
30
0
41
1
10
28.9636496401511
20
11.3029231804263
30
0
41
1
10
28.8785944398975
20
11.1241583503272
30
0
41
1
10
28.8444549955241
20
11.0409674207166
30
0
41
1
10
28.8142568876452
20
10.9529647767571
30
0
0
SPLINE
5
11C
100
AcDbEntity
8
1
62
256
6
ByLayer
370
18
48
1
60
0
100
AcDbSpline
70
4
71
3
72
8
73
4
40
0
40
0
40
0
40
0
40
1
40
1
40
1
40
1
41
1
10
18.8378179255603
20
7.29102477591809
30
0
41
1
10
18.6747262968751
20
7.22376032136262
30
0
41
1
10
18.5148789430605
20
7.15885278292512
30
0
41
1
10
18.360691402354
20
7.09688952527992
30
0
0
SPLINE
5
11D
100
AcDbEntity
8
1
62
256
6
ByLayer
370
18
48
1
60
0
100
AcDbSpline
70
4
71
3
72
8
73
4
40
0
40
0
40
0
40
0
40
1
40
1
40
1
40
1
41
1
10
21.2858447368129
20
6.17581346126647
30
0
41
1
10
21.3091282327358
20
6.35633196289794
30
0
41
1
10
21.3338878488138
20
6.53667218713457
30
0
41
1
10
21.3592223289283
20
6.71428383988322
30
0
0
SPLINE
5
11E
100
AcDbEntity
8
1
62
256
6
ByLayer
370
18
48
1
60
0
100
AcDbSpline
70
4
71
3
72
10
73
6
40
0
40
0
40
0
40
0
40
0.30094087861292
40
0.30094087861292
40
1
40
1
40
1
40
1
41
1
10
21.3592223289283
20
6.71428383988322
30
0
41
1
10
21.3155503683704
20
6.74464822955923
30
0
41
1
10
21.2717425976406
20
6.77527979939003
30
0
41
1
10
21.1263828130956
20
6.87758916361409
30
0
41
1
10
21.0241180565257
20
6.95065333799394
30
0
41
1
10
20.921948866462
20
7.02509443648646
30
0
0
SPLINE
5
11F
100
AcDbEntity
8
1
62
256
6
ByLayer
370
18
48
1
60
0
100
AcDbSpline
70
4
71
3
72
8
73
4
40
0
40
0
40
0
40
0
40
1
40
1
40
1
40
1
41
1
10
21.1552450022784
20
4.98515873774954
30
0
41
1
10
20.9906965749058
20
4.91309877705604
30
0
41
1
10
20.8223291915716
20
4.84000591661277
30
0
41
1
10
20.6557687914885
20
4.76867379952782
30
0
0
SPLINE
5
120
100
AcDbEntity
8
1
62
256
6
ByLayer
370
18
48
1
60
0
100
AcDbSpline
70
4
71
3
72
10
73
6
40
0
40
0
40
0
40
0
40
0.300940878612907
40
0.300940878612907
40
1
40
1
40
1
40
1
41
1
10
18.1567140757041
20
5.36776442314627
30
0
41
1
10
18.1973823338259
20
5.33439633103418
30
0
41
1
10
18.2383738575159
20
5.30094851416365
30
0
41
1
10
18.3751521051863
20
5.19005761306499
30
0
41
1
10
18.4726173505745
20
5.11219392750337
30
0
41
1
10
18.5716378505868
20
5.03460413895948
30
0
0
SPLINE
5
121
100
AcDbEntity
8
1
62
256
6
ByLayer
370
18
48
1
60
0
100
AcDbSpline
70
4
71
3
72
8
73
4
40
0
40
0
40
0
40
0
40
1
40
1
40
1
40
1
41
1
10
20.0311173988726
20
4.50603428001924
30
0
41
1
10
19.8680257701874
20
4.43876982546377
30
0
41
1
10
19.7081784163728
20
4.37386228702627
30
0
41
1
10
19.5539908756663
20
4.31189902938107
30
0
0
SPLINE
5
122
100
AcDbEntity
8
1
62
256
6
ByLayer
370
18
48
1
60
0
100
AcDbSpline
70
4
71
3
72
8
73
4
40
0
40
0
40
0
40
0
40
1
40
1
40
1
40
1
41
1
10
18.2077419802359
20
5.88388511417944
30
0
41
1
10
18.1889674190502
20
5.7078755472852
30
0
41
1
10
18.1721115050912
20
5.53543902516762
30
0
41
1
10
18.1567140757041
20
5.36776442314624
30
0
0
SPLINE
5
123
100
AcDbEntity
8
1
62
256
6
ByLayer
370
18
48
1
60
0
100
AcDbSpline
70
4
71
3
72
10
73
6
40
0
40
0
40
0
40
0
40
0.300940878612905
40
0.300940878612905
40
1
40
1
40
1
40
1
41
1
10
21.1552450022784
20
4.98515873774954
30
0
41
1
10
21.1598992299188
20
5.03584224781517
30
0
41
1
10
21.1646806936654
20
5.08690353788197
30
0
41
1
10
21.1809834688836
20
5.25718517835583
30
0
41
1
10
21.1931622104996
20
5.37836800856476
30
0
41
1
10
21.2062729068102
20
5.50127942878274
30
0
0
SPLINE
5
124
100
AcDbEntity
8
1
62
256
6
ByLayer
370
18
48
1
60
0
100
AcDbSpline
70
4
71
3
72
8
73
4
40
0
40
0
40
0
40
0
40
1
40
1
40
1
40
1
41
1
10
19.1167174132
20
4.6227096259843
30
0
41
1
10
19.2630240367925
20
4.5161097227242
30
0
41
1
10
19.4095123540217
20
4.4123525486412
30
0
41
1
10
19.5539908756663
20
4.31189902938107
30
0
0
SPLINE
5
125
100
AcDbEntity
8
1
62
256
6
ByLayer
370
18
48
1
60
0
100
AcDbSpline
70
4
71
3
72
8
73
4
40
0
40
0
40
0
40
0
40
1
40
1
40
1
40
1
41
1
10
20.3768693038488
20
7.43698894946164
30
0
41
1
10
20.2350716149936
20
7.54809778745897
30
0
41
1
10
20.0964869998834
20
7.65975866366099
30
0
41
1
10
19.9619455289661
20
7.7701492336484
30
0
0
SPLINE
5
126
100
AcDbEntity
8
1
62
256
6
ByLayer
370
18
48
1
60
0
100
AcDbSpline
70
4
71
3
72
10
73
6
40
0
40
0
40
0
40
0
40
0.300940878612912
40
0.300940878612912
40
1
40
1
40
1
40
1
41
1
10
18.360691402354
20
7.09688952527992
30
0
41
1
10
18.3530334722775
20
7.04320231277825
30
0
41
1
10
18.3454357614912
20
6.98932477567175
30
0
41
1
10
18.3205514493984
20
6.81046159832326
30
0
41
1
10
18.3035731966005
20
6.68447925693255
30
0
41
1
10
18.2873138102386
20
6.5584191466632
30
0
0
SPLINE
5
127
100
AcDbEntity
8
1
62
256
6
ByLayer
370
18
48
1
60
0
100
AcDbSpline
70
4
71
3
72
8
73
4
40
0
40
0
40
0
40
0
40
1
40
1
40
1
40
1
41
1
10
19.9619455289661
20
7.7701492336484
30
0
41
1
10
19.7973971015935
20
7.69808927295489
30
0
41
1
10
19.6290297182593
20
7.62499641251162
30
0
41
1
10
19.4624693181762
20
7.5536642954267
30
0
0
SPLINE
5
128
100
AcDbEntity
8
1
62
256
6
ByLayer
370
18
48
1
60
0
100
AcDbSpline
70
4
71
3
72
8
73
4
40
0
40
0
40
0
40
0
40
1
40
1
40
1
40
1
41
1
10
17.1904359057638
20
-12.5
30
0
41
1
10
16.8200046523574
20
-12.5
30
0
41
1
10
16.461880336438
20
-12.5
30
0
41
1
10
16.138501224704
20
-12.5
30
0
0
SPLINE
5
129
100
AcDbEntity
8
1
62
256
6
ByLayer
370
18
48
1
60
0
100
AcDbSpline
70
4
71
3
72
8
73
4
40
0
40
0
40
0
40
0
40
1
40
1
40
1
40
1
41
1
10
18.2210731810682
20
2.52732250315825
30
0
41
1
10
19.8427641228294
20
1.10810541741986
30
0
41
1
10
21.3354025466476
20
-0.436407802583318
30
0
41
1
10
22.6988721742906
20
-2.10632888955914
30
0
0
SPLINE
5
12A
100
AcDbEntity
8
1
62
256
6
ByLayer
370
18
48
1
60
0
100
AcDbSpline
70
4
71
3
72
8
73
4
40
0
40
0
40
0
40
0
40
1
40
1
40
1
40
1
41
1
10
22.6636153198257
20
-5.02448346400598
30
0
41
1
10
20.7622733113847
20
-7.13886986852933
30
0
41
1
10
18.6487748406185
20
-9.00317483425394
30
0
41
1
10
16.3235800929737
20
-10.6205219924162
30
0
0
SPLINE
5
12B
100
AcDbEntity
8
1
62
256
6
ByLayer
370
18
48
1
60
0
100
AcDbSpline
70
4
71
3
72
14
73
10
40
0
40
0
40
0
40
0
40
0.542295966060358
40
0.542295966060358
40
0.891919010250227
40
0.891919010250227
40
0.959254226889649
40
0.959254226889649
40
1
40
1
40
1
40
1
41
1
10
16.1385012247046
20
-12.5
30
0
41
1
10
15.8969855547852
20
-12.5
30
0
41
1
10
15.6676836280978
20
-12.5
30
0
41
1
10
15.3417042460103
20
-12.5
30
0
41
1
10
15.2236506754176
20
-12.5
30
0
41
1
10
15.1255959156511
20
-12.5
30
0
41
1
10
15.1109974497261
20
-12.5
30
0
41
1
10
15.0905435642897
20
-12.5
30
0
41
1
10
15.0835113076763
20
-12.5
30
0
41
1
10
15.0772373911585
20
-12.5
30
0
0
SPLINE
5
12C
100
AcDbEntity
8
1
62
256
6
ByLayer
370
18
48
1
60
0
100
AcDbSpline
70
4
71
3
72
10
73
6
40
0
40
0
40
0
40
0
40
0.292421320272234
40
0.292421320272234
40
1
40
1
40
1
40
1
41
1
10
22.9255371123394
20
-6.76489879341588
30
0
41
1
10
22.3704951290162
20
-7.31994077673906
30
0
41
1
10
21.814105836366
20
-7.87633006938924
30
0
41
1
10
19.9066253472717
20
-9.78381055848351
30
0
41
1
10
18.5472741020487
20
-11.1431618037066
30
0
41
1
10
17.190435905764
20
-12.4999999999912
30
0
0
SPLINE
5
12D
100
AcDbEntity
8
1
62
256
6
ByLayer
370
18
48
1
60
0
100
AcDbSpline
70
4
71
3
72
8
73
4
40
0
40
0
40
0
40
0
40
1
40
1
40
1
40
1
41
1
10
30.6518316817483
20
2.6523791726035
30
0
41
1
10
29.5838792489443
20
1.51992949871766
30
0
41
1
10
28.7936194690636
20
0.154012167637632
30
0
41
1
10
28.3434693844274
20
-1.34696652132786
30
0
0
SPLINE
5
12E
100
AcDbEntity
8
1
62
256
6
ByLayer
370
18
48
1
60
0
100
AcDbSpline
70
4
71
3
72
16
73
12
40
0
40
0
40
0
40
0
40
0.184887931989712
40
0.184887931989712
40
0.420769343103925
40
0.420769343103925
40
0.655969353958455
40
0.655969353958455
40
0.891057737079279
40
0.891057737079279
40
1
40
1
40
1
40
1
41
1
10
22.6988721742906
20
-2.10632888955911
30
0
41
1
10
22.8237615859787
20
-2.25928826459011
30
0
41
1
10
22.9299401091786
20
-2.42992503793698
30
0
41
1
10
23.1164256730759
20
-2.83844232033533
30
0
41
1
10
23.1837597984883
20
-3.08777528177291
30
0
41
1
10
23.2328873039164
20
-3.58487336746029
30
0
41
1
10
23.2156031355873
20
-3.83947540406572
30
0
41
1
10
23.1008298405974
20
-4.319024445895
30
0
41
1
10
23.0018315476097
20
-4.55054034775438
30
0
41
1
10
22.8082100918207
20
-4.85019875894068
30
0
41
1
10
22.7390723542996
20
-4.94057150755157
30
0
41
1
10
22.6636153198257
20
-5.02448346400598
30
0
0
SPLINE
5
12F
100
AcDbEntity
8
1
62
256
6
ByLayer
370
18
48
1
60
0
100
AcDbSpline
70
4
71
3
72
10
73
6
40
0
40
0
40
0
40
0
40
0.629722574392004
40
0.629722574392004
40
1
40
1
40
1
40
1
41
1
10
24.5145752449314
20
-5.17586066082387
30
0
41
1
10
24.1753673152398
20
-5.51506859051548
30
0
41
1
10
23.844723688895
20
-5.84571221686025
30
0
41
1
10
23.3192945230232
20
-6.37114138273202
30
0
41
1
10
23.1235927836007
20
-6.56684312215449
30
0
41
1
10
22.9255371123394
20
-6.76489879341588
30
0
0
SPLINE
5
130
100
AcDbEntity
8
1
62
256
6
ByLayer
370
18
48
1
60
0
100
AcDbSpline
70
4
71
3
72
10
73
6
40
0
40
0
40
0
40
0
40
0.530543621234402
40
0.530543621234402
40
1
40
1
40
1
40
1
41
1
10
2.31775814129617
20
12.520855682695
30
0
41
1
10
2.27155428571518
20
12.5040997504771
30
0
41
1
10
2.1954530928829
20
12.4785909124673
30
0
41
1
10
2.00649823004926
20
12.4396423088448
30
0
41
1
10
1.8963506595853
20
12.425
30
0
41
1
10
1.77227681923367
20
12.425
30
0
0
SPLINE
5
131
100
AcDbEntity
8
1
62
256
6
ByLayer
370
18
48
1
60
0
100
AcDbSpline
70
4
71
3
72
12
73
8
40
0
40
0
40
0
40
0
40
0.291073314290683
40
0.291073314290683
40
0.687777931410143
40
0.687777931410143
40
1
40
1
40
1
40
1
41
1
10
16.4619064765286
20
3.08641462632698
30
0
41
1
10
16.6435269894247
20
3.10603962796697
30
0
41
1
10
16.829232952032
20
3.10372756689631
30
0
41
1
10
17.2579249148573
20
3.0455612864429
30
0
41
1
10
17.5040341568422
20
2.96966036639679
30
0
41
1
10
17.9054091955995
20
2.7694621930259
30
0
41
1
10
18.072421348717
20
2.65741462790686
30
0
41
1
10
18.2210731810683
20
2.52732250315822
30
0
0
SPLINE
5
132
100
AcDbEntity
8
1
62
256
6
ByLayer
370
18
48
1
60
0
100
AcDbSpline
70
4
71
1
72
4
73
2
40
0
40
0
40
1
40
1
41
1
10
29.4739946981047
20
12.1012741130509
30
0
41
1
10
29.5841120946613
20
12.2088963605662
30
0
0
LINE
5
8A
100
AcDbEntity
8
1
62
256
6
ByLayer
370
18
48
1
60
0
100
AcDbLine
10
28.946534
20
10.723713
30
0
11
28.848124
21
10.625303
31
0
39
0
210
0
220
0
230
1
0
LINE
5
8B
100
AcDbEntity
8
1
62
256
6
ByLayer
370
18
48
1
60
0
100
AcDbLine
10
29.043661
20
11.480152
30
0
11
29.125275
21
11.561766
31
0
39
0
210
0
220
0
230
1
0
LINE
5
8C
100
AcDbEntity
8
1
62
256
6
ByLayer
370
18
48
1
60
0
100
AcDbLine
10
29.562516
20
9.110594
30
0
11
29.615159
21
9.163237
31
0
39
0
210
0
220
0
230
1
0
LINE
5
8D
100
AcDbEntity
8
1
62
256
6
ByLayer
370
18
48
1
60
0
100
AcDbLine
10
20.975565
20
6.330626
30
0
11
20.549466
21
6.652612
31
0
39
0
210
0
220
0
230
1
0
LINE
5
8E
100
AcDbEntity
8
1
62
256
6
ByLayer
370
18
48
1
60
0
100
AcDbLine
10
20.913362
20
5.803331
30
0
11
20.975565
21
6.330626
31
0
39
0
210
0
220
0
230
1
0
LINE
5
8F
100
AcDbEntity
8
1
62
256
6
ByLayer
370
18
48
1
60
0
100
AcDbLine
10
19.089987
20
7.181182
30
0
11
19.462469
21
7.553664
31
0
39
0
210
0
220
0
230
1
0
LINE
5
90
100
AcDbEntity
8
1
62
256
6
ByLayer
370
18
48
1
60
0
100
AcDbLine
10
20.376869
20
7.436989
30
0
11
20.004387
21
7.064506
31
0
39
0
210
0
220
0
230
1
0
LINE
5
91
100
AcDbEntity
8
1
62
256
6
ByLayer
370
18
48
1
60
0
100
AcDbLine
10
21.285845
20
6.175813
30
0
11
20.913362
21
5.803331
31
0
39
0
210
0
220
0
230
1
0
LINE
5
92
100
AcDbEntity
8
1
62
256
6
ByLayer
370
18
48
1
60
0
100
AcDbLine
10
20.549466
20
6.652612
30
0
11
20.921949
21
7.025094
31
0
39
0
210
0
220
0
230
1
0
LINE
5
93
100
AcDbEntity
8
1
62
256
6
ByLayer
370
18
48
1
60
0
100
AcDbLine
10
20.004387
20
7.064506
30
0
11
19.578288
21
7.386492
31
0
39
0
210
0
220
0
230
1
0
LINE
5
94
100
AcDbEntity
8
1
62
256
6
ByLayer
370
18
48
1
60
0
100
AcDbLine
10
19.578288
20
7.386492
30
0
11
19.961946
21
7.770149
31
0
39
0
210
0
220
0
230
1
0
LINE
5
95
100
AcDbEntity
8
1
62
256
6
ByLayer
370
18
48
1
60
0
100
AcDbLine
10
20.975565
20
6.330626
30
0
11
21.359222
21
6.714284
31
0
39
0
210
0
220
0
230
1
0
LINE
5
96
100
AcDbEntity
8
1
62
256
6
ByLayer
370
18
48
1
60
0
100
AcDbLine
10
20.83379
20
5.128797
30
0
11
21.206273
21
5.501279
31
0
39
0
210
0
220
0
230
1
0
LINE
5
97
100
AcDbEntity
8
1
62
256
6
ByLayer
370
18
48
1
60
0
100
AcDbLine
10
19.578288
20
7.386492
30
0
11
19.089987
21
7.181182
31
0
39
0
210
0
220
0
230
1
0
LINE
5
98
100
AcDbEntity
8
1
62
256
6
ByLayer
370
18
48
1
60
0
100
AcDbLine
10
18.837818
20
7.291025
30
0
11
18.465335
21
6.918542
31
0
39
0
210
0
220
0
230
1
0
LINE
5
99
100
AcDbEntity
8
1
62
256
6
ByLayer
370
13
48
1
60
0
100
AcDbLine
10
22.541181
20
11.023389
30
0
11
23.00986
21
11.492068
31
0
39
0
210
0
220
0
230
1
0
LINE
5
9A
100
AcDbEntity
8
1
62
256
6
ByLayer
370
13
48
1
60
0
100
AcDbLine
10
23.015322
20
10.374998
30
0
11
30.873046
21
2.517274
31
0
39
0
210
0
220
0
230
1
0
LINE
5
9B
100
AcDbEntity
8
1
62
256
6
ByLayer
370
13
48
1
60
0
100
AcDbLine
10
30.791113
20
19.273321
30
0
11
23.00986
21
11.492068
31
0
39
0
210
0
220
0
230
1
0
LINE
5
9C
100
AcDbEntity
8
1
62
256
6
ByLayer
370
13
48
1
60
0
100
AcDbLine
10
31.990116
20
2.511812
30
0
11
39.771369
21
10.293065
31
0
39
0
210
0
220
0
230
1
0
LINE
5
9D
100
AcDbEntity
8
1
62
256
6
ByLayer
370
13
48
1
60
0
100
AcDbLine
10
31.990116
20
2.511812
30
0
11
31.521437
21
2.043133
31
0
39
0
210
0
220
0
230
1
0
LINE
5
9E
100
AcDbEntity
8
1
62
256
6
ByLayer
370
13
48
1
60
0
100
AcDbLine
10
39.765907
20
11.410135
30
0
11
31.908183
21
19.267859
31
0
39
0
210
0
220
0
230
1
0
LINE
5
9F
100
AcDbEntity
8
SK1
62
256
6
ByLayer
370
18
48
1
60
0
100
AcDbLine
10
-84
20
9.425
30
0
11
-84
21
-9.5
31
0
39
0
210
0
220
0
230
1
0
LINE
5
A1
100
AcDbEntity
8
SK1
62
256
6
ByLayer
370
18
48
1
60
0
100
AcDbLine
10
-81
20
-12.5
30
0
11
-84
21
-9.5
31
0
39
0
210
0
220
0
230
1
0
LINE
5
A2
100
AcDbEntity
8
SK1
62
256
6
ByLayer
370
18
48
1
60
0
100
AcDbLine
10
-81
20
12.425
30
0
11
-84
21
9.425
31
0
39
0
210
0
220
0
230
1
0
LINE
5
A3
100
AcDbEntity
8
SK1
62
256
6
ByLayer
370
18
48
1
60
0
100
AcDbLine
10
-81
20
-12.5
30
0
11
0
21
-12.5
31
0
39
0
210
0
220
0
230
1
0
LINE
5
A4
100
AcDbEntity
8
SK1
62
256
6
ByLayer
370
18
48
1
60
0
100
AcDbLine
10
-81
20
12.425
30
0
11
0
21
12.425
31
0
39
0
210
0
220
0
230
1
0
LINE
5
A5
100
AcDbEntity
8
SK1
62
256
6
ByLayer
370
18
48
1
60
0
100
AcDbLine
10
0
20
-12.5
30
0
11
0
21
12.425
31
0
39
0
210
0
220
0
230
1
0
LINE
5
A6
100
AcDbEntity
8
1
62
256
6
ByLayer
370
18
48
1
60
0
100
AcDbLine
10
30.651832
20
2.652379
30
0
11
28.315343
21
4.988868
31
0
39
0
210
0
220
0
230
1
0
LINE
5
A7
100
AcDbEntity
8
1
62
256
6
ByLayer
370
18
48
1
60
0
100
AcDbLine
10
0
20
-12.5
30
0
11
0.772277
21
-12.5
31
0
39
0
210
0
220
0
230
1
0
LINE
5
A8
100
AcDbEntity
8
1
62
256
6
ByLayer
370
18
48
1
60
0
100
AcDbLine
10
0.772277
20
12.425
30
0
11
1.772277
21
12.425
31
0
39
0
210
0
220
0
230
1
0
LINE
5
A9
100
AcDbEntity
8
1
62
256
6
ByLayer
370
18
48
1
60
0
100
AcDbLine
10
0
20
12.425
30
0
11
0.772277
21
12.425
31
0
39
0
210
0
220
0
230
1
0
LINE
5
AA
100
AcDbEntity
8
1
62
256
6
ByLayer
370
18
48
1
60
0
100
AcDbLine
10
28.378963
20
17.109168
30
0
11
4.19174
21
16.872634
31
0
39
0
210
0
220
0
230
1
0
LINE
5
AB
100
AcDbEntity
8
1
62
256
6
ByLayer
370
18
48
1
60
0
100
AcDbLine
10
0.772277
20
-12.5
30
0
11
2.317758
21
-12.5
31
0
39
0
210
0
220
0
230
1
0
LINE
5
AC
100
AcDbEntity
8
1
62
256
6
ByLayer
370
18
48
1
60
0
100
AcDbLine
10
25.266067
20
14.667514
30
0
11
25.720657
21
14.212924
31
0
39
0
210
0
220
0
230
1
0
LINE
5
AD
100
AcDbEntity
8
1
62
256
6
ByLayer
370
18
48
1
60
0
100
AcDbLine
10
4.19174
20
16.872634
30
0
11
3.317758
21
13.61089
31
0
39
0
210
0
220
0
230
1
0
LINE
5
AE
100
AcDbEntity
8
1
62
256
6
ByLayer
370
18
48
1
60
0
100
AcDbLine
10
7.248835
20
-12.5
30
0
11
3.503983
21
-12.5
31
0
39
0
210
0
220
0
230
1
0
LINE
5
AF
100
AcDbEntity
8
1
62
256
6
ByLayer
370
18
48
1
60
0
100
AcDbLine
10
25.176896
20
13.759562
30
0
11
25.720657
21
14.212924
31
0
39
0
210
0
220
0
230
1
0
LINE
5
B0
100
AcDbEntity
8
1
62
256
6
ByLayer
370
18
48
1
60
0
100
AcDbLine
10
27.607192
20
5.486951
30
0
11
25.631445
21
7.462698
31
0
39
0
210
0
220
0
230
1
0
LINE
5
B1
100
AcDbEntity
8
1
62
256
6
ByLayer
370
18
48
1
60
0
100
AcDbLine
10
2.317758
20
-12.5
30
0
11
3.503983
21
-12.5
31
0
39
0
210
0
220
0
230
1
0
LINE
5
B2
100
AcDbEntity
8
1
62
256
6
ByLayer
370
18
48
1
60
0
100
AcDbLine
10
3.503983
20
-12.5
30
0
11
2.846743
21
12.839453
31
0
39
0
210
0
220
0
230
1
0
LINE
5
B3
100
AcDbEntity
8
1
62
256
6
ByLayer
370
18
48
1
60
0
100
AcDbLine
10
25.133362
20
8.170849
30
0
11
22.163514
21
11.140697
31
0
39
0
210
0
220
0
230
1
0
LINE
5
B4
100
AcDbEntity
8
1
62
256
6
ByLayer
370
18
48
1
60
0
100
AcDbLine
10
0
20
-12.5
30
0
11
0
21
12.425
31
0
39
0
210
0
220
0
230
1
0
LINE
5
B5
100
AcDbEntity
8
1
62
256
6
ByLayer
370
13
48
1
60
0
100
AcDbLine
10
24.605019
20
14.006466
30
0
11
24.465066
21
13.866513
31
0
39
0
210
0
220
0
230
1
0
LINE
5
B6
100
AcDbEntity
8
1
62
256
6
ByLayer
370
13
48
1
60
0
100
AcDbLine
10
0.772277
20
-12.5
30
0
11
0.772277
21
12.425
31
0
39
0
210
0
220
0
230
1
0
LINE
5
B7
100
AcDbEntity
8
1
62
256
6
ByLayer
370
13
48
1
60
0
100
AcDbLine
10
30.404367
20
2.048595
30
0
11
30.271522
21
2.18144
31
0
39
0
210
0
220
0
230
1
0
LINE
5
B8
100
AcDbEntity
8
1
62
256
6
ByLayer
370
13
48
1
60
0
100
AcDbLine
10
23.015322
20
10.374998
30
0
11
22.972262
21
10.331938
31
0
39
0
210
0
220
0
230
1
0
LINE
5
B9
100
AcDbEntity
8
1
62
256
6
ByLayer
370
13
48
1
60
0
100
AcDbLine
10
2.317758
20
12.520856
30
0
11
2.317758
21
-12.5
31
0
39
0
210
0
220
0
230
1
0
LINE
5
BA
100
AcDbEntity
8
1
62
256
6
ByLayer
370
13
48
1
60
0
100
AcDbLine
10
24.605019
20
14.006466
30
0
11
25.266067
21
14.667514
31
0
39
0
210
0
220
0
230
1
0
LINE
5
BB
100
AcDbEntity
8
1
62
256
6
ByLayer
370
18
48
1
60
0
100
AcDbLine
10
20.798563
20
4.830174
30
0
11
20.83379
21
5.128797
31
0
39
0
210
0
220
0
230
1
0
LINE
5
BC
100
AcDbEntity
8
1
62
256
6
ByLayer
370
18
48
1
60
0
100
AcDbLine
10
18.465335
20
6.918542
30
0
11
18.327909
21
6.86076
31
0
39
0
210
0
220
0
230
1
0
LINE
5
BD
100
AcDbEntity
8
1
62
256
6
ByLayer
370
18
48
1
60
0
100
AcDbLine
10
28.62945
20
17.111617
30
0
11
28.378985
21
17.109168
31
0
39
0
210
0
220
0
230
1
0
LINE
5
BE
100
AcDbEntity
8
1
62
256
6
ByLayer
370
18
48
1
60
0
100
AcDbLine
10
24.924693
20
13.406886
30
0
11
24.465066
21
13.866513
31
0
39
0
210
0
220
0
230
1
0
LINE
5
BF
100
AcDbEntity
8
1
62
256
6
ByLayer
370
18
48
1
60
0
100
AcDbLine
10
24.605019
20
14.006466
30
0
11
25.064626
21
13.546858
31
0
39
0
210
0
220
0
230
1
0
LINE
5
C0
100
AcDbEntity
8
1
62
256
6
ByLayer
370
18
48
1
60
0
100
AcDbLine
10
25.220639
20
13.702845
30
0
11
25.176896
21
13.759562
31
0
39
0
210
0
220
0
230
1
0
LINE
5
C1
100
AcDbEntity
8
1
62
256
6
ByLayer
370
13
48
1
60
0
100
AcDbLine
10
22.437568
20
-6.100809
30
0
11
22.663615
21
-5.024483
31
0
39
0
210
0
220
0
230
1
0
LINE
5
C2
100
AcDbEntity
8
1
62
256
6
ByLayer
370
13
48
1
60
0
100
AcDbLine
10
16.32358
20
-10.620522
30
0
11
15.943101
21
-11.988207
31
0
39
0
210
0
220
0
230
1
0
LINE
5
C3
100
AcDbEntity
8
1
62
256
6
ByLayer
370
18
48
1
60
0
100
AcDbLine
10
28.378963
20
17.109168
30
0
11
28.502961
21
16.98517
31
0
39
0
210
0
220
0
230
1
0
LINE
5
C4
100
AcDbEntity
8
1
62
256
6
ByLayer
370
18
48
1
60
0
100
AcDbLine
10
25.720657
20
14.212924
30
0
11
26.867146
21
15.349354
31
0
39
0
210
0
220
0
230
1
0
LINE
5
C5
100
AcDbEntity
8
1
62
256
6
ByLayer
370
13
48
1
60
0
100
AcDbLine
10
30.404367
20
2.048595
30
0
11
30.873046
21
2.517274
31
0
39
0
210
0
220
0
230
1
0
LINE
5
C6
100
AcDbEntity
8
80
62
256
6
ByLayer
370
18
48
1
60
0
100
AcDbLine
10
0
20
0
30
0
11
-5
21
0
31
0
39
0
210
0
220
0
230
1
0
LINE
5
C7
100
AcDbEntity
8
1
62
256
6
ByLayer
370
18
48
1
60
0
100
AcDbLine
10
29.453251
20
12.093185
30
0
11
29.44604
21
12.085973
31
0
39
0
210
0
220
0
230
1
0
LINE
5
C8
100
AcDbEntity
8
1
62
256
6
ByLayer
370
18
48
1
60
0
100
AcDbLine
10
32.310077
20
8.488627
30
0
11
32.446058
21
8.624609
31
0
39
0
210
0
220
0
230
1
0
LINE
5
C9
100
AcDbEntity
8
1
62
256
6
ByLayer
370
18
48
1
60
0
100
AcDbLine
10
29.661435
20
12.119163
30
0
11
29.22843
21
11.686158
31
0
39
0
210
0
220
0
230
1
0
LINE
5
CA
100
AcDbEntity
8
1
62
256
6
ByLayer
370
18
48
1
60
0
100
AcDbLine
10
32.472746
20
9.018922
30
0
11
32.905751
21
9.451928
31
0
39
0
210
0
220
0
230
1
0
LINE
5
CB
100
AcDbEntity
8
1
62
256
6
ByLayer
370
18
48
1
60
0
100
AcDbLine
10
16.462152
20
3.086585
30
0
11
15.730263
21
3.006731
31
0
39
0
210
0
220
0
230
1
0
LINE
5
CC
100
AcDbEntity
8
1
62
256
6
ByLayer
370
18
48
1
60
0
100
AcDbLine
10
23.125993
20
-4.537341
30
0
11
23.206197
21
-3.802253
31
0
39
0
210
0
220
0
230
1
0
LINE
5
CD
100
AcDbEntity
8
81
62
256
6
ByLayer
370
18
48
1
60
0
100
AcDbLine
10
40
20
11.176042
30
0
11
45
21
11.176042
31
0
39
0
210
0
220
0
230
1
0
LINE
5
CE
100
AcDbEntity
8
2
62
256
6
ByLayer
370
13
48
1
60
0
100
AcDbLine
10
38
20
11.176042
30
0
11
30.886309
21
11.176042
31
0
39
0
210
0
220
0
230
1
0
LINE
5
CF
100
AcDbEntity
8
2
62
256
6
ByLayer
370
13
48
1
60
0
100
AcDbLine
10
38.585786
20
12.590255
30
0
11
33.555647
21
17.620394
31
0
39
0
210
0
220
0
230
1
0
LINE
5
D0
100
AcDbEntity
8
1
62
256
6
ByLayer
370
13
48
1
60
0
100
AcDbLine
10
32.886309
20
11.176042
30
0
11
33.649646
21
8.065953
31
0
39
0
210
0
220
0
230
1
0
LINE
5
D1
100
AcDbEntity
8
1
62
256
6
ByLayer
370
13
48
1
60
0
100
AcDbLine
10
32.886309
20
11.176042
30
0
11
32.818686
21
7.974357
31
0
39
0
210
0
220
0
230
1
0
LINE
5
D2
100
AcDbEntity
8
1
62
256
6
ByLayer
370
13
48
1
60
0
100
AcDbLine
10
33.649646
20
8.065953
30
0
11
32.818686
21
7.974357
31
0
39
0
210
0
220
0
230
1
0
LINE
5
D3
100
AcDbEntity
8
1
62
256
6
ByLayer
370
13
48
1
60
0
100
AcDbLine
10
34.969861
20
16.206181
30
0
11
37.185975
21
18.517928
31
0
39
0
210
0
220
0
230
1
0
LINE
5
D4
100
AcDbEntity
8
1
62
256
6
ByLayer
370
13
48
1
60
0
100
AcDbLine
10
34.969861
20
16.206181
30
0
11
37.708789
21
17.865586
31
0
39
0
210
0
220
0
230
1
0
LINE
5
D5
100
AcDbEntity
8
1
62
256
6
ByLayer
370
13
48
1
60
0
100
AcDbLine
10
37.185975
20
18.517928
30
0
11
37.708789
21
17.865586
31
0
39
0
210
0
220
0
230
1
0
MTEXT
5
133
100
AcDbEntity
8
2
62
256
6
ByLayer
370
18
48
1
60
0
100
AcDbMText
10
31.640031
20
14.472279
30
0
210
0
220
0
230
1
1
\W0.8602;45%%d0'
40
3
41
0
44
1.084337
50
39.5727452227697
71
7
72
5
7
iso_b_vert
0
MTEXT
5
136
100
AcDbEntity
8
SK6
62
256
6
ByLayer
370
18
48
1
60
0
100
AcDbMText
10
-41.62023
20
-50.96639
30
0
210
0
220
0
230
1
1
\W0.7641;QS-PSSNR2525-12C1
40
3.5
41
0
44
1.084337
50
0
71
7
72
5
7
iso_b_vert
0
DIMENSION
5
139
100
AcDbEntity
8
2
62
256
6
ByLayer
370
18
48
1
60
0
100
AcDbDimension
2
_U0
10
34.522884
20
11.176042
30
0
11
34.522884
21
-0.661979
31
0
70
32
71
1
72
1
41
1
210
0
220
0
230
1
3
Standard
100
AcDbAlignedDimension
13
33
23
-12.5
33
0
14
40
24
11.176042
34
0
50
90
100
AcDbRotatedDimension
1001
ACAD
1000
DSTYLE
1002
{
1070
   371
1070
    13
1070
   372
1070
    13
1070
     3
1000

1070
   170
1070
     0
1070
   144
1040
1.0
1070
   277
1070
     2
1070
   284
1070
     8
1070
   278
1070
    46
1070
   146
1040
1.0
1070
   345
1005
16
1070
   347
1005
16
1070
   346
1005
16
1070
   344
1005
13A
1070
   343
1005
13A
1070
   172
1070
     1
1070
    76
1070
     0
1070
    75
1070
     0
1070
   282
1070
     0
1070
   281
1070
     0
1070
    71
1070
     0
1070
   272
1070
     4
1070
    74
1070
     0
1070
   279
1070
     0
1070
   173
1070
     1
1070
   340
1005
134
1070
   271
1070
     1
1070
    77
1070
     1
1070
    73
1070
     0
1070
   171
1070
     3
1070
   274
1070
     4
1070
   177
1070
     2
1070
   176
1070
     2
1070
   178
1070
     7
1070
    78
1070
     8
1070
    41
1040
3.175
1070
   147
1040
1.75
1070
    42
1040
2.0
1070
    44
1040
2.0
1070
   140
1040
3.5
1002
}
1001
ACAD_DSTYLE_DIM_LINETYPE
1070
   380
1005
16
1001
ACAD_DSTYLE_DIM_EXT1_LINETYPE
1070
   381
1005
16
1001
ACAD_DSTYLE_DIM_EXT2_LINETYPE
1070
   382
1005
16
0
DIMENSION
5
15D
100
AcDbEntity
8
SK2
62
256
6
ByLayer
370
18
48
1
60
0
100
AcDbDimension
2
_U1
10
-19.966021
20
-12.5
30
0
11
-19.966021
21
0
31
0
70
32
71
1
72
1
41
1
210
0
220
0
230
1
3
Standard
100
AcDbAlignedDimension
13
0
23
12.5
33
0
14
-84
24
-12.5
34
0
50
90
100
AcDbRotatedDimension
1001
ACAD
1000
DSTYLE
1002
{
1070
   371
1070
    13
1070
   372
1070
    13
1070
     3
1000

1070
   170
1070
     0
1070
   144
1040
1.0
1070
   277
1070
     2
1070
   284
1070
     8
1070
   278
1070
    46
1070
   146
1040
1.0
1070
   345
1005
16
1070
   347
1005
16
1070
   346
1005
16
1070
   344
1005
13A
1070
   343
1005
13A
1070
   172
1070
     1
1070
    76
1070
     0
1070
    75
1070
     0
1070
   282
1070
     0
1070
   281
1070
     0
1070
    71
1070
     0
1070
   272
1070
     4
1070
    74
1070
     0
1070
   279
1070
     0
1070
   173
1070
     1
1070
   340
1005
134
1070
   271
1070
     1
1070
    77
1070
     1
1070
    73
1070
     0
1070
   171
1070
     3
1070
   274
1070
     4
1070
   177
1070
     2
1070
   176
1070
     2
1070
   178
1070
     7
1070
    78
1070
     8
1070
    41
1040
3.175
1070
   147
1040
1.75
1070
    42
1040
2.0
1070
    44
1040
2.0
1070
   140
1040
3.5
1002
}
1001
ACAD_DSTYLE_DIM_LINETYPE
1070
   380
1005
16
1001
ACAD_DSTYLE_DIM_EXT1_LINETYPE
1070
   381
1005
16
1001
ACAD_DSTYLE_DIM_EXT2_LINETYPE
1070
   382
1005
16
0
DIMENSION
5
179
100
AcDbEntity
8
SK2
62
256
6
ByLayer
370
18
48
1
60
0
100
AcDbDimension
2
_U2
10
40
20
-40.344955
30
0
11
-22
21
-40.344955
31
0
70
32
71
1
72
1
41
1
210
0
220
0
230
1
3
Standard
100
AcDbAlignedDimension
13
-84
23
-12.5
33
0
14
40
24
11.176042
34
0
50
0
100
AcDbRotatedDimension
1001
ACAD
1000
DSTYLE
1002
{
1070
   371
1070
    13
1070
   372
1070
    13
1070
     3
1000

1070
   170
1070
     0
1070
   144
1040
1.0
1070
   277
1070
     2
1070
   284
1070
     8
1070
   278
1070
    46
1070
   146
1040
1.0
1070
   345
1005
16
1070
   347
1005
16
1070
   346
1005
16
1070
   344
1005
13A
1070
   343
1005
13A
1070
   172
1070
     1
1070
    76
1070
     0
1070
    75
1070
     0
1070
   282
1070
     0
1070
   281
1070
     0
1070
    71
1070
     0
1070
   272
1070
     4
1070
    74
1070
     0
1070
   279
1070
     0
1070
   173
1070
     1
1070
   340
1005
134
1070
   271
1070
     1
1070
    77
1070
     1
1070
    73
1070
     1
1070
   171
1070
     3
1070
   274
1070
     4
1070
   177
1070
     2
1070
   176
1070
     2
1070
   178
1070
     7
1070
    78
1070
     8
1070
    41
1040
3.175
1070
   147
1040
1.75
1070
    42
1040
2.0
1070
    44
1040
2.0
1070
   140
1040
3.5
1002
}
1001
ACAD_DSTYLE_DIM_LINETYPE
1070
   380
1005
16
1001
ACAD_DSTYLE_DIM_EXT1_LINETYPE
1070
   381
1005
16
1001
ACAD_DSTYLE_DIM_EXT2_LINETYPE
1070
   382
1005
16
0
DIMENSION
5
195
100
AcDbEntity
8
2
62
256
6
ByLayer
370
18
48
1
60
0
100
AcDbDimension
2
_U3
10
40
20
-25.6
30
0
11
20
21
-25.6
31
0
70
32
71
1
72
1
41
1
210
0
220
0
230
1
3
Standard
100
AcDbAlignedDimension
13
0
23
12.5
33
0
14
40
24
11.176042
34
0
50
0
100
AcDbRotatedDimension
1001
ACAD
1000
DSTYLE
1002
{
1070
   371
1070
    13
1070
   372
1070
    13
1070
     3
1000

1070
   170
1070
     0
1070
   144
1040
1.0
1070
   277
1070
     2
1070
   284
1070
     8
1070
   278
1070
    46
1070
   146
1040
1.0
1070
   345
1005
16
1070
   347
1005
16
1070
   346
1005
16
1070
   344
1005
13A
1070
   343
1005
13A
1070
   172
1070
     1
1070
    76
1070
     0
1070
    75
1070
     0
1070
   282
1070
     0
1070
   281
1070
     0
1070
    71
1070
     0
1070
   272
1070
     4
1070
    74
1070
     0
1070
   279
1070
     0
1070
   173
1070
     1
1070
   340
1005
134
1070
   271
1070
     1
1070
    77
1070
     1
1070
    73
1070
     1
1070
   171
1070
     3
1070
   274
1070
     4
1070
   177
1070
     2
1070
   176
1070
     2
1070
   178
1070
     7
1070
    78
1070
     8
1070
    41
1040
3.175
1070
   147
1040
1.75
1070
    42
1040
2.0
1070
    44
1040
2.0
1070
   140
1040
3.5
1002
}
1001
ACAD_DSTYLE_DIM_LINETYPE
1070
   380
1005
16
1001
ACAD_DSTYLE_DIM_EXT1_LINETYPE
1070
   381
1005
16
1001
ACAD_DSTYLE_DIM_EXT2_LINETYPE
1070
   382
1005
16
0
DIMENSION
5
1B1
100
AcDbEntity
8
SK2
62
256
6
ByLayer
370
18
48
1
60
0
100
AcDbDimension
2
_U4
10
-81
20
-25.6
30
0
11
-66.483333
21
-25.6
31
0
70
32
71
1
72
1
41
1
210
0
220
0
230
1
3
Standard
100
AcDbAlignedDimension
13
-84
23
-12.5
33
0
14
-81
24
-12.5
34
0
50
0
100
AcDbRotatedDimension
1001
ACAD
1000
DSTYLE
1002
{
1070
   371
1070
    13
1070
   372
1070
    13
1070
     3
1000

1070
   170
1070
     0
1070
   144
1040
1.0
1070
   277
1070
     2
1070
   284
1070
     8
1070
   278
1070
    46
1070
   146
1040
1.0
1070
   345
1005
16
1070
   347
1005
16
1070
   346
1005
16
1070
   344
1005
13A
1070
   343
1005
13A
1070
   172
1070
     1
1070
    76
1070
     0
1070
    75
1070
     0
1070
   282
1070
     0
1070
   281
1070
     0
1070
    71
1070
     0
1070
   272
1070
     4
1070
   271
1070
     4
1070
    74
1070
     0
1070
   279
1070
     0
1070
   173
1070
     1
1070
   340
1005
134
1070
    77
1070
     1
1070
    73
1070
     1
1070
   171
1070
     3
1070
   274
1070
     4
1070
   177
1070
     2
1070
   176
1070
     2
1070
   178
1070
     7
1070
    78
1070
     8
1070
    41
1040
3.175
1070
   147
1040
1.75
1070
    42
1040
2.0
1070
    44
1040
2.0
1070
   140
1040
3.5
1002
}
1001
ACAD_DSTYLE_DIM_LINETYPE
1070
   380
1005
16
1001
ACAD_DSTYLE_DIM_EXT1_LINETYPE
1070
   381
1005
16
1001
ACAD_DSTYLE_DIM_EXT2_LINETYPE
1070
   382
1005
16
0
ENDSEC
0
SECTION
2
OBJECTS
0
DICTIONARY
5
23e
330
0
100
AcDbDictionary
280
0
281
1
3
ACAD_GROUP
350
23f
3
ACAD_MLINESTYLE
350
240
0
DICTIONARY
5
23f
330
0
100
AcDbDictionary
280
0
281
1
0
DICTIONARY
5
240
330
0
100
AcDbDictionary
280
0
281
1
3
Standard
350
18
0
MLINESTYLE
5
18
330
240
100
AcDbMlineStyle
2
Standard
70
0
3

62
256
51
90
52
90
71
2
49
-0.5
62
256
6
ByLayer
49
0.5
62
256
6
ByLayer
0
RASTERVARIABLES
5
22d
330

100
AcDbRasterVariables
90
0
70
1
71
1
72
1
0
ENDSEC
0
EOF
