0
SECTION
2
HEADER
9
$ACADVER
1
AC1015
9
$DWGCODEPAGE
3
ANSI_1252
9
$HANDSEED
5
1f5
9
$ANGBASE
50
0
9
$ANGDIR
70
0
9
$ATTMODE
70
1
9
$AUNITS
70
0
9
$AUPREC
70
0
9
$CECOLOR
62
256
9
$CELTSCALE
40
1
9
$CELTYPE
6
ByLayer
9
$CELWEIGHT
370
18
9
$CLAYER
8
0
9
$CMLJUST
70
0
9
$CMLSCALE
40
1
9
$CMLSTYLE
2
Standard
9
$DIMSTYLE
2
Standard
9
$TEXTSIZE
40
0.2
9
$TEXTSTYLE
7
Standard
9
$LUNITS
70
2
9
$LUPREC
70
4
9
$EXTNAMES
290
1
9
$INSUNITS
70
4
9
$LTSCALE
40
1
9
$LWDISPLAY
290
1
9
$PDMODE
70
0
9
$PDSIZE
40
0
9
$PLINEGEN
70
0
0
ENDSEC
0
SECTION
2
CLASSES
0
CLASS
1
RASTERVARIABLES
2
AcDbRasterVariables
3
ISM
90
0
280
0
281
0
0
ENDSEC
0
SECTION
2
TABLES
0
TABLE
2
VPORT
5
1eb
100
AcDbSymbolTable
0
VPORT
5
1
100
AcDbSymbolTableRecord
100
AcDbViewportTableRecord
2
*Active
70
0
10
0
20
0
11
1
21
1
12
-1
22
1
13
0
23
0
14
0.5
24
0.5
15
10
25
10
16
0
26
0
36
1
17
0
27
0
37
0
0
ENDTAB
0
TABLE
2
LTYPE
5
1ec
100
AcDbSymbolTable
0
LTYPE
5
14
100
AcDbSymbolTableRecord
100
AcDbLinetypeTableRecord
70
0
2
ByBlock
3

72
65
73
0
40
0
0
LTYPE
5
15
100
AcDbSymbolTableRecord
100
AcDbLinetypeTableRecord
70
0
2
ByLayer
3

72
65
73
0
40
0
0
LTYPE
5
16
100
AcDbSymbolTableRecord
100
AcDbLinetypeTableRecord
70
0
2
Continuous
3
Solid line
72
65
73
0
40
0
0
LTYPE
5
6E
100
AcDbSymbolTableRecord
100
AcDbLinetypeTableRecord
70
0
2
CENTER
3
____ _ ____ _ ____ _ ____
72
65
73
4
40
47.5
49
22
74
0
49
-8.5
74
0
49
8.5
74
0
49
-8.5
74
0
0
LTYPE
5
6F
100
AcDbSymbolTableRecord
100
AcDbLinetypeTableRecord
70
0
2
DASHED
3
__ __ __ __ __ __ __ __ __
72
65
73
2
40
25.72
49
12.86
74
0
49
-12.86
74
0
0
ENDTAB
0
TABLE
2
LAYER
5
1ed
100
AcDbSymbolTable
0
LAYER
5
10
100
AcDbSymbolTableRecord
100
AcDbLayerTableRecord
2
0
70
0
62
7
6
Continuous
290
1
370
-3
390
0
0
LAYER
5
71
100
AcDbSymbolTableRecord
100
AcDbLayerTableRecord
2
2
70
0
62
7
6
Continuous
290
1
370
-3
390
0
0
LAYER
5
84
100
AcDbSymbolTableRecord
100
AcDbLayerTableRecord
2
81
70
0
62
-3
6
Continuous
290
1
370
-3
390
0
0
LAYER
5
86
100
AcDbSymbolTableRecord
100
AcDbLayerTableRecord
2
80
70
0
62
-6
6
Continuous
290
1
370
-3
390
0
0
LAYER
5
88
100
AcDbSymbolTableRecord
100
AcDbLayerTableRecord
2
1
70
0
62
4
6
Continuous
290
1
370
-3
390
0
0
LAYER
5
15F
100
AcDbSymbolTableRecord
100
AcDbLayerTableRecord
2
Defpoints
70
0
62
7
6
Continuous
290
0
370
-3
390
0
0
LAYER
5
1d8
100
AcDbSymbolTableRecord
100
AcDbLayerTableRecord
2
SK2
70
0
62
7
6
Continuous
290
1
370
-3
390
0
0
LAYER
5
1d9
100
AcDbSymbolTableRecord
100
AcDbLayerTableRecord
2
SK1
70
0
62
4
6
Continuous
290
1
370
-3
390
0
0
LAYER
5
1da
100
AcDbSymbolTableRecord
100
AcDbLayerTableRecord
2
SK6
70
0
62
5
6
Continuous
290
1
370
-3
390
0
0
ENDTAB
0
TABLE
2
STYLE
5
1ee
100
AcDbSymbolTable
0
STYLE
5
11
100
AcDbSymbolTableRecord
100
AcDbTextStyleTableRecord
2
Standard
3
txt
70
0
71
0
40
0
41
1
42
0
50
0
0
STYLE
5
14F
100
AcDbSymbolTableRecord
100
AcDbTextStyleTableRecord
2
iso_b_vert
3
simplex.shx
70
0
71
0
40
0
41
1
42
0
50
0
0
STYLE
5
150
100
AcDbSymbolTableRecord
100
AcDbTextStyleTableRecord
2
DWGDirectTextStyle
3
simplex
70
0
71
0
40
0
41
1
42
0
50
0
0
ENDTAB
0
TABLE
2
DIMSTYLE
5
1ef
100
AcDbSymbolTable
100
AcDbDimStyleTable
0
DIMSTYLE
105
27
100
AcDbSymbolTableRecord
100
AcDbDimStyleTableRecord
2
Standard
70
0
3
<>
41
0.18
42
0.0625
44
0.18
140
0.18
147
0.09
73
0
74
0
77
1
271
2
275
0
278
52
280
0
340
11
0
ENDTAB
0
TABLE
2
VIEW
5
1f0
100
AcDbSymbolTable
0
ENDTAB
0
TABLE
2
UCS
5
1f1
100
AcDbSymbolTable
0
ENDTAB
0
TABLE
2
APPID
5
1f2
100
AcDbSymbolTable
0
APPID
5
12
100
AcDbSymbolTableRecord
100
AcDbRegAppTableRecord
2
ACAD
70
0
0
APPID
5
154
100
AcDbSymbolTableRecord
100
AcDbRegAppTableRecord
2
ACAD_DSTYLE_DIMBREAK
70
0
0
APPID
5
197
100
AcDbSymbolTableRecord
100
AcDbRegAppTableRecord
2
ACAD_DSTYLE_DIM_LINETYPE
70
0
0
APPID
5
198
100
AcDbSymbolTableRecord
100
AcDbRegAppTableRecord
2
ACAD_DSTYLE_DIM_EXT1_LINETYPE
70
0
0
APPID
5
199
100
AcDbSymbolTableRecord
100
AcDbRegAppTableRecord
2
ACAD_DSTYLE_DIM_EXT2_LINETYPE
70
0
0
APPID
5
1D4
100
AcDbSymbolTableRecord
100
AcDbRegAppTableRecord
2
ACAD_MLEADERVER
70
0
0
ENDTAB
0
TABLE
2
BLOCK_RECORD
5
1f3
100
AcDbSymbolTable
0
BLOCK_RECORD
5
1F
100
AcDbSymbolTableRecord
100
AcDbBlockTableRecord
2
*Model_Space
340
0
70
0
0
BLOCK_RECORD
5
1B
100
AcDbSymbolTableRecord
100
AcDbBlockTableRecord
2
*Paper_Space
340
0
70
0
0
BLOCK_RECORD
5
23
100
AcDbSymbolTableRecord
100
AcDbBlockTableRecord
2
*Paper_Space0
340
0
70
0
0
BLOCK_RECORD
5
156
100
AcDbSymbolTableRecord
100
AcDbBlockTableRecord
2
_Closed
340
0
70
0
0
BLOCK_RECORD
5
160
100
AcDbSymbolTableRecord
100
AcDbBlockTableRecord
2
*D2
340
0
70
0
0
BLOCK_RECORD
5
16C
100
AcDbSymbolTableRecord
100
AcDbBlockTableRecord
2
_U0
340
0
70
0
0
ENDTAB
0
ENDSEC
0
SECTION
2
BLOCKS
0
BLOCK
5
20
100
AcDbEntity
8
0
100
AcDbBlockBegin
2
*Model_Space
70
0
10
0
20
0
30
0
3
*Model_Space
0
ENDBLK
5
21
100
AcDbEntity
8
0
100
AcDbBlockEnd
0
BLOCK
5
1C
100
AcDbEntity
8
0
100
AcDbBlockBegin
2
*Paper_Space
70
0
10
0
20
0
30
0
3
*Paper_Space
0
ENDBLK
5
1D
100
AcDbEntity
8
0
100
AcDbBlockEnd
0
BLOCK
5
24
100
AcDbEntity
8
0
100
AcDbBlockBegin
2
*Paper_Space0
70
0
10
0
20
0
30
0
3
*Paper_Space0
0
ENDBLK
5
25
100
AcDbEntity
8
0
100
AcDbBlockEnd
0
BLOCK
5
157
100
AcDbEntity
8
0
100
AcDbBlockBegin
2
_Closed
70
0
10
0
20
0
30
0
3
_Closed
0
LINE
5
159
100
AcDbEntity
8
0
62
256
6
ByLayer
370
-2
48
1
60
0
100
AcDbLine
10
-1
20
0.166667
30
0
11
0
21
0
31
0
39
0
210
0
220
0
230
1
0
LINE
5
15A
100
AcDbEntity
8
0
62
256
6
ByLayer
370
-2
48
1
60
0
100
AcDbLine
10
0
20
0
30
0
11
-1
21
-0.166667
31
0
39
0
210
0
220
0
230
1
0
LINE
5
15B
100
AcDbEntity
8
0
62
256
6
ByLayer
370
-2
48
1
60
0
100
AcDbLine
10
-1
20
0.166667
30
0
11
-1
21
-0.166667
31
0
39
0
210
0
220
0
230
1
0
LINE
5
15C
100
AcDbEntity
8
0
62
256
6
ByLayer
370
-2
48
1
60
0
100
AcDbLine
10
0
20
0
30
0
11
-1
21
0
31
0
39
0
210
0
220
0
230
1
0
ENDBLK
5
158
100
AcDbEntity
8
0
100
AcDbBlockEnd
0
BLOCK
5
161
100
AcDbEntity
8
0
100
AcDbBlockBegin
2
*D2
70
1
10
0
20
0
30
0
3
*D2
0
LINE
5
163
100
AcDbEntity
8
0
62
256
6
ByLayer
370
-2
48
1
60
0
100
AcDbLine
10
160.328782
20
-1.5875
30
0
11
160.328782
21
-60.2422
31
0
39
0
210
0
220
0
230
1
0
LINE
5
164
100
AcDbEntity
8
0
62
256
6
ByLayer
370
-2
48
1
60
0
100
AcDbLine
10
0
20
38.4125
30
0
11
0
21
-60.2422
31
0
39
0
210
0
220
0
230
1
0
LINE
5
165
100
AcDbEntity
8
0
62
256
6
ByLayer
370
-2
48
1
60
0
100
AcDbLine
10
157.153782
20
-57.0672
30
0
11
3.175
21
-57.0672
31
0
39
0
210
0
220
0
230
1
0
SOLID
5
166
100
AcDbEntity
8
0
62
256
6
ByLayer
370
-1
48
1
60
0
100
AcDbTrace
10
157.153782
20
-57.596366
30
0
11
157.153782
21
-56.538033
31
0
12
160.328782
22
-57.0672
32
0
13
160.328782
23
-57.0672
33
0
39
0
210
0
220
0
230
1
0
SOLID
5
167
100
AcDbEntity
8
0
62
256
6
ByLayer
370
-1
48
1
60
0
100
AcDbTrace
10
3.175
20
-56.538033
30
0
11
3.175
21
-57.596366
31
0
12
0
22
-57.0672
32
0
13
0
23
-57.0672
33
0
39
0
210
0
220
0
230
1
0
MTEXT
5
168
100
AcDbEntity
8
0
62
256
6
ByLayer
370
18
48
1
60
0
100
AcDbMText
10
80.164391
20
-47.67345
30
0
210
0
220
0
230
1
1
\A1;160.3
40
4.5
41
0
44
1
50
0
71
5
72
5
7
iso_b_vert
0
POINT
5
169
100
AcDbEntity
8
Defpoints
62
0
6
ByLayer
370
-1
48
1
60
0
100
AcDbPoint
10
160.328782
20
0
30
0
39
0
210
0
220
0
230
1
50
360
0
POINT
5
16A
100
AcDbEntity
8
Defpoints
62
0
6
ByLayer
370
-1
48
1
60
0
100
AcDbPoint
10
0
20
40
30
0
39
0
210
0
220
0
230
1
50
360
0
POINT
5
16B
100
AcDbEntity
8
Defpoints
62
0
6
ByLayer
370
-1
48
1
60
0
100
AcDbPoint
10
0
20
-57.0672
30
0
39
0
210
0
220
0
230
1
50
360
0
ENDBLK
5
162
100
AcDbEntity
8
0
100
AcDbBlockEnd
0
BLOCK
5
177
100
AcDbEntity
8
0
100
AcDbBlockBegin
2
_U0
70
0
10
0
20
0
30
0
3
_U0
0
MTEXT
5
16D
100
AcDbEntity
8
2
62
256
6
ByLayer
370
13
48
1
60
0
100
AcDbMText
10
72.321878
20
-55.739528
30
0
210
0
220
0
230
1
1
\W0.7022;160.33
40
4.5
41
0
44
1.084337
50
0
71
7
72
5
7
iso_b_vert
0
LINE
5
16E
100
AcDbEntity
8
2
62
256
6
ByLayer
370
13
48
1
60
0
100
AcDbLine
10
160.328782
20
-1.5875
30
0
11
160.328782
21
-60.2422
31
0
39
0
210
0
220
0
230
1
0
LINE
5
16F
100
AcDbEntity
8
2
62
256
6
ByLayer
370
13
48
1
60
0
100
AcDbLine
10
0
20
38.4125
30
0
11
0
21
-60.2422
31
0
39
0
210
0
220
0
230
1
0
LINE
5
170
100
AcDbEntity
8
2
62
256
6
ByLayer
370
13
48
1
60
0
100
AcDbLine
10
160.328782
20
-57.0672
30
0
11
0
21
-57.0672
31
0
39
0
210
0
220
0
230
1
0
LINE
5
171
100
AcDbEntity
8
2
62
256
6
ByLayer
370
13
48
1
60
0
100
AcDbLine
10
160.328782
20
-57.0672
30
0
11
157.153785
21
-57.917938
31
0
39
0
210
0
220
0
230
1
0
LINE
5
172
100
AcDbEntity
8
2
62
256
6
ByLayer
370
13
48
1
60
0
100
AcDbLine
10
160.328782
20
-57.0672
30
0
11
157.153779
21
-56.216461
31
0
39
0
210
0
220
0
230
1
0
LINE
5
173
100
AcDbEntity
8
2
62
256
6
ByLayer
370
13
48
1
60
0
100
AcDbLine
10
157.153785
20
-57.917938
30
0
11
157.153779
21
-56.216461
31
0
39
0
210
0
220
0
230
1
0
LINE
5
174
100
AcDbEntity
8
2
62
256
6
ByLayer
370
13
48
1
60
0
100
AcDbLine
10
0
20
-57.0672
30
0
11
3.174997
21
-56.216461
31
0
39
0
210
0
220
0
230
1
0
LINE
5
175
100
AcDbEntity
8
2
62
256
6
ByLayer
370
13
48
1
60
0
100
AcDbLine
10
0
20
-57.0672
30
0
11
3.175003
21
-57.917938
31
0
39
0
210
0
220
0
230
1
0
LINE
5
176
100
AcDbEntity
8
2
62
256
6
ByLayer
370
13
48
1
60
0
100
AcDbLine
10
3.174997
20
-56.216461
30
0
11
3.175003
21
-57.917938
31
0
39
0
210
0
220
0
230
1
0
ENDBLK
5
178
100
AcDbEntity
8
0
100
AcDbBlockEnd
0
ENDSEC
0
SECTION
2
ENTITIES
0
ARC
5
CB
100
AcDbEntity
8
1
62
256
6
ByLayer
370
18
48
1
60
0
100
AcDbCircle
39
0
10
147.196476
20
5.473169
30
0
40
1.6764
210
0
220
0
230
1
100
AcDbArc
50
245.5
51
305.5
0
ARC
5
CC
100
AcDbEntity
8
1
62
256
6
ByLayer
370
18
48
1
60
0
100
AcDbCircle
39
0
10
147.196476
20
5.473169
30
0
40
1.6764
210
0
220
0
230
1
100
AcDbArc
50
5.5
51
65.5
0
ARC
5
CD
100
AcDbEntity
8
1
62
256
6
ByLayer
370
18
48
1
60
0
100
AcDbCircle
39
0
10
147.196476
20
5.473169
30
0
40
1.6764
210
0
220
0
230
1
100
AcDbArc
50
305.5
51
5.5
0
ARC
5
CE
100
AcDbEntity
8
1
62
256
6
ByLayer
370
18
48
1
60
0
100
AcDbCircle
39
0
10
147.196476
20
5.473169
30
0
40
1.6764
210
0
220
0
230
1
100
AcDbArc
50
65.5
51
125.5
0
ARC
5
D0
100
AcDbEntity
8
1
62
256
6
ByLayer
370
18
48
1
60
0
100
AcDbCircle
39
0
10
147.196476
20
5.473169
30
0
40
1.2903
210
0
220
0
230
1
100
AcDbArc
50
215.5
51
275.5
0
ARC
5
D1
100
AcDbEntity
8
1
62
256
6
ByLayer
370
18
48
1
60
0
100
AcDbCircle
39
0
10
147.196476
20
5.473169
30
0
40
1.6764
210
0
220
0
230
1
100
AcDbArc
50
125.5
51
185.5
0
ARC
5
D2
100
AcDbEntity
8
1
62
256
6
ByLayer
370
18
48
1
60
0
100
AcDbCircle
39
0
10
147.196476
20
5.473169
30
0
40
1.2903
210
0
220
0
230
1
100
AcDbArc
50
35.5
51
95.5
0
ARC
5
D3
100
AcDbEntity
8
1
62
256
6
ByLayer
370
18
48
1
60
0
100
AcDbCircle
39
0
10
147.196476
20
5.473169
30
0
40
1.2903
210
0
220
0
230
1
100
AcDbArc
50
335.5
51
35.5
0
ARC
5
D4
100
AcDbEntity
8
1
62
256
6
ByLayer
370
18
48
1
60
0
100
AcDbCircle
39
0
10
147.196476
20
5.473169
30
0
40
1.2903
210
0
220
0
230
1
100
AcDbArc
50
275.5
51
335.5
0
ARC
5
D5
100
AcDbEntity
8
1
62
256
6
ByLayer
370
18
48
1
60
0
100
AcDbCircle
39
0
10
147.196476
20
5.473169
30
0
40
1.6764
210
0
220
0
230
1
100
AcDbArc
50
185.5
51
245.5
0
ARC
5
D7
100
AcDbEntity
8
1
62
256
6
ByLayer
370
18
48
1
60
0
100
AcDbCircle
39
0
10
147.196476
20
5.473169
30
0
40
1.2903
210
0
220
0
230
1
100
AcDbArc
50
155.5
51
215.5
0
ARC
5
D8
100
AcDbEntity
8
1
62
256
6
ByLayer
370
18
48
1
60
0
100
AcDbCircle
39
0
10
147.196476
20
5.473169
30
0
40
1.2903
210
0
220
0
230
1
100
AcDbArc
50
95.5
51
155.5
0
ARC
5
D9
100
AcDbEntity
8
1
62
256
6
ByLayer
370
13
48
1
60
0
100
AcDbCircle
39
0
10
145.470792
20
1.686502
30
0
40
0.793749999998716
210
0
220
0
230
1
100
AcDbArc
50
228
51
263
0
ARC
5
DA
100
AcDbEntity
8
1
62
256
6
ByLayer
370
13
48
1
60
0
100
AcDbCircle
39
0
10
148.922159
20
9.259837
30
0
40
0.793749999998716
210
0
220
0
230
1
100
AcDbArc
50
48
51
83
0
ARC
5
DC
100
AcDbEntity
8
1
62
256
6
ByLayer
370
13
48
1
60
0
100
AcDbCircle
39
0
10
159.20625
20
0
30
0
40
0.793749999998716
210
0
220
0
230
1
100
AcDbArc
50
263
51
48
0
ARC
5
DE
100
AcDbEntity
8
1
62
256
6
ByLayer
370
13
48
1
60
0
100
AcDbCircle
39
0
10
135.186701
20
10.946339
30
0
40
0.793749999998716
210
0
220
0
230
1
100
AcDbArc
50
83
51
228
0
ARC
5
E0
100
AcDbEntity
8
1
62
256
6
ByLayer
370
18
48
1
60
0
100
AcDbCircle
39
0
10
133.529342
20
10.107141
30
0
40
2.10806861426514
210
0
220
0
230
1
100
AcDbArc
50
133.060012
51
263
0
ARC
5
E1
100
AcDbEntity
8
1
62
256
6
ByLayer
370
18
48
1
60
0
100
AcDbCircle
39
0
10
133.529342
20
10.107141
30
0
40
1.85669271518025
210
0
220
0
230
1
100
AcDbArc
50
139.462361
51
263
0
ARC
5
E2
100
AcDbEntity
8
1
62
256
6
ByLayer
370
18
48
1
60
0
100
AcDbCircle
39
0
10
133.529342
20
10.107141
30
0
40
1.85669271525035
210
0
220
0
230
1
100
AcDbArc
50
263
51
278.858858
0
ARC
5
E3
100
AcDbEntity
8
1
62
256
6
ByLayer
370
18
48
1
60
0
100
AcDbCircle
39
0
10
95.4878
20
34.596296
30
0
40
41.6
210
0
220
0
230
1
100
AcDbArc
50
325.423518
51
335.838006
0
ARC
5
E4
100
AcDbEntity
8
1
62
256
6
ByLayer
370
18
48
1
60
0
100
AcDbCircle
39
0
10
241.520202
20
-211.463852
30
0
40
248.4
210
0
220
0
230
1
100
AcDbArc
50
117.180131
51
129.391113
0
ARC
5
E5
100
AcDbEntity
8
1
62
256
6
ByLayer
370
18
48
1
60
0
100
AcDbCircle
39
0
10
125.952467
20
13.59858
30
0
40
4.6
210
0
220
0
230
1
100
AcDbArc
50
297.180131
51
325.423518
0
ARC
5
E6
100
AcDbEntity
8
1
62
256
6
ByLayer
370
18
48
1
60
0
100
AcDbCircle
39
0
10
72.856888
20
-32.98161
30
0
40
81.6
210
0
220
0
230
1
100
AcDbArc
50
42.917917
51
52.177788
0
ARC
5
E7
100
AcDbEntity
8
1
62
256
6
ByLayer
370
18
48
1
60
0
100
AcDbCircle
39
0
10
145.256965
20
-6.220124
30
0
40
8.10000000000001
210
0
220
0
230
1
100
AcDbArc
50
98.269824
51
146.456427
0
ARC
5
E8
100
AcDbEntity
8
1
62
256
6
ByLayer
370
18
48
1
60
0
100
AcDbCircle
39
0
10
129.246298
20
19.451533
30
0
40
4.6
210
0
220
0
230
1
100
AcDbArc
50
335.838006
51
42.917917
0
ARC
5
E9
100
AcDbEntity
8
1
62
256
6
ByLayer
370
18
48
1
60
0
100
AcDbCircle
39
0
10
118.773637
20
19.146267
30
0
40
13
210
0
220
0
230
1
100
AcDbArc
50
48
51
71.516272
0
ARC
5
EA
100
AcDbEntity
8
1
62
256
6
ByLayer
370
18
48
1
60
0
100
AcDbCircle
39
0
10
154.749082
20
14.608427
30
0
40
8.09999999999999
210
0
220
0
230
1
100
AcDbArc
50
209.918738
51
212.730176
0
ARC
5
EB
100
AcDbEntity
8
1
62
256
6
ByLayer
370
18
48
1
60
0
100
AcDbCircle
39
0
10
133.529342
20
10.107141
30
0
40
1.75669271518026
210
0
220
0
230
1
100
AcDbArc
50
137.881769
51
279.306982
0
ARC
5
EC
100
AcDbEntity
8
1
62
256
6
ByLayer
370
18
48
1
60
0
100
AcDbCircle
39
0
10
43
20
-46.445053
30
0
40
13
210
0
220
0
230
1
100
AcDbArc
50
108
51
150.253975
0
ARC
5
ED
100
AcDbEntity
8
1
62
256
6
ByLayer
370
18
48
1
60
0
100
AcDbCircle
39
0
10
133.714747
20
11.617147
30
0
40
1.625
210
0
220
0
230
1
100
AcDbArc
50
3.902348
51
178.934009
0
ARC
5
EE
100
AcDbEntity
8
1
62
256
6
ByLayer
370
18
48
1
60
0
100
AcDbCircle
39
0
10
133.714747
20
11.617147
30
0
40
1.525
210
0
220
0
230
1
100
AcDbArc
50
4.569452
51
192.568777
0
ARC
5
EF
100
AcDbEntity
8
SK1
62
256
6
ByLayer
370
18
48
1
60
0
100
AcDbCircle
39
0
10
-0.6
20
29.6
30
0
40
0.999999999999994
210
0
220
0
230
1
100
AcDbArc
50
293.578178
51
306.869898
0
ARC
5
F0
100
AcDbEntity
8
SK1
62
256
6
ByLayer
370
18
48
1
60
0
100
AcDbCircle
39
0
10
-0.6
20
-29.6
30
0
40
0.999999999999994
210
0
220
0
230
1
100
AcDbArc
50
53.130102
51
66.421822
0
ARC
5
F1
100
AcDbEntity
8
1
62
256
6
ByLayer
370
18
48
1
60
0
100
AcDbCircle
39
0
10
30.279208
20
-41.2
30
0
40
1.2
210
0
220
0
230
1
100
AcDbArc
50
71.81473
51
90
0
ARC
5
F2
100
AcDbEntity
8
1
62
256
6
ByLayer
370
18
48
1
60
0
100
AcDbCircle
39
0
10
30.279208
20
41.2
30
0
40
1.2
210
0
220
0
230
1
100
AcDbArc
50
270
51
288.18527
0
ARC
5
F3
100
AcDbEntity
8
2
62
256
6
ByLayer
370
13
48
1
60
0
100
AcDbCircle
39
0
10
160.328782
20
-0.44035
30
0
40
18.4531288108129
210
0
220
0
230
1
100
AcDbArc
50
90
51
138
0
CIRCLE
5
CF
100
AcDbEntity
8
1
62
256
6
ByLayer
370
18
48
1
60
0
100
AcDbCircle
10
147.196476
20
5.473169
30
0
40
1.8
39
0
210
0
220
0
230
1
0
CIRCLE
5
D6
100
AcDbEntity
8
1
62
256
6
ByLayer
370
18
48
1
60
0
100
AcDbCircle
10
147.196476
20
5.473169
30
0
40
2.625
39
0
210
0
220
0
230
1
0
CIRCLE
5
DB
100
AcDbEntity
8
1
62
256
6
ByLayer
370
13
48
1
60
0
100
AcDbCircle
10
147.196476
20
5.473169
30
0
40
2.92104776441496
39
0
210
0
220
0
230
1
0
CIRCLE
5
DD
100
AcDbEntity
8
1
62
256
6
ByLayer
370
13
48
1
60
0
100
AcDbCircle
10
147.196476
20
5.473169
30
0
40
3.00996076009676
39
0
210
0
220
0
230
1
0
CIRCLE
5
DF
100
AcDbEntity
8
1
62
256
6
ByLayer
370
13
48
1
60
0
100
AcDbCircle
10
147.196476
20
5.473169
30
0
40
3.07132534818152
39
0
210
0
220
0
230
1
0
ELLIPSE
5
F4
100
AcDbEntity
8
1
62
256
6
ByLayer
370
18
48
1
60
0
100
AcDbEllipse
10
123.931321
20
-6.477682
30
0
11
105.715921080449
21
34.338683077839
31
0
210
0
220
0
230
1
40
0.005296
41
2.21997366576575
42
2.50409001734264
0
ELLIPSE
5
F5
100
AcDbEntity
8
1
62
256
6
ByLayer
370
18
48
1
60
0
100
AcDbEllipse
10
-6.763884
20
0
30
0
11
18.7348357595673
21
39.4834983055047
31
0
210
0
220
0
230
1
40
0.341999
41
-1.08794676716922
42
-0.161099005228932
0
ELLIPSE
5
F6
100
AcDbEntity
8
1
62
256
6
ByLayer
370
18
48
1
60
0
100
AcDbEllipse
10
30.763884
20
0
30
0
11
18.7348357595647
21
39.4834983055009
31
0
210
0
220
0
230
1
40
0.341999
41
2.0536458864205
42
2.98049364836085
0
ELLIPSE
5
F7
100
AcDbEntity
8
1
62
256
6
ByLayer
370
18
48
1
60
0
100
AcDbEllipse
10
249.702977
20
9.257529
30
0
11
151.081589743211
21
-26.6316159080927
31
0
210
0
220
0
230
1
40
0.002841
41
3.11662256996628
42
-2.61353925850848
0
ELLIPSE
5
F8
100
AcDbEntity
8
1
62
256
6
ByLayer
370
18
48
1
60
0
100
AcDbEllipse
10
72.854433
20
-32.985047
30
0
11
46.5129770705652
21
65.0939231276826
31
0
210
0
220
0
230
1
40
0.999974
41
-0.00278177914939822
42
0.00325132512054416
0
ELLIPSE
5
F9
100
AcDbEntity
8
1
62
256
6
ByLayer
370
18
48
1
60
0
100
AcDbEllipse
10
-6.763884
20
0
30
0
11
18.7348357595647
21
-39.4834983055015
31
0
210
0
220
0
230
1
40
0.341999
41
0.161099005228944
42
1.08794676716928
0
ELLIPSE
5
FA
100
AcDbEntity
8
1
62
256
6
ByLayer
370
18
48
1
60
0
100
AcDbEllipse
10
30.763884
20
0
30
0
11
18.7348357595641
21
-39.4834983055003
31
0
210
0
220
0
230
1
40
0.341999
41
-2.98049364836085
42
-2.05364588642049
0
ELLIPSE
5
FB
100
AcDbEntity
8
1
62
256
6
ByLayer
370
18
48
1
60
0
100
AcDbEllipse
10
241.49779
20
-211.437303
30
0
11
191.01668566749
21
161.257370945979
31
0
210
0
220
0
230
1
40
0.999931
41
1.56912867324825
42
1.57298766155886
0
ELLIPSE
5
FC
100
AcDbEntity
8
1
62
256
6
ByLayer
370
18
48
1
60
0
100
AcDbEllipse
10
154.749084
20
14.608428
30
0
11
6.70599362079495
21
4.54309066753426
31
0
210
0
220
0
230
1
40
1
41
3.11739933524961
42
3.12509661851799
0
ELLIPSE
5
FD
100
AcDbEntity
8
1
62
256
6
ByLayer
370
18
48
1
60
0
100
AcDbEllipse
10
145.256965
20
-6.220124
30
0
11
4.9596557630622E-16
21
8.10000004912855
31
0
210
0
220
0
230
1
40
1
41
0.136638364771945
42
0.144335648698621
0
ELLIPSE
5
FE
100
AcDbEntity
8
1
62
256
6
ByLayer
370
18
48
1
60
0
100
AcDbEllipse
10
130.839026
20
15.402146
30
0
11
-1.00203339654517
21
-1.84551593659013
31
0
210
0
220
0
230
1
40
0.190809
41
-2.44147592840419
42
-2.30804455094506
0
ELLIPSE
5
FF
100
AcDbEntity
8
1
62
256
6
ByLayer
370
18
48
1
60
0
100
AcDbEllipse
10
130.839026
20
15.402146
30
0
11
-1.00203339654517
21
-1.84551593659013
31
0
210
0
220
0
230
1
40
0.190809
41
-0.786721985243811
42
-0.700116725185541
0
POINT
5
70
100
AcDbEntity
8
2
62
256
6
ByLayer
370
18
48
1
60
0
100
AcDbPoint
10
147.196476
20
5.473169
30
0
39
0
210
0
220
0
230
1
50
360
0
POINT
5
72
100
AcDbEntity
8
2
62
256
6
ByLayer
370
18
48
1
60
0
100
AcDbPoint
10
0
20
0
30
0
39
0
210
0
220
0
230
1
50
360
0
POINT
5
73
100
AcDbEntity
8
2
62
256
6
ByLayer
370
18
48
1
60
0
100
AcDbPoint
10
146.898724
20
5.66381
30
0
39
0
210
0
220
0
230
1
50
360
0
POINT
5
74
100
AcDbEntity
8
2
62
256
6
ByLayer
370
18
48
1
60
0
100
AcDbPoint
10
147.196476
20
5.473169
30
0
39
0
210
0
220
0
230
1
50
360
0
POINT
5
75
100
AcDbEntity
8
2
62
256
6
ByLayer
370
18
48
1
60
0
100
AcDbPoint
10
147.196476
20
5.473169
30
0
39
0
210
0
220
0
230
1
50
360
0
POINT
5
76
100
AcDbEntity
8
2
62
256
6
ByLayer
370
18
48
1
60
0
100
AcDbPoint
10
147.196476
20
-5.473169
30
0
39
0
210
0
220
0
230
1
50
360
0
POINT
5
77
100
AcDbEntity
8
2
62
256
6
ByLayer
370
18
48
1
60
0
100
AcDbPoint
10
121.396426
20
-19.227305
30
0
39
0
210
0
220
0
230
1
50
360
0
POINT
5
78
100
AcDbEntity
8
2
62
256
6
ByLayer
370
18
48
1
60
0
100
AcDbPoint
10
0
20
0
30
0
39
0
210
0
220
0
230
1
50
360
0
POINT
5
79
100
AcDbEntity
8
2
62
256
6
ByLayer
370
18
48
1
60
0
100
AcDbPoint
10
141.322015
20
-7.051368
30
0
39
0
210
0
220
0
230
1
50
360
0
POINT
5
7A
100
AcDbEntity
8
SK2
62
256
6
ByLayer
370
18
48
1
60
0
100
AcDbPoint
10
121.485666
20
-19.241439
30
0
39
0
210
0
220
0
230
1
50
360
0
POINT
5
7C
100
AcDbEntity
8
SK2
62
256
6
ByLayer
370
18
48
1
60
0
100
AcDbPoint
10
156.233671
20
-2.676522
30
0
39
0
210
0
220
0
230
1
50
360
0
POINT
5
7D
100
AcDbEntity
8
SK2
62
256
6
ByLayer
370
18
48
1
60
0
100
AcDbPoint
10
157.868589
20
-1.204435
30
0
39
0
210
0
220
0
230
1
50
360
0
POINT
5
7E
100
AcDbEntity
8
SK2
62
256
6
ByLayer
370
18
48
1
60
0
100
AcDbPoint
10
155.236065
20
-0.487477
30
0
39
0
210
0
220
0
230
1
50
360
0
POINT
5
7F
100
AcDbEntity
8
SK2
62
256
6
ByLayer
370
18
48
1
60
0
100
AcDbPoint
10
157.419667
20
-0.219365
30
0
39
0
210
0
220
0
230
1
50
360
0
POINT
5
80
100
AcDbEntity
8
SK2
62
256
6
ByLayer
370
18
48
1
60
0
100
AcDbPoint
10
159.20625
20
0
30
0
39
0
210
0
220
0
230
1
50
360
0
POINT
5
81
100
AcDbEntity
8
2
62
256
6
ByLayer
370
18
48
1
60
0
100
AcDbPoint
10
147.196476
20
-5.473169
30
0
39
0
210
0
220
0
230
1
50
360
0
POINT
5
82
100
AcDbEntity
8
2
62
256
6
ByLayer
370
18
48
1
60
0
100
AcDbPoint
10
147.196476
20
-5.473169
30
0
39
0
210
0
220
0
230
1
50
360
0
POINT
5
83
100
AcDbEntity
8
81
62
256
6
ByLayer
370
18
48
1
60
0
100
AcDbPoint
10
160.328782
20
0
30
0
39
0
210
0
220
0
230
1
50
360
0
POINT
5
85
100
AcDbEntity
8
80
62
256
6
ByLayer
370
18
48
1
60
0
100
AcDbPoint
10
0
20
0
30
0
39
0
210
0
220
0
230
1
50
360
0
POINT
5
87
100
AcDbEntity
8
1
62
256
6
ByLayer
370
18
48
1
60
1
100
AcDbPoint
10
160.328782
20
0
30
0
39
0
210
0
220
0
230
1
50
360
0
POINT
5
89
100
AcDbEntity
8
1
62
256
6
ByLayer
370
18
48
1
60
1
100
AcDbPoint
10
0
20
40
30
0
39
0
210
0
220
0
230
1
50
360
0
SPLINE
5
100
100
AcDbEntity
8
1
62
256
6
ByLayer
370
18
48
1
60
0
100
AcDbSpline
70
4
71
3
72
16
73
12
40
0
40
0
40
0
40
0
40
0.124999999999984
40
0.124999999999984
40
0.249999999999967
40
0.249999999999967
40
0.499999999999978
40
0.499999999999978
40
0.749999999999989
40
0.749999999999989
40
1
40
1
40
1
40
1
41
1
10
148.147809812546
20
6.62851719415622
30
0
41
1
10
148.16192900489
20
6.64188855502175
30
0
41
1
10
148.172124793521
20
6.65892151741599
30
0
41
1
10
148.180852056301
20
6.69729959691975
30
0
41
1
10
148.179334122051
20
6.7184759972786
30
0
41
1
10
148.162586513026
20
6.77885279121637
30
0
41
1
10
148.137283344155
20
6.81545765616292
30
0
41
1
10
148.078170919897
20
6.8802852362063
30
0
41
1
10
148.043847514452
20
6.90863035632447
30
0
41
1
10
147.970838387622
20
6.95860836458081
30
0
41
1
10
147.931910120925
20
6.98028890520024
30
0
41
1
10
147.891667415261
20
6.99862856276542
30
0
0
SPLINE
5
101
100
AcDbEntity
8
1
62
256
6
ByLayer
370
18
48
1
60
0
100
AcDbSpline
70
4
71
3
72
18
73
14
40
0
40
0
40
0
40
0
40
0.125000000000001
40
0.125000000000001
40
0.250000000000002
40
0.250000000000002
40
0.500000000000001
40
0.500000000000001
40
0.750000000000001
40
0.750000000000001
40
0.875
40
0.875
40
1
40
1
40
1
40
1
41
1
10
145.740113994147
20
5.72172884850073
30
0
41
1
10
145.771841139895
20
5.72548782364376
30
0
41
1
10
145.801903275804
20
5.73992830998887
30
0
41
1
10
145.857713312959
20
5.77791625655181
30
0
41
1
10
145.883253157599
20
5.80157366845947
30
0
41
1
10
145.953537140817
20
5.87995461457254
30
0
41
1
10
145.992249077455
20
5.94217593059761
30
0
41
1
10
146.052517223681
20
6.07445436275441
30
0
41
1
10
146.07402005286
20
6.1442401409162
30
0
41
1
10
146.087085228617
20
6.24892145146202
30
0
41
1
10
146.088162651372
20
6.28379181335512
30
0
41
1
10
146.080215818967
20
6.35067500681032
30
0
41
1
10
146.071413053495
20
6.38280616545376
30
0
41
1
10
146.053426310345
20
6.40922997970463
30
0
0
SPLINE
5
102
100
AcDbEntity
8
1
62
256
6
ByLayer
370
18
48
1
60
0
100
AcDbSpline
70
4
71
3
72
8
73
4
40
0
40
0
40
0
40
0
40
1
40
1
40
1
40
1
41
1
10
148.672703201412
20
5.2269638004525
30
0
41
1
10
148.666082101822
20
5.22617934448616
30
0
41
1
10
148.659460156474
20
5.22539478831584
30
0
41
1
10
148.652837332396
20
5.22461012803521
30
0
0
SPLINE
5
103
100
AcDbEntity
8
1
62
256
6
ByLayer
370
18
48
1
60
0
100
AcDbSpline
70
4
71
3
72
16
73
12
40
0
40
0
40
0
40
0
40
0.249999999999965
40
0.249999999999965
40
0.499999999999929
40
0.499999999999929
40
0.749999999999894
40
0.749999999999894
40
0.874999999999947
40
0.874999999999947
40
1
40
1
40
1
40
1
41
1
10
146.222985228318
20
6.83795274324052
30
0
41
1
10
146.25901410786
20
6.86365189326193
30
0
41
1
10
146.297166414884
20
6.88647521748766
30
0
41
1
10
146.377042685289
20
6.9247596537522
30
0
41
1
10
146.418721029275
20
6.94030657281243
30
0
41
1
10
146.504613867849
20
6.95910888379149
30
0
41
1
10
146.548995314754
20
6.96276703581196
30
0
41
1
10
146.610086537622
20
6.94676612462632
30
0
41
1
10
146.62888694421
20
6.93748408134519
30
0
41
1
10
146.657494727729
20
6.91082205516531
30
0
41
1
10
146.667078735838
20
6.89356583545333
30
0
41
1
10
146.671582274406
20
6.87472288197168
30
0
0
SPLINE
5
104
100
AcDbEntity
8
1
62
256
6
ByLayer
370
18
48
1
60
0
100
AcDbSpline
70
4
71
3
72
18
73
14
40
0
40
0
40
0
40
0
40
0.125000000000001
40
0.125000000000001
40
0.250000000000002
40
0.250000000000002
40
0.500000000000001
40
0.500000000000001
40
0.750000000000001
40
0.750000000000001
40
0.875
40
0.875
40
1
40
1
40
1
40
1
41
1
10
148.652837332396
20
5.22461012803521
30
0
41
1
10
148.621110186648
20
5.22085115289218
30
0
41
1
10
148.591048050739
20
5.20641066654707
30
0
41
1
10
148.535238013585
20
5.16842271998414
30
0
41
1
10
148.509698168944
20
5.14476530807647
30
0
41
1
10
148.439414185726
20
5.0663843619634
30
0
41
1
10
148.400702249089
20
5.00416304593835
30
0
41
1
10
148.340434102862
20
4.87188461378153
30
0
41
1
10
148.318931273683
20
4.80209883561974
30
0
41
1
10
148.305866097926
20
4.69741752507394
30
0
41
1
10
148.304788675171
20
4.66254716318082
30
0
41
1
10
148.312735507576
20
4.59566396972562
30
0
41
1
10
148.321538273049
20
4.56353281108221
30
0
41
1
10
148.339525016198
20
4.53710899683131
30
0
0
SPLINE
5
105
100
AcDbEntity
8
1
62
256
6
ByLayer
370
18
48
1
60
0
100
AcDbSpline
70
4
71
3
72
16
73
12
40
0
40
0
40
0
40
0
40
0.125000000000047
40
0.125000000000047
40
0.250000000000094
40
0.250000000000094
40
0.500000000000062
40
0.500000000000062
40
0.750000000000031
40
0.750000000000031
40
1
40
1
40
1
40
1
41
1
10
148.598602483716
20
5.99652917764686
30
0
41
1
10
148.61584211319
20
6.0055258470006
30
0
41
1
10
148.635266519619
20
6.00962076441243
30
0
41
1
10
148.674395025522
20
6.00537787296997
30
0
41
1
10
148.693923514373
20
5.99704827635628
30
0
41
1
10
148.745558406415
20
5.96155633955263
30
0
41
1
10
148.771931080188
20
5.92571434503867
30
0
41
1
10
148.813981638459
20
5.84871665426081
30
0
41
1
10
148.829607868293
20
5.8070349683905
30
0
41
1
10
148.85309355679
20
5.72173223487286
30
0
41
1
10
148.86091910673
20
5.67786634199834
30
0
41
1
10
148.865157850214
20
5.63384530779288
30
0
0
SPLINE
5
106
100
AcDbEntity
8
1
62
256
6
ByLayer
370
18
48
1
60
0
100
AcDbSpline
70
4
71
3
72
8
73
4
40
0
40
0
40
0
40
0
40
1
40
1
40
1
40
1
41
1
10
146.053426310345
20
6.40922997970463
30
0
41
1
10
146.049673537442
20
6.41474307194625
30
0
41
1
10
146.045921262465
20
6.42025543269963
30
0
41
1
10
146.04216946673
20
6.42576708941127
30
0
0
SPLINE
5
107
100
AcDbEntity
8
1
62
256
6
ByLayer
370
18
48
1
60
0
100
AcDbSpline
70
4
71
3
72
16
73
12
40
0
40
0
40
0
40
0
40
0.124999999999996
40
0.124999999999996
40
0.249999999999991
40
0.249999999999991
40
0.499999999999994
40
0.499999999999994
40
0.749999999999997
40
0.749999999999997
40
1
40
1
40
1
40
1
41
1
10
146.04216946673
20
6.42576708941127
30
0
41
1
10
146.025758307784
20
6.43619871180996
30
0
41
1
10
146.012499802064
20
6.45097328252504
30
0
41
1
10
145.996610000887
20
6.48698100837092
30
0
41
1
10
145.994059398733
20
6.50805797412022
30
0
41
1
10
145.998978871613
20
6.57052107075182
30
0
41
1
10
146.016832612498
20
6.6112814734619
30
0
41
1
10
146.062489289609
20
6.68619717055665
30
0
41
1
10
146.090773573528
20
6.7205707254935
30
0
41
1
10
146.152905063518
20
6.78356129511627
30
0
41
1
10
146.186981266137
20
6.81227136660024
30
0
41
1
10
146.222985228318
20
6.83795274324052
30
0
0
SPLINE
5
108
100
AcDbEntity
8
1
62
256
6
ByLayer
370
18
48
1
60
0
100
AcDbSpline
70
4
71
3
72
16
73
12
40
0
40
0
40
0
40
0
40
0.12499999999995
40
0.12499999999995
40
0.2499999999999
40
0.2499999999999
40
0.499999999999934
40
0.499999999999934
40
0.749999999999967
40
0.749999999999967
40
1
40
1
40
1
40
1
41
1
10
146.948655039368
20
3.9972121977458
30
0
41
1
10
146.947826568841
20
3.97778390599336
30
0
41
1
10
146.941660668132
20
3.95891441786645
30
0
41
1
10
146.918421963405
20
3.92714958346306
30
0
41
1
10
146.901444076709
20
3.91440221432745
30
0
41
1
10
146.844889711787
20
3.88743105449947
30
0
41
1
10
146.800663297129
20
3.88251264630335
30
0
41
1
10
146.712956061747
20
3.88459463998646
30
0
41
1
10
146.669045547994
20
3.89190277091993
30
0
41
1
10
146.583428369507
20
3.91421493481479
30
0
41
1
10
146.541526616948
20
3.92937075620534
30
0
41
1
10
146.501283911283
20
3.94771041377055
30
0
0
SPLINE
5
109
100
AcDbEntity
8
1
62
256
6
ByLayer
370
18
48
1
60
0
100
AcDbSpline
70
4
71
3
72
8
73
4
40
0
40
0
40
0
40
0
40
1
40
1
40
1
40
1
41
1
10
145.814298821745
20
4.9512899565726
30
0
41
1
10
145.807647957359
20
4.95079650602494
30
0
41
1
10
145.800997975423
20
4.95030312094931
30
0
41
1
10
145.794348842827
20
4.94980979888908
30
0
0
SPLINE
5
10A
100
AcDbEntity
8
1
62
256
6
ByLayer
370
18
48
1
60
0
100
AcDbSpline
70
4
71
3
72
8
73
4
40
0
40
0
40
0
40
0
40
1
40
1
40
1
40
1
41
1
10
147.444296287175
20
6.94912677879017
30
0
41
1
10
147.441398950313
20
6.9431218000183
30
0
41
1
10
147.438501243355
20
6.93711605418926
30
0
41
1
10
147.435603151871
20
6.93110951140002
30
0
0
SPLINE
5
10B
100
AcDbEntity
8
1
62
256
6
ByLayer
370
18
48
1
60
0
100
AcDbSpline
70
4
71
3
72
16
73
12
40
0
40
0
40
0
40
0
40
0.25
40
0.25
40
0.5
40
0.5
40
0.75
40
0.75
40
0.875
40
0.875
40
1
40
1
40
1
40
1
41
1
10
147.891667415261
20
6.99862856276542
30
0
41
1
10
147.851396858715
20
7.01698091270799
30
0
41
1
10
147.809590621462
20
7.03210510481
30
0
41
1
10
147.723876888298
20
7.05444503723976
30
0
41
1
10
147.679997800874
20
7.06175371266332
30
0
41
1
10
147.592095405597
20
7.06382144599371
30
0
41
1
10
147.547831362562
20
7.05894400816075
30
0
41
1
10
147.490915675314
20
7.03158032391934
30
0
41
1
10
147.474231782501
20
7.01888153122292
30
0
41
1
10
147.451236958971
20
6.98725073912581
30
0
41
1
10
147.445121678031
20
6.96848284981391
30
0
41
1
10
147.444296287175
20
6.94912677879017
30
0
0
SPLINE
5
10C
100
AcDbEntity
8
1
62
256
6
ByLayer
370
18
48
1
60
0
100
AcDbSpline
70
4
71
3
72
8
73
4
40
0
40
0
40
0
40
0
40
1
40
1
40
1
40
1
41
1
10
147.721369052138
20
4.07161609456426
30
0
41
1
10
147.717379143548
20
4.07695790702687
30
0
41
1
10
147.713388725299
20
4.08230040183585
30
0
41
1
10
147.709397777524
20
4.08764360559189
30
0
0
SPLINE
5
10D
100
AcDbEntity
8
1
62
256
6
ByLayer
370
18
48
1
60
0
100
AcDbSpline
70
4
71
3
72
18
73
14
40
0
40
0
40
0
40
0
40
0.124999999999956
40
0.124999999999956
40
0.249999999999912
40
0.249999999999912
40
0.499999999999911
40
0.499999999999911
40
0.74999999999991
40
0.74999999999991
40
0.874999999999955
40
0.874999999999955
40
1
40
1
40
1
40
1
41
1
10
147.435603151871
20
6.93110951140002
30
0
41
1
10
147.421705455326
20
6.90230534512216
30
0
41
1
10
147.398232025067
20
6.87856333121306
30
0
41
1
10
147.344071286748
20
6.83813477166728
30
0
41
1
10
147.313349477445
20
6.8216825461418
30
0
41
1
10
147.216234764701
20
6.7807390130493
30
0
41
1
10
147.144709977974
20
6.76440584911148
30
0
41
1
10
146.999869379552
20
6.75055348191194
30
0
41
1
10
146.927046031932
20
6.75303993825997
30
0
41
1
10
146.824504027466
20
6.77460172787892
30
0
41
1
10
146.791070368959
20
6.78495021352
30
0
41
1
10
146.730657437263
20
6.81403524311713
30
0
41
1
10
146.70279317355
20
6.83293676926755
30
0
41
1
10
146.683553549019
20
6.85869537094405
30
0
0
SPLINE
5
10E
100
AcDbEntity
8
1
62
256
6
ByLayer
370
18
48
1
60
0
100
AcDbSpline
70
4
71
3
72
8
73
4
40
0
40
0
40
0
40
0
40
1
40
1
40
1
40
1
41
1
10
146.671582274406
20
6.87472288197171
30
0
41
1
10
146.675572182996
20
6.8693810695091
30
0
41
1
10
146.679562601244
20
6.86403857470012
30
0
41
1
10
146.683553549019
20
6.85869537094408
30
0
0
SPLINE
5
10F
100
AcDbEntity
8
1
62
256
6
ByLayer
370
18
48
1
60
0
100
AcDbSpline
70
4
71
3
72
8
73
4
40
0
40
0
40
0
40
0
40
1
40
1
40
1
40
1
41
1
10
145.720248125131
20
5.71937517608345
30
0
41
1
10
145.726869224721
20
5.72015963204981
30
0
41
1
10
145.733491170069
20
5.72094418822013
30
0
41
1
10
145.740113994147
20
5.72172884850073
30
0
0
SPLINE
5
110
100
AcDbEntity
8
1
62
256
6
ByLayer
370
18
48
1
60
0
100
AcDbSpline
70
4
71
3
72
8
73
4
40
0
40
0
40
0
40
0
40
1
40
1
40
1
40
1
41
1
10
148.339525016198
20
4.53710899683131
30
0
41
1
10
148.343277789101
20
4.53159590458972
30
0
41
1
10
148.347030064078
20
4.52608354383634
30
0
41
1
10
148.350781859813
20
4.52057188712468
30
0
0
SPLINE
5
111
100
AcDbEntity
8
1
62
256
6
ByLayer
370
18
48
1
60
0
100
AcDbSpline
70
4
71
3
72
16
73
12
40
0
40
0
40
0
40
0
40
0.250000000000036
40
0.250000000000036
40
0.500000000000071
40
0.500000000000071
40
0.750000000000107
40
0.750000000000107
40
0.875000000000053
40
0.875000000000053
40
1
40
1
40
1
40
1
41
1
10
148.169966098225
20
4.10838623329545
30
0
41
1
10
148.133937218683
20
4.08268708327401
30
0
41
1
10
148.095784911659
20
4.05986375904828
30
0
41
1
10
148.015908641254
20
4.02157932278374
30
0
41
1
10
147.974230297268
20
4.00603240372351
30
0
41
1
10
147.888337458695
20
3.98723009274445
30
0
41
1
10
147.843956011789
20
3.983571940724
30
0
41
1
10
147.782864788922
20
3.99957285190962
30
0
41
1
10
147.764064382333
20
4.00885489519075
30
0
41
1
10
147.735456598815
20
4.03551692137063
30
0
41
1
10
147.725872590705
20
4.05277314108261
30
0
41
1
10
147.721369052138
20
4.07161609456426
30
0
0
SPLINE
5
112
100
AcDbEntity
8
1
62
256
6
ByLayer
370
18
48
1
60
0
100
AcDbSpline
70
4
71
3
72
8
73
4
40
0
40
0
40
0
40
0
40
1
40
1
40
1
40
1
41
1
10
148.578652504798
20
5.99504901996335
30
0
41
1
10
148.585303369184
20
5.99554247051103
30
0
41
1
10
148.59195335112
20
5.99603585558665
30
0
41
1
10
148.598602483716
20
5.99652917764686
30
0
0
SPLINE
5
113
100
AcDbEntity
8
1
62
256
6
ByLayer
370
18
48
1
60
0
100
AcDbSpline
70
4
71
3
72
18
73
14
40
0
40
0
40
0
40
0
40
0.125
40
0.125
40
0.25
40
0.25
40
0.5
40
0.5
40
0.75
40
0.75
40
0.875
40
0.875
40
1
40
1
40
1
40
1
41
1
10
146.253036108399
20
4.33620296582467
30
0
41
1
10
146.265644313307
20
4.36555896760339
30
0
41
1
10
146.268169553244
20
4.39881378416507
30
0
41
1
10
146.26317604506
20
4.46614066740867
30
0
41
1
10
146.255458047681
20
4.50008752762997
30
0
41
1
10
146.222720148783
20
4.60014571563249
30
0
41
1
10
146.188190876767
20
4.6647818942028
30
0
41
1
10
146.10376846726
20
4.78311485595242
30
0
41
1
10
146.054083625138
20
4.83662974135558
30
0
41
1
10
145.969959538782
20
4.90028517073841
30
0
41
1
10
145.940299630922
20
4.91865342716193
30
0
41
1
10
145.878403670101
20
4.94521286514671
30
0
41
1
10
145.846175887726
20
4.95365502594598
30
0
41
1
10
145.814298821745
20
4.9512899565726
30
0
0
SPLINE
5
114
100
AcDbEntity
8
1
62
256
6
ByLayer
370
18
48
1
60
0
100
AcDbSpline
70
4
71
3
72
16
73
12
40
0
40
0
40
0
40
0
40
0.125
40
0.125
40
0.25
40
0.25
40
0.5
40
0.5
40
0.75
40
0.75
40
1
40
1
40
1
40
1
41
1
10
145.794348842827
20
4.94980979888908
30
0
41
1
10
145.777109213354
20
4.94081312953534
30
0
41
1
10
145.757684806925
20
4.93671821212351
30
0
41
1
10
145.718556301021
20
4.94096110356597
30
0
41
1
10
145.69902781217
20
4.94929070017966
30
0
41
1
10
145.647392920128
20
4.98478263698328
30
0
41
1
10
145.621020246355
20
5.0206246314973
30
0
41
1
10
145.578969688085
20
5.09762232227513
30
0
41
1
10
145.56334345825
20
5.13930400814544
30
0
41
1
10
145.539857769753
20
5.22460674166308
30
0
41
1
10
145.532032219813
20
5.2684726345376
30
0
41
1
10
145.527793476329
20
5.31249366874306
30
0
0
SPLINE
5
115
100
AcDbEntity
8
1
62
256
6
ByLayer
370
18
48
1
60
0
100
AcDbSpline
70
4
71
3
72
16
73
12
40
0
40
0
40
0
40
0
40
0.25
40
0.25
40
0.5
40
0.5
40
0.75
40
0.75
40
0.875
40
0.875
40
1
40
1
40
1
40
1
41
1
10
146.501283911283
20
3.94771041377055
30
0
41
1
10
146.461013354738
20
3.9660627637131
30
0
41
1
10
146.422171622647
20
3.98769196869625
30
0
41
1
10
146.34907819307
20
4.0377246298946
30
0
41
1
10
146.31477499422
20
4.0660456750436
30
0
41
1
10
146.255545295976
20
4.13102989976204
30
0
41
1
10
146.230186519942
20
4.16763628422888
30
0
41
1
10
146.213498104079
20
4.22854329077305
30
0
41
1
10
146.212136386065
20
4.24946594212034
30
0
41
1
10
146.220922486294
20
4.28757202248349
30
0
41
1
10
146.231074806883
20
4.30450012683244
30
0
41
1
10
146.245141513997
20
4.31782178237972
30
0
0
SPLINE
5
116
100
AcDbEntity
8
1
62
256
6
ByLayer
370
18
48
1
60
0
100
AcDbSpline
70
4
71
3
72
18
73
14
40
0
40
0
40
0
40
0
40
0.125
40
0.125
40
0.25
40
0.25
40
0.5
40
0.5
40
0.75
40
0.75
40
0.875
40
0.875
40
1
40
1
40
1
40
1
41
1
10
147.709397777524
20
4.08764360559189
30
0
41
1
10
147.690278836684
20
4.11324063222759
30
0
41
1
10
147.662741940712
20
4.13205496244416
30
0
41
1
10
147.601938395373
20
4.16139389912482
30
0
41
1
10
147.568680553353
20
4.17168334743846
30
0
41
1
10
147.465658671237
20
4.19336058932791
30
0
41
1
10
147.392417462584
20
4.19577545187317
30
0
41
1
10
147.24772690685
20
4.18182998146597
30
0
41
1
10
147.17653923555
20
4.16555908870734
30
0
41
1
10
147.079349973437
20
4.12453320754437
30
0
41
1
10
147.048612642821
20
4.10803110207479
30
0
41
1
10
146.994663514405
20
4.06770734660435
30
0
41
1
10
146.971238497503
20
4.04401834876018
30
0
41
1
10
146.957348174672
20
4.01522946513592
30
0
0
SPLINE
5
117
100
AcDbEntity
8
1
62
256
6
ByLayer
370
18
48
1
60
0
100
AcDbSpline
70
4
71
3
72
16
73
12
40
0
40
0
40
0
40
0
40
0.250000000000027
40
0.250000000000027
40
0.500000000000053
40
0.500000000000053
40
0.75000000000008
40
0.75000000000008
40
0.87500000000004
40
0.87500000000004
40
1
40
1
40
1
40
1
41
1
10
145.527793476329
20
5.31249366874306
30
0
41
1
10
145.523551799326
20
5.35654516870704
30
0
41
1
10
145.522862374259
20
5.40099769791593
30
0
41
1
10
145.529645215087
20
5.48931479537885
30
0
41
1
10
145.537020360223
20
5.53318275958807
30
0
41
1
10
145.563683500553
20
5.61696929528554
30
0
41
1
10
145.582706171425
20
5.65723383177286
30
0
41
1
10
145.627108978429
20
5.70213992713141
30
0
41
1
10
145.644547667004
20
5.71378053519757
30
0
41
1
10
145.681941550751
20
5.72522458938082
30
0
41
1
10
145.70167787945
20
5.72489647401781
30
0
41
1
10
145.720248125131
20
5.71937517608345
30
0
0
SPLINE
5
118
100
AcDbEntity
8
1
62
256
6
ByLayer
370
18
48
1
60
0
100
AcDbSpline
70
4
71
3
72
8
73
4
40
0
40
0
40
0
40
0
40
1
40
1
40
1
40
1
41
1
10
148.139915218144
20
6.6101360107113
30
0
41
1
10
148.142547094447
20
6.61626387474797
30
0
41
1
10
148.145178621546
20
6.62239092572725
30
0
41
1
10
148.147809812546
20
6.62851719415622
30
0
0
SPLINE
5
119
100
AcDbEntity
8
1
62
256
6
ByLayer
370
18
48
1
60
0
100
AcDbSpline
70
4
71
3
72
16
73
12
40
0
40
0
40
0
40
0
40
0.124999999999996
40
0.124999999999996
40
0.249999999999991
40
0.249999999999991
40
0.499999999999994
40
0.499999999999994
40
0.749999999999997
40
0.749999999999997
40
1
40
1
40
1
40
1
41
1
10
148.350781859813
20
4.52057188712468
30
0
41
1
10
148.367193018759
20
4.51014026472598
30
0
41
1
10
148.380451524479
20
4.4953656940109
30
0
41
1
10
148.396341325656
20
4.45935796816505
30
0
41
1
10
148.398891927811
20
4.43828100241575
30
0
41
1
10
148.39397245493
20
4.37581790578415
30
0
41
1
10
148.376118714045
20
4.33505750307404
30
0
41
1
10
148.330462036934
20
4.26014180597932
30
0
41
1
10
148.302177753015
20
4.22576825104244
30
0
41
1
10
148.240046263025
20
4.16277768141967
30
0
41
1
10
148.205970060406
20
4.1340676099357
30
0
41
1
10
148.169966098225
20
4.10838623329545
30
0
0
SPLINE
5
11A
100
AcDbEntity
8
1
62
256
6
ByLayer
370
18
48
1
60
0
100
AcDbSpline
70
4
71
3
72
8
73
4
40
0
40
0
40
0
40
0
40
1
40
1
40
1
40
1
41
1
10
146.245141513997
20
4.31782178237972
30
0
41
1
10
146.247772704997
20
4.3239480508087
30
0
41
1
10
146.250404232097
20
4.330075101788
30
0
41
1
10
146.253036108399
20
4.33620296582467
30
0
0
SPLINE
5
11B
100
AcDbEntity
8
1
62
256
6
ByLayer
370
18
48
1
60
0
100
AcDbSpline
70
4
71
3
72
20
73
16
40
0
40
0
40
0
40
0
40
0.124999999999987
40
0.124999999999987
40
0.249999999999974
40
0.249999999999974
40
0.374999999999961
40
0.374999999999961
40
0.499999999999948
40
0.499999999999948
40
0.749999999999976
40
0.749999999999976
40
0.874999999999988
40
0.874999999999988
40
1
40
1
40
1
40
1
41
1
10
148.578652504798
20
5.99504901996337
30
0
41
1
10
148.546649551384
20
5.99267461056755
30
0
41
1
10
148.514172191529
20
6.00123037223119
30
0
41
1
10
148.452113420926
20
6.02797421592334
30
0
41
1
10
148.422711057619
20
6.04624801975231
30
0
41
1
10
148.366822619829
20
6.08857449970864
30
0
41
1
10
148.340318312461
20
6.11279664998835
30
0
41
1
10
148.291301801993
20
6.16451949880437
30
0
41
1
10
148.268498385412
20
6.19226772341179
30
0
41
1
10
148.205042593527
20
6.28106164581888
30
0
41
1
10
148.170395241739
20
6.34577901685574
30
0
41
1
10
148.137510663962
20
6.44615491593103
30
0
41
1
10
148.129775875572
20
6.48021709945303
30
0
41
1
10
148.124783953326
20
6.54746901385721
30
0
41
1
10
148.127286223696
20
6.58073160412124
30
0
41
1
10
148.139915218144
20
6.6101360107113
30
0
0
SPLINE
5
11C
100
AcDbEntity
8
1
62
256
6
ByLayer
370
18
48
1
60
0
100
AcDbSpline
70
4
71
3
72
8
73
4
40
0
40
0
40
0
40
0
40
1
40
1
40
1
40
1
41
1
10
146.957348174672
20
4.01522946513594
30
0
41
1
10
146.954450083189
20
4.00922292234668
30
0
41
1
10
146.95155237623
20
4.00321717651767
30
0
41
1
10
146.948655039368
20
3.9972121977458
30
0
0
SPLINE
5
11D
100
AcDbEntity
8
1
62
256
6
ByLayer
370
18
48
1
60
0
100
AcDbSpline
70
4
71
3
72
16
73
12
40
0
40
0
40
0
40
0
40
0.250000000000026
40
0.250000000000026
40
0.500000000000052
40
0.500000000000052
40
0.750000000000078
40
0.750000000000078
40
0.875000000000039
40
0.875000000000039
40
1
40
1
40
1
40
1
41
1
10
148.865157850214
20
5.63384530779288
30
0
41
1
10
148.869399527217
20
5.5897938078289
30
0
41
1
10
148.870088952284
20
5.54534127862001
30
0
41
1
10
148.863306111456
20
5.4570241811571
30
0
41
1
10
148.85593096632
20
5.41315621694787
30
0
41
1
10
148.829267825991
20
5.3293696812504
30
0
41
1
10
148.810245155118
20
5.28910514476311
30
0
41
1
10
148.765842348114
20
5.24419904940456
30
0
41
1
10
148.74840365954
20
5.2325584413384
30
0
41
1
10
148.711009775792
20
5.22111438715513
30
0
41
1
10
148.691273447093
20
5.22144250251816
30
0
41
1
10
148.672703201412
20
5.2269638004525
30
0
0
SPLINE
5
11E
100
AcDbEntity
8
SK1
62
256
6
ByLayer
370
18
48
1
60
0
100
AcDbSpline
70
4
71
3
72
28
73
24
40
0
40
0
40
0
40
0
40
0.0625000000000002
40
0.0625000000000002
40
0.0937500000000003
40
0.0937500000000003
40
0.125
40
0.125
40
0.15625
40
0.15625
40
0.1875
40
0.1875
40
0.25
40
0.25
40
0.3125
40
0.3125
40
0.375
40
0.375
40
0.500000000000001
40
0.500000000000001
40
0.750000000000001
40
0.750000000000001
40
1
40
1
40
1
40
1
41
1
10
-0.394913799811292
20
-5.88258733498481
30
0
41
1
10
-0.427415916991812
20
-5.91038432473172
30
0
41
1
10
-0.464269441739042
20
-5.9341275144879
30
0
41
1
10
-0.527092922911898
20
-5.9538547579055
30
0
41
1
10
-0.549168402537219
20
-5.95756712702246
30
0
41
1
10
-0.593240589266905
20
-5.9579839341007
30
0
41
1
10
-0.615734996481486
20
-5.95461437182675
30
0
41
1
10
-0.657745921602782
20
-5.94220058775304
30
0
41
1
10
-0.677973782385628
20
-5.9330896884006
30
0
41
1
10
-0.715743791280282
20
-5.91124847506274
30
0
41
1
10
-0.733280688453043
20
-5.89860840862801
30
0
41
1
10
-0.783079686795759
20
-5.8570897535927
30
0
41
1
10
-0.81136689943969
20
-5.82586128337354
30
0
41
1
10
-0.86304405276185
20
-5.75990606707853
30
0
41
1
10
-0.886408174549835
20
-5.72489104401421
30
0
41
1
10
-0.929311633153446
20
-5.65344083322157
30
0
41
1
10
-0.948842305699053
20
-5.61701592648745
30
0
41
1
10
-1.00357369005189
20
-5.50628559579371
30
0
41
1
10
-1.03498549421174
20
-5.43054889899605
30
0
41
1
10
-1.12051689349504
20
-5.19977726740399
30
0
41
1
10
-1.16608317561654
20
-5.04086100737803
30
0
41
1
10
-1.24497216390387
20
-4.71983786028662
30
0
41
1
10
-1.27807437141861
20
-4.55737118832218
30
0
41
1
10
-1.30710678118654
20
-4.39330887788606
30
0
0
SPLINE
5
11F
100
AcDbEntity
8
SK1
62
256
6
ByLayer
370
18
48
1
60
0
100
AcDbSpline
70
4
71
3
72
24
73
20
40
0
40
0
40
0
40
0
40
0.0625000000000023
40
0.0625000000000023
40
0.0937500000000037
40
0.0937500000000037
40
0.125000000000005
40
0.125000000000005
40
0.187500000000006
40
0.187500000000006
40
0.250000000000007
40
0.250000000000007
40
0.375000000000006
40
0.375000000000006
40
0.500000000000005
40
0.500000000000005
40
0.750000000000002
40
0.750000000000002
40
1
40
1
40
1
40
1
41
1
10
-0.394913799811292
20
5.8825856729909
30
0
41
1
10
-0.382668191632831
20
5.87211279086657
30
0
41
1
10
-0.367643720680007
20
5.86387810556727
30
0
41
1
10
-0.343317431356482
20
5.86495514304281
30
0
41
1
10
-0.335228015879039
20
5.86767232938703
30
0
41
1
10
-0.32104061695658
20
5.87610899057313
30
0
41
1
10
-0.314848838487848
20
5.88165454576182
30
0
41
1
10
-0.298086681857313
20
5.90030478750046
30
0
41
1
10
-0.289582728448593
20
5.91492711296692
30
0
41
1
10
-0.275173744753175
20
5.94446441589309
30
0
41
1
10
-0.269245267236243
20
5.95968016956073
30
0
41
1
10
-0.253472917847993
20
6.00602750870996
30
0
41
1
10
-0.245624358768701
20
6.03795723443585
30
0
41
1
10
-0.232547642906589
20
6.10194739347932
30
0
41
1
10
-0.227377685183988
20
6.1341297290364
30
0
41
1
10
-0.214382828797895
20
6.23087903508417
30
0
41
1
10
-0.209070114923115
20
6.29528399711396
30
0
41
1
10
-0.202001510499876
20
6.42391230321689
30
0
41
1
10
-0.200337167165451
20
6.48813612986319
30
0
41
1
10
-0.200000000000003
20
6.55227712232445
30
0
0
SPLINE
5
120
100
AcDbEntity
8
SK1
62
256
6
ByLayer
370
18
48
1
60
0
100
AcDbSpline
70
4
71
3
72
26
73
22
40
0
40
0
40
0
40
0
40
0.25
40
0.25
40
0.5
40
0.5
40
0.624999999999999
40
0.624999999999999
40
0.749999999999998
40
0.749999999999998
40
0.812499999999999
40
0.812499999999999
40
0.874999999999999
40
0.874999999999999
40
0.906249999999999
40
0.906249999999999
40
0.9375
40
0.9375
40
0.96875
40
0.96875
40
1
40
1
40
1
40
1
41
1
10
-1.30710678118655
20
4.39331221032487
30
0
41
1
10
-1.27808207400781
20
4.55733024919121
30
0
41
1
10
-1.24501875177998
20
4.71955641770521
30
0
41
1
10
-1.166425428824
20
5.03956163419628
30
0
41
1
10
-1.12127747090748
20
5.19742801519664
30
0
41
1
10
-1.0356000119081
20
5.42903563218158
30
0
41
1
10
-1.00382453123565
20
5.50576059288693
30
0
41
1
10
-0.930487713539343
20
5.65416502125152
30
0
41
1
10
-0.889503506729966
20
5.72598190715598
30
0
41
1
10
-0.811889887189636
20
5.82526724315801
30
0
41
1
10
-0.782992880043743
20
5.85711793826454
30
0
41
1
10
-0.717294953002494
20
5.91197663005136
30
0
41
1
10
-0.67956110528295
20
5.93569979012773
30
0
41
1
10
-0.615728849457014
20
5.95464072000584
30
0
41
1
10
-0.593543676591828
20
5.95795890386762
30
0
41
1
10
-0.549372229186808
20
5.95759325698978
30
0
41
1
10
-0.527012459127441
20
5.95382071204165
30
0
41
1
10
-0.485435076069336
20
5.94077911690971
30
0
41
1
10
-0.465498465923055
20
5.93142083367184
30
0
41
1
10
-0.428385528731503
20
5.90924654958064
30
0
41
1
10
-0.411179767739846
20
5.89649691057778
30
0
41
1
10
-0.394913799811292
20
5.88258567299192
30
0
0
SPLINE
5
121
100
AcDbEntity
8
SK1
62
256
6
ByLayer
370
18
48
1
60
0
100
AcDbSpline
70
4
71
3
72
22
73
18
40
0
40
0
40
0
40
0
40
0.25
40
0.25
40
0.3125
40
0.3125
40
0.375
40
0.375
40
0.5
40
0.5
40
0.625
40
0.625
40
0.6875
40
0.6875
40
0.75
40
0.75
40
1
40
1
40
1
40
1
41
1
10
-1.30710678118655
20
-4.39330887788606
30
0
41
1
10
-1.43203513499338
20
-3.68733804982304
30
0
41
1
10
-1.54139735760567
20
-2.96866704924108
30
0
41
1
10
-1.64028452187062
20
-2.04701796567375
30
0
41
1
10
-1.65815238798461
20
-1.86123971402799
30
0
41
1
10
-1.68923323898762
20
-1.48992312989219
30
0
41
1
10
-1.70248074969008
20
-1.30410713450158
30
0
41
1
10
-1.73464739139641
20
-0.746154674734527
30
0
41
1
10
-1.7456846982345
20
-0.373499850699858
30
0
41
1
10
-1.74568944185957
20
0.373241829252151
30
0
41
1
10
-1.73465194668449
20
0.747328919912917
30
0
41
1
10
-1.70213159893857
20
1.30951271675812
30
0
41
1
10
-1.6887074752467
20
1.4968796405706
30
0
41
1
10
-1.65749856469554
20
1.86833789193395
30
0
41
1
10
-1.63969017396078
20
2.05289759168917
30
0
41
1
10
-1.54106273403413
20
2.97039284748038
30
0
41
1
10
-1.43198416608806
20
3.68763260969431
30
0
41
1
10
-1.30710678118654
20
4.39331221032489
30
0
0
SPLINE
5
122
100
AcDbEntity
8
SK1
62
256
6
ByLayer
370
18
48
1
60
0
100
AcDbSpline
70
4
71
3
72
24
73
20
40
0
40
0
40
0
40
0
40
0.250000000000001
40
0.250000000000001
40
0.500000000000002
40
0.500000000000002
40
0.625000000000003
40
0.625000000000003
40
0.750000000000005
40
0.750000000000005
40
0.812500000000004
40
0.812500000000004
40
0.875000000000002
40
0.875000000000002
40
0.906250000000002
40
0.906250000000002
40
0.937500000000001
40
0.937500000000001
40
1
40
1
40
1
40
1
41
1
10
-0.200000000000003
20
-6.55227865789408
30
0
41
1
10
-0.20033707875217
20
-6.48815453706823
30
0
41
1
10
-0.202001043985945
20
-6.42397958323059
30
0
41
1
10
-0.209053161149072
20
-6.29553718134738
30
0
41
1
10
-0.214352717274906
20
-6.23126736367371
30
0
41
1
10
-0.22727249267632
20
-6.13483454456443
30
0
41
1
10
-0.232418188950987
20
-6.1026714064829
30
0
41
1
10
-0.245511863308536
20
-6.03842225102434
30
0
41
1
10
-0.253300744549243
20
-6.00662925270251
30
0
41
1
10
-0.269098119985166
20
-5.96006824141071
30
0
41
1
10
-0.275047927333084
20
-5.94473551098525
30
0
41
1
10
-0.289632513493302
20
-5.91481530038894
30
0
41
1
10
-0.298019479410073
20
-5.90039666885909
30
0
41
1
10
-0.314813212304728
20
-5.88168816956647
30
0
41
1
10
-0.320994194999571
20
-5.87613112177433
30
0
41
1
10
-0.335352808247897
20
-5.86760693914616
30
0
41
1
10
-0.343383569558789
20
-5.86494868021512
30
0
41
1
10
-0.367598555172805
20
-5.86389215122369
30
0
41
1
10
-0.382680503022712
20
-5.87212497576328
30
0
41
1
10
-0.394913799811292
20
-5.88258733498483
30
0
0
SPLINE
5
123
100
AcDbEntity
8
1
62
256
6
ByLayer
370
18
48
1
60
0
100
AcDbSpline
70
4
71
3
72
16
73
12
40
0
40
0
40
0
40
0
40
0.124999999999994
40
0.124999999999994
40
0.249999999999989
40
0.249999999999989
40
0.499999999999993
40
0.499999999999993
40
0.749999999999996
40
0.749999999999996
40
1
40
1
40
1
40
1
41
1
10
10.5386751345948
20
-38.1154578595255
30
0
41
1
10
10.5070602691285
20
-38.1154578595255
30
0
41
1
10
10.4758266843417
20
-38.1134152144531
30
0
41
1
10
10.418044535903
20
-38.1062761312752
30
0
41
1
10
10.3910223064901
20
-38.1011554411598
30
0
41
1
10
10.3183968079982
20
-38.0834517571985
30
0
41
1
10
10.2787828778389
20
-38.0682374888742
30
0
41
1
10
10.2123078345527
20
-38.0356224517383
30
0
41
1
10
10.1853710085987
20
-38.0181481521524
30
0
41
1
10
10.1398761201257
20
-37.9822012953861
30
0
41
1
10
10.1212438126112
20
-37.9636055836587
30
0
41
1
10
10.1056624327026
20
-37.9445010117191
30
0
0
SPLINE
5
124
100
AcDbEntity
8
1
62
256
6
ByLayer
370
18
48
1
60
0
100
AcDbSpline
70
4
71
3
72
20
73
16
40
0
40
0
40
0
40
0
40
0.25
40
0.25
40
0.375
40
0.375
40
0.4375
40
0.4375
40
0.5
40
0.5
40
0.75
40
0.75
40
0.875
40
0.875
40
1
40
1
40
1
40
1
41
1
10
106.780544924486
20
-0.880793259596373
30
0
41
1
10
106.640657848534
20
1.60611862265105
30
0
41
1
10
106.430716985808
20
4.12221730178564
30
0
41
1
10
106.011307607686
20
7.93992474884678
30
0
41
1
10
105.854002466662
20
9.21978597560042
30
0
41
1
10
105.591058365583
20
11.1507879034752
30
0
41
1
10
105.498906956804
20
11.7963257294422
30
0
41
1
10
105.305405798263
20
13.091216197361
30
0
41
1
10
105.203834056932
20
13.7418757545899
30
0
41
1
10
104.676274251884
20
16.9815974713405
30
0
41
1
10
104.190486890385
20
19.5388023456266
30
0
41
1
10
103.367101980558
20
23.3230343683887
30
0
41
1
10
103.076809165743
20
24.5758133060286
30
0
41
1
10
102.463787965183
20
27.0636459577304
30
0
41
1
10
102.141063389816
20
28.2987018225455
30
0
41
1
10
101.801265230263
20
29.5244511463785
30
0
0
SPLINE
5
125
100
AcDbEntity
8
1
62
256
6
ByLayer
370
18
48
1
60
0
100
AcDbSpline
70
4
71
3
72
18
73
14
40
0
40
0
40
0
40
0
40
0.250000000000001
40
0.250000000000001
40
0.500000000000001
40
0.500000000000001
40
0.625000000000001
40
0.625000000000001
40
0.750000000000001
40
0.750000000000001
40
0.875
40
0.875
40
1
40
1
40
1
40
1
41
1
10
80.9281394402294
20
-20.4524444033735
30
0
41
1
10
80.8029137288572
20
-20.4921809190256
30
0
41
1
10
80.6802973221106
20
-20.5309605524936
30
0
41
1
10
80.4427127401
20
-20.6057150658665
30
0
41
1
10
80.3285201027136
20
-20.6414491523719
30
0
41
1
10
80.1709366680031
20
-20.6902537852384
30
0
41
1
10
80.1205355008403
20
-20.7057701069024
30
0
41
1
10
80.0266229243519
20
-20.7344021436427
30
0
41
1
10
79.984047382667
20
-20.7472332224707
30
0
41
1
10
79.911113943769
20
-20.7687539710896
30
0
41
1
10
79.8806644384023
20
-20.7774586526297
30
0
41
1
10
79.8406529820782
20
-20.7879807955951
30
0
41
1
10
79.8309605596698
20
-20.7898133674919
30
0
41
1
10
79.8334307601152
20
-20.7877187228793
30
0
0
SPLINE
5
126
100
AcDbEntity
8
1
62
256
6
ByLayer
370
18
48
1
60
0
100
AcDbSpline
70
4
71
3
72
12
73
8
40
0
40
0
40
0
40
0
40
0.25000000000001
40
0.25000000000001
40
0.50000000000002
40
0.50000000000002
40
1
40
1
40
1
40
1
41
1
10
128.422575167073
20
11.8960629050713
30
0
41
1
10
128.350821786576
20
11.7919590622004
30
0
41
1
10
128.273193115445
20
11.6933592838524
30
0
41
1
10
128.106588842737
20
11.5068356021577
30
0
41
1
10
128.017582308336
20
11.4190416336101
30
0
41
1
10
127.73992023364
20
11.1767273424812
30
0
41
1
10
127.538980812782
20
11.0408447794968
30
0
41
1
10
127.322835417612
20
10.9298558704272
30
0
0
SPLINE
5
127
100
AcDbEntity
8
1
62
256
6
ByLayer
370
18
48
1
60
0
100
AcDbSpline
70
4
71
3
72
16
73
12
40
0
40
0
40
0
40
0
40
0.125000000000002
40
0.125000000000002
40
0.250000000000003
40
0.250000000000003
40
0.500000000000002
40
0.500000000000002
40
0.750000000000001
40
0.750000000000001
40
1
40
1
40
1
40
1
41
1
10
13.4613248654052
20
-12.1330899674706
30
0
41
1
10
13.4929397308715
20
-12.1330899674706
30
0
41
1
10
13.5241733156583
20
-12.1395106480539
30
0
41
1
10
13.581955464097
20
-12.16190188624
30
0
41
1
10
13.6089776935098
20
-12.1779443514618
30
0
41
1
10
13.6816031920018
20
-12.2332416215829
30
0
41
1
10
13.7212171221611
20
-12.2805575148741
30
0
41
1
10
13.7876921654473
20
-12.3812044282566
30
0
41
1
10
13.8146289914013
20
-12.4347788334234
30
0
41
1
10
13.8601238798742
20
-12.5441499637056
30
0
41
1
10
13.8787561873887
20
-12.6003292036663
30
0
41
1
10
13.8943375672973
20
-12.6576002058704
30
0
0
SPLINE
5
128
100
AcDbEntity
8
1
62
256
6
ByLayer
370
18
48
1
60
0
100
AcDbSpline
70
4
71
3
72
22
73
18
40
0
40
0
40
0
40
0
40
0.125000000000002
40
0.125000000000002
40
0.250000000000003
40
0.250000000000003
40
0.375000000000005
40
0.375000000000005
40
0.500000000000006
40
0.500000000000006
40
0.625000000000008
40
0.625000000000008
40
0.687500000000007
40
0.687500000000007
40
0.750000000000006
40
0.750000000000006
40
1
40
1
40
1
40
1
41
1
10
131.443287480488
20
21.4943829924076
30
0
41
1
10
131.542240100739
20
21.3879640478943
30
0
41
1
10
131.633151066439
20
21.2747686759401
30
0
41
1
10
131.798702041664
20
21.0347225717258
30
0
41
1
10
131.873466867986
20
20.9073077849536
30
0
41
1
10
132.00236416979
20
20.6454322835191
30
0
41
1
10
132.057098976749
20
20.5102436104447
30
0
41
1
10
132.1468979224
20
20.2312702335332
30
0
41
1
10
132.18209249001
20
20.0861964532068
30
0
41
1
10
132.230139253778
20
19.7955942869021
30
0
41
1
10
132.24332955483
20
19.6496908649786
30
0
41
1
10
132.24711421802
20
19.4299466024168
30
0
41
1
10
132.245698215879
20
19.3565497377822
30
0
41
1
10
132.237421705218
20
19.2094536928549
30
0
41
1
10
132.230508856235
20
19.1354384304732
30
0
41
1
10
132.182697317344
20
18.7699993390651
30
0
41
1
10
132.103207246021
20
18.4904736517938
30
0
41
1
10
131.983473006379
20
18.2235795314898
30
0
0
SPLINE
5
129
100
AcDbEntity
8
1
62
256
6
ByLayer
370
18
48
1
60
0
100
AcDbSpline
70
4
71
3
72
16
73
12
40
0
40
0
40
0
40
0
40
0.249999999999999
40
0.249999999999999
40
0.499999999999997
40
0.499999999999997
40
0.749999999999996
40
0.749999999999996
40
0.874999999999998
40
0.874999999999998
40
1
40
1
40
1
40
1
41
1
10
13.8943375672974
20
12.6576002058703
30
0
41
1
10
13.8787504379151
20
12.6003080708704
30
0
41
1
10
13.8599678398711
20
12.5437053894649
30
0
41
1
10
13.8143757204948
20
12.4342400380054
30
0
41
1
10
13.7876681187474
20
12.3811715645304
30
0
41
1
10
13.7212679567721
20
12.2806309384213
30
0
41
1
10
13.6823507545245
20
12.2338002045595
30
0
41
1
10
13.6085397975366
20
12.177616249759
30
0
41
1
10
13.5820585103616
20
12.1619255694048
30
0
41
1
10
13.523814778136
20
12.1393880305615
30
0
41
1
10
13.4929902187673
20
12.1330899674708
30
0
41
1
10
13.4613248654051
20
12.1330899674708
30
0
0
SPLINE
5
12A
100
AcDbEntity
8
1
62
256
6
ByLayer
370
18
48
1
60
0
100
AcDbSpline
70
4
71
3
72
14
73
10
40
0
40
0
40
0
40
0
40
0.25
40
0.25
40
0.5
40
0.5
40
0.75
40
0.75
40
1
40
1
40
1
40
1
41
1
10
79.737926959686
20
21.9521014367805
30
0
41
1
10
81.430140511417
20
22.9314107032724
30
0
41
1
10
83.1703112935384
20
23.7902540546761
30
0
41
1
10
86.7292888122405
20
25.3271202914773
30
0
41
1
10
88.5480992221222
20
26.0048777967401
30
0
41
1
10
92.2500347085138
20
27.2206928040451
30
0
41
1
10
94.1331704906128
20
27.758592908688
30
0
41
1
10
97.9521763417925
20
28.723759345332
30
0
41
1
10
99.8726239149961
20
29.1471636802842
30
0
41
1
10
101.801265230263
20
29.5244511463786
30
0
0
SPLINE
5
12B
100
AcDbEntity
8
1
62
256
6
ByLayer
370
18
48
1
60
0
100
AcDbSpline
70
4
71
3
72
14
73
10
40
0
40
0
40
0
40
0
40
0.25
40
0.25
40
0.5
40
0.5
40
0.75
40
0.75
40
1
40
1
40
1
40
1
41
1
10
83.882918458715
20
-19.4923785022518
30
0
41
1
10
83.6330780354066
20
-19.5735565766999
30
0
41
1
10
83.3826477892279
20
-19.6549262962158
30
0
41
1
10
82.8805005177722
20
-19.8180838351214
30
0
41
1
10
82.630948620728
20
-19.8991681617033
30
0
41
1
10
82.1360360610637
20
-20.0599750002513
30
0
41
1
10
81.8905509507175
20
-20.1397379477347
30
0
41
1
10
81.4047601203462
20
-20.2975809567717
30
0
41
1
10
81.1643697132168
20
-20.3756885348334
30
0
41
1
10
80.9281394402288
20
-20.4524444033738
30
0
0
SPLINE
5
12C
100
AcDbEntity
8
1
62
256
6
ByLayer
370
18
48
1
60
0
100
AcDbSpline
70
4
71
3
72
16
73
12
40
0
40
0
40
0
40
0
40
0.25
40
0.25
40
0.499999999999999
40
0.499999999999999
40
0.749999999999999
40
0.749999999999999
40
0.875
40
0.875
40
1
40
1
40
1
40
1
41
1
10
13.8943375672974
20
-37.9445010117191
30
0
41
1
10
13.8787504379151
20
-37.9636126331776
30
0
41
1
10
13.8599678398711
20
-37.9823481941392
30
0
41
1
10
13.8143757204948
20
-38.0183244490836
30
0
41
1
10
13.7876681187474
20
-38.0356330717497
30
0
41
1
10
13.7212679567722
20
-38.0682137252775
30
0
41
1
10
13.6823507545246
20
-38.0832729594606
30
0
41
1
10
13.6085397975367
20
-38.101260466828
30
0
41
1
10
13.5820585103617
20
-38.1062685963606
30
0
41
1
10
13.5238147781361
20
-38.1134542929027
30
0
41
1
10
13.4929902187673
20
-38.1154578595254
30
0
41
1
10
13.4613248654051
20
-38.1154578595254
30
0
0
SPLINE
5
12D
100
AcDbEntity
8
1
62
256
6
ByLayer
370
18
48
1
60
0
100
AcDbSpline
70
4
71
3
72
10
73
6
40
0
40
0
40
0
40
0
40
0.5
40
0.5
40
1
40
1
40
1
40
1
41
1
10
106.780544924484
20
-0.880793259596771
30
0
41
1
10
110.143539481422
20
1.27098826289972
30
0
41
1
10
113.53388312884
20
3.32693546612347
30
0
41
1
10
120.378562146362
20
7.2603654471842
30
0
41
1
10
123.832849287611
20
9.13777627079884
30
0
41
1
10
127.322835417612
20
10.9298558704272
30
0
0
SPLINE
5
12E
100
AcDbEntity
8
1
62
256
6
ByLayer
370
18
48
1
60
0
100
AcDbSpline
70
4
71
3
72
8
73
4
40
0
40
0
40
0
40
0
40
1
40
1
40
1
40
1
41
1
10
59.877884946485
20
-26.7905401945462
30
0
41
1
10
66.7885238230128
20
-24.5767512716147
30
0
41
1
10
73.6852114868219
20
-22.3686494670413
30
0
41
1
10
80.5703985051365
20
-20.1652358235216
30
0
0
SPLINE
5
12F
100
AcDbEntity
8
1
62
256
6
ByLayer
370
18
48
1
60
0
100
AcDbSpline
70
4
71
3
72
16
73
12
40
0
40
0
40
0
40
0
40
0.25
40
0.25
40
0.375
40
0.375
40
0.5
40
0.5
40
0.75
40
0.75
40
1
40
1
40
1
40
1
41
1
10
83.8611007291013
20
-17.4442458125936
30
0
41
1
10
85.7127515349079
20
-15.939606109523
30
0
41
1
10
87.5856131367116
20
-14.4617313121705
30
0
41
1
10
90.4267712218961
20
-12.2850420572717
30
0
41
1
10
91.3800660676723
20
-11.5654972700697
30
0
41
1
10
93.2876493671152
20
-10.1468805768465
30
0
41
1
10
94.2429693449122
20
-9.44699674604649
30
0
41
1
10
97.1141948477221
20
-7.37446486615485
30
0
41
1
10
99.0353902677788
20
-6.02889183721365
30
0
41
1
10
102.894726838276
20
-3.40515338152278
30
0
41
1
10
104.832856727113
20
-2.1270038625967
30
0
41
1
10
106.780544924484
20
-0.880793259596743
30
0
0
SPLINE
5
130
100
AcDbEntity
8
1
62
256
6
ByLayer
370
18
48
1
60
0
100
AcDbSpline
70
4
71
3
72
10
73
6
40
0
40
0
40
0
40
0
40
0.5
40
0.5
40
1
40
1
40
1
40
1
41
1
10
120.141935676097
20
32.1055446470171
30
0
41
1
10
120.284978112719
20
32.0803224060544
30
0
41
1
10
120.431089855708
20
32.0545589635671
30
0
41
1
10
120.727836732925
20
32.0022344826728
30
0
41
1
10
120.878496115911
20
31.9756691685554
30
0
41
1
10
121.031063036009
20
31.9487675041785
30
0
0
SPLINE
5
131
100
AcDbEntity
8
1
62
256
6
ByLayer
370
18
48
1
60
0
100
AcDbSpline
70
4
71
3
72
62
73
58
40
0
40
0
40
0
40
0
40
0.0625000000000002
40
0.0625000000000002
40
0.0937500000000004
40
0.0937500000000004
40
0.109375000000001
40
0.109375000000001
40
0.125000000000001
40
0.125000000000001
40
0.187500000000001
40
0.187500000000001
40
0.250000000000002
40
0.250000000000002
40
0.281250000000002
40
0.281250000000002
40
0.296875000000002
40
0.296875000000002
40
0.312500000000002
40
0.312500000000002
40
0.375000000000002
40
0.375000000000002
40
0.437500000000001
40
0.437500000000001
40
0.453125000000001
40
0.453125000000001
40
0.468750000000001
40
0.468750000000001
40
0.500000000000001
40
0.500000000000001
40
0.562500000000001
40
0.562500000000001
40
0.625000000000001
40
0.625000000000001
40
0.640625000000001
40
0.640625000000001
40
0.656250000000001
40
0.656250000000001
40
0.687500000000001
40
0.687500000000001
40
0.750000000000001
40
0.750000000000001
40
0.781250000000001
40
0.781250000000001
40
0.796875000000001
40
0.796875000000001
40
0.812500000000001
40
0.812500000000001
40
0.875
40
0.875
40
0.9375
40
0.9375
40
0.96875
40
0.96875
40
0.984375
40
0.984375
40
1
40
1
40
1
40
1
41
1
10
79.737926959686
20
21.9521014367805
30
0
41
1
10
78.7076842890098
20
21.405211713668
30
0
41
1
10
77.6961159333607
20
20.8207981315518
30
0
41
1
10
76.2100629953398
20
19.8779103965528
30
0
41
1
10
75.7199314587142
20
19.5525490869129
30
0
41
1
10
74.9929995254556
20
19.0464465723277
30
0
41
1
10
74.7520666156737
20
18.8747340027061
30
0
41
1
10
74.2730310431266
20
18.5250204788315
30
0
41
1
10
74.0346640736338
20
18.346813289666
30
0
41
1
10
72.8542775468974
20
17.4425969564424
30
0
41
1
10
71.9459877478771
20
16.6767847267075
30
0
41
1
10
70.2044720182335
20
15.0519292929341
30
0
41
1
10
69.371242919264
20
14.1928998777192
30
0
41
1
10
68.1794562783019
20
12.8276101140475
30
0
41
1
10
67.7918651517456
20
12.3597155028803
30
0
41
1
10
67.2251697746595
20
11.6377317930376
30
0
41
1
10
67.0385195706433
20
11.3934421146971
30
0
41
1
10
66.6710745147711
20
10.899235548622
30
0
41
1
10
66.4906253159055
20
10.6497995692815
30
0
41
1
10
65.604496137852
20
9.39099320648452
30
0
41
1
10
64.9471490734488
20
8.34676550326267
30
0
41
1
10
63.7293323621716
20
6.18462526822717
30
0
41
1
10
63.1688297164818
20
5.06673931349599
30
0
41
1
10
62.5254349944497
20
3.62316579047783
30
0
41
1
10
62.3996215710837
20
3.33213668872602
30
0
41
1
10
62.1536616164476
20
2.74542833180672
30
0
41
1
10
62.0333171307404
20
2.44923864071717
30
0
41
1
10
61.6823266691756
20
1.55782355658076
30
0
41
1
10
61.461939291407
20
0.960492933876907
30
0
41
1
10
60.8389457676207
20
-0.839880256849852
30
0
41
1
10
60.4743498189613
20
-2.05126446172332
30
0
41
1
10
59.8363760744822
20
-4.49313532269838
30
0
41
1
10
59.5629908811975
20
-5.72362239125005
30
0
41
1
10
59.2750872413529
20
-7.27248292377874
30
0
41
1
10
59.2201218069793
20
-7.58334516860748
30
0
41
1
10
59.116102121261
20
-8.20292149242334
30
0
41
1
10
59.0670420420775
20
-8.51159242182399
30
0
41
1
10
58.9284451871445
20
-9.43425875611393
30
0
41
1
10
58.8474779384798
20
-10.0449093444078
30
0
41
1
10
58.6372657220474
20
-11.8634637672008
30
0
41
1
10
58.5405078818691
20
-13.0579988850027
30
0
41
1
10
58.4578695730892
20
-14.8224940207164
30
0
41
1
10
58.4407908875345
20
-15.406100887038
30
0
41
1
10
58.4310179135192
20
-16.2745361398633
30
0
41
1
10
58.4304043807105
20
-16.5628515422336
30
0
41
1
10
58.4345304518249
20
-17.1371268771926
30
0
41
1
10
58.4392868739269
20
-17.4235747227439
30
0
41
1
10
58.4764344230897
20
-18.841783306747
30
0
41
1
10
58.5484956484223
20
-19.9336630461122
30
0
41
1
10
58.7768174201412
20
-22.0354968179548
30
0
41
1
10
58.9330815942479
20
-23.0454352276342
30
0
41
1
10
59.2351714537728
20
-24.4991411704309
30
0
41
1
10
59.3472006464845
20
-24.9734869621836
30
0
41
1
10
59.5332961158423
20
-25.6695025555918
30
0
41
1
10
59.5984508535942
20
-25.8992600145009
30
0
41
1
10
59.7340735924803
20
-26.3505828293785
30
0
41
1
10
59.8046059132455
20
-26.5724316691534
30
0
41
1
10
59.8778849464681
20
-26.7905401945559
30
0
0
SPLINE
5
132
100
AcDbEntity
8
1
62
256
6
ByLayer
370
18
48
1
60
0
100
AcDbSpline
70
4
71
3
72
16
73
12
40
0
40
0
40
0
40
0
40
0.125
40
0.125
40
0.250000000000001
40
0.250000000000001
40
0.500000000000001
40
0.500000000000001
40
0.75
40
0.75
40
1
40
1
40
1
40
1
41
1
10
10.5386751345948
20
12.1330899674705
30
0
41
1
10
10.5070602691285
20
12.1330899674705
30
0
41
1
10
10.4758266843417
20
12.1395106480537
30
0
41
1
10
10.4180445359029
20
12.1619018862399
30
0
41
1
10
10.3910223064901
20
12.1779443514617
30
0
41
1
10
10.3183968079982
20
12.2332416215828
30
0
41
1
10
10.2787828778389
20
12.280557514874
30
0
41
1
10
10.2123078345527
20
12.3812044282564
30
0
41
1
10
10.1853710085986
20
12.4347788334233
30
0
41
1
10
10.1398761201257
20
12.5441499637055
30
0
41
1
10
10.1212438126112
20
12.6003292036663
30
0
41
1
10
10.1056624327026
20
12.6576002058704
30
0
0
SPLINE
5
133
100
AcDbEntity
8
1
62
256
6
ByLayer
370
18
48
1
60
0
100
AcDbSpline
70
4
71
3
72
8
73
4
40
0
40
0
40
0
40
0
40
1
40
1
40
1
40
1
41
1
10
132.090028650456
20
11.647378495831
30
0
41
1
10
132.087857763442
20
11.5307093298595
30
0
41
1
10
132.098253032004
20
11.4193997056162
30
0
41
1
10
132.118294263061
20
11.3138940919654
30
0
0
SPLINE
5
134
100
AcDbEntity
8
1
62
256
6
ByLayer
370
18
48
1
60
0
100
AcDbSpline
70
4
71
3
72
8
73
4
40
0
40
0
40
0
40
0
40
1
40
1
40
1
40
1
41
1
10
119.162160532235
20
32.0453611763141
30
0
41
1
10
119.29089272983
20
32.0233159852797
30
0
41
1
10
119.419606397033
20
32.0012752526964
30
0
41
1
10
119.54830160718
20
31.9792389609195
30
0
0
SPLINE
5
135
100
AcDbEntity
8
1
62
256
6
ByLayer
370
18
48
1
60
0
100
AcDbSpline
70
4
71
3
72
8
73
4
40
0
40
0
40
0
40
0
40
1
40
1
40
1
40
1
41
1
10
83.8611007291013
20
-17.4442458125935
30
0
41
1
10
82.7563873559466
20
-18.3419288943869
30
0
41
1
10
81.6594765801739
20
-19.2489359249728
30
0
41
1
10
80.5703985051367
20
-20.1652358235216
30
0
0
SPLINE
5
136
100
AcDbEntity
8
1
62
256
6
ByLayer
370
18
48
1
60
0
100
AcDbSpline
70
4
71
3
72
8
73
4
40
0
40
0
40
0
40
0
40
1
40
1
40
1
40
1
41
1
10
132.226293287854
20
11.2852896476428
30
0
41
1
10
132.190161769783
20
11.2948189582441
30
0
41
1
10
132.154170027646
20
11.3043542539564
30
0
41
1
10
132.118294263061
20
11.3138940919654
30
0
0
SPLINE
5
137
100
AcDbEntity
8
1
62
256
6
ByLayer
370
18
48
1
60
0
100
AcDbSpline
70
4
71
3
72
12
73
8
40
0
40
0
40
0
40
0
40
0.25
40
0.25
40
0.499999999999999
40
0.499999999999999
40
1
40
1
40
1
40
1
41
1
10
101.801265230263
20
29.5244511463786
30
0
41
1
10
103.229849154717
20
29.8305890472254
30
0
41
1
10
104.663984618051
20
30.1073842310028
30
0
41
1
10
107.541706268125
20
30.6115195971973
30
0
41
1
10
108.985293756317
20
30.8388346203237
30
0
41
1
10
113.328126460046
20
31.4568863022247
30
0
41
1
10
116.239359185532
20
31.7843092021362
30
0
41
1
10
119.162160532235
20
32.0453611763142
30
0
0
SPLINE
5
138
100
AcDbEntity
8
1
62
256
6
ByLayer
370
18
48
1
60
0
100
AcDbSpline
70
4
71
3
72
38
73
34
40
0
40
0
40
0
40
0
40
0.0624999999999997
40
0.0624999999999997
40
0.124999999999999
40
0.124999999999999
40
0.249999999999999
40
0.249999999999999
40
0.281249999999999
40
0.281249999999999
40
0.312499999999999
40
0.312499999999999
40
0.374999999999999
40
0.374999999999999
40
0.5
40
0.5
40
0.53125
40
0.53125
40
0.5625
40
0.5625
40
0.625
40
0.625
40
0.6875
40
0.6875
40
0.71875
40
0.71875
40
0.75
40
0.75
40
0.875
40
0.875
40
0.9375
40
0.9375
40
1
40
1
40
1
40
1
41
1
10
79.737926959686
20
21.9521014367804
30
0
41
1
10
79.9410630654966
20
21.1306278979698
30
0
41
1
10
80.1374762192953
20
20.3032240255163
30
0
41
1
10
80.5172378708065
20
18.6366814695772
30
0
41
1
10
80.7007916352615
20
17.7965130765772
30
0
41
1
10
81.229280438662
20
15.2725028763213
30
0
41
1
10
81.5530663999082
20
13.581746425726
30
0
41
1
10
81.9222606138688
20
11.4583111579104
30
0
41
1
10
81.994312848954
20
11.0331224071807
30
0
41
1
10
82.1348210867024
20
10.1817377247101
30
0
41
1
10
82.203322658338
20
9.75524390353172
30
0
41
1
10
82.4029845378904
20
8.47690778528488
30
0
41
1
10
82.5283122430463
20
7.62623074330284
30
0
41
1
10
82.8812362826763
20
5.07875016431191
30
0
41
1
10
83.0858010037797
20
3.38647899366083
30
0
41
1
10
83.3039400609535
20
1.27874082077295
30
0
41
1
10
83.3456960838068
20
0.857451351390893
30
0
41
1
10
83.4252472498134
20
0.0178737587270348
30
0
41
1
10
83.4630716589443
20
-0.400682845959267
30
0
41
1
10
83.5707403071204
20
-1.65267987792922
30
0
41
1
10
83.6347872076356
20
-2.48244940800214
30
0
41
1
10
83.7474596478843
20
-4.13228582235448
30
0
41
1
10
83.7960808652371
20
-4.95235340876917
30
0
41
1
10
83.8573462106399
20
-6.17519139305335
30
0
41
1
10
83.8758226863509
20
-6.58159286669084
30
0
41
1
10
83.90886204925
20
-7.39196739944003
30
0
41
1
10
83.9234195303835
20
-7.79588821687457
30
0
41
1
10
83.9862305778746
20
-9.80407611022764
30
0
41
1
10
84.0047616252485
20
-11.3784844068383
30
0
41
1
10
83.9858422311992
20
-13.6921075952613
30
0
41
1
10
83.9717486632094
20
-14.4552985394843
30
0
41
1
10
83.9279884026745
20
-15.9654819052148
30
0
41
1
10
83.8983670066425
20
-16.7106719645804
30
0
41
1
10
83.8611007291016
20
-17.4442458125935
30
0
0
SPLINE
5
139
100
AcDbEntity
8
1
62
256
6
ByLayer
370
18
48
1
60
0
100
AcDbSpline
70
4
71
3
72
16
73
12
40
0
40
0
40
0
40
0
40
0.124999999999998
40
0.124999999999998
40
0.249999999999996
40
0.249999999999996
40
0.499999999999997
40
0.499999999999997
40
0.749999999999999
40
0.749999999999999
40
1
40
1
40
1
40
1
41
1
10
13.4613248654052
20
38.1154578595255
30
0
41
1
10
13.4929397308715
20
38.1154578595255
30
0
41
1
10
13.5241733156582
20
38.1134152144531
30
0
41
1
10
13.581955464097
20
38.1062761312751
30
0
41
1
10
13.6089776935098
20
38.1011554411598
30
0
41
1
10
13.6816031920017
20
38.0834517571985
30
0
41
1
10
13.7212171221611
20
38.0682374888742
30
0
41
1
10
13.7876921654473
20
38.0356224517383
30
0
41
1
10
13.8146289914012
20
38.0181481521524
30
0
41
1
10
13.8601238798742
20
37.9822012953861
30
0
41
1
10
13.8787561873887
20
37.9636055836586
30
0
41
1
10
13.8943375672973
20
37.9445010117191
30
0
0
SPLINE
5
13A
100
AcDbEntity
8
1
62
256
6
ByLayer
370
18
48
1
60
0
100
AcDbSpline
70
4
71
3
72
12
73
8
40
0
40
0
40
0
40
0
40
0.25
40
0.25
40
0.5
40
0.5
40
1
40
1
40
1
40
1
41
1
10
121.031063036009
20
31.9487675041786
30
0
41
1
10
121.186838096122
20
31.9213001581592
30
0
41
1
10
121.343279931419
20
31.8907808694142
30
0
41
1
10
121.656817947255
20
31.8235287727485
30
0
41
1
10
121.814337034342
20
31.7866836648052
30
0
41
1
10
122.283207987318
20
31.6677245244826
30
0
41
1
10
122.591301821728
20
31.5771973704559
30
0
41
1
10
122.895095987692
20
31.4756451890959
30
0
0
SPLINE
5
13B
100
AcDbEntity
8
1
62
256
6
ByLayer
370
18
48
1
60
0
100
AcDbSpline
70
4
71
3
72
16
73
12
40
0
40
0
40
0
40
0
40
0.25
40
0.25
40
0.500000000000001
40
0.500000000000001
40
0.750000000000001
40
0.750000000000001
40
0.875
40
0.875
40
1
40
1
40
1
40
1
41
1
10
10.1056624327026
20
-12.6576002058703
30
0
41
1
10
10.1212495620849
20
-12.6003080708704
30
0
41
1
10
10.1400321601288
20
-12.5437053894649
30
0
41
1
10
10.1856242795052
20
-12.4342400380053
30
0
41
1
10
10.2123318812526
20
-12.3811715645304
30
0
41
1
10
10.2787320432278
20
-12.2806309384212
30
0
41
1
10
10.3176492454754
20
-12.2338002045595
30
0
41
1
10
10.3914602024634
20
-12.177616249759
30
0
41
1
10
10.4179414896383
20
-12.1619255694047
30
0
41
1
10
10.476185221864
20
-12.1393880305614
30
0
41
1
10
10.5070097812327
20
-12.1330899674707
30
0
41
1
10
10.5386751345948
20
-12.1330899674707
30
0
0
SPLINE
5
13C
100
AcDbEntity
8
1
62
256
6
ByLayer
370
18
48
1
60
0
100
AcDbSpline
70
4
71
3
72
10
73
6
40
0
40
0
40
0
40
0
40
0.5
40
0.5
40
1
40
1
40
1
40
1
41
1
10
131.443287480488
20
21.4943829924076
30
0
41
1
10
129.651894237258
20
23.4209431751572
30
0
41
1
10
127.764560775799
20
25.2604390420179
30
0
41
1
10
123.799707348578
20
28.7583119171711
30
0
41
1
10
121.722184383634
20
30.4167338480577
30
0
41
1
10
119.54830160718
20
31.9792389609195
30
0
0
SPLINE
5
13D
100
AcDbEntity
8
1
62
256
6
ByLayer
370
18
48
1
60
0
100
AcDbSpline
70
4
71
3
72
16
73
12
40
0
40
0
40
0
40
0
40
0.249999999999998
40
0.249999999999998
40
0.499999999999995
40
0.499999999999995
40
0.749999999999993
40
0.749999999999993
40
0.874999999999996
40
0.874999999999996
40
1
40
1
40
1
40
1
41
1
10
10.1056624327025
20
37.9445010117191
30
0
41
1
10
10.1212495620848
20
37.9636126331776
30
0
41
1
10
10.1400321601288
20
37.9823481941392
30
0
41
1
10
10.1856242795052
20
38.0183244490836
30
0
41
1
10
10.2123318812525
20
38.0356330717498
30
0
41
1
10
10.2787320432278
20
38.0682137252776
30
0
41
1
10
10.3176492454754
20
38.0832729594606
30
0
41
1
10
10.3914602024633
20
38.101260466828
30
0
41
1
10
10.4179414896383
20
38.1062685963607
30
0
41
1
10
10.4761852218639
20
38.1134542929028
30
0
41
1
10
10.5070097812327
20
38.1154578595255
30
0
41
1
10
10.5386751345948
20
38.1154578595255
30
0
0
SPLINE
5
13E
100
AcDbEntity
8
1
62
256
6
ByLayer
370
18
48
1
60
0
100
AcDbSpline
70
4
71
3
72
8
73
4
40
0
40
0
40
0
40
0
40
1
40
1
40
1
40
1
41
1
10
133.815274441587
20
8.27259774251263
30
0
41
1
10
133.814728451222
20
8.3062530288185
30
0
41
1
10
133.814119325253
20
8.33991167734135
30
0
41
1
10
133.813441541076
20
8.37357377694303
30
0
0
SPLINE
5
13F
100
AcDbEntity
8
1
62
256
6
ByLayer
370
18
48
1
60
0
100
AcDbSpline
70
4
71
3
72
10
73
6
40
0
40
0
40
0
40
0
40
0.5
40
0.5
40
1
40
1
40
1
40
1
41
1
10
128.422575167073
20
11.8960629050713
30
0
41
1
10
129.112937286242
20
12.8976791227341
30
0
41
1
10
129.754788793374
20
13.9265449161992
30
0
41
1
10
130.941906267764
20
16.0363531693356
30
0
41
1
10
131.48717277855
20
17.1172993804731
30
0
41
1
10
131.983473006379
20
18.2235795314898
30
0
0
SPLINE
5
140
100
AcDbEntity
8
1
62
256
6
ByLayer
370
18
48
1
60
0
100
AcDbSpline
70
4
71
3
72
18
73
14
40
0
40
0
40
0
40
0
40
0.125
40
0.125
40
0.25
40
0.25
40
0.375
40
0.375
40
0.5
40
0.5
40
0.75
40
0.75
40
1
40
1
40
1
40
1
41
1
10
119.15552827415
20
32.2597565605487
30
0
41
1
10
119.153306517427
20
32.2613332337467
30
0
41
1
10
119.16100735207
20
32.2611651886039
30
0
41
1
10
119.193387992976
20
32.2577218363089
30
0
41
1
10
119.217687706317
20
32.2545137709534
30
0
41
1
10
119.279259316966
20
32.2457199389127
30
0
41
1
10
119.316551257286
20
32.2401256082885
30
0
41
1
10
119.398456873413
20
32.2275043804241
30
0
41
1
10
119.44361667612
20
32.220395762519
30
0
41
1
10
119.587114683958
20
32.1974963672309
30
0
41
1
10
119.691246827766
20
32.1805011525581
30
0
41
1
10
119.909538785678
20
32.1444630379815
30
0
41
1
10
120.023858551125
20
32.125387475456
30
0
41
1
10
120.141935676097
20
32.1055446470169
30
0
0
SPLINE
5
141
100
AcDbEntity
8
1
62
256
6
ByLayer
370
18
48
1
60
0
100
AcDbSpline
70
4
71
3
72
42
73
38
40
0
40
0
40
0
40
0
40
0.0624999999999994
40
0.0624999999999994
40
0.0781249999999997
40
0.0781249999999997
40
0.09375
40
0.09375
40
0.125
40
0.125
40
0.1875
40
0.1875
40
0.21875
40
0.21875
40
0.25
40
0.25
40
0.312499999999999
40
0.312499999999999
40
0.374999999999999
40
0.374999999999999
40
0.406249999999999
40
0.406249999999999
40
0.437499999999999
40
0.437499999999999
40
0.499999999999999
40
0.499999999999999
40
0.624999999999998
40
0.624999999999998
40
0.687499999999999
40
0.687499999999999
40
0.718749999999999
40
0.718749999999999
40
0.749999999999999
40
0.749999999999999
40
0.874999999999999
40
0.874999999999999
40
1
40
1
40
1
40
1
41
1
10
38.8713957777539
20
-33.7385156177505
30
0
41
1
10
38.428661575402
20
-33.8858322671645
30
0
41
1
10
38.0096984192009
20
-34.051681326425
30
0
41
1
10
37.5126925768004
20
-34.2771606725164
30
0
41
1
10
37.4147788799242
20
-34.3231102559897
30
0
41
1
10
37.2232423041065
20
-34.4158756740752
30
0
41
1
10
37.129403455333
20
-34.4627883716355
30
0
41
1
10
36.8533693191724
20
-34.6049167052958
30
0
41
1
10
36.6766469828315
20
-34.7015182690242
30
0
41
1
10
36.1663422477151
20
-34.9954585680699
30
0
41
1
10
35.8525357411592
20
-35.196893309966
30
0
41
1
10
35.4154764264467
20
-35.5026175956782
30
0
41
1
10
35.2750799729101
20
-35.6054083861966
30
0
41
1
10
35.007496073191
20
-35.8094260499873
30
0
41
1
10
34.8800419422632
20
-35.9108149640041
30
0
41
1
10
34.5147117255445
20
-36.212467766687
30
0
41
1
10
34.2937889525881
20
-36.4101976643562
30
0
41
1
10
33.8891809984363
20
-36.7960641711464
30
0
41
1
10
33.7055312878734
20
-36.9842099642864
30
0
41
1
10
33.4536507077939
20
-37.2575217508824
30
0
41
1
10
33.3735038971328
20
-37.3473001333811
30
0
41
1
10
33.2212814900079
20
-37.5227386205796
30
0
41
1
10
33.1491999168654
20
-37.6083917112835
30
0
41
1
10
32.943873674807
20
-37.859055723066
30
0
41
1
10
32.821503842869
20
-38.0177698387503
30
0
41
1
10
32.4905072517715
20
-38.4680384035575
30
0
41
1
10
32.3175959664981
20
-38.733725035739
30
0
41
1
10
32.1103471518161
20
-39.0779683810919
30
0
41
1
10
32.0500655107918
20
-39.1836686809961
30
0
41
1
10
31.9712525496946
20
-39.3283039344352
30
0
41
1
10
31.9469172383741
20
-39.3742075898938
30
0
41
1
10
31.9021217418583
20
-39.4609019474238
30
0
41
1
10
31.881626416416
20
-39.5017559739389
30
0
41
1
10
31.7880203251427
20
-39.6936842056719
30
0
41
1
10
31.7411678742601
20
-39.8078091690123
30
0
41
1
10
31.6932460598521
20
-39.9591159537919
30
0
41
1
10
31.6922274725949
20
-39.9962924351275
30
0
41
1
10
31.7129678982136
20
-39.9950213654456
30
0
0
SPLINE
5
142
100
AcDbEntity
8
SK1
62
256
6
ByLayer
370
18
48
1
60
0
100
AcDbSpline
70
4
71
3
72
25
73
21
40
0
40
0
40
0
40
0
40
0.0618762727392854
40
0.125570323188632
40
0.189264373637978
40
0.221111398862652
40
0.252958424087325
40
0.316652474536671
40
0.380346524986018
40
0.444040575435364
40
0.507734625884711
40
0.571428676334057
40
0.635122726783404
40
0.69881677723275
40
0.762510827682096
40
0.826204878131443
40
0.889898928580789
40
0.953592979030136
40
0.985440004254809
40
1
40
1
40
1
40
1
41
1
10
-0.394913799811285
20
27.365409672868
30
0
41
1
10
-0.394913799811285
20
27.3651144245759
30
0
41
1
10
-0.394913799811292
20
27.2806620166043
30
0
41
1
10
-0.394913799811292
20
26.9317121751432
30
0
41
1
10
-0.394913799811292
20
26.4695479101472
30
0
41
1
10
-0.394913799811292
20
26.0073865712911
30
0
41
1
10
-0.394913799811292
20
25.4857549542384
30
0
41
1
10
-0.394913799811292
20
24.7273078069339
30
0
41
1
10
-0.394913799811292
20
23.6558233145232
30
0
41
1
10
-0.394913799811292
20
22.432052288855
30
0
41
1
10
-0.394913799811292
20
21.0615461829413
30
0
41
1
10
-0.394913799811292
20
19.549694005804
30
0
41
1
10
-0.394913799811292
20
17.9007381804523
30
0
41
1
10
-0.394913799811292
20
16.1168447823444
30
0
41
1
10
-0.394913799811292
20
14.2008618261791
30
0
41
1
10
-0.394913799811292
20
12.1534974735354
30
0
41
1
10
-0.394913799811292
20
9.97566753154939
30
0
41
1
10
-0.394913799811292
20
8.05259623229938
30
0
41
1
10
-0.394913799811292
20
6.66606717738506
30
0
41
1
10
-0.394913799811292
20
6.07052405947675
30
0
41
1
10
-0.394913799811292
20
5.88258567299192
30
0
0
SPLINE
5
143
100
AcDbEntity
8
SK1
62
256
6
ByLayer
370
18
48
1
60
0
100
AcDbSpline
70
4
71
3
72
25
73
21
40
0
40
0
40
0
40
0
40
0.0145591921685114
40
0.0464045534692703
40
0.110095276070788
40
0.173785998672306
40
0.237476721273824
40
0.301167443875342
40
0.36485816647686
40
0.428548889078378
40
0.492239611679896
40
0.555930334281413
40
0.619621056882931
40
0.683311779484449
40
0.747002502085967
40
0.778847863386726
40
0.810693224687485
40
0.874383947289003
40
0.938074669890521
40
1
40
1
40
1
40
1
41
1
10
-0.394913799811292
20
-5.88258733498481
30
0
41
1
10
-0.394913799811292
20
-6.07052516538181
30
0
41
1
10
-0.394913799811292
20
-6.66606769858655
30
0
41
1
10
-0.394913799811292
20
-8.05259596592001
30
0
41
1
10
-0.394913799811292
20
-9.97566741413243
30
0
41
1
10
-0.394913799811292
20
-12.153497457354
30
0
41
1
10
-0.394913799811292
20
-14.2008618153781
30
0
41
1
10
-0.394913799811292
20
-16.116845123771
30
0
41
1
10
-0.394913799811292
20
-17.9007385657829
30
0
41
1
10
-0.394913799811292
20
-19.5496941631405
30
0
41
1
10
-0.394913799811292
20
-21.061545739767
30
0
41
1
10
-0.394913799811292
20
-22.4320519750209
30
0
41
1
10
-0.394913799811292
20
-23.6558244102428
30
0
41
1
10
-0.394913799811292
20
-24.7273073402748
30
0
41
1
10
-0.394913799811292
20
-25.4857521565205
30
0
41
1
10
-0.394913799811292
20
-26.0073845707252
30
0
41
1
10
-0.394913799811292
20
-26.4695479228793
30
0
41
1
10
-0.394913799811292
20
-26.931711914563
30
0
41
1
10
-0.394913799811292
20
-27.2807584857591
30
0
41
1
10
-0.394913799811285
20
-27.3651849344069
30
0
41
1
10
-0.394913799811285
20
-27.3654103349999
30
0
0
SPLINE
5
144
100
AcDbEntity
8
SK1
62
256
6
ByLayer
370
18
48
1
60
0
100
AcDbSpline
70
4
71
3
72
53
73
49
40
0
40
0
40
0
40
0
40
0.027433495223789
40
0.0552314406756133
40
0.0830293861274376
40
0.0969283588533498
40
0.110827331579262
40
0.138625277031086
40
0.166423222482911
40
0.194221167934735
40
0.222019113386559
40
0.249817058838384
40
0.277615004290208
40
0.305412949742032
40
0.333210895193856
40
0.361008840645681
40
0.388806786097505
40
0.416604731549329
40
0.430503704275242
40
0.444402677001154
40
0.458301649727066
40
0.472200622452978
40
0.48609959517889
40
0.493049081541846
40
0.499998567904803
40
0.506948054267759
40
0.513897540630715
40
0.527796513356627
40
0.541695486082539
40
0.555594458808451
40
0.569493431534363
40
0.583392404260276
40
0.6111903497121
40
0.638988295163924
40
0.666786240615748
40
0.694584186067573
40
0.722382131519397
40
0.750180076971221
40
0.777978022423046
40
0.80577596787487
40
0.833573913326694
40
0.861371858778519
40
0.889169804230343
40
0.903068776956255
40
0.916967749682167
40
0.944765695133992
40
0.972563640585816
40
1
40
1
40
1
40
1
41
1
10
-1.9950399779393
20
27.3251992937187
30
0
41
1
10
-1.9950399779393
20
27.3262324382214
30
0
41
1
10
-1.9950399779393
20
27.2423979181214
30
0
41
1
10
-1.9950399779393
20
26.8920582242086
30
0
41
1
10
-1.9950399779393
20
26.4304294614745
30
0
41
1
10
-1.9950399779393
20
25.9687206006143
30
0
41
1
10
-1.9950399779393
20
25.4475821015686
30
0
41
1
10
-1.9950399779393
20
24.6899119683388
30
0
41
1
10
-1.9950399779393
20
23.6194427004969
30
0
41
1
10
-1.9950399779393
20
22.3968114946305
30
0
41
1
10
-1.9950399779393
20
21.027578149028
30
0
41
1
10
-1.9950399779393
20
19.5171385903506
30
0
41
1
10
-1.9950399779393
20
17.8697602043723
30
0
41
1
10
-1.9950399779393
20
16.0876367400659
30
0
41
1
10
-1.9950399779393
20
14.1736586478766
30
0
41
1
10
-1.9950399779393
20
12.1286054335931
30
0
41
1
10
-1.9950399779393
20
9.95349533700443
30
0
41
1
10
-1.9950399779393
20
8.03329822829241
30
0
41
1
10
-1.9950399779393
20
6.43152352997811
30
0
41
1
10
-1.9950399779393
20
5.19920320851571
30
0
41
1
10
-1.9950399779393
20
3.93622781621522
30
0
41
1
10
-1.9950399779393
20
2.64495403942521
30
0
41
1
10
-1.9950399779393
20
1.549515656636
30
0
41
1
10
-1.9950399779393
20
0.664791253601607
30
0
41
1
10
-1.9950399779393
20
1.48582728E-08
30
0
41
1
10
-1.9950399779393
20
-0.6647912077417
30
0
41
1
10
-1.9950399779393
20
-1.54951551889729
30
0
41
1
10
-1.9950399779393
20
-2.64495367748941
30
0
41
1
10
-1.9950399779393
20
-3.93622738701504
30
0
41
1
10
-1.9950399779393
20
-5.19920324116254
30
0
41
1
10
-1.9950399779393
20
-6.43152354524264
30
0
41
1
10
-1.9950399779393
20
-8.03329795823163
30
0
41
1
10
-1.9950399779393
20
-9.95349522257501
30
0
41
1
10
-1.9950399779393
20
-12.1286054195275
30
0
41
1
10
-1.9950399779393
20
-14.1736586399812
30
0
41
1
10
-1.9950399779393
20
-16.0876370834377
30
0
41
1
10
-1.9950399779393
20
-17.8697605888624
30
0
41
1
10
-1.9950399779393
20
-19.5171387431293
30
0
41
1
10
-1.9950399779393
20
-21.0275777036138
30
0
41
1
10
-1.9950399779393
20
-22.3968111872691
30
0
41
1
10
-1.9950399779393
20
-23.619443795401
30
0
41
1
10
-1.9950399779393
20
-24.6899114886171
30
0
41
1
10
-1.9950399779393
20
-25.4475793002845
30
0
41
1
10
-1.9950399779393
20
-25.9687186091476
30
0
41
1
10
-1.9950399779393
20
-26.4304294784275
30
0
41
1
10
-1.9950399779393
20
-26.8920579638066
30
0
41
1
10
-1.9950399779393
20
-27.2424100610944
30
0
41
1
10
-1.9950399779393
20
-27.3262413306033
30
0
41
1
10
-1.9950399779393
20
-27.3251989617607
30
0
0
SPLINE
5
145
100
AcDbEntity
8
SK1
62
256
6
ByLayer
370
18
48
1
60
0
100
AcDbSpline
70
4
71
3
72
53
73
49
40
0
40
0
40
0
40
0
40
0.0183590949838105
40
0.0466909134708709
40
0.0750227319579313
40
0.0891886412014615
40
0.103354550444992
40
0.131686368932052
40
0.160018187419112
40
0.188350005906173
40
0.216681824393233
40
0.245013642880294
40
0.273345461367354
40
0.301677279854414
40
0.330009098341475
40
0.358340916828535
40
0.386672735315595
40
0.415004553802656
40
0.429170463046186
40
0.443336372289716
40
0.457502281533247
40
0.471668190776777
40
0.485834100020307
40
0.492917054642072
40
0.500000009263837
40
0.507082963885602
40
0.514165918507367
40
0.528331827750897
40
0.542497736994428
40
0.556663646237958
40
0.570829555481488
40
0.584995464725018
40
0.613327283212079
40
0.641659101699139
40
0.669990920186199
40
0.69832273867326
40
0.72665455716032
40
0.75498637564738
40
0.783318194134441
40
0.811650012621501
40
0.839981831108562
40
0.868313649595622
40
0.896645468082682
40
0.910811377326213
40
0.924977286569743
40
0.953309105056803
40
0.981640923543864
40
1
40
1
40
1
40
1
41
1
10
-2.2
20
27.5061904685178
30
0
41
1
10
-2.2
20
27.4879594260625
30
0
41
1
10
-2.2
20
27.3967255814946
30
0
41
1
10
-2.2
20
27.0843209142601
30
0
41
1
10
-2.2
20
26.6200957619357
30
0
41
1
10
-2.2
20
26.1561930557051
30
0
41
1
10
-2.2
20
25.6326636676739
30
0
41
1
10
-2.2
20
24.87122617173
30
0
41
1
10
-2.2
20
23.7958345745359
30
0
41
1
10
-2.2
20
22.5676769377316
30
0
41
1
10
-2.2
20
21.1922725974247
30
0
41
1
10
-2.2
20
19.6749839400143
30
0
41
1
10
-2.2
20
18.0199573189881
30
0
41
1
10
-2.2
20
16.2292523079286
30
0
41
1
10
-2.2
20
14.3055536070197
30
0
41
1
10
-2.2
20
12.2492948087344
30
0
41
1
10
-2.2
20
10.0609975068282
30
0
41
1
10
-2.2
20
8.1268648484035
30
0
41
1
10
-2.2
20
6.51319169435675
30
0
41
1
10
-2.2
20
5.26973663380883
30
0
41
1
10
-2.2
20
3.99363707251752
30
0
41
1
10
-2.2
20
2.68649461847352
30
0
41
1
10
-2.2
20
1.57441419616916
30
0
41
1
10
-2.2
20
0.676125991375216
30
0
41
1
10
-2.2
20
8.01526596E-08
30
0
41
1
10
-2.2
20
-0.676125852580327
30
0
41
1
10
-2.2
20
-1.57441409623576
30
0
41
1
10
-2.2
20
-2.68649440179473
30
0
41
1
10
-2.2
20
-3.99363661217191
30
0
41
1
10
-2.2
20
-5.26973655346097
30
0
41
1
10
-2.2
20
-6.51319173456665
30
0
41
1
10
-2.2
20
-8.12686459619209
30
0
41
1
10
-2.2
20
-10.0609973779136
30
0
41
1
10
-2.2
20
-12.2492947844102
30
0
41
1
10
-2.2
20
-14.3055535850363
30
0
41
1
10
-2.2
20
-16.229252641869
30
0
41
1
10
-2.2
20
-18.0199577075533
30
0
41
1
10
-2.2
20
-19.6749841148914
30
0
41
1
10
-2.2
20
-21.1922721628705
30
0
41
1
10
-2.2
20
-22.5676765989873
30
0
41
1
10
-2.2
20
-23.7958356733944
30
0
41
1
10
-2.2
20
-24.8712257553422
30
0
41
1
10
-2.2
20
-25.6326608836802
30
0
41
1
10
-2.2
20
-26.156191020121
30
0
41
1
10
-2.2
20
-26.6200957584237
30
0
41
1
10
-2.2
20
-27.0843206529938
30
0
41
1
10
-2.2
20
-27.396725524401
30
0
41
1
10
-2.2
20
-27.4879595019577
30
0
41
1
10
-2.2
20
-27.5061905312771
30
0
0
SPLINE
5
146
100
AcDbEntity
8
SK1
62
256
6
ByLayer
370
18
48
1
60
0
100
AcDbSpline
70
4
71
3
72
11
73
7
40
0
40
0
40
0
40
0
40
0.242613274386357
40
0.502578392244697
40
0.7611106503138
40
1
40
1
40
1
40
1
41
1
10
-0.200000000000003
20
27.5602884583736
30
0
41
1
10
-0.200957398531329
20
27.5346319643647
30
0
41
1
10
-0.211247851191416
20
27.4855974197866
30
0
41
1
10
-0.255177176288498
20
27.4196125572155
30
0
41
1
10
-0.321111944271209
20
27.3763891500634
30
0
41
1
10
-0.369683308142783
20
27.3663394559984
30
0
41
1
10
-0.394913799811292
20
27.3654112548763
30
0
0
SPLINE
5
147
100
AcDbEntity
8
SK1
62
256
6
ByLayer
370
18
48
1
60
0
100
AcDbSpline
70
4
71
3
72
11
73
7
40
0
40
0
40
0
40
0
40
0.238889349440137
40
0.497421607400416
40
0.757386725367948
40
1
40
1
40
1
40
1
41
1
10
-0.394913799811292
20
-27.3654112553951
30
0
41
1
10
-0.369683308137446
20
-27.3663394565247
30
0
41
1
10
-0.321111944249679
20
-27.3763891506148
30
0
41
1
10
-0.255177176262187
20
-27.4196125578967
30
0
41
1
10
-0.21124785118645
20
-27.4855974206285
30
0
41
1
10
-0.200957398526164
20
-27.5346319653141
30
0
41
1
10
-0.200000000000003
20
-27.5602884593822
30
0
0
SPLINE
5
148
100
AcDbEntity
8
SK1
62
256
6
ByLayer
370
18
48
1
60
0
100
AcDbSpline
70
4
71
2
72
6
73
3
40
0
40
0
40
0
40
1
40
1
40
1
41
1
10
-0.394913799811292
20
27.3654109357686
30
0
41
1
10
-1.19497688887553
20
27.3453143405603
30
0
41
1
10
-1.9950399779393
20
27.3252177453533
30
0
0
SPLINE
5
149
100
AcDbEntity
8
SK1
62
256
6
ByLayer
370
18
48
1
60
0
100
AcDbSpline
70
4
71
2
72
6
73
3
40
0
40
0
40
0
40
1
40
1
40
1
41
1
10
-1.9950399779393
20
-27.3252177457659
30
0
41
1
10
-1.19497688887553
20
-27.3453143410234
30
0
41
1
10
-0.394913799811292
20
-27.3654109362823
30
0
0
SPLINE
5
14A
100
AcDbEntity
8
SK1
62
256
6
ByLayer
370
18
48
1
60
0
100
AcDbSpline
70
4
71
3
72
13
73
9
40
0
40
0
40
0
40
0
40
0.239476652228471
40
0.368387280502859
40
0.500029253623322
40
0.631666356830358
40
0.760563560434011
40
1
40
1
40
1
40
1
41
1
10
-1.9950399779393
20
27.3252180635337
30
0
41
1
10
-2.02110990202351
20
27.3248162466093
30
0
41
1
10
-2.05883986743972
20
27.3309874075326
30
0
41
1
10
-2.10627655326442
20
27.3540268954422
30
0
41
1
10
-2.13886325113099
20
27.3791895457298
30
0
41
1
10
-2.16563551768928
20
27.4104653540177
30
0
41
1
10
-2.19103253552857
20
27.4566758419157
30
0
41
1
10
-2.19909167978657
20
27.4940420728663
30
0
41
1
10
-2.2
20
27.5200952670183
30
0
0
SPLINE
5
14B
100
AcDbEntity
8
SK1
62
256
6
ByLayer
370
18
48
1
60
0
100
AcDbSpline
70
4
71
3
72
13
73
9
40
0
40
0
40
0
40
0
40
0.239436439813555
40
0.368333643497099
40
0.499970746731949
40
0.631612719822045
40
0.760523348015344
40
1
40
1
40
1
40
1
41
1
10
-2.2
20
-27.5200952679265
30
0
41
1
10
-2.19909167979044
20
-27.4940420737146
30
0
41
1
10
-2.19103253553246
20
-27.4566758426755
30
0
41
1
10
-2.16563551769427
20
-27.4104653546574
30
0
41
1
10
-2.13886325113761
20
-27.3791895462899
30
0
41
1
10
-2.10627655327161
20
-27.3540268959373
30
0
41
1
10
-2.05883986745029
20
-27.3309874079684
30
0
41
1
10
-2.021109902029
20
-27.3248162470299
30
0
41
1
10
-1.9950399779393
20
-27.325218063952
30
0
0
SPLINE
5
14C
100
AcDbEntity
8
SK1
62
256
6
ByLayer
370
18
48
1
60
0
100
AcDbSpline
70
4
71
2
72
6
73
3
40
0
40
0
40
0
40
1
40
1
40
1
41
1
10
-2.2
20
27.5062670222795
30
0
41
1
10
-24.3500000023321
20
26.9501984525041
30
0
41
1
10
-46.5
20
26.3941258817702
30
0
0
SPLINE
5
14D
100
AcDbEntity
8
SK1
62
256
6
ByLayer
370
18
48
1
60
0
100
AcDbSpline
70
4
71
2
72
6
73
3
40
0
40
0
40
0
40
1
40
1
40
1
41
1
10
-46.5
20
-26.3941258787019
30
0
41
1
10
-24.3500000023322
20
-26.9501984522264
30
0
41
1
10
-2.2
20
-27.5062670250574
30
0
0
LINE
5
8A
100
AcDbEntity
8
1
62
256
6
ByLayer
370
13
48
1
60
0
100
AcDbLine
10
145.374058
20
0.898669
30
0
11
159.109516
21
-0.787834
31
0
39
0
210
0
220
0
230
1
0
LINE
5
8B
100
AcDbEntity
8
1
62
256
6
ByLayer
370
13
48
1
60
0
100
AcDbLine
10
134.655579
20
10.356468
30
0
11
144.93967
21
1.096631
31
0
39
0
210
0
220
0
230
1
0
LINE
5
8C
100
AcDbEntity
8
1
62
256
6
ByLayer
370
13
48
1
60
0
100
AcDbLine
10
149.018893
20
10.04767
30
0
11
135.283435
21
11.734172
31
0
39
0
210
0
220
0
230
1
0
LINE
5
8D
100
AcDbEntity
8
1
62
256
6
ByLayer
370
13
48
1
60
0
100
AcDbLine
10
159.737372
20
0.589871
30
0
11
149.453282
21
9.849708
31
0
39
0
210
0
220
0
230
1
0
LINE
5
8E
100
AcDbEntity
8
SK1
62
256
6
ByLayer
370
18
48
1
60
0
100
AcDbLine
10
-1.307107
20
4.393312
30
0
11
-1.307107
21
-4.393309
31
0
39
0
210
0
220
0
230
1
0
LINE
5
90
100
AcDbEntity
8
1
62
256
6
ByLayer
370
18
48
1
60
0
100
AcDbLine
10
80.928139
20
-20.452444
30
0
11
38.982779
21
-34.081318
31
0
39
0
210
0
220
0
230
1
0
LINE
5
91
100
AcDbEntity
8
1
62
256
6
ByLayer
370
18
48
1
60
0
100
AcDbLine
10
127.322835
20
10.929856
30
0
11
128.053699
21
9.506536
31
0
39
0
210
0
220
0
230
1
0
LINE
5
92
100
AcDbEntity
8
1
62
256
6
ByLayer
370
18
48
1
60
0
100
AcDbLine
10
13.461325
20
38.115458
30
0
11
13.461325
21
12.13309
31
0
39
0
210
0
220
0
230
1
0
LINE
5
93
100
AcDbEntity
8
1
62
256
6
ByLayer
370
18
48
1
60
0
100
AcDbLine
10
133.303068
20
8.264288
30
0
11
133.272433
21
8.014786
31
0
39
0
210
0
220
0
230
1
0
LINE
5
94
100
AcDbEntity
8
1
62
256
6
ByLayer
370
18
48
1
60
0
100
AcDbLine
10
10.538675
20
-12.13309
30
0
11
10.538675
21
-38.115458
31
0
39
0
210
0
220
0
230
1
0
LINE
5
95
100
AcDbEntity
8
1
62
256
6
ByLayer
370
18
48
1
60
0
100
AcDbLine
10
98.670374
20
35.89156
30
0
11
120.141936
21
32.105545
31
0
39
0
210
0
220
0
230
1
0
LINE
5
96
100
AcDbEntity
8
1
62
256
6
ByLayer
370
18
48
1
60
0
100
AcDbLine
10
13.894338
20
37.944501
30
0
11
13.894338
21
12.6576
31
0
39
0
210
0
220
0
230
1
0
LINE
5
97
100
AcDbEntity
8
1
62
256
6
ByLayer
370
18
48
1
60
0
100
AcDbLine
10
38.871396
20
-33.738516
30
0
11
38.982779
21
-34.081318
31
0
39
0
210
0
220
0
230
1
0
LINE
5
98
100
AcDbEntity
8
1
62
256
6
ByLayer
370
18
48
1
60
0
100
AcDbLine
10
10.538675
20
38.115458
30
0
11
13.461325
21
38.115458
31
0
39
0
210
0
220
0
230
1
0
LINE
5
99
100
AcDbEntity
8
1
62
256
6
ByLayer
370
18
48
1
60
0
100
AcDbLine
10
10.538675
20
-12.13309
30
0
11
13.461325
21
-12.13309
31
0
39
0
210
0
220
0
230
1
0
LINE
5
9A
100
AcDbEntity
8
1
62
256
6
ByLayer
370
18
48
1
60
0
100
AcDbLine
10
13.461325
20
12.13309
30
0
11
10.538675
21
12.13309
31
0
39
0
210
0
220
0
230
1
0
LINE
5
9B
100
AcDbEntity
8
1
62
256
6
ByLayer
370
18
48
1
60
0
100
AcDbLine
10
13.894338
20
-12.6576
30
0
11
13.894338
21
-37.944501
31
0
39
0
210
0
220
0
230
1
0
LINE
5
9C
100
AcDbEntity
8
1
62
256
6
ByLayer
370
18
48
1
60
0
100
AcDbLine
10
13.461325
20
-38.115458
30
0
11
10.538675
21
-38.115458
31
0
39
0
210
0
220
0
230
1
0
LINE
5
9D
100
AcDbEntity
8
1
62
256
6
ByLayer
370
18
48
1
60
0
100
AcDbLine
10
131.443287
20
21.494383
30
0
11
132.615015
21
22.583903
31
0
39
0
210
0
220
0
230
1
0
LINE
5
9E
100
AcDbEntity
8
1
62
256
6
ByLayer
370
18
48
1
60
0
100
AcDbLine
10
128.422575
20
11.896063
30
0
11
129.739966
21
10.988054
31
0
39
0
210
0
220
0
230
1
0
LINE
5
9F
100
AcDbEntity
8
1
62
256
6
ByLayer
370
18
48
1
60
0
100
AcDbLine
10
10.105662
20
37.944501
30
0
11
10.105662
21
12.6576
31
0
39
0
210
0
220
0
230
1
0
LINE
5
A0
100
AcDbEntity
8
1
62
256
6
ByLayer
370
18
48
1
60
0
100
AcDbLine
10
147.72854
20
10.56838
30
0
11
127.472335
21
28.807149
31
0
39
0
210
0
220
0
230
1
0
LINE
5
A1
100
AcDbEntity
8
1
62
256
6
ByLayer
370
18
48
1
60
0
100
AcDbLine
10
83.882918
20
-19.492379
30
0
11
138.505892
21
-1.744299
31
0
39
0
210
0
220
0
230
1
0
LINE
5
A2
100
AcDbEntity
8
1
62
256
6
ByLayer
370
18
48
1
60
0
100
AcDbLine
10
10.105662
20
-12.6576
30
0
11
10.105662
21
-37.944501
31
0
39
0
210
0
220
0
230
1
0
LINE
5
A3
100
AcDbEntity
8
1
62
256
6
ByLayer
370
18
48
1
60
0
100
AcDbLine
10
131.983473
20
18.22358
30
0
11
133.4433
21
17.568671
31
0
39
0
210
0
220
0
230
1
0
LINE
5
A4
100
AcDbEntity
8
1
62
256
6
ByLayer
370
18
48
1
60
0
100
AcDbLine
10
13.461325
20
-12.13309
30
0
11
13.461325
21
-38.115458
31
0
39
0
210
0
220
0
230
1
0
LINE
5
A5
100
AcDbEntity
8
1
62
256
6
ByLayer
370
18
48
1
60
0
100
AcDbLine
10
10.538675
20
38.115458
30
0
11
10.538675
21
12.13309
31
0
39
0
210
0
220
0
230
1
0
LINE
5
A6
100
AcDbEntity
8
1
62
256
6
ByLayer
370
18
48
1
60
0
100
AcDbLine
10
133.815274
20
8.272598
30
0
11
137.468055
21
7.824093
31
0
39
0
210
0
220
0
230
1
0
LINE
5
A7
100
AcDbEntity
8
1
62
256
6
ByLayer
370
18
48
1
60
0
100
AcDbLine
10
144.112683
20
1.841252
30
0
11
144.091901
21
1.79565
31
0
39
0
210
0
220
0
230
1
0
LINE
5
A8
100
AcDbEntity
8
1
62
256
6
ByLayer
370
18
48
1
60
0
100
AcDbLine
10
133.272433
20
8.014786
30
0
11
137.885261
21
7.448402
31
0
39
0
210
0
220
0
230
1
0
LINE
5
A9
100
AcDbEntity
8
1
62
256
6
ByLayer
370
18
48
1
60
0
100
AcDbLine
10
147.935151
20
10.228891
30
0
11
147.914369
21
10.183289
31
0
39
0
210
0
220
0
230
1
0
LINE
5
AA
100
AcDbEntity
8
1
62
256
6
ByLayer
370
18
48
1
60
0
100
AcDbLine
10
133.813442
20
8.373574
30
0
11
137.33846
21
7.940756
31
0
39
0
210
0
220
0
230
1
0
LINE
5
AB
100
AcDbEntity
8
SK1
62
256
6
ByLayer
370
18
48
1
60
0
100
AcDbLine
10
-0.2
20
-28.683485
30
0
11
-0.2
21
-6.552279
31
0
39
0
210
0
220
0
230
1
0
LINE
5
AC
100
AcDbEntity
8
SK1
62
256
6
ByLayer
370
18
48
1
60
0
100
AcDbLine
10
-0.2
20
28.683485
30
0
11
-0.2
21
6.552277
31
0
39
0
210
0
220
0
230
1
0
LINE
5
AD
100
AcDbEntity
8
1
62
256
6
ByLayer
370
18
48
1
60
0
100
AcDbLine
10
0
20
39.7
30
0
11
0
21
-39.7
31
0
39
0
210
0
220
0
230
1
0
LINE
5
AE
100
AcDbEntity
8
1
62
256
6
ByLayer
370
18
48
1
60
0
100
AcDbLine
10
0.3
20
40
30
0
11
0.3
21
-40
31
0
39
0
210
0
220
0
230
1
0
LINE
5
AF
100
AcDbEntity
8
1
62
256
6
ByLayer
370
18
48
1
60
0
100
AcDbLine
10
30.279208
20
-40
30
0
11
30.279208
21
40
31
0
39
0
210
0
220
0
230
1
0
LINE
5
B0
100
AcDbEntity
8
1
62
256
6
ByLayer
370
18
48
1
60
0
100
AcDbLine
10
30.653716
20
40.059937
30
0
11
30.653716
21
-40.059937
31
0
39
0
210
0
220
0
230
1
0
LINE
5
B1
100
AcDbEntity
8
81
62
256
6
ByLayer
370
18
48
1
60
0
100
AcDbLine
10
160.328782
20
0
30
0
11
170.328782
21
0
31
0
39
0
210
0
220
0
230
1
0
LINE
5
B2
100
AcDbEntity
8
80
62
256
6
ByLayer
370
18
48
1
60
0
100
AcDbLine
10
0
20
0
30
0
11
-10
21
0
31
0
39
0
210
0
220
0
230
1
0
LINE
5
B3
100
AcDbEntity
8
1
62
256
6
ByLayer
370
18
48
1
60
0
100
AcDbLine
10
0
20
-39.7
30
0
11
0.3
21
-40
31
0
39
0
210
0
220
0
230
1
0
LINE
5
B4
100
AcDbEntity
8
1
62
256
6
ByLayer
370
18
48
1
60
0
100
AcDbLine
10
0.3
20
40
30
0
11
0
21
39.7
31
0
39
0
210
0
220
0
230
1
0
LINE
5
B5
100
AcDbEntity
8
1
62
256
6
ByLayer
370
18
48
1
60
0
100
AcDbLine
10
30.279208
20
40
30
0
11
0.3
21
40
31
0
39
0
210
0
220
0
230
1
0
LINE
5
B6
100
AcDbEntity
8
1
62
256
6
ByLayer
370
18
48
1
60
0
100
AcDbLine
10
0.3
20
-40
30
0
11
30.279208
21
-40
31
0
39
0
210
0
220
0
230
1
0
LINE
5
B7
100
AcDbEntity
8
1
62
256
6
ByLayer
370
18
48
1
60
0
100
AcDbLine
10
98.670374
20
35.89156
30
0
11
30.653716
21
40.059937
31
0
39
0
210
0
220
0
230
1
0
LINE
5
B8
100
AcDbEntity
8
1
62
256
6
ByLayer
370
18
48
1
60
0
100
AcDbLine
10
30.653716
20
-40.059937
30
0
11
31.712968
21
-39.995021
31
0
39
0
210
0
220
0
230
1
0
LINE
5
B9
100
AcDbEntity
8
2
62
256
6
ByLayer
370
13
48
1
60
0
100
AcDbLine
10
183.928782
20
0
30
0
11
183.928782
21
-11.25
31
0
39
0
210
0
220
0
230
1
0
LINE
5
BA
100
AcDbEntity
8
2
62
256
6
ByLayer
370
13
48
1
60
0
100
AcDbLine
10
183.928782
20
0
30
0
11
183.928782
21
18.309066
31
0
39
0
210
0
220
0
230
1
0
LINE
5
BB
100
AcDbEntity
8
2
62
256
6
ByLayer
370
13
48
1
60
0
100
AcDbLine
10
161.916282
20
0
30
0
11
187.103782
21
0
31
0
39
0
210
0
220
0
230
1
0
LINE
5
BC
100
AcDbEntity
8
2
62
256
6
ByLayer
370
13
48
1
60
0
100
AcDbLine
10
51.5875
20
0
30
0
11
187.103782
21
0
31
0
39
0
210
0
220
0
230
1
0
LINE
5
BD
100
AcDbEntity
8
1
62
256
6
ByLayer
370
13
48
1
60
0
100
AcDbLine
10
183.928782
20
0
30
0
11
184.779521
21
-3.174997
31
0
39
0
210
0
220
0
230
1
0
LINE
5
BE
100
AcDbEntity
8
1
62
256
6
ByLayer
370
13
48
1
60
0
100
AcDbLine
10
183.928782
20
0
30
0
11
183.078043
21
-3.175003
31
0
39
0
210
0
220
0
230
1
0
LINE
5
BF
100
AcDbEntity
8
1
62
256
6
ByLayer
370
13
48
1
60
0
100
AcDbLine
10
184.779521
20
-3.174997
30
0
11
183.078043
21
-3.175003
31
0
39
0
210
0
220
0
230
1
0
LINE
5
C0
100
AcDbEntity
8
1
62
256
6
ByLayer
370
13
48
1
60
0
100
AcDbLine
10
183.928782
20
0
30
0
11
183.078043
21
3.174997
31
0
39
0
210
0
220
0
230
1
0
LINE
5
C1
100
AcDbEntity
8
1
62
256
6
ByLayer
370
13
48
1
60
0
100
AcDbLine
10
183.928782
20
0
30
0
11
184.779521
21
3.175003
31
0
39
0
210
0
220
0
230
1
0
LINE
5
C2
100
AcDbEntity
8
1
62
256
6
ByLayer
370
13
48
1
60
0
100
AcDbLine
10
183.078043
20
3.174997
30
0
11
184.779521
21
3.175003
31
0
39
0
210
0
220
0
230
1
0
LINE
5
C3
100
AcDbEntity
8
2
62
256
6
ByLayer
370
13
48
1
60
0
100
AcDbLine
10
147.73924
20
10.895325
30
0
11
144.25595
21
14.031693
31
0
39
0
210
0
220
0
230
1
0
LINE
5
C4
100
AcDbEntity
8
2
62
256
6
ByLayer
370
13
48
1
60
0
100
AcDbLine
10
160.328782
20
1.5875
30
0
11
160.328782
21
21.187779
31
0
39
0
210
0
220
0
230
1
0
LINE
5
C5
100
AcDbEntity
8
1
62
256
6
ByLayer
370
13
48
1
60
0
100
AcDbLine
10
146.615435
20
11.907204
30
0
11
148.231957
21
14.769234
31
0
39
0
210
0
220
0
230
1
0
LINE
5
C6
100
AcDbEntity
8
1
62
256
6
ByLayer
370
13
48
1
60
0
100
AcDbLine
10
146.615435
20
11.907204
30
0
11
149.446404
21
13.577537
31
0
39
0
210
0
220
0
230
1
0
LINE
5
C7
100
AcDbEntity
8
1
62
256
6
ByLayer
370
13
48
1
60
0
100
AcDbLine
10
148.231957
20
14.769234
30
0
11
149.446404
21
13.577537
31
0
39
0
210
0
220
0
230
1
0
LINE
5
C8
100
AcDbEntity
8
1
62
256
6
ByLayer
370
13
48
1
60
0
100
AcDbLine
10
160.328782
20
18.012779
30
0
11
157.1932
21
17.02663
31
0
39
0
210
0
220
0
230
1
0
LINE
5
C9
100
AcDbEntity
8
1
62
256
6
ByLayer
370
13
48
1
60
0
100
AcDbLine
10
160.328782
20
18.012779
30
0
11
157.120208
21
18.726541
31
0
39
0
210
0
220
0
230
1
0
LINE
5
CA
100
AcDbEntity
8
1
62
256
6
ByLayer
370
13
48
1
60
0
100
AcDbLine
10
157.1932
20
17.02663
30
0
11
157.120208
21
18.726541
31
0
39
0
210
0
220
0
230
1
0
MTEXT
5
14E
100
AcDbEntity
8
2
62
256
6
ByLayer
370
13
48
1
60
0
100
AcDbMText
10
183.04211
20
11.315
30
0
210
0
220
0
230
1
1
\W0.7121;0.0
40
4.5
41
0
44
1.084337
50
90
71
7
72
5
7
iso_b_vert
0
MTEXT
5
151
100
AcDbEntity
8
2
62
256
6
ByLayer
370
13
48
1
60
0
100
AcDbMText
10
141.588505
20
8.112745
30
0
210
0
220
0
230
1
1
\W0.8602;48%%d0'
40
4.5
41
0
44
1.084337
50
47.0252399774191
71
7
72
5
7
iso_b_vert
0
MTEXT
5
152
100
AcDbEntity
8
SK6
62
256
6
ByLayer
370
13
48
1
60
0
100
AcDbMText
10
56.349891
20
-77.467366
30
0
210
0
220
0
230
1
1
\W0.7393;C8-SVMBR-00160-16C1
40
3.5
41
0
44
1.084337
50
0
71
7
72
5
7
iso_b_vert
0
DIMENSION
5
155
100
AcDbEntity
8
2
62
256
6
ByLayer
370
13
48
1
60
0
100
AcDbDimension
2
_U0
10
0
20
-57.0672
30
0
11
80.164391
21
-57.0672
31
0
70
32
71
1
72
1
41
1
210
0
220
0
230
1
3
Standard
100
AcDbAlignedDimension
13
160.328782
23
0
33
0
14
0
24
40
34
0
50
0
100
AcDbRotatedDimension
1001
ACAD
1000
DSTYLE
1002
{
1070
   371
1070
    13
1070
   372
1070
    13
1070
     3
1000

1070
   170
1070
     0
1070
   144
1040
1.0
1070
   277
1070
     2
1070
   284
1070
     8
1070
   278
1070
    46
1070
   146
1040
0.777778
1070
   345
1005
16
1070
   347
1005
16
1070
   346
1005
16
1070
   344
1005
156
1070
   343
1005
156
1070
   172
1070
     1
1070
    76
1070
     0
1070
    75
1070
     0
1070
   282
1070
     0
1070
   281
1070
     0
1070
    71
1070
     0
1070
    74
1070
     0
1070
   279
1070
     0
1070
   173
1070
     1
1070
   340
1005
14F
1070
   271
1070
     1
1070
   272
1070
     2
1070
    77
1070
     1
1070
    73
1070
     1
1070
   171
1070
     3
1070
   274
1070
     4
1070
   177
1070
   150
1070
   176
1070
     9
1070
   178
1070
    43
1070
    78
1070
     8
1070
    48
1040
-0.1
1070
    41
1040
3.175
1070
   147
1040
2.25
1070
    42
1040
1.5875
1070
    44
1040
3.175
1070
   140
1040
4.5
1002
}
1001
ACAD_DSTYLE_DIM_LINETYPE
1070
   380
1005
16
1001
ACAD_DSTYLE_DIM_EXT1_LINETYPE
1070
   381
1005
16
1001
ACAD_DSTYLE_DIM_EXT2_LINETYPE
1070
   382
1005
16
0
ENDSEC
0
SECTION
2
OBJECTS
0
DICTIONARY
5
1e8
330
0
100
AcDbDictionary
280
0
281
1
3
ACAD_GROUP
350
1e9
3
ACAD_MLINESTYLE
350
1ea
0
DICTIONARY
5
1e9
330
0
100
AcDbDictionary
280
0
281
1
0
DICTIONARY
5
1ea
330
0
100
AcDbDictionary
280
0
281
1
3
Standard
350
18
0
MLINESTYLE
5
18
330
1ea
100
AcDbMlineStyle
2
Standard
70
0
3

62
256
51
90
52
90
71
2
49
-0.5
62
256
6
ByLayer
49
0.5
62
256
6
ByLayer
0
RASTERVARIABLES
5
1d7
330

100
AcDbRasterVariables
90
0
70
1
71
1
72
1
0
ENDSEC
0
EOF
