0
SECTION
2
HEADER
9
$ACADVER
1
AC1015
9
$DWGCODEPAGE
3
ANSI_1252
9
$HANDSEED
5
208
9
$ANGBASE
50
0
9
$ANGDIR
70
0
9
$ATTMODE
70
1
9
$AUNITS
70
0
9
$AUPREC
70
0
9
$CECOLOR
62
256
9
$CELTSCALE
40
1
9
$CELTYPE
6
ByLayer
9
$CELWEIGHT
370
18
9
$CLAYER
8
0
9
$CMLJUST
70
0
9
$CMLSCALE
40
1
9
$CMLSTYLE
2
Standard
9
$DIMSTYLE
2
Standard
9
$TEXTSIZE
40
0.2
9
$TEXTSTYLE
7
Standard
9
$LUNITS
70
2
9
$LUPREC
70
4
9
$EXTNAMES
290
1
9
$INSUNITS
70
4
9
$LTSCALE
40
1
9
$LWDISPLAY
290
1
9
$PDMODE
70
0
9
$PDSIZE
40
0
9
$PLINEGEN
70
0
0
ENDSEC
0
SECTION
2
CLASSES
0
CLASS
1
RASTERVARIABLES
2
AcDbRasterVariables
3
ISM
90
0
280
0
281
0
0
ENDSEC
0
SECTION
2
TABLES
0
TABLE
2
VPORT
5
1fe
100
AcDbSymbolTable
0
VPORT
5
1
100
AcDbSymbolTableRecord
100
AcDbViewportTableRecord
2
*Active
70
0
10
0
20
0
11
1
21
1
12
-1
22
1
13
0
23
0
14
0.5
24
0.5
15
10
25
10
16
0
26
0
36
1
17
0
27
0
37
0
0
ENDTAB
0
TABLE
2
LTYPE
5
1ff
100
AcDbSymbolTable
0
LTYPE
5
14
100
AcDbSymbolTableRecord
100
AcDbLinetypeTableRecord
70
0
2
ByBlock
3

72
65
73
0
40
0
0
LTYPE
5
15
100
AcDbSymbolTableRecord
100
AcDbLinetypeTableRecord
70
0
2
ByLayer
3

72
65
73
0
40
0
0
LTYPE
5
16
100
AcDbSymbolTableRecord
100
AcDbLinetypeTableRecord
70
0
2
Continuous
3
Solid line
72
65
73
0
40
0
0
LTYPE
5
6E
100
AcDbSymbolTableRecord
100
AcDbLinetypeTableRecord
70
0
2
CENTER
3
____ _ ____ _ ____ _ ____
72
65
73
4
40
47.5
49
22
74
0
49
-8.5
74
0
49
8.5
74
0
49
-8.5
74
0
0
LTYPE
5
6F
100
AcDbSymbolTableRecord
100
AcDbLinetypeTableRecord
70
0
2
DASHED
3
__ __ __ __ __ __ __ __ __
72
65
73
2
40
25.72
49
12.86
74
0
49
-12.86
74
0
0
ENDTAB
0
TABLE
2
LAYER
5
200
100
AcDbSymbolTable
0
LAYER
5
10
100
AcDbSymbolTableRecord
100
AcDbLayerTableRecord
2
0
70
0
62
7
6
Continuous
290
1
370
-3
390
0
0
LAYER
5
71
100
AcDbSymbolTableRecord
100
AcDbLayerTableRecord
2
1
70
0
62
4
6
Continuous
290
1
370
-3
390
0
0
LAYER
5
73
100
AcDbSymbolTableRecord
100
AcDbLayerTableRecord
2
81
70
0
62
-3
6
Continuous
290
1
370
-3
390
0
0
LAYER
5
75
100
AcDbSymbolTableRecord
100
AcDbLayerTableRecord
2
80
70
0
62
-6
6
Continuous
290
1
370
-3
390
0
0
LAYER
5
C6
100
AcDbSymbolTableRecord
100
AcDbLayerTableRecord
2
2
70
0
62
7
6
Continuous
290
1
370
-3
390
0
0
LAYER
5
12D
100
AcDbSymbolTableRecord
100
AcDbLayerTableRecord
2
Defpoints
70
0
62
7
6
Continuous
290
0
370
-3
390
0
0
LAYER
5
1eb
100
AcDbSymbolTableRecord
100
AcDbLayerTableRecord
2
SK1
70
0
62
4
6
Continuous
290
1
370
-3
390
0
0
LAYER
5
1ec
100
AcDbSymbolTableRecord
100
AcDbLayerTableRecord
2
SK6
70
0
62
5
6
Continuous
290
1
370
-3
390
0
0
LAYER
5
1ed
100
AcDbSymbolTableRecord
100
AcDbLayerTableRecord
2
SK2
70
0
62
7
6
Continuous
290
1
370
-3
390
0
0
ENDTAB
0
TABLE
2
STYLE
5
201
100
AcDbSymbolTable
0
STYLE
5
11
100
AcDbSymbolTableRecord
100
AcDbTextStyleTableRecord
2
Standard
3
txt
70
0
71
0
40
0
41
1
42
0
50
0
0
STYLE
5
11D
100
AcDbSymbolTableRecord
100
AcDbTextStyleTableRecord
2
iso_b_vert
3
simplex.shx
70
0
71
0
40
0
41
1
42
0
50
0
0
STYLE
5
11E
100
AcDbSymbolTableRecord
100
AcDbTextStyleTableRecord
2
DWGDirectTextStyle
3
simplex
70
0
71
0
40
0
41
1
42
0
50
0
0
ENDTAB
0
TABLE
2
DIMSTYLE
5
202
100
AcDbSymbolTable
100
AcDbDimStyleTable
0
DIMSTYLE
105
27
100
AcDbSymbolTableRecord
100
AcDbDimStyleTableRecord
2
Standard
70
0
3
<>
41
0.18
42
0.0625
44
0.18
140
0.18
147
0.09
73
0
74
0
77
1
271
2
275
0
278
52
280
0
340
11
0
ENDTAB
0
TABLE
2
VIEW
5
203
100
AcDbSymbolTable
0
ENDTAB
0
TABLE
2
UCS
5
204
100
AcDbSymbolTable
0
ENDTAB
0
TABLE
2
APPID
5
205
100
AcDbSymbolTable
0
APPID
5
12
100
AcDbSymbolTableRecord
100
AcDbRegAppTableRecord
2
ACAD
70
0
0
APPID
5
129
100
AcDbSymbolTableRecord
100
AcDbRegAppTableRecord
2
ACAD_DSTYLE_DIMBREAK
70
0
0
APPID
5
1AA
100
AcDbSymbolTableRecord
100
AcDbRegAppTableRecord
2
ACAD_DSTYLE_DIM_LINETYPE
70
0
0
APPID
5
1AB
100
AcDbSymbolTableRecord
100
AcDbRegAppTableRecord
2
ACAD_DSTYLE_DIM_EXT1_LINETYPE
70
0
0
APPID
5
1AC
100
AcDbSymbolTableRecord
100
AcDbRegAppTableRecord
2
ACAD_DSTYLE_DIM_EXT2_LINETYPE
70
0
0
APPID
5
1E7
100
AcDbSymbolTableRecord
100
AcDbRegAppTableRecord
2
ACAD_MLEADERVER
70
0
0
ENDTAB
0
TABLE
2
BLOCK_RECORD
5
206
100
AcDbSymbolTable
0
BLOCK_RECORD
5
1F
100
AcDbSymbolTableRecord
100
AcDbBlockTableRecord
2
*Model_Space
340
0
70
0
0
BLOCK_RECORD
5
1B
100
AcDbSymbolTableRecord
100
AcDbBlockTableRecord
2
*Paper_Space
340
0
70
0
0
BLOCK_RECORD
5
23
100
AcDbSymbolTableRecord
100
AcDbBlockTableRecord
2
*Paper_Space0
340
0
70
0
0
BLOCK_RECORD
5
12E
100
AcDbSymbolTableRecord
100
AcDbBlockTableRecord
2
*D1
340
0
70
0
0
BLOCK_RECORD
5
13A
100
AcDbSymbolTableRecord
100
AcDbBlockTableRecord
2
_U0
340
0
70
0
0
BLOCK_RECORD
5
146
100
AcDbSymbolTableRecord
100
AcDbBlockTableRecord
2
*D3
340
0
70
0
0
BLOCK_RECORD
5
153
100
AcDbSymbolTableRecord
100
AcDbBlockTableRecord
2
_U1
340
0
70
0
0
BLOCK_RECORD
5
15F
100
AcDbSymbolTableRecord
100
AcDbBlockTableRecord
2
*D5
340
0
70
0
0
BLOCK_RECORD
5
16B
100
AcDbSymbolTableRecord
100
AcDbBlockTableRecord
2
_U2
340
0
70
0
0
BLOCK_RECORD
5
177
100
AcDbSymbolTableRecord
100
AcDbBlockTableRecord
2
*D7
340
0
70
0
0
BLOCK_RECORD
5
183
100
AcDbSymbolTableRecord
100
AcDbBlockTableRecord
2
_U3
340
0
70
0
0
ENDTAB
0
ENDSEC
0
SECTION
2
BLOCKS
0
BLOCK
5
20
100
AcDbEntity
8
0
100
AcDbBlockBegin
2
*Model_Space
70
0
10
0
20
0
30
0
3
*Model_Space
0
ENDBLK
5
21
100
AcDbEntity
8
0
100
AcDbBlockEnd
0
BLOCK
5
1C
100
AcDbEntity
8
0
100
AcDbBlockBegin
2
*Paper_Space
70
0
10
0
20
0
30
0
3
*Paper_Space
0
ENDBLK
5
1D
100
AcDbEntity
8
0
100
AcDbBlockEnd
0
BLOCK
5
24
100
AcDbEntity
8
0
100
AcDbBlockBegin
2
*Paper_Space0
70
0
10
0
20
0
30
0
3
*Paper_Space0
0
ENDBLK
5
25
100
AcDbEntity
8
0
100
AcDbBlockEnd
0
BLOCK
5
12F
100
AcDbEntity
8
0
100
AcDbBlockBegin
2
*D1
70
1
10
0
20
0
30
0
3
*D1
0
LINE
5
131
100
AcDbEntity
8
0
62
256
6
ByLayer
370
-2
48
1
60
0
100
AcDbLine
10
48.320339
20
24.075
30
0
11
81.795569
21
24.075
31
0
39
0
210
0
220
0
230
1
0
LINE
5
132
100
AcDbEntity
8
0
62
256
6
ByLayer
370
-2
48
1
60
0
100
AcDbLine
10
-141.679661
20
-15.925
30
0
11
81.795569
21
-15.925
31
0
39
0
210
0
220
0
230
1
0
LINE
5
133
100
AcDbEntity
8
0
62
256
6
ByLayer
370
-2
48
1
60
0
100
AcDbLine
10
79.795569
20
20.575
30
0
11
79.795569
21
-12.425
31
0
39
0
210
0
220
0
230
1
0
SOLID
5
134
100
AcDbEntity
8
0
62
256
6
ByLayer
370
-1
48
1
60
0
100
AcDbTrace
10
80.378903
20
20.575
30
0
11
79.212236
21
20.575
31
0
12
79.795569
22
24.075
32
0
13
79.795569
23
24.075
33
0
39
0
210
0
220
0
230
1
0
SOLID
5
135
100
AcDbEntity
8
0
62
256
6
ByLayer
370
-1
48
1
60
0
100
AcDbTrace
10
79.212236
20
-12.425
30
0
11
80.378903
21
-12.425
31
0
12
79.795569
22
-15.925
32
0
13
79.795569
23
-15.925
33
0
39
0
210
0
220
0
230
1
0
MTEXT
5
136
100
AcDbEntity
8
0
62
256
6
ByLayer
370
18
48
1
60
0
100
AcDbMText
10
72.795569
20
4.075
30
0
210
0
220
0
230
1
1
\A1;40
40
3.5
41
0
44
1
50
90
71
5
72
5
7
iso_b_vert
0
POINT
5
137
100
AcDbEntity
8
Defpoints
62
0
6
ByLayer
370
-1
48
1
60
0
100
AcDbPoint
10
46.732839
20
24.075
30
0
39
0
210
0
220
0
230
1
50
360
0
POINT
5
138
100
AcDbEntity
8
Defpoints
62
0
6
ByLayer
370
-1
48
1
60
0
100
AcDbPoint
10
-143.267161
20
-15.925
30
0
39
0
210
0
220
0
230
1
50
360
0
POINT
5
139
100
AcDbEntity
8
Defpoints
62
0
6
ByLayer
370
-1
48
1
60
0
100
AcDbPoint
10
79.795569
20
-15.925
30
0
39
0
210
0
220
0
230
1
50
360
0
ENDBLK
5
130
100
AcDbEntity
8
0
100
AcDbBlockEnd
0
BLOCK
5
141
100
AcDbEntity
8
0
100
AcDbBlockBegin
2
_U0
70
0
10
0
20
0
30
0
3
_U0
0
MTEXT
5
13B
100
AcDbEntity
8
2
62
256
6
ByLayer
370
18
48
1
60
0
100
AcDbMText
10
79.105936
20
1.957767
30
0
210
0
220
0
230
1
1
\W0.7361;40
40
3.5
41
0
44
1.084337
50
90
71
7
72
5
7
iso_b_vert
0
LINE
5
13C
100
AcDbEntity
8
2
62
256
6
ByLayer
370
13
48
1
60
0
100
AcDbLine
10
48.320339
20
24.075
30
0
11
81.795569
21
24.075
31
0
39
0
210
0
220
0
230
1
0
LINE
5
13D
100
AcDbEntity
8
2
62
256
6
ByLayer
370
13
48
1
60
0
100
AcDbLine
10
-141.679661
20
-15.925
30
0
11
81.795569
21
-15.925
31
0
39
0
210
0
220
0
230
1
0
LINE
5
13E
100
AcDbEntity
8
2
62
256
6
ByLayer
370
13
48
1
60
0
100
AcDbLine
10
79.795569
20
24.075
30
0
11
79.795569
21
-15.925
31
0
39
0
210
0
220
0
230
1
0
SOLID
5
13F
100
AcDbEntity
8
2
62
256
6
ByLayer
370
18
48
1
60
0
100
AcDbTrace
10
79.795569
20
24.075
30
0
11
80.256353
21
20.575002
31
0
12
79.334786
22
20.574998
32
0
13
79.334786
23
20.574998
33
0
39
0
210
0
220
0
230
1
0
SOLID
5
140
100
AcDbEntity
8
2
62
256
6
ByLayer
370
18
48
1
60
0
100
AcDbTrace
10
79.795569
20
-15.925
30
0
11
79.334786
21
-12.425002
31
0
12
80.256353
22
-12.424998
32
0
13
80.256353
23
-12.424998
33
0
39
0
210
0
220
0
230
1
0
ENDBLK
5
142
100
AcDbEntity
8
0
100
AcDbBlockEnd
0
BLOCK
5
147
100
AcDbEntity
8
0
100
AcDbBlockBegin
2
*D3
70
1
10
0
20
0
30
0
3
*D3
0
LINE
5
149
100
AcDbEntity
8
0
62
256
6
ByLayer
370
-2
48
1
60
0
100
AcDbLine
10
-144.854661
20
-15.925
30
0
11
-156.867161
21
-15.925
31
0
39
0
210
0
220
0
230
1
0
LINE
5
14A
100
AcDbEntity
8
0
62
256
6
ByLayer
370
-2
48
1
60
0
100
AcDbLine
10
-144.854661
20
16.075
30
0
11
-156.867161
21
16.075
31
0
39
0
210
0
220
0
230
1
0
LINE
5
14B
100
AcDbEntity
8
0
62
256
6
ByLayer
370
-2
48
1
60
0
100
AcDbLine
10
-154.867161
20
-12.425
30
0
11
-154.867161
21
12.575
31
0
39
0
210
0
220
0
230
1
0
SOLID
5
14C
100
AcDbEntity
8
0
62
256
6
ByLayer
370
-1
48
1
60
0
100
AcDbTrace
10
-155.450495
20
-12.425
30
0
11
-154.283828
21
-12.425
31
0
12
-154.867161
22
-15.925
32
0
13
-154.867161
23
-15.925
33
0
39
0
210
0
220
0
230
1
0
SOLID
5
14D
100
AcDbEntity
8
0
62
256
6
ByLayer
370
-1
48
1
60
0
100
AcDbTrace
10
-154.283828
20
12.575
30
0
11
-155.450495
21
12.575
31
0
12
-154.867161
22
16.075
32
0
13
-154.867161
23
16.075
33
0
39
0
210
0
220
0
230
1
0
MTEXT
5
14E
100
AcDbEntity
8
0
62
256
6
ByLayer
370
18
48
1
60
0
100
AcDbMText
10
-161.867161
20
0.075
30
0
210
0
220
0
230
1
1
\A1;32
40
3.5
41
0
44
1
50
90
71
5
72
5
7
iso_b_vert
0
POINT
5
14F
100
AcDbEntity
8
Defpoints
62
0
6
ByLayer
370
-1
48
1
60
0
100
AcDbPoint
10
-143.267161
20
-15.925
30
0
39
0
210
0
220
0
230
1
50
360
0
POINT
5
150
100
AcDbEntity
8
Defpoints
62
0
6
ByLayer
370
-1
48
1
60
0
100
AcDbPoint
10
-143.267161
20
16.075
30
0
39
0
210
0
220
0
230
1
50
360
0
POINT
5
151
100
AcDbEntity
8
Defpoints
62
0
6
ByLayer
370
-1
48
1
60
0
100
AcDbPoint
10
-154.867161
20
16.075
30
0
39
0
210
0
220
0
230
1
50
360
0
ENDBLK
5
148
100
AcDbEntity
8
0
100
AcDbBlockEnd
0
BLOCK
5
15A
100
AcDbEntity
8
0
100
AcDbBlockBegin
2
_U1
70
0
10
0
20
0
30
0
3
_U1
0
MTEXT
5
154
100
AcDbEntity
8
SK2
62
256
6
ByLayer
370
18
48
1
60
0
100
AcDbMText
10
-155.556795
20
-1.857966
30
0
210
0
220
0
230
1
1
\W0.6740;32
40
3.5
41
0
44
1.084337
50
90
71
7
72
5
7
iso_b_vert
0
LINE
5
155
100
AcDbEntity
8
SK2
62
256
6
ByLayer
370
13
48
1
60
0
100
AcDbLine
10
-144.854661
20
-15.925
30
0
11
-156.867161
21
-15.925
31
0
39
0
210
0
220
0
230
1
0
LINE
5
156
100
AcDbEntity
8
SK2
62
256
6
ByLayer
370
13
48
1
60
0
100
AcDbLine
10
-144.854661
20
16.075
30
0
11
-156.867161
21
16.075
31
0
39
0
210
0
220
0
230
1
0
LINE
5
157
100
AcDbEntity
8
SK2
62
256
6
ByLayer
370
13
48
1
60
0
100
AcDbLine
10
-154.867161
20
-15.925
30
0
11
-154.867161
21
16.075
31
0
39
0
210
0
220
0
230
1
0
SOLID
5
158
100
AcDbEntity
8
SK2
62
256
6
ByLayer
370
18
48
1
60
0
100
AcDbTrace
10
-154.867161
20
-15.925
30
0
11
-155.327945
21
-12.425002
31
0
12
-154.406378
22
-12.424998
32
0
13
-154.406378
23
-12.424998
33
0
39
0
210
0
220
0
230
1
0
SOLID
5
159
100
AcDbEntity
8
SK2
62
256
6
ByLayer
370
18
48
1
60
0
100
AcDbTrace
10
-154.867161
20
16.075
30
0
11
-154.406378
21
12.575002
31
0
12
-155.327945
22
12.574998
32
0
13
-155.327945
23
12.574998
33
0
39
0
210
0
220
0
230
1
0
ENDBLK
5
15B
100
AcDbEntity
8
0
100
AcDbBlockEnd
0
BLOCK
5
160
100
AcDbEntity
8
0
100
AcDbBlockBegin
2
*D5
70
1
10
0
20
0
30
0
3
*D5
0
LINE
5
162
100
AcDbEntity
8
0
62
256
6
ByLayer
370
-2
48
1
60
0
100
AcDbLine
10
21.732839
20
12.710181
30
0
11
21.732839
21
-27.675
31
0
39
0
210
0
220
0
230
1
0
LINE
5
163
100
AcDbEntity
8
0
62
256
6
ByLayer
370
-2
48
1
60
0
100
AcDbLine
10
46.732839
20
22.4875
30
0
11
46.732839
21
-27.675
31
0
39
0
210
0
220
0
230
1
0
LINE
5
164
100
AcDbEntity
8
0
62
256
6
ByLayer
370
-2
48
1
60
0
100
AcDbLine
10
25.232839
20
-25.675
30
0
11
43.232839
21
-25.675
31
0
39
0
210
0
220
0
230
1
0
SOLID
5
165
100
AcDbEntity
8
0
62
256
6
ByLayer
370
-1
48
1
60
0
100
AcDbTrace
10
25.232839
20
-25.091667
30
0
11
25.232839
21
-26.258333
31
0
12
21.732839
22
-25.675
32
0
13
21.732839
23
-25.675
33
0
39
0
210
0
220
0
230
1
0
SOLID
5
166
100
AcDbEntity
8
0
62
256
6
ByLayer
370
-1
48
1
60
0
100
AcDbTrace
10
43.232839
20
-26.258333
30
0
11
43.232839
21
-25.091667
31
0
12
46.732839
22
-25.675
32
0
13
46.732839
23
-25.675
33
0
39
0
210
0
220
0
230
1
0
MTEXT
5
167
100
AcDbEntity
8
0
62
256
6
ByLayer
370
18
48
1
60
0
100
AcDbMText
10
34.232839
20
-18.675
30
0
210
0
220
0
230
1
1
\A1;25
40
3.5
41
0
44
1
50
0
71
5
72
5
7
iso_b_vert
0
POINT
5
168
100
AcDbEntity
8
Defpoints
62
0
6
ByLayer
370
-1
48
1
60
0
100
AcDbPoint
10
21.732839
20
14.297681
30
0
39
0
210
0
220
0
230
1
50
360
0
POINT
5
169
100
AcDbEntity
8
Defpoints
62
0
6
ByLayer
370
-1
48
1
60
0
100
AcDbPoint
10
46.732839
20
24.075
30
0
39
0
210
0
220
0
230
1
50
360
0
POINT
5
16A
100
AcDbEntity
8
Defpoints
62
0
6
ByLayer
370
-1
48
1
60
0
100
AcDbPoint
10
46.732839
20
-25.675
30
0
39
0
210
0
220
0
230
1
50
360
0
ENDBLK
5
161
100
AcDbEntity
8
0
100
AcDbBlockEnd
0
BLOCK
5
172
100
AcDbEntity
8
0
100
AcDbBlockBegin
2
_U2
70
0
10
0
20
0
30
0
3
_U2
0
MTEXT
5
16C
100
AcDbEntity
8
2
62
256
6
ByLayer
370
18
48
1
60
0
100
AcDbMText
10
32.327873
20
-24.642366
30
0
210
0
220
0
230
1
1
\W0.6740;25
40
3.5
41
0
44
1.084337
50
0
71
7
72
5
7
iso_b_vert
0
LINE
5
16D
100
AcDbEntity
8
2
62
256
6
ByLayer
370
13
48
1
60
0
100
AcDbLine
10
21.732839
20
12.710181
30
0
11
21.732839
21
-27.675
31
0
39
0
210
0
220
0
230
1
0
LINE
5
16E
100
AcDbEntity
8
2
62
256
6
ByLayer
370
13
48
1
60
0
100
AcDbLine
10
46.732839
20
22.4875
30
0
11
46.732839
21
-27.675
31
0
39
0
210
0
220
0
230
1
0
LINE
5
16F
100
AcDbEntity
8
2
62
256
6
ByLayer
370
13
48
1
60
0
100
AcDbLine
10
21.732839
20
-25.675
30
0
11
46.732839
21
-25.675
31
0
39
0
210
0
220
0
230
1
0
SOLID
5
170
100
AcDbEntity
8
2
62
256
6
ByLayer
370
18
48
1
60
0
100
AcDbTrace
10
21.732839
20
-25.675
30
0
11
25.232837
21
-25.214216
31
0
12
25.23284
22
-26.135784
32
0
13
25.23284
23
-26.135784
33
0
39
0
210
0
220
0
230
1
0
SOLID
5
171
100
AcDbEntity
8
2
62
256
6
ByLayer
370
18
48
1
60
0
100
AcDbTrace
10
46.732839
20
-25.675
30
0
11
43.23284
21
-26.135784
31
0
12
43.232837
22
-25.214216
32
0
13
43.232837
23
-25.214216
33
0
39
0
210
0
220
0
230
1
0
ENDBLK
5
173
100
AcDbEntity
8
0
100
AcDbBlockEnd
0
BLOCK
5
178
100
AcDbEntity
8
0
100
AcDbBlockBegin
2
*D7
70
1
10
0
20
0
30
0
3
*D7
0
LINE
5
17A
100
AcDbEntity
8
0
62
256
6
ByLayer
370
-2
48
1
60
0
100
AcDbLine
10
-143.267161
20
-17.5125
30
0
11
-143.267161
21
-38.675
31
0
39
0
210
0
220
0
230
1
0
LINE
5
17B
100
AcDbEntity
8
0
62
256
6
ByLayer
370
-2
48
1
60
0
100
AcDbLine
10
46.732839
20
22.4875
30
0
11
46.732839
21
-38.675
31
0
39
0
210
0
220
0
230
1
0
LINE
5
17C
100
AcDbEntity
8
0
62
256
6
ByLayer
370
-2
48
1
60
0
100
AcDbLine
10
-139.767161
20
-36.675
30
0
11
43.232839
21
-36.675
31
0
39
0
210
0
220
0
230
1
0
SOLID
5
17D
100
AcDbEntity
8
0
62
256
6
ByLayer
370
-1
48
1
60
0
100
AcDbTrace
10
-139.767161
20
-36.091667
30
0
11
-139.767161
21
-37.258333
31
0
12
-143.267161
22
-36.675
32
0
13
-143.267161
23
-36.675
33
0
39
0
210
0
220
0
230
1
0
SOLID
5
17E
100
AcDbEntity
8
0
62
256
6
ByLayer
370
-1
48
1
60
0
100
AcDbTrace
10
43.232839
20
-37.258333
30
0
11
43.232839
21
-36.091667
31
0
12
46.732839
22
-36.675
32
0
13
46.732839
23
-36.675
33
0
39
0
210
0
220
0
230
1
0
MTEXT
5
17F
100
AcDbEntity
8
0
62
256
6
ByLayer
370
18
48
1
60
0
100
AcDbMText
10
-48.267161
20
-29.675
30
0
210
0
220
0
230
1
1
\A1;190
40
3.5
41
0
44
1
50
0
71
5
72
5
7
iso_b_vert
0
POINT
5
180
100
AcDbEntity
8
Defpoints
62
0
6
ByLayer
370
-1
48
1
60
0
100
AcDbPoint
10
-143.267161
20
-15.925
30
0
39
0
210
0
220
0
230
1
50
360
0
POINT
5
181
100
AcDbEntity
8
Defpoints
62
0
6
ByLayer
370
-1
48
1
60
0
100
AcDbPoint
10
46.732839
20
24.075
30
0
39
0
210
0
220
0
230
1
50
360
0
POINT
5
182
100
AcDbEntity
8
Defpoints
62
0
6
ByLayer
370
-1
48
1
60
0
100
AcDbPoint
10
46.732839
20
-36.675
30
0
39
0
210
0
220
0
230
1
50
360
0
ENDBLK
5
179
100
AcDbEntity
8
0
100
AcDbBlockEnd
0
BLOCK
5
18A
100
AcDbEntity
8
0
100
AcDbBlockBegin
2
_U3
70
0
10
0
20
0
30
0
3
_U3
0
MTEXT
5
184
100
AcDbEntity
8
SK2
62
256
6
ByLayer
370
18
48
1
60
0
100
AcDbMText
10
-51.042427
20
-35.642366
30
0
210
0
220
0
230
1
1
\W0.6217;190
40
3.5
41
0
44
1.084337
50
0
71
7
72
5
7
iso_b_vert
0
LINE
5
185
100
AcDbEntity
8
SK2
62
256
6
ByLayer
370
13
48
1
60
0
100
AcDbLine
10
-143.267161
20
-17.5125
30
0
11
-143.267161
21
-38.675
31
0
39
0
210
0
220
0
230
1
0
LINE
5
186
100
AcDbEntity
8
SK2
62
256
6
ByLayer
370
13
48
1
60
0
100
AcDbLine
10
46.732839
20
22.4875
30
0
11
46.732839
21
-38.675
31
0
39
0
210
0
220
0
230
1
0
LINE
5
187
100
AcDbEntity
8
SK2
62
256
6
ByLayer
370
13
48
1
60
0
100
AcDbLine
10
-143.267161
20
-36.675
30
0
11
46.732839
21
-36.675
31
0
39
0
210
0
220
0
230
1
0
SOLID
5
188
100
AcDbEntity
8
SK2
62
256
6
ByLayer
370
18
48
1
60
0
100
AcDbTrace
10
-143.267161
20
-36.675
30
0
11
-139.767163
21
-36.214216
31
0
12
-139.76716
22
-37.135784
32
0
13
-139.76716
23
-37.135784
33
0
39
0
210
0
220
0
230
1
0
SOLID
5
189
100
AcDbEntity
8
SK2
62
256
6
ByLayer
370
18
48
1
60
0
100
AcDbTrace
10
46.732839
20
-36.675
30
0
11
43.23284
21
-37.135784
31
0
12
43.232837
22
-36.214216
32
0
13
43.232837
23
-36.214216
33
0
39
0
210
0
220
0
230
1
0
ENDBLK
5
18B
100
AcDbEntity
8
0
100
AcDbBlockEnd
0
ENDSEC
0
SECTION
2
ENTITIES
0
ARC
5
CF
100
AcDbEntity
8
1
62
256
6
ByLayer
370
18
48
1
60
0
100
AcDbCircle
39
0
10
21.732839
20
12.685665
30
0
40
1.6
210
0
220
0
230
1
100
AcDbArc
50
97
51
180
0
ARC
5
D0
100
AcDbEntity
8
1
62
256
6
ByLayer
370
18
48
1
60
0
100
AcDbCircle
39
0
10
21.537118
20
22.283352
30
0
40
1.6
210
0
220
0
230
1
100
AcDbArc
50
270
51
277
0
ARC
5
D1
100
AcDbEntity
8
1
62
256
6
ByLayer
370
18
48
1
60
0
100
AcDbCircle
39
0
10
13.382839
20
2
30
0
40
2.1768
210
0
220
0
230
1
100
AcDbArc
50
330
51
30
0
ARC
5
D2
100
AcDbEntity
8
1
62
256
6
ByLayer
370
18
48
1
60
0
100
AcDbCircle
39
0
10
13.382839
20
2
30
0
40
2.1768
210
0
220
0
230
1
100
AcDbArc
50
90
51
150
0
ARC
5
D3
100
AcDbEntity
8
1
62
256
6
ByLayer
370
18
48
1
60
0
100
AcDbCircle
39
0
10
13.382839
20
2
30
0
40
2.1768
210
0
220
0
230
1
100
AcDbArc
50
210
51
270
0
ARC
5
D4
100
AcDbEntity
8
1
62
256
6
ByLayer
370
18
48
1
60
0
100
AcDbCircle
39
0
10
13.382839
20
2
30
0
40
2.1768
210
0
220
0
230
1
100
AcDbArc
50
270
51
330
0
ARC
5
D5
100
AcDbEntity
8
1
62
256
6
ByLayer
370
18
48
1
60
0
100
AcDbCircle
39
0
10
13.382839
20
2
30
0
40
2.1768
210
0
220
0
230
1
100
AcDbArc
50
150
51
210
0
ARC
5
D6
100
AcDbEntity
8
1
62
256
6
ByLayer
370
18
48
1
60
0
100
AcDbCircle
39
0
10
13.382839
20
2
30
0
40
2.1768
210
0
220
0
230
1
100
AcDbArc
50
30
51
90
0
ARC
5
D9
100
AcDbEntity
8
1
62
256
6
ByLayer
370
18
48
1
60
0
100
AcDbCircle
39
0
10
13.382839
20
2
30
0
40
2.8067
210
0
220
0
230
1
100
AcDbArc
50
180
51
240
0
ARC
5
DA
100
AcDbEntity
8
1
62
256
6
ByLayer
370
18
48
1
60
0
100
AcDbCircle
39
0
10
13.382839
20
2
30
0
40
2.8067
210
0
220
0
230
1
100
AcDbArc
50
240
51
300
0
ARC
5
DB
100
AcDbEntity
8
1
62
256
6
ByLayer
370
18
48
1
60
0
100
AcDbCircle
39
0
10
13.382839
20
2
30
0
40
2.8067
210
0
220
0
230
1
100
AcDbArc
50
60
51
120
0
ARC
5
DC
100
AcDbEntity
8
1
62
256
6
ByLayer
370
18
48
1
60
0
100
AcDbCircle
39
0
10
13.382839
20
2
30
0
40
2.8067
210
0
220
0
230
1
100
AcDbArc
50
300
51
360
0
ARC
5
DD
100
AcDbEntity
8
1
62
256
6
ByLayer
370
18
48
1
60
0
100
AcDbCircle
39
0
10
13.382839
20
2
30
0
40
2.8067
210
0
220
0
230
1
100
AcDbArc
50
360
51
60
0
ARC
5
DE
100
AcDbEntity
8
1
62
256
6
ByLayer
370
18
48
1
60
0
100
AcDbCircle
39
0
10
13.382839
20
2
30
0
40
2.8067
210
0
220
0
230
1
100
AcDbArc
50
120
51
180
0
ARC
5
DF
100
AcDbEntity
8
2
62
256
6
ByLayer
370
13
48
1
60
0
100
AcDbCircle
39
0
10
46.732839
20
24.075
30
0
40
37.8228784166885
210
0
220
0
230
1
100
AcDbArc
50
346.974258
51
20.025742
0
CIRCLE
5
CE
100
AcDbEntity
8
1
62
256
6
ByLayer
370
18
48
1
60
0
100
AcDbCircle
10
13.382839
20
2
30
0
40
5.75000000000002
39
0
210
0
220
0
230
1
0
CIRCLE
5
D7
100
AcDbEntity
8
1
62
256
6
ByLayer
370
18
48
1
60
0
100
AcDbCircle
10
13.382839
20
2
30
0
40
5.35
39
0
210
0
220
0
230
1
0
CIRCLE
5
D8
100
AcDbEntity
8
1
62
256
6
ByLayer
370
13
48
1
60
0
100
AcDbCircle
10
13.382839
20
2
30
0
40
4.55
39
0
210
0
220
0
230
1
0
ELLIPSE
5
E0
100
AcDbEntity
8
1
62
256
6
ByLayer
370
18
48
1
60
0
100
AcDbEllipse
10
-1.422558
20
-15.934599
30
0
11
3.00000000000457
21
3.51436609375293E-15
31
0
210
0
220
0
230
1
40
0.004363
41
0.261799387799383
42
1.07675704126124
0
ELLIPSE
5
E1
100
AcDbEntity
8
SK1
62
256
6
ByLayer
370
18
48
1
60
0
100
AcDbEllipse
10
-1.422558
20
-15.934599
30
0
11
3.00000000000058
21
3.51436609374825E-15
31
0
210
0
220
0
230
1
40
0.004363
41
1.076757041262
42
2.31838067646367
0
POINT
5
70
100
AcDbEntity
8
1
62
256
6
ByLayer
370
18
48
1
60
0
100
AcDbPoint
10
46.703023
20
20.562477
30
0
39
0
210
0
220
0
230
1
50
360
0
POINT
5
72
100
AcDbEntity
8
81
62
256
6
ByLayer
370
18
48
1
60
0
100
AcDbPoint
10
46.732839
20
24.075
30
0
39
0
210
0
220
0
230
1
50
360
0
POINT
5
74
100
AcDbEntity
8
80
62
256
6
ByLayer
370
18
48
1
60
0
100
AcDbPoint
10
0
20
0
30
0
39
0
210
0
220
0
230
1
50
360
0
POINT
5
76
100
AcDbEntity
8
1
62
256
6
ByLayer
370
18
48
1
60
1
100
AcDbPoint
10
46.732839
20
24.075
30
0
39
0
210
0
220
0
230
1
50
360
0
POINT
5
77
100
AcDbEntity
8
1
62
256
6
ByLayer
370
18
48
1
60
1
100
AcDbPoint
10
-143.267161
20
-15.925
30
0
39
0
210
0
220
0
230
1
50
360
0
POINT
5
78
100
AcDbEntity
8
1
62
256
6
ByLayer
370
18
48
1
60
1
100
AcDbPoint
10
-143.267161
20
-15.925
30
0
39
0
210
0
220
0
230
1
50
360
0
POINT
5
79
100
AcDbEntity
8
1
62
256
6
ByLayer
370
18
48
1
60
1
100
AcDbPoint
10
-143.267161
20
16.075
30
0
39
0
210
0
220
0
230
1
50
360
0
POINT
5
7A
100
AcDbEntity
8
1
62
256
6
ByLayer
370
18
48
1
60
1
100
AcDbPoint
10
21.732839
20
14.297681
30
0
39
0
210
0
220
0
230
1
50
360
0
POINT
5
7B
100
AcDbEntity
8
1
62
256
6
ByLayer
370
18
48
1
60
1
100
AcDbPoint
10
46.732839
20
24.075
30
0
39
0
210
0
220
0
230
1
50
360
0
POINT
5
7C
100
AcDbEntity
8
1
62
256
6
ByLayer
370
18
48
1
60
1
100
AcDbPoint
10
-143.267161
20
-15.925
30
0
39
0
210
0
220
0
230
1
50
360
0
POINT
5
7D
100
AcDbEntity
8
1
62
256
6
ByLayer
370
18
48
1
60
1
100
AcDbPoint
10
46.732839
20
24.075
30
0
39
0
210
0
220
0
230
1
50
360
0
SPLINE
5
E2
100
AcDbEntity
8
1
62
256
6
ByLayer
370
18
48
1
60
0
100
AcDbSpline
70
4
71
3
72
16
73
12
40
0
40
0
40
0
40
0
40
0.250000000000015
40
0.250000000000015
40
0.50000000000003
40
0.50000000000003
40
0.750000000000045
40
0.750000000000045
40
0.875000000000023
40
0.875000000000023
40
1
40
1
40
1
40
1
41
1
10
0.317758141296253
20
17.110889527836
30
0
41
1
10
0.302252442722988
20
17.0530214729535
30
0
41
1
10
0.283792088657691
20
16.9970642655786
30
0
41
1
10
0.241391044067456
20
16.8885269496893
30
0
41
1
10
0.21744801563915
20
16.8359484192399
30
0
41
1
10
0.164210017660508
20
16.7339033946569
30
0
41
1
10
0.134914684422682
20
16.6844374538773
30
0
41
1
10
0.0868646153052737
20
16.6124810890631
30
0
41
1
10
0.0702259209442104
20
16.5889727645184
30
0
41
1
10
0.0359252533203858
20
16.5431591314145
30
0
41
1
10
0.0182324408847307
20
16.5208072945771
30
0
41
1
10
5.68E-14
20
16.4989903551092
30
0
0
SPLINE
5
E3
100
AcDbEntity
8
1
62
256
6
ByLayer
370
18
48
1
60
0
100
AcDbSpline
70
4
71
3
72
16
73
12
40
0
40
0
40
0
40
0
40
0.250000000000003
40
0.250000000000003
40
0.500000000000005
40
0.500000000000005
40
0.750000000000008
40
0.750000000000008
40
0.875000000000004
40
0.875000000000004
40
1
40
1
40
1
40
1
41
1
10
35.6448572125578
20
18.4490729351214
30
0
41
1
10
35.644136304257
20
18.2913786984455
30
0
41
1
10
35.6432578819375
20
18.1337087991994
30
0
41
1
10
35.6409921601061
20
17.8184476271239
30
0
41
1
10
35.639611163373
20
17.6608553804547
30
0
41
1
10
35.6359538802318
20
17.3458092179754
30
0
41
1
10
35.6337013659848
20
17.1883518391825
30
0
41
1
10
35.6289346755121
20
16.9524299571387
30
0
41
1
10
35.6271097834049
20
16.8738330263901
30
0
41
1
10
35.6226855997234
20
16.7167825517551
30
0
41
1
10
35.6200988446683
20
16.6383123197237
30
0
41
1
10
35.6168018490226
20
16.5600082870436
30
0
0
SPLINE
5
E4
100
AcDbEntity
8
1
62
256
6
ByLayer
370
18
48
1
60
0
100
AcDbSpline
70
4
71
3
72
8
73
4
40
0
40
0
40
0
40
0
40
1
40
1
40
1
40
1
41
1
10
35.7975923610697
20
18.552535096257
30
0
41
1
10
35.7467822364862
20
18.5177537187682
30
0
41
1
10
35.6959072920054
20
18.4831599201026
30
0
41
1
10
35.6448572125577
20
18.4490729351214
30
0
0
SPLINE
5
E5
100
AcDbEntity
8
1
62
256
6
ByLayer
370
18
48
1
60
0
100
AcDbSpline
70
4
71
3
72
20
73
16
40
0
40
0
40
0
40
0
40
0.125000000000048
40
0.125000000000048
40
0.250000000000096
40
0.250000000000096
40
0.375000000000144
40
0.375000000000144
40
0.500000000000192
40
0.500000000000192
40
0.750000000000239
40
0.750000000000239
40
0.87500000000012
40
0.87500000000012
40
1
40
1
40
1
40
1
41
1
10
35.8489932593713
20
18.7008587652399
30
0
41
1
10
35.8499305045577
20
18.6932255157534
30
0
41
1
10
35.8504638378378
20
18.6854417525477
30
0
41
1
10
35.8506742715156
20
18.6700677491855
30
0
41
1
10
35.8503600222921
20
18.6625022009197
30
0
41
1
10
35.8489143374894
20
18.6476077148858
30
0
41
1
10
35.8477733168717
20
18.6402362979024
30
0
41
1
10
35.8446799614698
20
18.6259339767551
30
0
41
1
10
35.8427528568798
20
18.6190930384331
30
0
41
1
10
35.8358759571222
20
18.5994636281178
30
0
41
1
10
35.8297265532717
20
18.5874503120916
30
0
41
1
10
35.8188817172157
20
18.5723117995925
30
0
41
1
10
35.814983705952
20
18.5676999735518
30
0
41
1
10
35.8066133051538
20
18.5593576646505
30
0
41
1
10
35.8021771513499
20
18.5556735518856
30
0
41
1
10
35.7975923610695
20
18.5525350962577
30
0
0
SPLINE
5
E6
100
AcDbEntity
8
1
62
256
6
ByLayer
370
18
48
1
60
0
100
AcDbSpline
70
4
71
3
72
22
73
18
40
0
40
0
40
0
40
0
40
0.125
40
0.125
40
0.25
40
0.25
40
0.375
40
0.375
40
0.5
40
0.5
40
0.625
40
0.625
40
0.75
40
0.75
40
0.875
40
0.875
40
1
40
1
40
1
40
1
41
1
10
35.6352812214482
20
19.874453246453
30
0
41
1
10
35.6404814393009
20
19.8725200198806
30
0
41
1
10
35.6456243353358
20
19.8700480386191
30
0
41
1
10
35.6557895692324
20
19.8639709773277
30
0
41
1
10
35.660728542637
20
19.8604097897386
30
0
41
1
10
35.6701840170505
20
19.8523663795438
30
0
41
1
10
35.6747240284263
20
19.8478704050895
30
0
41
1
10
35.6834172411173
20
19.8379012216813
30
0
41
1
10
35.6875795893397
20
19.8323989652512
30
0
41
1
10
35.6952151461181
20
19.8207774425556
30
0
41
1
10
35.6987285754532
20
19.8146181553835
30
0
41
1
10
35.7051416341367
20
19.801596686966
30
0
41
1
10
35.7080622907925
20
19.7946670511035
30
0
41
1
10
35.7131000739439
20
19.7804758012517
30
0
41
1
10
35.715230425443
20
19.7732089339686
30
0
41
1
10
35.7187232540836
20
19.7583367719844
30
0
41
1
10
35.7200922793189
20
19.7506730016874
30
0
41
1
10
35.721038036559
20
19.7429704270879
30
0
0
SPLINE
5
E7
100
AcDbEntity
8
1
62
256
6
ByLayer
370
18
48
1
60
0
100
AcDbSpline
70
4
71
3
72
8
73
4
40
0
40
0
40
0
40
0
40
1
40
1
40
1
40
1
41
1
10
35.46205319745
20
19.9378921625834
30
0
41
1
10
35.5198428243439
20
19.9171644080032
30
0
41
1
10
35.5775730110016
20
19.8959067795629
30
0
41
1
10
35.6352812214482
20
19.874453246453
30
0
0
SPLINE
5
E8
100
AcDbEntity
8
1
62
256
6
ByLayer
370
18
48
1
60
0
100
AcDbSpline
70
4
71
3
72
16
73
12
40
0
40
0
40
0
40
0
40
0.124999999999997
40
0.124999999999997
40
0.249999999999993
40
0.249999999999993
40
0.499999999999996
40
0.499999999999996
40
0.749999999999998
40
0.749999999999998
40
1
40
1
40
1
40
1
41
1
10
34.9778250975395
20
21.7640563105447
30
0
41
1
10
34.9999720821777
20
21.6888607016738
30
0
41
1
10
35.0214735930973
20
21.6133187113026
30
0
41
1
10
35.0637666721011
20
21.4619793864456
30
0
41
1
10
35.084552881695
20
21.3861533647514
30
0
41
1
10
35.146252968068
20
21.158389535969
30
0
41
1
10
35.1865256432407
20
21.0061734899388
30
0
41
1
10
35.2662830464724
20
20.7013994811254
30
0
41
1
10
35.3057455924498
20
20.5488318927908
30
0
41
1
10
35.3842092199468
20
20.2434964711734
30
0
41
1
10
35.4232044479692
20
20.0907260978612
30
0
41
1
10
35.46205319745
20
19.9378921625834
30
0
0
SPLINE
5
E9
100
AcDbEntity
8
1
62
256
6
ByLayer
370
18
48
1
60
0
100
AcDbSpline
70
4
71
9
72
20
73
10
40
0
40
0
40
0
40
0
40
0
40
0
40
0
40
0
40
0
40
0
40
1
40
1
40
1
40
1
40
1
40
1
40
1
40
1
40
1
40
1
41
1
10
46.7030233160195
20
20.5624773736205
30
0
41
1
10
46.5806748391589
20
21.5589232284557
30
0
41
1
10
46.1787227712454
20
22.5210448241843
30
0
41
1
10
45.5081717086833
20
23.3591463778633
30
0
41
1
10
44.6135934311121
20
23.987755080078
30
0
41
1
10
43.5712067022395
20
24.3403743261262
30
0
41
1
10
42.4787386077572
20
24.3840281714119
30
0
41
1
10
41.437074884179
20
24.1251556289759
30
0
41
1
10
40.5335578600429
20
23.6046845134685
30
0
41
1
10
39.8313737976253
20
22.8871797771872
30
0
0
SPLINE
5
EA
100
AcDbEntity
8
1
62
256
6
ByLayer
370
18
48
1
60
0
100
AcDbSpline
70
4
71
9
72
20
73
10
40
0
40
0
40
0
40
0
40
0
40
0
40
0
40
0
40
0
40
0
40
1
40
1
40
1
40
1
40
1
40
1
40
1
40
1
40
1
40
1
41
1
10
46.7030233763621
20
20.5624768821693
30
0
41
1
10
46.8253712408602
20
19.5660309633214
30
0
41
1
10
46.6681171522589
20
18.5352474963871
30
0
41
1
10
46.2202394499472
20
17.5598201660702
30
0
41
1
10
45.5043081960267
20
16.7334657603282
30
0
41
1
10
44.5781911438263
20
16.1391446357998
30
0
41
1
10
43.5287348600687
20
15.8324955314797
30
0
41
1
10
42.4553860781229
20
15.8316771702039
30
0
41
1
10
41.4527940177229
20
16.1181074926631
30
0
41
1
10
40.5978877133886
20
16.6444255453996
30
0
0
SPLINE
5
EB
100
AcDbEntity
8
1
62
256
6
ByLayer
370
18
48
1
60
0
100
AcDbSpline
70
4
71
9
72
20
73
10
40
0
40
0
40
0
40
0
40
0
40
0
40
0
40
0
40
0
40
0
40
1
40
1
40
1
40
1
40
1
40
1
40
1
40
1
40
1
40
1
41
1
10
20.3274361557857
20
13.376140273707
30
0
41
1
10
20.5079186993254
20
13.4426027601338
30
0
41
1
10
20.6848284118439
20
13.5187674746307
30
0
41
1
10
20.8575692207324
20
13.6044149153386
30
0
41
1
10
21.0255607863984
20
13.6992828543686
30
0
41
1
10
21.1882421771244
20
13.8030676904274
30
0
41
1
10
21.345075398505
20
13.9154261972141
30
0
41
1
10
21.4955487207671
20
14.035977647362
30
0
41
1
10
21.6391797516367
20
14.1643062791694
30
0
41
1
10
21.7755182120754
20
14.2999640605464
30
0
0
SPLINE
5
EC
100
AcDbEntity
8
1
62
256
6
ByLayer
370
18
48
1
60
0
100
AcDbSpline
70
4
71
9
72
20
73
10
40
0
40
0
40
0
40
0
40
0
40
0
40
0
40
0
40
0
40
0
40
1
40
1
40
1
40
1
40
1
40
1
40
1
40
1
40
1
40
1
41
1
10
17.0253731803144
20
20.6955045982441
30
0
41
1
10
17.415414229884
20
20.905941454381
30
0
41
1
10
17.8315226092561
20
21.0680629762953
30
0
41
1
10
18.2668583754108
20
21.1781788899286
30
0
41
1
10
18.713972088749
20
21.2337286171018
30
0
41
1
10
19.1650287337759
20
21.2334020156211
30
0
41
1
10
19.6120615444944
20
21.1772046823959
30
0
41
1
10
20.0472373633191
20
21.0664581189182
30
0
41
1
10
20.4631104446936
20
20.9037338344912
30
0
41
1
10
20.8528462075811
20
20.6927320811742
30
0
0
SPLINE
5
ED
100
AcDbEntity
8
1
62
256
6
ByLayer
370
18
48
1
60
0
100
AcDbSpline
70
4
71
3
72
21
73
17
40
0
40
0
40
0
40
0
40
0.0498591071723196
40
0.103026384936677
40
0.159504494726583
40
0.219296002903985
40
0.28240342277463
40
0.348829241398137
40
0.418575936602307
40
0.491645989728088
40
0.568041899183399
40
0.647766198198065
40
0.730821475890359
40
0.817210392803248
40
0.906935668681249
40
1
40
1
40
1
40
1
41
1
10
40.5978354797456
20
16.6443406937434
30
0
41
1
10
40.5958575542476
20
16.6455311604607
30
0
41
1
10
40.5917704671479
20
16.6479910818116
30
0
41
1
10
40.5852783942262
20
16.651515330713
30
0
41
1
10
40.5782568198264
20
16.6550162113196
30
0
41
1
10
40.5706797237024
20
16.6584212499257
30
0
41
1
10
40.5625404495741
20
16.6616809337731
30
0
41
1
10
40.5538307966357
20
16.6647336984724
30
0
41
1
10
40.5445480132298
20
16.6675162701298
30
0
41
1
10
40.5346937170485
20
16.6699607467617
30
0
41
1
10
40.5242751448905
20
16.6719961349941
30
0
41
1
10
40.5133060062794
20
16.6735467571566
30
0
41
1
10
40.5018065159198
20
16.6745395397072
30
0
41
1
10
40.4898074851899
20
16.6748778275033
30
0
41
1
10
40.4773381515409
20
16.6745480725713
30
0
41
1
10
40.468918763431
20
16.6736670870164
30
0
41
1
10
40.4646321700269
20
16.6732185476666
30
0
0
SPLINE
5
EE
100
AcDbEntity
8
1
62
256
6
ByLayer
370
18
48
1
60
0
100
AcDbSpline
70
4
71
2
72
6
73
3
40
0
40
0
40
0
40
1
40
1
40
1
41
1
10
39.8313025880872
20
22.8872494719566
30
0
41
1
10
39.7808818810875
20
22.8360206192444
30
0
41
1
10
39.7090422409149
20
22.8270046878428
30
0
0
SPLINE
5
EF
100
AcDbEntity
8
1
62
256
6
ByLayer
370
18
48
1
60
0
100
AcDbSpline
70
4
71
8
72
18
73
9
40
0
40
0
40
0
40
0
40
0
40
0
40
0
40
0
40
0
40
1
40
1
40
1
40
1
40
1
40
1
40
1
40
1
40
1
41
1
10
37.8525947330525
20
22.5990615957506
30
0
41
1
10
37.9767600603365
20
22.6143071809406
30
0
41
1
10
38.1085124394158
20
22.6304843389538
30
0
41
1
10
38.2467487133366
20
22.647457619148
30
0
41
1
10
38.3902713401498
20
22.6650799818609
30
0
41
1
10
38.5378089902093
20
22.6831953274401
30
0
41
1
10
38.688040070875
20
22.7016413847136
30
0
41
1
10
38.8396178677173
20
22.7202527979415
30
0
41
1
10
38.9911956644901
20
22.7388642111609
30
0
0
SPLINE
5
F0
100
AcDbEntity
8
1
62
256
6
ByLayer
370
18
48
1
60
0
100
AcDbSpline
70
4
71
8
72
18
73
9
40
0
40
0
40
0
40
0
40
0
40
0
40
0
40
0
40
0
40
1
40
1
40
1
40
1
40
1
40
1
40
1
40
1
40
1
41
1
10
38.6081846621643
20
16.4452754555744
30
0
41
1
10
38.7323499894484
20
16.4605210407644
30
0
41
1
10
38.8641023685277
20
16.4766981987775
30
0
41
1
10
39.0023386424485
20
16.4936714789718
30
0
41
1
10
39.1458612692617
20
16.5112938416847
30
0
41
1
10
39.2933989193212
20
16.5294091872639
30
0
41
1
10
39.4436299999869
20
16.5478552445374
30
0
41
1
10
39.5952077968292
20
16.5664666577653
30
0
41
1
10
39.746785593602
20
16.5850780709847
30
0
0
SPLINE
5
F1
100
AcDbEntity
8
1
62
256
6
ByLayer
370
18
48
1
60
0
100
AcDbSpline
70
4
71
11
72
24
73
12
40
0
40
0
40
0
40
0
40
0
40
0
40
0
40
0
40
0
40
0
40
0
40
0
40
1
40
1
40
1
40
1
40
1
40
1
40
1
40
1
40
1
40
1
40
1
40
1
41
1
10
36.0059906938065
20
22.0788887508019
30
0
41
1
10
36.0061840593796
20
22.077313914587
30
0
41
1
10
36.0064166792089
20
22.0757438981988
30
0
41
1
10
36.006688487837
20
22.0741792346631
30
0
41
1
10
36.0069994032134
20
22.0726204549483
30
0
41
1
10
36.0073493267043
20
22.0710680877245
30
0
41
1
10
36.0077381431647
20
22.06952265902
30
0
41
1
10
36.008165720979
20
22.0679846919743
30
0
41
1
10
36.0086319121381
20
22.0664547065353
30
0
41
1
10
36.009136552326
20
22.0649332191676
30
0
41
1
10
36.0096794610023
20
22.0634207425904
30
0
41
1
10
36.0102604415242
20
22.0619177855211
30
0
0
SPLINE
5
F2
100
AcDbEntity
8
1
62
256
6
ByLayer
370
18
48
1
60
0
100
AcDbSpline
70
4
71
11
72
24
73
12
40
0
40
0
40
0
40
0
40
0
40
0
40
0
40
0
40
0
40
0
40
0
40
0
40
1
40
1
40
1
40
1
40
1
40
1
40
1
40
1
40
1
40
1
40
1
40
1
41
1
10
36.7135276172623
20
20.2426134609923
30
0
41
1
10
36.7151572199882
20
20.2383977896023
30
0
41
1
10
36.7170863554872
20
20.2342570134937
30
0
41
1
10
36.7193106842868
20
20.2302023585146
30
0
41
1
10
36.721824869934
20
20.2262448012228
30
0
41
1
10
36.7246225974991
20
20.2223950208349
30
0
41
1
10
36.7276965978486
20
20.218663352605
30
0
41
1
10
36.7310386774777
20
20.2150597430176
30
0
41
1
10
36.7346397535894
20
20.2115937071411
30
0
41
1
10
36.7384898942844
20
20.2082742885014
30
0
41
1
10
36.7425783634701
20
20.2051100217914
30
0
41
1
10
36.746893669956
20
20.2021088986577
30
0
0
SPLINE
5
F3
100
AcDbEntity
8
1
62
256
6
ByLayer
370
18
48
1
60
0
100
AcDbSpline
70
4
71
3
72
18
73
14
40
0
40
0
40
0
40
0
40
0.109297592929098
40
0.214849986229714
40
0.316674662064168
40
0.414791095966373
40
0.509221058678524
40
0.599988974382029
40
0.687122347628835
40
0.770652274199192
40
0.850614054790853
40
0.927047934932949
40
1
40
1
40
1
40
1
41
1
10
36.9211988173315
20
20.1000088039075
30
0
41
1
10
36.9188825615862
20
20.1004078556539
30
0
41
1
10
36.9143294190911
20
20.1011922852091
30
0
41
1
10
36.9076541264416
20
20.1026929456378
30
0
41
1
10
36.9012466963191
20
20.1043856059106
30
0
41
1
10
36.895111469102
20
20.1062753016767
30
0
41
1
10
36.8892501223663
20
20.1083380810287
30
0
41
1
10
36.8836648478854
20
20.1105578272849
30
0
41
1
10
36.878357885119
20
20.1129177558899
30
0
41
1
10
36.8733304042864
20
20.1153999972352
30
0
41
1
10
36.8685870750793
20
20.1179949950556
30
0
41
1
10
36.8641199018258
20
20.120666902697
30
0
41
1
10
36.8612842934421
20
20.1225831059453
30
0
41
1
10
36.8598995347419
20
20.123518876602
30
0
0
SPLINE
5
F4
100
AcDbEntity
8
1
62
256
6
ByLayer
370
18
48
1
60
0
100
AcDbSpline
70
4
71
5
72
12
73
6
40
0
40
0
40
0
40
0
40
0
40
0
40
1
40
1
40
1
40
1
40
1
40
1
41
1
10
37.1530821567137
20
20.0727139689592
30
0
41
1
10
37.1066462824694
20
20.0762486596964
30
0
41
1
10
37.0602047861446
20
20.080872382348
30
0
41
1
10
37.0138438880236
20
20.0860838746628
30
0
41
1
10
36.9674766702134
20
20.0925820363636
30
0
41
1
10
36.9211985767198
20
20.1000107636149
30
0
0
SPLINE
5
F5
100
AcDbEntity
8
1
62
256
6
ByLayer
370
18
48
1
60
0
100
AcDbSpline
70
4
71
2
72
10
73
7
40
0
40
0
40
0
40
0.5
40
0.5
40
0.75
40
0.75
40
1
40
1
40
1
41
1
10
37.1530821566971
20
20.0727139689934
30
0
41
1
10
37.2458216354342
20
20.0655658844136
30
0
41
1
10
37.3175736857187
20
20.0263368189623
30
0
41
1
10
37.3592569284068
20
20.0035473007652
30
0
41
1
10
37.3885504009867
20
19.9715770196112
30
0
41
1
10
37.4226102599268
20
19.9344048044217
30
0
41
1
10
37.4346794576764
20
19.8886632240594
30
0
0
SPLINE
5
F6
100
AcDbEntity
8
1
62
256
6
ByLayer
370
18
48
1
60
0
100
AcDbSpline
70
4
71
5
72
12
73
6
40
0
40
0
40
0
40
0
40
0
40
0
40
1
40
1
40
1
40
1
40
1
40
1
41
1
10
37.4346794577265
20
19.8886632241522
30
0
41
1
10
37.4443093564528
20
19.8517475997154
30
0
41
1
10
37.4525816554898
20
19.8142966655685
30
0
41
1
10
37.4600217021662
20
19.7769209405553
30
0
41
1
10
37.4658915624766
20
19.7389304611416
30
0
41
1
10
37.4705609996194
20
19.7009009461957
30
0
0
SPLINE
5
F7
100
AcDbEntity
8
1
62
256
6
ByLayer
370
18
48
1
60
0
100
AcDbSpline
70
4
71
5
72
12
73
6
40
0
40
0
40
0
40
0
40
0
40
0
40
1
40
1
40
1
40
1
40
1
40
1
41
1
10
37.5469785446828
20
18.9740605564349
30
0
41
1
10
37.5473916964204
20
19.0122093124131
30
0
41
1
10
37.5463580718417
20
19.0505490440249
30
0
41
1
10
37.5445351110904
20
19.0886144604669
30
0
41
1
10
37.541039882669
20
19.1268965080144
30
0
41
1
10
37.5363704452284
20
19.1649260229238
30
0
0
SPLINE
5
F8
100
AcDbEntity
8
1
62
256
6
ByLayer
370
18
48
1
60
0
100
AcDbSpline
70
4
71
3
72
40
73
36
40
0
40
0
40
0
40
0
40
0.0335605829615712
40
0.0663709615071346
40
0.0984232417106856
40
0.129710930810287
40
0.160228792735851
40
0.189972713251156
40
0.218939576168238
40
0.247127151502472
40
0.274533995981309
40
0.30115936601121
40
0.327003142989343
40
0.35206577071948
40
0.376348204639993
40
0.399851872575552
40
0.42257864679167
40
0.444530827244346
40
0.465711136085994
40
0.486122723712559
40
0.505769186920502
40
0.549313132024807
40
0.591337907778202
40
0.631886110491309
40
0.671006428073976
40
0.708754146893676
40
0.745191774120139
40
0.780389758704394
40
0.814427280754917
40
0.847393062069814
40
0.87938613039376
40
0.910516448403551
40
0.940905299290179
40
0.970685310158144
40
1
40
1
40
1
40
1
41
1
10
37.3182717920439
20
18.7273523524371
30
0
41
1
10
37.3218040177461
20
18.7285518453806
30
0
41
1
10
37.3287895107092
20
18.7309240181189
30
0
41
1
10
37.3390454131113
20
18.7347638771602
30
0
41
1
10
37.3489915008432
20
18.738741857475
30
0
41
1
10
37.3586224444076
20
18.7428647824864
30
0
41
1
10
37.3679420004289
20
18.7471113199479
30
0
41
1
10
37.3769515206681
20
18.751467892907
30
0
41
1
10
37.3856529172368
20
18.7559194392317
30
0
41
1
10
37.3940478929002
20
18.7604518316084
30
0
41
1
10
37.4021381362181
20
18.7650512808451
30
0
41
1
10
37.4099252687448
20
18.7697045106504
30
0
41
1
10
37.4174108565128
20
18.7743987282155
30
0
41
1
10
37.4245964064927
20
18.7791216418164
30
0
41
1
10
37.4314833643384
20
18.7838614632984
30
0
41
1
10
37.4380731235287
20
18.7886069050326
30
0
41
1
10
37.4443669922453
20
18.7933471937788
30
0
41
1
10
37.450366312801
20
18.798072009432
30
0
41
1
10
37.4560720417806
20
18.8027716799762
30
0
41
1
10
37.4614862393311
20
18.8074364606783
30
0
41
1
10
37.4687489711917
20
18.8139928585928
30
0
41
1
10
37.4776363987981
20
18.8226189935857
30
0
41
1
10
37.4878511768928
20
18.8335770084763
30
0
41
1
10
37.4972412244035
20
18.8447522098869
30
0
41
1
10
37.5058118405625
20
18.8561125628696
30
0
41
1
10
37.5135662657307
20
18.8676284388194
30
0
41
1
10
37.520508014556
20
18.8792711117725
30
0
41
1
10
37.5266402983162
20
18.8910132757628
30
0
41
1
10
37.5319659362343
20
18.9028290405205
30
0
41
1
10
37.5364880350423
20
18.9146939634927
30
0
41
1
10
37.5402073163729
20
18.9265852775258
30
0
41
1
10
37.5431316146267
20
18.9384811939063
30
0
41
1
10
37.5452417795553
20
18.9503634416928
30
0
41
1
10
37.5466147112148
20
18.9622080656239
30
0
41
1
10
37.5468579051292
20
18.9701305204377
30
0
41
1
10
37.5469785446127
20
18.974060556513
30
0
0
SPLINE
5
F9
100
AcDbEntity
8
1
62
256
6
ByLayer
370
18
48
1
60
0
100
AcDbSpline
70
4
71
5
72
12
73
6
40
0
40
0
40
0
40
0
40
0
40
0
40
1
40
1
40
1
40
1
40
1
40
1
41
1
10
37.3182717920494
20
18.727352352474
30
0
41
1
10
37.2740703808078
20
18.712688802437
30
0
41
1
10
37.2301269751506
20
18.6969672092833
30
0
41
1
10
37.1864039679372
20
18.6806948042077
30
0
41
1
10
37.1429861022533
20
18.6631724204543
30
0
41
1
10
37.0998798376947
20
18.6447686740479
30
0
0
SPLINE
5
FA
100
AcDbEntity
8
1
62
256
6
ByLayer
370
18
48
1
60
0
100
AcDbSpline
70
4
71
2
72
6
73
3
40
0
40
0
40
0
40
1
40
1
40
1
41
1
10
37.0998798376809
20
18.6447686740533
30
0
41
1
10
37.066668693045
20
18.6304661910444
30
0
41
1
10
37.0460886269827
20
18.607130408275
30
0
0
SPLINE
5
FB
100
AcDbEntity
8
1
62
256
6
ByLayer
370
18
48
1
60
0
100
AcDbSpline
70
4
71
11
72
24
73
12
40
0
40
0
40
0
40
0
40
0
40
0
40
0
40
0
40
0
40
0
40
0
40
0
40
1
40
1
40
1
40
1
40
1
40
1
40
1
40
1
40
1
40
1
40
1
40
1
41
1
10
36.9328763081286
20
18.4561617340543
30
0
41
1
10
36.9334376414752
20
18.460646418568
30
0
41
1
10
36.9343077289998
20
18.4651308960464
30
0
41
1
10
36.9354850759094
20
18.4696032242837
30
0
41
1
10
36.936967159736
20
18.4740514617682
30
0
41
1
10
36.9387504366666
20
18.4784637187815
30
0
41
1
10
36.9408303538163
20
18.4828282085085
30
0
41
1
10
36.9432013673349
20
18.4871332977295
30
0
41
1
10
36.9458569661267
20
18.4913675566867
30
0
41
1
10
36.948789701139
20
18.4955198077418
30
0
41
1
10
36.9519912199162
20
18.4995791724228
30
0
41
1
10
36.9554523059596
20
18.5035351164987
30
0
0
SPLINE
5
FC
100
AcDbEntity
8
1
62
256
6
ByLayer
370
18
48
1
60
0
100
AcDbSpline
70
4
71
11
72
24
73
12
40
0
40
0
40
0
40
0
40
0
40
0
40
0
40
0
40
0
40
0
40
0
40
0
40
1
40
1
40
1
40
1
40
1
40
1
40
1
40
1
40
1
40
1
40
1
40
1
41
1
10
36.6905914540705
20
16.5032629943567
30
0
41
1
10
36.6903980884974
20
16.5048378305716
30
0
41
1
10
36.6902439771828
20
16.5064174865933
30
0
41
1
10
36.6901291855644
20
16.5080014293936
30
0
41
1
10
36.690053762482
20
16.5095891239263
30
0
41
1
10
36.6900177401283
20
16.5111800333634
30
0
41
1
10
36.6900211340365
20
16.5127736194458
30
0
41
1
10
36.6900639430592
20
16.5143693427327
30
0
41
1
10
36.6901461493708
20
16.5159666629143
30
0
41
1
10
36.6902677184804
20
16.5175650391157
30
0
41
1
10
36.6904285992482
20
16.5191639301707
30
0
41
1
10
36.6906287239424
20
16.5207627949011
30
0
0
SPLINE
5
FD
100
AcDbEntity
8
SK1
62
256
6
ByLayer
370
18
48
1
60
0
100
AcDbSpline
70
4
71
3
72
26
73
22
40
0
40
0
40
0
40
0
40
0.124999999999996
40
0.124999999999996
40
0.249999999999992
40
0.249999999999992
40
0.312499999999992
40
0.312499999999992
40
0.374999999999992
40
0.374999999999992
40
0.499999999999985
40
0.499999999999985
40
0.624999999999979
40
0.624999999999979
40
0.687500000000001
40
0.687500000000001
40
0.750000000000024
40
0.750000000000024
40
0.875000000000012
40
0.875000000000012
40
1
40
1
40
1
40
1
41
1
10
5.68E-14
20
16.4989903551092
30
0
41
1
10
-0.0365232888150899
20
16.4552865863001
30
0
41
1
10
-0.075206117228106
20
16.4137228274854
30
0
41
1
10
-0.156991062458843
20
16.3347205089881
30
0
41
1
10
-0.200092471860444
20
16.2972820636659
30
0
41
1
10
-0.268282148560189
20
16.2442572635419
30
0
41
1
10
-0.29156354830036
20
16.2271433628445
30
0
41
1
10
-0.338798757654217
20
16.1943459961123
30
0
41
1
10
-0.362812980398218
20
16.1786146285746
30
0
41
1
10
-0.436055644084718
20
16.1333982596587
30
0
41
1
10
-0.48648035211059
20
16.1058838336323
30
0
41
1
10
-0.590663731819348
20
16.056161382865
30
0
41
1
10
-0.644421498849511
20
16.0339524147596
30
0
41
1
10
-0.727761583736111
20
16.0048341077732
30
0
41
1
10
-0.756041753699634
20
15.9958153419921
30
0
41
1
10
-0.813345177225244
20
15.9793027602057
30
0
41
1
10
-0.842171402034296
20
15.9718629054179
30
0
41
1
10
-0.929174480712618
20
15.9519746638093
30
0
41
1
10
-0.987874433570653
20
15.9419496967456
30
0
41
1
10
-1.10670559684863
20
15.9284629886696
30
0
41
1
10
-1.16683654386099
20
15.925
30
0
41
1
10
-1.22772318076628
20
15.925
30
0
0
SPLINE
5
FE
100
AcDbEntity
8
1
62
256
6
ByLayer
370
18
48
1
60
0
100
AcDbSpline
70
4
71
3
72
37
73
33
40
0
40
0
40
0
40
0
40
0.125000000000023
40
0.125000000000023
40
0.250000000000046
40
0.250000000000046
40
0.375000000000069
40
0.375000000000069
40
0.437500000000091
40
0.437500000000091
40
0.500000000000114
40
0.500000000000114
40
0.562500000000137
40
0.562500000000137
40
0.62500000000016
40
0.62500000000016
40
0.687500000000182
40
0.687500000000182
40
0.718750000000189
40
0.718750000000189
40
0.750000000000196
40
0.750000000000196
40
0.812500000000143
40
0.812500000000143
40
0.843750000000121
40
0.843750000000121
40
0.8750000000001
40
0.906250000000078
40
0.906250000000078
40
0.937500000000056
40
0.937500000000056
40
1
40
1
40
1
40
1
41
1
10
10.5761387094538
20
1.99999999999997
30
0
41
1
10
10.5761387094538
20
1.96355915125957
30
0
41
1
10
10.5775639230298
20
1.92708155559953
30
0
41
1
10
10.5833384336022
20
1.854452899775
30
0
41
1
10
10.5876930390597
20
1.81822126672168
30
0
41
1
10
10.5995734763647
20
1.7464204478363
30
0
41
1
10
10.6071130512141
20
1.71075035143807
30
0
41
1
10
10.6211592980646
20
1.65814856749344
30
0
41
1
10
10.6262999064491
20
1.64076004335467
30
0
41
1
10
10.6376149223715
20
1.60631360005053
30
0
41
1
10
10.643790238802
20
1.58925878017806
30
0
41
1
10
10.657245392283
20
1.55576979481145
30
0
41
1
10
10.664532347451
20
1.53930767645417
30
0
41
1
10
10.6804351338691
20
1.50706174414282
30
0
41
1
10
10.6890762402349
20
1.49124386540316
30
0
41
1
10
10.7077041083378
20
1.46094133532526
30
0
41
1
10
10.7177107406758
20
1.44640060544435
30
0
41
1
10
10.7340148879811
20
1.42574676515991
30
0
41
1
10
10.7396665546306
20
1.41905619463219
30
0
41
1
10
10.7514690866304
20
1.40612462188182
30
0
41
1
10
10.7576510864681
20
1.39985655870157
30
0
41
1
10
10.7767562324767
20
1.38214017879793
30
0
41
1
10
10.7902587671544
20
1.37171497116324
30
0
41
1
10
10.8119400958895
20
1.35871143879862
30
0
41
1
10
10.8194651759141
20
1.35479663212428
30
0
41
1
10
10.8347157401822
20
1.34814060808046
30
0
41
1
10
10.8501620681392
20
1.34263837314157
30
0
41
1
10
10.8660074948162
20
1.33953721018
30
0
41
1
10
10.8820606738882
20
1.33770639203436
30
0
41
1
10
10.8901191121414
20
1.33744496970172
30
0
41
1
10
10.9138039414401
20
1.33854049157733
30
0
41
1
10
10.9291793792858
20
1.34173321703383
30
0
41
1
10
10.944182067155
20
1.34712924142357
30
0
0
SPLINE
5
FF
100
AcDbEntity
8
1
62
256
6
ByLayer
370
18
48
1
60
0
100
AcDbSpline
70
4
71
3
72
35
73
31
40
0
40
0
40
0
40
0
40
0.12499999999997
40
0.12499999999997
40
0.249999999999941
40
0.249999999999941
40
0.374999999999911
40
0.374999999999911
40
0.437499999999862
40
0.437499999999862
40
0.499999999999813
40
0.499999999999813
40
0.624999999999775
40
0.624999999999775
40
0.687499999999773
40
0.687499999999773
40
0.718749999999787
40
0.718749999999787
40
0.7499999999998
40
0.7499999999998
40
0.812499999999846
40
0.812499999999846
40
0.843749999999873
40
0.843749999999873
40
0.8749999999999
40
0.906249999999928
40
0.906249999999928
40
0.937499999999955
40
0.937499999999955
40
1
40
1
40
1
40
1
41
1
10
11.9794887094538
20
-0.430673500801845
30
0
41
1
10
11.9479483601666
20
-0.412463671650556
30
0
41
1
10
11.9170542833337
20
-0.392981289279732
30
0
41
1
10
11.8570503261728
20
-0.351671396121304
30
0
41
1
10
11.8279303160567
20
-0.329848024696332
30
0
41
1
10
11.7716393521677
20
-0.283624353830561
30
0
41
1
10
11.7445556482932
20
-0.259294073931784
30
0
41
1
10
11.7060611189828
20
-0.220876341521262
30
0
41
1
10
11.6935753822176
20
-0.207738424426026
30
0
41
1
10
11.6693889329267
20
-0.180712166982687
30
0
41
1
10
11.6576897564095
20
-0.166822647524697
30
0
41
1
10
11.6242104563959
20
-0.124153432281389
30
0
41
1
10
11.6038547135242
20
-0.0941913395202789
30
0
41
1
10
11.5783785292147
20
-0.0471006067723181
30
0
41
1
10
11.5706958240854
20
-0.0309538902841098
30
0
41
1
10
11.5609218892814
20
-0.0063232332371115
30
0
41
1
10
11.5579541658417
20
0.0019569043178933
30
0
41
1
10
11.5526784052502
20
0.0186734328942748
30
0
41
1
10
11.5503648761571
20
0.0271393073057311
30
0
41
1
10
11.5446391073467
20
0.05247652104552
30
0
41
1
10
11.5423998419481
20
0.0693382662032604
30
0
41
1
10
11.5420270389331
20
0.094550090763363
30
0
41
1
10
11.5424139962226
20
0.103001695058452
30
0
41
1
10
11.5442984765506
20
0.119483897395213
30
0
41
1
10
11.5472746545115
20
0.13556068489234
30
0
41
1
10
11.5525194691127
20
0.150786353982397
30
0
41
1
10
11.5589625342154
20
0.165558928742655
30
0
41
1
10
11.5627615112742
20
0.172643350256237
30
0
41
1
10
11.575534633756
20
0.192543360130003
30
0
41
1
10
11.585964713595
20
0.204228652910331
30
0
41
1
10
11.5981077259892
20
0.214496775949755
30
0
0
SPLINE
5
100
100
AcDbEntity
8
1
62
256
6
ByLayer
370
18
48
1
60
0
100
AcDbSpline
70
4
71
3
72
50
73
46
40
0
40
0
40
0
40
0
40
0.0312499999999839
40
0.0312499999999839
40
0.0624999999999678
40
0.0624999999999678
40
0.0937499999999518
40
0.0937499999999518
40
0.124999999999936
40
0.124999999999936
40
0.15624999999992
40
0.15624999999992
40
0.187499999999903
40
0.187499999999903
40
0.218749999999887
40
0.218749999999887
40
0.249999999999871
40
0.249999999999871
40
0.31249999999988
40
0.31249999999988
40
0.374999999999888
40
0.374999999999888
40
0.437499999999897
40
0.437499999999897
40
0.499999999999905
40
0.499999999999905
40
0.624999999999922
40
0.624999999999922
40
0.687499999999933
40
0.687499999999933
40
0.749999999999944
40
0.749999999999944
40
0.812499999999955
40
0.812499999999955
40
0.843749999999962
40
0.843749999999962
40
0.87499999999997
40
0.87499999999997
40
0.906249999999977
40
0.906249999999977
40
0.937499999999985
40
0.937499999999985
40
0.968749999999992
40
0.968749999999992
40
1
40
1
40
1
40
1
41
1
10
10.964182067155
20
1.34850103823445
30
0
41
1
10
10.977850017977
20
1.34943852080187
30
0
41
1
10
10.9915447152376
20
1.34891488064073
30
0
41
1
10
11.0189860322174
20
1.3455334109382
30
0
41
1
10
11.0327189886947
20
1.34266243987912
30
0
41
1
10
11.0598023405242
20
1.33508980234248
30
0
41
1
10
11.0732494801653
20
1.33036268126162
30
0
41
1
10
11.099683992616
20
1.31946420987475
30
0
41
1
10
11.112693895075
20
1.31328931563723
30
0
41
1
10
11.1383754287869
20
1.29970863089909
30
0
41
1
10
11.1510219453295
20
1.29231214512259
30
0
41
1
10
11.175832297717
20
1.2765687526452
30
0
41
1
10
11.1880218080414
20
1.26820751156873
30
0
41
1
10
11.2120291159879
20
1.25061479441104
30
0
41
1
10
11.2238505454345
20
1.24137748804705
30
0
41
1
10
11.2470097414988
20
1.22223764324551
30
0
41
1
10
11.2583687536754
20
1.21231984284842
30
0
41
1
10
11.2918524217066
20
1.18161013641037
30
0
41
1
10
11.3134407100921
20
1.15980506863915
30
0
41
1
10
11.3548567469817
20
1.11437030752919
30
0
41
1
10
11.3747199690911
20
1.09071367197927
30
0
41
1
10
11.4129187300679
20
1.04166604536761
30
0
41
1
10
11.431210894546
20
1.01631855884187
30
0
41
1
10
11.4659838283997
20
0.964470101110862
30
0
41
1
10
11.4825131727963
20
0.937905413895749
30
0
41
1
10
11.5295205574369
20
0.856348911630192
30
0
41
1
10
11.5569271425373
20
0.800483872921205
30
0
41
1
10
11.5917947353817
20
0.714280475224854
30
0
41
1
10
11.6023832779362
20
0.685045090428304
30
0
41
1
10
11.6208725273066
20
0.626671570683385
30
0
41
1
10
11.6288254229843
20
0.597431079757598
30
0
41
1
10
11.641810520847
20
0.538776769330127
30
0
41
1
10
11.6468519021129
20
0.509364017050331
30
0
41
1
10
11.6516874797531
20
0.465033157797848
30
0
41
1
10
11.6528401883646
20
0.450175587283269
30
0
41
1
10
11.654059129666
20
0.420794772377718
30
0
41
1
10
11.6541330070584
20
0.406232622935732
30
0
41
1
10
11.6530570193267
20
0.37738680075006
30
0
41
1
10
11.6519086562698
20
0.363102834593349
30
0
41
1
10
11.6481526741806
20
0.334851946490005
30
0
41
1
10
11.6455348180147
20
0.320833378911885
30
0
41
1
10
11.6385126175905
20
0.293406784312339
30
0
41
1
10
11.634154230562
20
0.2801556971894
30
0
41
1
10
11.6233966033137
20
0.254749321569022
30
0
41
1
10
11.6170031270966
20
0.242590922903844
30
0
41
1
10
11.6092957368767
20
0.231131385620614
30
0
0
SPLINE
5
101
100
AcDbEntity
8
1
62
256
6
ByLayer
370
18
48
1
60
0
100
AcDbSpline
70
4
71
3
72
8
73
4
40
0
40
0
40
0
40
0
40
1
40
1
40
1
40
1
41
1
10
10.944182067155
20
1.34712924142357
30
0
41
1
10
10.9508484905506
20
1.34758649034129
30
0
41
1
10
10.9575151553169
20
1.34804375581456
30
0
41
1
10
10.964182067155
20
1.34850103823445
30
0
0
SPLINE
5
102
100
AcDbEntity
8
1
62
256
6
ByLayer
370
18
48
1
60
0
100
AcDbSpline
70
4
71
3
72
8
73
4
40
0
40
0
40
0
40
0
40
1
40
1
40
1
40
1
41
1
10
11.5981077259892
20
0.214496775949755
30
0
41
1
10
11.6018369268656
20
0.220041443503902
30
0
41
1
10
11.6055662627648
20
0.225586311813316
30
0
41
1
10
11.6092957368763
20
0.231131385619989
30
0
0
SPLINE
5
103
100
AcDbEntity
8
1
62
256
6
ByLayer
370
18
48
1
60
0
100
AcDbSpline
70
4
71
3
72
35
73
31
40
0
40
0
40
0
40
0
40
0.125000000000021
40
0.125000000000021
40
0.250000000000043
40
0.250000000000043
40
0.375000000000064
40
0.375000000000064
40
0.437500000000076
40
0.437500000000076
40
0.500000000000088
40
0.500000000000088
40
0.62500000000011
40
0.62500000000011
40
0.687500000000122
40
0.687500000000122
40
0.718750000000079
40
0.718750000000079
40
0.750000000000036
40
0.750000000000036
40
0.812500000000035
40
0.812500000000035
40
0.84375000000003
40
0.84375000000003
40
0.875000000000025
40
0.90625000000002
40
0.90625000000002
40
0.937500000000015
40
0.937500000000015
40
1
40
1
40
1
40
1
41
1
10
14.7861887094538
20
-0.430673500801816
30
0
41
1
10
14.7546483601666
20
-0.448883329953105
30
0
41
1
10
14.7223290836908
20
-0.465897194131514
30
0
41
1
10
14.6565516882076
20
-0.497207198781183
30
0
41
1
10
14.6230920890993
20
-0.511514181587756
30
0
41
1
10
14.5549157339288
20
-0.537151750886181
30
0
41
1
10
14.520303241518
20
-0.548441786520755
30
0
41
1
10
14.4677852446395
20
-0.562570160604992
30
0
41
1
10
14.4501646062996
20
-0.566814167280995
30
0
41
1
10
14.414665956139
20
-0.574247118072577
30
0
41
1
10
14.3967876911835
20
-0.577434142410823
30
0
41
1
10
14.3430954168164
20
-0.58509345910187
30
0
41
1
10
14.3069696118988
20
-0.587741003161199
30
0
41
1
10
14.2534497489016
20
-0.586258659590698
30
0
41
1
10
14.2356249296705
20
-0.584838719158313
30
0
41
1
10
14.2094071875539
20
-0.580987866470053
30
0
41
1
10
14.2007525163645
20
-0.579417921582774
30
0
41
1
10
14.1836376976585
20
-0.575628599991092
30
0
41
1
10
14.1751492708065
20
-0.573399237752341
30
0
41
1
10
14.1503437156414
20
-0.565689292128525
30
0
41
1
10
14.1346213832834
20
-0.559197680270614
30
0
41
1
10
14.1126009012311
20
-0.54691462487213
30
0
41
1
10
14.1054750758535
20
-0.542353707881716
30
0
41
1
10
14.0921433100837
20
-0.532480598876333
30
0
41
1
10
14.0797086348597
20
-0.521864640764818
30
0
41
1
10
14.0691450837593
20
-0.509709782179584
30
0
41
1
10
14.059573191289
20
-0.496743636742338
30
0
41
1
10
14.0553373908164
20
-0.489911415344324
30
0
41
1
10
14.0444900379711
20
-0.468899561852453
30
0
41
1
10
14.0395853174921
20
-0.454024201358266
30
0
41
1
10
14.036764368288
20
-0.438373982626644
30
0
0
SPLINE
5
104
100
AcDbEntity
8
1
62
256
6
ByLayer
370
18
48
1
60
0
100
AcDbSpline
70
4
71
3
72
52
73
48
40
0
40
0
40
0
40
0
40
0.0156249999999961
40
0.0156249999999961
40
0.0312499999999923
40
0.0312499999999923
40
0.0625000000000078
40
0.0625000000000078
40
0.0937500000000232
40
0.0937500000000232
40
0.125000000000039
40
0.125000000000039
40
0.18750000000007
40
0.18750000000007
40
0.218750000000062
40
0.218750000000062
40
0.250000000000055
40
0.250000000000055
40
0.312500000000038
40
0.312500000000038
40
0.375000000000022
40
0.375000000000022
40
0.437500000000005
40
0.437500000000005
40
0.499999999999989
40
0.499999999999989
40
0.562499999999972
40
0.562499999999972
40
0.624999999999955
40
0.624999999999955
40
0.687499999999939
40
0.687499999999939
40
0.749999999999922
40
0.749999999999922
40
0.812499999999905
40
0.812499999999905
40
0.843749999999921
40
0.843749999999921
40
0.874999999999937
40
0.874999999999937
40
0.906249999999953
40
0.906249999999953
40
0.937499999999968
40
0.937499999999968
40
0.968749999999984
40
0.968749999999984
40
1
40
1
40
1
40
1
41
1
10
14.0279523791747
20
-0.420367576144855
30
0
41
1
10
14.0249377354789
20
-0.414207457346919
30
0
41
1
10
14.0215935579508
20
-0.408212418736554
30
0
41
1
10
14.0143139495514
20
-0.396517335422743
30
0
41
1
10
14.0103688320867
20
-0.39080725601201
30
0
41
1
10
13.9978747235458
20
-0.374265439618313
30
0
41
1
10
13.9886381542607
20
-0.363951334232155
30
0
41
1
10
13.9687212215765
20
-0.344444206265052
30
0
41
1
10
13.9580376072546
20
-0.335253755271566
30
0
41
1
10
13.9354375944143
20
-0.317813036494499
30
0
41
1
10
13.923556579767
20
-0.309597233914843
30
0
41
1
10
13.8867885582086
20
-0.286458192685728
30
0
41
1
10
13.8605569373669
20
-0.272881060040959
30
0
41
1
10
13.8198225818956
20
-0.254905253789787
30
0
41
1
10
13.8059913764861
20
-0.249304052453084
30
0
41
1
10
13.7778650123329
20
-0.238800930270173
30
0
41
1
10
13.7635555451528
20
-0.233895958163345
30
0
41
1
10
13.7202366292086
20
-0.220224549199429
30
0
41
1
10
13.6907610408963
20
-0.212460913232292
30
0
41
1
10
13.6307333831831
20
-0.199267154475024
30
0
41
1
10
13.6002313956842
20
-0.193858541311755
30
0
41
1
10
13.5388442989274
20
-0.18528297277868
30
0
41
1
10
13.5078603709154
20
-0.182098508278472
30
0
41
1
10
13.4454551550488
20
-0.177852513021918
30
0
41
1
10
13.4141801615118
20
-0.176799881115642
30
0
41
1
10
13.3514866908607
20
-0.176800118904481
30
0
41
1
10
13.3202279515908
20
-0.177853003402674
30
0
41
1
10
13.2578873828274
20
-0.182092846459312
30
0
41
1
10
13.2268178719205
20
-0.185283658874709
30
0
41
1
10
13.1653455685805
20
-0.193874021210007
30
0
41
1
10
13.1348203004077
20
-0.199291233224471
30
0
41
1
10
13.0748232078665
20
-0.212484520436476
30
0
41
1
10
13.0452847422298
20
-0.22026701835162
30
0
41
1
10
12.9874593539839
20
-0.238530259403689
30
0
41
1
10
12.959349421486
20
-0.248945429214672
30
0
41
1
10
12.9185962296958
20
-0.266936688702515
30
0
41
1
10
12.9052278222418
20
-0.273343844262285
30
0
41
1
10
12.8792063340992
20
-0.286986614367919
30
0
41
1
10
12.8665375960409
20
-0.294226516265951
30
0
41
1
10
12.8419845468397
20
-0.309687688115304
30
0
41
1
10
12.8301256578435
20
-0.317895565522036
30
0
41
1
10
12.807554576984
20
-0.335325156247535
30
0
41
1
10
12.7967864153112
20
-0.344589893963842
30
0
41
1
10
12.7767277906374
20
-0.364277500219885
30
0
41
1
10
12.7675129470892
20
-0.37461831849771
30
0
41
1
10
12.7510289375977
20
-0.396504882296369
30
0
41
1
10
12.7437543521513
20
-0.408047287409062
30
0
41
1
10
12.7377250397325
20
-0.420367576145509
30
0
0
SPLINE
5
105
100
AcDbEntity
8
1
62
256
6
ByLayer
370
18
48
1
60
0
100
AcDbSpline
70
4
71
3
72
8
73
4
40
0
40
0
40
0
40
0
40
1
40
1
40
1
40
1
41
1
10
12.7377250397325
20
-0.420367576145537
30
0
41
1
10
12.7347876020058
20
-0.426369932372126
30
0
41
1
10
12.7318502731388
20
-0.432372066154784
30
0
41
1
10
12.7289130506196
20
-0.438373982626644
30
0
0
SPLINE
5
106
100
AcDbEntity
8
1
62
256
6
ByLayer
370
18
48
1
60
0
100
AcDbSpline
70
4
71
3
72
35
73
31
40
0
40
0
40
0
40
0
40
0.125000000000093
40
0.125000000000093
40
0.250000000000186
40
0.250000000000186
40
0.375000000000278
40
0.375000000000278
40
0.500000000000371
40
0.500000000000371
40
0.562500000000371
40
0.562500000000371
40
0.62500000000037
40
0.62500000000037
40
0.687500000000369
40
0.687500000000369
40
0.718750000000326
40
0.718750000000326
40
0.750000000000283
40
0.750000000000283
40
0.812500000000203
40
0.812500000000203
40
0.843750000000165
40
0.843750000000165
40
0.875000000000127
40
0.906250000000088
40
0.906250000000088
40
0.93750000000005
40
0.93750000000005
40
1
40
1
40
1
40
1
41
1
10
11.9794887094538
20
-0.430673500801845
30
0
41
1
10
12.0110283501357
20
-0.448882920839679
30
0
41
1
10
12.0433070999609
20
-0.465876977386472
30
0
41
1
10
12.1091314398771
20
-0.497210504814205
30
0
41
1
10
12.1425903443649
20
-0.511515200564787
30
0
41
1
10
12.2107056795327
20
-0.537131556248028
30
0
41
1
10
12.2453769719862
20
-0.548446451167251
30
0
41
1
10
12.3156012127463
20
-0.567330315926512
30
0
41
1
10
12.351172115711
20
-0.574915641074995
30
0
41
1
10
12.4048782278968
20
-0.582563465882942
30
0
41
1
10
12.4228115257759
20
-0.584483772285211
30
0
41
1
10
12.4587456667992
20
-0.586827987162707
30
0
41
1
10
12.4767028779029
20
-0.587244692023887
30
0
41
1
10
12.5121946832691
20
-0.586257466328277
30
0
41
1
10
12.5297791866562
20
-0.584861467049052
30
0
41
1
10
12.5558382545713
20
-0.58105973069658
30
0
41
1
10
12.5644713017823
20
-0.579506118904561
30
0
41
1
10
12.5816115358114
20
-0.575735021444359
30
0
41
1
10
12.5901265635869
20
-0.573511117975926
30
0
41
1
10
12.6149782386249
20
-0.565824767977631
30
0
41
1
10
12.6307794513719
20
-0.55933535358156
30
0
41
1
10
12.6529796019654
20
-0.546976856162701
30
0
41
1
10
12.6601079222432
20
-0.542415039598268
30
0
41
1
10
12.6733855035734
20
-0.532599089095811
30
0
41
1
10
12.6857918680753
20
-0.522035184896936
30
0
41
1
10
12.696367387019
20
-0.509910001497019
30
0
41
1
10
12.7059647672529
20
-0.496955045206363
30
0
41
1
10
12.7102402193254
20
-0.490085365683541
30
0
41
1
10
12.721157073156
20
-0.468996431119962
30
0
41
1
10
12.7260837279004
20
-0.454070656410892
30
0
41
1
10
12.7289130506195
20
-0.438373982626644
30
0
0
SPLINE
5
107
100
AcDbEntity
8
1
62
256
6
ByLayer
370
18
48
1
60
0
100
AcDbSpline
70
4
71
3
72
8
73
4
40
0
40
0
40
0
40
0
40
1
40
1
40
1
40
1
41
1
10
14.036764368288
20
-0.438373982626644
30
0
41
1
10
14.0338271457688
20
-0.432372066154784
30
0
41
1
10
14.0308898169018
20
-0.426369932372097
30
0
41
1
10
14.0279523791751
20
-0.420367576145537
30
0
0
SPLINE
5
108
100
AcDbEntity
8
1
62
256
6
ByLayer
370
18
48
1
60
0
100
AcDbSpline
70
4
71
3
72
35
73
31
40
0
40
0
40
0
40
0
40
0.125000000000004
40
0.125000000000004
40
0.250000000000008
40
0.250000000000008
40
0.375000000000012
40
0.375000000000012
40
0.437500000000015
40
0.437500000000015
40
0.500000000000018
40
0.500000000000018
40
0.625000000000022
40
0.625000000000022
40
0.687500000000024
40
0.687500000000024
40
0.718750000000026
40
0.718750000000026
40
0.750000000000028
40
0.750000000000028
40
0.812500000000028
40
0.812500000000028
40
0.843750000000023
40
0.843750000000023
40
0.875000000000019
40
0.906250000000014
40
0.906250000000014
40
0.937500000000009
40
0.937500000000009
40
1
40
1
40
1
40
1
41
1
10
11.9794887094538
20
4.43067350080173
30
0
41
1
10
12.011029058741
20
4.44888332995302
30
0
41
1
10
12.0433483352168
20
4.46589719413143
30
0
41
1
10
12.1091257307001
20
4.49720719878107
30
0
41
1
10
12.1425853298084
20
4.51151418158767
30
0
41
1
10
12.2107616849789
20
4.5371517508861
30
0
41
1
10
12.2453741773896
20
4.54844178652067
30
0
41
1
10
12.2978921742681
20
4.56257016060491
30
0
41
1
10
12.315512812608
20
4.56681416728088
30
0
41
1
10
12.3510114627686
20
4.57424711807246
30
0
41
1
10
12.3688897277241
20
4.57743414241071
30
0
41
1
10
12.4225820020912
20
4.58509345910176
30
0
41
1
10
12.4587078070088
20
4.58774100316111
30
0
41
1
10
12.5122276700061
20
4.58625865959058
30
0
41
1
10
12.5300524892372
20
4.5848387191582
30
0
41
1
10
12.5562702313539
20
4.58098786646994
30
0
41
1
10
12.5649249025432
20
4.57941792158266
30
0
41
1
10
12.5820397212491
20
4.57562859999098
30
0
41
1
10
12.5905281481012
20
4.57339923775223
30
0
41
1
10
12.6153337032662
20
4.56568929212841
30
0
41
1
10
12.6310560356243
20
4.5591976802705
30
0
41
1
10
12.6530765176766
20
4.54691462487202
30
0
41
1
10
12.6602023430541
20
4.5423537078816
30
0
41
1
10
12.673534108824
20
4.53248059887622
30
0
41
1
10
12.6859689262273
20
4.52186475940727
30
0
41
1
10
12.6965323351483
20
4.5097097821795
30
0
41
1
10
12.7061042276186
20
4.49674363674225
30
0
41
1
10
12.7103400280911
20
4.48991141534421
30
0
41
1
10
12.7211873809365
20
4.46889956185234
30
0
41
1
10
12.7260921014154
20
4.45402420135815
30
0
41
1
10
12.7289130506196
20
4.43837398262653
30
0
0
SPLINE
5
109
100
AcDbEntity
8
1
62
256
6
ByLayer
370
18
48
1
60
0
100
AcDbSpline
70
4
71
3
72
52
73
48
40
0
40
0
40
0
40
0
40
0.0156250000000181
40
0.0156250000000181
40
0.0312500000000362
40
0.0312500000000362
40
0.0625000000000479
40
0.0625000000000479
40
0.0937500000000596
40
0.0937500000000596
40
0.125000000000071
40
0.125000000000071
40
0.1875000000001
40
0.1875000000001
40
0.218750000000092
40
0.218750000000092
40
0.250000000000083
40
0.250000000000083
40
0.312500000000064
40
0.312500000000064
40
0.375000000000045
40
0.375000000000045
40
0.437500000000026
40
0.437500000000026
40
0.500000000000007
40
0.500000000000007
40
0.562499999999988
40
0.562499999999988
40
0.624999999999969
40
0.624999999999969
40
0.68749999999995
40
0.68749999999995
40
0.749999999999931
40
0.749999999999931
40
0.812499999999912
40
0.812499999999912
40
0.843749999999927
40
0.843749999999927
40
0.874999999999942
40
0.874999999999942
40
0.906249999999956
40
0.906249999999956
40
0.937499999999971
40
0.937499999999971
40
0.968749999999985
40
0.968749999999985
40
1
40
1
40
1
40
1
41
1
10
12.7377250397329
20
4.42036757614474
30
0
41
1
10
12.7407396834288
20
4.41420745734681
30
0
41
1
10
12.7440838609569
20
4.40821241873647
30
0
41
1
10
12.7513634693562
20
4.39651733542263
30
0
41
1
10
12.7553085868208
20
4.3908072560119
30
0
41
1
10
12.7678026953619
20
4.3742654396182
30
0
41
1
10
12.7770392646469
20
4.36395133423204
30
0
41
1
10
12.7969561973311
20
4.34444420626497
30
0
41
1
10
12.8076398116531
20
4.33525375527145
30
0
41
1
10
12.8302398244933
20
4.31781303649439
30
0
41
1
10
12.8421208391407
20
4.30959723391473
30
0
41
1
10
12.8788888606991
20
4.28645819268561
30
0
41
1
10
12.9051204815407
20
4.27288106004087
30
0
41
1
10
12.945854837012
20
4.2549052537897
30
0
41
1
10
12.9596860424216
20
4.24930405245297
30
0
41
1
10
12.9878124065748
20
4.23880093027006
30
0
41
1
10
13.0021218737548
20
4.23389595816326
30
0
41
1
10
13.045440789699
20
4.22022454919934
30
0
41
1
10
13.0749163780113
20
4.21246091323221
30
0
41
1
10
13.1349440357245
20
4.19926715447491
30
0
41
1
10
13.1654460232233
20
4.19385854131164
30
0
41
1
10
13.2268331199802
20
4.1852829727786
30
0
41
1
10
13.2578170479923
20
4.18209850827836
30
0
41
1
10
13.3202222638588
20
4.17785251302183
30
0
41
1
10
13.3514972573958
20
4.17679988111556
30
0
41
1
10
13.4141907280469
20
4.17680011890437
30
0
41
1
10
13.4454494673168
20
4.17785300340256
30
0
41
1
10
13.5077900360802
20
4.1820928464592
30
0
41
1
10
13.5388595469871
20
4.18528365887462
30
0
41
1
10
13.6003318503272
20
4.19387402120989
30
0
41
1
10
13.6308571185
20
4.19929123322436
30
0
41
1
10
13.6908542110411
20
4.21248452043639
30
0
41
1
10
13.7203926766778
20
4.22026701835151
30
0
41
1
10
13.7782180649237
20
4.23853025940358
30
0
41
1
10
13.8063279974216
20
4.24894542921456
30
0
41
1
10
13.8470811892119
20
4.2669366887024
30
0
41
1
10
13.8604495966658
20
4.27334384426217
30
0
41
1
10
13.8864710848085
20
4.28698661436781
30
0
41
1
10
13.8991398228667
20
4.29422651626581
30
0
41
1
10
13.9236928720679
20
4.30968768811522
30
0
41
1
10
13.935551761064
20
4.31789556552192
30
0
41
1
10
13.9581228419236
20
4.33532515624742
30
0
41
1
10
13.9688910035963
20
4.34458989396373
30
0
41
1
10
13.9889496282702
20
4.3642775002198
30
0
41
1
10
13.9981644718183
20
4.3746183184976
30
0
41
1
10
14.0146484813099
20
4.39650488229626
30
0
41
1
10
14.0219230667564
20
4.40804728740898
30
0
41
1
10
14.0279523791751
20
4.42036757614542
30
0
0
SPLINE
5
10A
100
AcDbEntity
8
1
62
256
6
ByLayer
370
18
48
1
60
0
100
AcDbSpline
70
4
71
3
72
8
73
4
40
0
40
0
40
0
40
0
40
1
40
1
40
1
40
1
41
1
10
14.0279523791751
20
4.42036757614542
30
0
41
1
10
14.0308898169019
20
4.42636993237201
30
0
41
1
10
14.0338271457688
20
4.43237206615467
30
0
41
1
10
14.0367643682881
20
4.43837398262653
30
0
0
SPLINE
5
10B
100
AcDbEntity
8
1
62
256
6
ByLayer
370
18
48
1
60
0
100
AcDbSpline
70
4
71
3
72
35
73
31
40
0
40
0
40
0
40
0
40
0.124999999999996
40
0.124999999999996
40
0.249999999999993
40
0.249999999999993
40
0.374999999999989
40
0.374999999999989
40
0.499999999999986
40
0.499999999999986
40
0.562499999999937
40
0.562499999999937
40
0.624999999999889
40
0.624999999999889
40
0.68749999999984
40
0.68749999999984
40
0.718749999999819
40
0.718749999999819
40
0.749999999999798
40
0.749999999999798
40
0.812499999999846
40
0.812499999999846
40
0.843749999999867
40
0.843749999999867
40
0.874999999999888
40
0.90624999999991
40
0.90624999999991
40
0.937499999999931
40
0.937499999999931
40
1
40
1
40
1
40
1
41
1
10
14.7861887094538
20
4.43067350080176
30
0
41
1
10
14.7546490687719
20
4.44888292083959
30
0
41
1
10
14.7223703189467
20
4.46587697738639
30
0
41
1
10
14.6565459790306
20
4.49721050481409
30
0
41
1
10
14.6230870745427
20
4.5115152005647
30
0
41
1
10
14.5549717393749
20
4.53713155624794
30
0
41
1
10
14.5203004469214
20
4.54844645116714
30
0
41
1
10
14.4500762061612
20
4.5673303159264
30
0
41
1
10
14.4145053031965
20
4.57491564107491
30
0
41
1
10
14.3607991910108
20
4.58256346588283
30
0
41
1
10
14.3428658931318
20
4.5844837722851
30
0
41
1
10
14.3069317521084
20
4.58682798716259
30
0
41
1
10
14.2889745410048
20
4.58724469202377
30
0
41
1
10
14.2534827356386
20
4.58625746632819
30
0
41
1
10
14.2358982322515
20
4.58486146704897
30
0
41
1
10
14.2098391643363
20
4.58105973069647
30
0
41
1
10
14.2012061171254
20
4.57950611890445
30
0
41
1
10
14.1840658830963
20
4.57573502144425
30
0
41
1
10
14.1755508553207
20
4.57351111797581
30
0
41
1
10
14.1506991802827
20
4.56582476797752
30
0
41
1
10
14.1348979675358
20
4.55933535358147
30
0
41
1
10
14.1126978169423
20
4.54697685616262
30
0
41
1
10
14.1055694966644
20
4.54241503959815
30
0
41
1
10
14.0922919153342
20
4.5325990890957
30
0
41
1
10
14.0798855508323
20
4.52203518489682
30
0
41
1
10
14.0693100318887
20
4.50991000149691
30
0
41
1
10
14.0597126516548
20
4.49695504520625
30
0
41
1
10
14.0554371995822
20
4.49008536568343
30
0
41
1
10
14.0445203457516
20
4.46899643111988
30
0
41
1
10
14.0395936910073
20
4.45407065641078
30
0
41
1
10
14.0367643682881
20
4.43837398262653
30
0
0
SPLINE
5
10C
100
AcDbEntity
8
1
62
256
6
ByLayer
370
18
48
1
60
0
100
AcDbSpline
70
4
71
3
72
8
73
4
40
0
40
0
40
0
40
0
40
1
40
1
40
1
40
1
41
1
10
12.7289130506196
20
4.43837398262653
30
0
41
1
10
12.7318502731388
20
4.43237206615467
30
0
41
1
10
12.7347876020058
20
4.42636993237201
30
0
41
1
10
12.7377250397325
20
4.42036757614542
30
0
0
SPLINE
5
10D
100
AcDbEntity
8
1
62
256
6
ByLayer
370
18
48
1
60
0
100
AcDbSpline
70
4
71
3
72
35
73
31
40
0
40
0
40
0
40
0
40
0.124999999999996
40
0.124999999999996
40
0.249999999999993
40
0.249999999999993
40
0.374999999999989
40
0.374999999999989
40
0.437499999999998
40
0.437499999999998
40
0.500000000000007
40
0.500000000000007
40
0.625000000000018
40
0.625000000000018
40
0.687500000000019
40
0.687500000000019
40
0.718750000000049
40
0.718750000000049
40
0.75000000000008
40
0.75000000000008
40
0.812500000000089
40
0.812500000000089
40
0.84375000000006
40
0.84375000000006
40
0.875000000000032
40
0.906250000000003
40
0.906250000000003
40
0.937499999999974
40
0.937499999999974
40
1
40
1
40
1
40
1
41
1
10
16.1895387094538
20
1.99999999999994
30
0
41
1
10
16.1895387094538
20
1.96358034169739
30
0
41
1
10
16.1881135098109
20
1.92708409514813
30
0
41
1
10
16.1823400714885
20
1.85446419734004
30
0
41
1
10
16.1780004824963
20
1.81833384310852
30
0
41
1
10
16.1661150912149
20
1.74647260294432
30
0
41
1
10
16.1585863026786
20
1.71085228741097
30
0
41
1
10
16.1445628351105
20
1.65830618091621
30
0
41
1
10
16.1394279335358
20
1.640924257145
30
0
41
1
10
16.1281157326661
20
1.60646504891005
30
0
41
1
10
16.1219366442276
20
1.58938850511382
30
0
41
1
10
16.1017236698743
20
1.53905997317943
30
0
41
1
10
16.0859536078285
20
1.50645033635899
30
0
41
1
10
16.0579099291407
20
1.46084194718159
30
0
41
1
10
16.0477678150388
20
1.44611517112574
30
0
41
1
10
16.0313240077262
20
1.425335366767
30
0
41
1
10
16.0256370599766
20
1.41862517409928
30
0
41
1
10
16.0137980018621
20
1.40569796711461
30
0
41
1
10
16.0076231041031
20
1.39946145494187
30
0
41
1
10
15.9885433177485
20
1.3818341868259
30
0
41
1
10
15.9750602507891
20
1.37146405352607
30
0
41
1
10
15.9534125717518
20
1.35853528436445
30
0
41
1
10
15.9458997890847
20
1.35464459705977
30
0
41
1
10
15.9306835429868
20
1.34803550372843
30
0
41
1
10
15.9152725476226
20
1.34257455570022
30
0
41
1
10
15.8994643241003
20
1.33950386383793
30
0
41
1
10
15.8834493665274
20
1.33769743451498
30
0
41
1
10
15.8754145889962
20
1.33744523439938
30
0
41
1
10
15.8517941136689
20
1.33855707801749
30
0
41
1
10
15.836459313351
20
1.34174714573135
30
0
41
1
10
15.8214953517526
20
1.34712924142357
30
0
0
SPLINE
5
10E
100
AcDbEntity
8
1
62
256
6
ByLayer
370
18
48
1
60
0
100
AcDbSpline
70
4
71
3
72
35
73
31
40
0
40
0
40
0
40
0
40
0.125000000000043
40
0.125000000000043
40
0.250000000000085
40
0.250000000000085
40
0.375000000000128
40
0.375000000000128
40
0.50000000000017
40
0.50000000000017
40
0.56250000000016
40
0.56250000000016
40
0.625000000000149
40
0.625000000000149
40
0.687500000000138
40
0.687500000000138
40
0.718750000000135
40
0.718750000000135
40
0.750000000000133
40
0.750000000000133
40
0.812500000000097
40
0.812500000000097
40
0.843750000000079
40
0.843750000000079
40
0.875000000000061
40
0.906250000000042
40
0.906250000000042
40
0.937500000000024
40
0.937500000000024
40
1
40
1
40
1
40
1
41
1
10
14.7861887094538
20
-0.430673500801816
30
0
41
1
10
14.8177283501358
20
-0.412464080763982
30
0
41
1
10
14.8485850097312
20
-0.393006891686326
30
0
41
1
10
14.9086328104318
20
-0.351668104845515
30
0
41
1
10
14.9377504925892
20
-0.329844191451514
30
0
41
1
10
14.9939925749471
20
-0.283662758650536
30
0
41
1
10
15.0211272076152
20
-0.259293986063312
30
0
41
1
10
15.0725932345983
20
-0.207919941983278
30
0
41
1
10
15.0969477703553
20
-0.180907298954509
30
0
41
1
10
15.1304240370155
20
-0.138220353867098
30
0
41
1
10
15.1410537200824
20
-0.123649815531337
30
0
41
1
10
15.16105094023
20
-0.0937020439806702
30
0
41
1
10
15.1703904227774
20
-0.0783589954144759
30
0
41
1
10
15.1872813629289
20
-0.0471285774933392
30
0
41
1
10
15.1948646437829
20
-0.0312019512075494
30
0
41
1
10
15.2046017774808
20
-0.0067332682178289
30
0
41
1
10
15.2075728338067
20
0.0015199758749134
30
0
41
1
10
15.2128770846205
20
0.0182494027010307
30
0
41
1
10
15.2152086416091
20
0.0267355848028217
30
0
41
1
10
15.2209779047672
20
0.0521009417114726
30
0
41
1
10
15.223258513418
20
0.0690299005589168
30
0
41
1
10
15.2236558159975
20
0.0944350436501793
30
0
41
1
10
15.2232693271042
20
0.102889258379378
30
0
41
1
10
15.2214072552718
20
0.119295956363345
30
0
41
1
10
15.2184618281234
20
0.135322135290011
30
0
41
1
10
15.2132488707454
20
0.150543395053404
30
0
41
1
10
15.2068282396098
20
0.165332448291082
30
0
41
1
10
15.2030166486634
20
0.172469938159964
30
0
41
1
10
15.1902115225079
20
0.192468678188448
30
0
41
1
10
15.1797487498108
20
0.204198173707169
30
0
41
1
10
15.1675696929183
20
0.214496775949726
30
0
0
SPLINE
5
10F
100
AcDbEntity
8
1
62
256
6
ByLayer
370
18
48
1
60
0
100
AcDbSpline
70
4
71
3
72
52
73
48
40
0
40
0
40
0
40
0
40
0.0156250000000169
40
0.0156250000000169
40
0.0312500000000339
40
0.0312500000000339
40
0.0625000000000685
40
0.0625000000000685
40
0.0937500000001033
40
0.0937500000001033
40
0.125000000000138
40
0.125000000000138
40
0.187500000000162
40
0.187500000000162
40
0.218750000000172
40
0.218750000000172
40
0.250000000000182
40
0.250000000000182
40
0.312500000000167
40
0.312500000000167
40
0.375000000000152
40
0.375000000000152
40
0.437500000000137
40
0.437500000000137
40
0.500000000000122
40
0.500000000000122
40
0.562500000000107
40
0.562500000000107
40
0.625000000000092
40
0.625000000000092
40
0.687500000000077
40
0.687500000000077
40
0.750000000000062
40
0.750000000000062
40
0.812500000000048
40
0.812500000000048
40
0.84375000000004
40
0.84375000000004
40
0.875000000000032
40
0.875000000000032
40
0.906250000000024
40
0.906250000000024
40
0.937500000000016
40
0.937500000000016
40
0.968750000000008
40
0.968750000000008
40
1
40
1
40
1
40
1
41
1
10
15.8014953517518
20
1.34850103823447
30
0
41
1
10
15.7946532105345
20
1.34897033960951
30
0
41
1
10
15.7877892660373
20
1.34907171622055
30
0
41
1
10
15.7740212225885
20
1.34861493207404
30
0
41
1
10
15.7671035900288
20
1.34805339983413
30
0
41
1
10
15.7465309025366
20
1.34550409263676
30
0
41
1
10
15.7329803406124
20
1.34266204168523
30
0
41
1
10
15.7061282058959
20
1.33516703599875
30
0
41
1
10
15.6928272347023
20
1.33050998008846
30
0
41
1
10
15.666423122761
20
1.31965815423149
30
0
41
1
10
15.6533675216908
20
1.31347679501394
30
0
41
1
10
15.614944513388
20
1.29320427491206
30
0
41
1
10
15.5900705611863
20
1.27727559120319
30
0
41
1
10
15.5541358785836
20
1.25098650768373
30
0
41
1
10
15.5423694932294
20
1.24180893310248
30
0
41
1
10
15.5192103405235
20
1.22270234832118
30
0
41
1
10
15.5078077764841
20
1.21276247228207
30
0
41
1
10
15.4743085310438
20
1.18208289509198
30
0
41
1
10
15.4528472309143
20
1.16043810480559
30
0
41
1
10
15.4114072718025
20
1.11504950767491
30
0
41
1
10
15.3914722816544
20
1.0913383182166
30
0
41
1
10
15.3533520730745
20
1.04246331722715
30
0
41
1
10
15.3351022819139
20
1.01722268070981
30
0
41
1
10
15.300222534224
20
0.965301176068948
30
0
41
1
10
15.2836734314838
20
0.938742553115759
30
0
41
1
10
15.2523269020894
20
0.884448295986203
30
0
41
1
10
15.2376093571772
20
0.856850991439188
30
0
41
1
10
15.2101108845906
20
0.800742553675349
30
0
41
1
10
15.1973394537477
20
0.772240161739063
30
0
41
1
10
15.1740427740876
20
0.714708404249791
30
0
41
1
10
15.1634715832235
20
0.685564140547598
30
0
41
1
10
15.1448987588379
20
0.627008490647711
30
0
41
1
10
15.136869366919
20
0.597536180060018
30
0
41
1
10
15.1237731035026
20
0.538326304329274
30
0
41
1
10
15.1187379388947
20
0.508774803781961
30
0
41
1
10
15.1139422307621
20
0.464485874662415
30
0
41
1
10
15.1128067865159
20
0.449704916419194
30
0
41
1
10
15.111611027934
20
0.420348261590561
30
0
41
1
10
15.1115465978695
20
0.40575686164928
30
0
41
1
10
15.1126598408628
20
0.376762711375989
30
0
41
1
10
15.11383862671
20
0.362388673541204
30
0
41
1
10
15.1176475546261
20
0.334126748763282
30
0
41
1
10
15.1202869720114
20
0.320168878344447
30
0
41
1
10
15.127307626832
20
0.292953796683946
30
0
41
1
10
15.1316556163823
20
0.279803098940363
30
0
41
1
10
15.1423679318878
20
0.25458424606515
30
0
41
1
10
15.148726655213
20
0.242513067710206
30
0
41
1
10
15.1563816820313
20
0.231131385619989
30
0
0
SPLINE
5
110
100
AcDbEntity
8
1
62
256
6
ByLayer
370
18
48
1
60
0
100
AcDbSpline
70
4
71
3
72
8
73
4
40
0
40
0
40
0
40
0
40
1
40
1
40
1
40
1
41
1
10
15.1563816820313
20
0.231131385619989
30
0
41
1
10
15.1601111561427
20
0.225586311813288
30
0
41
1
10
15.1638404920419
20
0.220041443503874
30
0
41
1
10
15.1675696929183
20
0.214496775949726
30
0
0
SPLINE
5
111
100
AcDbEntity
8
1
62
256
6
ByLayer
370
18
48
1
60
0
100
AcDbSpline
70
4
71
3
72
8
73
4
40
0
40
0
40
0
40
0
40
1
40
1
40
1
40
1
41
1
10
15.8214953517526
20
1.34712924142357
30
0
41
1
10
15.814828928357
20
1.34758649034126
30
0
41
1
10
15.8081622635907
20
1.34804375581453
30
0
41
1
10
15.8014953517526
20
1.34850103823442
30
0
0
SPLINE
5
112
100
AcDbEntity
8
1
62
256
6
ByLayer
370
18
48
1
60
0
100
AcDbSpline
70
4
71
3
72
52
73
48
40
0
40
0
40
0
40
0
40
0.0156250000000017
40
0.0156250000000017
40
0.0312500000000032
40
0.0312500000000032
40
0.0625000000000063
40
0.0625000000000063
40
0.0937500000000094
40
0.0937500000000094
40
0.125000000000013
40
0.125000000000013
40
0.187500000000021
40
0.187500000000021
40
0.218750000000022
40
0.218750000000022
40
0.250000000000023
40
0.250000000000023
40
0.312500000000022
40
0.312500000000022
40
0.375000000000021
40
0.375000000000021
40
0.43750000000002
40
0.43750000000002
40
0.500000000000019
40
0.500000000000019
40
0.562500000000018
40
0.562500000000018
40
0.625000000000018
40
0.625000000000018
40
0.687500000000017
40
0.687500000000017
40
0.750000000000016
40
0.750000000000016
40
0.812500000000015
40
0.812500000000015
40
0.843750000000012
40
0.843750000000012
40
0.87500000000001
40
0.87500000000001
40
0.906250000000007
40
0.906250000000007
40
0.937500000000005
40
0.937500000000005
40
0.968750000000002
40
0.968750000000002
40
1
40
1
40
1
40
1
41
1
10
15.1563816820309
20
3.76886861437927
30
0
41
1
10
15.1525541845095
20
3.76317779695637
30
0
41
1
10
15.1490344175403
20
3.75728413495705
30
0
41
1
10
15.1425459824908
20
3.74513226749673
30
0
41
1
10
15.1395734673958
20
3.73886065584608
30
0
41
1
10
15.1314948884447
20
3.71976953225502
30
0
41
1
10
15.1271808958054
20
3.70661337591733
30
0
41
1
10
15.1202456937732
20
3.67961124226375
30
0
41
1
10
15.1176283369015
20
3.66576373536
30
0
41
1
10
15.1138242378005
20
3.63747119072593
30
0
41
1
10
15.1126496513777
20
3.62307402892873
30
0
41
1
10
15.1109946646332
20
3.5796624675977
30
0
41
1
10
15.1123523332732
20
3.5501566512441
30
0
41
1
10
15.1171520061419
20
3.50589176147346
30
0
41
1
10
15.1192168261973
20
3.4911129855555
30
0
41
1
10
15.1241840376445
20
3.46150327859129
30
0
41
1
10
15.1270909407851
20
3.44665843044538
30
0
41
1
10
15.1369106112889
20
3.40230744429135
30
0
41
1
10
15.1449248994719
20
3.37289901803783
30
0
41
1
10
15.1635125980732
20
3.31431666214985
30
0
41
1
10
15.174079595424
20
3.28519685952833
30
0
41
1
10
15.1973464836009
20
3.2277462900058
30
0
41
1
10
15.2100806204522
20
3.19932118898819
30
0
41
1
10
15.237606088629
20
3.14315368909081
30
0
41
1
10
15.2523319794259
20
3.11554243423137
30
0
41
1
10
15.2836789206826
20
3.06124841489063
30
0
41
1
10
15.3002201150402
20
3.03470399484175
30
0
41
1
10
15.335062211217
20
2.98283540013458
30
0
41
1
10
15.3533602912809
20
2.95752382061374
30
0
41
1
10
15.391535914961
20
2.90858242545974
30
0
41
1
10
15.4114899922696
20
2.88485537377201
30
0
41
1
10
15.4529142604252
20
2.83949301108413
30
0
41
1
10
15.474423334143
20
2.81780319841155
30
0
41
1
10
15.5191524589725
20
2.77685656373291
30
0
41
1
10
15.5422272268624
20
2.7577202329966
30
0
41
1
10
15.5781847105201
20
2.73142256336484
30
0
41
1
10
15.5904176737279
20
2.72304876068145
30
0
41
1
10
15.6152434032887
20
2.70733487595845
30
0
41
1
10
15.6278477112824
20
2.69998337791515
30
0
41
1
10
15.6535140034767
20
2.68645039949124
30
0
41
1
10
15.6665516783203
20
2.68028423906318
30
0
41
1
10
15.6929316870959
20
2.66945190501079
30
0
41
1
10
15.706339266154
20
2.66475877230823
30
0
41
1
10
15.7334185456483
20
2.65723129690377
30
0
41
1
10
15.746981378747
20
2.65442141743799
30
0
41
1
10
15.7741777037439
20
2.65108912836146
30
0
41
1
10
15.7878110125155
20
2.65056035511924
30
0
41
1
10
15.8014953517526
20
2.65149896176544
30
0
0
SPLINE
5
113
100
AcDbEntity
8
1
62
256
6
ByLayer
370
18
48
1
60
0
100
AcDbSpline
70
4
71
3
72
8
73
4
40
0
40
0
40
0
40
0
40
1
40
1
40
1
40
1
41
1
10
15.8014953517526
20
2.65149896176544
30
0
41
1
10
15.8081622635907
20
2.65195624418536
30
0
41
1
10
15.814828928357
20
2.6524135096586
30
0
41
1
10
15.8214953517526
20
2.65287075857631
30
0
0
SPLINE
5
114
100
AcDbEntity
8
1
62
256
6
ByLayer
370
18
48
1
60
0
100
AcDbSpline
70
4
71
3
72
35
73
31
40
0
40
0
40
0
40
0
40
0.124999999999969
40
0.124999999999969
40
0.249999999999937
40
0.249999999999937
40
0.374999999999906
40
0.374999999999906
40
0.499999999999874
40
0.499999999999874
40
0.562499999999843
40
0.562499999999843
40
0.624999999999811
40
0.624999999999811
40
0.687499999999779
40
0.687499999999779
40
0.718749999999799
40
0.718749999999799
40
0.74999999999982
40
0.74999999999982
40
0.812499999999868
40
0.812499999999868
40
0.843749999999892
40
0.843749999999892
40
0.874999999999916
40
0.90624999999994
40
0.90624999999994
40
0.937499999999964
40
0.937499999999964
40
1
40
1
40
1
40
1
41
1
10
16.1895387094538
20
1.99999999999994
30
0
41
1
10
16.1895387094538
20
2.03641884007564
30
0
41
1
10
16.1881166192241
20
2.07287008570009
30
0
41
1
10
16.1823400800085
20
2.14554239996861
30
0
41
1
10
16.1779988576781
20
2.18167100911325
30
0
41
1
10
16.1661256048682
20
2.25346879759744
30
0
41
1
10
16.1585889450827
20
2.28915246510385
30
0
41
1
10
16.1398307313059
20
2.35941037394318
30
0
41
1
10
16.128614364098
20
2.39400834212043
30
0
41
1
10
16.1083845185724
20
2.44434311201579
30
0
41
1
10
16.1010809037603
20
2.46083395675376
30
0
41
1
10
16.0851439828845
20
2.49312594318192
30
0
41
1
10
16.0765262543284
20
2.50888569660933
30
0
41
1
10
16.0579253891136
20
2.53912888883488
30
0
41
1
10
16.0479241665805
20
2.55365951584142
30
0
41
1
10
16.0316022323632
20
2.5743264624787
30
0
41
1
10
16.0259402414783
20
2.58102609477942
30
0
41
1
10
16.0141042582631
20
2.5939844241453
30
0
41
1
10
16.007920787476
20
2.60024670277866
30
0
41
1
10
15.9888383755961
20
2.61792570968905
30
0
41
1
10
15.9753177715
20
2.62836525414045
30
0
41
1
10
15.9535149234859
20
2.64141189981282
30
0
41
1
10
15.9460001143148
20
2.64530429797759
30
0
41
1
10
15.9308604611522
20
2.6518950454591
30
0
41
1
10
15.9155087102906
20
2.65735753252451
30
0
41
1
10
15.8997201931802
20
2.66045339655037
30
0
41
1
10
15.8837021818106
20
2.66228749349739
30
0
41
1
10
15.8756151387918
20
2.66255530384345
30
0
41
1
10
15.8518931588057
20
2.66146510930838
30
0
41
1
10
15.8365037313643
20
2.658268830118
30
0
41
1
10
15.8214953517526
20
2.65287075857631
30
0
0
SPLINE
5
115
100
AcDbEntity
8
1
62
256
6
ByLayer
370
18
48
1
60
0
100
AcDbSpline
70
4
71
3
72
35
73
31
40
0
40
0
40
0
40
0
40
0.124999999999999
40
0.124999999999999
40
0.249999999999997
40
0.249999999999997
40
0.374999999999996
40
0.374999999999996
40
0.437499999999961
40
0.437499999999961
40
0.499999999999925
40
0.499999999999925
40
0.624999999999855
40
0.624999999999855
40
0.687499999999842
40
0.687499999999842
40
0.718749999999849
40
0.718749999999849
40
0.749999999999857
40
0.749999999999857
40
0.812499999999881
40
0.812499999999881
40
0.843749999999902
40
0.843749999999902
40
0.874999999999923
40
0.906249999999945
40
0.906249999999945
40
0.937499999999966
40
0.937499999999966
40
1
40
1
40
1
40
1
41
1
10
14.7861887094538
20
4.43067350080176
30
0
41
1
10
14.8177290587409
20
4.41246367165047
30
0
41
1
10
14.8486231355739
20
4.39298128927962
30
0
41
1
10
14.9086270927348
20
4.35167139612119
30
0
41
1
10
14.937747102851
20
4.32984802469625
30
0
41
1
10
14.9940380667399
20
4.28362435383048
30
0
41
1
10
15.0211217706144
20
4.2592940739317
30
0
41
1
10
15.0596162999248
20
4.22087634152118
30
0
41
1
10
15.07210203669
20
4.20773842442594
30
0
41
1
10
15.0962884859809
20
4.1807121669826
30
0
41
1
10
15.1079876624981
20
4.16682264752461
30
0
41
1
10
15.1414669625117
20
4.12415343228128
30
0
41
1
10
15.1618227053835
20
4.09419133952017
30
0
41
1
10
15.1872988896929
20
4.04710060677223
30
0
41
1
10
15.1949815948222
20
4.030953890284
30
0
41
1
10
15.2047555296262
20
4.006323233237
30
0
41
1
10
15.207723253066
20
3.99804309568199
30
0
41
1
10
15.2129990136574
20
3.98132656710564
30
0
41
1
10
15.2153125427505
20
3.97286069269418
30
0
41
1
10
15.221038311561
20
3.94752347895437
30
0
41
1
10
15.2232775769596
20
3.93066173379663
30
0
41
1
10
15.2236503799745
20
3.90544990923652
30
0
41
1
10
15.2232634226851
20
3.89699830494143
30
0
41
1
10
15.2213789423571
20
3.8805161026047
30
0
41
1
10
15.218402764396
20
3.86443931510755
30
0
41
1
10
15.2131579497949
20
3.84921364601746
30
0
41
1
10
15.2067148846922
20
3.83444107125723
30
0
41
1
10
15.2029159076335
20
3.82735664974365
30
0
41
1
10
15.1901427851516
20
3.80745663986986
30
0
41
1
10
15.1797127053126
20
3.79577134708956
30
0
41
1
10
15.1675696929184
20
3.78550322405016
30
0
0
SPLINE
5
116
100
AcDbEntity
8
1
62
256
6
ByLayer
370
18
48
1
60
0
100
AcDbSpline
70
4
71
3
72
8
73
4
40
0
40
0
40
0
40
0
40
1
40
1
40
1
40
1
41
1
10
15.1675696929184
20
3.78550322405016
30
0
41
1
10
15.163840492042
20
3.77995855649601
30
0
41
1
10
15.1601111561428
20
3.7744136881866
30
0
41
1
10
15.1563816820313
20
3.7688686143799
30
0
0
SPLINE
5
117
100
AcDbEntity
8
1
62
256
6
ByLayer
370
18
48
1
60
0
100
AcDbSpline
70
4
71
3
72
8
73
4
40
0
40
0
40
0
40
0
40
1
40
1
40
1
40
1
41
1
10
11.6092957368763
20
3.7688686143799
30
0
41
1
10
11.6055662627649
20
3.7744136881866
30
0
41
1
10
11.6018369268657
20
3.77995855649601
30
0
41
1
10
11.5981077259893
20
3.78550322405016
30
0
0
SPLINE
5
118
100
AcDbEntity
8
1
62
256
6
ByLayer
370
18
48
1
60
0
100
AcDbSpline
70
4
71
3
72
35
73
31
40
0
40
0
40
0
40
0
40
0.12499999999996
40
0.12499999999996
40
0.249999999999919
40
0.249999999999919
40
0.374999999999879
40
0.374999999999879
40
0.499999999999838
40
0.499999999999838
40
0.562499999999852
40
0.562499999999852
40
0.624999999999865
40
0.624999999999865
40
0.687499999999879
40
0.687499999999879
40
0.718749999999888
40
0.718749999999888
40
0.749999999999897
40
0.749999999999897
40
0.812499999999914
40
0.812499999999914
40
0.843749999999928
40
0.843749999999928
40
0.874999999999942
40
0.906249999999955
40
0.906249999999955
40
0.937499999999969
40
0.937499999999969
40
1
40
1
40
1
40
1
41
1
10
11.9794887094538
20
4.43067350080173
30
0
41
1
10
11.9479490687719
20
4.4124640807639
30
0
41
1
10
11.9170924091764
20
4.39300689168624
30
0
41
1
10
11.8570446084758
20
4.35166810484543
30
0
41
1
10
11.8279269263184
20
4.3298441914514
30
0
41
1
10
11.7716848439604
20
4.28366275865042
30
0
41
1
10
11.7445502112925
20
4.25929398606323
30
0
41
1
10
11.6930841843093
20
4.20791994198316
30
0
41
1
10
11.6687296485524
20
4.18090729895442
30
0
41
1
10
11.6352533818921
20
4.13822035386701
30
0
41
1
10
11.6246236988252
20
4.12364981553128
30
0
41
1
10
11.6046264786777
20
4.09370204398061
30
0
41
1
10
11.5952869961302
20
4.07835899541439
30
0
41
1
10
11.5783960559787
20
4.04712857749323
30
0
41
1
10
11.5708127751247
20
4.03120195120746
30
0
41
1
10
11.5610756414269
20
4.00673326821772
30
0
41
1
10
11.5581045851009
20
3.998480024125
30
0
41
1
10
11.552800334287
20
3.98175059729888
30
0
41
1
10
11.5504687772985
20
3.97326441519707
30
0
41
1
10
11.5446995141404
20
3.94789905828844
30
0
41
1
10
11.5424189054896
20
3.93097009944097
30
0
41
1
10
11.5420216029102
20
3.90556495634971
30
0
41
1
10
11.5424080918035
20
3.89711074162054
30
0
41
1
10
11.5442701636358
20
3.88070404363657
30
0
41
1
10
11.5472155907842
20
3.86467786470988
30
0
41
1
10
11.5524285481623
20
3.84945660494648
30
0
41
1
10
11.5588491792979
20
3.8346675517088
30
0
41
1
10
11.5626607702443
20
3.82753006183995
30
0
41
1
10
11.5754658963998
20
3.80753132181144
30
0
41
1
10
11.5859286690969
20
3.79580182629274
30
0
41
1
10
11.5981077259893
20
3.78550322405016
30
0
0
SPLINE
5
119
100
AcDbEntity
8
1
62
256
6
ByLayer
370
18
48
1
60
0
100
AcDbSpline
70
4
71
3
72
39
73
35
40
0
40
0
40
0
40
0
40
0.12500000000007
40
0.12500000000007
40
0.25000000000014
40
0.25000000000014
40
0.37500000000021
40
0.37500000000021
40
0.437500000000246
40
0.437500000000246
40
0.500000000000282
40
0.500000000000282
40
0.562500000000318
40
0.562500000000318
40
0.625000000000354
40
0.625000000000354
40
0.68750000000039
40
0.68750000000039
40
0.718750000000376
40
0.718750000000376
40
0.750000000000363
40
0.750000000000363
40
0.812500000000276
40
0.812500000000276
40
0.84375000000023
40
0.84375000000023
40
0.875000000000184
40
0.875000000000184
40
0.906250000000138
40
0.906250000000138
40
0.937500000000092
40
0.968750000000046
40
0.968750000000046
40
1
40
1
40
1
40
1
41
1
10
10.5761387094538
20
1.99999999999997
30
0
41
1
10
10.5761387094538
20
2.03642487228586
30
0
41
1
10
10.5775625644937
20
2.07288509469856
30
0
41
1
10
10.5833322285525
20
2.14548529795448
30
0
41
1
10
10.5876822854323
20
2.18169641599417
30
0
41
1
10
10.599553254291
20
2.25347461901541
30
0
41
1
10
10.6070832789848
20
2.28911874246367
30
0
41
1
10
10.6211196174069
20
2.3417124819957
30
0
41
1
10
10.626254816053
20
2.35909147396194
30
0
41
1
10
10.6375514244752
20
2.39350419869797
30
0
41
1
10
10.6437221493278
20
2.41056075244566
30
0
41
1
10
10.6571826161775
20
2.44408485042916
30
0
41
1
10
10.6644740860272
20
2.46056693333028
30
0
41
1
10
10.6803919063312
20
2.49285781174879
30
0
41
1
10
10.6889805198958
20
2.50858402379433
30
0
41
1
10
10.7075398529048
20
2.53880763675571
30
0
41
1
10
10.7175221410729
20
2.55333823488832
30
0
41
1
10
10.7338228655477
20
2.57402081568631
30
0
41
1
10
10.7394790103595
20
2.5807282737222
30
0
41
1
10
10.7513070519009
20
2.59370759716254
30
0
41
1
10
10.7574737934017
20
2.59996783306755
30
0
41
1
10
10.776512943197
20
2.61765610276947
30
0
41
1
10
10.7900122455152
20
2.62811835172161
30
0
41
1
10
10.8118061058684
20
2.64121744606743
30
0
41
1
10
10.8192980293414
20
2.64511868685742
30
0
41
1
10
10.8344538069956
20
2.65175647600478
30
0
41
1
10
10.8421590751081
20
2.65451927561134
30
0
41
1
10
10.8578373361764
20
2.65885809607838
30
0
41
1
10
10.8658755898011
20
2.66043951792631
30
0
41
1
10
10.8818890040296
20
2.66228210350667
30
0
41
1
10
10.8977824360194
20
2.66282304564118
30
0
41
1
10
10.9134425712578
20
2.66088363920571
30
0
41
1
10
10.9289885197889
20
2.65774189284369
30
0
41
1
10
10.9366802569643
20
2.65556893846977
30
0
41
1
10
10.944182067155
20
2.65287075857634
30
0
0
SPLINE
5
11A
100
AcDbEntity
8
1
62
256
6
ByLayer
370
18
48
1
60
0
100
AcDbSpline
70
4
71
3
72
8
73
4
40
0
40
0
40
0
40
0
40
1
40
1
40
1
40
1
41
1
10
10.964182067155
20
2.65149896176547
30
0
41
1
10
10.9575151553169
20
2.65195624418536
30
0
41
1
10
10.9508484905506
20
2.65241350965863
30
0
41
1
10
10.944182067155
20
2.65287075857634
30
0
0
SPLINE
5
11B
100
AcDbEntity
8
1
62
256
6
ByLayer
370
18
48
1
60
0
100
AcDbSpline
70
4
71
3
72
50
73
46
40
0
40
0
40
0
40
0
40
0.0312500000000271
40
0.0312500000000271
40
0.0468750000000283
40
0.0468750000000283
40
0.0625000000000295
40
0.0625000000000295
40
0.125000000000028
40
0.125000000000028
40
0.156250000000023
40
0.156250000000023
40
0.187500000000017
40
0.187500000000017
40
0.25
40
0.25
40
0.28124999999999
40
0.28124999999999
40
0.31249999999998
40
0.31249999999998
40
0.374999999999983
40
0.374999999999983
40
0.499999999999988
40
0.499999999999988
40
0.562500000000004
40
0.562500000000004
40
0.62500000000002
40
0.62500000000002
40
0.687500000000036
40
0.687500000000036
40
0.750000000000052
40
0.750000000000052
40
0.812500000000068
40
0.812500000000068
40
0.843750000000056
40
0.843750000000056
40
0.875000000000045
40
0.875000000000045
40
0.906250000000034
40
0.906250000000034
40
0.937500000000023
40
0.937500000000023
40
0.968750000000011
40
0.968750000000011
40
1
40
1
40
1
40
1
41
1
10
11.6092957368763
20
3.7688686143799
30
0
41
1
10
11.6169938815277
20
3.75742282363535
30
0
41
1
10
11.6233973192655
20
3.74525405452201
30
0
41
1
10
11.6314850076017
20
3.72614568520561
30
0
41
1
10
11.6339253493948
20
3.71963218716095
30
0
41
1
10
11.6383415502518
20
3.70634154822116
30
0
41
1
10
11.640321488421
20
3.69954493715642
30
0
41
1
10
11.6490662205228
20
3.66530640596648
30
0
41
1
10
11.6525357370634
20
3.63697052693044
30
0
41
1
10
11.6541384659693
20
3.59342734754873
30
0
41
1
10
11.654050428751
20
3.57868949864144
30
0
41
1
10
11.6528040629899
20
3.54927099963643
30
0
41
1
10
11.6516499862807
20
3.53455451242496
30
0
41
1
10
11.6468078862419
20
3.49037223400845
30
0
41
1
10
11.6417530588288
20
3.4608734138416
30
0
41
1
10
11.6319040393349
20
3.41652167291463
30
0
41
1
10
11.6282301881796
20
3.40168796128918
30
0
41
1
10
11.6202034638925
20
3.37213480876599
30
0
41
1
10
11.6158651478188
20
3.35746210736008
30
0
41
1
10
11.6019552871438
20
3.31372586506461
30
0
41
1
10
11.591494322984
20
3.28494221932198
30
0
41
1
10
11.5569205839977
20
3.19957002010384
30
0
41
1
10
11.5296719832553
20
3.14394031339106
30
0
41
1
10
11.4826568539271
20
3.06233070867063
30
0
41
1
10
11.4661048519744
20
3.03571612064917
30
0
41
1
10
11.4312452102217
20
2.98372686486133
30
0
41
1
10
11.4129331251957
20
2.9583530861444
30
0
41
1
10
11.3747255186325
20
2.90929280601992
30
0
41
1
10
11.3547526220374
20
2.88550756761336
30
0
41
1
10
11.3132832080981
20
2.84003009279823
30
0
41
1
10
11.2917518552292
20
2.81828734689333
30
0
41
1
10
11.2469647474147
20
2.77723127900967
30
0
41
1
10
11.2238593947298
20
2.75804371366593
30
0
41
1
10
11.1878533950246
20
2.73167453180963
30
0
41
1
10
11.1756033215627
20
2.7232774005675
30
0
41
1
10
11.1507409562398
20
2.70751828074629
30
0
41
1
10
11.1381179283165
20
2.70014537857159
30
0
41
1
10
11.1124132342825
20
2.68657229692758
30
0
41
1
10
11.0993543057075
20
2.68038670539585
30
0
41
1
10
11.0729319401828
20
2.6695198898575
30
0
41
1
10
11.0595035764818
20
2.66481156771945
30
0
41
1
10
11.0323773132966
20
2.65725748061357
30
0
41
1
10
11.0187909462291
20
2.65443710516695
30
0
41
1
10
10.9915473546629
20
2.65109092752371
30
0
41
1
10
10.9778903146569
20
2.65055871525519
30
0
41
1
10
10.964182067155
20
2.65149896176547
30
0
0
LINE
5
7E
100
AcDbEntity
8
80
62
256
6
ByLayer
370
18
48
1
60
0
100
AcDbLine
10
0
20
0
30
0
11
-5
21
0
31
0
39
0
210
0
220
0
230
1
0
LINE
5
7F
100
AcDbEntity
8
1
62
256
6
ByLayer
370
18
48
1
60
0
100
AcDbLine
10
0
20
16.49899
30
0
11
0
21
-15.923075
31
0
39
0
210
0
220
0
230
1
0
LINE
5
80
100
AcDbEntity
8
1
62
256
6
ByLayer
370
18
48
1
60
0
100
AcDbLine
10
34.819339
20
22.302188
30
0
11
36.398235
21
22.496052
31
0
39
0
210
0
220
0
230
1
0
LINE
5
81
100
AcDbEntity
8
1
62
256
6
ByLayer
370
18
48
1
60
0
100
AcDbLine
10
35.593209
20
15.99952
30
0
11
37.172105
21
16.193384
31
0
39
0
210
0
220
0
230
1
0
LINE
5
82
100
AcDbEntity
8
1
62
256
6
ByLayer
370
18
48
1
60
0
100
AcDbLine
10
37.172105
20
16.193384
30
0
11
40.645406
21
16.619852
31
0
39
0
210
0
220
0
230
1
0
LINE
5
83
100
AcDbEntity
8
1
62
256
6
ByLayer
370
18
48
1
60
0
100
AcDbLine
10
37.172105
20
16.193384
30
0
11
37.162829
21
16.267832
31
0
39
0
210
0
220
0
230
1
0
LINE
5
84
100
AcDbEntity
8
1
62
256
6
ByLayer
370
18
48
1
60
0
100
AcDbLine
10
36.398235
20
22.496052
30
0
11
39.871536
21
22.92252
31
0
39
0
210
0
220
0
230
1
0
LINE
5
85
100
AcDbEntity
8
1
62
256
6
ByLayer
370
18
48
1
60
0
100
AcDbLine
10
36.407245
20
22.421572
30
0
11
36.398235
21
22.496052
31
0
39
0
210
0
220
0
230
1
0
LINE
5
86
100
AcDbEntity
8
1
62
256
6
ByLayer
370
18
48
1
60
0
100
AcDbLine
10
1.475219
20
20.683352
30
0
11
1.274997
21
20.683352
31
0
39
0
210
0
220
0
230
1
0
LINE
5
87
100
AcDbEntity
8
1
62
256
6
ByLayer
370
18
48
1
60
0
100
AcDbLine
10
0.317758
20
17.11089
30
0
11
1.274997
21
20.683352
31
0
39
0
210
0
220
0
230
1
0
LINE
5
88
100
AcDbEntity
8
1
62
256
6
ByLayer
370
18
48
1
60
0
100
AcDbLine
10
35.593202
20
15.999519
30
0
11
32.698039
21
15.644038
31
0
39
0
210
0
220
0
230
1
0
LINE
5
89
100
AcDbEntity
8
1
62
256
6
ByLayer
370
18
48
1
60
0
100
AcDbLine
10
31.924169
20
21.946706
30
0
11
34.819332
21
22.302187
31
0
39
0
210
0
220
0
230
1
0
LINE
5
8A
100
AcDbEntity
8
1
62
256
6
ByLayer
370
18
48
1
60
0
100
AcDbLine
10
35.721038
20
19.74297
30
0
11
35.848993
21
18.700859
31
0
39
0
210
0
220
0
230
1
0
LINE
5
8B
100
AcDbEntity
8
1
62
256
6
ByLayer
370
18
48
1
60
0
100
AcDbLine
10
34.819332
20
22.302187
30
0
11
34.977825
21
21.764056
31
0
39
0
210
0
220
0
230
1
0
LINE
5
8C
100
AcDbEntity
8
1
62
256
6
ByLayer
370
18
48
1
60
0
100
AcDbLine
10
35.616802
20
16.560008
30
0
11
35.593202
21
15.999519
31
0
39
0
210
0
220
0
230
1
0
LINE
5
8D
100
AcDbEntity
8
1
62
256
6
ByLayer
370
18
48
1
60
0
100
AcDbLine
10
32.698039
20
15.644038
30
0
11
27.453279
21
15.000062
31
0
39
0
210
0
220
0
230
1
0
LINE
5
8E
100
AcDbEntity
8
1
62
256
6
ByLayer
370
18
48
1
60
0
100
AcDbLine
10
31.924169
20
21.946706
30
0
11
32.698039
21
15.644038
31
0
39
0
210
0
220
0
230
1
0
LINE
5
8F
100
AcDbEntity
8
1
62
256
6
ByLayer
370
18
48
1
60
0
100
AcDbLine
10
26.679409
20
21.30273
30
0
11
31.924169
21
21.946706
31
0
39
0
210
0
220
0
230
1
0
LINE
5
90
100
AcDbEntity
8
1
62
256
6
ByLayer
370
18
48
1
60
0
100
AcDbLine
10
3.465133
20
20.683352
30
0
11
1.475219
21
20.683352
31
0
39
0
210
0
220
0
230
1
0
LINE
5
91
100
AcDbEntity
8
1
62
256
6
ByLayer
370
13
48
1
60
0
100
AcDbLine
10
1.475219
20
-15.931211
30
0
11
1.475219
21
20.683352
31
0
39
0
210
0
220
0
230
1
0
LINE
5
92
100
AcDbEntity
8
1
62
256
6
ByLayer
370
18
48
1
60
0
100
AcDbLine
10
1.475219
20
-15.931211
30
0
11
3.465133
21
-15.963616
31
0
39
0
210
0
220
0
230
1
0
LINE
5
93
100
AcDbEntity
8
1
62
256
6
ByLayer
370
18
48
1
60
0
100
AcDbLine
10
20.132839
20
-10.925
30
0
11
15.094223
21
-15.963616
31
0
39
0
210
0
220
0
230
1
0
LINE
5
94
100
AcDbEntity
8
1
62
256
6
ByLayer
370
18
48
1
60
0
100
AcDbLine
10
20.132839
20
12.685665
30
0
11
20.132839
21
-10.925
31
0
39
0
210
0
220
0
230
1
0
LINE
5
95
100
AcDbEntity
8
1
62
256
6
ByLayer
370
18
48
1
60
0
100
AcDbLine
10
27.453279
20
15.000062
30
0
11
21.537848
21
14.273739
31
0
39
0
210
0
220
0
230
1
0
LINE
5
96
100
AcDbEntity
8
1
62
256
6
ByLayer
370
18
48
1
60
0
100
AcDbLine
10
27.453279
20
15.000062
30
0
11
26.679409
21
21.30273
31
0
39
0
210
0
220
0
230
1
0
LINE
5
97
100
AcDbEntity
8
1
62
256
6
ByLayer
370
18
48
1
60
0
100
AcDbLine
10
26.679409
20
21.30273
30
0
11
21.732109
21
20.695278
31
0
39
0
210
0
220
0
230
1
0
LINE
5
98
100
AcDbEntity
8
1
62
256
6
ByLayer
370
18
48
1
60
0
100
AcDbLine
10
21.537118
20
20.683352
30
0
11
3.465133
21
20.683352
31
0
39
0
210
0
220
0
230
1
0
LINE
5
99
100
AcDbEntity
8
1
62
256
6
ByLayer
370
18
48
1
60
0
100
AcDbLine
10
3.465133
20
20.683352
30
0
11
3.465133
21
-15.963616
31
0
39
0
210
0
220
0
230
1
0
LINE
5
9A
100
AcDbEntity
8
1
62
256
6
ByLayer
370
18
48
1
60
0
100
AcDbLine
10
3.465133
20
-15.963616
30
0
11
15.094223
21
-15.963616
31
0
39
0
210
0
220
0
230
1
0
LINE
5
9B
100
AcDbEntity
8
1
62
256
6
ByLayer
370
18
48
1
60
0
100
AcDbLine
10
38.991196
20
22.738864
30
0
11
39.709043
21
22.827005
31
0
39
0
210
0
220
0
230
1
0
LINE
5
9C
100
AcDbEntity
8
1
62
256
6
ByLayer
370
18
48
1
60
0
100
AcDbLine
10
39.746786
20
16.585078
30
0
11
40.464633
21
16.673219
31
0
39
0
210
0
220
0
230
1
0
LINE
5
9D
100
AcDbEntity
8
1
62
256
6
ByLayer
370
13
48
1
60
0
100
AcDbLine
10
39.746786
20
16.585078
30
0
11
38.991196
21
22.738864
31
0
39
0
210
0
220
0
230
1
0
LINE
5
9E
100
AcDbEntity
8
1
62
256
6
ByLayer
370
13
48
1
60
0
100
AcDbLine
10
37.53637
20
19.164926
30
0
11
35.817845
21
18.953918
31
0
39
0
210
0
220
0
230
1
0
LINE
5
9F
100
AcDbEntity
8
1
62
256
6
ByLayer
370
13
48
1
60
0
100
AcDbLine
10
37.470561
20
19.700901
30
0
11
35.752036
21
19.489893
31
0
39
0
210
0
220
0
230
1
0
LINE
5
A0
100
AcDbEntity
8
1
62
256
6
ByLayer
370
13
48
1
60
0
100
AcDbLine
10
37.546979
20
18.974061
30
0
11
35.841082
21
18.764603
31
0
39
0
210
0
220
0
230
1
0
LINE
5
A1
100
AcDbEntity
8
1
62
256
6
ByLayer
370
13
48
1
60
0
100
AcDbLine
10
37.434679
20
19.888663
30
0
11
35.728783
21
19.679205
31
0
39
0
210
0
220
0
230
1
0
LINE
5
A2
100
AcDbEntity
8
1
62
256
6
ByLayer
370
13
48
1
60
0
100
AcDbLine
10
37.153082
20
20.072714
30
0
11
35.610862
21
19.883353
31
0
39
0
210
0
220
0
230
1
0
LINE
5
A3
100
AcDbEntity
8
1
62
256
6
ByLayer
370
13
48
1
60
0
100
AcDbLine
10
37.318272
20
18.727352
30
0
11
35.776051
21
18.537992
31
0
39
0
210
0
220
0
230
1
0
LINE
5
A4
100
AcDbEntity
8
1
62
256
6
ByLayer
370
13
48
1
60
0
100
AcDbLine
10
35.636361
20
18.465074
30
0
11
37.099885
21
18.644772
31
0
39
0
210
0
220
0
230
1
0
LINE
5
A5
100
AcDbEntity
8
1
62
256
6
ByLayer
370
13
48
1
60
0
100
AcDbLine
10
35.457778
20
19.920322
30
0
11
36.921204
21
20.100008
31
0
39
0
210
0
220
0
230
1
0
LINE
5
A6
100
AcDbEntity
8
1
62
256
6
ByLayer
370
13
48
1
60
0
100
AcDbLine
10
35.64465
20
18.435061
30
0
11
37.046093
21
18.607137
31
0
39
0
210
0
220
0
230
1
0
LINE
5
A7
100
AcDbEntity
8
1
62
256
6
ByLayer
370
13
48
1
60
0
100
AcDbLine
10
35.458462
20
19.951437
30
0
11
36.859905
21
20.123513
31
0
39
0
210
0
220
0
230
1
0
LINE
5
A8
100
AcDbEntity
8
1
62
256
6
ByLayer
370
13
48
1
60
0
100
AcDbLine
10
36.746894
20
20.202109
30
0
11
35.434763
21
20.040999
31
0
39
0
210
0
220
0
230
1
0
LINE
5
A9
100
AcDbEntity
8
1
62
256
6
ByLayer
370
13
48
1
60
0
100
AcDbLine
10
36.955452
20
18.503535
30
0
11
35.643981
21
18.342507
31
0
39
0
210
0
220
0
230
1
0
LINE
5
AA
100
AcDbEntity
8
1
62
256
6
ByLayer
370
13
48
1
60
0
100
AcDbLine
10
36.932876
20
18.456162
30
0
11
35.643617
21
18.297861
31
0
39
0
210
0
220
0
230
1
0
LINE
5
AB
100
AcDbEntity
8
1
62
256
6
ByLayer
370
13
48
1
60
0
100
AcDbLine
10
36.713528
20
20.242613
30
0
11
35.42333
21
20.084197
31
0
39
0
210
0
220
0
230
1
0
LINE
5
AC
100
AcDbEntity
8
1
62
256
6
ByLayer
370
18
48
1
60
0
100
AcDbLine
10
35.596363
20
16.07547
30
0
11
36.726086
21
16.214183
31
0
39
0
210
0
220
0
230
1
0
LINE
5
AD
100
AcDbEntity
8
1
62
256
6
ByLayer
370
13
48
1
60
0
100
AcDbLine
10
36.690591
20
16.503263
30
0
11
35.608703
21
16.370424
31
0
39
0
210
0
220
0
230
1
0
LINE
5
AE
100
AcDbEntity
8
1
62
256
6
ByLayer
370
13
48
1
60
0
100
AcDbLine
10
36.690629
20
16.520763
30
0
11
35.609528
21
16.38802
31
0
39
0
210
0
220
0
230
1
0
LINE
5
AF
100
AcDbEntity
8
1
62
256
6
ByLayer
370
13
48
1
60
0
100
AcDbLine
10
36.01026
20
22.061918
30
0
11
34.92916
21
21.929175
31
0
39
0
210
0
220
0
230
1
0
LINE
5
B0
100
AcDbEntity
8
1
62
256
6
ByLayer
370
18
48
1
60
0
100
AcDbLine
10
35.970496
20
22.367969
30
0
11
37.852595
21
22.599062
31
0
39
0
210
0
220
0
230
1
0
LINE
5
B1
100
AcDbEntity
8
1
62
256
6
ByLayer
370
18
48
1
60
0
100
AcDbLine
10
36.726086
20
16.214183
30
0
11
38.608185
21
16.445275
31
0
39
0
210
0
220
0
230
1
0
LINE
5
B2
100
AcDbEntity
8
1
62
256
6
ByLayer
370
13
48
1
60
0
100
AcDbLine
10
38.608185
20
16.445275
30
0
11
37.852595
21
22.599062
31
0
39
0
210
0
220
0
230
1
0
LINE
5
B3
100
AcDbEntity
8
1
62
256
6
ByLayer
370
18
48
1
60
0
100
AcDbLine
10
36.01026
20
22.061918
30
0
11
36.713528
21
20.242613
31
0
39
0
210
0
220
0
230
1
0
LINE
5
B4
100
AcDbEntity
8
1
62
256
6
ByLayer
370
18
48
1
60
0
100
AcDbLine
10
36.746894
20
20.202109
30
0
11
36.859906
21
20.123513
31
0
39
0
210
0
220
0
230
1
0
LINE
5
B5
100
AcDbEntity
8
1
62
256
6
ByLayer
370
18
48
1
60
0
100
AcDbLine
10
37.470561
20
19.700901
30
0
11
37.503466
21
19.432913
31
0
39
0
210
0
220
0
230
1
0
LINE
5
B6
100
AcDbEntity
8
1
62
256
6
ByLayer
370
18
48
1
60
0
100
AcDbLine
10
37.53637
20
19.164926
30
0
11
37.503466
21
19.432913
31
0
39
0
210
0
220
0
230
1
0
LINE
5
B7
100
AcDbEntity
8
1
62
256
6
ByLayer
370
18
48
1
60
0
100
AcDbLine
10
36.955452
20
18.503535
30
0
11
37.046094
21
18.607136
31
0
39
0
210
0
220
0
230
1
0
LINE
5
B8
100
AcDbEntity
8
1
62
256
6
ByLayer
370
18
48
1
60
0
100
AcDbLine
10
36.690629
20
16.520763
30
0
11
36.932876
21
18.456162
31
0
39
0
210
0
220
0
230
1
0
LINE
5
B9
100
AcDbEntity
8
1
62
256
6
ByLayer
370
18
48
1
60
0
100
AcDbLine
10
36.690591
20
16.503263
30
0
11
36.726086
21
16.214183
31
0
39
0
210
0
220
0
230
1
0
LINE
5
BA
100
AcDbEntity
8
1
62
256
6
ByLayer
370
18
48
1
60
0
100
AcDbLine
10
34.840773
20
22.229256
30
0
11
35.970496
21
22.367969
31
0
39
0
210
0
220
0
230
1
0
LINE
5
BB
100
AcDbEntity
8
1
62
256
6
ByLayer
370
13
48
1
60
0
100
AcDbLine
10
36.005991
20
22.078889
30
0
11
34.924102
21
21.94605
31
0
39
0
210
0
220
0
230
1
0
LINE
5
BC
100
AcDbEntity
8
1
62
256
6
ByLayer
370
18
48
1
60
0
100
AcDbLine
10
36.005991
20
22.078889
30
0
11
35.970496
21
22.367969
31
0
39
0
210
0
220
0
230
1
0
LINE
5
BD
100
AcDbEntity
8
SK1
62
256
6
ByLayer
370
18
48
1
60
0
100
AcDbLine
10
-3.462166
20
15.925
30
0
11
-1.227723
21
15.925
31
0
39
0
210
0
220
0
230
1
0
LINE
5
BF
100
AcDbEntity
8
SK1
62
256
6
ByLayer
370
18
48
1
60
0
100
AcDbLine
10
0
20
16.49899
30
0
11
0
21
-15.923075
31
0
39
0
210
0
220
0
230
1
0
LINE
5
C0
100
AcDbEntity
8
SK1
62
256
6
ByLayer
370
18
48
1
60
0
100
AcDbLine
10
-3.462166
20
15.925
30
0
11
-3.462166
21
-15.925
31
0
39
0
210
0
220
0
230
1
0
LINE
5
C1
100
AcDbEntity
8
SK1
62
256
6
ByLayer
370
18
48
1
60
0
100
AcDbLine
10
-143.267161
20
15.925
30
0
11
-3.462166
21
15.925
31
0
39
0
210
0
220
0
230
1
0
LINE
5
C2
100
AcDbEntity
8
SK1
62
256
6
ByLayer
370
18
48
1
60
0
100
AcDbLine
10
-143.267161
20
-15.925
30
0
11
-143.267161
21
15.925
31
0
39
0
210
0
220
0
230
1
0
LINE
5
C3
100
AcDbEntity
8
SK1
62
256
6
ByLayer
370
18
48
1
60
0
100
AcDbLine
10
-143.267161
20
-15.925
30
0
11
-3.462166
21
-15.925
31
0
39
0
210
0
220
0
230
1
0
LINE
5
C4
100
AcDbEntity
8
81
62
256
6
ByLayer
370
18
48
1
60
0
100
AcDbLine
10
46.732839
20
24.075
30
0
11
51.695569
21
24.684347
31
0
39
0
210
0
220
0
230
1
0
LINE
5
C5
100
AcDbEntity
8
2
62
256
6
ByLayer
370
13
48
1
60
0
100
AcDbLine
10
53.271236
20
24.877814
30
0
11
86.258883
21
28.928188
31
0
39
0
210
0
220
0
230
1
0
LINE
5
C7
100
AcDbEntity
8
2
62
256
6
ByLayer
370
13
48
1
60
0
100
AcDbLine
10
48.320339
20
24.075
30
0
11
86.555717
21
24.075
31
0
39
0
210
0
220
0
230
1
0
LINE
5
C8
100
AcDbEntity
8
1
62
256
6
ByLayer
370
18
48
1
60
1
100
AcDbLine
10
84.273791
20
28.684449
30
0
11
83.311132
21
32.080859
31
0
39
0
210
0
220
0
230
1
0
LINE
5
C9
100
AcDbEntity
8
1
62
256
6
ByLayer
370
18
48
1
60
1
100
AcDbLine
10
83.311132
20
32.080859
30
0
11
84.222989
21
32.214287
31
0
39
0
210
0
220
0
230
1
0
LINE
5
CA
100
AcDbEntity
8
1
62
256
6
ByLayer
370
18
48
1
60
1
100
AcDbLine
10
84.222989
20
32.214287
30
0
11
84.273791
21
28.684449
31
0
39
0
210
0
220
0
230
1
0
LINE
5
CB
100
AcDbEntity
8
1
62
256
6
ByLayer
370
18
48
1
60
1
100
AcDbLine
10
84.555717
20
24.075
30
0
11
84.935473
21
20.565286
31
0
39
0
210
0
220
0
230
1
0
LINE
5
CC
100
AcDbEntity
8
1
62
256
6
ByLayer
370
18
48
1
60
1
100
AcDbLine
10
84.935473
20
20.565286
30
0
11
84.014152
21
20.586585
31
0
39
0
210
0
220
0
230
1
0
LINE
5
CD
100
AcDbEntity
8
1
62
256
6
ByLayer
370
18
48
1
60
1
100
AcDbLine
10
84.014152
20
20.586585
30
0
11
84.555717
21
24.075
31
0
39
0
210
0
220
0
230
1
0
LINE
5
11F
100
AcDbEntity
8
1
62
256
6
ByLayer
370
18
48
1
60
1
100
AcDbLine
10
84.273791
20
28.684449
30
0
11
83.311132
21
32.080859
31
0
39
0
210
0
220
0
230
1
0
LINE
5
120
100
AcDbEntity
8
1
62
256
6
ByLayer
370
18
48
1
60
1
100
AcDbLine
10
83.311132
20
32.080859
30
0
11
84.222989
21
32.214287
31
0
39
0
210
0
220
0
230
1
0
LINE
5
121
100
AcDbEntity
8
1
62
256
6
ByLayer
370
18
48
1
60
1
100
AcDbLine
10
84.222989
20
32.214287
30
0
11
84.273791
21
28.684449
31
0
39
0
210
0
220
0
230
1
0
LINE
5
123
100
AcDbEntity
8
1
62
256
6
ByLayer
370
18
48
1
60
1
100
AcDbLine
10
84.555717
20
24.075
30
0
11
84.935473
21
20.565286
31
0
39
0
210
0
220
0
230
1
0
LINE
5
124
100
AcDbEntity
8
1
62
256
6
ByLayer
370
18
48
1
60
1
100
AcDbLine
10
84.935473
20
20.565286
30
0
11
84.014152
21
20.586585
31
0
39
0
210
0
220
0
230
1
0
LINE
5
125
100
AcDbEntity
8
1
62
256
6
ByLayer
370
18
48
1
60
1
100
AcDbLine
10
84.014152
20
20.586585
30
0
11
84.555717
21
24.075
31
0
39
0
210
0
220
0
230
1
0
MTEXT
5
11C
100
AcDbEntity
8
2
62
256
6
ByLayer
370
18
48
1
60
0
100
AcDbMText
10
85.564857
20
26.984445
30
0
210
0
220
0
230
1
1
\W0.9056;7%%d
40
3.5
41
0
44
1.084337
50
271.269796590814
71
7
72
5
7
iso_b_vert
0
MTEXT
5
127
100
AcDbEntity
8
SK6
62
256
6
ByLayer
370
18
48
1
60
0
100
AcDbMText
10
-80.600296
20
-49.857001
30
0
210
0
220
0
230
1
1
\W0.8011;C2T-RS32-RX07L25DB
40
3.5
41
0
44
1.084337
50
0
71
7
72
5
7
iso_b_vert
0
HATCH
5
122
100
AcDbEntity
8
2
62
256
6
ByLayer
370
13
48
1
60
0
100
AcDbHatch
10
0
20
0
30
0
210
0
220
0
230
1
2
ANSI31
70
0
71
0
91
1
92
5
93
3
72
1
10
84.273791125936
20
28.6844493583342
11
83.3111322327059
21
32.0808588836852
72
1
10
83.3111322327059
20
32.0808588836852
11
84.2229894608838
21
32.2142868468289
72
1
10
84.2229894608838
20
32.2142868468289
11
84.273791125936
21
28.6844493583342
97
0
75
0
76
1
52
0
41
0.0062
77
0
78
1
53
45
43
0
44
0
45
-0.0139193969876572
46
0.0139193969876572
79
0
47
0
98
1
10
0
20
0
0
HATCH
5
126
100
AcDbEntity
8
2
62
256
6
ByLayer
370
13
48
1
60
0
100
AcDbHatch
10
0
20
0
30
0
210
0
220
0
230
1
2
ANSI31
70
0
71
0
91
1
92
5
93
3
72
1
10
84.5557171261427
20
24.0749999999998
11
84.9354731842965
21
20.5652856035132
72
1
10
84.9354731842965
20
20.5652856035132
11
84.0141518668646
21
20.5865848047718
72
1
10
84.0141518668646
20
20.5865848047718
11
84.5557171261427
21
24.0749999999998
97
0
75
0
76
1
52
0
41
0.0062
77
0
78
1
53
45
43
0
44
0
45
-0.0139193969876572
46
0.0139193969876572
79
0
47
0
98
1
10
0
20
0
0
DIMENSION
5
12A
100
AcDbEntity
8
2
62
256
6
ByLayer
370
18
48
1
60
0
100
AcDbDimension
2
_U0
10
79.795569
20
-15.925
30
0
11
79.795569
21
4.075
31
0
70
32
71
1
72
1
41
1
210
0
220
0
230
1
3
Standard
100
AcDbAlignedDimension
13
46.732839
23
24.075
33
0
14
-143.267161
24
-15.925
34
0
50
90
100
AcDbRotatedDimension
1001
ACAD
1000
DSTYLE
1002
{
1070
   371
1070
    13
1070
   372
1070
    13
1070
   170
1070
     0
1070
   144
1040
1.0
1070
   277
1070
     2
1070
   284
1070
     8
1070
   278
1070
    46
1070
   146
1040
1.0
1070
   345
1005
16
1070
   347
1005
16
1070
   346
1005
16
1070
   344
1005
0
1070
   343
1005
0
1070
   172
1070
     1
1070
    76
1070
     0
1070
    75
1070
     0
1070
   282
1070
     0
1070
   281
1070
     0
1070
    71
1070
     0
1070
    74
1070
     0
1070
   279
1070
     0
1070
   173
1070
     1
1070
   340
1005
11D
1070
   271
1070
     2
1070
   272
1070
     2
1070
    77
1070
     1
1070
    73
1070
     0
1070
   171
1070
     3
1070
   274
1070
     4
1070
   177
1070
     2
1070
   176
1070
     2
1070
   178
1070
     2
1070
    78
1070
     8
1070
    48
1040
-0.1
1070
    41
1040
3.5
1070
   147
1040
1.75
1070
    42
1040
1.5875
1070
    44
1040
2.0
1070
   140
1040
3.5
1002
}
1001
ACAD_DSTYLE_DIM_LINETYPE
1070
   380
1005
16
1001
ACAD_DSTYLE_DIM_EXT1_LINETYPE
1070
   381
1005
16
1001
ACAD_DSTYLE_DIM_EXT2_LINETYPE
1070
   382
1005
16
0
DIMENSION
5
143
100
AcDbEntity
8
SK2
62
256
6
ByLayer
370
18
48
1
60
0
100
AcDbDimension
2
_U1
10
-154.867161
20
16.075
30
0
11
-154.867161
21
0.075
31
0
70
32
71
1
72
1
41
1
210
0
220
0
230
1
3
Standard
100
AcDbAlignedDimension
13
-143.267161
23
-15.925
33
0
14
-143.267161
24
16.075
34
0
50
90
100
AcDbRotatedDimension
1001
ACAD
1000
DSTYLE
1002
{
1070
   371
1070
    13
1070
   372
1070
    13
1070
   170
1070
     0
1070
   144
1040
1.0
1070
   277
1070
     2
1070
   284
1070
     8
1070
   278
1070
    46
1070
   146
1040
1.0
1070
   345
1005
16
1070
   347
1005
16
1070
   346
1005
16
1070
   344
1005
0
1070
   343
1005
0
1070
   172
1070
     1
1070
    76
1070
     0
1070
    75
1070
     0
1070
   282
1070
     0
1070
   281
1070
     0
1070
    71
1070
     0
1070
    74
1070
     0
1070
   279
1070
     0
1070
   173
1070
     1
1070
   340
1005
11D
1070
   271
1070
     2
1070
   272
1070
     2
1070
    77
1070
     1
1070
    73
1070
     0
1070
   171
1070
     3
1070
   274
1070
     4
1070
   177
1070
     2
1070
   176
1070
     2
1070
   178
1070
     2
1070
    78
1070
     8
1070
    48
1040
-0.1
1070
    41
1040
3.5
1070
   147
1040
1.75
1070
    42
1040
1.5875
1070
    44
1040
2.0
1070
   140
1040
3.5
1002
}
1001
ACAD_DSTYLE_DIM_LINETYPE
1070
   380
1005
16
1001
ACAD_DSTYLE_DIM_EXT1_LINETYPE
1070
   381
1005
16
1001
ACAD_DSTYLE_DIM_EXT2_LINETYPE
1070
   382
1005
16
0
DIMENSION
5
15C
100
AcDbEntity
8
2
62
256
6
ByLayer
370
18
48
1
60
0
100
AcDbDimension
2
_U2
10
46.732839
20
-25.675
30
0
11
34.232839
21
-25.675
31
0
70
32
71
1
72
1
41
1
210
0
220
0
230
1
3
Standard
100
AcDbAlignedDimension
13
21.732839
23
14.297681
33
0
14
46.732839
24
24.075
34
0
50
0
100
AcDbRotatedDimension
1001
ACAD
1000
DSTYLE
1002
{
1070
   371
1070
    13
1070
   372
1070
    13
1070
   170
1070
     0
1070
   144
1040
1.0
1070
   277
1070
     2
1070
   284
1070
     8
1070
   278
1070
    46
1070
   146
1040
1.0
1070
   345
1005
16
1070
   347
1005
16
1070
   346
1005
16
1070
   344
1005
0
1070
   343
1005
0
1070
   172
1070
     1
1070
    76
1070
     0
1070
    75
1070
     0
1070
   282
1070
     0
1070
   281
1070
     0
1070
    71
1070
     0
1070
    74
1070
     0
1070
   279
1070
     0
1070
   173
1070
     1
1070
   340
1005
11D
1070
   271
1070
     1
1070
   272
1070
     2
1070
    77
1070
     1
1070
    73
1070
     1
1070
   171
1070
     3
1070
   274
1070
     4
1070
   177
1070
     2
1070
   176
1070
     2
1070
   178
1070
     2
1070
    78
1070
     8
1070
    48
1040
-0.1
1070
    41
1040
3.5
1070
   147
1040
1.75
1070
    42
1040
1.5875
1070
    44
1040
2.0
1070
   140
1040
3.5
1002
}
1001
ACAD_DSTYLE_DIM_LINETYPE
1070
   380
1005
16
1001
ACAD_DSTYLE_DIM_EXT1_LINETYPE
1070
   381
1005
16
1001
ACAD_DSTYLE_DIM_EXT2_LINETYPE
1070
   382
1005
16
0
DIMENSION
5
174
100
AcDbEntity
8
SK2
62
256
6
ByLayer
370
18
48
1
60
0
100
AcDbDimension
2
_U3
10
46.732839
20
-36.675
30
0
11
-48.267161
21
-36.675
31
0
70
32
71
1
72
1
41
1
210
0
220
0
230
1
3
Standard
100
AcDbAlignedDimension
13
-143.267161
23
-15.925
33
0
14
46.732839
24
24.075
34
0
50
0
100
AcDbRotatedDimension
1001
ACAD
1000
DSTYLE
1002
{
1070
   371
1070
    13
1070
   372
1070
    13
1070
   170
1070
     0
1070
   144
1040
1.0
1070
   277
1070
     2
1070
   284
1070
     8
1070
   278
1070
    46
1070
   146
1040
1.0
1070
   345
1005
16
1070
   347
1005
16
1070
   346
1005
16
1070
   344
1005
0
1070
   343
1005
0
1070
   172
1070
     1
1070
    76
1070
     0
1070
    75
1070
     0
1070
   282
1070
     0
1070
   281
1070
     0
1070
    71
1070
     0
1070
    74
1070
     0
1070
   279
1070
     0
1070
   173
1070
     1
1070
   340
1005
11D
1070
   271
1070
     1
1070
   272
1070
     2
1070
    77
1070
     1
1070
    73
1070
     1
1070
   171
1070
     3
1070
   274
1070
     4
1070
   177
1070
     2
1070
   176
1070
     2
1070
   178
1070
     2
1070
    78
1070
     8
1070
    48
1040
-0.1
1070
    41
1040
3.5
1070
   147
1040
1.75
1070
    42
1040
1.5875
1070
    44
1040
2.0
1070
   140
1040
3.5
1002
}
1001
ACAD_DSTYLE_DIM_LINETYPE
1070
   380
1005
16
1001
ACAD_DSTYLE_DIM_EXT1_LINETYPE
1070
   381
1005
16
1001
ACAD_DSTYLE_DIM_EXT2_LINETYPE
1070
   382
1005
16
0
ENDSEC
0
SECTION
2
OBJECTS
0
DICTIONARY
5
1fb
330
0
100
AcDbDictionary
280
0
281
1
3
ACAD_GROUP
350
1fc
3
ACAD_MLINESTYLE
350
1fd
0
DICTIONARY
5
1fc
330
0
100
AcDbDictionary
280
0
281
1
0
DICTIONARY
5
1fd
330
0
100
AcDbDictionary
280
0
281
1
3
Standard
350
18
0
MLINESTYLE
5
18
330
1fd
100
AcDbMlineStyle
2
Standard
70
0
3

62
256
51
90
52
90
71
2
49
-0.5
62
256
6
ByLayer
49
0.5
62
256
6
ByLayer
0
RASTERVARIABLES
5
1ea
330

100
AcDbRasterVariables
90
0
70
1
71
1
72
1
0
ENDSEC
0
EOF
