0
SECTION
2
HEADER
9
$ACADVER
1
AC1015
9
$DWGCODEPAGE
3
ANSI_1252
9
$HANDSEED
5
21c
9
$ANGBASE
50
0
9
$ANGDIR
70
0
9
$ATTMODE
70
1
9
$AUNITS
70
0
9
$AUPREC
70
0
9
$CECOLOR
62
256
9
$CELTSCALE
40
1
9
$CELTYPE
6
ByLayer
9
$CELWEIGHT
370
18
9
$CLAYER
8
0
9
$CMLJUST
70
0
9
$CMLSCALE
40
1
9
$CMLSTYLE
2
Standard
9
$DIMSTYLE
2
Standard
9
$TEXTSIZE
40
0.2
9
$TEXTSTYLE
7
Standard
9
$LUNITS
70
2
9
$LUPREC
70
4
9
$EXTNAMES
290
1
9
$INSUNITS
70
4
9
$LTSCALE
40
1
9
$LWDISPLAY
290
1
9
$PDMODE
70
0
9
$PDSIZE
40
0
9
$PLINEGEN
70
0
0
ENDSEC
0
SECTION
2
CLASSES
0
CLASS
1
RASTERVARIABLES
2
AcDbRasterVariables
3
ISM
90
0
280
0
281
0
0
ENDSEC
0
SECTION
2
TABLES
0
TABLE
2
VPORT
5
212
100
AcDbSymbolTable
0
VPORT
5
1
100
AcDbSymbolTableRecord
100
AcDbViewportTableRecord
2
*Active
70
0
10
0
20
0
11
1
21
1
12
-1
22
1
13
0
23
0
14
0.5
24
0.5
15
10
25
10
16
0
26
0
36
1
17
0
27
0
37
0
0
ENDTAB
0
TABLE
2
LTYPE
5
213
100
AcDbSymbolTable
0
LTYPE
5
14
100
AcDbSymbolTableRecord
100
AcDbLinetypeTableRecord
70
0
2
ByBlock
3

72
65
73
0
40
0
0
LTYPE
5
15
100
AcDbSymbolTableRecord
100
AcDbLinetypeTableRecord
70
0
2
ByLayer
3

72
65
73
0
40
0
0
LTYPE
5
16
100
AcDbSymbolTableRecord
100
AcDbLinetypeTableRecord
70
0
2
Continuous
3
Solid line
72
65
73
0
40
0
0
LTYPE
5
6E
100
AcDbSymbolTableRecord
100
AcDbLinetypeTableRecord
70
0
2
CENTER
3
____ _ ____ _ ____ _ ____
72
65
73
4
40
47.5
49
22
74
0
49
-8.5
74
0
49
8.5
74
0
49
-8.5
74
0
0
LTYPE
5
6F
100
AcDbSymbolTableRecord
100
AcDbLinetypeTableRecord
70
0
2
DASHED
3
__ __ __ __ __ __ __ __ __
72
65
73
2
40
25.72
49
12.86
74
0
49
-12.86
74
0
0
ENDTAB
0
TABLE
2
LAYER
5
214
100
AcDbSymbolTable
0
LAYER
5
10
100
AcDbSymbolTableRecord
100
AcDbLayerTableRecord
2
0
70
0
62
7
6
Continuous
290
1
370
-3
390
0
0
LAYER
5
71
100
AcDbSymbolTableRecord
100
AcDbLayerTableRecord
2
1
70
0
62
4
6
Continuous
290
1
370
-3
390
0
0
LAYER
5
73
100
AcDbSymbolTableRecord
100
AcDbLayerTableRecord
2
81
70
0
62
-3
6
Continuous
290
1
370
-3
390
0
0
LAYER
5
75
100
AcDbSymbolTableRecord
100
AcDbLayerTableRecord
2
80
70
0
62
-6
6
Continuous
290
1
370
-3
390
0
0
LAYER
5
127
100
AcDbSymbolTableRecord
100
AcDbLayerTableRecord
2
Defpoints
70
0
62
7
6
Continuous
290
0
370
-3
390
0
0
LAYER
5
134
100
AcDbSymbolTableRecord
100
AcDbLayerTableRecord
2
2
70
0
62
7
6
Continuous
290
1
370
-3
390
0
0
LAYER
5
1ff
100
AcDbSymbolTableRecord
100
AcDbLayerTableRecord
2
SK1
70
0
62
4
6
Continuous
290
1
370
-3
390
0
0
LAYER
5
200
100
AcDbSymbolTableRecord
100
AcDbLayerTableRecord
2
SK6
70
0
62
5
6
Continuous
290
1
370
-3
390
0
0
LAYER
5
201
100
AcDbSymbolTableRecord
100
AcDbLayerTableRecord
2
SK2
70
0
62
7
6
Continuous
290
1
370
-3
390
0
0
ENDTAB
0
TABLE
2
STYLE
5
215
100
AcDbSymbolTable
0
STYLE
5
11
100
AcDbSymbolTableRecord
100
AcDbTextStyleTableRecord
2
Standard
3
txt
70
0
71
0
40
0
41
1
42
0
50
0
0
STYLE
5
120
100
AcDbSymbolTableRecord
100
AcDbTextStyleTableRecord
2
iso_b_vert
3
simplex.shx
70
0
71
0
40
0
41
1
42
0
50
0
0
STYLE
5
121
100
AcDbSymbolTableRecord
100
AcDbTextStyleTableRecord
2
DWGDirectTextStyle
3
simplex
70
0
71
0
40
0
41
1
42
0
50
0
0
ENDTAB
0
TABLE
2
DIMSTYLE
5
216
100
AcDbSymbolTable
100
AcDbDimStyleTable
0
DIMSTYLE
105
27
100
AcDbSymbolTableRecord
100
AcDbDimStyleTableRecord
2
Standard
70
0
3
<>
41
0.18
42
0.0625
44
0.18
140
0.18
147
0.09
73
0
74
0
77
1
271
2
275
0
278
52
280
0
340
11
0
ENDTAB
0
TABLE
2
VIEW
5
217
100
AcDbSymbolTable
0
ENDTAB
0
TABLE
2
UCS
5
218
100
AcDbSymbolTable
0
ENDTAB
0
TABLE
2
APPID
5
219
100
AcDbSymbolTable
0
APPID
5
12
100
AcDbSymbolTableRecord
100
AcDbRegAppTableRecord
2
ACAD
70
0
0
APPID
5
123
100
AcDbSymbolTableRecord
100
AcDbRegAppTableRecord
2
ACAD_DSTYLE_DIMBREAK
70
0
0
APPID
5
1BE
100
AcDbSymbolTableRecord
100
AcDbRegAppTableRecord
2
ACAD_DSTYLE_DIM_LINETYPE
70
0
0
APPID
5
1BF
100
AcDbSymbolTableRecord
100
AcDbRegAppTableRecord
2
ACAD_DSTYLE_DIM_EXT1_LINETYPE
70
0
0
APPID
5
1C0
100
AcDbSymbolTableRecord
100
AcDbRegAppTableRecord
2
ACAD_DSTYLE_DIM_EXT2_LINETYPE
70
0
0
APPID
5
1FB
100
AcDbSymbolTableRecord
100
AcDbRegAppTableRecord
2
ACAD_MLEADERVER
70
0
0
ENDTAB
0
TABLE
2
BLOCK_RECORD
5
21a
100
AcDbSymbolTable
0
BLOCK_RECORD
5
1F
100
AcDbSymbolTableRecord
100
AcDbBlockTableRecord
2
*Model_Space
340
0
70
0
0
BLOCK_RECORD
5
1B
100
AcDbSymbolTableRecord
100
AcDbBlockTableRecord
2
*Paper_Space
340
0
70
0
0
BLOCK_RECORD
5
23
100
AcDbSymbolTableRecord
100
AcDbBlockTableRecord
2
*Paper_Space0
340
0
70
0
0
BLOCK_RECORD
5
128
100
AcDbSymbolTableRecord
100
AcDbBlockTableRecord
2
*D1
340
0
70
0
0
BLOCK_RECORD
5
135
100
AcDbSymbolTableRecord
100
AcDbBlockTableRecord
2
_U0
340
0
70
0
0
BLOCK_RECORD
5
141
100
AcDbSymbolTableRecord
100
AcDbBlockTableRecord
2
*D3
340
0
70
0
0
BLOCK_RECORD
5
14E
100
AcDbSymbolTableRecord
100
AcDbBlockTableRecord
2
_U1
340
0
70
0
0
BLOCK_RECORD
5
15A
100
AcDbSymbolTableRecord
100
AcDbBlockTableRecord
2
*D5
340
0
70
0
0
BLOCK_RECORD
5
167
100
AcDbSymbolTableRecord
100
AcDbBlockTableRecord
2
_U2
340
0
70
0
0
BLOCK_RECORD
5
173
100
AcDbSymbolTableRecord
100
AcDbBlockTableRecord
2
*D7
340
0
70
0
0
BLOCK_RECORD
5
17F
100
AcDbSymbolTableRecord
100
AcDbBlockTableRecord
2
_U3
340
0
70
0
0
BLOCK_RECORD
5
18B
100
AcDbSymbolTableRecord
100
AcDbBlockTableRecord
2
*D9
340
0
70
0
0
BLOCK_RECORD
5
197
100
AcDbSymbolTableRecord
100
AcDbBlockTableRecord
2
_U4
340
0
70
0
0
ENDTAB
0
ENDSEC
0
SECTION
2
BLOCKS
0
BLOCK
5
20
100
AcDbEntity
8
0
100
AcDbBlockBegin
2
*Model_Space
70
0
10
0
20
0
30
0
3
*Model_Space
0
ENDBLK
5
21
100
AcDbEntity
8
0
100
AcDbBlockEnd
0
BLOCK
5
1C
100
AcDbEntity
8
0
100
AcDbBlockBegin
2
*Paper_Space
70
0
10
0
20
0
30
0
3
*Paper_Space
0
ENDBLK
5
1D
100
AcDbEntity
8
0
100
AcDbBlockEnd
0
BLOCK
5
24
100
AcDbEntity
8
0
100
AcDbBlockBegin
2
*Paper_Space0
70
0
10
0
20
0
30
0
3
*Paper_Space0
0
ENDBLK
5
25
100
AcDbEntity
8
0
100
AcDbBlockEnd
0
BLOCK
5
129
100
AcDbEntity
8
0
100
AcDbBlockBegin
2
*D1
70
1
10
0
20
0
30
0
3
*D1
0
LINE
5
12B
100
AcDbEntity
8
0
62
256
6
ByLayer
370
-2
48
1
60
0
100
AcDbLine
10
53.095468
20
3.075
30
0
11
86.607968
21
3.075
31
0
39
0
210
0
220
0
230
1
0
LINE
5
12C
100
AcDbEntity
8
0
62
256
6
ByLayer
370
-2
48
1
60
0
100
AcDbLine
10
-116.904532
20
-15.925
30
0
11
86.607968
21
-15.925
31
0
39
0
210
0
220
0
230
1
0
LINE
5
12D
100
AcDbEntity
8
0
62
256
6
ByLayer
370
-2
48
1
60
0
100
AcDbLine
10
84.607968
20
-0.425
30
0
11
84.607968
21
-12.425
31
0
39
0
210
0
220
0
230
1
0
SOLID
5
12E
100
AcDbEntity
8
0
62
256
6
ByLayer
370
-1
48
1
60
0
100
AcDbTrace
10
85.191301
20
-0.425
30
0
11
84.024634
21
-0.425
31
0
12
84.607968
22
3.075
32
0
13
84.607968
23
3.075
33
0
39
0
210
0
220
0
230
1
0
SOLID
5
12F
100
AcDbEntity
8
0
62
256
6
ByLayer
370
-1
48
1
60
0
100
AcDbTrace
10
84.024634
20
-12.425
30
0
11
85.191301
21
-12.425
31
0
12
84.607968
22
-15.925
32
0
13
84.607968
23
-15.925
33
0
39
0
210
0
220
0
230
1
0
MTEXT
5
130
100
AcDbEntity
8
0
62
256
6
ByLayer
370
18
48
1
60
0
100
AcDbMText
10
77.607968
20
-6.425
30
0
210
0
220
0
230
1
1
\A1;19
40
3.5
41
0
44
1
50
90
71
5
72
5
7
iso_b_vert
0
POINT
5
131
100
AcDbEntity
8
Defpoints
62
0
6
ByLayer
370
-1
48
1
60
0
100
AcDbPoint
10
51.507968
20
3.075
30
0
39
0
210
0
220
0
230
1
50
360
0
POINT
5
132
100
AcDbEntity
8
Defpoints
62
0
6
ByLayer
370
-1
48
1
60
0
100
AcDbPoint
10
-118.492032
20
-15.925
30
0
39
0
210
0
220
0
230
1
50
360
0
POINT
5
133
100
AcDbEntity
8
Defpoints
62
0
6
ByLayer
370
-1
48
1
60
0
100
AcDbPoint
10
84.607968
20
-15.925
30
0
39
0
210
0
220
0
230
1
50
360
0
ENDBLK
5
12A
100
AcDbEntity
8
0
100
AcDbBlockEnd
0
BLOCK
5
13C
100
AcDbEntity
8
0
100
AcDbBlockBegin
2
_U0
70
0
10
0
20
0
30
0
3
_U0
0
MTEXT
5
136
100
AcDbEntity
8
2
62
256
6
ByLayer
370
18
48
1
60
0
100
AcDbMText
10
83.918334
20
-7.920533
30
0
210
0
220
0
230
1
1
\W0.5469;19
40
3.5
41
0
44
1.084337
50
90
71
7
72
5
7
iso_b_vert
0
LINE
5
137
100
AcDbEntity
8
2
62
256
6
ByLayer
370
13
48
1
60
0
100
AcDbLine
10
53.095468
20
3.075
30
0
11
86.607968
21
3.075
31
0
39
0
210
0
220
0
230
1
0
LINE
5
138
100
AcDbEntity
8
2
62
256
6
ByLayer
370
13
48
1
60
0
100
AcDbLine
10
-116.904532
20
-15.925
30
0
11
86.607968
21
-15.925
31
0
39
0
210
0
220
0
230
1
0
LINE
5
139
100
AcDbEntity
8
2
62
256
6
ByLayer
370
13
48
1
60
0
100
AcDbLine
10
84.607968
20
3.075
30
0
11
84.607968
21
-15.925
31
0
39
0
210
0
220
0
230
1
0
SOLID
5
13A
100
AcDbEntity
8
2
62
256
6
ByLayer
370
18
48
1
60
0
100
AcDbTrace
10
84.607968
20
3.075
30
0
11
85.068751
21
-0.424998
31
0
12
84.147184
22
-0.425002
32
0
13
84.147184
23
-0.425002
33
0
39
0
210
0
220
0
230
1
0
SOLID
5
13B
100
AcDbEntity
8
2
62
256
6
ByLayer
370
18
48
1
60
0
100
AcDbTrace
10
84.607968
20
-15.925
30
0
11
84.147184
21
-12.425002
31
0
12
85.068751
22
-12.424998
32
0
13
85.068751
23
-12.424998
33
0
39
0
210
0
220
0
230
1
0
ENDBLK
5
13D
100
AcDbEntity
8
0
100
AcDbBlockEnd
0
BLOCK
5
142
100
AcDbEntity
8
0
100
AcDbBlockBegin
2
*D3
70
1
10
0
20
0
30
0
3
*D3
0
LINE
5
144
100
AcDbEntity
8
0
62
256
6
ByLayer
370
-2
48
1
60
0
100
AcDbLine
10
53.095468
20
-2.925
30
0
11
74.607968
21
-2.925
31
0
39
0
210
0
220
0
230
1
0
LINE
5
145
100
AcDbEntity
8
0
62
256
6
ByLayer
370
-2
48
1
60
0
100
AcDbLine
10
53.095468
20
3.075
30
0
11
74.607968
21
3.075
31
0
39
0
210
0
220
0
230
1
0
LINE
5
146
100
AcDbEntity
8
0
62
256
6
ByLayer
370
-2
48
1
60
0
100
AcDbLine
10
72.607968
20
-6.425
30
0
11
72.607968
21
-9.925
31
0
39
0
210
0
220
0
230
1
0
LINE
5
147
100
AcDbEntity
8
0
62
256
6
ByLayer
370
-2
48
1
60
0
100
AcDbLine
10
72.607968
20
6.575
30
0
11
72.607968
21
10.075
31
0
39
0
210
0
220
0
230
1
0
SOLID
5
148
100
AcDbEntity
8
0
62
256
6
ByLayer
370
-1
48
1
60
0
100
AcDbTrace
10
73.191301
20
-6.425
30
0
11
72.024634
21
-6.425
31
0
12
72.607968
22
-2.925
32
0
13
72.607968
23
-2.925
33
0
39
0
210
0
220
0
230
1
0
SOLID
5
149
100
AcDbEntity
8
0
62
256
6
ByLayer
370
-1
48
1
60
0
100
AcDbTrace
10
72.024634
20
6.575
30
0
11
73.191301
21
6.575
31
0
12
72.607968
22
3.075
32
0
13
72.607968
23
3.075
33
0
39
0
210
0
220
0
230
1
0
MTEXT
5
14A
100
AcDbEntity
8
0
62
256
6
ByLayer
370
18
48
1
60
0
100
AcDbMText
10
65.607968
20
0.075
30
0
210
0
220
0
230
1
1
\A1;6
40
3.5
41
0
44
1
50
90
71
5
72
5
7
iso_b_vert
0
POINT
5
14B
100
AcDbEntity
8
Defpoints
62
0
6
ByLayer
370
-1
48
1
60
0
100
AcDbPoint
10
51.507968
20
-2.925
30
0
39
0
210
0
220
0
230
1
50
360
0
POINT
5
14C
100
AcDbEntity
8
Defpoints
62
0
6
ByLayer
370
-1
48
1
60
0
100
AcDbPoint
10
51.507968
20
3.075
30
0
39
0
210
0
220
0
230
1
50
360
0
POINT
5
14D
100
AcDbEntity
8
Defpoints
62
0
6
ByLayer
370
-1
48
1
60
0
100
AcDbPoint
10
72.607968
20
3.075
30
0
39
0
210
0
220
0
230
1
50
360
0
ENDBLK
5
143
100
AcDbEntity
8
0
100
AcDbBlockEnd
0
BLOCK
5
155
100
AcDbEntity
8
0
100
AcDbBlockBegin
2
_U1
70
0
10
0
20
0
30
0
3
_U1
0
MTEXT
5
14F
100
AcDbEntity
8
2
62
256
6
ByLayer
370
18
48
1
60
0
100
AcDbMText
10
71.918334
20
-0.550233
30
0
210
0
220
0
230
1
1
\W0.5404;6
40
3.5
41
0
44
1.084337
50
90
71
7
72
5
7
iso_b_vert
0
LINE
5
150
100
AcDbEntity
8
2
62
256
6
ByLayer
370
13
48
1
60
0
100
AcDbLine
10
53.095468
20
-2.925
30
0
11
74.607968
21
-2.925
31
0
39
0
210
0
220
0
230
1
0
LINE
5
151
100
AcDbEntity
8
2
62
256
6
ByLayer
370
13
48
1
60
0
100
AcDbLine
10
53.095468
20
3.075
30
0
11
74.607968
21
3.075
31
0
39
0
210
0
220
0
230
1
0
LINE
5
152
100
AcDbEntity
8
2
62
256
6
ByLayer
370
13
48
1
60
0
100
AcDbLine
10
72.607968
20
-11.675
30
0
11
72.607968
21
11.825
31
0
39
0
210
0
220
0
230
1
0
SOLID
5
153
100
AcDbEntity
8
2
62
256
6
ByLayer
370
18
48
1
60
0
100
AcDbTrace
10
72.607968
20
-2.925
30
0
11
73.068751
21
-6.424998
31
0
12
72.147184
22
-6.425002
32
0
13
72.147184
23
-6.425002
33
0
39
0
210
0
220
0
230
1
0
SOLID
5
154
100
AcDbEntity
8
2
62
256
6
ByLayer
370
18
48
1
60
0
100
AcDbTrace
10
72.607968
20
3.075
30
0
11
72.147184
21
6.574998
31
0
12
73.068751
22
6.575002
32
0
13
73.068751
23
6.575002
33
0
39
0
210
0
220
0
230
1
0
ENDBLK
5
156
100
AcDbEntity
8
0
100
AcDbBlockEnd
0
BLOCK
5
15B
100
AcDbEntity
8
0
100
AcDbBlockBegin
2
*D5
70
1
10
0
20
0
30
0
3
*D5
0
LINE
5
15D
100
AcDbEntity
8
0
62
256
6
ByLayer
370
-2
48
1
60
0
100
AcDbLine
10
-120.079532
20
-15.925
30
0
11
-132.092032
21
-15.925
31
0
39
0
210
0
220
0
230
1
0
LINE
5
15E
100
AcDbEntity
8
0
62
256
6
ByLayer
370
-2
48
1
60
0
100
AcDbLine
10
-120.079532
20
16.075
30
0
11
-132.092032
21
16.075
31
0
39
0
210
0
220
0
230
1
0
LINE
5
15F
100
AcDbEntity
8
0
62
256
6
ByLayer
370
-2
48
1
60
0
100
AcDbLine
10
-130.092032
20
-12.425
30
0
11
-130.092032
21
12.575
31
0
39
0
210
0
220
0
230
1
0
SOLID
5
160
100
AcDbEntity
8
0
62
256
6
ByLayer
370
-1
48
1
60
0
100
AcDbTrace
10
-130.675366
20
-12.425
30
0
11
-129.508699
21
-12.425
31
0
12
-130.092032
22
-15.925
32
0
13
-130.092032
23
-15.925
33
0
39
0
210
0
220
0
230
1
0
SOLID
5
161
100
AcDbEntity
8
0
62
256
6
ByLayer
370
-1
48
1
60
0
100
AcDbTrace
10
-129.508699
20
12.575
30
0
11
-130.675366
21
12.575
31
0
12
-130.092032
22
16.075
32
0
13
-130.092032
23
16.075
33
0
39
0
210
0
220
0
230
1
0
MTEXT
5
162
100
AcDbEntity
8
0
62
256
6
ByLayer
370
18
48
1
60
0
100
AcDbMText
10
-137.092032
20
0.075
30
0
210
0
220
0
230
1
1
\A1;32
40
3.5
41
0
44
1
50
90
71
5
72
5
7
iso_b_vert
0
POINT
5
163
100
AcDbEntity
8
Defpoints
62
0
6
ByLayer
370
-1
48
1
60
0
100
AcDbPoint
10
-118.492032
20
-15.925
30
0
39
0
210
0
220
0
230
1
50
360
0
POINT
5
164
100
AcDbEntity
8
Defpoints
62
0
6
ByLayer
370
-1
48
1
60
0
100
AcDbPoint
10
-118.492032
20
16.075
30
0
39
0
210
0
220
0
230
1
50
360
0
POINT
5
165
100
AcDbEntity
8
Defpoints
62
0
6
ByLayer
370
-1
48
1
60
0
100
AcDbPoint
10
-130.092032
20
16.075
30
0
39
0
210
0
220
0
230
1
50
360
0
ENDBLK
5
15C
100
AcDbEntity
8
0
100
AcDbBlockEnd
0
BLOCK
5
16E
100
AcDbEntity
8
0
100
AcDbBlockBegin
2
_U2
70
0
10
0
20
0
30
0
3
_U2
0
MTEXT
5
168
100
AcDbEntity
8
SK2
62
256
6
ByLayer
370
18
48
1
60
0
100
AcDbMText
10
-130.781666
20
-1.857966
30
0
210
0
220
0
230
1
1
\W0.6740;32
40
3.5
41
0
44
1.084337
50
90
71
7
72
5
7
iso_b_vert
0
LINE
5
169
100
AcDbEntity
8
SK2
62
256
6
ByLayer
370
13
48
1
60
0
100
AcDbLine
10
-120.079532
20
-15.925
30
0
11
-132.092032
21
-15.925
31
0
39
0
210
0
220
0
230
1
0
LINE
5
16A
100
AcDbEntity
8
SK2
62
256
6
ByLayer
370
13
48
1
60
0
100
AcDbLine
10
-120.079532
20
16.075
30
0
11
-132.092032
21
16.075
31
0
39
0
210
0
220
0
230
1
0
LINE
5
16B
100
AcDbEntity
8
SK2
62
256
6
ByLayer
370
13
48
1
60
0
100
AcDbLine
10
-130.092032
20
-15.925
30
0
11
-130.092032
21
16.075
31
0
39
0
210
0
220
0
230
1
0
SOLID
5
16C
100
AcDbEntity
8
SK2
62
256
6
ByLayer
370
18
48
1
60
0
100
AcDbTrace
10
-130.092032
20
-15.925
30
0
11
-130.552816
21
-12.425002
31
0
12
-129.631249
22
-12.424998
32
0
13
-129.631249
23
-12.424998
33
0
39
0
210
0
220
0
230
1
0
SOLID
5
16D
100
AcDbEntity
8
SK2
62
256
6
ByLayer
370
18
48
1
60
0
100
AcDbTrace
10
-130.092032
20
16.075
30
0
11
-129.631249
21
12.575002
31
0
12
-130.552816
22
12.574998
32
0
13
-130.552816
23
12.574998
33
0
39
0
210
0
220
0
230
1
0
ENDBLK
5
16F
100
AcDbEntity
8
0
100
AcDbBlockEnd
0
BLOCK
5
174
100
AcDbEntity
8
0
100
AcDbBlockBegin
2
*D7
70
1
10
0
20
0
30
0
3
*D7
0
LINE
5
176
100
AcDbEntity
8
0
62
256
6
ByLayer
370
-2
48
1
60
0
100
AcDbLine
10
26.507968
20
-3.6875
30
0
11
26.507968
21
-27.675
31
0
39
0
210
0
220
0
230
1
0
LINE
5
177
100
AcDbEntity
8
0
62
256
6
ByLayer
370
-2
48
1
60
0
100
AcDbLine
10
51.507968
20
1.4875
30
0
11
51.507968
21
-27.675
31
0
39
0
210
0
220
0
230
1
0
LINE
5
178
100
AcDbEntity
8
0
62
256
6
ByLayer
370
-2
48
1
60
0
100
AcDbLine
10
30.007968
20
-25.675
30
0
11
48.007968
21
-25.675
31
0
39
0
210
0
220
0
230
1
0
SOLID
5
179
100
AcDbEntity
8
0
62
256
6
ByLayer
370
-1
48
1
60
0
100
AcDbTrace
10
30.007968
20
-25.091667
30
0
11
30.007968
21
-26.258333
31
0
12
26.507968
22
-25.675
32
0
13
26.507968
23
-25.675
33
0
39
0
210
0
220
0
230
1
0
SOLID
5
17A
100
AcDbEntity
8
0
62
256
6
ByLayer
370
-1
48
1
60
0
100
AcDbTrace
10
48.007968
20
-26.258333
30
0
11
48.007968
21
-25.091667
31
0
12
51.507968
22
-25.675
32
0
13
51.507968
23
-25.675
33
0
39
0
210
0
220
0
230
1
0
MTEXT
5
17B
100
AcDbEntity
8
0
62
256
6
ByLayer
370
18
48
1
60
0
100
AcDbMText
10
39.007968
20
-18.675
30
0
210
0
220
0
230
1
1
\A1;25
40
3.5
41
0
44
1
50
0
71
5
72
5
7
iso_b_vert
0
POINT
5
17C
100
AcDbEntity
8
Defpoints
62
0
6
ByLayer
370
-1
48
1
60
0
100
AcDbPoint
10
26.507968
20
-2.1
30
0
39
0
210
0
220
0
230
1
50
360
0
POINT
5
17D
100
AcDbEntity
8
Defpoints
62
0
6
ByLayer
370
-1
48
1
60
0
100
AcDbPoint
10
51.507968
20
3.075
30
0
39
0
210
0
220
0
230
1
50
360
0
POINT
5
17E
100
AcDbEntity
8
Defpoints
62
0
6
ByLayer
370
-1
48
1
60
0
100
AcDbPoint
10
51.507968
20
-25.675
30
0
39
0
210
0
220
0
230
1
50
360
0
ENDBLK
5
175
100
AcDbEntity
8
0
100
AcDbBlockEnd
0
BLOCK
5
186
100
AcDbEntity
8
0
100
AcDbBlockBegin
2
_U3
70
0
10
0
20
0
30
0
3
_U3
0
MTEXT
5
180
100
AcDbEntity
8
2
62
256
6
ByLayer
370
18
48
1
60
0
100
AcDbMText
10
37.103001
20
-24.642366
30
0
210
0
220
0
230
1
1
\W0.6740;25
40
3.5
41
0
44
1.084337
50
0
71
7
72
5
7
iso_b_vert
0
LINE
5
181
100
AcDbEntity
8
2
62
256
6
ByLayer
370
13
48
1
60
0
100
AcDbLine
10
26.507968
20
-3.6875
30
0
11
26.507968
21
-27.675
31
0
39
0
210
0
220
0
230
1
0
LINE
5
182
100
AcDbEntity
8
2
62
256
6
ByLayer
370
13
48
1
60
0
100
AcDbLine
10
51.507968
20
1.4875
30
0
11
51.507968
21
-27.675
31
0
39
0
210
0
220
0
230
1
0
LINE
5
183
100
AcDbEntity
8
2
62
256
6
ByLayer
370
13
48
1
60
0
100
AcDbLine
10
26.507968
20
-25.675
30
0
11
51.507968
21
-25.675
31
0
39
0
210
0
220
0
230
1
0
SOLID
5
184
100
AcDbEntity
8
2
62
256
6
ByLayer
370
18
48
1
60
0
100
AcDbTrace
10
26.507968
20
-25.675
30
0
11
30.007966
21
-25.214216
31
0
12
30.007969
22
-26.135784
32
0
13
30.007969
23
-26.135784
33
0
39
0
210
0
220
0
230
1
0
SOLID
5
185
100
AcDbEntity
8
2
62
256
6
ByLayer
370
18
48
1
60
0
100
AcDbTrace
10
51.507968
20
-25.675
30
0
11
48.007969
21
-26.135784
31
0
12
48.007966
22
-25.214216
32
0
13
48.007966
23
-25.214216
33
0
39
0
210
0
220
0
230
1
0
ENDBLK
5
187
100
AcDbEntity
8
0
100
AcDbBlockEnd
0
BLOCK
5
18C
100
AcDbEntity
8
0
100
AcDbBlockBegin
2
*D9
70
1
10
0
20
0
30
0
3
*D9
0
LINE
5
18E
100
AcDbEntity
8
0
62
256
6
ByLayer
370
-2
48
1
60
0
100
AcDbLine
10
-118.492032
20
-17.5125
30
0
11
-118.492032
21
-38.675
31
0
39
0
210
0
220
0
230
1
0
LINE
5
18F
100
AcDbEntity
8
0
62
256
6
ByLayer
370
-2
48
1
60
0
100
AcDbLine
10
51.507968
20
1.4875
30
0
11
51.507968
21
-38.675
31
0
39
0
210
0
220
0
230
1
0
LINE
5
190
100
AcDbEntity
8
0
62
256
6
ByLayer
370
-2
48
1
60
0
100
AcDbLine
10
-114.992032
20
-36.675
30
0
11
48.007968
21
-36.675
31
0
39
0
210
0
220
0
230
1
0
SOLID
5
191
100
AcDbEntity
8
0
62
256
6
ByLayer
370
-1
48
1
60
0
100
AcDbTrace
10
-114.992032
20
-36.091667
30
0
11
-114.992032
21
-37.258333
31
0
12
-118.492032
22
-36.675
32
0
13
-118.492032
23
-36.675
33
0
39
0
210
0
220
0
230
1
0
SOLID
5
192
100
AcDbEntity
8
0
62
256
6
ByLayer
370
-1
48
1
60
0
100
AcDbTrace
10
48.007968
20
-37.258333
30
0
11
48.007968
21
-36.091667
31
0
12
51.507968
22
-36.675
32
0
13
51.507968
23
-36.675
33
0
39
0
210
0
220
0
230
1
0
MTEXT
5
193
100
AcDbEntity
8
0
62
256
6
ByLayer
370
18
48
1
60
0
100
AcDbMText
10
-33.492032
20
-29.675
30
0
210
0
220
0
230
1
1
\A1;170
40
3.5
41
0
44
1
50
0
71
5
72
5
7
iso_b_vert
0
POINT
5
194
100
AcDbEntity
8
Defpoints
62
0
6
ByLayer
370
-1
48
1
60
0
100
AcDbPoint
10
-118.492032
20
-15.925
30
0
39
0
210
0
220
0
230
1
50
360
0
POINT
5
195
100
AcDbEntity
8
Defpoints
62
0
6
ByLayer
370
-1
48
1
60
0
100
AcDbPoint
10
51.507968
20
3.075
30
0
39
0
210
0
220
0
230
1
50
360
0
POINT
5
196
100
AcDbEntity
8
Defpoints
62
0
6
ByLayer
370
-1
48
1
60
0
100
AcDbPoint
10
51.507968
20
-36.675
30
0
39
0
210
0
220
0
230
1
50
360
0
ENDBLK
5
18D
100
AcDbEntity
8
0
100
AcDbBlockEnd
0
BLOCK
5
19E
100
AcDbEntity
8
0
100
AcDbBlockBegin
2
_U4
70
0
10
0
20
0
30
0
3
_U4
0
MTEXT
5
198
100
AcDbEntity
8
SK2
62
256
6
ByLayer
370
18
48
1
60
0
100
AcDbMText
10
-36.267298
20
-35.642366
30
0
210
0
220
0
230
1
1
\W0.6217;170
40
3.5
41
0
44
1.084337
50
0
71
7
72
5
7
iso_b_vert
0
LINE
5
199
100
AcDbEntity
8
SK2
62
256
6
ByLayer
370
13
48
1
60
0
100
AcDbLine
10
-118.492032
20
-17.5125
30
0
11
-118.492032
21
-38.675
31
0
39
0
210
0
220
0
230
1
0
LINE
5
19A
100
AcDbEntity
8
SK2
62
256
6
ByLayer
370
13
48
1
60
0
100
AcDbLine
10
51.507968
20
1.4875
30
0
11
51.507968
21
-38.675
31
0
39
0
210
0
220
0
230
1
0
LINE
5
19B
100
AcDbEntity
8
SK2
62
256
6
ByLayer
370
13
48
1
60
0
100
AcDbLine
10
-118.492032
20
-36.675
30
0
11
51.507968
21
-36.675
31
0
39
0
210
0
220
0
230
1
0
SOLID
5
19C
100
AcDbEntity
8
SK2
62
256
6
ByLayer
370
18
48
1
60
0
100
AcDbTrace
10
-118.492032
20
-36.675
30
0
11
-114.992034
21
-36.214216
31
0
12
-114.992031
22
-37.135784
32
0
13
-114.992031
23
-37.135784
33
0
39
0
210
0
220
0
230
1
0
SOLID
5
19D
100
AcDbEntity
8
SK2
62
256
6
ByLayer
370
18
48
1
60
0
100
AcDbTrace
10
51.507968
20
-36.675
30
0
11
48.007969
21
-37.135784
31
0
12
48.007966
22
-36.214216
32
0
13
48.007966
23
-36.214216
33
0
39
0
210
0
220
0
230
1
0
ENDBLK
5
19F
100
AcDbEntity
8
0
100
AcDbBlockEnd
0
ENDSEC
0
SECTION
2
ENTITIES
0
ARC
5
CB
100
AcDbEntity
8
1
62
256
6
ByLayer
370
18
48
1
60
0
100
AcDbCircle
39
0
10
26.507968
20
10.75
30
0
40
8.5
210
0
220
0
230
1
100
AcDbArc
50
215
51
270
0
ARC
5
CC
100
AcDbEntity
8
1
62
256
6
ByLayer
370
18
48
1
60
0
100
AcDbCircle
39
0
10
26.507968
20
-10.6
30
0
40
8.5
210
0
220
0
230
1
100
AcDbArc
50
90
51
145
0
ARC
5
CD
100
AcDbEntity
8
1
62
256
6
ByLayer
370
18
48
1
60
0
100
AcDbCircle
39
0
10
12.933148
20
0
30
0
40
2.1768
210
0
220
0
230
1
100
AcDbArc
50
150
51
210
0
ARC
5
CE
100
AcDbEntity
8
1
62
256
6
ByLayer
370
18
48
1
60
0
100
AcDbCircle
39
0
10
12.933148
20
0
30
0
40
2.1768
210
0
220
0
230
1
100
AcDbArc
50
270
51
330
0
ARC
5
CF
100
AcDbEntity
8
1
62
256
6
ByLayer
370
18
48
1
60
0
100
AcDbCircle
39
0
10
12.933148
20
0
30
0
40
2.1768
210
0
220
0
230
1
100
AcDbArc
50
330
51
30
0
ARC
5
D0
100
AcDbEntity
8
1
62
256
6
ByLayer
370
18
48
1
60
0
100
AcDbCircle
39
0
10
12.933148
20
0
30
0
40
2.1768
210
0
220
0
230
1
100
AcDbArc
50
30
51
90
0
ARC
5
D1
100
AcDbEntity
8
1
62
256
6
ByLayer
370
18
48
1
60
0
100
AcDbCircle
39
0
10
12.933148
20
0
30
0
40
2.1768
210
0
220
0
230
1
100
AcDbArc
50
210
51
270
0
ARC
5
D2
100
AcDbEntity
8
1
62
256
6
ByLayer
370
18
48
1
60
0
100
AcDbCircle
39
0
10
12.933148
20
0
30
0
40
2.1768
210
0
220
0
230
1
100
AcDbArc
50
90
51
150
0
ARC
5
D5
100
AcDbEntity
8
1
62
256
6
ByLayer
370
18
48
1
60
0
100
AcDbCircle
39
0
10
12.933148
20
0
30
0
40
2.8067
210
0
220
0
230
1
100
AcDbArc
50
180
51
240
0
ARC
5
D6
100
AcDbEntity
8
1
62
256
6
ByLayer
370
18
48
1
60
0
100
AcDbCircle
39
0
10
12.933148
20
0
30
0
40
2.8067
210
0
220
0
230
1
100
AcDbArc
50
240
51
300
0
ARC
5
D7
100
AcDbEntity
8
1
62
256
6
ByLayer
370
18
48
1
60
0
100
AcDbCircle
39
0
10
12.933148
20
0
30
0
40
2.8067
210
0
220
0
230
1
100
AcDbArc
50
60
51
120
0
ARC
5
D8
100
AcDbEntity
8
1
62
256
6
ByLayer
370
18
48
1
60
0
100
AcDbCircle
39
0
10
12.933148
20
0
30
0
40
2.8067
210
0
220
0
230
1
100
AcDbArc
50
300
51
360
0
ARC
5
D9
100
AcDbEntity
8
1
62
256
6
ByLayer
370
18
48
1
60
0
100
AcDbCircle
39
0
10
12.933148
20
0
30
0
40
2.8067
210
0
220
0
230
1
100
AcDbArc
50
360
51
60
0
ARC
5
DA
100
AcDbEntity
8
1
62
256
6
ByLayer
370
18
48
1
60
0
100
AcDbCircle
39
0
10
12.933148
20
0
30
0
40
2.8067
210
0
220
0
230
1
100
AcDbArc
50
120
51
180
0
CIRCLE
5
CA
100
AcDbEntity
8
1
62
256
6
ByLayer
370
18
48
1
60
0
100
AcDbCircle
10
12.933148
20
0
30
0
40
5.75000000000001
39
0
210
0
220
0
230
1
0
CIRCLE
5
D3
100
AcDbEntity
8
1
62
256
6
ByLayer
370
13
48
1
60
0
100
AcDbCircle
10
12.933148
20
0
30
0
40
4.55
39
0
210
0
220
0
230
1
0
CIRCLE
5
D4
100
AcDbEntity
8
1
62
256
6
ByLayer
370
18
48
1
60
0
100
AcDbCircle
10
12.933148
20
0
30
0
40
5.35
39
0
210
0
220
0
230
1
0
ELLIPSE
5
DB
100
AcDbEntity
8
1
62
256
6
ByLayer
370
18
48
1
60
0
100
AcDbEllipse
10
-2.247378
20
-15.934599
30
0
11
2.99999999995747
21
3.51436609369775E-15
31
0
210
0
220
0
230
1
40
0.004363
41
0.261799387798954
42
0.724054608381868
0
ELLIPSE
5
DC
100
AcDbEntity
8
SK1
62
256
6
ByLayer
370
18
48
1
60
0
100
AcDbEllipse
10
-2.247378
20
-15.934599
30
0
11
3.00000000000004
21
3.51436609374761E-15
31
0
210
0
220
0
230
1
40
0.004363
41
0.724054608377287
42
2.3183806764637
0
POINT
5
70
100
AcDbEntity
8
1
62
256
6
ByLayer
370
18
48
1
60
0
100
AcDbPoint
10
51.507968
20
0.075
30
0
39
0
210
0
220
0
230
1
50
360
0
POINT
5
72
100
AcDbEntity
8
81
62
256
6
ByLayer
370
18
48
1
60
0
100
AcDbPoint
10
51.507968
20
3.075
30
0
39
0
210
0
220
0
230
1
50
360
0
POINT
5
74
100
AcDbEntity
8
80
62
256
6
ByLayer
370
18
48
1
60
0
100
AcDbPoint
10
0
20
0
30
0
39
0
210
0
220
0
230
1
50
360
0
POINT
5
76
100
AcDbEntity
8
1
62
256
6
ByLayer
370
18
48
1
60
1
100
AcDbPoint
10
51.507968
20
3.075
30
0
39
0
210
0
220
0
230
1
50
360
0
POINT
5
77
100
AcDbEntity
8
1
62
256
6
ByLayer
370
18
48
1
60
1
100
AcDbPoint
10
-118.492032
20
-15.925
30
0
39
0
210
0
220
0
230
1
50
360
0
POINT
5
78
100
AcDbEntity
8
1
62
256
6
ByLayer
370
18
48
1
60
1
100
AcDbPoint
10
51.507968
20
-2.925
30
0
39
0
210
0
220
0
230
1
50
360
0
POINT
5
79
100
AcDbEntity
8
1
62
256
6
ByLayer
370
18
48
1
60
1
100
AcDbPoint
10
51.507968
20
3.075
30
0
39
0
210
0
220
0
230
1
50
360
0
POINT
5
7A
100
AcDbEntity
8
1
62
256
6
ByLayer
370
18
48
1
60
1
100
AcDbPoint
10
-118.492032
20
-15.925
30
0
39
0
210
0
220
0
230
1
50
360
0
POINT
5
7B
100
AcDbEntity
8
1
62
256
6
ByLayer
370
18
48
1
60
1
100
AcDbPoint
10
-118.492032
20
16.075
30
0
39
0
210
0
220
0
230
1
50
360
0
POINT
5
7C
100
AcDbEntity
8
1
62
256
6
ByLayer
370
18
48
1
60
1
100
AcDbPoint
10
26.507968
20
-2.1
30
0
39
0
210
0
220
0
230
1
50
360
0
POINT
5
7D
100
AcDbEntity
8
1
62
256
6
ByLayer
370
18
48
1
60
1
100
AcDbPoint
10
51.507968
20
3.075
30
0
39
0
210
0
220
0
230
1
50
360
0
POINT
5
7E
100
AcDbEntity
8
1
62
256
6
ByLayer
370
18
48
1
60
1
100
AcDbPoint
10
-118.492032
20
-15.925
30
0
39
0
210
0
220
0
230
1
50
360
0
POINT
5
7F
100
AcDbEntity
8
1
62
256
6
ByLayer
370
18
48
1
60
1
100
AcDbPoint
10
51.507968
20
3.075
30
0
39
0
210
0
220
0
230
1
50
360
0
SPLINE
5
DD
100
AcDbEntity
8
1
62
256
6
ByLayer
370
18
48
1
60
0
100
AcDbSpline
70
4
71
3
72
14
73
10
40
0
40
0
40
0
40
0
40
0.25
40
0.25
40
0.5
40
0.5
40
0.75
40
0.75
40
1
40
1
40
1
40
1
41
1
10
43.2302153477877
20
-0.425000000000153
30
0
41
1
10
43.2140608278054
20
-0.5278012262701
30
0
41
1
10
43.1976759289778
20
-0.630542095110883
30
0
41
1
10
43.1642385696736
20
-0.83584893693822
30
0
41
1
10
43.1471947246829
20
-0.938387095333241
30
0
41
1
10
43.1120993217925
20
-1.1430910821083
30
0
41
1
10
43.0940589447692
20
-1.24526281717203
30
0
41
1
10
43.0562654432225
20
-1.44897963355973
30
0
41
1
10
43.0365593250571
20
-1.55054191339664
30
0
41
1
10
43.0151139307407
20
-1.65146783328888
30
0
0
SPLINE
5
DE
100
AcDbEntity
8
1
62
256
6
ByLayer
370
18
48
1
60
0
100
AcDbSpline
70
4
71
3
72
8
73
4
40
0
40
0
40
0
40
0
40
1
40
1
40
1
40
1
41
1
10
43.42712577928
20
-0.340922762386441
30
0
41
1
10
43.3616721404867
20
-0.369765693666665
30
0
41
1
10
43.2961025793965
20
-0.398091459863593
30
0
41
1
10
43.2302153477876
20
-0.425000000000153
30
0
0
SPLINE
5
DF
100
AcDbEntity
8
1
62
256
6
ByLayer
370
18
48
1
60
0
100
AcDbSpline
70
4
71
3
72
18
73
14
40
0
40
0
40
0
40
0
40
0.249999999999897
40
0.249999999999897
40
0.499999999999795
40
0.499999999999795
40
0.624999999999846
40
0.624999999999846
40
0.749999999999898
40
0.749999999999898
40
0.874999999999949
40
0.874999999999949
40
1
40
1
40
1
40
1
41
1
10
43.5079675788577
20
-0.199968869268702
30
0
41
1
10
43.5079675788577
20
-0.215793329239631
30
0
41
1
10
43.505982063428
20
-0.231174064579051
30
0
41
1
10
43.4981161574225
20
-0.261065105336684
30
0
41
1
10
43.4924216759352
20
-0.274825848788481
30
0
41
1
10
43.4814223162421
20
-0.293625333983016
30
0
41
1
10
43.4773940441613
20
-0.299481070863294
30
0
41
1
10
43.4687590323546
20
-0.310268841663372
30
0
41
1
10
43.4641365664651
20
-0.315227270958587
30
0
41
1
10
43.4542858359855
20
-0.324279102153639
30
0
41
1
10
43.4490910285896
20
-0.328332503944097
30
0
41
1
10
43.4383871450721
20
-0.335379683507341
30
0
41
1
10
43.4328489567552
20
-0.338400775562434
30
0
41
1
10
43.42712577928
20
-0.340922762386441
30
0
0
SPLINE
5
E0
100
AcDbEntity
8
1
62
256
6
ByLayer
370
18
48
1
60
0
100
AcDbSpline
70
4
71
3
72
20
73
16
40
0
40
0
40
0
40
0
40
0.250000000000207
40
0.250000000000207
40
0.375000000000173
40
0.375000000000173
40
0.500000000000138
40
0.500000000000138
40
0.625000000000104
40
0.625000000000104
40
0.750000000000069
40
0.750000000000069
40
0.875000000000035
40
0.875000000000035
40
1
40
1
40
1
40
1
41
1
10
43.4271257792797
20
0.490922762386276
30
0
41
1
10
43.4385771767405
20
0.485876566695509
30
0
41
1
10
43.4492453454355
20
0.478887719872802
30
0
41
1
10
43.4640159096365
20
0.465349477928641
30
0
41
1
10
43.4687115475182
20
0.46032227262404
30
0
41
1
10
43.4773490077083
20
0.449543164495054
30
0
41
1
10
43.4813341354952
20
0.443754614298797
30
0
41
1
10
43.488614927294
20
0.431352899170236
30
0
41
1
10
43.4919343358606
20
0.424671487833109
30
0
41
1
10
43.4976335769423
20
0.41086837399979
30
0
41
1
10
43.5000349899854
20
0.403730811880649
30
0
41
1
10
43.5039382341002
20
0.388982009655422
30
0
41
1
10
43.505446487266
20
0.381316490513882
30
0
41
1
10
43.507460787104
20
0.365742588065501
30
0
41
1
10
43.5079675788692
20
0.357889315645167
30
0
41
1
10
43.5079675788693
20
0.349968869269929
30
0
0
SPLINE
5
E1
100
AcDbEntity
8
1
62
256
6
ByLayer
370
18
48
1
60
0
100
AcDbSpline
70
4
71
3
72
8
73
4
40
0
40
0
40
0
40
0
40
1
40
1
40
1
40
1
41
1
10
43.2302153477876
20
0.574999999999847
30
0
41
1
10
43.2960855537289
20
0.548098413196243
30
0
41
1
10
43.3616597633983
20
0.51977114777884
30
0
41
1
10
43.4271257792797
20
0.490922762386276
30
0
0
SPLINE
5
E2
100
AcDbEntity
8
1
62
256
6
ByLayer
370
18
48
1
60
0
100
AcDbSpline
70
4
71
3
72
14
73
10
40
0
40
0
40
0
40
0
40
0.25
40
0.25
40
0.5
40
0.5
40
0.75
40
0.75
40
1
40
1
40
1
40
1
41
1
10
43.0151139307407
20
1.80146783328857
30
0
41
1
10
43.0365734255518
20
1.70047555390792
30
0
41
1
10
43.0562887773647
20
1.59885943970667
30
0
41
1
10
43.094097905592
20
1.39504721574261
30
0
41
1
10
43.1121469669501
20
1.29281905024882
30
0
41
1
10
43.1472441871744
20
1.08809270274506
30
0
41
1
10
43.1642807682042
20
0.985592523290734
30
0
41
1
10
43.1976960072878
20
0.780416121257758
30
0
41
1
10
43.2140706345093
20
0.677738820132873
30
0
41
1
10
43.2302153477876
20
0.574999999999847
30
0
0
SPLINE
5
E3
100
AcDbEntity
8
1
62
256
6
ByLayer
370
18
48
1
60
0
100
AcDbSpline
70
4
71
2
72
8
73
5
40
0
40
0
40
0
40
0.5
40
0.5
40
1
40
1
40
1
41
1
10
46.8026659517477
20
2.59040037034669
30
0
41
1
10
46.5958586162241
20
2.45229203185301
30
0
41
1
10
46.394428451821
20
2.3541273095006
30
0
41
1
10
46.1778195313447
20
2.24856539130127
30
0
41
1
10
45.9555359471487
20
2.18347431891337
30
0
0
SPLINE
5
E4
100
AcDbEntity
8
1
62
256
6
ByLayer
370
18
48
1
60
0
100
AcDbSpline
70
4
71
3
72
29
73
25
40
0
40
0
40
0
40
0
40
0.0352049903804652
40
0.0714229004751879
40
0.108642970698799
40
0.146855005896413
40
0.186049498185519
40
0.2262177590645
40
0.267352061102635
40
0.309445789451773
40
0.352493603330964
40
0.396491607531798
40
0.441437533847923
40
0.487330932187033
40
0.534173370932787
40
0.581968645917052
40
0.630722997134896
40
0.680445332069758
40
0.731147454227754
40
0.782844295188463
40
0.835554148185427
40
0.889298900934064
40
0.944104265157179
40
1
40
1
40
1
40
1
41
1
10
46.8026659517514
20
-2.44040039741273
30
0
41
1
10
46.7934448391442
20
-2.43427172390312
30
0
41
1
10
46.7747373036244
20
-2.42183804238832
30
0
41
1
10
46.7460826294472
20
-2.40322578466541
30
0
41
1
10
46.7164779289438
20
-2.38434261759815
30
0
41
1
10
46.6859011059858
20
-2.36524538732635
30
0
41
1
10
46.6543475796303
20
-2.34596494798683
30
0
41
1
10
46.621806813129
20
-2.32654124149417
30
0
41
1
10
46.5882688015046
20
-2.3070135355288
30
0
41
1
10
46.5537222085976
20
-2.28742315752109
30
0
41
1
10
46.5181548279977
20
-2.26781274783863
30
0
41
1
10
46.4815533975759
20
-2.2482264777131
30
0
41
1
10
46.4439035932242
20
-2.22870999579416
30
0
41
1
10
46.4051899722998
20
-2.20931044727482
30
0
41
1
10
46.3653959316854
20
-2.19007646553271
30
0
41
1
10
46.3245036576018
20
-2.17105818028657
30
0
41
1
10
46.2824940922121
20
-2.15230716565958
30
0
41
1
10
46.2393468379717
20
-2.13387659524372
30
0
41
1
10
46.1950402985829
20
-2.11582058298473
30
0
41
1
10
46.1495509089233
20
-2.09819663112242
30
0
41
1
10
46.1028558633848
20
-2.08105611510575
30
0
41
1
10
46.0549223979422
20
-2.06448071366222
30
0
41
1
10
46.0057487417676
20
-2.04844224752568
30
0
41
1
10
45.9723893090107
20
-2.03847511341968
30
0
41
1
10
45.9555453027305
20
-2.03344245981611
30
0
0
SPLINE
5
E5
100
AcDbEntity
8
1
62
256
6
ByLayer
370
18
48
1
60
0
100
AcDbSpline
70
4
71
3
72
8
73
4
40
0
40
0
40
0
40
0
40
1
40
1
40
1
40
1
41
1
10
46.970481762548
20
-2.54469393805516
30
0
41
1
10
46.9134286515026
20
-2.51176792862617
30
0
41
1
10
46.8574511121465
20
-2.47697746621347
30
0
41
1
10
46.8026685468142
20
-2.44039670058444
30
0
0
SPLINE
5
E6
100
AcDbEntity
8
1
62
256
6
ByLayer
370
18
48
1
60
0
100
AcDbSpline
70
4
71
5
72
12
73
6
40
0
40
0
40
0
40
0
40
0
40
0
40
1
40
1
40
1
40
1
40
1
40
1
41
1
10
46.9704748500577
20
-2.54473104001332
30
0
41
1
10
47.2448103131177
20
-2.70311705034331
30
0
41
1
10
47.5398773280977
20
-2.82559627014331
30
0
41
1
10
47.8494130629177
20
-2.90853595338331
30
0
41
1
10
48.1661882524477
20
-2.9499989693833
30
0
41
1
10
48.4829627382177
20
-2.9500000109133
30
0
0
SPLINE
5
E7
100
AcDbEntity
8
1
62
256
6
ByLayer
370
18
48
1
60
0
100
AcDbSpline
70
4
71
2
72
13
73
10
40
0
40
0
40
0
40
0.125
40
0.25
40
0.375
40
0.5
40
0.625
40
0.75
40
0.875
40
1
40
1
40
1
41
1
10
48.4829675992877
20
-2.95000000667332
30
0
41
1
10
48.7811029419091
20
-2.94985827263187
30
0
41
1
10
49.3648638064609
20
-2.83391697927135
30
0
41
1
10
49.915348255122
20
-2.60601464615709
30
0
41
1
10
50.410837580304
20
-2.2750098278261
30
0
41
1
10
50.8322932203919
20
-1.85370358955768
30
0
41
1
10
51.1634738650528
20
-1.35833160499584
30
0
41
1
10
51.3915716815639
20
-0.807927963592675
30
0
41
1
10
51.5078255881324
20
-0.223677774249865
30
0
41
1
10
51.5079675788577
20
0.0749999729335116
30
0
0
SPLINE
5
E8
100
AcDbEntity
8
1
62
256
6
ByLayer
370
18
48
1
60
0
100
AcDbSpline
70
4
71
2
72
13
73
10
40
0
40
0
40
0
40
0.125
40
0.25
40
0.375
40
0.5
40
0.625
40
0.75
40
0.875
40
1
40
1
40
1
41
1
10
51.5079675788577
20
0.0749999999998181
30
0
41
1
10
51.5078258459898
20
0.373135343688205
30
0
41
1
10
51.3918845552745
20
0.956896208372001
30
0
41
1
10
51.1639822229938
20
1.50738065640786
30
0
41
1
10
50.8329774035008
20
2.00286997974425
30
0
41
1
10
50.4116711630554
20
2.42432561765329
30
0
41
1
10
49.9162991766415
20
2.75550626115293
30
0
41
1
10
49.3658955346087
20
2.98360407849188
30
0
41
1
10
48.7816453453993
20
3.09985798770569
30
0
41
1
10
48.4829675992877
20
3.09999997960668
30
0
0
SPLINE
5
E9
100
AcDbEntity
8
1
62
256
6
ByLayer
370
18
48
1
60
0
100
AcDbSpline
70
4
71
5
72
12
73
6
40
0
40
0
40
0
40
0
40
0
40
0
40
1
40
1
40
1
40
1
40
1
40
1
41
1
10
46.9704748500577
20
2.6947310129467
30
0
41
1
10
47.2448103131177
20
2.85311702327669
30
0
41
1
10
47.5398773280977
20
2.97559624307669
30
0
41
1
10
47.8494130629177
20
3.05853592631669
30
0
41
1
10
48.1661882524477
20
3.09999894231669
30
0
41
1
10
48.4829627382177
20
3.09999998384669
30
0
0
SPLINE
5
EA
100
AcDbEntity
8
1
62
256
6
ByLayer
370
18
48
1
60
0
100
AcDbSpline
70
4
71
3
72
8
73
4
40
0
40
0
40
0
40
0
40
1
40
1
40
1
40
1
41
1
10
46.8026685468142
20
2.59039667351786
30
0
41
1
10
46.8574511121465
20
2.62697743914688
30
0
41
1
10
46.9134286515026
20
2.66176790155959
30
0
41
1
10
46.970481762548
20
2.69469391098858
30
0
0
SPLINE
5
EB
100
AcDbEntity
8
1
62
256
6
ByLayer
370
18
48
1
60
0
100
AcDbSpline
70
4
71
3
72
26
73
22
40
0
40
0
40
0
40
0
40
0.0437159455571529
40
0.0886896885657387
40
0.134907868263123
40
0.182357824770992
40
0.23102775163467
40
0.280906859869409
40
0.331985553903848
40
0.384255619720795
40
0.437710425382716
40
0.492345133996496
40
0.548156929007314
40
0.605145251510649
40
0.663312049053362
40
0.72266203512643
40
0.783202958271049
40
0.844945879393497
40
0.907905455549266
40
0.972100228093311
40
1
40
1
40
1
40
1
41
1
10
30.413269233364
20
2.59040037034617
30
0
41
1
10
30.4224903460435
20
2.58427169678879
30
0
41
1
10
30.4411978817342
20
2.57183801516078
30
0
41
1
10
30.4698525562114
20
2.55322575724787
30
0
41
1
10
30.4994572570976
20
2.53434258994534
30
0
41
1
10
30.5300340805222
20
2.51524535939703
30
0
41
1
10
30.561587607429
20
2.49596491974313
30
0
41
1
10
30.5941283745669
20
2.47654121290262
30
0
41
1
10
30.6276663869139
20
2.45701350655986
30
0
41
1
10
30.662212980631
20
2.4374231281493
30
0
41
1
10
30.6977803621293
20
2.41781271804402
30
0
41
1
10
30.7343817935393
20
2.39822644747971
30
0
41
1
10
30.7720315989704
20
2.37870996511191
30
0
41
1
10
30.8107452210675
20
2.35931041613878
30
0
41
1
10
30.8505392629492
20
2.34007643394355
30
0
41
1
10
30.891431538397
20
2.32105814825101
30
0
41
1
10
30.9334411052501
20
2.30230713319068
30
0
41
1
10
30.9765883610555
20
2.28387656236077
30
0
41
1
10
31.0208949021133
20
2.26582054971362
30
0
41
1
10
31.057515151457
20
2.25163276868972
30
0
41
1
10
31.0793701594196
20
2.24348212499828
30
0
41
1
10
31.0860005847103
20
2.24103876167138
30
0
0
SPLINE
5
EC
100
AcDbEntity
8
1
62
256
6
ByLayer
370
18
48
1
60
0
100
AcDbSpline
70
4
71
2
72
8
73
5
40
0
40
0
40
0
40
0.622762040300768
40
0.622762040300768
40
1
40
1
40
1
41
1
10
30.4132692333677
20
-2.44040039741327
30
0
41
1
10
30.6200765628326
20
-2.30229206296562
30
0
41
1
10
30.8215067212991
20
-2.20412734241029
30
0
41
1
10
30.9527175200873
20
-2.14018323644851
30
0
41
1
10
31.0860105387854
20
-2.09108920951391
30
0
0
SPLINE
5
ED
100
AcDbEntity
8
1
62
256
6
ByLayer
370
18
48
1
60
0
100
AcDbSpline
70
4
71
2
72
9
73
6
40
0
40
0
40
0
40
0.256065527458222
40
0.512131054916444
40
0.768196582374666
40
1
40
1
40
1
41
1
10
28.7329675858277
20
3.09999997960674
30
0
41
1
10
28.4348322432062
20
3.09985824556529
30
0
41
1
10
27.8510713786545
20
2.98391695220477
30
0
41
1
10
27.3005869299934
20
2.75601461909051
30
0
41
1
10
26.8285262453688
20
2.44066098135474
30
0
41
1
10
26.6343195928685
20
2.25355620350655
30
0
0
SPLINE
5
EE
100
AcDbEntity
8
1
62
256
6
ByLayer
370
18
48
1
60
0
100
AcDbSpline
70
4
71
5
72
12
73
6
40
0
40
0
40
0
40
0
40
0
40
0
40
1
40
1
40
1
40
1
40
1
40
1
41
1
10
28.7329724468978
20
3.09999998384677
30
0
41
1
10
29.0497469326677
20
3.09999894231677
30
0
41
1
10
29.3665221221977
20
3.05853592631675
30
0
41
1
10
29.6760578570177
20
2.97559624307675
30
0
41
1
10
29.9711248719977
20
2.85311702327675
30
0
41
1
10
30.2454603350577
20
2.69473101294676
30
0
0
SPLINE
5
EF
100
AcDbEntity
8
1
62
256
6
ByLayer
370
18
48
1
60
0
100
AcDbSpline
70
4
71
2
72
6
73
3
40
0
40
0
40
0
40
1
40
1
40
1
41
1
10
30.4132689302677
20
2.59040010457673
30
0
41
1
10
30.350105366243
20
2.63256266693907
30
0
41
1
10
30.2442728644377
20
2.69264913086673
30
0
0
SPLINE
5
F0
100
AcDbEntity
8
1
62
256
6
ByLayer
370
18
48
1
60
0
100
AcDbSpline
70
4
71
3
72
8
73
4
40
0
40
0
40
0
40
0
40
1
40
1
40
1
40
1
41
1
10
30.4132666383012
20
-2.44039670058439
30
0
41
1
10
30.3584840729689
20
-2.47697746621341
30
0
41
1
10
30.3025065336128
20
-2.51176792862611
30
0
41
1
10
30.2454534225674
20
-2.5446939380551
30
0
0
SPLINE
5
F1
100
AcDbEntity
8
1
62
256
6
ByLayer
370
18
48
1
60
0
100
AcDbSpline
70
4
71
5
72
12
73
6
40
0
40
0
40
0
40
0
40
0
40
0
40
1
40
1
40
1
40
1
40
1
40
1
41
1
10
28.7329724468977
20
-2.95000001091324
30
0
41
1
10
29.0497469326677
20
-2.94999896938325
30
0
41
1
10
29.3665221221977
20
-2.90853595338325
30
0
41
1
10
29.6760578570177
20
-2.82559627014325
30
0
41
1
10
29.9711248719977
20
-2.70311705034325
30
0
41
1
10
30.2454603350577
20
-2.54473104001323
30
0
0
SPLINE
5
F2
100
AcDbEntity
8
1
62
256
6
ByLayer
370
18
48
1
60
0
100
AcDbSpline
70
4
71
3
72
14
73
10
40
0
40
0
40
0
40
0
40
0.256098363414984
40
0.256098363414984
40
0.512196726829967
40
0.512196726829967
40
0.768295090244951
40
0.768295090244951
40
1
40
1
40
1
40
1
41
1
10
28.7329675858277
20
-2.9500000133888
30
0
41
1
10
28.5349817996584
20
-2.9500000129423
30
0
41
1
10
28.3370009091222
20
-2.93050059682827
30
0
41
1
10
27.9486378196261
20
-2.85325037472123
30
0
41
1
10
27.7582652237088
20
-2.79550147889216
30
0
41
1
10
27.392435192661
20
-2.64396971825997
30
0
41
1
10
27.2169868033991
20
-2.55019060037816
30
0
41
1
10
26.9034285034143
20
-2.34067764270244
30
0
41
1
10
26.7633605318439
20
-2.2278902729993
30
0
41
1
10
26.6343465332038
20
-2.10362486734033
30
0
0
SPLINE
5
F3
100
AcDbEntity
8
1
62
256
6
ByLayer
370
18
48
1
60
0
100
AcDbSpline
70
4
71
3
72
8
73
4
40
0
40
0
40
0
40
0
40
1
40
1
40
1
40
1
41
1
10
45.955543725248
20
-2.033447763982
30
0
41
1
10
45.9363910140621
20
-2.02785369885527
30
0
41
1
10
45.9164474753412
20
-2.02500001373511
30
0
41
1
10
45.8965098870777
20
-2.02500001349404
30
0
0
SPLINE
5
F4
100
AcDbEntity
8
1
62
256
6
ByLayer
370
18
48
1
60
0
100
AcDbSpline
70
4
71
2
72
6
73
3
40
0
40
0
40
0
40
1
40
1
40
1
41
1
10
45.9555437252477
20
2.18344773691669
30
0
41
1
10
45.9265955923207
20
2.17507532124117
30
0
41
1
10
45.8965098870777
20
2.17499998642668
30
0
0
SPLINE
5
F5
100
AcDbEntity
8
1
62
256
6
ByLayer
370
18
48
1
60
0
100
AcDbSpline
70
4
71
1
72
4
73
2
40
0
40
0
40
1
40
1
41
1
10
43.3541212600995
20
1.93371364117925
30
0
41
1
10
43.3556415718205
20
1.91634901366831
30
0
0
SPLINE
5
F6
100
AcDbEntity
8
1
62
256
6
ByLayer
370
18
48
1
60
0
100
AcDbSpline
70
4
71
1
72
4
73
2
40
0
40
0
40
1
40
1
41
1
10
43.5659263938116
20
0.724933819486978
30
0
41
1
10
43.5856589685083
20
0.680664872845114
30
0
0
SPLINE
5
F7
100
AcDbEntity
8
1
62
256
6
ByLayer
370
18
48
1
60
0
100
AcDbSpline
70
4
71
3
72
14
73
10
40
0
40
0
40
0
40
0
40
0.0944060490508948
40
0.209208202273096
40
0.344413017645339
40
0.500023246074653
40
0.702942592168684
40
0.869599374716027
40
1
40
1
40
1
40
1
41
1
10
43.6980862311176
20
0.558085338289658
30
0
41
1
10
43.696782206382
20
0.558716486809629
30
0
41
1
10
43.6938924268246
20
0.56011514132976
30
0
41
1
10
43.6892193528164
20
0.562799974906454
30
0
41
1
10
43.6837531647763
20
0.566347656065034
30
0
41
1
10
43.677157815842
20
0.571238585406292
30
0
41
1
10
43.6701302674951
20
0.577119159732405
30
0
41
1
10
43.6633824655123
20
0.58326080697924
30
0
41
1
10
43.6592877104772
20
0.587171055224815
30
0
41
1
10
43.6574902174576
20
0.588887554469721
30
0
0
SPLINE
5
F8
100
AcDbEntity
8
1
62
256
6
ByLayer
370
18
48
1
60
0
100
AcDbSpline
70
4
71
3
72
14
73
10
40
0
40
0
40
0
40
0
40
0.0939014673073524
40
0.208535488451734
40
0.343902001358833
40
0.500000920931352
40
0.7035246670226
40
0.870191140322437
40
1
40
1
40
1
40
1
41
1
10
43.8569130080172
20
0.502732510168727
30
0
41
1
10
43.8519374520934
20
0.504198899324905
30
0
41
1
10
43.8408877846639
20
0.507455442462287
30
0
41
1
10
43.8226789342058
20
0.513097822538782
30
0
41
1
10
43.8011827049514
20
0.520049555518767
30
0
41
1
10
43.7749903846223
20
0.528961453585254
30
0
41
1
10
43.7471399130363
20
0.53900698415535
30
0
41
1
10
43.720671775008
20
0.549063010904462
30
0
41
1
10
43.7049638112861
20
0.555337926893372
30
0
41
1
10
43.6980862311579
20
0.558085338224032
30
0
0
SPLINE
5
F9
100
AcDbEntity
8
1
62
256
6
ByLayer
370
18
48
1
60
0
100
AcDbSpline
70
4
71
2
72
10
73
7
40
0
40
0
40
0
40
0.5
40
0.5
40
0.75
40
0.75
40
1
40
1
40
1
41
1
10
43.8569130081579
20
0.502732510204709
30
0
41
1
10
43.9249391386497
20
0.482858076678355
30
0
41
1
10
43.9722082729415
20
0.43145495347656
30
0
41
1
10
43.9982600664389
20
0.4031247635792
30
0
41
1
10
44.0148984067479
20
0.367331783190792
30
0
41
1
10
44.0328000784753
20
0.328821080010329
30
0
41
1
10
44.0369137897879
20
0.2857355734387
30
0
0
SPLINE
5
FA
100
AcDbEntity
8
1
62
256
6
ByLayer
370
18
48
1
60
0
100
AcDbSpline
70
4
71
1
72
4
73
2
40
0
40
0
40
1
40
1
41
1
10
44.0369137898285
20
0.28573557351109
30
0
41
1
10
44.0458285522431
20
0.0949999871505156
30
0
0
SPLINE
5
FB
100
AcDbEntity
8
1
62
256
6
ByLayer
370
18
48
1
60
0
100
AcDbSpline
70
4
71
3
72
14
73
10
40
0
40
0
40
0
40
0
40
0.093877052317916
40
0.208503011710428
40
0.343877770738883
40
0.500001202556759
40
0.703553796789368
40
0.870220227034351
40
1
40
1
40
1
40
1
41
1
10
44.0369137896827
20
-0.135735600577704
30
0
41
1
10
44.0371930618593
20
-0.129783020778064
30
0
41
1
10
44.0378133315465
20
-0.116562209248258
30
0
41
1
10
44.0388353337009
20
-0.0947346083013088
30
0
41
1
10
44.0400419033422
20
-0.0689352146266344
30
0
41
1
10
44.0415119976036
20
-0.0374597713760636
30
0
41
1
10
44.0430751557013
20
-0.0039683002310653
30
0
41
1
10
44.0445607294155
20
0.0278618615183746
30
0
41
1
10
44.0454425180452
20
0.046736811311149
30
0
41
1
10
44.0458285520943
20
0.0549999857836667
30
0
0
SPLINE
5
FC
100
AcDbEntity
8
1
62
256
6
ByLayer
370
18
48
1
60
0
100
AcDbSpline
70
4
71
3
72
39
73
35
40
0
40
0
40
0
40
0
40
0.0308962441128828
40
0.0611861637051916
40
0.0908706857963396
40
0.119950795355635
40
0.148427540122454
40
0.176302035927526
40
0.203575472574116
40
0.230249120352197
40
0.25632433726511
40
0.281802577061517
40
0.306685398178356
40
0.330974473718726
40
0.354671602604052
40
0.377778722064735
40
0.400297921656919
40
0.422231459024278
40
0.443581777658611
40
0.464351526952773
40
0.484543584889351
40
0.504161083762709
40
0.55145203229728
40
0.597456156678689
40
0.642223400094527
40
0.685807957984752
40
0.728268554709739
40
0.769668697820263
40
0.810076895194334
40
0.849566817612251
40
0.888217387129929
40
0.926112770381159
40
0.963342256272428
40
1
40
1
40
1
40
1
41
1
10
43.8569130079977
20
-0.352732537271294
30
0
41
1
10
43.8594436371294
20
-0.351978123190577
30
0
41
1
10
43.8644552329648
20
-0.350484100057031
30
0
41
1
10
43.8718449889211
20
-0.3479505663731
30
0
41
1
10
43.8790463348314
20
-0.345244872463411
30
0
41
1
10
43.8860556861248
20
-0.34235753137358
30
0
41
1
10
43.8928739767316
20
-0.339306808170534
30
0
41
1
10
43.8995009665872
20
-0.336103501716281
30
0
41
1
10
43.9059367207414
20
-0.332760068066335
30
0
41
1
10
43.9121812252846
20
-0.329288226731478
30
0
41
1
10
43.9182344870487
20
-0.325699560012111
30
0
41
1
10
43.9240965077648
20
-0.322005338261704
30
0
41
1
10
43.9297672908205
20
-0.318216548380121
30
0
41
1
10
43.9352468394235
20
-0.314343871955231
30
0
41
1
10
43.9405351575251
20
-0.310397678895725
30
0
41
1
10
43.9456322481199
20
-0.306388018481499
30
0
41
1
10
43.9505381190946
20
-0.302324615662542
30
0
41
1
10
43.9552527624662
20
-0.298216858711413
30
0
41
1
10
43.9597762289704
20
-0.294073823880439
30
0
41
1
10
43.964108360902
20
-0.289904173946951
30
0
41
1
10
43.9682497488128
20
-0.285716514243631
30
0
41
1
10
43.9740931996329
20
-0.279503332389282
30
0
41
1
10
43.9814275306009
20
-0.271030211723627
30
0
41
1
10
43.9899548932306
20
-0.259961866710313
30
0
41
1
10
43.9977873650091
20
-0.248516955639275
30
0
41
1
10
44.0049258129344
20
-0.236741179549597
30
0
41
1
10
44.0113699067913
20
-0.224678857520473
30
0
41
1
10
44.0171194630325
20
-0.212374002772265
30
0
41
1
10
44.0221746708896
20
-0.199869965391002
30
0
41
1
10
44.0265339652941
20
-0.187208967022201
30
0
41
1
10
44.0302020419283
20
-0.174433459983646
30
0
41
1
10
44.0331607981802
20
-0.161580593504567
30
0
41
1
10
44.0354747660714
20
-0.148701804435092
30
0
41
1
10
44.0364365960076
20
-0.140035314607076
30
0
41
1
10
44.0369137896377
20
-0.135735600505285
30
0
0
SPLINE
5
FD
100
AcDbEntity
8
1
62
256
6
ByLayer
370
18
48
1
60
0
100
AcDbSpline
70
4
71
1
72
4
73
2
40
0
40
0
40
1
40
1
41
1
10
43.8569130081892
20
-0.352732537238438
30
0
41
1
10
43.6980862313431
20
-0.408085365303379
30
0
0
SPLINE
5
FE
100
AcDbEntity
8
1
62
256
6
ByLayer
370
18
48
1
60
0
100
AcDbSpline
70
4
71
1
72
4
73
2
40
0
40
0
40
1
40
1
41
1
10
43.6980862313077
20
-0.408085365242357
30
0
41
1
10
43.6574902176514
20
-0.438887581567826
30
0
0
SPLINE
5
FF
100
AcDbEntity
8
1
62
256
6
ByLayer
370
18
48
1
60
0
100
AcDbSpline
70
4
71
3
72
14
73
10
40
0
40
0
40
0
40
0
40
0.093887083073051
40
0.208520560734393
40
0.343901429075783
40
0.500028761929741
40
0.703556412790521
40
0.870215267217161
40
1
40
1
40
1
40
1
41
1
10
43.565926393634
20
-0.574933846519002
30
0
41
1
10
43.5665601795236
20
-0.573435342808239
30
0
41
1
10
43.5679678000903
20
-0.570107208374736
30
0
41
1
10
43.5702372227971
20
-0.564671215865218
30
0
41
1
10
43.5728947444416
20
-0.558349269722413
30
0
41
1
10
43.5760984905666
20
-0.550824388712897
30
0
41
1
10
43.579512062135
20
-0.543141599324002
30
0
41
1
10
43.5827893145471
20
-0.536199823822614
30
0
41
1
10
43.5847851708092
20
-0.532350261104284
30
0
41
1
10
43.5856589683303
20
-0.530664900076829
30
0
0
SPLINE
5
100
100
AcDbEntity
8
1
62
256
6
ByLayer
370
18
48
1
60
0
100
AcDbSpline
70
4
71
3
72
8
73
4
40
0
40
0
40
0
40
0
40
1
40
1
40
1
40
1
41
1
10
43.3541212604231
20
-1.78371373891261
30
0
41
1
10
43.3546280308968
20
-1.77790776885686
30
0
41
1
10
43.3551348013705
20
-1.77210206587213
30
0
41
1
10
43.3556415718442
20
-1.76638429877173
30
0
0
SPLINE
5
101
100
AcDbEntity
8
1
62
256
6
ByLayer
370
18
48
1
60
0
100
AcDbSpline
70
4
71
3
72
37
73
33
40
0
40
0
40
0
40
0
40
0.125000000000017
40
0.125000000000017
40
0.250000000000034
40
0.250000000000034
40
0.375000000000052
40
0.375000000000052
40
0.437500000000075
40
0.437500000000075
40
0.500000000000097
40
0.500000000000097
40
0.56250000000012
40
0.56250000000012
40
0.625000000000143
40
0.625000000000143
40
0.687500000000166
40
0.687500000000166
40
0.718750000000175
40
0.718750000000175
40
0.750000000000184
40
0.750000000000184
40
0.812500000000132
40
0.812500000000132
40
0.843750000000112
40
0.843750000000112
40
0.875000000000092
40
0.906250000000072
40
0.906250000000072
40
0.937500000000052
40
0.937500000000052
40
1
40
1
40
1
40
1
41
1
10
10.1264476491679
20
-2.84E-14
30
0
41
1
10
10.1264476491679
20
-0.0364408487404262
30
0
41
1
10
10.1278728627438
20
-0.0729184444004716
30
0
41
1
10
10.1336473733163
20
-0.145547100225002
30
0
41
1
10
10.1380019787738
20
-0.181778733278321
30
0
41
1
10
10.1498824160787
20
-0.2535795521637
30
0
41
1
10
10.1574219909281
20
-0.289249648561935
30
0
41
1
10
10.1714682377786
20
-0.341851432506559
30
0
41
1
10
10.1766088461631
20
-0.359239956645325
30
0
41
1
10
10.1879238620855
20
-0.393686399949445
30
0
41
1
10
10.1940991785161
20
-0.410741219821915
30
0
41
1
10
10.2075543319971
20
-0.444230205188518
30
0
41
1
10
10.2148412871651
20
-0.460692323545828
30
0
41
1
10
10.2307440735832
20
-0.492938255857183
30
0
41
1
10
10.239385179949
20
-0.508756134596837
30
0
41
1
10
10.2580130480519
20
-0.539058664674741
30
0
41
1
10
10.2680196803898
20
-0.553599394555647
30
0
41
1
10
10.2843238276952
20
-0.574253234840057
30
0
41
1
10
10.2899754943448
20
-0.580943805367809
30
0
41
1
10
10.3017780263445
20
-0.593875378118156
30
0
41
1
10
10.3079600261822
20
-0.6001434412984
30
0
41
1
10
10.3270651721908
20
-0.617859821202046
30
0
41
1
10
10.3405677068685
20
-0.628285028836757
30
0
41
1
10
10.3622490356035
20
-0.641288561201378
30
0
41
1
10
10.3697741156281
20
-0.645203367875695
30
0
41
1
10
10.3850246798963
20
-0.651859391919544
30
0
41
1
10
10.4004710078532
20
-0.657361626858432
30
0
41
1
10
10.4163164345304
20
-0.660462789820002
30
0
41
1
10
10.4323696136023
20
-0.662293607965609
30
0
41
1
10
10.4404280518555
20
-0.662555030298279
30
0
41
1
10
10.4641128811541
20
-0.661459508422666
30
0
41
1
10
10.4794883189999
20
-0.658266782966166
30
0
41
1
10
10.4944910068691
20
-0.652870758576398
30
0
0
SPLINE
5
102
100
AcDbEntity
8
1
62
256
6
ByLayer
370
18
48
1
60
0
100
AcDbSpline
70
4
71
3
72
35
73
31
40
0
40
0
40
0
40
0
40
0.124999999999958
40
0.124999999999958
40
0.249999999999916
40
0.249999999999916
40
0.374999999999873
40
0.374999999999873
40
0.437499999999817
40
0.437499999999817
40
0.499999999999762
40
0.499999999999762
40
0.624999999999716
40
0.624999999999716
40
0.687499999999718
40
0.687499999999718
40
0.718749999999736
40
0.718749999999736
40
0.749999999999754
40
0.749999999999754
40
0.812499999999815
40
0.812499999999815
40
0.843749999999846
40
0.843749999999846
40
0.874999999999878
40
0.90624999999991
40
0.90624999999991
40
0.937499999999941
40
0.937499999999941
40
1
40
1
40
1
40
1
41
1
10
11.5297976491679
20
-2.43067350080182
30
0
41
1
10
11.4982572998807
20
-2.41246367165056
30
0
41
1
10
11.4673632230477
20
-2.39298128927973
30
0
41
1
10
11.4073592658869
20
-2.3516713961213
30
0
41
1
10
11.3782392557707
20
-2.32984802469633
30
0
41
1
10
11.3219482918818
20
-2.28362435383056
30
0
41
1
10
11.2948645880072
20
-2.25929407393178
30
0
41
1
10
11.2563700586969
20
-2.22087634152126
30
0
41
1
10
11.2438843219317
20
-2.20773842442603
30
0
41
1
10
11.2196978726408
20
-2.18071216698269
30
0
41
1
10
11.2079986961236
20
-2.1668226475247
30
0
41
1
10
11.1745193961101
20
-2.12415343228136
30
0
41
1
10
11.1541636532382
20
-2.09419133952028
30
0
41
1
10
11.1286874689287
20
-2.04710060677232
30
0
41
1
10
11.1210047637995
20
-2.03095389028411
30
0
41
1
10
11.1112308289954
20
-2.00632323323711
30
0
41
1
10
11.1082631055557
20
-1.99804309568211
30
0
41
1
10
11.1029873449642
20
-1.98132656710572
30
0
41
1
10
11.1006738158711
20
-1.97286069269427
30
0
41
1
10
11.0949480470607
20
-1.94752347895445
30
0
41
1
10
11.0927087816622
20
-1.93066173379671
30
0
41
1
10
11.0923359786472
20
-1.90544990923664
30
0
41
1
10
11.0927229359366
20
-1.89699830494152
30
0
41
1
10
11.0946074162647
20
-1.88051610260479
30
0
41
1
10
11.0975835942256
20
-1.86443931510766
30
0
41
1
10
11.1028284088268
20
-1.84921364601757
30
0
41
1
10
11.1092714739295
20
-1.83444107125734
30
0
41
1
10
11.1130704509882
20
-1.82735664974376
30
0
41
1
10
11.1258435734701
20
-1.80745663986997
30
0
41
1
10
11.1362736533091
20
-1.79577134708964
30
0
41
1
10
11.1484166657033
20
-1.78550322405025
30
0
0
SPLINE
5
103
100
AcDbEntity
8
1
62
256
6
ByLayer
370
18
48
1
60
0
100
AcDbSpline
70
4
71
3
72
50
73
46
40
0
40
0
40
0
40
0
40
0.0312499999999853
40
0.0312499999999853
40
0.0624999999999707
40
0.0624999999999707
40
0.0937499999999561
40
0.0937499999999561
40
0.124999999999942
40
0.124999999999942
40
0.156249999999927
40
0.156249999999927
40
0.187499999999912
40
0.187499999999912
40
0.218749999999898
40
0.218749999999898
40
0.249999999999883
40
0.249999999999883
40
0.312499999999892
40
0.312499999999892
40
0.374999999999901
40
0.374999999999901
40
0.437499999999911
40
0.437499999999911
40
0.49999999999992
40
0.49999999999992
40
0.624999999999938
40
0.624999999999938
40
0.687499999999946
40
0.687499999999946
40
0.749999999999954
40
0.749999999999954
40
0.812499999999962
40
0.812499999999962
40
0.843749999999969
40
0.843749999999969
40
0.874999999999975
40
0.874999999999975
40
0.906249999999981
40
0.906249999999981
40
0.937499999999987
40
0.937499999999987
40
0.968749999999994
40
0.968749999999994
40
1
40
1
40
1
40
1
41
1
10
10.5144910068691
20
-0.651498961765554
30
0
41
1
10
10.5281589576911
20
-0.650561479198103
30
0
41
1
10
10.5418536549517
20
-0.651085119359266
30
0
41
1
10
10.5692949719315
20
-0.654466589061769
30
0
41
1
10
10.5830279284089
20
-0.657337560120851
30
0
41
1
10
10.6101112802383
20
-0.66491019765752
30
0
41
1
10
10.6235584198794
20
-0.669637318738381
30
0
41
1
10
10.6499929323301
20
-0.680535790125248
30
0
41
1
10
10.663002834789
20
-0.686710684362737
30
0
41
1
10
10.688684368501
20
-0.70029136910091
30
0
41
1
10
10.7013308850436
20
-0.707687854877406
30
0
41
1
10
10.7261412374311
20
-0.723431247354796
30
0
41
1
10
10.7383307477554
20
-0.731792488431267
30
0
41
1
10
10.7623380557019
20
-0.749385205588965
30
0
41
1
10
10.7741594851485
20
-0.75862251195295
30
0
41
1
10
10.7973186812129
20
-0.777762356754465
30
0
41
1
10
10.8086776933895
20
-0.787680157151556
30
0
41
1
10
10.8421613614207
20
-0.81838986358963
30
0
41
1
10
10.8637496498061
20
-0.840194931360855
30
0
41
1
10
10.9051656866957
20
-0.885629692470786
30
0
41
1
10
10.9250289088051
20
-0.909286328020698
30
0
41
1
10
10.963227669782
20
-0.958333954632366
30
0
41
1
10
10.9815198342601
20
-0.983681441158097
30
0
41
1
10
11.0162927681137
20
-1.03552989888911
30
0
41
1
10
11.0328221125103
20
-1.06209458610422
30
0
41
1
10
11.079829497151
20
-1.14365108836981
30
0
41
1
10
11.1072360822514
20
-1.1995161270788
30
0
41
1
10
11.1421036750958
20
-1.28571952477515
30
0
41
1
10
11.1526922176502
20
-1.31495490957167
30
0
41
1
10
11.1711814670207
20
-1.37332842931659
30
0
41
1
10
11.1791343626983
20
-1.4025689202424
30
0
41
1
10
11.192119460561
20
-1.46122323066984
30
0
41
1
10
11.197160841827
20
-1.49063598294964
30
0
41
1
10
11.2019964194672
20
-1.53496684220212
30
0
41
1
10
11.2031491280787
20
-1.54982441271673
30
0
41
1
10
11.2043680693801
20
-1.57920522762225
30
0
41
1
10
11.2044419467725
20
-1.59376737706427
30
0
41
1
10
11.2033659590408
20
-1.62261319924994
30
0
41
1
10
11.2022175959839
20
-1.63689716540665
30
0
41
1
10
11.1984616138946
20
-1.66514805350999
30
0
41
1
10
11.1958437577288
20
-1.67916662108812
30
0
41
1
10
11.1888215573046
20
-1.70659321568763
30
0
41
1
10
11.184463170276
20
-1.7198443028106
30
0
41
1
10
11.1737055430277
20
-1.74525067843098
30
0
41
1
10
11.1673120668107
20
-1.75740907709613
30
0
41
1
10
11.1596046765908
20
-1.76886861437939
30
0
0
SPLINE
5
104
100
AcDbEntity
8
1
62
256
6
ByLayer
370
18
48
1
60
0
100
AcDbSpline
70
4
71
3
72
8
73
4
40
0
40
0
40
0
40
0
40
1
40
1
40
1
40
1
41
1
10
10.4944910068691
20
-0.652870758576398
30
0
41
1
10
10.5011574302647
20
-0.652413509658714
30
0
41
1
10
10.5078240950309
20
-0.651956244185442
30
0
41
1
10
10.5144910068691
20
-0.651498961765554
30
0
0
SPLINE
5
105
100
AcDbEntity
8
1
62
256
6
ByLayer
370
18
48
1
60
0
100
AcDbSpline
70
4
71
3
72
8
73
4
40
0
40
0
40
0
40
0
40
1
40
1
40
1
40
1
41
1
10
11.1484166657033
20
-1.78550322405025
30
0
41
1
10
11.1521458665797
20
-1.7799585564961
30
0
41
1
10
11.1558752024789
20
-1.77441368818668
30
0
41
1
10
11.1596046765904
20
-1.76886861438001
30
0
0
SPLINE
5
106
100
AcDbEntity
8
1
62
256
6
ByLayer
370
18
48
1
60
0
100
AcDbSpline
70
4
71
3
72
35
73
31
40
0
40
0
40
0
40
0
40
0.125000000000021
40
0.125000000000021
40
0.250000000000043
40
0.250000000000043
40
0.375000000000064
40
0.375000000000064
40
0.437500000000076
40
0.437500000000076
40
0.500000000000088
40
0.500000000000088
40
0.62500000000011
40
0.62500000000011
40
0.687500000000122
40
0.687500000000122
40
0.718750000000079
40
0.718750000000079
40
0.750000000000036
40
0.750000000000036
40
0.812500000000035
40
0.812500000000035
40
0.84375000000003
40
0.84375000000003
40
0.875000000000025
40
0.90625000000002
40
0.90625000000002
40
0.937500000000015
40
0.937500000000015
40
1
40
1
40
1
40
1
41
1
10
14.3364976491679
20
-2.43067350080182
30
0
41
1
10
14.3049572998807
20
-2.44888332995311
30
0
41
1
10
14.2726380234049
20
-2.46589719413151
30
0
41
1
10
14.2068606279217
20
-2.49720719878118
30
0
41
1
10
14.1734010288133
20
-2.51151418158773
30
0
41
1
10
14.1052246736429
20
-2.53715175088618
30
0
41
1
10
14.0706121812321
20
-2.54844178652076
30
0
41
1
10
14.0180941843535
20
-2.56257016060499
30
0
41
1
10
14.0004735460137
20
-2.566814167281
30
0
41
1
10
13.9649748958531
20
-2.57424711807258
30
0
41
1
10
13.9470966308976
20
-2.57743414241082
30
0
41
1
10
13.8934043565304
20
-2.58509345910187
30
0
41
1
10
13.8572785516129
20
-2.5877410031612
30
0
41
1
10
13.8037586886157
20
-2.5862586595907
30
0
41
1
10
13.7859338693846
20
-2.58483871915831
30
0
41
1
10
13.759716127268
20
-2.58098786647003
30
0
41
1
10
13.7510614560786
20
-2.57941792158277
30
0
41
1
10
13.7339466373726
20
-2.57562859999109
30
0
41
1
10
13.7254582105205
20
-2.57339923775234
30
0
41
1
10
13.7006526553555
20
-2.5656892921285
30
0
41
1
10
13.6849303229975
20
-2.55919768027061
30
0
41
1
10
13.6629098409452
20
-2.54691462487213
30
0
41
1
10
13.6557840155676
20
-2.54235370788169
30
0
41
1
10
13.6424522497977
20
-2.53248059887631
30
0
41
1
10
13.6300175745737
20
-2.52186464076482
30
0
41
1
10
13.6194540234734
20
-2.50970978217958
30
0
41
1
10
13.609882131003
20
-2.49674363674234
30
0
41
1
10
13.6056463305305
20
-2.48991141534432
30
0
41
1
10
13.5947989776852
20
-2.46889956185245
30
0
41
1
10
13.5898942572062
20
-2.45402420135824
30
0
41
1
10
13.5870733080021
20
-2.43837398262664
30
0
0
SPLINE
5
107
100
AcDbEntity
8
1
62
256
6
ByLayer
370
18
48
1
60
0
100
AcDbSpline
70
4
71
3
72
52
73
48
40
0
40
0
40
0
40
0
40
0.0156249999999966
40
0.0156249999999966
40
0.0312499999999931
40
0.0312499999999931
40
0.0625000000000094
40
0.0625000000000094
40
0.0937500000000256
40
0.0937500000000256
40
0.125000000000042
40
0.125000000000042
40
0.187500000000073
40
0.187500000000073
40
0.218750000000064
40
0.218750000000064
40
0.250000000000056
40
0.250000000000056
40
0.312500000000039
40
0.312500000000039
40
0.375000000000023
40
0.375000000000023
40
0.437500000000006
40
0.437500000000006
40
0.49999999999999
40
0.49999999999999
40
0.562499999999974
40
0.562499999999974
40
0.624999999999957
40
0.624999999999957
40
0.687499999999941
40
0.687499999999941
40
0.749999999999925
40
0.749999999999925
40
0.812499999999909
40
0.812499999999909
40
0.843749999999924
40
0.843749999999924
40
0.874999999999939
40
0.874999999999939
40
0.906249999999954
40
0.906249999999954
40
0.937499999999969
40
0.937499999999969
40
0.968749999999985
40
0.968749999999985
40
1
40
1
40
1
40
1
41
1
10
13.5782613188888
20
-2.42036757614486
30
0
41
1
10
13.5752466751929
20
-2.41420745734692
30
0
41
1
10
13.5719024976648
20
-2.40821241873655
30
0
41
1
10
13.5646228892655
20
-2.39651733542272
30
0
41
1
10
13.5606777718008
20
-2.39080725601201
30
0
41
1
10
13.5481836632598
20
-2.37426543961831
30
0
41
1
10
13.5389470939748
20
-2.36395133423216
30
0
41
1
10
13.5190301612906
20
-2.34444420626505
30
0
41
1
10
13.5083465469687
20
-2.33525375527157
30
0
41
1
10
13.4857465341284
20
-2.3178130364945
30
0
41
1
10
13.4738655194811
20
-2.30959723391484
30
0
41
1
10
13.4370974979226
20
-2.28645819268573
30
0
41
1
10
13.410865877081
20
-2.27288106004096
30
0
41
1
10
13.3701315216097
20
-2.25490525378979
30
0
41
1
10
13.3563003162001
20
-2.24930405245308
30
0
41
1
10
13.3281739520469
20
-2.23880093027014
30
0
41
1
10
13.3138644848668
20
-2.23389595816335
30
0
41
1
10
13.2705455689227
20
-2.22022454919943
30
0
41
1
10
13.2410699806104
20
-2.21246091323229
30
0
41
1
10
13.1810423228972
20
-2.19926715447499
30
0
41
1
10
13.1505403353983
20
-2.19385854131176
30
0
41
1
10
13.0891532386415
20
-2.18528297277868
30
0
41
1
10
13.0581693106294
20
-2.18209850827847
30
0
41
1
10
12.9957640947628
20
-2.17785251302192
30
0
41
1
10
12.9644891012259
20
-2.17679988111564
30
0
41
1
10
12.9017956305748
20
-2.17680011890448
30
0
41
1
10
12.8705368913049
20
-2.17785300340265
30
0
41
1
10
12.8081963225415
20
-2.18209284645931
30
0
41
1
10
12.7771268116346
20
-2.18528365887471
30
0
41
1
10
12.7156545082945
20
-2.19387402120998
30
0
41
1
10
12.6851292401217
20
-2.19929123322444
30
0
41
1
10
12.6251321475806
20
-2.21248452043648
30
0
41
1
10
12.5955936819439
20
-2.22026701835159
30
0
41
1
10
12.5377682936979
20
-2.23853025940369
30
0
41
1
10
12.5096583612001
20
-2.24894542921467
30
0
41
1
10
12.4689051694098
20
-2.26693668870249
30
0
41
1
10
12.4555367619558
20
-2.27334384426229
30
0
41
1
10
12.4295152738132
20
-2.28698661436792
30
0
41
1
10
12.416846535755
20
-2.29422651626592
30
0
41
1
10
12.3922934865539
20
-2.3096876881153
30
0
41
1
10
12.3804345975575
20
-2.31789556552204
30
0
41
1
10
12.3578635166981
20
-2.33532515624754
30
0
41
1
10
12.3470953550254
20
-2.34458989396384
30
0
41
1
10
12.3270367303515
20
-2.36427750021989
30
0
41
1
10
12.3178218868033
20
-2.37461831849768
30
0
41
1
10
12.3013378773118
20
-2.39650488229637
30
0
41
1
10
12.2940632918653
20
-2.40804728740906
30
0
41
1
10
12.2880339794466
20
-2.42036757614551
30
0
0
SPLINE
5
108
100
AcDbEntity
8
1
62
256
6
ByLayer
370
18
48
1
60
0
100
AcDbSpline
70
4
71
3
72
8
73
4
40
0
40
0
40
0
40
0
40
1
40
1
40
1
40
1
41
1
10
12.2880339794466
20
-2.42036757614554
30
0
41
1
10
12.2850965417199
20
-2.4263699323721
30
0
41
1
10
12.2821592128529
20
-2.43237206615478
30
0
41
1
10
12.2792219903337
20
-2.43837398262664
30
0
0
SPLINE
5
109
100
AcDbEntity
8
1
62
256
6
ByLayer
370
18
48
1
60
0
100
AcDbSpline
70
4
71
3
72
35
73
31
40
0
40
0
40
0
40
0
40
0.125000000000093
40
0.125000000000093
40
0.250000000000186
40
0.250000000000186
40
0.375000000000278
40
0.375000000000278
40
0.500000000000371
40
0.500000000000371
40
0.562500000000371
40
0.562500000000371
40
0.62500000000037
40
0.62500000000037
40
0.687500000000369
40
0.687500000000369
40
0.718750000000326
40
0.718750000000326
40
0.750000000000283
40
0.750000000000283
40
0.812500000000203
40
0.812500000000203
40
0.843750000000165
40
0.843750000000165
40
0.875000000000127
40
0.906250000000088
40
0.906250000000088
40
0.93750000000005
40
0.93750000000005
40
1
40
1
40
1
40
1
41
1
10
11.5297976491679
20
-2.43067350080182
30
0
41
1
10
11.5613372898498
20
-2.44888292083968
30
0
41
1
10
11.593616039675
20
-2.46587697738647
30
0
41
1
10
11.6594403795911
20
-2.49721050481418
30
0
41
1
10
11.692899284079
20
-2.51151520056479
30
0
41
1
10
11.7610146192468
20
-2.53713155624803
30
0
41
1
10
11.7956859117003
20
-2.54844645116722
30
0
41
1
10
11.8659101524603
20
-2.56733031592651
30
0
41
1
10
11.9014810554251
20
-2.574915641075
30
0
41
1
10
11.9551871676108
20
-2.58256346588294
30
0
41
1
10
11.97312046549
20
-2.58448377228518
30
0
41
1
10
12.0090546065133
20
-2.58682798716268
30
0
41
1
10
12.0270118176169
20
-2.58724469202389
30
0
41
1
10
12.0625036229831
20
-2.58625746632828
30
0
41
1
10
12.0800881263703
20
-2.58486146704905
30
0
41
1
10
12.1061471942854
20
-2.58105973069658
30
0
41
1
10
12.1147802414964
20
-2.57950611890456
30
0
41
1
10
12.1319204755255
20
-2.57573502144436
30
0
41
1
10
12.1404355033009
20
-2.5735111179759
30
0
41
1
10
12.165287178339
20
-2.56582476797763
30
0
41
1
10
12.181088391086
20
-2.55933535358156
30
0
41
1
10
12.2032885416795
20
-2.5469768561627
30
0
41
1
10
12.2104168619573
20
-2.54241503959827
30
0
41
1
10
12.2236944432875
20
-2.53259908909581
30
0
41
1
10
12.2361008077894
20
-2.52203518489694
30
0
41
1
10
12.246676326733
20
-2.50991000149699
30
0
41
1
10
12.256273706967
20
-2.49695504520636
30
0
41
1
10
12.2605491590395
20
-2.49008536568354
30
0
41
1
10
12.2714660128701
20
-2.46899643111996
30
0
41
1
10
12.2763926676144
20
-2.45407065641086
30
0
41
1
10
12.2792219903336
20
-2.43837398262664
30
0
0
SPLINE
5
10A
100
AcDbEntity
8
1
62
256
6
ByLayer
370
18
48
1
60
0
100
AcDbSpline
70
4
71
3
72
8
73
4
40
0
40
0
40
0
40
0
40
1
40
1
40
1
40
1
41
1
10
13.5870733080021
20
-2.43837398262664
30
0
41
1
10
13.5841360854829
20
-2.43237206615478
30
0
41
1
10
13.5811987566159
20
-2.4263699323721
30
0
41
1
10
13.5782613188891
20
-2.42036757614551
30
0
0
SPLINE
5
10B
100
AcDbEntity
8
1
62
256
6
ByLayer
370
18
48
1
60
0
100
AcDbSpline
70
4
71
3
72
35
73
31
40
0
40
0
40
0
40
0
40
0.125000000000004
40
0.125000000000004
40
0.250000000000008
40
0.250000000000008
40
0.375000000000012
40
0.375000000000012
40
0.437500000000015
40
0.437500000000015
40
0.500000000000018
40
0.500000000000018
40
0.625000000000022
40
0.625000000000022
40
0.687500000000024
40
0.687500000000024
40
0.718750000000026
40
0.718750000000026
40
0.750000000000028
40
0.750000000000028
40
0.812500000000028
40
0.812500000000028
40
0.843750000000023
40
0.843750000000023
40
0.875000000000019
40
0.906250000000014
40
0.906250000000014
40
0.937500000000009
40
0.937500000000009
40
1
40
1
40
1
40
1
41
1
10
11.5297976491679
20
2.43067350080176
30
0
41
1
10
11.5613379984551
20
2.44888332995302
30
0
41
1
10
11.5936572749309
20
2.46589719413143
30
0
41
1
10
11.6594346704142
20
2.4972071987811
30
0
41
1
10
11.6928942695225
20
2.51151418158767
30
0
41
1
10
11.7610706246929
20
2.5371517508861
30
0
41
1
10
11.7956831171037
20
2.54844178652067
30
0
41
1
10
11.8482011139822
20
2.56257016060491
30
0
41
1
10
11.865821752322
20
2.56681416728091
30
0
41
1
10
11.9013204024826
20
2.57424711807249
30
0
41
1
10
11.9191986674382
20
2.57743414241071
30
0
41
1
10
11.9728909418053
20
2.58509345910179
30
0
41
1
10
12.0090167467228
20
2.58774100316111
30
0
41
1
10
12.0625366097201
20
2.58625865959061
30
0
41
1
10
12.0803614289512
20
2.58483871915823
30
0
41
1
10
12.1065791710679
20
2.58098786646994
30
0
41
1
10
12.1152338422572
20
2.57941792158269
30
0
41
1
10
12.1323486609631
20
2.57562859999101
30
0
41
1
10
12.1408370878152
20
2.57339923775223
30
0
41
1
10
12.1656426429803
20
2.56568929212841
30
0
41
1
10
12.1813649753383
20
2.5591976802705
30
0
41
1
10
12.2033854573906
20
2.54691462487204
30
0
41
1
10
12.2105112827682
20
2.5423537078816
30
0
41
1
10
12.223843048538
20
2.53248059887622
30
0
41
1
10
12.2362778659413
20
2.52186475940727
30
0
41
1
10
12.2468412748624
20
2.5097097821795
30
0
41
1
10
12.2564131673327
20
2.49674363674225
30
0
41
1
10
12.2606489678052
20
2.48991141534421
30
0
41
1
10
12.2714963206505
20
2.46889956185237
30
0
41
1
10
12.2764010411295
20
2.45402420135815
30
0
41
1
10
12.2792219903336
20
2.43837398262653
30
0
0
SPLINE
5
10C
100
AcDbEntity
8
1
62
256
6
ByLayer
370
18
48
1
60
0
100
AcDbSpline
70
4
71
3
72
35
73
31
40
0
40
0
40
0
40
0
40
0.124999999999996
40
0.124999999999996
40
0.249999999999993
40
0.249999999999993
40
0.374999999999989
40
0.374999999999989
40
0.499999999999986
40
0.499999999999986
40
0.562499999999937
40
0.562499999999937
40
0.624999999999889
40
0.624999999999889
40
0.68749999999984
40
0.68749999999984
40
0.718749999999819
40
0.718749999999819
40
0.749999999999798
40
0.749999999999798
40
0.812499999999846
40
0.812499999999846
40
0.843749999999867
40
0.843749999999867
40
0.874999999999888
40
0.90624999999991
40
0.90624999999991
40
0.937499999999931
40
0.937499999999931
40
1
40
1
40
1
40
1
41
1
10
14.3364976491678
20
2.43067350080176
30
0
41
1
10
14.304958008486
20
2.44888292083959
30
0
41
1
10
14.2726792586607
20
2.46587697738639
30
0
41
1
10
14.2068549187446
20
2.49721050481409
30
0
41
1
10
14.1733960142567
20
2.5115152005647
30
0
41
1
10
14.1052806790889
20
2.53713155624794
30
0
41
1
10
14.0706093866354
20
2.54844645116714
30
0
41
1
10
14.0003851458753
20
2.56733031592643
30
0
41
1
10
13.9648142429106
20
2.57491564107491
30
0
41
1
10
13.9111081307248
20
2.58256346588286
30
0
41
1
10
13.8931748328459
20
2.5844837722851
30
0
41
1
10
13.8572406918225
20
2.58682798716259
30
0
41
1
10
13.8392834807188
20
2.5872446920238
30
0
41
1
10
13.8037916753526
20
2.58625746632819
30
0
41
1
10
13.7862071719655
20
2.58486146704897
30
0
41
1
10
13.7601481040503
20
2.58105973069647
30
0
41
1
10
13.7515150568395
20
2.57950611890448
30
0
41
1
10
13.7343748228103
20
2.57573502144427
30
0
41
1
10
13.7258597950347
20
2.57351111797581
30
0
41
1
10
13.7010081199967
20
2.56582476797755
30
0
41
1
10
13.6852069072498
20
2.55933535358147
30
0
41
1
10
13.6630067566563
20
2.54697685616261
30
0
41
1
10
13.6558784363784
20
2.54241503959818
30
0
41
1
10
13.6426008550482
20
2.5325990890957
30
0
41
1
10
13.6301944905464
20
2.52203518489682
30
0
41
1
10
13.6196189716027
20
2.5099100014969
30
0
41
1
10
13.6100215913688
20
2.49695504520625
30
0
41
1
10
13.6057461392962
20
2.49008536568346
30
0
41
1
10
13.5948292854656
20
2.46899643111988
30
0
41
1
10
13.5899026307214
20
2.45407065641078
30
0
41
1
10
13.5870733080021
20
2.43837398262653
30
0
0
SPLINE
5
10D
100
AcDbEntity
8
1
62
256
6
ByLayer
370
18
48
1
60
0
100
AcDbSpline
70
4
71
3
72
52
73
48
40
0
40
0
40
0
40
0
40
0.0156250000000181
40
0.0156250000000181
40
0.0312500000000362
40
0.0312500000000362
40
0.0625000000000479
40
0.0625000000000479
40
0.0937500000000596
40
0.0937500000000596
40
0.125000000000071
40
0.125000000000071
40
0.1875000000001
40
0.1875000000001
40
0.218750000000092
40
0.218750000000092
40
0.250000000000083
40
0.250000000000083
40
0.312500000000064
40
0.312500000000064
40
0.375000000000045
40
0.375000000000045
40
0.437500000000026
40
0.437500000000026
40
0.500000000000007
40
0.500000000000007
40
0.562499999999988
40
0.562499999999988
40
0.624999999999969
40
0.624999999999969
40
0.68749999999995
40
0.68749999999995
40
0.749999999999931
40
0.749999999999931
40
0.812499999999912
40
0.812499999999912
40
0.843749999999927
40
0.843749999999927
40
0.874999999999942
40
0.874999999999942
40
0.906249999999956
40
0.906249999999956
40
0.937499999999971
40
0.937499999999971
40
0.968749999999985
40
0.968749999999985
40
1
40
1
40
1
40
1
41
1
10
12.2880339794469
20
2.42036757614474
30
0
41
1
10
12.2910486231428
20
2.41420745734681
30
0
41
1
10
12.2943928006709
20
2.40821241873647
30
0
41
1
10
12.3016724090702
20
2.39651733542263
30
0
41
1
10
12.3056175265349
20
2.3908072560119
30
0
41
1
10
12.3181116350759
20
2.3742654396182
30
0
41
1
10
12.3273482043609
20
2.36395133423204
30
0
41
1
10
12.3472651370452
20
2.34444420626497
30
0
41
1
10
12.3579487513671
20
2.33525375527145
30
0
41
1
10
12.3805487642074
20
2.31781303649439
30
0
41
1
10
12.3924297788547
20
2.30959723391473
30
0
41
1
10
12.4291978004131
20
2.28645819268562
30
0
41
1
10
12.4554294212546
20
2.27288106004087
30
0
41
1
10
12.4961637767261
20
2.2549052537897
30
0
41
1
10
12.5099949821357
20
2.249304052453
30
0
41
1
10
12.5381213462888
20
2.23880093027006
30
0
41
1
10
12.5524308134688
20
2.23389595816326
30
0
41
1
10
12.5957497294131
20
2.22022454919934
30
0
41
1
10
12.6252253177253
20
2.21246091323221
30
0
41
1
10
12.6852529754386
20
2.19926715447491
30
0
41
1
10
12.7157549629374
20
2.19385854131167
30
0
41
1
10
12.7771420596943
20
2.1852829727786
30
0
41
1
10
12.8081259877063
20
2.18209850827839
30
0
41
1
10
12.8705312035729
20
2.17785251302183
30
0
41
1
10
12.9018061971099
20
2.17679988111556
30
0
41
1
10
12.964499667761
20
2.1768001189044
30
0
41
1
10
12.9957584070308
20
2.17785300340256
30
0
41
1
10
13.0580989757943
20
2.1820928464592
30
0
41
1
10
13.0891684867011
20
2.18528365887462
30
0
41
1
10
13.1506407900412
20
2.19387402120989
30
0
41
1
10
13.181166058214
20
2.19929123322436
30
0
41
1
10
13.2411631507552
20
2.21248452043639
30
0
41
1
10
13.2707016163918
20
2.22026701835151
30
0
41
1
10
13.3285270046378
20
2.23853025940358
30
0
41
1
10
13.3566369371356
20
2.24894542921456
30
0
41
1
10
13.3973901289259
20
2.2669366887024
30
0
41
1
10
13.4107585363799
20
2.2733438442622
30
0
41
1
10
13.4367800245225
20
2.2869866143678
30
0
41
1
10
13.4494487625807
20
2.29422651626584
30
0
41
1
10
13.4740018117819
20
2.30968768811522
30
0
41
1
10
13.4858607007782
20
2.31789556552192
30
0
41
1
10
13.5084317816376
20
2.33532515624745
30
0
41
1
10
13.5191999433103
20
2.34458989396373
30
0
41
1
10
13.5392585679842
20
2.3642775002198
30
0
41
1
10
13.5484734115324
20
2.3746183184976
30
0
41
1
10
13.564957421024
20
2.39650488229626
30
0
41
1
10
13.5722320064704
20
2.40804728740898
30
0
41
1
10
13.5782613188891
20
2.42036757614542
30
0
0
SPLINE
5
10E
100
AcDbEntity
8
1
62
256
6
ByLayer
370
18
48
1
60
0
100
AcDbSpline
70
4
71
3
72
8
73
4
40
0
40
0
40
0
40
0
40
1
40
1
40
1
40
1
41
1
10
13.5782613188891
20
2.42036757614542
30
0
41
1
10
13.5811987566159
20
2.42636993237201
30
0
41
1
10
13.5841360854829
20
2.4323720661547
30
0
41
1
10
13.5870733080021
20
2.43837398262653
30
0
0
SPLINE
5
10F
100
AcDbEntity
8
1
62
256
6
ByLayer
370
18
48
1
60
0
100
AcDbSpline
70
4
71
3
72
8
73
4
40
0
40
0
40
0
40
0
40
1
40
1
40
1
40
1
41
1
10
12.2792219903336
20
2.43837398262653
30
0
41
1
10
12.2821592128529
20
2.4323720661547
30
0
41
1
10
12.2850965417198
20
2.42636993237201
30
0
41
1
10
12.2880339794466
20
2.42036757614542
30
0
0
SPLINE
5
110
100
AcDbEntity
8
1
62
256
6
ByLayer
370
18
48
1
60
0
100
AcDbSpline
70
4
71
3
72
52
73
48
40
0
40
0
40
0
40
0
40
0.0156250000000164
40
0.0156250000000164
40
0.0312500000000329
40
0.0312500000000329
40
0.0625000000000663
40
0.0625000000000663
40
0.0937500000000996
40
0.0937500000000996
40
0.125000000000133
40
0.125000000000133
40
0.187500000000154
40
0.187500000000154
40
0.218750000000165
40
0.218750000000165
40
0.250000000000175
40
0.250000000000175
40
0.312500000000159
40
0.312500000000159
40
0.375000000000143
40
0.375000000000143
40
0.437500000000127
40
0.437500000000127
40
0.500000000000111
40
0.500000000000111
40
0.562500000000095
40
0.562500000000095
40
0.625000000000079
40
0.625000000000079
40
0.687500000000063
40
0.687500000000063
40
0.750000000000047
40
0.750000000000047
40
0.812500000000031
40
0.812500000000031
40
0.843750000000026
40
0.843750000000026
40
0.875000000000021
40
0.875000000000021
40
0.906250000000016
40
0.906250000000016
40
0.93750000000001
40
0.93750000000001
40
0.968750000000005
40
0.968750000000005
40
1
40
1
40
1
40
1
41
1
10
15.3518042914659
20
-0.651498961765498
30
0
41
1
10
15.3449621502488
20
-0.651029660390464
30
0
41
1
10
15.3380982057514
20
-0.65092828377945
30
0
41
1
10
15.3243301623026
20
-0.651385067925958
30
0
41
1
10
15.3174125297429
20
-0.651946600165871
30
0
41
1
10
15.2968398422507
20
-0.654495907363241
30
0
41
1
10
15.2832892803264
20
-0.657337958314741
30
0
41
1
10
15.2564371456101
20
-0.664832964001249
30
0
41
1
10
15.2431361744164
20
-0.669490019911507
30
0
41
1
10
15.2167320624751
20
-0.68034184576851
30
0
41
1
10
15.2036764614049
20
-0.686523204986059
30
0
41
1
10
15.1652534531021
20
-0.706795725087943
30
0
41
1
10
15.1403795009004
20
-0.722724408796807
30
0
41
1
10
15.1044448182976
20
-0.749013492316266
30
0
41
1
10
15.0926784329436
20
-0.758191066897524
30
0
41
1
10
15.0695192802375
20
-0.777297651678822
30
0
41
1
10
15.0581167161981
20
-0.787237527717934
30
0
41
1
10
15.0246174707578
20
-0.81791710490802
30
0
41
1
10
15.0031561706284
20
-0.839561895194407
30
0
41
1
10
14.9617162115165
20
-0.884950492325117
30
0
41
1
10
14.9417812213685
20
-0.908661681783371
30
0
41
1
10
14.9036610127886
20
-0.957536682772854
30
0
41
1
10
14.8854112216279
20
-0.982777319290221
30
0
41
1
10
14.8505314739381
20
-1.03469882393105
30
0
41
1
10
14.8339823711979
20
-1.06125744688421
30
0
41
1
10
14.8026358418036
20
-1.1155517040138
30
0
41
1
10
14.7879182968914
20
-1.14314900856081
30
0
41
1
10
14.7604198243047
20
-1.19925744632465
30
0
41
1
10
14.7476483934617
20
-1.22775983826094
30
0
41
1
10
14.7243517138017
20
-1.28529159575021
30
0
41
1
10
14.7137805229375
20
-1.3144358594524
30
0
41
1
10
14.695207698552
20
-1.37299150935229
30
0
41
1
10
14.6871783066331
20
-1.40246381993998
30
0
41
1
10
14.6740820432167
20
-1.46167369567073
30
0
41
1
10
14.6690468786087
20
-1.49122519621804
30
0
41
1
10
14.6642511704762
20
-1.53551412533759
30
0
41
1
10
14.66311572623
20
-1.55029508358081
30
0
41
1
10
14.6619199676481
20
-1.57965173840941
30
0
41
1
10
14.6618555375836
20
-1.59424313835072
30
0
41
1
10
14.6629687805768
20
-1.62323728862401
30
0
41
1
10
14.6641475664241
20
-1.6376113264588
30
0
41
1
10
14.6679564943402
20
-1.66587325123669
30
0
41
1
10
14.6705959117254
20
-1.67983112165555
30
0
41
1
10
14.677616566546
20
-1.70704620331605
30
0
41
1
10
14.6819645560964
20
-1.72019690105964
30
0
41
1
10
14.6926768716018
20
-1.74541575393485
30
0
41
1
10
14.699035594927
20
-1.75748693228977
30
0
41
1
10
14.7066906217454
20
-1.76886861438001
30
0
0
SPLINE
5
111
100
AcDbEntity
8
1
62
256
6
ByLayer
370
18
48
1
60
0
100
AcDbSpline
70
4
71
3
72
8
73
4
40
0
40
0
40
0
40
0
40
1
40
1
40
1
40
1
41
1
10
14.7066906217454
20
-1.76886861438001
30
0
41
1
10
14.7104200958568
20
-1.77441368818671
30
0
41
1
10
14.714149431756
20
-1.77995855649613
30
0
41
1
10
14.7178786326324
20
-1.78550322405027
30
0
0
SPLINE
5
112
100
AcDbEntity
8
1
62
256
6
ByLayer
370
18
48
1
60
0
100
AcDbSpline
70
4
71
3
72
35
73
31
40
0
40
0
40
0
40
0
40
0.125000000000037
40
0.125000000000037
40
0.250000000000075
40
0.250000000000075
40
0.375000000000112
40
0.375000000000112
40
0.50000000000015
40
0.50000000000015
40
0.562500000000141
40
0.562500000000141
40
0.625000000000132
40
0.625000000000132
40
0.687500000000123
40
0.687500000000123
40
0.718750000000122
40
0.718750000000122
40
0.75000000000012
40
0.75000000000012
40
0.812500000000097
40
0.812500000000097
40
0.843750000000083
40
0.843750000000083
40
0.875000000000069
40
0.906250000000055
40
0.906250000000055
40
0.93750000000004
40
0.93750000000004
40
1
40
1
40
1
40
1
41
1
10
14.3364976491679
20
-2.43067350080182
30
0
41
1
10
14.3680372898499
20
-2.41246408076395
30
0
41
1
10
14.3988939494453
20
-2.39300689168633
30
0
41
1
10
14.4589417501459
20
-2.35166810484552
30
0
41
1
10
14.4880594323033
20
-2.32984419145151
30
0
41
1
10
14.5443015146612
20
-2.28366275865054
30
0
41
1
10
14.5714361473292
20
-2.25929398606331
30
0
41
1
10
14.6229021743124
20
-2.20791994198325
30
0
41
1
10
14.6472567100693
20
-2.18090729895451
30
0
41
1
10
14.6807329767295
20
-2.1382203538671
30
0
41
1
10
14.6913626597965
20
-2.12364981553134
30
0
41
1
10
14.711359879944
20
-2.09370204398067
30
0
41
1
10
14.7206993624915
20
-2.07835899541448
30
0
41
1
10
14.737590302643
20
-2.04712857749334
30
0
41
1
10
14.745173583497
20
-2.03120195120755
30
0
41
1
10
14.7549107171948
20
-2.0067332682178
30
0
41
1
10
14.7578817735208
20
-1.99848002412509
30
0
41
1
10
14.7631860243346
20
-1.98175059729897
30
0
41
1
10
14.7655175813232
20
-1.97326441519718
30
0
41
1
10
14.7712868444813
20
-1.94789905828853
30
0
41
1
10
14.7735674531321
20
-1.93097009944106
30
0
41
1
10
14.7739647557115
20
-1.90556495634982
30
0
41
1
10
14.7735782668183
20
-1.89711074162062
30
0
41
1
10
14.7717161949859
20
-1.88070404363666
30
0
41
1
10
14.7687709721216
20
-1.86467779386513
30
0
41
1
10
14.7635578104595
20
-1.8494566049466
30
0
41
1
10
14.7571371793238
20
-1.83466755170889
30
0
41
1
10
14.7533255883775
20
-1.82753006184004
30
0
41
1
10
14.7405204622219
20
-1.80753132181155
30
0
41
1
10
14.7300576895248
20
-1.79580182629283
30
0
41
1
10
14.7178786326324
20
-1.78550322405027
30
0
0
SPLINE
5
113
100
AcDbEntity
8
1
62
256
6
ByLayer
370
18
48
1
60
0
100
AcDbSpline
70
4
71
3
72
35
73
31
40
0
40
0
40
0
40
0
40
0.125000000000005
40
0.125000000000005
40
0.25000000000001
40
0.25000000000001
40
0.375000000000016
40
0.375000000000016
40
0.437500000000027
40
0.437500000000027
40
0.500000000000038
40
0.500000000000038
40
0.625000000000068
40
0.625000000000068
40
0.687500000000084
40
0.687500000000084
40
0.718750000000117
40
0.718750000000117
40
0.75000000000015
40
0.75000000000015
40
0.812500000000158
40
0.812500000000158
40
0.843750000000117
40
0.843750000000117
40
0.875000000000077
40
0.906250000000037
40
0.906250000000037
40
0.937499999999997
40
0.937499999999997
40
1
40
1
40
1
40
1
41
1
10
15.7398476491679
20
-5.68E-14
30
0
41
1
10
15.7398476491679
20
-0.0364196583026057
30
0
41
1
10
15.738422449525
20
-0.0729159048518682
30
0
41
1
10
15.7326490112025
20
-0.145535802659936
30
0
41
1
10
15.7283094222104
20
-0.181666156891481
30
0
41
1
10
15.7164240309289
20
-0.253527397055677
30
0
41
1
10
15.7088952423927
20
-0.289147712589028
30
0
41
1
10
15.6948717748246
20
-0.341693819083787
30
0
41
1
10
15.6897368732498
20
-0.359075742854998
30
0
41
1
10
15.6784246723801
20
-0.393534951089947
30
0
41
1
10
15.6722455839417
20
-0.410611494886183
30
0
41
1
10
15.6520326095883
20
-0.460940026820566
30
0
41
1
10
15.6362625475425
20
-0.493549663641005
30
0
41
1
10
15.6082188688548
20
-0.539158052818408
30
0
41
1
10
15.5980767547529
20
-0.55388482887426
30
0
41
1
10
15.5816329474403
20
-0.57466463323297
30
0
41
1
10
15.5759459996907
20
-0.581374825900724
30
0
41
1
10
15.5641069415762
20
-0.594302032885395
30
0
41
1
10
15.5579320438172
20
-0.6005385450581
30
0
41
1
10
15.5388522574626
20
-0.618165813174073
30
0
41
1
10
15.5253691905031
20
-0.628535946473932
30
0
41
1
10
15.5037215114659
20
-0.64146471563555
30
0
41
1
10
15.4962087287988
20
-0.645355402940226
30
0
41
1
10
15.4809924827008
20
-0.651964496271574
30
0
41
1
10
15.4655814556788
20
-0.657425261847578
30
0
41
1
10
15.4497732638144
20
-0.660496136162067
30
0
41
1
10
15.4337583062415
20
-0.662302565485021
30
0
41
1
10
15.4257235287102
20
-0.662554765600589
30
0
41
1
10
15.402103053383
20
-0.661442921982513
30
0
41
1
10
15.3867682530651
20
-0.658252854268625
30
0
41
1
10
15.3718042914667
20
-0.652870758576427
30
0
0
SPLINE
5
114
100
AcDbEntity
8
1
62
256
6
ByLayer
370
18
48
1
60
0
100
AcDbSpline
70
4
71
3
72
8
73
4
40
0
40
0
40
0
40
0
40
1
40
1
40
1
40
1
41
1
10
15.3718042914667
20
-0.652870758576427
30
0
41
1
10
15.365137868071
20
-0.652413509658743
30
0
41
1
10
15.3584712033048
20
-0.65195624418547
30
0
41
1
10
15.3518042914667
20
-0.651498961765554
30
0
0
SPLINE
5
115
100
AcDbEntity
8
1
62
256
6
ByLayer
370
18
48
1
60
0
100
AcDbSpline
70
4
71
3
72
52
73
48
40
0
40
0
40
0
40
0
40
0.0156250000000017
40
0.0156250000000017
40
0.0312500000000032
40
0.0312500000000032
40
0.0625000000000063
40
0.0625000000000063
40
0.0937500000000094
40
0.0937500000000094
40
0.125000000000013
40
0.125000000000013
40
0.187500000000021
40
0.187500000000021
40
0.218750000000022
40
0.218750000000022
40
0.250000000000023
40
0.250000000000023
40
0.312500000000022
40
0.312500000000022
40
0.375000000000021
40
0.375000000000021
40
0.43750000000002
40
0.43750000000002
40
0.500000000000019
40
0.500000000000019
40
0.562500000000018
40
0.562500000000018
40
0.625000000000018
40
0.625000000000018
40
0.687500000000017
40
0.687500000000017
40
0.750000000000016
40
0.750000000000016
40
0.812500000000015
40
0.812500000000015
40
0.843750000000012
40
0.843750000000012
40
0.87500000000001
40
0.87500000000001
40
0.906250000000007
40
0.906250000000007
40
0.937500000000005
40
0.937500000000005
40
0.968750000000002
40
0.968750000000002
40
1
40
1
40
1
40
1
41
1
10
14.706690621745
20
1.7688686143793
30
0
41
1
10
14.7028631242235
20
1.7631777969564
30
0
41
1
10
14.6993433572544
20
1.75728413495707
30
0
41
1
10
14.6928549222049
20
1.74513226749673
30
0
41
1
10
14.6898824071098
20
1.73886065584608
30
0
41
1
10
14.6818038281587
20
1.71976953225504
30
0
41
1
10
14.6774898355195
20
1.70661337591733
30
0
41
1
10
14.6705546334873
20
1.67961124226375
30
0
41
1
10
14.6679372766156
20
1.66576373536003
30
0
41
1
10
14.6641331775145
20
1.63747119072596
30
0
41
1
10
14.6629585910917
20
1.62307402892876
30
0
41
1
10
14.6613036043473
20
1.57966246759773
30
0
41
1
10
14.6626612729872
20
1.55015665124409
30
0
41
1
10
14.6674609458559
20
1.50589176147349
30
0
41
1
10
14.6695257659114
20
1.49111298555553
30
0
41
1
10
14.6744929773585
20
1.46150327859129
30
0
41
1
10
14.6773998804992
20
1.44665843044538
30
0
41
1
10
14.687219551003
20
1.40230744429138
30
0
41
1
10
14.6952338391859
20
1.37289901803783
30
0
41
1
10
14.7138215377873
20
1.31431666214985
30
0
41
1
10
14.724388535138
20
1.28519685952833
30
0
41
1
10
14.7476554233149
20
1.2277462900058
30
0
41
1
10
14.7603895601663
20
1.19932118898822
30
0
41
1
10
14.7879150283431
20
1.14315368909081
30
0
41
1
10
14.80264091914
20
1.11554243423137
30
0
41
1
10
14.8339878603967
20
1.06124841489063
30
0
41
1
10
14.8505290547542
20
1.03470399484175
30
0
41
1
10
14.8853711509311
20
0.982835400134576
30
0
41
1
10
14.903669230995
20
0.957523820613744
30
0
41
1
10
14.9418448546751
20
0.908582425459741
30
0
41
1
10
14.9617989319836
20
0.884855373772012
30
0
41
1
10
15.0032232001393
20
0.83949301108413
30
0
41
1
10
15.024732273857
20
0.817803198411553
30
0
41
1
10
15.0694613986866
20
0.776856563732906
30
0
41
1
10
15.0925361665766
20
0.757720232996604
30
0
41
1
10
15.1284936502342
20
0.731422563364873
30
0
41
1
10
15.140726613442
20
0.723048760681422
30
0
41
1
10
15.1655523430028
20
0.707334875958452
30
0
41
1
10
15.1781566509964
20
0.699983377915146
30
0
41
1
10
15.2038229431908
20
0.686450399491235
30
0
41
1
10
15.2168606180344
20
0.680284239063184
30
0
41
1
10
15.2432406268099
20
0.669451905010789
30
0
41
1
10
15.256648205868
20
0.664758772308232
30
0
41
1
10
15.2837274853624
20
0.657231296903774
30
0
41
1
10
15.297290318461
20
0.654421417438016
30
0
41
1
10
15.324486643458
20
0.651089128361463
30
0
41
1
10
15.3381199522296
20
0.650560355119239
30
0
41
1
10
15.3518042914667
20
0.651498961765441
30
0
0
SPLINE
5
116
100
AcDbEntity
8
1
62
256
6
ByLayer
370
18
48
1
60
0
100
AcDbSpline
70
4
71
3
72
8
73
4
40
0
40
0
40
0
40
0
40
1
40
1
40
1
40
1
41
1
10
15.3518042914667
20
0.651498961765441
30
0
41
1
10
15.3584712033048
20
0.651956244185357
30
0
41
1
10
15.365137868071
20
0.652413509658629
30
0
41
1
10
15.3718042914667
20
0.652870758576313
30
0
0
SPLINE
5
117
100
AcDbEntity
8
1
62
256
6
ByLayer
370
18
48
1
60
0
100
AcDbSpline
70
4
71
3
72
35
73
31
40
0
40
0
40
0
40
0
40
0.124999999999969
40
0.124999999999969
40
0.249999999999937
40
0.249999999999937
40
0.374999999999906
40
0.374999999999906
40
0.499999999999874
40
0.499999999999874
40
0.562499999999843
40
0.562499999999843
40
0.624999999999811
40
0.624999999999811
40
0.687499999999779
40
0.687499999999779
40
0.718749999999799
40
0.718749999999799
40
0.74999999999982
40
0.74999999999982
40
0.812499999999868
40
0.812499999999868
40
0.843749999999892
40
0.843749999999892
40
0.874999999999916
40
0.90624999999994
40
0.90624999999994
40
0.937499999999964
40
0.937499999999964
40
1
40
1
40
1
40
1
41
1
10
15.7398476491679
20
-5.68E-14
30
0
41
1
10
15.7398476491679
20
0.0364188400756404
30
0
41
1
10
15.7384255589381
20
0.0728700857000888
30
0
41
1
10
15.7326490197227
20
0.145542399968605
30
0
41
1
10
15.7283077973921
20
0.181671009113245
30
0
41
1
10
15.7164345445823
20
0.253468797597435
30
0
41
1
10
15.7088978847967
20
0.289152465103854
30
0
41
1
10
15.6901396710199
20
0.359410373943177
30
0
41
1
10
15.678923303812
20
0.394008342120429
30
0
41
1
10
15.6586934582865
20
0.444343112015787
30
0
41
1
10
15.6513898434744
20
0.460833956753788
30
0
41
1
10
15.6354529225986
20
0.493125943181951
30
0
41
1
10
15.6268351940425
20
0.508885696609354
30
0
41
1
10
15.6082343288277
20
0.53912888883491
30
0
41
1
10
15.5982331062946
20
0.553659515841446
30
0
41
1
10
15.5819111720773
20
0.574326462478695
30
0
41
1
10
15.5762491811924
20
0.581026094779418
30
0
41
1
10
15.5644131979771
20
0.593984424145333
30
0
41
1
10
15.5582297271901
20
0.600246702778662
30
0
41
1
10
15.5391473153102
20
0.617925709689047
30
0
41
1
10
15.525626711214
20
0.628365254140448
30
0
41
1
10
15.5038238631999
20
0.641411899812852
30
0
41
1
10
15.4963090540288
20
0.645304297977589
30
0
41
1
10
15.4811694008663
20
0.651895045459099
30
0
41
1
10
15.4658176500047
20
0.657357532524514
30
0
41
1
10
15.4500291328943
20
0.660453396550366
30
0
41
1
10
15.4340111215247
20
0.662287493497416
30
0
41
1
10
15.4259240785059
20
0.662555303843448
30
0
41
1
10
15.4022020985198
20
0.661465109308381
30
0
41
1
10
15.3868126710784
20
0.658268830118004
30
0
41
1
10
15.3718042914667
20
0.652870758576313
30
0
0
SPLINE
5
118
100
AcDbEntity
8
1
62
256
6
ByLayer
370
18
48
1
60
0
100
AcDbSpline
70
4
71
3
72
35
73
31
40
0
40
0
40
0
40
0
40
0.124999999999999
40
0.124999999999999
40
0.249999999999997
40
0.249999999999997
40
0.374999999999996
40
0.374999999999996
40
0.437499999999961
40
0.437499999999961
40
0.499999999999925
40
0.499999999999925
40
0.624999999999855
40
0.624999999999855
40
0.687499999999842
40
0.687499999999842
40
0.718749999999849
40
0.718749999999849
40
0.749999999999857
40
0.749999999999857
40
0.812499999999881
40
0.812499999999881
40
0.843749999999902
40
0.843749999999902
40
0.874999999999923
40
0.906249999999945
40
0.906249999999945
40
0.937499999999966
40
0.937499999999966
40
1
40
1
40
1
40
1
41
1
10
14.3364976491678
20
2.43067350080176
30
0
41
1
10
14.368037998455
20
2.41246367165047
30
0
41
1
10
14.398932075288
20
2.39298128927962
30
0
41
1
10
14.4589360324488
20
2.35167139612122
30
0
41
1
10
14.4880560425649
20
2.32984802469625
30
0
41
1
10
14.5443470064539
20
2.28362435383048
30
0
41
1
10
14.5714307103285
20
2.2592940739317
30
0
41
1
10
14.6099252396388
20
2.22087634152118
30
0
41
1
10
14.622410976404
20
2.20773842442597
30
0
41
1
10
14.6465974256949
20
2.1807121669826
30
0
41
1
10
14.6582966022121
20
2.16682264752461
30
0
41
1
10
14.6917759022257
20
2.12415343228128
30
0
41
1
10
14.7121316450975
20
2.09419133952016
30
0
41
1
10
14.737607829407
20
2.04710060677223
30
0
41
1
10
14.7452905345363
20
2.030953890284
30
0
41
1
10
14.7550644693402
20
2.006323233237
30
0
41
1
10
14.75803219278
20
1.99804309568199
30
0
41
1
10
14.7633079533715
20
1.98132656710564
30
0
41
1
10
14.7656214824646
20
1.97286069269418
30
0
41
1
10
14.771347251275
20
1.94752347895437
30
0
41
1
10
14.7735865166736
20
1.93066173379665
30
0
41
1
10
14.7739593196885
20
1.90544990923652
30
0
41
1
10
14.7735723623991
20
1.89699830494143
30
0
41
1
10
14.7716878820711
20
1.8805161026047
30
0
41
1
10
14.7687117041101
20
1.86443931510758
30
0
41
1
10
14.7634668895089
20
1.84921364601749
30
0
41
1
10
14.7570238244063
20
1.83444107125726
30
0
41
1
10
14.7532248473475
20
1.82735664974365
30
0
41
1
10
14.7404517248656
20
1.80745663986988
30
0
41
1
10
14.7300216450267
20
1.79577134708956
30
0
41
1
10
14.7178786326324
20
1.78550322405016
30
0
0
SPLINE
5
119
100
AcDbEntity
8
1
62
256
6
ByLayer
370
18
48
1
60
0
100
AcDbSpline
70
4
71
3
72
8
73
4
40
0
40
0
40
0
40
0
40
1
40
1
40
1
40
1
41
1
10
14.7178786326324
20
1.78550322405016
30
0
41
1
10
14.714149431756
20
1.77995855649601
30
0
41
1
10
14.7104200958568
20
1.7744136881866
30
0
41
1
10
14.7066906217454
20
1.7688686143799
30
0
0
SPLINE
5
11A
100
AcDbEntity
8
1
62
256
6
ByLayer
370
18
48
1
60
0
100
AcDbSpline
70
4
71
3
72
39
73
35
40
0
40
0
40
0
40
0
40
0.12500000000007
40
0.12500000000007
40
0.25000000000014
40
0.25000000000014
40
0.37500000000021
40
0.37500000000021
40
0.437500000000246
40
0.437500000000246
40
0.500000000000282
40
0.500000000000282
40
0.562500000000318
40
0.562500000000318
40
0.625000000000354
40
0.625000000000354
40
0.68750000000039
40
0.68750000000039
40
0.718750000000376
40
0.718750000000376
40
0.750000000000363
40
0.750000000000363
40
0.812500000000276
40
0.812500000000276
40
0.84375000000023
40
0.84375000000023
40
0.875000000000184
40
0.875000000000184
40
0.906250000000138
40
0.906250000000138
40
0.937500000000092
40
0.968750000000046
40
0.968750000000046
40
1
40
1
40
1
40
1
41
1
10
10.1264476491679
20
-2.84E-14
30
0
41
1
10
10.1264476491679
20
0.0364248722858918
30
0
41
1
10
10.1278715042078
20
0.0728850946985631
30
0
41
1
10
10.1336411682665
20
0.14548529795448
30
0
41
1
10
10.1379912251464
20
0.181696415994168
30
0
41
1
10
10.1498621940051
20
0.253474619015407
30
0
41
1
10
10.1573922186988
20
0.2891187424637
30
0
41
1
10
10.171428557121
20
0.341712481995728
30
0
41
1
10
10.1765637557671
20
0.359091473961939
30
0
41
1
10
10.1878603641893
20
0.393504198697968
30
0
41
1
10
10.1940310890419
20
0.41056075244569
30
0
41
1
10
10.2074915558916
20
0.444084850429164
30
0
41
1
10
10.2147830257412
20
0.460566933330313
30
0
41
1
10
10.2307008460452
20
0.492857811748792
30
0
41
1
10
10.2392894596098
20
0.508584023794327
30
0
41
1
10
10.2578487926189
20
0.538807636755706
30
0
41
1
10
10.2678310807869
20
0.553338234888344
30
0
41
1
10
10.2841318052618
20
0.57402081568631
30
0
41
1
10
10.2897879500735
20
0.580728273722229
30
0
41
1
10
10.3016159916149
20
0.593707597162563
30
0
41
1
10
10.3077827331158
20
0.599967833067552
30
0
41
1
10
10.3268218829111
20
0.617656102769473
30
0
41
1
10
10.3403211852293
20
0.628118351721611
30
0
41
1
10
10.3621150455825
20
0.641217446067429
30
0
41
1
10
10.3696069690554
20
0.645118686857444
30
0
41
1
10
10.3847627467096
20
0.651756476004806
30
0
41
1
10
10.3924680148222
20
0.654519275611335
30
0
41
1
10
10.4081462758905
20
0.658858096078376
30
0
41
1
10
10.4161845295152
20
0.660439517926307
30
0
41
1
10
10.4321979437436
20
0.662282103506669
30
0
41
1
10
10.4480913757336
20
0.662823045641204
30
0
41
1
10
10.4637515109718
20
0.660883639205707
30
0
41
1
10
10.4792974595029
20
0.657741892843688
30
0
41
1
10
10.4869891966784
20
0.655568938469798
30
0
41
1
10
10.4944910068691
20
0.652870758576341
30
0
0
SPLINE
5
11B
100
AcDbEntity
8
1
62
256
6
ByLayer
370
18
48
1
60
0
100
AcDbSpline
70
4
71
3
72
8
73
4
40
0
40
0
40
0
40
0
40
1
40
1
40
1
40
1
41
1
10
11.1596046765904
20
1.76886861437993
30
0
41
1
10
11.1558752024789
20
1.77441368818663
30
0
41
1
10
11.1521458665797
20
1.77995855649601
30
0
41
1
10
11.1484166657033
20
1.78550322405019
30
0
0
SPLINE
5
11C
100
AcDbEntity
8
1
62
256
6
ByLayer
370
18
48
1
60
0
100
AcDbSpline
70
4
71
3
72
35
73
31
40
0
40
0
40
0
40
0
40
0.12499999999996
40
0.12499999999996
40
0.249999999999919
40
0.249999999999919
40
0.374999999999879
40
0.374999999999879
40
0.499999999999838
40
0.499999999999838
40
0.562499999999852
40
0.562499999999852
40
0.624999999999865
40
0.624999999999865
40
0.687499999999879
40
0.687499999999879
40
0.718749999999888
40
0.718749999999888
40
0.749999999999897
40
0.749999999999897
40
0.812499999999914
40
0.812499999999914
40
0.843749999999928
40
0.843749999999928
40
0.874999999999942
40
0.906249999999955
40
0.906249999999955
40
0.937499999999969
40
0.937499999999969
40
1
40
1
40
1
40
1
41
1
10
11.5297976491679
20
2.43067350080176
30
0
41
1
10
11.4982580084859
20
2.4124640807639
30
0
41
1
10
11.4674013488905
20
2.39300689168624
30
0
41
1
10
11.4073535481899
20
2.35166810484543
30
0
41
1
10
11.3782358660324
20
2.3298441914514
30
0
41
1
10
11.3219937836745
20
2.28366275865042
30
0
41
1
10
11.2948591510065
20
2.25929398606323
30
0
41
1
10
11.2433931240233
20
2.20791994198316
30
0
41
1
10
11.2190385882665
20
2.18090729895442
30
0
41
1
10
11.1855623216061
20
2.13822035386701
30
0
41
1
10
11.1749326385393
20
2.12364981553128
30
0
41
1
10
11.1549354183917
20
2.09370204398061
30
0
41
1
10
11.1455959358443
20
2.07835899541439
30
0
41
1
10
11.1287049956928
20
2.04712857749325
30
0
41
1
10
11.1211217148387
20
2.03120195120746
30
0
41
1
10
11.1113845811409
20
2.00673326821774
30
0
41
1
10
11.1084135248149
20
1.998480024125
30
0
41
1
10
11.1031092740011
20
1.98175059729888
30
0
41
1
10
11.1007777170125
20
1.97326441519707
30
0
41
1
10
11.0950084538544
20
1.94789905828844
30
0
41
1
10
11.0927278452036
20
1.930970099441
30
0
41
1
10
11.0923305426242
20
1.90556495634974
30
0
41
1
10
11.0927170315175
20
1.89711074162057
30
0
41
1
10
11.0945791033498
20
1.88070404363657
30
0
41
1
10
11.0975245304983
20
1.86467786470988
30
0
41
1
10
11.1027374878763
20
1.84945660494648
30
0
41
1
10
11.1091581190119
20
1.8346675517088
30
0
41
1
10
11.1129697099583
20
1.82753006183995
30
0
41
1
10
11.1257748361138
20
1.80753132181147
30
0
41
1
10
11.1362376088109
20
1.79580182629275
30
0
41
1
10
11.1484166657033
20
1.78550322405019
30
0
0
SPLINE
5
11D
100
AcDbEntity
8
1
62
256
6
ByLayer
370
18
48
1
60
0
100
AcDbSpline
70
4
71
3
72
8
73
4
40
0
40
0
40
0
40
0
40
1
40
1
40
1
40
1
41
1
10
10.5144910068691
20
0.651498961765469
30
0
41
1
10
10.5078240950309
20
0.651956244185357
30
0
41
1
10
10.5011574302647
20
0.652413509658629
30
0
41
1
10
10.4944910068691
20
0.652870758576341
30
0
0
SPLINE
5
11E
100
AcDbEntity
8
1
62
256
6
ByLayer
370
18
48
1
60
0
100
AcDbSpline
70
4
71
3
72
50
73
46
40
0
40
0
40
0
40
0
40
0.0312500000000271
40
0.0312500000000271
40
0.0468750000000283
40
0.0468750000000283
40
0.0625000000000295
40
0.0625000000000295
40
0.125000000000028
40
0.125000000000028
40
0.156250000000023
40
0.156250000000023
40
0.187500000000017
40
0.187500000000017
40
0.25
40
0.25
40
0.28124999999999
40
0.28124999999999
40
0.31249999999998
40
0.31249999999998
40
0.374999999999983
40
0.374999999999983
40
0.499999999999988
40
0.499999999999988
40
0.562500000000004
40
0.562500000000004
40
0.62500000000002
40
0.62500000000002
40
0.687500000000036
40
0.687500000000036
40
0.750000000000052
40
0.750000000000052
40
0.812500000000068
40
0.812500000000068
40
0.843750000000056
40
0.843750000000056
40
0.875000000000045
40
0.875000000000045
40
0.906250000000034
40
0.906250000000034
40
0.937500000000023
40
0.937500000000023
40
0.968750000000011
40
0.968750000000011
40
1
40
1
40
1
40
1
41
1
10
11.1596046765904
20
1.76886861437993
30
0
41
1
10
11.1673028212417
20
1.75742282363535
30
0
41
1
10
11.1737062589795
20
1.74525405452204
30
0
41
1
10
11.1817939473158
20
1.72614568520561
30
0
41
1
10
11.1842342891089
20
1.71963218716095
30
0
41
1
10
11.1886504899658
20
1.70634154822116
30
0
41
1
10
11.1906304281351
20
1.69954493715645
30
0
41
1
10
11.1993751602368
20
1.6653064059665
30
0
41
1
10
11.2028446767774
20
1.63697052693044
30
0
41
1
10
11.2044474056833
20
1.59342734754873
30
0
41
1
10
11.2043593684651
20
1.57868949864144
30
0
41
1
10
11.203113002704
20
1.54927099963646
30
0
41
1
10
11.2019589259948
20
1.53455451242496
30
0
41
1
10
11.1971168259559
20
1.49037223400848
30
0
41
1
10
11.1920619985428
20
1.4608734138416
30
0
41
1
10
11.182212979049
20
1.41652167291463
30
0
41
1
10
11.1785391278936
20
1.40168796128918
30
0
41
1
10
11.1705124036065
20
1.37213480876599
30
0
41
1
10
11.1661740875329
20
1.35746210736008
30
0
41
1
10
11.1522642268578
20
1.31372586506464
30
0
41
1
10
11.1418032626981
20
1.28494221932198
30
0
41
1
10
11.1072295237117
20
1.19957002010384
30
0
41
1
10
11.0799809229694
20
1.14394031339108
30
0
41
1
10
11.0329657936411
20
1.06233070867063
30
0
41
1
10
11.0164137916885
20
1.03571612064917
30
0
41
1
10
10.9815541499357
20
0.983726864861325
30
0
41
1
10
10.9632420649097
20
0.958353086144427
30
0
41
1
10
10.9250344583465
20
0.90929280601992
30
0
41
1
10
10.9050615617514
20
0.885507567613359
30
0
41
1
10
10.8635921478122
20
0.840030092798258
30
0
41
1
10
10.8420607949433
20
0.818287346893328
30
0
41
1
10
10.7972736871287
20
0.777231279009669
30
0
41
1
10
10.7741683344439
20
0.758043713665927
30
0
41
1
10
10.7381623347387
20
0.731674531809631
30
0
41
1
10
10.7259122612768
20
0.723277400567497
30
0
41
1
10
10.7010498959539
20
0.707518280746285
30
0
41
1
10
10.6884268680306
20
0.700145378571591
30
0
41
1
10
10.6627221739965
20
0.686572296927579
30
0
41
1
10
10.6496632454216
20
0.680386705395847
30
0
41
1
10
10.623240879897
20
0.669519889857526
30
0
41
1
10
10.6098125161958
20
0.664811567719454
30
0
41
1
10
10.5826862530106
20
0.657257480613566
30
0
41
1
10
10.5690998859432
20
0.654437105166949
30
0
41
1
10
10.541856294377
20
0.651090927523711
30
0
41
1
10
10.5281992543709
20
0.650558715255215
30
0
41
1
10
10.5144910068691
20
0.651498961765469
30
0
0
LINE
5
80
100
AcDbEntity
8
81
62
256
6
ByLayer
370
18
48
1
60
0
100
AcDbLine
10
51.507968
20
3.075
30
0
11
56.507968
21
3.075
31
0
39
0
210
0
220
0
230
1
0
LINE
5
81
100
AcDbEntity
8
80
62
256
6
ByLayer
370
18
48
1
60
0
100
AcDbLine
10
0
20
0
30
0
11
-5
21
0
31
0
39
0
210
0
220
0
230
1
0
LINE
5
82
100
AcDbEntity
8
1
62
256
6
ByLayer
370
18
48
1
60
0
100
AcDbLine
10
0
20
15.925
30
0
11
0.650399
21
15.925
31
0
39
0
210
0
220
0
230
1
0
LINE
5
83
100
AcDbEntity
8
1
62
256
6
ByLayer
370
18
48
1
60
0
100
AcDbLine
10
0
20
15.925
30
0
11
0
21
-15.925928
31
0
39
0
210
0
220
0
230
1
0
LINE
5
84
100
AcDbEntity
8
1
62
256
6
ByLayer
370
18
48
1
60
0
100
AcDbLine
10
43.914294
20
2.25
30
0
11
46.126699
21
2.25
31
0
39
0
210
0
220
0
230
1
0
LINE
5
85
100
AcDbEntity
8
1
62
256
6
ByLayer
370
18
48
1
60
0
100
AcDbLine
10
42.919803
20
-2.1
30
0
11
43.914294
21
-2.1
31
0
39
0
210
0
220
0
230
1
0
LINE
5
86
100
AcDbEntity
8
1
62
256
6
ByLayer
370
18
48
1
60
0
100
AcDbLine
10
42.919803
20
2.25
30
0
11
43.914294
21
2.25
31
0
39
0
210
0
220
0
230
1
0
LINE
5
87
100
AcDbEntity
8
1
62
256
6
ByLayer
370
18
48
1
60
0
100
AcDbLine
10
43.91416
20
2.174991
30
0
11
43.914294
21
2.25
31
0
39
0
210
0
220
0
230
1
0
LINE
5
88
100
AcDbEntity
8
1
62
256
6
ByLayer
370
18
48
1
60
0
100
AcDbLine
10
43.914294
20
-2.1
30
0
11
46.126699
21
-2.1
31
0
39
0
210
0
220
0
230
1
0
LINE
5
89
100
AcDbEntity
8
1
62
256
6
ByLayer
370
18
48
1
60
0
100
AcDbLine
10
43.914294
20
-2.1
30
0
11
43.91416
21
-2.024991
31
0
39
0
210
0
220
0
230
1
0
LINE
5
8A
100
AcDbEntity
8
1
62
256
6
ByLayer
370
18
48
1
60
0
100
AcDbLine
10
40.007968
20
2.25
30
0
11
42.919807
21
2.25
31
0
39
0
210
0
220
0
230
1
0
LINE
5
8B
100
AcDbEntity
8
1
62
256
6
ByLayer
370
18
48
1
60
0
100
AcDbLine
10
42.919807
20
-2.1
30
0
11
40.007968
21
-2.1
31
0
39
0
210
0
220
0
230
1
0
LINE
5
8C
100
AcDbEntity
8
1
62
256
6
ByLayer
370
18
48
1
60
0
100
AcDbLine
10
43.507968
20
0.349969
30
0
11
43.507968
21
-0.199969
31
0
39
0
210
0
220
0
230
1
0
LINE
5
8D
100
AcDbEntity
8
1
62
256
6
ByLayer
370
18
48
1
60
0
100
AcDbLine
10
42.919807
20
2.25
30
0
11
43.015114
21
1.801468
31
0
39
0
210
0
220
0
230
1
0
LINE
5
8E
100
AcDbEntity
8
1
62
256
6
ByLayer
370
18
48
1
60
0
100
AcDbLine
10
43.015114
20
-1.651468
30
0
11
42.919807
21
-2.1
31
0
39
0
210
0
220
0
230
1
0
LINE
5
8F
100
AcDbEntity
8
1
62
256
6
ByLayer
370
18
48
1
60
0
100
AcDbLine
10
29.442458
20
2.25
30
0
11
26.507968
21
2.25
31
0
39
0
210
0
220
0
230
1
0
LINE
5
90
100
AcDbEntity
8
1
62
256
6
ByLayer
370
18
48
1
60
0
100
AcDbLine
10
19.545175
20
5.8746
30
0
11
12.50781
21
15.925
31
0
39
0
210
0
220
0
230
1
0
LINE
5
91
100
AcDbEntity
8
1
62
256
6
ByLayer
370
18
48
1
60
0
100
AcDbLine
10
3.015442
20
-15.969724
30
0
11
12.371462
21
-15.969724
31
0
39
0
210
0
220
0
230
1
0
LINE
5
92
100
AcDbEntity
8
1
62
256
6
ByLayer
370
18
48
1
60
0
100
AcDbLine
10
19.545175
20
-5.7246
30
0
11
12.371462
21
-15.969724
31
0
39
0
210
0
220
0
230
1
0
LINE
5
93
100
AcDbEntity
8
1
62
256
6
ByLayer
370
18
48
1
60
0
100
AcDbLine
10
29.442458
20
-2.1
30
0
11
26.507968
21
-2.1
31
0
39
0
210
0
220
0
230
1
0
LINE
5
94
100
AcDbEntity
8
1
62
256
6
ByLayer
370
18
48
1
60
0
100
AcDbLine
10
3.015442
20
15.925
30
0
11
12.50781
21
15.925
31
0
39
0
210
0
220
0
230
1
0
LINE
5
95
100
AcDbEntity
8
1
62
256
6
ByLayer
370
18
48
1
60
0
100
AcDbLine
10
29.442458
20
2.25
30
0
11
40.007968
21
2.25
31
0
39
0
210
0
220
0
230
1
0
LINE
5
96
100
AcDbEntity
8
1
62
256
6
ByLayer
370
18
48
1
60
0
100
AcDbLine
10
40.007968
20
-2.1
30
0
11
29.442458
21
-2.1
31
0
39
0
210
0
220
0
230
1
0
LINE
5
97
100
AcDbEntity
8
1
62
256
6
ByLayer
370
18
48
1
60
0
100
AcDbLine
10
40.007968
20
2.25
30
0
11
40.007968
21
-2.1
31
0
39
0
210
0
220
0
230
1
0
LINE
5
98
100
AcDbEntity
8
1
62
256
6
ByLayer
370
18
48
1
60
0
100
AcDbLine
10
29.442458
20
-2.1
30
0
11
29.442458
21
2.25
31
0
39
0
210
0
220
0
230
1
0
LINE
5
99
100
AcDbEntity
8
1
62
256
6
ByLayer
370
18
48
1
60
0
100
AcDbLine
10
0.650399
20
-15.931211
30
0
11
3.015442
21
-15.969724
31
0
39
0
210
0
220
0
230
1
0
LINE
5
9A
100
AcDbEntity
8
1
62
256
6
ByLayer
370
18
48
1
60
0
100
AcDbLine
10
3.015442
20
15.925
30
0
11
3.015442
21
-15.969724
31
0
39
0
210
0
220
0
230
1
0
LINE
5
9B
100
AcDbEntity
8
1
62
256
6
ByLayer
370
18
48
1
60
0
100
AcDbLine
10
0.650399
20
15.925
30
0
11
3.015442
21
15.925
31
0
39
0
210
0
220
0
230
1
0
LINE
5
9C
100
AcDbEntity
8
1
62
256
6
ByLayer
370
13
48
1
60
0
100
AcDbLine
10
0.650399
20
-15.931211
30
0
11
0.650399
21
15.925
31
0
39
0
210
0
220
0
230
1
0
LINE
5
9D
100
AcDbEntity
8
1
62
256
6
ByLayer
370
18
48
1
60
0
100
AcDbLine
10
45.048628
20
-2.025
30
0
11
45.896511
21
-2.025
31
0
39
0
210
0
220
0
230
1
0
LINE
5
9E
100
AcDbEntity
8
1
62
256
6
ByLayer
370
18
48
1
60
0
100
AcDbLine
10
45.048628
20
2.175
30
0
11
45.896511
21
2.175
31
0
39
0
210
0
220
0
230
1
0
LINE
5
9F
100
AcDbEntity
8
1
62
256
6
ByLayer
370
18
48
1
60
0
100
AcDbLine
10
44.518298
20
2.175
30
0
11
45.048628
21
2.175
31
0
39
0
210
0
220
0
230
1
0
LINE
5
A0
100
AcDbEntity
8
1
62
256
6
ByLayer
370
13
48
1
60
0
100
AcDbLine
10
45.048628
20
2.175
30
0
11
45.048628
21
0.075
31
0
39
0
210
0
220
0
230
1
0
LINE
5
A1
100
AcDbEntity
8
1
62
256
6
ByLayer
370
18
48
1
60
0
100
AcDbLine
10
44.518298
20
-2.025
30
0
11
45.048628
21
-2.025
31
0
39
0
210
0
220
0
230
1
0
LINE
5
A2
100
AcDbEntity
8
1
62
256
6
ByLayer
370
18
48
1
60
0
100
AcDbLine
10
44.518298
20
0.075
30
0
11
45.048628
21
0.075
31
0
39
0
210
0
220
0
230
1
0
LINE
5
A3
100
AcDbEntity
8
1
62
256
6
ByLayer
370
13
48
1
60
0
100
AcDbLine
10
45.048628
20
-2.025
30
0
11
45.048628
21
0.075
31
0
39
0
210
0
220
0
230
1
0
LINE
5
A4
100
AcDbEntity
8
1
62
256
6
ByLayer
370
13
48
1
60
0
100
AcDbLine
10
43.507905
20
0.095
30
0
11
44.045829
21
0.095
31
0
39
0
210
0
220
0
230
1
0
LINE
5
A5
100
AcDbEntity
8
1
62
256
6
ByLayer
370
13
48
1
60
0
100
AcDbLine
10
43.507905
20
0.055
30
0
11
44.045829
21
0.055
31
0
39
0
210
0
220
0
230
1
0
LINE
5
A6
100
AcDbEntity
8
1
62
256
6
ByLayer
370
13
48
1
60
0
100
AcDbLine
10
43.507931
20
0.285736
30
0
11
44.036914
21
0.285736
31
0
39
0
210
0
220
0
230
1
0
LINE
5
A7
100
AcDbEntity
8
1
62
256
6
ByLayer
370
13
48
1
60
0
100
AcDbLine
10
43.507931
20
-0.135736
30
0
11
44.036914
21
-0.135736
31
0
39
0
210
0
220
0
230
1
0
LINE
5
A8
100
AcDbEntity
8
1
62
256
6
ByLayer
370
13
48
1
60
0
100
AcDbLine
10
43.399435
20
0.502733
30
0
11
43.856913
21
0.502733
31
0
39
0
210
0
220
0
230
1
0
LINE
5
A9
100
AcDbEntity
8
1
62
256
6
ByLayer
370
13
48
1
60
0
100
AcDbLine
10
43.399435
20
-0.352733
30
0
11
43.856913
21
-0.352733
31
0
39
0
210
0
220
0
230
1
0
LINE
5
AA
100
AcDbEntity
8
1
62
256
6
ByLayer
370
13
48
1
60
0
100
AcDbLine
10
43.698086
20
-0.408085
30
0
11
43.224148
21
-0.408085
31
0
39
0
210
0
220
0
230
1
0
LINE
5
AB
100
AcDbEntity
8
1
62
256
6
ByLayer
370
13
48
1
60
0
100
AcDbLine
10
43.698086
20
0.558085
30
0
11
43.224148
21
0.558085
31
0
39
0
210
0
220
0
230
1
0
LINE
5
AC
100
AcDbEntity
8
1
62
256
6
ByLayer
370
13
48
1
60
0
100
AcDbLine
10
43.227886
20
0.588888
30
0
11
43.65749
21
0.588888
31
0
39
0
210
0
220
0
230
1
0
LINE
5
AD
100
AcDbEntity
8
1
62
256
6
ByLayer
370
13
48
1
60
0
100
AcDbLine
10
43.227965
20
-0.438888
30
0
11
43.65749
21
-0.438888
31
0
39
0
210
0
220
0
230
1
0
LINE
5
AE
100
AcDbEntity
8
1
62
256
6
ByLayer
370
13
48
1
60
0
100
AcDbLine
10
43.212799
20
0.680665
30
0
11
43.585659
21
0.680665
31
0
39
0
210
0
220
0
230
1
0
LINE
5
AF
100
AcDbEntity
8
1
62
256
6
ByLayer
370
13
48
1
60
0
100
AcDbLine
10
43.213265
20
-0.530665
30
0
11
43.585659
21
-0.530665
31
0
39
0
210
0
220
0
230
1
0
LINE
5
B0
100
AcDbEntity
8
1
62
256
6
ByLayer
370
13
48
1
60
0
100
AcDbLine
10
43.205545
20
0.724934
30
0
11
43.565926
21
0.724934
31
0
39
0
210
0
220
0
230
1
0
LINE
5
B1
100
AcDbEntity
8
1
62
256
6
ByLayer
370
13
48
1
60
0
100
AcDbLine
10
43.206165
20
-0.574934
30
0
11
43.565926
21
-0.574934
31
0
39
0
210
0
220
0
230
1
0
LINE
5
B2
100
AcDbEntity
8
1
62
256
6
ByLayer
370
18
48
1
60
0
100
AcDbLine
10
42.935605
20
2.175
30
0
11
43.354322
21
2.175
31
0
39
0
210
0
220
0
230
1
0
LINE
5
B3
100
AcDbEntity
8
1
62
256
6
ByLayer
370
13
48
1
60
0
100
AcDbLine
10
42.986888
20
1.933749
30
0
11
43.354121
21
1.933749
31
0
39
0
210
0
220
0
230
1
0
LINE
5
B4
100
AcDbEntity
8
1
62
256
6
ByLayer
370
13
48
1
60
0
100
AcDbLine
10
42.990552
20
1.916384
30
0
11
43.355842
21
1.916384
31
0
39
0
210
0
220
0
230
1
0
LINE
5
B5
100
AcDbEntity
8
1
62
256
6
ByLayer
370
13
48
1
60
0
100
AcDbLine
10
42.990552
20
-1.766384
30
0
11
43.355842
21
-1.766384
31
0
39
0
210
0
220
0
230
1
0
LINE
5
B6
100
AcDbEntity
8
1
62
256
6
ByLayer
370
13
48
1
60
0
100
AcDbLine
10
42.986888
20
-1.783749
30
0
11
43.354121
21
-1.783749
31
0
39
0
210
0
220
0
230
1
0
LINE
5
B7
100
AcDbEntity
8
1
62
256
6
ByLayer
370
18
48
1
60
0
100
AcDbLine
10
42.935605
20
-2.025
30
0
11
43.354322
21
-2.025
31
0
39
0
210
0
220
0
230
1
0
LINE
5
B8
100
AcDbEntity
8
1
62
256
6
ByLayer
370
18
48
1
60
0
100
AcDbLine
10
44.518298
20
2.175
30
0
11
43.354322
21
2.175
31
0
39
0
210
0
220
0
230
1
0
LINE
5
B9
100
AcDbEntity
8
1
62
256
6
ByLayer
370
18
48
1
60
0
100
AcDbLine
10
43.354322
20
2.175
30
0
11
43.354322
21
1.933714
31
0
39
0
210
0
220
0
230
1
0
LINE
5
BA
100
AcDbEntity
8
1
62
256
6
ByLayer
370
18
48
1
60
0
100
AcDbLine
10
43.355842
20
1.916384
30
0
11
43.565926
21
0.724934
31
0
39
0
210
0
220
0
230
1
0
LINE
5
BB
100
AcDbEntity
8
1
62
256
6
ByLayer
370
18
48
1
60
0
100
AcDbLine
10
43.585659
20
0.680665
30
0
11
43.65749
21
0.588888
31
0
39
0
210
0
220
0
230
1
0
LINE
5
BC
100
AcDbEntity
8
1
62
256
6
ByLayer
370
18
48
1
60
0
100
AcDbLine
10
44.045829
20
0.095
30
0
11
44.045829
21
0.055
31
0
39
0
210
0
220
0
230
1
0
LINE
5
BD
100
AcDbEntity
8
1
62
256
6
ByLayer
370
18
48
1
60
0
100
AcDbLine
10
43.585659
20
-0.530665
30
0
11
43.65749
21
-0.438888
31
0
39
0
210
0
220
0
230
1
0
LINE
5
BE
100
AcDbEntity
8
1
62
256
6
ByLayer
370
18
48
1
60
0
100
AcDbLine
10
43.355842
20
-1.766384
30
0
11
43.565926
21
-0.574934
31
0
39
0
210
0
220
0
230
1
0
LINE
5
BF
100
AcDbEntity
8
1
62
256
6
ByLayer
370
18
48
1
60
0
100
AcDbLine
10
43.354322
20
-2.025
30
0
11
43.354322
21
-1.783714
31
0
39
0
210
0
220
0
230
1
0
LINE
5
C0
100
AcDbEntity
8
1
62
256
6
ByLayer
370
18
48
1
60
0
100
AcDbLine
10
44.518298
20
-2.025
30
0
11
43.354322
21
-2.025
31
0
39
0
210
0
220
0
230
1
0
LINE
5
C1
100
AcDbEntity
8
1
62
256
6
ByLayer
370
13
48
1
60
0
100
AcDbLine
10
44.518298
20
-2.025
30
0
11
44.518298
21
0.075
31
0
39
0
210
0
220
0
230
1
0
LINE
5
C2
100
AcDbEntity
8
1
62
256
6
ByLayer
370
13
48
1
60
0
100
AcDbLine
10
44.518298
20
2.175
30
0
11
44.518298
21
0.075
31
0
39
0
210
0
220
0
230
1
0
LINE
5
C3
100
AcDbEntity
8
SK1
62
256
6
ByLayer
370
18
48
1
60
0
100
AcDbLine
10
-118.492032
20
-15.925
30
0
11
-4.286986
21
-15.925
31
0
39
0
210
0
220
0
230
1
0
LINE
5
C5
100
AcDbEntity
8
SK1
62
256
6
ByLayer
370
18
48
1
60
0
100
AcDbLine
10
-118.492032
20
15.925
30
0
11
-4.286986
21
15.925
31
0
39
0
210
0
220
0
230
1
0
LINE
5
C6
100
AcDbEntity
8
SK1
62
256
6
ByLayer
370
18
48
1
60
0
100
AcDbLine
10
-118.492032
20
-15.925
30
0
11
-118.492032
21
15.925
31
0
39
0
210
0
220
0
230
1
0
LINE
5
C7
100
AcDbEntity
8
SK1
62
256
6
ByLayer
370
18
48
1
60
0
100
AcDbLine
10
-4.286986
20
15.925
30
0
11
0
21
15.925
31
0
39
0
210
0
220
0
230
1
0
LINE
5
C8
100
AcDbEntity
8
SK1
62
256
6
ByLayer
370
18
48
1
60
0
100
AcDbLine
10
0
20
15.925
30
0
11
0
21
-15.925928
31
0
39
0
210
0
220
0
230
1
0
LINE
5
C9
100
AcDbEntity
8
SK1
62
256
6
ByLayer
370
18
48
1
60
0
100
AcDbLine
10
-4.286986
20
15.925
30
0
11
-4.286986
21
-15.925
31
0
39
0
210
0
220
0
230
1
0
MTEXT
5
11F
100
AcDbEntity
8
SK6
62
256
6
ByLayer
370
18
48
1
60
0
100
AcDbMText
10
-65.806532
20
-54.239729
30
0
210
0
220
0
230
1
1
\W0.7813;C2T-RS32-N25JDB
40
3.5
41
0
44
1.084337
50
0
71
7
72
5
7
iso_b_vert
0
DIMENSION
5
124
100
AcDbEntity
8
2
62
256
6
ByLayer
370
18
48
1
60
0
100
AcDbDimension
2
_U0
10
84.607968
20
-15.925
30
0
11
84.607968
21
-6.425
31
0
70
32
71
1
72
1
41
1
210
0
220
0
230
1
3
Standard
100
AcDbAlignedDimension
13
51.507968
23
3.075
33
0
14
-118.492032
24
-15.925
34
0
50
90
100
AcDbRotatedDimension
1001
ACAD
1000
DSTYLE
1002
{
1070
   371
1070
    13
1070
   372
1070
    13
1070
   170
1070
     0
1070
   144
1040
1.0
1070
   277
1070
     2
1070
   284
1070
     8
1070
   278
1070
    46
1070
   146
1040
1.0
1070
   345
1005
16
1070
   347
1005
16
1070
   346
1005
16
1070
   344
1005
0
1070
   343
1005
0
1070
   172
1070
     1
1070
    76
1070
     0
1070
    75
1070
     0
1070
   282
1070
     0
1070
   281
1070
     0
1070
    71
1070
     0
1070
    74
1070
     0
1070
   279
1070
     0
1070
   173
1070
     1
1070
   340
1005
120
1070
   271
1070
     2
1070
   272
1070
     2
1070
    77
1070
     1
1070
    73
1070
     0
1070
   171
1070
     3
1070
   274
1070
     4
1070
   177
1070
     2
1070
   176
1070
     2
1070
   178
1070
     2
1070
    78
1070
     8
1070
    48
1040
-0.1
1070
    41
1040
3.5
1070
   147
1040
1.75
1070
    42
1040
1.5875
1070
    44
1040
2.0
1070
   140
1040
3.5
1002
}
1001
ACAD_DSTYLE_DIM_LINETYPE
1070
   380
1005
16
1001
ACAD_DSTYLE_DIM_EXT1_LINETYPE
1070
   381
1005
16
1001
ACAD_DSTYLE_DIM_EXT2_LINETYPE
1070
   382
1005
16
0
DIMENSION
5
13E
100
AcDbEntity
8
2
62
256
6
ByLayer
370
18
48
1
60
0
100
AcDbDimension
2
_U1
10
72.607968
20
3.075
30
0
11
72.607968
21
0.075
31
0
70
32
71
1
72
1
41
1
210
0
220
0
230
1
3
Standard
100
AcDbAlignedDimension
13
51.507968
23
-2.925
33
0
14
51.507968
24
3.075
34
0
50
90
100
AcDbRotatedDimension
1001
ACAD
1000
DSTYLE
1002
{
1070
   371
1070
    13
1070
   372
1070
    13
1070
   170
1070
     0
1070
   144
1040
1.0
1070
   277
1070
     2
1070
   284
1070
     8
1070
   278
1070
    46
1070
   146
1040
1.0
1070
   345
1005
16
1070
   347
1005
16
1070
   346
1005
16
1070
   344
1005
0
1070
   343
1005
0
1070
   172
1070
     1
1070
    76
1070
     0
1070
    75
1070
     0
1070
   282
1070
     0
1070
   281
1070
     0
1070
    71
1070
     0
1070
    74
1070
     0
1070
   279
1070
     0
1070
   173
1070
     1
1070
   340
1005
120
1070
   271
1070
     2
1070
   272
1070
     2
1070
    77
1070
     1
1070
    73
1070
     0
1070
   171
1070
     3
1070
   274
1070
     4
1070
   177
1070
     2
1070
   176
1070
     2
1070
   178
1070
     2
1070
    78
1070
     8
1070
    48
1040
-0.1
1070
    41
1040
3.5
1070
   147
1040
1.75
1070
    42
1040
1.5875
1070
    44
1040
2.0
1070
   140
1040
3.5
1002
}
1001
ACAD_DSTYLE_DIM_LINETYPE
1070
   380
1005
16
1001
ACAD_DSTYLE_DIM_EXT1_LINETYPE
1070
   381
1005
16
1001
ACAD_DSTYLE_DIM_EXT2_LINETYPE
1070
   382
1005
16
0
DIMENSION
5
157
100
AcDbEntity
8
SK2
62
256
6
ByLayer
370
18
48
1
60
0
100
AcDbDimension
2
_U2
10
-130.092032
20
16.075
30
0
11
-130.092032
21
0.075
31
0
70
32
71
1
72
1
41
1
210
0
220
0
230
1
3
Standard
100
AcDbAlignedDimension
13
-118.492032
23
-15.925
33
0
14
-118.492032
24
16.075
34
0
50
90
100
AcDbRotatedDimension
1001
ACAD
1000
DSTYLE
1002
{
1070
   371
1070
    13
1070
   372
1070
    13
1070
   170
1070
     0
1070
   144
1040
1.0
1070
   277
1070
     2
1070
   284
1070
     8
1070
   278
1070
    46
1070
   146
1040
1.0
1070
   345
1005
16
1070
   347
1005
16
1070
   346
1005
16
1070
   344
1005
0
1070
   343
1005
0
1070
   172
1070
     1
1070
    76
1070
     0
1070
    75
1070
     0
1070
   282
1070
     0
1070
   281
1070
     0
1070
    71
1070
     0
1070
    74
1070
     0
1070
   279
1070
     0
1070
   173
1070
     1
1070
   340
1005
120
1070
   271
1070
     2
1070
   272
1070
     2
1070
    77
1070
     1
1070
    73
1070
     0
1070
   171
1070
     3
1070
   274
1070
     4
1070
   177
1070
     2
1070
   176
1070
     2
1070
   178
1070
     2
1070
    78
1070
     8
1070
    48
1040
-0.1
1070
    41
1040
3.5
1070
   147
1040
1.75
1070
    42
1040
1.5875
1070
    44
1040
2.0
1070
   140
1040
3.5
1002
}
1001
ACAD_DSTYLE_DIM_LINETYPE
1070
   380
1005
16
1001
ACAD_DSTYLE_DIM_EXT1_LINETYPE
1070
   381
1005
16
1001
ACAD_DSTYLE_DIM_EXT2_LINETYPE
1070
   382
1005
16
0
DIMENSION
5
170
100
AcDbEntity
8
2
62
256
6
ByLayer
370
18
48
1
60
0
100
AcDbDimension
2
_U3
10
51.507968
20
-25.675
30
0
11
39.007968
21
-25.675
31
0
70
32
71
1
72
1
41
1
210
0
220
0
230
1
3
Standard
100
AcDbAlignedDimension
13
26.507968
23
-2.1
33
0
14
51.507968
24
3.075
34
0
50
0
100
AcDbRotatedDimension
1001
ACAD
1000
DSTYLE
1002
{
1070
   371
1070
    13
1070
   372
1070
    13
1070
   170
1070
     0
1070
   144
1040
1.0
1070
   277
1070
     2
1070
   284
1070
     8
1070
   278
1070
    46
1070
   146
1040
1.0
1070
   345
1005
16
1070
   347
1005
16
1070
   346
1005
16
1070
   344
1005
0
1070
   343
1005
0
1070
   172
1070
     1
1070
    76
1070
     0
1070
    75
1070
     0
1070
   282
1070
     0
1070
   281
1070
     0
1070
    71
1070
     0
1070
    74
1070
     0
1070
   279
1070
     0
1070
   173
1070
     1
1070
   340
1005
120
1070
   271
1070
     1
1070
   272
1070
     2
1070
    77
1070
     1
1070
    73
1070
     1
1070
   171
1070
     3
1070
   274
1070
     4
1070
   177
1070
     2
1070
   176
1070
     2
1070
   178
1070
     2
1070
    78
1070
     8
1070
    48
1040
-0.1
1070
    41
1040
3.5
1070
   147
1040
1.75
1070
    42
1040
1.5875
1070
    44
1040
2.0
1070
   140
1040
3.5
1002
}
1001
ACAD_DSTYLE_DIM_LINETYPE
1070
   380
1005
16
1001
ACAD_DSTYLE_DIM_EXT1_LINETYPE
1070
   381
1005
16
1001
ACAD_DSTYLE_DIM_EXT2_LINETYPE
1070
   382
1005
16
0
DIMENSION
5
188
100
AcDbEntity
8
SK2
62
256
6
ByLayer
370
18
48
1
60
0
100
AcDbDimension
2
_U4
10
51.507968
20
-36.675
30
0
11
-33.492032
21
-36.675
31
0
70
32
71
1
72
1
41
1
210
0
220
0
230
1
3
Standard
100
AcDbAlignedDimension
13
-118.492032
23
-15.925
33
0
14
51.507968
24
3.075
34
0
50
0
100
AcDbRotatedDimension
1001
ACAD
1000
DSTYLE
1002
{
1070
   371
1070
    13
1070
   372
1070
    13
1070
   170
1070
     0
1070
   144
1040
1.0
1070
   277
1070
     2
1070
   284
1070
     8
1070
   278
1070
    46
1070
   146
1040
1.0
1070
   345
1005
16
1070
   347
1005
16
1070
   346
1005
16
1070
   344
1005
0
1070
   343
1005
0
1070
   172
1070
     1
1070
    76
1070
     0
1070
    75
1070
     0
1070
   282
1070
     0
1070
   281
1070
     0
1070
    71
1070
     0
1070
    74
1070
     0
1070
   279
1070
     0
1070
   173
1070
     1
1070
   340
1005
120
1070
   271
1070
     1
1070
   272
1070
     2
1070
    77
1070
     1
1070
    73
1070
     1
1070
   171
1070
     3
1070
   274
1070
     4
1070
   177
1070
     2
1070
   176
1070
     2
1070
   178
1070
     2
1070
    78
1070
     8
1070
    48
1040
-0.1
1070
    41
1040
3.5
1070
   147
1040
1.75
1070
    42
1040
1.5875
1070
    44
1040
2.0
1070
   140
1040
3.5
1002
}
1001
ACAD_DSTYLE_DIM_LINETYPE
1070
   380
1005
16
1001
ACAD_DSTYLE_DIM_EXT1_LINETYPE
1070
   381
1005
16
1001
ACAD_DSTYLE_DIM_EXT2_LINETYPE
1070
   382
1005
16
0
ENDSEC
0
SECTION
2
OBJECTS
0
DICTIONARY
5
20f
330
0
100
AcDbDictionary
280
0
281
1
3
ACAD_GROUP
350
210
3
ACAD_MLINESTYLE
350
211
0
DICTIONARY
5
210
330
0
100
AcDbDictionary
280
0
281
1
0
DICTIONARY
5
211
330
0
100
AcDbDictionary
280
0
281
1
3
Standard
350
18
0
MLINESTYLE
5
18
330
211
100
AcDbMlineStyle
2
Standard
70
0
3

62
256
51
90
52
90
71
2
49
-0.5
62
256
6
ByLayer
49
0.5
62
256
6
ByLayer
0
RASTERVARIABLES
5
1fe
330

100
AcDbRasterVariables
90
0
70
1
71
1
72
1
0
ENDSEC
0
EOF
