0
SECTION
2
HEADER
9
$ACADVER
1
AC1015
9
$DWGCODEPAGE
3
ANSI_1252
9
$HANDSEED
5
208
9
$ANGBASE
50
0
9
$ANGDIR
70
0
9
$ATTMODE
70
1
9
$AUNITS
70
0
9
$AUPREC
70
0
9
$CECOLOR
62
256
9
$CELTSCALE
40
1
9
$CELTYPE
6
ByLayer
9
$CELWEIGHT
370
18
9
$CLAYER
8
0
9
$CMLJUST
70
0
9
$CMLSCALE
40
1
9
$CMLSTYLE
2
Standard
9
$DIMSTYLE
2
Standard
9
$TEXTSIZE
40
0.2
9
$TEXTSTYLE
7
Standard
9
$LUNITS
70
2
9
$LUPREC
70
4
9
$EXTNAMES
290
1
9
$INSUNITS
70
4
9
$LTSCALE
40
1
9
$LWDISPLAY
290
1
9
$PDMODE
70
0
9
$PDSIZE
40
0
9
$PLINEGEN
70
0
0
ENDSEC
0
SECTION
2
CLASSES
0
CLASS
1
RASTERVARIABLES
2
AcDbRasterVariables
3
ISM
90
0
280
0
281
0
0
ENDSEC
0
SECTION
2
TABLES
0
TABLE
2
VPORT
5
1fe
100
AcDbSymbolTable
0
VPORT
5
1
100
AcDbSymbolTableRecord
100
AcDbViewportTableRecord
2
*Active
70
0
10
0
20
0
11
1
21
1
12
-1
22
1
13
0
23
0
14
0.5
24
0.5
15
10
25
10
16
0
26
0
36
1
17
0
27
0
37
0
0
ENDTAB
0
TABLE
2
LTYPE
5
1ff
100
AcDbSymbolTable
0
LTYPE
5
14
100
AcDbSymbolTableRecord
100
AcDbLinetypeTableRecord
70
0
2
ByBlock
3

72
65
73
0
40
0
0
LTYPE
5
15
100
AcDbSymbolTableRecord
100
AcDbLinetypeTableRecord
70
0
2
ByLayer
3

72
65
73
0
40
0
0
LTYPE
5
16
100
AcDbSymbolTableRecord
100
AcDbLinetypeTableRecord
70
0
2
Continuous
3
Solid line
72
65
73
0
40
0
0
LTYPE
5
6E
100
AcDbSymbolTableRecord
100
AcDbLinetypeTableRecord
70
0
2
CENTER
3
____ _ ____ _ ____ _ ____
72
65
73
4
40
47.5
49
22
74
0
49
-8.5
74
0
49
8.5
74
0
49
-8.5
74
0
0
LTYPE
5
6F
100
AcDbSymbolTableRecord
100
AcDbLinetypeTableRecord
70
0
2
DASHED
3
__ __ __ __ __ __ __ __ __
72
65
73
2
40
25.72
49
12.86
74
0
49
-12.86
74
0
0
ENDTAB
0
TABLE
2
LAYER
5
200
100
AcDbSymbolTable
0
LAYER
5
10
100
AcDbSymbolTableRecord
100
AcDbLayerTableRecord
2
0
70
0
62
7
6
Continuous
290
1
370
-3
390
0
0
LAYER
5
71
100
AcDbSymbolTableRecord
100
AcDbLayerTableRecord
2
81
70
0
62
-3
6
Continuous
290
1
370
-3
390
0
0
LAYER
5
73
100
AcDbSymbolTableRecord
100
AcDbLayerTableRecord
2
80
70
0
62
-6
6
Continuous
290
1
370
-3
390
0
0
LAYER
5
75
100
AcDbSymbolTableRecord
100
AcDbLayerTableRecord
2
1
70
0
62
4
6
Continuous
290
1
370
-3
390
0
0
LAYER
5
C6
100
AcDbSymbolTableRecord
100
AcDbLayerTableRecord
2
2
70
0
62
7
6
Continuous
290
1
370
-3
390
0
0
LAYER
5
12D
100
AcDbSymbolTableRecord
100
AcDbLayerTableRecord
2
Defpoints
70
0
62
7
6
Continuous
290
0
370
-3
390
0
0
LAYER
5
1eb
100
AcDbSymbolTableRecord
100
AcDbLayerTableRecord
2
SK1
70
0
62
4
6
Continuous
290
1
370
-3
390
0
0
LAYER
5
1ec
100
AcDbSymbolTableRecord
100
AcDbLayerTableRecord
2
SK6
70
0
62
5
6
Continuous
290
1
370
-3
390
0
0
LAYER
5
1ed
100
AcDbSymbolTableRecord
100
AcDbLayerTableRecord
2
SK2
70
0
62
7
6
Continuous
290
1
370
-3
390
0
0
ENDTAB
0
TABLE
2
STYLE
5
201
100
AcDbSymbolTable
0
STYLE
5
11
100
AcDbSymbolTableRecord
100
AcDbTextStyleTableRecord
2
Standard
3
txt
70
0
71
0
40
0
41
1
42
0
50
0
0
STYLE
5
11D
100
AcDbSymbolTableRecord
100
AcDbTextStyleTableRecord
2
iso_b_vert
3
simplex.shx
70
0
71
0
40
0
41
1
42
0
50
0
0
STYLE
5
11E
100
AcDbSymbolTableRecord
100
AcDbTextStyleTableRecord
2
DWGDirectTextStyle
3
simplex
70
0
71
0
40
0
41
1
42
0
50
0
0
ENDTAB
0
TABLE
2
DIMSTYLE
5
202
100
AcDbSymbolTable
100
AcDbDimStyleTable
0
DIMSTYLE
105
27
100
AcDbSymbolTableRecord
100
AcDbDimStyleTableRecord
2
Standard
70
0
3
<>
41
0.18
42
0.0625
44
0.18
140
0.18
147
0.09
73
0
74
0
77
1
271
2
275
0
278
52
280
0
340
11
0
ENDTAB
0
TABLE
2
VIEW
5
203
100
AcDbSymbolTable
0
ENDTAB
0
TABLE
2
UCS
5
204
100
AcDbSymbolTable
0
ENDTAB
0
TABLE
2
APPID
5
205
100
AcDbSymbolTable
0
APPID
5
12
100
AcDbSymbolTableRecord
100
AcDbRegAppTableRecord
2
ACAD
70
0
0
APPID
5
129
100
AcDbSymbolTableRecord
100
AcDbRegAppTableRecord
2
ACAD_DSTYLE_DIMBREAK
70
0
0
APPID
5
1AA
100
AcDbSymbolTableRecord
100
AcDbRegAppTableRecord
2
ACAD_DSTYLE_DIM_LINETYPE
70
0
0
APPID
5
1AB
100
AcDbSymbolTableRecord
100
AcDbRegAppTableRecord
2
ACAD_DSTYLE_DIM_EXT1_LINETYPE
70
0
0
APPID
5
1AC
100
AcDbSymbolTableRecord
100
AcDbRegAppTableRecord
2
ACAD_DSTYLE_DIM_EXT2_LINETYPE
70
0
0
APPID
5
1E7
100
AcDbSymbolTableRecord
100
AcDbRegAppTableRecord
2
ACAD_MLEADERVER
70
0
0
ENDTAB
0
TABLE
2
BLOCK_RECORD
5
206
100
AcDbSymbolTable
0
BLOCK_RECORD
5
1F
100
AcDbSymbolTableRecord
100
AcDbBlockTableRecord
2
*Model_Space
340
0
70
0
0
BLOCK_RECORD
5
1B
100
AcDbSymbolTableRecord
100
AcDbBlockTableRecord
2
*Paper_Space
340
0
70
0
0
BLOCK_RECORD
5
23
100
AcDbSymbolTableRecord
100
AcDbBlockTableRecord
2
*Paper_Space0
340
0
70
0
0
BLOCK_RECORD
5
12E
100
AcDbSymbolTableRecord
100
AcDbBlockTableRecord
2
*D1
340
0
70
0
0
BLOCK_RECORD
5
13A
100
AcDbSymbolTableRecord
100
AcDbBlockTableRecord
2
_U0
340
0
70
0
0
BLOCK_RECORD
5
146
100
AcDbSymbolTableRecord
100
AcDbBlockTableRecord
2
*D3
340
0
70
0
0
BLOCK_RECORD
5
153
100
AcDbSymbolTableRecord
100
AcDbBlockTableRecord
2
_U1
340
0
70
0
0
BLOCK_RECORD
5
15F
100
AcDbSymbolTableRecord
100
AcDbBlockTableRecord
2
*D5
340
0
70
0
0
BLOCK_RECORD
5
16B
100
AcDbSymbolTableRecord
100
AcDbBlockTableRecord
2
_U2
340
0
70
0
0
BLOCK_RECORD
5
177
100
AcDbSymbolTableRecord
100
AcDbBlockTableRecord
2
*D7
340
0
70
0
0
BLOCK_RECORD
5
183
100
AcDbSymbolTableRecord
100
AcDbBlockTableRecord
2
_U3
340
0
70
0
0
ENDTAB
0
ENDSEC
0
SECTION
2
BLOCKS
0
BLOCK
5
20
100
AcDbEntity
8
0
100
AcDbBlockBegin
2
*Model_Space
70
0
10
0
20
0
30
0
3
*Model_Space
0
ENDBLK
5
21
100
AcDbEntity
8
0
100
AcDbBlockEnd
0
BLOCK
5
1C
100
AcDbEntity
8
0
100
AcDbBlockBegin
2
*Paper_Space
70
0
10
0
20
0
30
0
3
*Paper_Space
0
ENDBLK
5
1D
100
AcDbEntity
8
0
100
AcDbBlockEnd
0
BLOCK
5
24
100
AcDbEntity
8
0
100
AcDbBlockBegin
2
*Paper_Space0
70
0
10
0
20
0
30
0
3
*Paper_Space0
0
ENDBLK
5
25
100
AcDbEntity
8
0
100
AcDbBlockEnd
0
BLOCK
5
12F
100
AcDbEntity
8
0
100
AcDbBlockBegin
2
*D1
70
1
10
0
20
0
30
0
3
*D1
0
LINE
5
131
100
AcDbEntity
8
0
62
256
6
ByLayer
370
-2
48
1
60
0
100
AcDbLine
10
48.320339
20
-24.075
30
0
11
81.795569
21
-24.075
31
0
39
0
210
0
220
0
230
1
0
LINE
5
132
100
AcDbEntity
8
0
62
256
6
ByLayer
370
-2
48
1
60
0
100
AcDbLine
10
-141.679661
20
15.925
30
0
11
81.795569
21
15.925
31
0
39
0
210
0
220
0
230
1
0
LINE
5
133
100
AcDbEntity
8
0
62
256
6
ByLayer
370
-2
48
1
60
0
100
AcDbLine
10
79.795569
20
-20.575
30
0
11
79.795569
21
12.425
31
0
39
0
210
0
220
0
230
1
0
SOLID
5
134
100
AcDbEntity
8
0
62
256
6
ByLayer
370
-1
48
1
60
0
100
AcDbTrace
10
79.212236
20
-20.575
30
0
11
80.378903
21
-20.575
31
0
12
79.795569
22
-24.075
32
0
13
79.795569
23
-24.075
33
0
39
0
210
0
220
0
230
1
0
SOLID
5
135
100
AcDbEntity
8
0
62
256
6
ByLayer
370
-1
48
1
60
0
100
AcDbTrace
10
80.378903
20
12.425
30
0
11
79.212236
21
12.425
31
0
12
79.795569
22
15.925
32
0
13
79.795569
23
15.925
33
0
39
0
210
0
220
0
230
1
0
MTEXT
5
136
100
AcDbEntity
8
0
62
256
6
ByLayer
370
18
48
1
60
0
100
AcDbMText
10
72.795569
20
-4.075
30
0
210
0
220
0
230
1
1
\A1;40
40
3.5
41
0
44
1
50
90
71
5
72
5
7
iso_b_vert
0
POINT
5
137
100
AcDbEntity
8
Defpoints
62
0
6
ByLayer
370
-1
48
1
60
0
100
AcDbPoint
10
46.732839
20
-24.075
30
0
39
0
210
0
220
0
230
1
50
360
0
POINT
5
138
100
AcDbEntity
8
Defpoints
62
0
6
ByLayer
370
-1
48
1
60
0
100
AcDbPoint
10
-143.267161
20
15.925
30
0
39
0
210
0
220
0
230
1
50
360
0
POINT
5
139
100
AcDbEntity
8
Defpoints
62
0
6
ByLayer
370
-1
48
1
60
0
100
AcDbPoint
10
79.795569
20
15.925
30
0
39
0
210
0
220
0
230
1
50
360
0
ENDBLK
5
130
100
AcDbEntity
8
0
100
AcDbBlockEnd
0
BLOCK
5
141
100
AcDbEntity
8
0
100
AcDbBlockBegin
2
_U0
70
0
10
0
20
0
30
0
3
_U0
0
MTEXT
5
13B
100
AcDbEntity
8
2
62
256
6
ByLayer
370
18
48
1
60
0
100
AcDbMText
10
79.105936
20
-6.192233
30
0
210
0
220
0
230
1
1
\W0.7361;40
40
3.5
41
0
44
1.084337
50
90
71
7
72
5
7
iso_b_vert
0
LINE
5
13C
100
AcDbEntity
8
2
62
256
6
ByLayer
370
13
48
1
60
0
100
AcDbLine
10
48.320339
20
-24.075
30
0
11
81.795569
21
-24.075
31
0
39
0
210
0
220
0
230
1
0
LINE
5
13D
100
AcDbEntity
8
2
62
256
6
ByLayer
370
13
48
1
60
0
100
AcDbLine
10
-141.679661
20
15.925
30
0
11
81.795569
21
15.925
31
0
39
0
210
0
220
0
230
1
0
LINE
5
13E
100
AcDbEntity
8
2
62
256
6
ByLayer
370
13
48
1
60
0
100
AcDbLine
10
79.795569
20
-24.075
30
0
11
79.795569
21
15.925
31
0
39
0
210
0
220
0
230
1
0
SOLID
5
13F
100
AcDbEntity
8
2
62
256
6
ByLayer
370
18
48
1
60
0
100
AcDbTrace
10
79.795569
20
-24.075
30
0
11
79.334786
21
-20.575002
31
0
12
80.256353
22
-20.574998
32
0
13
80.256353
23
-20.574998
33
0
39
0
210
0
220
0
230
1
0
SOLID
5
140
100
AcDbEntity
8
2
62
256
6
ByLayer
370
18
48
1
60
0
100
AcDbTrace
10
79.795569
20
15.925
30
0
11
80.256353
21
12.425002
31
0
12
79.334786
22
12.424998
32
0
13
79.334786
23
12.424998
33
0
39
0
210
0
220
0
230
1
0
ENDBLK
5
142
100
AcDbEntity
8
0
100
AcDbBlockEnd
0
BLOCK
5
147
100
AcDbEntity
8
0
100
AcDbBlockBegin
2
*D3
70
1
10
0
20
0
30
0
3
*D3
0
LINE
5
149
100
AcDbEntity
8
0
62
256
6
ByLayer
370
-2
48
1
60
0
100
AcDbLine
10
-144.854661
20
15.925
30
0
11
-156.867161
21
15.925
31
0
39
0
210
0
220
0
230
1
0
LINE
5
14A
100
AcDbEntity
8
0
62
256
6
ByLayer
370
-2
48
1
60
0
100
AcDbLine
10
-144.854661
20
-16.075
30
0
11
-156.867161
21
-16.075
31
0
39
0
210
0
220
0
230
1
0
LINE
5
14B
100
AcDbEntity
8
0
62
256
6
ByLayer
370
-2
48
1
60
0
100
AcDbLine
10
-154.867161
20
12.425
30
0
11
-154.867161
21
-12.575
31
0
39
0
210
0
220
0
230
1
0
SOLID
5
14C
100
AcDbEntity
8
0
62
256
6
ByLayer
370
-1
48
1
60
0
100
AcDbTrace
10
-154.283828
20
12.425
30
0
11
-155.450495
21
12.425
31
0
12
-154.867161
22
15.925
32
0
13
-154.867161
23
15.925
33
0
39
0
210
0
220
0
230
1
0
SOLID
5
14D
100
AcDbEntity
8
0
62
256
6
ByLayer
370
-1
48
1
60
0
100
AcDbTrace
10
-155.450495
20
-12.575
30
0
11
-154.283828
21
-12.575
31
0
12
-154.867161
22
-16.075
32
0
13
-154.867161
23
-16.075
33
0
39
0
210
0
220
0
230
1
0
MTEXT
5
14E
100
AcDbEntity
8
0
62
256
6
ByLayer
370
18
48
1
60
0
100
AcDbMText
10
-161.867161
20
-0.075
30
0
210
0
220
0
230
1
1
\A1;32
40
3.5
41
0
44
1
50
90
71
5
72
5
7
iso_b_vert
0
POINT
5
14F
100
AcDbEntity
8
Defpoints
62
0
6
ByLayer
370
-1
48
1
60
0
100
AcDbPoint
10
-143.267161
20
15.925
30
0
39
0
210
0
220
0
230
1
50
360
0
POINT
5
150
100
AcDbEntity
8
Defpoints
62
0
6
ByLayer
370
-1
48
1
60
0
100
AcDbPoint
10
-143.267161
20
-16.075
30
0
39
0
210
0
220
0
230
1
50
360
0
POINT
5
151
100
AcDbEntity
8
Defpoints
62
0
6
ByLayer
370
-1
48
1
60
0
100
AcDbPoint
10
-154.867161
20
-16.075
30
0
39
0
210
0
220
0
230
1
50
360
0
ENDBLK
5
148
100
AcDbEntity
8
0
100
AcDbBlockEnd
0
BLOCK
5
15A
100
AcDbEntity
8
0
100
AcDbBlockBegin
2
_U1
70
0
10
0
20
0
30
0
3
_U1
0
MTEXT
5
154
100
AcDbEntity
8
SK2
62
256
6
ByLayer
370
18
48
1
60
0
100
AcDbMText
10
-155.556795
20
-2.007966
30
0
210
0
220
0
230
1
1
\W0.6740;32
40
3.5
41
0
44
1.084337
50
90
71
7
72
5
7
iso_b_vert
0
LINE
5
155
100
AcDbEntity
8
SK2
62
256
6
ByLayer
370
13
48
1
60
0
100
AcDbLine
10
-144.854661
20
15.925
30
0
11
-156.867161
21
15.925
31
0
39
0
210
0
220
0
230
1
0
LINE
5
156
100
AcDbEntity
8
SK2
62
256
6
ByLayer
370
13
48
1
60
0
100
AcDbLine
10
-144.854661
20
-16.075
30
0
11
-156.867161
21
-16.075
31
0
39
0
210
0
220
0
230
1
0
LINE
5
157
100
AcDbEntity
8
SK2
62
256
6
ByLayer
370
13
48
1
60
0
100
AcDbLine
10
-154.867161
20
15.925
30
0
11
-154.867161
21
-16.075
31
0
39
0
210
0
220
0
230
1
0
SOLID
5
158
100
AcDbEntity
8
SK2
62
256
6
ByLayer
370
18
48
1
60
0
100
AcDbTrace
10
-154.867161
20
15.925
30
0
11
-154.406378
21
12.425002
31
0
12
-155.327945
22
12.424998
32
0
13
-155.327945
23
12.424998
33
0
39
0
210
0
220
0
230
1
0
SOLID
5
159
100
AcDbEntity
8
SK2
62
256
6
ByLayer
370
18
48
1
60
0
100
AcDbTrace
10
-154.867161
20
-16.075
30
0
11
-155.327945
21
-12.575002
31
0
12
-154.406378
22
-12.574998
32
0
13
-154.406378
23
-12.574998
33
0
39
0
210
0
220
0
230
1
0
ENDBLK
5
15B
100
AcDbEntity
8
0
100
AcDbBlockEnd
0
BLOCK
5
160
100
AcDbEntity
8
0
100
AcDbBlockBegin
2
*D5
70
1
10
0
20
0
30
0
3
*D5
0
LINE
5
162
100
AcDbEntity
8
0
62
256
6
ByLayer
370
-2
48
1
60
0
100
AcDbLine
10
21.732839
20
-12.710181
30
0
11
21.732839
21
24.175
31
0
39
0
210
0
220
0
230
1
0
LINE
5
163
100
AcDbEntity
8
0
62
256
6
ByLayer
370
-2
48
1
60
0
100
AcDbLine
10
46.732839
20
-22.4875
30
0
11
46.732839
21
24.175
31
0
39
0
210
0
220
0
230
1
0
LINE
5
164
100
AcDbEntity
8
0
62
256
6
ByLayer
370
-2
48
1
60
0
100
AcDbLine
10
25.232839
20
22.175
30
0
11
43.232839
21
22.175
31
0
39
0
210
0
220
0
230
1
0
SOLID
5
165
100
AcDbEntity
8
0
62
256
6
ByLayer
370
-1
48
1
60
0
100
AcDbTrace
10
25.232839
20
22.758333
30
0
11
25.232839
21
21.591667
31
0
12
21.732839
22
22.175
32
0
13
21.732839
23
22.175
33
0
39
0
210
0
220
0
230
1
0
SOLID
5
166
100
AcDbEntity
8
0
62
256
6
ByLayer
370
-1
48
1
60
0
100
AcDbTrace
10
43.232839
20
21.591667
30
0
11
43.232839
21
22.758333
31
0
12
46.732839
22
22.175
32
0
13
46.732839
23
22.175
33
0
39
0
210
0
220
0
230
1
0
MTEXT
5
167
100
AcDbEntity
8
0
62
256
6
ByLayer
370
18
48
1
60
0
100
AcDbMText
10
34.232839
20
29.175
30
0
210
0
220
0
230
1
1
\A1;25
40
3.5
41
0
44
1
50
0
71
5
72
5
7
iso_b_vert
0
POINT
5
168
100
AcDbEntity
8
Defpoints
62
0
6
ByLayer
370
-1
48
1
60
0
100
AcDbPoint
10
21.732839
20
-14.297681
30
0
39
0
210
0
220
0
230
1
50
360
0
POINT
5
169
100
AcDbEntity
8
Defpoints
62
0
6
ByLayer
370
-1
48
1
60
0
100
AcDbPoint
10
46.732839
20
-24.075
30
0
39
0
210
0
220
0
230
1
50
360
0
POINT
5
16A
100
AcDbEntity
8
Defpoints
62
0
6
ByLayer
370
-1
48
1
60
0
100
AcDbPoint
10
46.732839
20
22.175
30
0
39
0
210
0
220
0
230
1
50
360
0
ENDBLK
5
161
100
AcDbEntity
8
0
100
AcDbBlockEnd
0
BLOCK
5
172
100
AcDbEntity
8
0
100
AcDbBlockBegin
2
_U2
70
0
10
0
20
0
30
0
3
_U2
0
MTEXT
5
16C
100
AcDbEntity
8
2
62
256
6
ByLayer
370
18
48
1
60
0
100
AcDbMText
10
32.327873
20
23.207634
30
0
210
0
220
0
230
1
1
\W0.6740;25
40
3.5
41
0
44
1.084337
50
0
71
7
72
5
7
iso_b_vert
0
LINE
5
16D
100
AcDbEntity
8
2
62
256
6
ByLayer
370
13
48
1
60
0
100
AcDbLine
10
21.732839
20
-12.710181
30
0
11
21.732839
21
24.175
31
0
39
0
210
0
220
0
230
1
0
LINE
5
16E
100
AcDbEntity
8
2
62
256
6
ByLayer
370
13
48
1
60
0
100
AcDbLine
10
46.732839
20
-22.4875
30
0
11
46.732839
21
24.175
31
0
39
0
210
0
220
0
230
1
0
LINE
5
16F
100
AcDbEntity
8
2
62
256
6
ByLayer
370
13
48
1
60
0
100
AcDbLine
10
21.732839
20
22.175
30
0
11
46.732839
21
22.175
31
0
39
0
210
0
220
0
230
1
0
SOLID
5
170
100
AcDbEntity
8
2
62
256
6
ByLayer
370
18
48
1
60
0
100
AcDbTrace
10
21.732839
20
22.175
30
0
11
25.232837
21
22.635784
31
0
12
25.23284
22
21.714216
32
0
13
25.23284
23
21.714216
33
0
39
0
210
0
220
0
230
1
0
SOLID
5
171
100
AcDbEntity
8
2
62
256
6
ByLayer
370
18
48
1
60
0
100
AcDbTrace
10
46.732839
20
22.175
30
0
11
43.23284
21
21.714216
31
0
12
43.232837
22
22.635784
32
0
13
43.232837
23
22.635784
33
0
39
0
210
0
220
0
230
1
0
ENDBLK
5
173
100
AcDbEntity
8
0
100
AcDbBlockEnd
0
BLOCK
5
178
100
AcDbEntity
8
0
100
AcDbBlockBegin
2
*D7
70
1
10
0
20
0
30
0
3
*D7
0
LINE
5
17A
100
AcDbEntity
8
0
62
256
6
ByLayer
370
-2
48
1
60
0
100
AcDbLine
10
-143.267161
20
17.5125
30
0
11
-143.267161
21
35.175
31
0
39
0
210
0
220
0
230
1
0
LINE
5
17B
100
AcDbEntity
8
0
62
256
6
ByLayer
370
-2
48
1
60
0
100
AcDbLine
10
46.732839
20
-22.4875
30
0
11
46.732839
21
35.175
31
0
39
0
210
0
220
0
230
1
0
LINE
5
17C
100
AcDbEntity
8
0
62
256
6
ByLayer
370
-2
48
1
60
0
100
AcDbLine
10
-139.767161
20
33.175
30
0
11
43.232839
21
33.175
31
0
39
0
210
0
220
0
230
1
0
SOLID
5
17D
100
AcDbEntity
8
0
62
256
6
ByLayer
370
-1
48
1
60
0
100
AcDbTrace
10
-139.767161
20
33.758333
30
0
11
-139.767161
21
32.591667
31
0
12
-143.267161
22
33.175
32
0
13
-143.267161
23
33.175
33
0
39
0
210
0
220
0
230
1
0
SOLID
5
17E
100
AcDbEntity
8
0
62
256
6
ByLayer
370
-1
48
1
60
0
100
AcDbTrace
10
43.232839
20
32.591667
30
0
11
43.232839
21
33.758333
31
0
12
46.732839
22
33.175
32
0
13
46.732839
23
33.175
33
0
39
0
210
0
220
0
230
1
0
MTEXT
5
17F
100
AcDbEntity
8
0
62
256
6
ByLayer
370
18
48
1
60
0
100
AcDbMText
10
-48.267161
20
40.175
30
0
210
0
220
0
230
1
1
\A1;190
40
3.5
41
0
44
1
50
0
71
5
72
5
7
iso_b_vert
0
POINT
5
180
100
AcDbEntity
8
Defpoints
62
0
6
ByLayer
370
-1
48
1
60
0
100
AcDbPoint
10
-143.267161
20
15.925
30
0
39
0
210
0
220
0
230
1
50
360
0
POINT
5
181
100
AcDbEntity
8
Defpoints
62
0
6
ByLayer
370
-1
48
1
60
0
100
AcDbPoint
10
46.732839
20
-24.075
30
0
39
0
210
0
220
0
230
1
50
360
0
POINT
5
182
100
AcDbEntity
8
Defpoints
62
0
6
ByLayer
370
-1
48
1
60
0
100
AcDbPoint
10
46.732839
20
33.175
30
0
39
0
210
0
220
0
230
1
50
360
0
ENDBLK
5
179
100
AcDbEntity
8
0
100
AcDbBlockEnd
0
BLOCK
5
18A
100
AcDbEntity
8
0
100
AcDbBlockBegin
2
_U3
70
0
10
0
20
0
30
0
3
_U3
0
MTEXT
5
184
100
AcDbEntity
8
SK2
62
256
6
ByLayer
370
18
48
1
60
0
100
AcDbMText
10
-51.042427
20
34.207634
30
0
210
0
220
0
230
1
1
\W0.6217;190
40
3.5
41
0
44
1.084337
50
0
71
7
72
5
7
iso_b_vert
0
LINE
5
185
100
AcDbEntity
8
SK2
62
256
6
ByLayer
370
13
48
1
60
0
100
AcDbLine
10
-143.267161
20
17.5125
30
0
11
-143.267161
21
35.175
31
0
39
0
210
0
220
0
230
1
0
LINE
5
186
100
AcDbEntity
8
SK2
62
256
6
ByLayer
370
13
48
1
60
0
100
AcDbLine
10
46.732839
20
-22.4875
30
0
11
46.732839
21
35.175
31
0
39
0
210
0
220
0
230
1
0
LINE
5
187
100
AcDbEntity
8
SK2
62
256
6
ByLayer
370
13
48
1
60
0
100
AcDbLine
10
-143.267161
20
33.175
30
0
11
46.732839
21
33.175
31
0
39
0
210
0
220
0
230
1
0
SOLID
5
188
100
AcDbEntity
8
SK2
62
256
6
ByLayer
370
18
48
1
60
0
100
AcDbTrace
10
-143.267161
20
33.175
30
0
11
-139.767163
21
33.635784
31
0
12
-139.76716
22
32.714216
32
0
13
-139.76716
23
32.714216
33
0
39
0
210
0
220
0
230
1
0
SOLID
5
189
100
AcDbEntity
8
SK2
62
256
6
ByLayer
370
18
48
1
60
0
100
AcDbTrace
10
46.732839
20
33.175
30
0
11
43.23284
21
32.714216
31
0
12
43.232837
22
33.635784
32
0
13
43.232837
23
33.635784
33
0
39
0
210
0
220
0
230
1
0
ENDBLK
5
18B
100
AcDbEntity
8
0
100
AcDbBlockEnd
0
ENDSEC
0
SECTION
2
ENTITIES
0
ARC
5
CE
100
AcDbEntity
8
1
62
256
6
ByLayer
370
18
48
1
60
0
100
AcDbCircle
39
0
10
21.537118
20
-22.283352
30
0
40
1.6
210
0
220
0
230
1
100
AcDbArc
50
83
51
90
0
ARC
5
CF
100
AcDbEntity
8
1
62
256
6
ByLayer
370
18
48
1
60
0
100
AcDbCircle
39
0
10
21.732839
20
-12.685665
30
0
40
1.6
210
0
220
0
230
1
100
AcDbArc
50
180
51
263
0
ARC
5
D1
100
AcDbEntity
8
1
62
256
6
ByLayer
370
18
48
1
60
0
100
AcDbCircle
39
0
10
13.382839
20
-2
30
0
40
2.1768
210
0
220
0
230
1
100
AcDbArc
50
330
51
30
0
ARC
5
D2
100
AcDbEntity
8
1
62
256
6
ByLayer
370
18
48
1
60
0
100
AcDbCircle
39
0
10
13.382839
20
-2
30
0
40
2.1768
210
0
220
0
230
1
100
AcDbArc
50
150
51
210
0
ARC
5
D3
100
AcDbEntity
8
1
62
256
6
ByLayer
370
18
48
1
60
0
100
AcDbCircle
39
0
10
13.382839
20
-2
30
0
40
2.1768
210
0
220
0
230
1
100
AcDbArc
50
270
51
330
0
ARC
5
D4
100
AcDbEntity
8
1
62
256
6
ByLayer
370
18
48
1
60
0
100
AcDbCircle
39
0
10
13.382839
20
-2
30
0
40
2.1768
210
0
220
0
230
1
100
AcDbArc
50
210
51
270
0
ARC
5
D5
100
AcDbEntity
8
1
62
256
6
ByLayer
370
18
48
1
60
0
100
AcDbCircle
39
0
10
13.382839
20
-2
30
0
40
2.1768
210
0
220
0
230
1
100
AcDbArc
50
30
51
90
0
ARC
5
D6
100
AcDbEntity
8
1
62
256
6
ByLayer
370
18
48
1
60
0
100
AcDbCircle
39
0
10
13.382839
20
-2
30
0
40
2.1768
210
0
220
0
230
1
100
AcDbArc
50
90
51
150
0
ARC
5
D9
100
AcDbEntity
8
1
62
256
6
ByLayer
370
18
48
1
60
0
100
AcDbCircle
39
0
10
13.382839
20
-2
30
0
40
2.8067
210
0
220
0
230
1
100
AcDbArc
50
180
51
240
0
ARC
5
DA
100
AcDbEntity
8
1
62
256
6
ByLayer
370
18
48
1
60
0
100
AcDbCircle
39
0
10
13.382839
20
-2
30
0
40
2.8067
210
0
220
0
230
1
100
AcDbArc
50
240
51
300
0
ARC
5
DB
100
AcDbEntity
8
1
62
256
6
ByLayer
370
18
48
1
60
0
100
AcDbCircle
39
0
10
13.382839
20
-2
30
0
40
2.8067
210
0
220
0
230
1
100
AcDbArc
50
60
51
120
0
ARC
5
DC
100
AcDbEntity
8
1
62
256
6
ByLayer
370
18
48
1
60
0
100
AcDbCircle
39
0
10
13.382839
20
-2
30
0
40
2.8067
210
0
220
0
230
1
100
AcDbArc
50
300
51
360
0
ARC
5
DD
100
AcDbEntity
8
1
62
256
6
ByLayer
370
18
48
1
60
0
100
AcDbCircle
39
0
10
13.382839
20
-2
30
0
40
2.8067
210
0
220
0
230
1
100
AcDbArc
50
360
51
60
0
ARC
5
DE
100
AcDbEntity
8
1
62
256
6
ByLayer
370
18
48
1
60
0
100
AcDbCircle
39
0
10
13.382839
20
-2
30
0
40
2.8067
210
0
220
0
230
1
100
AcDbArc
50
120
51
180
0
ARC
5
DF
100
AcDbEntity
8
2
62
256
6
ByLayer
370
13
48
1
60
0
100
AcDbCircle
39
0
10
46.732839
20
-24.075
30
0
40
44.8228784166885
210
0
220
0
230
1
100
AcDbArc
50
341.954045
51
11.045955
0
CIRCLE
5
D0
100
AcDbEntity
8
1
62
256
6
ByLayer
370
18
48
1
60
0
100
AcDbCircle
10
13.382839
20
-2
30
0
40
5.75000000000002
39
0
210
0
220
0
230
1
0
CIRCLE
5
D7
100
AcDbEntity
8
1
62
256
6
ByLayer
370
18
48
1
60
0
100
AcDbCircle
10
13.382839
20
-2
30
0
40
5.35
39
0
210
0
220
0
230
1
0
CIRCLE
5
D8
100
AcDbEntity
8
1
62
256
6
ByLayer
370
13
48
1
60
0
100
AcDbCircle
10
13.382839
20
-2
30
0
40
4.55
39
0
210
0
220
0
230
1
0
ELLIPSE
5
E0
100
AcDbEntity
8
1
62
256
6
ByLayer
370
18
48
1
60
0
100
AcDbEllipse
10
-1.422558
20
15.934599
30
0
11
3.00000000000089
21
3.51436609374861E-15
31
0
210
0
220
0
230
1
40
0.004363
41
-1.07675704126202
42
-0.261799387799435
0
ELLIPSE
5
E1
100
AcDbEntity
8
SK1
62
256
6
ByLayer
370
18
48
1
60
0
100
AcDbEllipse
10
-1.422558
20
15.934599
30
0
11
3.00000000000024
21
3.51436609374785E-15
31
0
210
0
220
0
230
1
40
0.004363
41
-2.31838067646394
42
-1.07675704126208
0
POINT
5
70
100
AcDbEntity
8
81
62
256
6
ByLayer
370
18
48
1
60
0
100
AcDbPoint
10
46.732839
20
-24.075
30
0
39
0
210
0
220
0
230
1
50
360
0
POINT
5
72
100
AcDbEntity
8
80
62
256
6
ByLayer
370
18
48
1
60
0
100
AcDbPoint
10
0
20
0
30
0
39
0
210
0
220
0
230
1
50
360
0
POINT
5
74
100
AcDbEntity
8
1
62
256
6
ByLayer
370
18
48
1
60
0
100
AcDbPoint
10
46.703023
20
-20.562477
30
0
39
0
210
0
220
0
230
1
50
360
0
POINT
5
76
100
AcDbEntity
8
1
62
256
6
ByLayer
370
18
48
1
60
1
100
AcDbPoint
10
46.732839
20
-24.075
30
0
39
0
210
0
220
0
230
1
50
360
0
POINT
5
77
100
AcDbEntity
8
1
62
256
6
ByLayer
370
18
48
1
60
1
100
AcDbPoint
10
-143.267161
20
15.925
30
0
39
0
210
0
220
0
230
1
50
360
0
POINT
5
78
100
AcDbEntity
8
1
62
256
6
ByLayer
370
18
48
1
60
1
100
AcDbPoint
10
-143.267161
20
15.925
30
0
39
0
210
0
220
0
230
1
50
360
0
POINT
5
79
100
AcDbEntity
8
1
62
256
6
ByLayer
370
18
48
1
60
1
100
AcDbPoint
10
-143.267161
20
-16.075
30
0
39
0
210
0
220
0
230
1
50
360
0
POINT
5
7A
100
AcDbEntity
8
1
62
256
6
ByLayer
370
18
48
1
60
1
100
AcDbPoint
10
21.732839
20
-14.297681
30
0
39
0
210
0
220
0
230
1
50
360
0
POINT
5
7B
100
AcDbEntity
8
1
62
256
6
ByLayer
370
18
48
1
60
1
100
AcDbPoint
10
46.732839
20
-24.075
30
0
39
0
210
0
220
0
230
1
50
360
0
POINT
5
7C
100
AcDbEntity
8
1
62
256
6
ByLayer
370
18
48
1
60
1
100
AcDbPoint
10
-143.267161
20
15.925
30
0
39
0
210
0
220
0
230
1
50
360
0
POINT
5
7D
100
AcDbEntity
8
1
62
256
6
ByLayer
370
18
48
1
60
1
100
AcDbPoint
10
46.732839
20
-24.075
30
0
39
0
210
0
220
0
230
1
50
360
0
SPLINE
5
E2
100
AcDbEntity
8
1
62
256
6
ByLayer
370
18
48
1
60
0
100
AcDbSpline
70
4
71
3
72
16
73
12
40
0
40
0
40
0
40
0
40
0.124999999999977
40
0.124999999999977
40
0.249999999999955
40
0.249999999999955
40
0.49999999999997
40
0.49999999999997
40
0.749999999999985
40
0.749999999999985
40
1
40
1
40
1
40
1
41
1
10
-5.68E-14
20
-16.4989903551092
30
0
41
1
10
0.0182324408846171
20
-16.5208072945771
30
0
41
1
10
0.0359252533202721
20
-16.5431591314145
30
0
41
1
10
0.0702259209440967
20
-16.5889727645184
30
0
41
1
10
0.08686461530516
20
-16.6124810890631
30
0
41
1
10
0.134914684422569
20
-16.6844374538773
30
0
41
1
10
0.164210017660395
20
-16.7339033946569
30
0
41
1
10
0.217448015639036
20
-16.83594841924
30
0
41
1
10
0.241391044067342
20
-16.8885269496893
30
0
41
1
10
0.283792088657577
20
-16.9970642655787
30
0
41
1
10
0.302252442722874
20
-17.0530214729535
30
0
41
1
10
0.317758141296139
20
-17.110889527836
30
0
0
SPLINE
5
E3
100
AcDbEntity
8
1
62
256
6
ByLayer
370
18
48
1
60
0
100
AcDbSpline
70
4
71
3
72
16
73
12
40
0
40
0
40
0
40
0
40
0.124999999999996
40
0.124999999999996
40
0.249999999999992
40
0.249999999999992
40
0.499999999999995
40
0.499999999999995
40
0.749999999999997
40
0.749999999999997
40
1
40
1
40
1
40
1
41
1
10
35.6168018490225
20
-16.5600082870439
30
0
41
1
10
35.6200988446682
20
-16.638312319724
30
0
41
1
10
35.6226855997233
20
-16.7167825517554
30
0
41
1
10
35.6271097834048
20
-16.8738330263903
30
0
41
1
10
35.6289346755119
20
-16.952429957139
30
0
41
1
10
35.6337013659847
20
-17.1883518391828
30
0
41
1
10
35.6359538802316
20
-17.3458092179757
30
0
41
1
10
35.6396111633729
20
-17.660855380455
30
0
41
1
10
35.640992160106
20
-17.8184476271242
30
0
41
1
10
35.6432578819374
20
-18.1337087991997
30
0
41
1
10
35.6441363042568
20
-18.2913786984458
30
0
41
1
10
35.6448572125577
20
-18.4490729351217
30
0
0
SPLINE
5
E4
100
AcDbEntity
8
1
62
256
6
ByLayer
370
18
48
1
60
0
100
AcDbSpline
70
4
71
3
72
16
73
12
40
0
40
0
40
0
40
0
40
0.124999999999997
40
0.124999999999997
40
0.249999999999993
40
0.249999999999993
40
0.499999999999996
40
0.499999999999996
40
0.749999999999998
40
0.749999999999998
40
1
40
1
40
1
40
1
41
1
10
34.9778250975393
20
-21.764056310545
30
0
41
1
10
34.9999720821776
20
-21.688860701674
30
0
41
1
10
35.0214735930971
20
-21.6133187113029
30
0
41
1
10
35.0637666721009
20
-21.4619793864459
30
0
41
1
10
35.0845528816948
20
-21.3861533647516
30
0
41
1
10
35.1462529680678
20
-21.1583895359693
30
0
41
1
10
35.1865256432405
20
-21.0061734899391
30
0
41
1
10
35.2662830464722
20
-20.7013994811257
30
0
41
1
10
35.3057455924496
20
-20.5488318927911
30
0
41
1
10
35.3842092199466
20
-20.2434964711737
30
0
41
1
10
35.423204447969
20
-20.0907260978615
30
0
41
1
10
35.4620531974498
20
-19.9378921625837
30
0
0
SPLINE
5
E5
100
AcDbEntity
8
1
62
256
6
ByLayer
370
18
48
1
60
0
100
AcDbSpline
70
4
71
3
72
8
73
4
40
0
40
0
40
0
40
0
40
1
40
1
40
1
40
1
41
1
10
35.635281221448
20
-19.8744532464532
30
0
41
1
10
35.5775730110014
20
-19.8959067795632
30
0
41
1
10
35.5198428243437
20
-19.9171644080034
30
0
41
1
10
35.4620531974498
20
-19.9378921625837
30
0
0
SPLINE
5
E6
100
AcDbEntity
8
1
62
256
6
ByLayer
370
18
48
1
60
0
100
AcDbSpline
70
4
71
3
72
22
73
18
40
0
40
0
40
0
40
0
40
0.125
40
0.125
40
0.25
40
0.25
40
0.375
40
0.375
40
0.5
40
0.5
40
0.625
40
0.625
40
0.75
40
0.75
40
0.875
40
0.875
40
1
40
1
40
1
40
1
41
1
10
35.635281221448
20
-19.8744532464533
30
0
41
1
10
35.6404814393008
20
-19.8725200198808
30
0
41
1
10
35.6456243353356
20
-19.8700480386194
30
0
41
1
10
35.6557895692323
20
-19.8639709773279
30
0
41
1
10
35.6607285426368
20
-19.8604097897389
30
0
41
1
10
35.6701840170504
20
-19.8523663795441
30
0
41
1
10
35.6747240284261
20
-19.8478704050898
30
0
41
1
10
35.6834172411171
20
-19.8379012216815
30
0
41
1
10
35.6875795893395
20
-19.8323989652515
30
0
41
1
10
35.6952151461179
20
-19.8207774425559
30
0
41
1
10
35.698728575453
20
-19.8146181553838
30
0
41
1
10
35.7051416341365
20
-19.8015966869663
30
0
41
1
10
35.7080622907924
20
-19.7946670511038
30
0
41
1
10
35.7131000739438
20
-19.7804758012519
30
0
41
1
10
35.7152304254428
20
-19.7732089339688
30
0
41
1
10
35.7187232540834
20
-19.7583367719847
30
0
41
1
10
35.7200922793187
20
-19.7506730016877
30
0
41
1
10
35.7210380365588
20
-19.7429704270881
30
0
0
SPLINE
5
E7
100
AcDbEntity
8
1
62
256
6
ByLayer
370
18
48
1
60
0
100
AcDbSpline
70
4
71
3
72
20
73
16
40
0
40
0
40
0
40
0
40
0.12499999999988
40
0.12499999999988
40
0.249999999999761
40
0.249999999999761
40
0.499999999999808
40
0.499999999999808
40
0.624999999999856
40
0.624999999999856
40
0.749999999999904
40
0.749999999999904
40
0.874999999999952
40
0.874999999999952
40
1
40
1
40
1
40
1
41
1
10
35.7975923610693
20
-18.5525350962579
30
0
41
1
10
35.8021771513497
20
-18.5556735518859
30
0
41
1
10
35.8066133051536
20
-18.5593576646508
30
0
41
1
10
35.8149837059518
20
-18.567699973552
30
0
41
1
10
35.8188817172155
20
-18.5723117995928
30
0
41
1
10
35.8297265532715
20
-18.5874503120919
30
0
41
1
10
35.835875957122
20
-18.5994636281181
30
0
41
1
10
35.8427528568796
20
-18.6190930384334
30
0
41
1
10
35.8446799614696
20
-18.6259339767554
30
0
41
1
10
35.8477733168716
20
-18.6402362979027
30
0
41
1
10
35.8489143374893
20
-18.6476077148861
30
0
41
1
10
35.8503600222919
20
-18.66250220092
30
0
41
1
10
35.8506742715154
20
-18.6700677491858
30
0
41
1
10
35.8504638378376
20
-18.685441752548
30
0
41
1
10
35.8499305045576
20
-18.6932255157537
30
0
41
1
10
35.8489932593711
20
-18.7008587652402
30
0
0
SPLINE
5
E8
100
AcDbEntity
8
1
62
256
6
ByLayer
370
18
48
1
60
0
100
AcDbSpline
70
4
71
3
72
8
73
4
40
0
40
0
40
0
40
0
40
1
40
1
40
1
40
1
41
1
10
35.6448572125575
20
-18.4490729351217
30
0
41
1
10
35.6959072920053
20
-18.4831599201029
30
0
41
1
10
35.7467822364861
20
-18.5177537187684
30
0
41
1
10
35.7975923610695
20
-18.5525350962573
30
0
0
SPLINE
5
E9
100
AcDbEntity
8
SK1
62
256
6
ByLayer
370
18
48
1
60
0
100
AcDbSpline
70
4
71
3
72
26
73
22
40
0
40
0
40
0
40
0
40
0.124999999999988
40
0.124999999999988
40
0.249999999999976
40
0.249999999999976
40
0.312499999999999
40
0.312499999999999
40
0.375000000000021
40
0.375000000000021
40
0.500000000000015
40
0.500000000000015
40
0.625000000000008
40
0.625000000000008
40
0.687500000000008
40
0.687500000000008
40
0.750000000000008
40
0.750000000000008
40
0.875000000000004
40
0.875000000000004
40
1
40
1
40
1
40
1
41
1
10
-1.22772318076639
20
-15.925
30
0
41
1
10
-1.16683654386111
20
-15.925
30
0
41
1
10
-1.10670559684874
20
-15.9284629886696
30
0
41
1
10
-0.987874433570767
20
-15.9419496967456
30
0
41
1
10
-0.929174480712732
20
-15.9519746638093
30
0
41
1
10
-0.84217140203441
20
-15.9718629054179
30
0
41
1
10
-0.813345177225358
20
-15.9793027602057
30
0
41
1
10
-0.756041753699748
20
-15.9958153419921
30
0
41
1
10
-0.727761583736225
20
-16.0048341077732
30
0
41
1
10
-0.644421498849624
20
-16.0339524147596
30
0
41
1
10
-0.590663731819461
20
-16.056161382865
30
0
41
1
10
-0.486480352110704
20
-16.1058838336323
30
0
41
1
10
-0.436055644084831
20
-16.1333982596587
30
0
41
1
10
-0.362812980398331
20
-16.1786146285746
30
0
41
1
10
-0.338798757654331
20
-16.1943459961123
30
0
41
1
10
-0.291563548300473
20
-16.2271433628445
30
0
41
1
10
-0.268282148560303
20
-16.2442572635419
30
0
41
1
10
-0.200092471860558
20
-16.2972820636659
30
0
41
1
10
-0.156991062458957
20
-16.3347205089881
30
0
41
1
10
-0.0752061172282197
20
-16.4137228274855
30
0
41
1
10
-0.0365232888152036
20
-16.4552865863001
30
0
41
1
10
-5.68E-14
20
-16.4989903551092
30
0
0
SPLINE
5
EA
100
AcDbEntity
8
1
62
256
6
ByLayer
370
18
48
1
60
0
100
AcDbSpline
70
4
71
3
72
37
73
33
40
0
40
0
40
0
40
0
40
0.125000000000023
40
0.125000000000023
40
0.250000000000046
40
0.250000000000046
40
0.375000000000069
40
0.375000000000069
40
0.437500000000091
40
0.437500000000091
40
0.500000000000114
40
0.500000000000114
40
0.562500000000137
40
0.562500000000137
40
0.62500000000016
40
0.62500000000016
40
0.687500000000182
40
0.687500000000182
40
0.718750000000189
40
0.718750000000189
40
0.750000000000196
40
0.750000000000196
40
0.812500000000143
40
0.812500000000143
40
0.843750000000121
40
0.843750000000121
40
0.8750000000001
40
0.906250000000078
40
0.906250000000078
40
0.937500000000056
40
0.937500000000056
40
1
40
1
40
1
40
1
41
1
10
10.5761387094538
20
-2.00000000000006
30
0
41
1
10
10.5761387094538
20
-2.03644084874046
30
0
41
1
10
10.5775639230298
20
-2.07291844440047
30
0
41
1
10
10.5833384336022
20
-2.14554710022503
30
0
41
1
10
10.5876930390597
20
-2.18177873327832
30
0
41
1
10
10.5995734763647
20
-2.25357955216373
30
0
41
1
10
10.6071130512141
20
-2.28924964856196
30
0
41
1
10
10.6211592980646
20
-2.34185143250659
30
0
41
1
10
10.6262999064491
20
-2.35923995664532
30
0
41
1
10
10.6376149223715
20
-2.39368639994947
30
0
41
1
10
10.643790238802
20
-2.41074121982194
30
0
41
1
10
10.657245392283
20
-2.44423020518855
30
0
41
1
10
10.664532347451
20
-2.46069232354583
30
0
41
1
10
10.6804351338691
20
-2.49293825585721
30
0
41
1
10
10.6890762402349
20
-2.50875613459687
30
0
41
1
10
10.7077041083378
20
-2.53905866467477
30
0
41
1
10
10.7177107406758
20
-2.55359939455565
30
0
41
1
10
10.7340148879811
20
-2.57425323484009
30
0
41
1
10
10.7396665546306
20
-2.58094380536781
30
0
41
1
10
10.7514690866304
20
-2.59387537811818
30
0
41
1
10
10.7576510864681
20
-2.60014344129843
30
0
41
1
10
10.7767562324767
20
-2.61785982120207
30
0
41
1
10
10.7902587671544
20
-2.62828502883676
30
0
41
1
10
10.8119400958895
20
-2.64128856120141
30
0
41
1
10
10.8194651759141
20
-2.64520336787572
30
0
41
1
10
10.8347157401822
20
-2.65185939191954
30
0
41
1
10
10.8501620681392
20
-2.65736162685846
30
0
41
1
10
10.8660074948162
20
-2.66046278982003
30
0
41
1
10
10.8820606738882
20
-2.66229360796564
30
0
41
1
10
10.8901191121414
20
-2.66255503029828
30
0
41
1
10
10.9138039414401
20
-2.66145950842269
30
0
41
1
10
10.9291793792858
20
-2.65826678296619
30
0
41
1
10
10.944182067155
20
-2.65287075857643
30
0
0
SPLINE
5
EB
100
AcDbEntity
8
1
62
256
6
ByLayer
370
18
48
1
60
0
100
AcDbSpline
70
4
71
3
72
35
73
31
40
0
40
0
40
0
40
0
40
0.12499999999997
40
0.12499999999997
40
0.249999999999941
40
0.249999999999941
40
0.374999999999911
40
0.374999999999911
40
0.437499999999862
40
0.437499999999862
40
0.499999999999813
40
0.499999999999813
40
0.624999999999775
40
0.624999999999775
40
0.687499999999773
40
0.687499999999773
40
0.718749999999787
40
0.718749999999787
40
0.7499999999998
40
0.7499999999998
40
0.812499999999846
40
0.812499999999846
40
0.843749999999873
40
0.843749999999873
40
0.8749999999999
40
0.906249999999928
40
0.906249999999928
40
0.937499999999955
40
0.937499999999955
40
1
40
1
40
1
40
1
41
1
10
11.9794887094537
20
-4.43067350080185
30
0
41
1
10
11.9479483601665
20
-4.41246367165056
30
0
41
1
10
11.9170542833336
20
-4.39298128927973
30
0
41
1
10
11.8570503261728
20
-4.3516713961213
30
0
41
1
10
11.8279303160566
20
-4.32984802469636
30
0
41
1
10
11.7716393521677
20
-4.28362435383059
30
0
41
1
10
11.7445556482931
20
-4.25929407393181
30
0
41
1
10
11.7060611189828
20
-4.22087634152126
30
0
41
1
10
11.6935753822175
20
-4.20773842442605
30
0
41
1
10
11.6693889329267
20
-4.18071216698269
30
0
41
1
10
11.6576897564095
20
-4.16682264752473
30
0
41
1
10
11.6242104563959
20
-4.12415343228139
30
0
41
1
10
11.6038547135241
20
-4.09419133952028
30
0
41
1
10
11.5783785292147
20
-4.04710060677235
30
0
41
1
10
11.5706958240854
20
-4.03095389028414
30
0
41
1
10
11.5609218892814
20
-4.00632323323711
30
0
41
1
10
11.5579541658416
20
-3.99804309568211
30
0
41
1
10
11.5526784052502
20
-3.98132656710575
30
0
41
1
10
11.5503648761571
20
-3.9728606926943
30
0
41
1
10
11.5446391073467
20
-3.94752347895448
30
0
41
1
10
11.542399841948
20
-3.93066173379674
30
0
41
1
10
11.5420270389331
20
-3.90544990923664
30
0
41
1
10
11.5424139962225
20
-3.89699830494155
30
0
41
1
10
11.5442984765506
20
-3.88051610260481
30
0
41
1
10
11.5472746545115
20
-3.86443931510769
30
0
41
1
10
11.5525194691126
20
-3.8492136460176
30
0
41
1
10
11.5589625342154
20
-3.83444107125734
30
0
41
1
10
11.5627615112741
20
-3.82735664974379
30
0
41
1
10
11.575534633756
20
-3.80745663987
30
0
41
1
10
11.5859647135949
20
-3.79577134708967
30
0
41
1
10
11.5981077259892
20
-3.78550322405027
30
0
0
SPLINE
5
EC
100
AcDbEntity
8
1
62
256
6
ByLayer
370
18
48
1
60
0
100
AcDbSpline
70
4
71
3
72
50
73
46
40
0
40
0
40
0
40
0
40
0.0312499999999839
40
0.0312499999999839
40
0.0624999999999678
40
0.0624999999999678
40
0.0937499999999518
40
0.0937499999999518
40
0.124999999999936
40
0.124999999999936
40
0.15624999999992
40
0.15624999999992
40
0.187499999999903
40
0.187499999999903
40
0.218749999999887
40
0.218749999999887
40
0.249999999999871
40
0.249999999999871
40
0.31249999999988
40
0.31249999999988
40
0.374999999999888
40
0.374999999999888
40
0.437499999999897
40
0.437499999999897
40
0.499999999999905
40
0.499999999999905
40
0.624999999999922
40
0.624999999999922
40
0.687499999999933
40
0.687499999999933
40
0.749999999999944
40
0.749999999999944
40
0.812499999999955
40
0.812499999999955
40
0.843749999999962
40
0.843749999999962
40
0.87499999999997
40
0.87499999999997
40
0.906249999999977
40
0.906249999999977
40
0.937499999999985
40
0.937499999999985
40
0.968749999999992
40
0.968749999999992
40
1
40
1
40
1
40
1
41
1
10
10.964182067155
20
-2.65149896176558
30
0
41
1
10
10.977850017977
20
-2.65056147919813
30
0
41
1
10
10.9915447152376
20
-2.65108511935927
30
0
41
1
10
11.0189860322174
20
-2.6544665890618
30
0
41
1
10
11.0327189886947
20
-2.65733756012088
30
0
41
1
10
11.0598023405242
20
-2.66491019765755
30
0
41
1
10
11.0732494801653
20
-2.66963731873838
30
0
41
1
10
11.099683992616
20
-2.68053579012528
30
0
41
1
10
11.112693895075
20
-2.68671068436276
30
0
41
1
10
11.1383754287869
20
-2.70029136910094
30
0
41
1
10
11.1510219453295
20
-2.70768785487744
30
0
41
1
10
11.175832297717
20
-2.72343124735482
30
0
41
1
10
11.1880218080414
20
-2.7317924884313
30
0
41
1
10
11.2120291159879
20
-2.74938520558899
30
0
41
1
10
11.2238505454345
20
-2.75862251195298
30
0
41
1
10
11.2470097414988
20
-2.77776235675449
30
0
41
1
10
11.2583687536754
20
-2.78768015715158
30
0
41
1
10
11.2918524217066
20
-2.81838986358966
30
0
41
1
10
11.3134407100921
20
-2.84019493136086
30
0
41
1
10
11.3548567469817
20
-2.88562969247082
30
0
41
1
10
11.3747199690911
20
-2.90928632802073
30
0
41
1
10
11.4129187300679
20
-2.95833395463239
30
0
41
1
10
11.431210894546
20
-2.98368144115813
30
0
41
1
10
11.4659838283997
20
-3.03552989888914
30
0
41
1
10
11.4825131727963
20
-3.06209458610425
30
0
41
1
10
11.5295205574369
20
-3.14365108836981
30
0
41
1
10
11.5569271425373
20
-3.19951612707882
30
0
41
1
10
11.5917947353817
20
-3.28571952477518
30
0
41
1
10
11.6023832779361
20
-3.31495490957167
30
0
41
1
10
11.6208725273066
20
-3.37332842931662
30
0
41
1
10
11.6288254229842
20
-3.4025689202424
30
0
41
1
10
11.6418105208469
20
-3.46122323066987
30
0
41
1
10
11.6468519021129
20
-3.49063598294967
30
0
41
1
10
11.6516874797531
20
-3.53496684220215
30
0
41
1
10
11.6528401883646
20
-3.54982441271676
30
0
41
1
10
11.6540591296659
20
-3.57920522762228
30
0
41
1
10
11.6541330070584
20
-3.59376737706427
30
0
41
1
10
11.6530570193267
20
-3.62261319924994
30
0
41
1
10
11.6519086562698
20
-3.63689716540668
30
0
41
1
10
11.6481526741805
20
-3.66514805351002
30
0
41
1
10
11.6455348180147
20
-3.67916662108814
30
0
41
1
10
11.6385126175905
20
-3.70659321568766
30
0
41
1
10
11.6341542305619
20
-3.7198443028106
30
0
41
1
10
11.6233966033137
20
-3.74525067843101
30
0
41
1
10
11.6170031270965
20
-3.75740907709616
30
0
41
1
10
11.6092957368767
20
-3.76886861437941
30
0
0
SPLINE
5
ED
100
AcDbEntity
8
1
62
256
6
ByLayer
370
18
48
1
60
0
100
AcDbSpline
70
4
71
3
72
8
73
4
40
0
40
0
40
0
40
0
40
1
40
1
40
1
40
1
41
1
10
10.944182067155
20
-2.65287075857643
30
0
41
1
10
10.9508484905506
20
-2.65241350965874
30
0
41
1
10
10.9575151553169
20
-2.65195624418547
30
0
41
1
10
10.964182067155
20
-2.65149896176558
30
0
0
SPLINE
5
EE
100
AcDbEntity
8
1
62
256
6
ByLayer
370
18
48
1
60
0
100
AcDbSpline
70
4
71
3
72
8
73
4
40
0
40
0
40
0
40
0
40
1
40
1
40
1
40
1
41
1
10
11.5981077259892
20
-3.78550322405027
30
0
41
1
10
11.6018369268656
20
-3.77995855649613
30
0
41
1
10
11.6055662627648
20
-3.77441368818671
30
0
41
1
10
11.6092957368763
20
-3.76886861438001
30
0
0
SPLINE
5
EF
100
AcDbEntity
8
1
62
256
6
ByLayer
370
18
48
1
60
0
100
AcDbSpline
70
4
71
3
72
35
73
31
40
0
40
0
40
0
40
0
40
0.125000000000022
40
0.125000000000022
40
0.250000000000043
40
0.250000000000043
40
0.375000000000064
40
0.375000000000064
40
0.437500000000076
40
0.437500000000076
40
0.500000000000087
40
0.500000000000087
40
0.625000000000111
40
0.625000000000111
40
0.687500000000122
40
0.687500000000122
40
0.718750000000079
40
0.718750000000079
40
0.750000000000037
40
0.750000000000037
40
0.812500000000034
40
0.812500000000034
40
0.843750000000029
40
0.843750000000029
40
0.875000000000023
40
0.906250000000017
40
0.906250000000017
40
0.937500000000011
40
0.937500000000011
40
1
40
1
40
1
40
1
41
1
10
14.7861887094538
20
-4.43067350080185
30
0
41
1
10
14.7546483601667
20
-4.44888332995311
30
0
41
1
10
14.7223290836908
20
-4.46589719413154
30
0
41
1
10
14.6565516882075
20
-4.49720719878118
30
0
41
1
10
14.6230920890992
20
-4.51151418158776
30
0
41
1
10
14.5549157339288
20
-4.53715175088621
30
0
41
1
10
14.520303241518
20
-4.54844178652078
30
0
41
1
10
14.4677852446395
20
-4.56257016060502
30
0
41
1
10
14.4501646062996
20
-4.56681416728102
30
0
41
1
10
14.414665956139
20
-4.57424711807261
30
0
41
1
10
14.3967876911834
20
-4.57743414241082
30
0
41
1
10
14.3430954168164
20
-4.5850934591019
30
0
41
1
10
14.3069696118988
20
-4.58774100316123
30
0
41
1
10
14.2534497489016
20
-4.58625865959073
30
0
41
1
10
14.2356249296705
20
-4.58483871915834
30
0
41
1
10
14.2094071875539
20
-4.58098786647005
30
0
41
1
10
14.2007525163644
20
-4.5794179215828
30
0
41
1
10
14.1836376976585
20
-4.57562859999112
30
0
41
1
10
14.1751492708065
20
-4.57339923775237
30
0
41
1
10
14.1503437156414
20
-4.56568929212852
30
0
41
1
10
14.1346213832834
20
-4.55919768027061
30
0
41
1
10
14.1126009012311
20
-4.54691462487216
30
0
41
1
10
14.1054750758535
20
-4.54235370788172
30
0
41
1
10
14.0921433100836
20
-4.53248059887633
30
0
41
1
10
14.0797084926803
20
-4.52186475940738
30
0
41
1
10
14.0691450837593
20
-4.50970978217961
30
0
41
1
10
14.059573191289
20
-4.49674363674234
30
0
41
1
10
14.0553373908164
20
-4.48991141534432
30
0
41
1
10
14.0444900379711
20
-4.46889956185245
30
0
41
1
10
14.0395853174921
20
-4.45402420135827
30
0
41
1
10
14.036764368288
20
-4.43837398262664
30
0
0
SPLINE
5
F0
100
AcDbEntity
8
1
62
256
6
ByLayer
370
18
48
1
60
0
100
AcDbSpline
70
4
71
3
72
35
73
31
40
0
40
0
40
0
40
0
40
0.125000000000098
40
0.125000000000098
40
0.250000000000196
40
0.250000000000196
40
0.375000000000294
40
0.375000000000294
40
0.500000000000392
40
0.500000000000392
40
0.562500000000393
40
0.562500000000393
40
0.625000000000395
40
0.625000000000395
40
0.687500000000396
40
0.687500000000396
40
0.718750000000354
40
0.718750000000354
40
0.750000000000312
40
0.750000000000312
40
0.812500000000227
40
0.812500000000227
40
0.843750000000185
40
0.843750000000185
40
0.875000000000143
40
0.9062500000001
40
0.9062500000001
40
0.937500000000058
40
0.937500000000058
40
1
40
1
40
1
40
1
41
1
10
11.9794887094537
20
-4.43067350080185
30
0
41
1
10
12.0110283501357
20
-4.44888292083971
30
0
41
1
10
12.0433070999609
20
-4.4658769773865
30
0
41
1
10
12.109131439877
20
-4.4972105048142
30
0
41
1
10
12.1425903443649
20
-4.51151520056482
30
0
41
1
10
12.2107056795327
20
-4.53713155624803
30
0
41
1
10
12.2453769719862
20
-4.54844645116725
30
0
41
1
10
12.3156012127463
20
-4.56733031592654
30
0
41
1
10
12.351172115711
20
-4.57491564107502
30
0
41
1
10
12.4048782278968
20
-4.58256346588297
30
0
41
1
10
12.4228115257758
20
-4.58448377228521
30
0
41
1
10
12.4587456667992
20
-4.58682798716271
30
0
41
1
10
12.4767028779028
20
-4.58724469202389
30
0
41
1
10
12.5121946832691
20
-4.58625746632831
30
0
41
1
10
12.5297791866561
20
-4.58486146704908
30
0
41
1
10
12.5558382545713
20
-4.58105973069661
30
0
41
1
10
12.5644713017823
20
-4.57950611890459
30
0
41
1
10
12.5816115358113
20
-4.57573502144439
30
0
41
1
10
12.5901265635869
20
-4.57351111797593
30
0
41
1
10
12.6149782386249
20
-4.56582476797766
30
0
41
1
10
12.6307794513719
20
-4.55933535358159
30
0
41
1
10
12.6529796019653
20
-4.5469768561627
30
0
41
1
10
12.6601079222432
20
-4.5424150395983
30
0
41
1
10
12.6733855035734
20
-4.53259908909584
30
0
41
1
10
12.6857920315708
20
-4.52203532638973
30
0
41
1
10
12.696367387019
20
-4.50991000149702
30
0
41
1
10
12.7059647672529
20
-4.49695504520636
30
0
41
1
10
12.7102402193254
20
-4.49008536568357
30
0
41
1
10
12.721157073156
20
-4.46899643111999
30
0
41
1
10
12.7260837279002
20
-4.45407065641089
30
0
41
1
10
12.7289130506195
20
-4.43837398262664
30
0
0
SPLINE
5
F1
100
AcDbEntity
8
1
62
256
6
ByLayer
370
18
48
1
60
0
100
AcDbSpline
70
4
71
3
72
52
73
48
40
0
40
0
40
0
40
0
40
0.0156249999999922
40
0.0156249999999922
40
0.0312499999999846
40
0.0312499999999846
40
0.0625000000000003
40
0.0625000000000003
40
0.093750000000016
40
0.093750000000016
40
0.125000000000032
40
0.125000000000032
40
0.187500000000063
40
0.187500000000063
40
0.218750000000056
40
0.218750000000056
40
0.250000000000049
40
0.250000000000049
40
0.312500000000033
40
0.312500000000033
40
0.375000000000017
40
0.375000000000017
40
0.437500000000001
40
0.437500000000001
40
0.499999999999985
40
0.499999999999985
40
0.562499999999968
40
0.562499999999968
40
0.624999999999952
40
0.624999999999952
40
0.687499999999936
40
0.687499999999936
40
0.74999999999992
40
0.74999999999992
40
0.812499999999904
40
0.812499999999904
40
0.84374999999992
40
0.84374999999992
40
0.874999999999936
40
0.874999999999936
40
0.906249999999952
40
0.906249999999952
40
0.937499999999968
40
0.937499999999968
40
0.968749999999984
40
0.968749999999984
40
1
40
1
40
1
40
1
41
1
10
14.0279523791747
20
-4.42036757614488
30
0
41
1
10
14.0249377354789
20
-4.41420745734692
30
0
41
1
10
14.0215935579507
20
-4.40821241873658
30
0
41
1
10
14.0143139495514
20
-4.39651733542274
30
0
41
1
10
14.0103688320867
20
-4.39080725601201
30
0
41
1
10
13.9978747235457
20
-4.37426543961834
30
0
41
1
10
13.9886381542607
20
-4.36395133423216
30
0
41
1
10
13.9687212215765
20
-4.34444420626508
30
0
41
1
10
13.9580376072546
20
-4.33525375527159
30
0
41
1
10
13.9354375944143
20
-4.3178130364945
30
0
41
1
10
13.9235565797669
20
-4.30959723391487
30
0
41
1
10
13.8867885582085
20
-4.28645819268573
30
0
41
1
10
13.8605569373669
20
-4.27288106004096
30
0
41
1
10
13.8198225818956
20
-4.25490525378981
30
0
41
1
10
13.8059913764861
20
-4.24930405245311
30
0
41
1
10
13.7778650123328
20
-4.23880093027017
30
0
41
1
10
13.7635555451528
20
-4.23389595816337
30
0
41
1
10
13.7202366292086
20
-4.22022454919946
30
0
41
1
10
13.6907610408962
20
-4.21246091323232
30
0
41
1
10
13.6307333831831
20
-4.19926715447502
30
0
41
1
10
13.6002313956842
20
-4.19385854131178
30
0
41
1
10
13.5388442989274
20
-4.18528297277871
30
0
41
1
10
13.5078603709153
20
-4.1820985082785
30
0
41
1
10
13.4454551550487
20
-4.17785251302195
30
0
41
1
10
13.4141801615117
20
-4.17679988111567
30
0
41
1
10
13.3514866908608
20
-4.17680011890451
30
0
41
1
10
13.3202279515908
20
-4.17785300340267
30
0
41
1
10
13.2578873828274
20
-4.18209284645931
30
0
41
1
10
13.2268178719204
20
-4.18528365887474
30
0
41
1
10
13.1653455685804
20
-4.19387402121001
30
0
41
1
10
13.1348203004076
20
-4.19929123322447
30
0
41
1
10
13.0748232078664
20
-4.2124845204365
30
0
41
1
10
13.0452847422298
20
-4.22026701835162
30
0
41
1
10
12.9874593539838
20
-4.23853025940369
30
0
41
1
10
12.959349421486
20
-4.24894542921467
30
0
41
1
10
12.9185962296958
20
-4.26693668870251
30
0
41
1
10
12.9052278222417
20
-4.27334384426229
30
0
41
1
10
12.8792063340991
20
-4.28698661436795
30
0
41
1
10
12.8665375960409
20
-4.29422651626595
30
0
41
1
10
12.8419845468397
20
-4.30968768811533
30
0
41
1
10
12.8301256578435
20
-4.31789556552204
30
0
41
1
10
12.807554576984
20
-4.33532515624754
30
0
41
1
10
12.7967864153112
20
-4.34458989396387
30
0
41
1
10
12.7767277906374
20
-4.36427750021991
30
0
41
1
10
12.7675129470892
20
-4.37461831849771
30
0
41
1
10
12.7510289375977
20
-4.39650488229637
30
0
41
1
10
12.7437543521513
20
-4.40804728740909
30
0
41
1
10
12.7377250397325
20
-4.42036757614554
30
0
0
SPLINE
5
F2
100
AcDbEntity
8
1
62
256
6
ByLayer
370
18
48
1
60
0
100
AcDbSpline
70
4
71
3
72
8
73
4
40
0
40
0
40
0
40
0
40
1
40
1
40
1
40
1
41
1
10
12.7377250397325
20
-4.42036757614554
30
0
41
1
10
12.7347876020058
20
-4.42636993237213
30
0
41
1
10
12.7318502731388
20
-4.43237206615481
30
0
41
1
10
12.7289130506195
20
-4.43837398262664
30
0
0
SPLINE
5
F3
100
AcDbEntity
8
1
62
256
6
ByLayer
370
18
48
1
60
0
100
AcDbSpline
70
4
71
3
72
8
73
4
40
0
40
0
40
0
40
0
40
1
40
1
40
1
40
1
41
1
10
14.036764368288
20
-4.43837398262664
30
0
41
1
10
14.0338271457688
20
-4.43237206615481
30
0
41
1
10
14.0308898169018
20
-4.42636993237213
30
0
41
1
10
14.027952379175
20
-4.42036757614554
30
0
0
SPLINE
5
F4
100
AcDbEntity
8
1
62
256
6
ByLayer
370
18
48
1
60
0
100
AcDbSpline
70
4
71
3
72
35
73
31
40
0
40
0
40
0
40
0
40
0.124999999999998
40
0.124999999999998
40
0.249999999999996
40
0.249999999999996
40
0.374999999999994
40
0.374999999999994
40
0.437499999999994
40
0.437499999999994
40
0.499999999999995
40
0.499999999999995
40
0.624999999999996
40
0.624999999999996
40
0.687499999999997
40
0.687499999999997
40
0.718749999999997
40
0.718749999999997
40
0.749999999999998
40
0.749999999999998
40
0.812499999999993
40
0.812499999999993
40
0.843749999999995
40
0.843749999999995
40
0.874999999999997
40
0.906249999999999
40
0.906249999999999
40
0.937500000000001
40
0.937500000000001
40
1
40
1
40
1
40
1
41
1
10
11.9794887094538
20
0.430673500801731
30
0
41
1
10
12.011029058741
20
0.448883329952992
30
0
41
1
10
12.0433483352168
20
0.465897194131401
30
0
41
1
10
12.1091257307001
20
0.497207198781069
30
0
41
1
10
12.1425853298084
20
0.511514181587643
30
0
41
1
10
12.2107616849787
20
0.537151750886068
30
0
41
1
10
12.2453741773895
20
0.548441786520641
30
0
41
1
10
12.2978921742681
20
0.562570160604878
30
0
41
1
10
12.315512812608
20
0.566814167280882
30
0
41
1
10
12.3510114627686
20
0.574247118072464
30
0
41
1
10
12.3688897277242
20
0.577434142410709
30
0
41
1
10
12.4225820020912
20
0.585093459101756
30
0
41
1
10
12.4587078070088
20
0.587741003161085
30
0
41
1
10
12.512227670006
20
0.586258659590584
30
0
41
1
10
12.5300524892371
20
0.584838719158199
30
0
41
1
10
12.5562702313538
20
0.580987866469911
30
0
41
1
10
12.5649249025431
20
0.57941792158266
30
0
41
1
10
12.5820397212491
20
0.575628599990978
30
0
41
1
10
12.5905281481012
20
0.573399237752227
30
0
41
1
10
12.6153337032662
20
0.565689292128383
30
0
41
1
10
12.6310560356241
20
0.559197680270472
30
0
41
1
10
12.6530765176765
20
0.546914624872016
30
0
41
1
10
12.660202343054
20
0.542353707881603
30
0
41
1
10
12.673534108824
20
0.532480598876191
30
0
41
1
10
12.6859689262272
20
0.521864759407265
30
0
41
1
10
12.6965323351483
20
0.50970978217947
30
0
41
1
10
12.7061042276187
20
0.496743636742224
30
0
41
1
10
12.7103400280911
20
0.48991141534421
30
0
41
1
10
12.7211873809364
20
0.468899561852339
30
0
41
1
10
12.7260921014154
20
0.454024201358123
30
0
41
1
10
12.7289130506195
20
0.43837398262653
30
0
0
SPLINE
5
F5
100
AcDbEntity
8
1
62
256
6
ByLayer
370
18
48
1
60
0
100
AcDbSpline
70
4
71
3
72
35
73
31
40
0
40
0
40
0
40
0
40
0.124999999999996
40
0.124999999999996
40
0.249999999999992
40
0.249999999999992
40
0.374999999999988
40
0.374999999999988
40
0.499999999999984
40
0.499999999999984
40
0.562499999999936
40
0.562499999999936
40
0.624999999999888
40
0.624999999999888
40
0.687499999999839
40
0.687499999999839
40
0.718749999999818
40
0.718749999999818
40
0.749999999999797
40
0.749999999999797
40
0.812499999999841
40
0.812499999999841
40
0.843749999999863
40
0.843749999999863
40
0.874999999999885
40
0.906249999999907
40
0.906249999999907
40
0.937499999999929
40
0.937499999999929
40
1
40
1
40
1
40
1
41
1
10
14.7861887094538
20
0.430673500801731
30
0
41
1
10
14.7546490687718
20
0.448882920839594
30
0
41
1
10
14.7223703189466
20
0.465876977386387
30
0
41
1
10
14.6565459790305
20
0.497210504814092
30
0
41
1
10
14.6230870745427
20
0.511515200564702
30
0
41
1
10
14.5549717393749
20
0.537131556247914
30
0
41
1
10
14.5203004469213
20
0.548446451167138
30
0
41
1
10
14.4500762061612
20
0.567330315926398
30
0
41
1
10
14.4145053031965
20
0.574915641074881
30
0
41
1
10
14.3607991910108
20
0.582563465882828
30
0
41
1
10
14.3428658931317
20
0.584483772285068
30
0
41
1
10
14.3069317521083
20
0.586827987162565
30
0
41
1
10
14.2889745410048
20
0.587244692023774
30
0
41
1
10
14.2534827356385
20
0.586257466328163
30
0
41
1
10
14.2358982322515
20
0.584861467048938
30
0
41
1
10
14.2098391643362
20
0.581059730696467
30
0
41
1
10
14.2012061171253
20
0.579506118904447
30
0
41
1
10
14.1840658830963
20
0.575735021444245
30
0
41
1
10
14.1755508553207
20
0.573511117975784
30
0
41
1
10
14.1506991802827
20
0.565824767977517
30
0
41
1
10
14.1348979675358
20
0.559335353581446
30
0
41
1
10
14.1126978169422
20
0.546976856162587
30
0
41
1
10
14.1055694966643
20
0.542415039598154
30
0
41
1
10
14.0922919153341
20
0.532599089095697
30
0
41
1
10
14.0798855508323
20
0.522035184896822
30
0
41
1
10
14.0693100318886
20
0.509910001496877
30
0
41
1
10
14.0597126516547
20
0.496955045206249
30
0
41
1
10
14.0554371995822
20
0.490085365683427
30
0
41
1
10
14.0445203457516
20
0.468996431119848
30
0
41
1
10
14.0395936910073
20
0.454070656410778
30
0
41
1
10
14.036764368288
20
0.43837398262653
30
0
0
SPLINE
5
F6
100
AcDbEntity
8
1
62
256
6
ByLayer
370
18
48
1
60
0
100
AcDbSpline
70
4
71
3
72
52
73
48
40
0
40
0
40
0
40
0
40
0.0156250000000208
40
0.0156250000000208
40
0.0312500000000415
40
0.0312500000000415
40
0.0625000000000538
40
0.0625000000000538
40
0.0937500000000661
40
0.0937500000000661
40
0.125000000000078
40
0.125000000000078
40
0.187500000000106
40
0.187500000000106
40
0.218750000000098
40
0.218750000000098
40
0.250000000000089
40
0.250000000000089
40
0.31250000000007
40
0.31250000000007
40
0.37500000000005
40
0.37500000000005
40
0.43750000000003
40
0.43750000000003
40
0.500000000000011
40
0.500000000000011
40
0.562499999999992
40
0.562499999999992
40
0.624999999999972
40
0.624999999999972
40
0.687499999999953
40
0.687499999999953
40
0.749999999999933
40
0.749999999999933
40
0.812499999999914
40
0.812499999999914
40
0.843749999999928
40
0.843749999999928
40
0.874999999999943
40
0.874999999999943
40
0.906249999999957
40
0.906249999999957
40
0.937499999999971
40
0.937499999999971
40
0.968749999999986
40
0.968749999999986
40
1
40
1
40
1
40
1
41
1
10
12.7377250397328
20
0.420367576144741
30
0
41
1
10
12.7407396834287
20
0.414207457346777
30
0
41
1
10
12.7440838609568
20
0.40821241873644
30
0
41
1
10
12.7513634693562
20
0.396517335422601
30
0
41
1
10
12.7553085868208
20
0.390807256011897
30
0
41
1
10
12.7678026953619
20
0.374265439618199
30
0
41
1
10
12.7770392646469
20
0.363951334232041
30
0
41
1
10
12.7969561973311
20
0.344444206264939
30
0
41
1
10
12.8076398116531
20
0.335253755271452
30
0
41
1
10
12.8302398244933
20
0.317813036494357
30
0
41
1
10
12.8421208391407
20
0.309597233914701
30
0
41
1
10
12.878888860699
20
0.286458192685586
30
0
41
1
10
12.9051204815406
20
0.272881060040845
30
0
41
1
10
12.945854837012
20
0.254905253789673
30
0
41
1
10
12.9596860424215
20
0.24930405245297
30
0
41
1
10
12.9878124065748
20
0.238800930270031
30
0
41
1
10
13.0021218737549
20
0.233895958163231
30
0
41
1
10
13.0454407896989
20
0.220224549199315
30
0
41
1
10
13.0749163780112
20
0.212460913232178
30
0
41
1
10
13.1349440357245
20
0.19926715447491
30
0
41
1
10
13.1654460232233
20
0.193858541311641
30
0
41
1
10
13.2268331199802
20
0.185282972778566
30
0
41
1
10
13.2578170479922
20
0.182098508278358
30
0
41
1
10
13.3202222638588
20
0.177852513021804
30
0
41
1
10
13.3514972573958
20
0.176799881115528
30
0
41
1
10
13.4141907280469
20
0.176800118904367
30
0
41
1
10
13.4454494673167
20
0.177853003402561
30
0
41
1
10
13.5077900360801
20
0.182092846459199
30
0
41
1
10
13.538859546987
20
0.185283658874596
30
0
41
1
10
13.6003318503272
20
0.193874021209865
30
0
41
1
10
13.6308571184999
20
0.199291233224358
30
0
41
1
10
13.6908542110411
20
0.212484520436362
30
0
41
1
10
13.7203926766778
20
0.220267018351507
30
0
41
1
10
13.7782180649237
20
0.238530259403575
30
0
41
1
10
13.8063279974216
20
0.248945429214558
30
0
41
1
10
13.8470811892118
20
0.266936688702373
30
0
41
1
10
13.8604495966658
20
0.273343844262172
30
0
41
1
10
13.8864710848084
20
0.286986614367805
30
0
41
1
10
13.8991398228667
20
0.294226516265809
30
0
41
1
10
13.9236928720679
20
0.30968768811519
30
0
41
1
10
13.935551761064
20
0.317895565521923
30
0
41
1
10
13.9581228419236
20
0.335325156247421
30
0
41
1
10
13.9688910035963
20
0.344589893963729
30
0
41
1
10
13.9889496282701
20
0.364277500219771
30
0
41
1
10
13.9981644718183
20
0.374618318497596
30
0
41
1
10
14.0146484813099
20
0.396504882296256
30
0
41
1
10
14.0219230667563
20
0.408047287408948
30
0
41
1
10
14.0279523791751
20
0.420367576145395
30
0
0
SPLINE
5
F7
100
AcDbEntity
8
1
62
256
6
ByLayer
370
18
48
1
60
0
100
AcDbSpline
70
4
71
3
72
8
73
4
40
0
40
0
40
0
40
0
40
1
40
1
40
1
40
1
41
1
10
14.0279523791751
20
0.420367576145395
30
0
41
1
10
14.0308898169018
20
0.426369932371983
30
0
41
1
10
14.0338271457688
20
0.43237206615467
30
0
41
1
10
14.036764368288
20
0.438373982626501
30
0
0
SPLINE
5
F8
100
AcDbEntity
8
1
62
256
6
ByLayer
370
18
48
1
60
0
100
AcDbSpline
70
4
71
3
72
8
73
4
40
0
40
0
40
0
40
0
40
1
40
1
40
1
40
1
41
1
10
12.7289130506195
20
0.43837398262653
30
0
41
1
10
12.7318502731388
20
0.43237206615467
30
0
41
1
10
12.7347876020058
20
0.426369932371983
30
0
41
1
10
12.7377250397325
20
0.420367576145395
30
0
0
SPLINE
5
F9
100
AcDbEntity
8
1
62
256
6
ByLayer
370
18
48
1
60
0
100
AcDbSpline
70
4
71
3
72
35
73
31
40
0
40
0
40
0
40
0
40
0.125000000000043
40
0.125000000000043
40
0.250000000000085
40
0.250000000000085
40
0.375000000000128
40
0.375000000000128
40
0.50000000000017
40
0.50000000000017
40
0.56250000000016
40
0.56250000000016
40
0.625000000000149
40
0.625000000000149
40
0.687500000000138
40
0.687500000000138
40
0.718750000000135
40
0.718750000000135
40
0.750000000000133
40
0.750000000000133
40
0.812500000000097
40
0.812500000000097
40
0.843750000000079
40
0.843750000000079
40
0.875000000000061
40
0.906250000000042
40
0.906250000000042
40
0.937500000000024
40
0.937500000000024
40
1
40
1
40
1
40
1
41
1
10
14.7861887094538
20
-4.43067350080185
30
0
41
1
10
14.8177283501358
20
-4.41246408076398
30
0
41
1
10
14.8485850097312
20
-4.39300689168633
30
0
41
1
10
14.9086328104318
20
-4.35166810484554
30
0
41
1
10
14.9377504925892
20
-4.32984419145151
30
0
41
1
10
14.9939925749471
20
-4.28366275865056
30
0
41
1
10
15.0211272076151
20
-4.25929398606331
30
0
41
1
10
15.0725932345983
20
-4.20791994198328
30
0
41
1
10
15.0969477703552
20
-4.18090729895454
30
0
41
1
10
15.1304240370155
20
-4.13822035386713
30
0
41
1
10
15.1410537200824
20
-4.12364981553136
30
0
41
1
10
15.1610509402299
20
-4.0937020439807
30
0
41
1
10
15.1703904227774
20
-4.07835899541448
30
0
41
1
10
15.1872813629289
20
-4.04712857749334
30
0
41
1
10
15.1948646437829
20
-4.03120195120755
30
0
41
1
10
15.2046017774808
20
-4.00673326821783
30
0
41
1
10
15.2075728338067
20
-3.99848002412512
30
0
41
1
10
15.2128770846205
20
-3.981750597299
30
0
41
1
10
15.2152086416091
20
-3.97326441519721
30
0
41
1
10
15.2209779047672
20
-3.94789905828856
30
0
41
1
10
15.223258513418
20
-3.93097009944108
30
0
41
1
10
15.2236558159975
20
-3.90556495634982
30
0
41
1
10
15.2232693271042
20
-3.89711074162065
30
0
41
1
10
15.2214072552718
20
-3.88070404363665
30
0
41
1
10
15.2184618281233
20
-3.86467786471002
30
0
41
1
10
15.2132488707453
20
-3.8494566049466
30
0
41
1
10
15.2068282396097
20
-3.83466755170892
30
0
41
1
10
15.2030166486634
20
-3.82753006184006
30
0
41
1
10
15.1902115225079
20
-3.80753132181155
30
0
41
1
10
15.1797487498108
20
-3.79580182629286
30
0
41
1
10
15.1675696929183
20
-3.78550322405027
30
0
0
SPLINE
5
FA
100
AcDbEntity
8
1
62
256
6
ByLayer
370
18
48
1
60
0
100
AcDbSpline
70
4
71
3
72
35
73
31
40
0
40
0
40
0
40
0
40
0.124999999999996
40
0.124999999999996
40
0.249999999999993
40
0.249999999999993
40
0.374999999999989
40
0.374999999999989
40
0.437499999999998
40
0.437499999999998
40
0.500000000000007
40
0.500000000000007
40
0.625000000000018
40
0.625000000000018
40
0.687500000000019
40
0.687500000000019
40
0.718750000000049
40
0.718750000000049
40
0.75000000000008
40
0.75000000000008
40
0.812500000000089
40
0.812500000000089
40
0.84375000000006
40
0.84375000000006
40
0.875000000000032
40
0.906250000000003
40
0.906250000000003
40
0.937499999999974
40
0.937499999999974
40
1
40
1
40
1
40
1
41
1
10
16.1895387094538
20
-2.00000000000008
30
0
41
1
10
16.1895387094538
20
-2.03641965830263
30
0
41
1
10
16.1881135098109
20
-2.07291590485187
30
0
41
1
10
16.1823400714885
20
-2.14553580265996
30
0
41
1
10
16.1780004824963
20
-2.18166615689151
30
0
41
1
10
16.1661150912149
20
-2.25352739705571
30
0
41
1
10
16.1585863026786
20
-2.28914771258906
30
0
41
1
10
16.1445628351105
20
-2.34169381908381
30
0
41
1
10
16.1394279335358
20
-2.35907574285503
30
0
41
1
10
16.1281157326661
20
-2.39353495108998
30
0
41
1
10
16.1219366442276
20
-2.41061149488621
30
0
41
1
10
16.1017236698743
20
-2.46094002682057
30
0
41
1
10
16.0859536078285
20
-2.49354966364101
30
0
41
1
10
16.0579099291407
20
-2.53915805281844
30
0
41
1
10
16.0477678150388
20
-2.55388482887429
30
0
41
1
10
16.0313240077262
20
-2.574664633233
30
0
41
1
10
16.0256370599766
20
-2.58137482590075
30
0
41
1
10
16.0137980018621
20
-2.59430203288542
30
0
41
1
10
16.0076231041031
20
-2.60053854505816
30
0
41
1
10
15.9885433177485
20
-2.6181658131741
30
0
41
1
10
15.9750602507891
20
-2.62853594647396
30
0
41
1
10
15.9534125717518
20
-2.64146471563558
30
0
41
1
10
15.9458997890847
20
-2.64535540294025
30
0
41
1
10
15.9306835429868
20
-2.6519644962716
30
0
41
1
10
15.9152725476226
20
-2.65742544429978
30
0
41
1
10
15.8994643241003
20
-2.66049613616207
30
0
41
1
10
15.8834493665274
20
-2.66230256548505
30
0
41
1
10
15.8754145889962
20
-2.66255476560062
30
0
41
1
10
15.8517941136689
20
-2.66144292198254
30
0
41
1
10
15.836459313351
20
-2.65825285426865
30
0
41
1
10
15.8214953517526
20
-2.65287075857646
30
0
0
SPLINE
5
FB
100
AcDbEntity
8
1
62
256
6
ByLayer
370
18
48
1
60
0
100
AcDbSpline
70
4
71
3
72
52
73
48
40
0
40
0
40
0
40
0
40
0.0156250000000169
40
0.0156250000000169
40
0.0312500000000339
40
0.0312500000000339
40
0.0625000000000685
40
0.0625000000000685
40
0.0937500000001033
40
0.0937500000001033
40
0.125000000000138
40
0.125000000000138
40
0.187500000000162
40
0.187500000000162
40
0.218750000000172
40
0.218750000000172
40
0.250000000000182
40
0.250000000000182
40
0.312500000000167
40
0.312500000000167
40
0.375000000000152
40
0.375000000000152
40
0.437500000000137
40
0.437500000000137
40
0.500000000000122
40
0.500000000000122
40
0.562500000000107
40
0.562500000000107
40
0.625000000000092
40
0.625000000000092
40
0.687500000000077
40
0.687500000000077
40
0.750000000000062
40
0.750000000000062
40
0.812500000000048
40
0.812500000000048
40
0.84375000000004
40
0.84375000000004
40
0.875000000000032
40
0.875000000000032
40
0.906250000000024
40
0.906250000000024
40
0.937500000000016
40
0.937500000000016
40
0.968750000000008
40
0.968750000000008
40
1
40
1
40
1
40
1
41
1
10
15.8014953517518
20
-2.65149896176553
30
0
41
1
10
15.7946532105345
20
-2.65102966039049
30
0
41
1
10
15.7877892660373
20
-2.65092828377948
30
0
41
1
10
15.7740212225885
20
-2.65138506792599
30
0
41
1
10
15.7671035900288
20
-2.6519466001659
30
0
41
1
10
15.7465309025366
20
-2.65449590736324
30
0
41
1
10
15.7329803406124
20
-2.65733795831477
30
0
41
1
10
15.7061282058959
20
-2.66483296400128
30
0
41
1
10
15.6928272347023
20
-2.66949001991153
30
0
41
1
10
15.666423122761
20
-2.68034184576851
30
0
41
1
10
15.6533675216908
20
-2.68652320498609
30
0
41
1
10
15.614944513388
20
-2.70679572508797
30
0
41
1
10
15.5900705611863
20
-2.72272440879684
30
0
41
1
10
15.5541358785836
20
-2.74901349231627
30
0
41
1
10
15.5423694932294
20
-2.75819106689752
30
0
41
1
10
15.5192103405235
20
-2.77729765167882
30
0
41
1
10
15.5078077764841
20
-2.78723752771793
30
0
41
1
10
15.4743085310438
20
-2.81791710490805
30
0
41
1
10
15.4528472309143
20
-2.83956189519444
30
0
41
1
10
15.4114072718025
20
-2.88495049232512
30
0
41
1
10
15.3914722816544
20
-2.9086616817834
30
0
41
1
10
15.3533520730745
20
-2.95753668277285
30
0
41
1
10
15.3351022819139
20
-2.98277731929022
30
0
41
1
10
15.300222534224
20
-3.03469882393108
30
0
41
1
10
15.2836734314838
20
-3.06125744688424
30
0
41
1
10
15.2523269020894
20
-3.11555170401383
30
0
41
1
10
15.2376093571772
20
-3.14314900856084
30
0
41
1
10
15.2101108845906
20
-3.19925744632468
30
0
41
1
10
15.1973394537476
20
-3.22775983826094
30
0
41
1
10
15.1740427740876
20
-3.28529159575024
30
0
41
1
10
15.1634715832234
20
-3.31443585945243
30
0
41
1
10
15.1448987588379
20
-3.37299150935232
30
0
41
1
10
15.136869366919
20
-3.40246381994001
30
0
41
1
10
15.1237731035025
20
-3.46167369567075
30
0
41
1
10
15.1187379388946
20
-3.49122519621804
30
0
41
1
10
15.1139422307621
20
-3.53551412533761
30
0
41
1
10
15.1128067865159
20
-3.55029508358083
30
0
41
1
10
15.111611027934
20
-3.57965173840944
30
0
41
1
10
15.1115465978695
20
-3.59424313835075
30
0
41
1
10
15.1126598408628
20
-3.62323728862404
30
0
41
1
10
15.11383862671
20
-3.63761132645882
30
0
41
1
10
15.1176475546261
20
-3.66587325123672
30
0
41
1
10
15.1202869720114
20
-3.67983112165558
30
0
41
1
10
15.1273076268319
20
-3.70704620331608
30
0
41
1
10
15.1316556163823
20
-3.72019690105967
30
0
41
1
10
15.1423679318877
20
-3.74541575393485
30
0
41
1
10
15.148726655213
20
-3.75748693228979
30
0
41
1
10
15.1563816820313
20
-3.76886861438004
30
0
0
SPLINE
5
FC
100
AcDbEntity
8
1
62
256
6
ByLayer
370
18
48
1
60
0
100
AcDbSpline
70
4
71
3
72
8
73
4
40
0
40
0
40
0
40
0
40
1
40
1
40
1
40
1
41
1
10
15.1563816820313
20
-3.76886861438004
30
0
41
1
10
15.1601111561427
20
-3.77441368818671
30
0
41
1
10
15.1638404920419
20
-3.77995855649613
30
0
41
1
10
15.1675696929183
20
-3.78550322405027
30
0
0
SPLINE
5
FD
100
AcDbEntity
8
1
62
256
6
ByLayer
370
18
48
1
60
0
100
AcDbSpline
70
4
71
3
72
8
73
4
40
0
40
0
40
0
40
0
40
1
40
1
40
1
40
1
41
1
10
15.8214953517526
20
-2.65287075857646
30
0
41
1
10
15.814828928357
20
-2.65241350965874
30
0
41
1
10
15.8081622635907
20
-2.65195624418547
30
0
41
1
10
15.8014953517526
20
-2.65149896176558
30
0
0
SPLINE
5
FE
100
AcDbEntity
8
1
62
256
6
ByLayer
370
18
48
1
60
0
100
AcDbSpline
70
4
71
3
72
52
73
48
40
0
40
0
40
0
40
0
40
0.0156250000000017
40
0.0156250000000017
40
0.0312500000000032
40
0.0312500000000032
40
0.0625000000000063
40
0.0625000000000063
40
0.0937500000000094
40
0.0937500000000094
40
0.125000000000013
40
0.125000000000013
40
0.187500000000021
40
0.187500000000021
40
0.218750000000022
40
0.218750000000022
40
0.250000000000023
40
0.250000000000023
40
0.312500000000022
40
0.312500000000022
40
0.375000000000021
40
0.375000000000021
40
0.43750000000002
40
0.43750000000002
40
0.500000000000019
40
0.500000000000019
40
0.562500000000018
40
0.562500000000018
40
0.625000000000018
40
0.625000000000018
40
0.687500000000017
40
0.687500000000017
40
0.750000000000016
40
0.750000000000016
40
0.812500000000015
40
0.812500000000015
40
0.843750000000012
40
0.843750000000012
40
0.87500000000001
40
0.87500000000001
40
0.906250000000007
40
0.906250000000007
40
0.937500000000005
40
0.937500000000005
40
0.968750000000002
40
0.968750000000002
40
1
40
1
40
1
40
1
41
1
10
15.1563816820309
20
-0.231131385620728
30
0
41
1
10
15.1525541845094
20
-0.23682220304363
30
0
41
1
10
15.1490344175403
20
-0.242715865042953
30
0
41
1
10
15.1425459824908
20
-0.2548677325033
30
0
41
1
10
15.1395734673958
20
-0.261139344153946
30
0
41
1
10
15.1314948884446
20
-0.280230467744985
30
0
41
1
10
15.1271808958053
20
-0.293386624082672
30
0
41
1
10
15.1202456937732
20
-0.320388757736254
30
0
41
1
10
15.1176283369015
20
-0.334236264639998
30
0
41
1
10
15.1138242378005
20
-0.362528809274068
30
0
41
1
10
15.1126496513777
20
-0.376925971071301
30
0
41
1
10
15.1109946646332
20
-0.4203375324023
30
0
41
1
10
15.1123523332731
20
-0.449843348755905
30
0
41
1
10
15.1171520061419
20
-0.494108238526536
30
0
41
1
10
15.1192168261973
20
-0.508887014444497
30
0
41
1
10
15.1241840376444
20
-0.538496721408734
30
0
41
1
10
15.1270909407851
20
-0.553341569554647
30
0
41
1
10
15.1369106112889
20
-0.597692555708647
30
0
41
1
10
15.1449248994718
20
-0.627100981962201
30
0
41
1
10
15.1635125980732
20
-0.685683337850151
30
0
41
1
10
15.174079595424
20
-0.714803140471702
30
0
41
1
10
15.1973464836008
20
-0.772253709994231
30
0
41
1
10
15.2100806204522
20
-0.800678811011807
30
0
41
1
10
15.237606088629
20
-0.856846310909191
30
0
41
1
10
15.2523319794259
20
-0.884457565768628
30
0
41
1
10
15.2836789206826
20
-0.938751585109401
30
0
41
1
10
15.3002201150402
20
-0.965296005158251
30
0
41
1
10
15.335062211217
20
-1.01716459986545
30
0
41
1
10
15.3533602912809
20
-1.04247617938628
30
0
41
1
10
15.391535914961
20
-1.09141757454029
30
0
41
1
10
15.4114899922696
20
-1.11514462622802
30
0
41
1
10
15.4529142604252
20
-1.1605069889159
30
0
41
1
10
15.474423334143
20
-1.18219680158847
30
0
41
1
10
15.5191524589725
20
-1.22314343626712
30
0
41
1
10
15.5422272268624
20
-1.24227976700342
30
0
41
1
10
15.5781847105201
20
-1.26857743663515
30
0
41
1
10
15.5904176737279
20
-1.27695123931858
30
0
41
1
10
15.6152434032887
20
-1.29266512404158
30
0
41
1
10
15.6278477112824
20
-1.30001662208485
30
0
41
1
10
15.6535140034767
20
-1.31354960050879
30
0
41
1
10
15.6665516783203
20
-1.31971576093685
30
0
41
1
10
15.6929316870959
20
-1.33054809498924
30
0
41
1
10
15.706339266154
20
-1.3352412276918
30
0
41
1
10
15.7334185456483
20
-1.34276870309625
30
0
41
1
10
15.746981378747
20
-1.34557858256201
30
0
41
1
10
15.7741777037439
20
-1.34891087163857
30
0
41
1
10
15.7878110125155
20
-1.34943964488076
30
0
41
1
10
15.8014953517526
20
-1.34850103823456
30
0
0
SPLINE
5
FF
100
AcDbEntity
8
1
62
256
6
ByLayer
370
18
48
1
60
0
100
AcDbSpline
70
4
71
3
72
8
73
4
40
0
40
0
40
0
40
0
40
1
40
1
40
1
40
1
41
1
10
15.8014953517526
20
-1.34850103823456
30
0
41
1
10
15.8081622635907
20
-1.34804375581467
30
0
41
1
10
15.814828928357
20
-1.3475864903414
30
0
41
1
10
15.8214953517526
20
-1.34712924142369
30
0
0
SPLINE
5
100
100
AcDbEntity
8
1
62
256
6
ByLayer
370
18
48
1
60
0
100
AcDbSpline
70
4
71
3
72
35
73
31
40
0
40
0
40
0
40
0
40
0.124999999999969
40
0.124999999999969
40
0.249999999999937
40
0.249999999999937
40
0.374999999999906
40
0.374999999999906
40
0.499999999999874
40
0.499999999999874
40
0.562499999999843
40
0.562499999999843
40
0.624999999999811
40
0.624999999999811
40
0.687499999999779
40
0.687499999999779
40
0.718749999999799
40
0.718749999999799
40
0.74999999999982
40
0.74999999999982
40
0.812499999999868
40
0.812499999999868
40
0.843749999999892
40
0.843749999999892
40
0.874999999999916
40
0.90624999999994
40
0.90624999999994
40
0.937499999999964
40
0.937499999999964
40
1
40
1
40
1
40
1
41
1
10
16.1895387094538
20
-2.00000000000008
30
0
41
1
10
16.1895387094538
20
-1.96358115992439
30
0
41
1
10
16.1881166192241
20
-1.92712991429991
30
0
41
1
10
16.1823400800085
20
-1.85445760003142
30
0
41
1
10
16.1779988576781
20
-1.81832899088678
30
0
41
1
10
16.1661256048682
20
-1.74653120240259
30
0
41
1
10
16.1585889450827
20
-1.71084753489617
30
0
41
1
10
16.1398307313059
20
-1.64058962605685
30
0
41
1
10
16.128614364098
20
-1.6059916578796
30
0
41
1
10
16.1083845185724
20
-1.55565688798424
30
0
41
1
10
16.1010809037603
20
-1.53916604324624
30
0
41
1
10
16.0851439828845
20
-1.50687405681808
30
0
41
1
10
16.0765262543284
20
-1.49111430339067
30
0
41
1
10
16.0579253891136
20
-1.46087111116512
30
0
41
1
10
16.0479241665805
20
-1.44634048415858
30
0
41
1
10
16.0316022323632
20
-1.42567353752133
30
0
41
1
10
16.0259402414783
20
-1.41897390522061
30
0
41
1
10
16.0141042582631
20
-1.4060155758547
30
0
41
1
10
16.007920787476
20
-1.39975329722134
30
0
41
1
10
15.9888383755961
20
-1.38207429031098
30
0
41
1
10
15.9753177715
20
-1.37163474585958
30
0
41
1
10
15.9535149234859
20
-1.35858810018718
30
0
41
1
10
15.9460001143148
20
-1.35469570202244
30
0
41
1
10
15.9308604611522
20
-1.34810495454093
30
0
41
1
10
15.9155087102906
20
-1.34264246747549
30
0
41
1
10
15.8997201931802
20
-1.33954660344966
30
0
41
1
10
15.8837021818106
20
-1.33771250650261
30
0
41
1
10
15.8756151387918
20
-1.33744469615658
30
0
41
1
10
15.8518931588057
20
-1.33853489069165
30
0
41
1
10
15.8365037313643
20
-1.34173116988202
30
0
41
1
10
15.8214953517526
20
-1.34712924142369
30
0
0
SPLINE
5
101
100
AcDbEntity
8
1
62
256
6
ByLayer
370
18
48
1
60
0
100
AcDbSpline
70
4
71
3
72
35
73
31
40
0
40
0
40
0
40
0
40
0.124999999999999
40
0.124999999999999
40
0.249999999999997
40
0.249999999999997
40
0.374999999999996
40
0.374999999999996
40
0.437499999999961
40
0.437499999999961
40
0.499999999999925
40
0.499999999999925
40
0.624999999999855
40
0.624999999999855
40
0.687499999999842
40
0.687499999999842
40
0.718749999999849
40
0.718749999999849
40
0.749999999999857
40
0.749999999999857
40
0.812499999999881
40
0.812499999999881
40
0.843749999999902
40
0.843749999999902
40
0.874999999999923
40
0.906249999999945
40
0.906249999999945
40
0.937499999999966
40
0.937499999999966
40
1
40
1
40
1
40
1
41
1
10
14.7861887094538
20
0.430673500801731
30
0
41
1
10
14.8177290587409
20
0.412463671650471
30
0
41
1
10
14.8486231355739
20
0.392981289279618
30
0
41
1
10
14.9086270927348
20
0.351671396121191
30
0
41
1
10
14.9377471028509
20
0.329848024696218
30
0
41
1
10
14.9940380667399
20
0.283624353830447
30
0
41
1
10
15.0211217706144
20
0.25929407393167
30
0
41
1
10
15.0596162999248
20
0.220876341521148
30
0
41
1
10
15.07210203669
20
0.207738424425941
30
0
41
1
10
15.0962884859809
20
0.180712166982573
30
0
41
1
10
15.107987662498
20
0.166822647524583
30
0
41
1
10
15.1414669625117
20
0.124153432281275
30
0
41
1
10
15.1618227053834
20
0.0941913395201652
30
0
41
1
10
15.1872988896929
20
0.0471006067722328
30
0
41
1
10
15.1949815948222
20
0.0309538902839961
30
0
41
1
10
15.2047555296262
20
0.0063232332369978
30
0
41
1
10
15.2077232530659
20
-0.001956904318007
30
0
41
1
10
15.2129990136574
20
-0.0186734328943885
30
0
41
1
10
15.2153125427505
20
-0.0271393073058448
30
0
41
1
10
15.2210383115609
20
-0.0524765210456621
30
0
41
1
10
15.2232775769596
20
-0.0693382662033741
30
0
41
1
10
15.2236503799745
20
-0.0945500907635051
30
0
41
1
10
15.223263422685
20
-0.103001695058595
30
0
41
1
10
15.221378942357
20
-0.119483897395327
30
0
41
1
10
15.218402764396
20
-0.135560684892454
30
0
41
1
10
15.2131579497948
20
-0.150786353982539
30
0
41
1
10
15.2067148846922
20
-0.165558928742769
30
0
41
1
10
15.2029159076335
20
-0.172643350256351
30
0
41
1
10
15.1901427851516
20
-0.192543360130145
30
0
41
1
10
15.1797127053126
20
-0.204228652910445
30
0
41
1
10
15.1675696929183
20
-0.214496775949868
30
0
0
SPLINE
5
102
100
AcDbEntity
8
1
62
256
6
ByLayer
370
18
48
1
60
0
100
AcDbSpline
70
4
71
3
72
8
73
4
40
0
40
0
40
0
40
0
40
1
40
1
40
1
40
1
41
1
10
15.1675696929183
20
-0.214496775949868
30
0
41
1
10
15.1638404920419
20
-0.220041443504016
30
0
41
1
10
15.1601111561427
20
-0.22558631181343
30
0
41
1
10
15.1563816820313
20
-0.231131385620102
30
0
0
SPLINE
5
103
100
AcDbEntity
8
1
62
256
6
ByLayer
370
18
48
1
60
0
100
AcDbSpline
70
4
71
3
72
8
73
4
40
0
40
0
40
0
40
0
40
1
40
1
40
1
40
1
41
1
10
11.6092957368763
20
-0.231131385620102
30
0
41
1
10
11.6055662627648
20
-0.225586311813402
30
0
41
1
10
11.6018369268656
20
-0.220041443503987
30
0
41
1
10
11.5981077259892
20
-0.21449677594984
30
0
0
SPLINE
5
104
100
AcDbEntity
8
1
62
256
6
ByLayer
370
18
48
1
60
0
100
AcDbSpline
70
4
71
3
72
35
73
31
40
0
40
0
40
0
40
0
40
0.124999999999957
40
0.124999999999957
40
0.249999999999914
40
0.249999999999914
40
0.374999999999874
40
0.374999999999874
40
0.499999999999835
40
0.499999999999835
40
0.562499999999849
40
0.562499999999849
40
0.624999999999863
40
0.624999999999863
40
0.687499999999877
40
0.687499999999877
40
0.718749999999886
40
0.718749999999886
40
0.749999999999896
40
0.749999999999896
40
0.812499999999913
40
0.812499999999913
40
0.843749999999927
40
0.843749999999927
40
0.874999999999941
40
0.906249999999955
40
0.906249999999955
40
0.937499999999969
40
0.937499999999969
40
1
40
1
40
1
40
1
41
1
10
11.9794887094538
20
0.430673500801731
30
0
41
1
10
11.9479490687718
20
0.412464080763868
30
0
41
1
10
11.9170924091763
20
0.393006891686213
30
0
41
1
10
11.8570446084758
20
0.35166810484543
30
0
41
1
10
11.8279269263183
20
0.3298441914514
30
0
41
1
10
11.7716848439604
20
0.283662758650394
30
0
41
1
10
11.7445502112925
20
0.259293986063199
30
0
41
1
10
11.6930841843093
20
0.207919941983164
30
0
41
1
10
11.6687296485524
20
0.180907298954395
30
0
41
1
10
11.6352533818921
20
0.138220353866984
30
0
41
1
10
11.6246236988252
20
0.123649815531252
30
0
41
1
10
11.6046264786777
20
0.0937020439805849
30
0
41
1
10
11.5952869961302
20
0.0783589954143622
30
0
41
1
10
11.5783960559787
20
0.0471285774932255
30
0
41
1
10
11.5708127751247
20
0.0312019512074357
30
0
41
1
10
11.5610756414268
20
0.0067332682177152
30
0
41
1
10
11.5581045851009
20
-0.0015199758749986
30
0
41
1
10
11.552800334287
20
-0.0182494027011444
30
0
41
1
10
11.5504687772985
20
-0.0267355848029354
30
0
41
1
10
11.5446995141403
20
-0.0521009417115579
30
0
41
1
10
11.5424189054896
20
-0.0690299005590305
30
0
41
1
10
11.5420216029101
20
-0.094435043650293
30
0
41
1
10
11.5424080918033
20
-0.102889258379463
30
0
41
1
10
11.5442701636357
20
-0.119295956363459
30
0
41
1
10
11.5472155907842
20
-0.135322135290124
30
0
41
1
10
11.5524285481622
20
-0.150543395053518
30
0
41
1
10
11.5588491792978
20
-0.165332448291196
30
0
41
1
10
11.5626607702442
20
-0.172469938160049
30
0
41
1
10
11.5754658963998
20
-0.192468678188561
30
0
41
1
10
11.5859286690969
20
-0.204198173707283
30
0
41
1
10
11.5981077259892
20
-0.21449677594984
30
0
0
SPLINE
5
105
100
AcDbEntity
8
1
62
256
6
ByLayer
370
18
48
1
60
0
100
AcDbSpline
70
4
71
3
72
39
73
35
40
0
40
0
40
0
40
0
40
0.12500000000007
40
0.12500000000007
40
0.25000000000014
40
0.25000000000014
40
0.37500000000021
40
0.37500000000021
40
0.437500000000246
40
0.437500000000246
40
0.500000000000282
40
0.500000000000282
40
0.562500000000318
40
0.562500000000318
40
0.625000000000354
40
0.625000000000354
40
0.68750000000039
40
0.68750000000039
40
0.718750000000376
40
0.718750000000376
40
0.750000000000363
40
0.750000000000363
40
0.812500000000276
40
0.812500000000276
40
0.84375000000023
40
0.84375000000023
40
0.875000000000184
40
0.875000000000184
40
0.906250000000138
40
0.906250000000138
40
0.937500000000092
40
0.968750000000046
40
0.968750000000046
40
1
40
1
40
1
40
1
41
1
10
10.5761387094538
20
-2.00000000000006
30
0
41
1
10
10.5761387094538
20
-1.96357512771414
30
0
41
1
10
10.5775625644937
20
-1.92711490530146
30
0
41
1
10
10.5833322285525
20
-1.85451470204555
30
0
41
1
10
10.5876822854323
20
-1.81830358400583
30
0
41
1
10
10.599553254291
20
-1.74652538098462
30
0
41
1
10
10.6070832789848
20
-1.71088125753633
30
0
41
1
10
10.6211196174069
20
-1.6582875180043
30
0
41
1
10
10.626254816053
20
-1.64090852603806
30
0
41
1
10
10.6375514244752
20
-1.60649580130206
30
0
41
1
10
10.6437221493278
20
-1.58943924755434
30
0
41
1
10
10.6571826161775
20
-1.55591514957084
30
0
41
1
10
10.6644740860272
20
-1.53943306666972
30
0
41
1
10
10.6803919063312
20
-1.50714218825124
30
0
41
1
10
10.6889805198958
20
-1.49141597620567
30
0
41
1
10
10.7075398529048
20
-1.46119236324432
30
0
41
1
10
10.7175221410729
20
-1.44666176511169
30
0
41
1
10
10.7338228655477
20
-1.42597918431372
30
0
41
1
10
10.7394790103595
20
-1.4192717262778
30
0
41
1
10
10.7513070519009
20
-1.40629240283747
30
0
41
1
10
10.7574737934017
20
-1.40003216693248
30
0
41
1
10
10.776512943197
20
-1.38234389723056
30
0
41
1
10
10.7900122455152
20
-1.37188164827842
30
0
41
1
10
10.8118061058684
20
-1.35878255393257
30
0
41
1
10
10.8192980293414
20
-1.35488131314258
30
0
41
1
10
10.8344538069956
20
-1.34824352399522
30
0
41
1
10
10.8421590751081
20
-1.34548072438869
30
0
41
1
10
10.8578373361764
20
-1.34114190392165
30
0
41
1
10
10.8658755898011
20
-1.33956048207372
30
0
41
1
10
10.8818890040296
20
-1.33771789649336
30
0
41
1
10
10.8977824360194
20
-1.33717695435882
30
0
41
1
10
10.9134425712578
20
-1.33911636079432
30
0
41
1
10
10.9289885197889
20
-1.34225810715634
30
0
41
1
10
10.9366802569643
20
-1.34443106153023
30
0
41
1
10
10.944182067155
20
-1.34712924142369
30
0
0
SPLINE
5
106
100
AcDbEntity
8
1
62
256
6
ByLayer
370
18
48
1
60
0
100
AcDbSpline
70
4
71
3
72
8
73
4
40
0
40
0
40
0
40
0
40
1
40
1
40
1
40
1
41
1
10
10.964182067155
20
-1.34850103823453
30
0
41
1
10
10.9575151553169
20
-1.34804375581464
30
0
41
1
10
10.9508484905506
20
-1.34758649034137
30
0
41
1
10
10.944182067155
20
-1.34712924142369
30
0
0
SPLINE
5
107
100
AcDbEntity
8
1
62
256
6
ByLayer
370
18
48
1
60
0
100
AcDbSpline
70
4
71
3
72
50
73
46
40
0
40
0
40
0
40
0
40
0.0312500000000271
40
0.0312500000000271
40
0.0468750000000283
40
0.0468750000000283
40
0.0625000000000295
40
0.0625000000000295
40
0.125000000000028
40
0.125000000000028
40
0.156250000000023
40
0.156250000000023
40
0.187500000000017
40
0.187500000000017
40
0.25
40
0.25
40
0.28124999999999
40
0.28124999999999
40
0.31249999999998
40
0.31249999999998
40
0.374999999999983
40
0.374999999999983
40
0.499999999999988
40
0.499999999999988
40
0.562500000000004
40
0.562500000000004
40
0.62500000000002
40
0.62500000000002
40
0.687500000000036
40
0.687500000000036
40
0.750000000000052
40
0.750000000000052
40
0.812500000000068
40
0.812500000000068
40
0.843750000000056
40
0.843750000000056
40
0.875000000000045
40
0.875000000000045
40
0.906250000000034
40
0.906250000000034
40
0.937500000000023
40
0.937500000000023
40
0.968750000000011
40
0.968750000000011
40
1
40
1
40
1
40
1
41
1
10
11.6092957368763
20
-0.231131385620102
30
0
41
1
10
11.6169938815276
20
-0.242577176364648
30
0
41
1
10
11.6233973192655
20
-0.254745945477993
30
0
41
1
10
11.6314850076017
20
-0.273854314794391
30
0
41
1
10
11.6339253493948
20
-0.280367812839046
30
0
41
1
10
11.6383415502517
20
-0.293658451778839
30
0
41
1
10
11.640321488421
20
-0.300455062843582
30
0
41
1
10
11.6490662205228
20
-0.334693594033524
30
0
41
1
10
11.6525357370634
20
-0.363029473069588
30
0
41
1
10
11.6541384659692
20
-0.406572652451302
30
0
41
1
10
11.654050428751
20
-0.42131050135859
30
0
41
1
10
11.6528040629899
20
-0.450729000363566
30
0
41
1
10
11.6516499862807
20
-0.465445487575039
30
0
41
1
10
11.6468078862418
20
-0.509627765991553
30
0
41
1
10
11.6417530588288
20
-0.539126586158432
30
0
41
1
10
11.6319040393349
20
-0.583478327085373
30
0
41
1
10
11.6282301881796
20
-0.598312038710844
30
0
41
1
10
11.6202034638925
20
-0.627865191234037
30
0
41
1
10
11.6158651478187
20
-0.64253789263995
30
0
41
1
10
11.6019552871437
20
-0.686274134935388
30
0
41
1
10
11.591494322984
20
-0.715057780678023
30
0
41
1
10
11.5569205839976
20
-0.800429979896194
30
0
41
1
10
11.5296719832553
20
-0.856059686608944
30
0
41
1
10
11.4826568539271
20
-0.937669291329399
30
0
41
1
10
11.4661048519744
20
-0.964283879350859
30
0
41
1
10
11.4312452102217
20
-1.0162731351387
30
0
41
1
10
11.4129331251957
20
-1.0416469138556
30
0
41
1
10
11.3747255186325
20
-1.09070719398011
30
0
41
1
10
11.3547526220374
20
-1.11449243238664
30
0
41
1
10
11.3132832080981
20
-1.15996990720177
30
0
41
1
10
11.2917518552292
20
-1.1817126531067
30
0
41
1
10
11.2469647474147
20
-1.22276872099036
30
0
41
1
10
11.2238593947298
20
-1.2419562863341
30
0
41
1
10
11.1878533950246
20
-1.26832546819037
30
0
41
1
10
11.1756033215627
20
-1.2767225994325
30
0
41
1
10
11.1507409562398
20
-1.29248171925374
30
0
41
1
10
11.1381179283165
20
-1.29985462142844
30
0
41
1
10
11.1124132342825
20
-1.31342770307242
30
0
41
1
10
11.0993543057075
20
-1.31961329460418
30
0
41
1
10
11.0729319401828
20
-1.3304801101425
30
0
41
1
10
11.0595035764818
20
-1.33518843228055
30
0
41
1
10
11.0323773132966
20
-1.34274251938646
30
0
41
1
10
11.0187909462291
20
-1.34556289483308
30
0
41
1
10
10.9915473546629
20
-1.34890907247629
30
0
41
1
10
10.9778903146569
20
-1.34944128474481
30
0
41
1
10
10.964182067155
20
-1.34850103823453
30
0
0
SPLINE
5
108
100
AcDbEntity
8
1
62
256
6
ByLayer
370
18
48
1
60
0
100
AcDbSpline
70
4
71
9
72
20
73
10
40
0
40
0
40
0
40
0
40
0
40
0
40
0
40
0
40
0
40
0
40
1
40
1
40
1
40
1
40
1
40
1
40
1
40
1
40
1
40
1
41
1
10
46.7030233160193
20
-20.5624773736208
30
0
41
1
10
46.8253711818693
20
-19.5660314437629
30
0
41
1
10
46.668117088441
20
-18.5352479650597
30
0
41
1
10
46.2202393747583
20
-17.5598206251883
30
0
41
1
10
45.5043081040418
20
-16.7334662152572
30
0
41
1
10
44.5781910323189
20
-16.1391450944172
30
0
41
1
10
43.5287347301515
20
-15.8324960026017
30
0
41
1
10
42.455385934762
20
-15.8316776615921
30
0
41
1
10
41.4527938687567
20
-16.1181080094334
30
0
41
1
10
40.5978875680309
20
-16.6444260891901
30
0
0
SPLINE
5
109
100
AcDbEntity
8
1
62
256
6
ByLayer
370
18
48
1
60
0
100
AcDbSpline
70
4
71
9
72
20
73
10
40
0
40
0
40
0
40
0
40
0
40
0
40
0
40
0
40
0
40
0
40
1
40
1
40
1
40
1
40
1
40
1
40
1
40
1
40
1
40
1
41
1
10
46.7030232556767
20
-20.562477865072
30
0
41
1
10
46.580674780168
20
-21.5589237088972
30
0
41
1
10
46.1787227197852
20
-22.5210452943743
30
0
41
1
10
45.5081716705678
20
-23.3591468415335
30
0
41
1
10
44.6135934103071
20
-23.9877555437468
30
0
41
1
10
43.5712066994849
20
-24.3403747980968
30
0
41
1
10
42.4787386198404
20
-24.3840286599693
30
0
41
1
10
41.4370749044037
20
-24.1251561404499
30
0
41
1
10
40.5335578795658
20
-23.6046850509267
30
0
41
1
10
39.8313738071102
20
-22.8871803399899
30
0
0
SPLINE
5
10A
100
AcDbEntity
8
1
62
256
6
ByLayer
370
18
48
1
60
0
100
AcDbSpline
70
4
71
9
72
20
73
10
40
0
40
0
40
0
40
0
40
0
40
0
40
0
40
0
40
0
40
0
40
1
40
1
40
1
40
1
40
1
40
1
40
1
40
1
40
1
40
1
41
1
10
17.0253730321093
20
-20.6955050422915
30
0
41
1
10
17.4154140764594
20
-20.9059419081029
30
0
41
1
10
17.8315224518103
20
-21.0680634403381
30
0
41
1
10
18.2668582152337
20
-21.1781793647693
30
0
41
1
10
18.713971927194
20
-21.2337291030325
30
0
41
1
10
19.1650285722292
20
-21.2334025127396
30
0
41
1
10
19.6120613843415
20
-21.1772051906025
30
0
41
1
10
20.047237205913
20
-21.0664586379187
30
0
41
1
10
20.4631102913237
20
-20.9037343638069
30
0
41
1
10
20.8528460594449
20
-20.6927326201567
30
0
0
SPLINE
5
10B
100
AcDbEntity
8
1
62
256
6
ByLayer
370
18
48
1
60
0
100
AcDbSpline
70
4
71
9
72
20
73
10
40
0
40
0
40
0
40
0
40
0
40
0
40
0
40
0
40
0
40
0
40
1
40
1
40
1
40
1
40
1
40
1
40
1
40
1
40
1
40
1
41
1
10
20.3423954488257
20
-13.381683220167
30
0
41
1
10
20.5209522337796
20
-13.4482414087744
30
0
41
1
10
20.6959640182933
20
-13.5243098389094
30
0
41
1
10
20.866851909574
20
-13.6096727256216
30
0
41
1
10
21.0330523388865
20
-13.7040731717591
30
0
41
1
10
21.1940205650179
20
-13.8072144733241
30
0
41
1
10
21.3492340386975
20
-13.9187617986773
30
0
41
1
10
21.4981955749101
20
-14.038344222424
30
0
41
1
10
21.6404362841333
20
-14.1655570831671
30
0
41
1
10
21.7755182225028
20
-14.2999646224144
30
0
0
SPLINE
5
10C
100
AcDbEntity
8
1
62
256
6
ByLayer
370
18
48
1
60
0
100
AcDbSpline
70
4
71
3
72
21
73
17
40
0
40
0
40
0
40
0
40
0.0498591071721164
40
0.103026384935772
40
0.159504494726016
40
0.219296002903677
40
0.282403422774539
40
0.348829241397527
40
0.418575936602065
40
0.491645989727495
40
0.568041899182879
40
0.647766198197402
40
0.730821475890064
40
0.817210392802302
40
0.906935668680403
40
1
40
1
40
1
40
1
41
1
10
39.8313025975561
20
-22.8872500347273
30
0
41
1
10
39.8296714248633
20
-22.8856164264734
30
0
41
1
10
39.8263008505538
20
-22.8822408194411
30
0
41
1
10
39.8208542129182
20
-22.8772506812061
30
0
41
1
10
39.8148881489589
20
-22.8721551191264
30
0
41
1
10
39.8083598783664
20
-22.8670181592616
30
0
41
1
10
39.80125096436
20
-22.8618862333296
30
0
41
1
10
39.7935385559595
20
-22.8568170930396
30
0
41
1
10
39.7852046759027
20
-22.8518714670945
30
0
41
1
10
39.7762344668532
20
-22.8471156318535
30
0
41
1
10
39.7666177757937
20
-22.8426202226245
30
0
41
1
10
39.7563495969315
20
-22.8384619857611
30
0
41
1
10
39.7454318664178
20
-22.834716714589
30
0
41
1
10
39.733871097406
20
-22.8314856471266
30
0
41
1
10
39.7216923813186
20
-22.8287890020947
30
0
41
1
10
39.7133099553222
20
-22.8276069842821
30
0
41
1
10
39.7090421805721
20
-22.8270051792943
30
0
0
SPLINE
5
10D
100
AcDbEntity
8
1
62
256
6
ByLayer
370
18
48
1
60
0
100
AcDbSpline
70
4
71
2
72
6
73
3
40
0
40
0
40
0
40
1
40
1
40
1
41
1
10
40.5978353344112
20
-16.6443412375067
30
0
41
1
10
40.5365189567359
20
-16.6818505013406
30
0
41
1
10
40.4646321096841
20
-16.6732190391181
30
0
0
SPLINE
5
10E
100
AcDbEntity
8
1
62
256
6
ByLayer
370
18
48
1
60
0
100
AcDbSpline
70
4
71
8
72
18
73
9
40
0
40
0
40
0
40
0
40
0
40
0
40
0
40
0
40
0
40
1
40
1
40
1
40
1
40
1
40
1
40
1
40
1
40
1
41
1
10
38.6081846018216
20
-16.4452759470259
30
0
41
1
10
38.7323499291057
20
-16.4605215322159
30
0
41
1
10
38.864102308185
20
-16.476698690229
30
0
41
1
10
39.0023385821058
20
-16.4936719704232
30
0
41
1
10
39.145861208919
20
-16.5112943331361
30
0
41
1
10
39.2933988589784
20
-16.5294096787153
30
0
41
1
10
39.4436299396441
20
-16.5478557359888
30
0
41
1
10
39.5952077364864
20
-16.5664671492167
30
0
41
1
10
39.7467855332592
20
-16.5850785624361
30
0
0
SPLINE
5
10F
100
AcDbEntity
8
1
62
256
6
ByLayer
370
18
48
1
60
0
100
AcDbSpline
70
4
71
8
72
18
73
9
40
0
40
0
40
0
40
0
40
0
40
0
40
0
40
0
40
0
40
1
40
1
40
1
40
1
40
1
40
1
40
1
40
1
40
1
41
1
10
37.8525946727097
20
-22.5990620872021
30
0
41
1
10
37.9767599999937
20
-22.614307672392
30
0
41
1
10
38.108512379073
20
-22.6304848304052
30
0
41
1
10
38.2467486529938
20
-22.6474581105994
30
0
41
1
10
38.3902712798071
20
-22.6650804733123
30
0
41
1
10
38.5378089298665
20
-22.6831958188915
30
0
41
1
10
38.6880400105322
20
-22.701641876165
30
0
41
1
10
38.8396178073745
20
-22.7202532893929
30
0
41
1
10
38.9911956041473
20
-22.7388647026123
30
0
0
SPLINE
5
110
100
AcDbEntity
8
1
62
256
6
ByLayer
370
18
48
1
60
0
100
AcDbSpline
70
4
71
11
72
24
73
12
40
0
40
0
40
0
40
0
40
0
40
0
40
0
40
0
40
0
40
0
40
0
40
0
40
1
40
1
40
1
40
1
40
1
40
1
40
1
40
1
40
1
40
1
40
1
40
1
41
1
10
36.6905913937278
20
-16.5032634858081
30
0
41
1
10
36.6903980281546
20
-16.504838322023
30
0
41
1
10
36.6902439168401
20
-16.5064179780448
30
0
41
1
10
36.6901291252217
20
-16.508001920845
30
0
41
1
10
36.6900537021392
20
-16.5095896153778
30
0
41
1
10
36.6900176797856
20
-16.5111805248149
30
0
41
1
10
36.6900210736937
20
-16.5127741108973
30
0
41
1
10
36.6900638827165
20
-16.5143698341842
30
0
41
1
10
36.6901460890281
20
-16.5159671543658
30
0
41
1
10
36.6902676581376
20
-16.5175655305672
30
0
41
1
10
36.6904285389054
20
-16.5191644216222
30
0
41
1
10
36.6906286635997
20
-16.5207632863525
30
0
0
SPLINE
5
111
100
AcDbEntity
8
1
62
256
6
ByLayer
370
18
48
1
60
0
100
AcDbSpline
70
4
71
11
72
24
73
12
40
0
40
0
40
0
40
0
40
0
40
0
40
0
40
0
40
0
40
0
40
0
40
0
40
1
40
1
40
1
40
1
40
1
40
1
40
1
40
1
40
1
40
1
40
1
40
1
41
1
10
36.9328762477858
20
-18.4561622255058
30
0
41
1
10
36.9334375811324
20
-18.4606469100194
30
0
41
1
10
36.9343076686571
20
-18.4651313874979
30
0
41
1
10
36.9354850155666
20
-18.4696037157352
30
0
41
1
10
36.9369670993931
20
-18.4740519532197
30
0
41
1
10
36.9387503763238
20
-18.478464210233
30
0
41
1
10
36.9408302934735
20
-18.48282869996
30
0
41
1
10
36.9432013069921
20
-18.4871337891809
30
0
41
1
10
36.9458569057839
20
-18.4913680481382
30
0
41
1
10
36.9487896407962
20
-18.4955202991932
30
0
41
1
10
36.9519911595734
20
-18.4995796638743
30
0
41
1
10
36.9554522456168
20
-18.5035356079501
30
0
0
SPLINE
5
112
100
AcDbEntity
8
1
62
256
6
ByLayer
370
18
48
1
60
0
100
AcDbSpline
70
4
71
3
72
18
73
14
40
0
40
0
40
0
40
0
40
0.109297592928747
40
0.214849986229548
40
0.316674662063685
40
0.414791095966195
40
0.509221058678123
40
0.599988974381971
40
0.687122347628651
40
0.770652274199087
40
0.850614054790632
40
0.927047934932911
40
1
40
1
40
1
40
1
41
1
10
37.0998795367203
20
-18.6447711252044
30
0
41
1
10
37.0977286230246
20
-18.6438235740198
30
0
41
1
10
37.0935004990055
20
-18.6419609405114
30
0
41
1
10
37.0873865336914
20
-18.6388899566594
30
0
41
1
10
37.0815789232091
20
-18.6356974779895
30
0
41
1
10
37.0760830972423
20
-18.6323796684654
30
0
41
1
10
37.0708948890456
20
-18.6289601743628
30
0
41
1
10
37.0660125263088
20
-18.6254551638672
30
0
41
1
10
37.0614341214185
20
-18.6218814647351
30
0
41
1
10
37.0571564867844
20
-18.6182566988731
30
0
41
1
10
37.0531818415181
20
-18.614591268385
30
0
41
1
10
37.0494937553633
20
-18.6109180207981
30
0
41
1
10
37.0472059481893
20
-18.6083727412202
30
0
41
1
10
37.0460887061518
20
-18.6071297635016
30
0
0
SPLINE
5
113
100
AcDbEntity
8
1
62
256
6
ByLayer
370
18
48
1
60
0
100
AcDbSpline
70
4
71
5
72
12
73
6
40
0
40
0
40
0
40
0
40
0
40
0
40
1
40
1
40
1
40
1
40
1
40
1
41
1
10
37.3182717317066
20
-18.7273528439255
30
0
41
1
10
37.274070320465
20
-18.7126892938885
30
0
41
1
10
37.2301269148078
20
-18.6969677007348
30
0
41
1
10
37.1864039075944
20
-18.6806952956591
30
0
41
1
10
37.1429860419105
20
-18.6631729119058
30
0
41
1
10
37.0998797773519
20
-18.6447691654994
30
0
0
SPLINE
5
114
100
AcDbEntity
8
1
62
256
6
ByLayer
370
18
48
1
60
0
100
AcDbSpline
70
4
71
2
72
10
73
7
40
0
40
0
40
0
40
0.5
40
0.5
40
0.75
40
0.75
40
1
40
1
40
1
41
1
10
37.3182717316989
20
-18.7273528438883
30
0
41
1
10
37.4065271734031
20
-18.7567243103001
30
0
41
1
10
37.466657511269
20
-18.8121464968713
30
0
41
1
10
37.5015893000646
20
-18.8443431580677
30
0
41
1
10
37.5222783202969
20
-18.8824505176545
30
0
41
1
10
37.5463336831019
20
-18.9267583848277
30
0
41
1
10
37.5469784842689
20
-18.9740610479643
30
0
0
SPLINE
5
115
100
AcDbEntity
8
1
62
256
6
ByLayer
370
18
48
1
60
0
100
AcDbSpline
70
4
71
5
72
12
73
6
40
0
40
0
40
0
40
0
40
0
40
0
40
1
40
1
40
1
40
1
40
1
40
1
41
1
10
37.54697848434
20
-18.9740610478864
30
0
41
1
10
37.5473916360776
20
-19.0122098038645
30
0
41
1
10
37.5463580114989
20
-19.0505495354763
30
0
41
1
10
37.5445350507476
20
-19.0886149519184
30
0
41
1
10
37.5410398223262
20
-19.1268969994659
30
0
41
1
10
37.5363703848856
20
-19.1649265143752
30
0
0
SPLINE
5
116
100
AcDbEntity
8
1
62
256
6
ByLayer
370
18
48
1
60
0
100
AcDbSpline
70
4
71
5
72
12
73
6
40
0
40
0
40
0
40
0
40
0
40
0
40
1
40
1
40
1
40
1
40
1
40
1
41
1
10
37.4346793973837
20
-19.8886637156037
30
0
41
1
10
37.44430929611
20
-19.8517480911669
30
0
41
1
10
37.452581595147
20
-19.81429715702
30
0
41
1
10
37.4600216418234
20
-19.7769214320067
30
0
41
1
10
37.4658915021338
20
-19.738930952593
30
0
41
1
10
37.4705609392767
20
-19.7009014376471
30
0
0
SPLINE
5
117
100
AcDbEntity
8
1
62
256
6
ByLayer
370
18
48
1
60
0
100
AcDbSpline
70
4
71
3
72
40
73
36
40
0
40
0
40
0
40
0
40
0.0335605829616296
40
0.0663709615071278
40
0.0984232417107612
40
0.129710930810403
40
0.160228792735836
40
0.189972713251235
40
0.218939576168321
40
0.247127151502505
40
0.274533995981339
40
0.30115936601126
40
0.327003142989319
40
0.352065770719513
40
0.376348204639958
40
0.399851872575496
40
0.422578646791701
40
0.44453082724437
40
0.465711136085961
40
0.486122723712581
40
0.505769186920532
40
0.549313132024835
40
0.59133790777813
40
0.631886110491338
40
0.671006428073979
40
0.708754146893566
40
0.745191774120092
40
0.780389758704387
40
0.814427280754936
40
0.847393062069804
40
0.879386130393733
40
0.910516448403548
40
0.940905299290184
40
0.970685310158108
40
1
40
1
40
1
40
1
41
1
10
37.1530820963565
20
-20.0727144604452
30
0
41
1
10
37.1567995834663
20
-20.0724051203059
30
0
41
1
10
37.1641514579599
20
-20.0717933549353
30
0
41
1
10
37.1750316622077
20
-20.0705486834682
30
0
41
1
10
37.1856446691657
20
-20.0690950425675
30
0
41
1
10
37.1959869583805
20
-20.0674245221726
30
0
41
1
10
37.2060570141511
20
-20.0655587296811
30
0
41
1
10
37.2158528635236
20
-20.0635111657724
30
0
41
1
10
37.2253727179522
20
-20.0612969077505
30
0
41
1
10
37.2346148119158
20
-20.0589300752236
30
0
41
1
10
37.2435774479098
20
-20.0564244562852
30
0
41
1
10
37.2522589874955
20
-20.053793325154
30
0
41
1
10
37.2606578553272
20
-20.0510494734949
30
0
41
1
10
37.2687725399745
20
-20.0482051924844
30
0
41
1
10
37.2766015923372
20
-20.0452722698541
30
0
41
1
10
37.2841436337764
20
-20.042261995055
30
0
41
1
10
37.2913973273331
20
-20.0391851377938
30
0
41
1
10
37.2983614787881
20
-20.0360520363592
30
0
41
1
10
37.3050346764389
20
-20.0328723068858
30
0
41
1
10
37.3114165617734
20
-20.0296559030411
30
0
41
1
10
37.3200496956707
20
-20.0250512720238
30
0
41
1
10
37.330759979624
20
-20.0188314334395
30
0
41
1
10
37.3433223188883
20
-20.0106700969024
30
0
41
1
10
37.3551369677665
20
-20.002098504827
30
0
41
1
10
37.3662013181255
20
-19.9931490225867
30
0
41
1
10
37.3765113462651
20
-19.9838511826041
30
0
41
1
10
37.3860635129939
20
-19.9742337078299
30
0
41
1
10
37.3948543282896
20
-19.9643238700045
30
0
41
1
10
37.4028802642095
20
-19.9541474723779
30
0
41
1
10
37.4101384220133
20
-19.943728983041
30
0
41
1
10
37.4166239940251
20
-19.9330906674446
30
0
41
1
10
37.4223393107639
20
-19.9222555623974
30
0
41
1
10
37.4272613706843
20
-19.9112367632512
30
0
41
1
10
37.43145899428
20
-19.900076117501
30
0
41
1
10
37.4336115795822
20
-19.8924478273865
30
0
41
1
10
37.4346793973346
20
-19.888663715511
30
0
0
SPLINE
5
118
100
AcDbEntity
8
1
62
256
6
ByLayer
370
18
48
1
60
0
100
AcDbSpline
70
4
71
5
72
12
73
6
40
0
40
0
40
0
40
0
40
0
40
0
40
1
40
1
40
1
40
1
40
1
40
1
41
1
10
37.1530820963709
20
-20.0727144604107
30
0
41
1
10
37.1066462221266
20
-20.0762491511478
30
0
41
1
10
37.0602047258018
20
-20.0808728737995
30
0
41
1
10
37.0138438276808
20
-20.0860843661142
30
0
41
1
10
36.9674766098707
20
-20.0925825278151
30
0
41
1
10
36.921198516377
20
-20.1000112550664
30
0
0
SPLINE
5
119
100
AcDbEntity
8
1
62
256
6
ByLayer
370
18
48
1
60
0
100
AcDbSpline
70
4
71
2
72
6
73
3
40
0
40
0
40
0
40
1
40
1
40
1
41
1
10
36.9211985163649
20
-20.1000112550579
30
0
41
1
10
36.8855138008587
20
-20.1058543901312
30
0
41
1
10
36.859899613909
20
-20.1235182318283
30
0
0
SPLINE
5
11A
100
AcDbEntity
8
1
62
256
6
ByLayer
370
18
48
1
60
0
100
AcDbSpline
70
4
71
11
72
24
73
12
40
0
40
0
40
0
40
0
40
0
40
0
40
0
40
0
40
0
40
0
40
0
40
0
40
1
40
1
40
1
40
1
40
1
40
1
40
1
40
1
40
1
40
1
40
1
40
1
41
1
10
36.7135275569195
20
-20.2426139524438
30
0
41
1
10
36.7151571596454
20
-20.2383982810538
30
0
41
1
10
36.7170862951444
20
-20.2342575049451
30
0
41
1
10
36.719310623944
20
-20.2302028499661
30
0
41
1
10
36.7218248095912
20
-20.2262452926742
30
0
41
1
10
36.7246225371564
20
-20.2223955122864
30
0
41
1
10
36.7276965375058
20
-20.2186638440565
30
0
41
1
10
36.7310386171349
20
-20.2150602344691
30
0
41
1
10
36.7346396932467
20
-20.2115941985925
30
0
41
1
10
36.7384898339417
20
-20.2082747799529
30
0
41
1
10
36.7425783031273
20
-20.2051105132428
30
0
41
1
10
36.7468936096132
20
-20.2021093901091
30
0
0
SPLINE
5
11B
100
AcDbEntity
8
1
62
256
6
ByLayer
370
18
48
1
60
0
100
AcDbSpline
70
4
71
11
72
24
73
12
40
0
40
0
40
0
40
0
40
0
40
0
40
0
40
0
40
0
40
0
40
0
40
0
40
1
40
1
40
1
40
1
40
1
40
1
40
1
40
1
40
1
40
1
40
1
40
1
41
1
10
36.0059906334637
20
-22.0788892422534
30
0
41
1
10
36.0061839990368
20
-22.0773144060385
30
0
41
1
10
36.0064166188661
20
-22.0757443896503
30
0
41
1
10
36.0066884274942
20
-22.0741797261146
30
0
41
1
10
36.0069993428706
20
-22.0726209463997
30
0
41
1
10
36.0073492663616
20
-22.0710685791759
30
0
41
1
10
36.007738082822
20
-22.0695231504714
30
0
41
1
10
36.0081656606362
20
-22.0679851834258
30
0
41
1
10
36.0086318517953
20
-22.0664551979868
30
0
41
1
10
36.0091364919832
20
-22.064933710619
30
0
41
1
10
36.0096794006595
20
-22.0634212340419
30
0
41
1
10
36.0102603811814
20
-22.0619182769725
30
0
0
LINE
5
7E
100
AcDbEntity
8
80
62
256
6
ByLayer
370
18
48
1
60
0
100
AcDbLine
10
0
20
0
30
0
11
-5
21
0
31
0
39
0
210
0
220
0
230
1
0
LINE
5
7F
100
AcDbEntity
8
1
62
256
6
ByLayer
370
18
48
1
60
0
100
AcDbLine
10
0
20
15.923075
30
0
11
0
21
-16.49899
31
0
39
0
210
0
220
0
230
1
0
LINE
5
80
100
AcDbEntity
8
1
62
256
6
ByLayer
370
18
48
1
60
0
100
AcDbLine
10
36.398235
20
-22.496052
30
0
11
34.819339
21
-22.302188
31
0
39
0
210
0
220
0
230
1
0
LINE
5
81
100
AcDbEntity
8
1
62
256
6
ByLayer
370
18
48
1
60
0
100
AcDbLine
10
37.172105
20
-16.193384
30
0
11
35.593209
21
-15.99952
31
0
39
0
210
0
220
0
230
1
0
LINE
5
82
100
AcDbEntity
8
1
62
256
6
ByLayer
370
18
48
1
60
0
100
AcDbLine
10
40.645406
20
-16.619852
30
0
11
37.172105
21
-16.193384
31
0
39
0
210
0
220
0
230
1
0
LINE
5
83
100
AcDbEntity
8
1
62
256
6
ByLayer
370
18
48
1
60
0
100
AcDbLine
10
37.162829
20
-16.267832
30
0
11
37.172105
21
-16.193384
31
0
39
0
210
0
220
0
230
1
0
LINE
5
84
100
AcDbEntity
8
1
62
256
6
ByLayer
370
18
48
1
60
0
100
AcDbLine
10
36.398235
20
-22.496052
30
0
11
36.407245
21
-22.421572
31
0
39
0
210
0
220
0
230
1
0
LINE
5
85
100
AcDbEntity
8
1
62
256
6
ByLayer
370
18
48
1
60
0
100
AcDbLine
10
39.819434
20
-22.916123
30
0
11
36.398235
21
-22.496052
31
0
39
0
210
0
220
0
230
1
0
LINE
5
86
100
AcDbEntity
8
1
62
256
6
ByLayer
370
18
48
1
60
0
100
AcDbLine
10
1.274997
20
-20.683352
30
0
11
1.475219
21
-20.683352
31
0
39
0
210
0
220
0
230
1
0
LINE
5
87
100
AcDbEntity
8
1
62
256
6
ByLayer
370
18
48
1
60
0
100
AcDbLine
10
1.274997
20
-20.683352
30
0
11
0.317758
21
-17.11089
31
0
39
0
210
0
220
0
230
1
0
LINE
5
88
100
AcDbEntity
8
1
62
256
6
ByLayer
370
18
48
1
60
0
100
AcDbLine
10
32.698039
20
-15.644038
30
0
11
35.593202
21
-15.999519
31
0
39
0
210
0
220
0
230
1
0
LINE
5
89
100
AcDbEntity
8
1
62
256
6
ByLayer
370
18
48
1
60
0
100
AcDbLine
10
34.819332
20
-22.302187
30
0
11
31.924169
21
-21.946706
31
0
39
0
210
0
220
0
230
1
0
LINE
5
8A
100
AcDbEntity
8
1
62
256
6
ByLayer
370
18
48
1
60
0
100
AcDbLine
10
35.593202
20
-15.999519
30
0
11
35.616802
21
-16.560008
31
0
39
0
210
0
220
0
230
1
0
LINE
5
8B
100
AcDbEntity
8
1
62
256
6
ByLayer
370
18
48
1
60
0
100
AcDbLine
10
34.977825
20
-21.764056
30
0
11
34.819332
21
-22.302187
31
0
39
0
210
0
220
0
230
1
0
LINE
5
8C
100
AcDbEntity
8
1
62
256
6
ByLayer
370
18
48
1
60
0
100
AcDbLine
10
35.848993
20
-18.700859
30
0
11
35.721038
21
-19.74297
31
0
39
0
210
0
220
0
230
1
0
LINE
5
8D
100
AcDbEntity
8
1
62
256
6
ByLayer
370
18
48
1
60
0
100
AcDbLine
10
27.453279
20
-15.000062
30
0
11
32.698039
21
-15.644038
31
0
39
0
210
0
220
0
230
1
0
LINE
5
8E
100
AcDbEntity
8
1
62
256
6
ByLayer
370
18
48
1
60
0
100
AcDbLine
10
31.924169
20
-21.946706
30
0
11
26.679409
21
-21.30273
31
0
39
0
210
0
220
0
230
1
0
LINE
5
8F
100
AcDbEntity
8
1
62
256
6
ByLayer
370
18
48
1
60
0
100
AcDbLine
10
32.698039
20
-15.644038
30
0
11
31.924169
21
-21.946706
31
0
39
0
210
0
220
0
230
1
0
LINE
5
90
100
AcDbEntity
8
1
62
256
6
ByLayer
370
18
48
1
60
0
100
AcDbLine
10
3.465133
20
15.963616
30
0
11
1.475219
21
15.931211
31
0
39
0
210
0
220
0
230
1
0
LINE
5
91
100
AcDbEntity
8
1
62
256
6
ByLayer
370
18
48
1
60
0
100
AcDbLine
10
1.475219
20
-20.683352
30
0
11
3.465133
21
-20.683352
31
0
39
0
210
0
220
0
230
1
0
LINE
5
92
100
AcDbEntity
8
1
62
256
6
ByLayer
370
13
48
1
60
0
100
AcDbLine
10
1.475219
20
-20.683352
30
0
11
1.475219
21
15.931211
31
0
39
0
210
0
220
0
230
1
0
LINE
5
93
100
AcDbEntity
8
1
62
256
6
ByLayer
370
18
48
1
60
0
100
AcDbLine
10
15.094223
20
15.963616
30
0
11
20.132839
21
10.925
31
0
39
0
210
0
220
0
230
1
0
LINE
5
94
100
AcDbEntity
8
1
62
256
6
ByLayer
370
18
48
1
60
0
100
AcDbLine
10
15.094223
20
15.963616
30
0
11
3.465133
21
15.963616
31
0
39
0
210
0
220
0
230
1
0
LINE
5
95
100
AcDbEntity
8
1
62
256
6
ByLayer
370
18
48
1
60
0
100
AcDbLine
10
3.465133
20
15.963616
30
0
11
3.465133
21
-20.683352
31
0
39
0
210
0
220
0
230
1
0
LINE
5
96
100
AcDbEntity
8
1
62
256
6
ByLayer
370
18
48
1
60
0
100
AcDbLine
10
3.465133
20
-20.683352
30
0
11
21.537118
21
-20.683352
31
0
39
0
210
0
220
0
230
1
0
LINE
5
97
100
AcDbEntity
8
1
62
256
6
ByLayer
370
18
48
1
60
0
100
AcDbLine
10
21.732109
20
-20.695278
30
0
11
26.679409
21
-21.30273
31
0
39
0
210
0
220
0
230
1
0
LINE
5
98
100
AcDbEntity
8
1
62
256
6
ByLayer
370
18
48
1
60
0
100
AcDbLine
10
26.679409
20
-21.30273
30
0
11
27.453279
21
-15.000062
31
0
39
0
210
0
220
0
230
1
0
LINE
5
99
100
AcDbEntity
8
1
62
256
6
ByLayer
370
18
48
1
60
0
100
AcDbLine
10
21.537848
20
-14.273739
30
0
11
27.453279
21
-15.000062
31
0
39
0
210
0
220
0
230
1
0
LINE
5
9A
100
AcDbEntity
8
1
62
256
6
ByLayer
370
18
48
1
60
0
100
AcDbLine
10
20.132839
20
10.925
30
0
11
20.132839
21
-12.685665
31
0
39
0
210
0
220
0
230
1
0
LINE
5
9B
100
AcDbEntity
8
SK1
62
256
6
ByLayer
370
18
48
1
60
0
100
AcDbLine
10
-1.227723
20
-15.925
30
0
11
-3.462166
21
-15.925
31
0
39
0
210
0
220
0
230
1
0
LINE
5
9D
100
AcDbEntity
8
SK1
62
256
6
ByLayer
370
18
48
1
60
0
100
AcDbLine
10
0
20
15.923075
30
0
11
0
21
-16.49899
31
0
39
0
210
0
220
0
230
1
0
LINE
5
9E
100
AcDbEntity
8
SK1
62
256
6
ByLayer
370
18
48
1
60
0
100
AcDbLine
10
-3.462166
20
-15.925
30
0
11
-143.267161
21
-15.925
31
0
39
0
210
0
220
0
230
1
0
LINE
5
9F
100
AcDbEntity
8
SK1
62
256
6
ByLayer
370
18
48
1
60
0
100
AcDbLine
10
-3.462166
20
15.925
30
0
11
-3.462166
21
-15.925
31
0
39
0
210
0
220
0
230
1
0
LINE
5
A0
100
AcDbEntity
8
SK1
62
256
6
ByLayer
370
18
48
1
60
0
100
AcDbLine
10
-3.462166
20
15.925
30
0
11
-143.267161
21
15.925
31
0
39
0
210
0
220
0
230
1
0
LINE
5
A1
100
AcDbEntity
8
SK1
62
256
6
ByLayer
370
18
48
1
60
0
100
AcDbLine
10
-143.267161
20
-15.925
30
0
11
-143.267161
21
15.925
31
0
39
0
210
0
220
0
230
1
0
LINE
5
A2
100
AcDbEntity
8
1
62
256
6
ByLayer
370
18
48
1
60
0
100
AcDbLine
10
39.746786
20
-16.585079
30
0
11
40.464633
21
-16.673219
31
0
39
0
210
0
220
0
230
1
0
LINE
5
A3
100
AcDbEntity
8
1
62
256
6
ByLayer
370
18
48
1
60
0
100
AcDbLine
10
38.991196
20
-22.738865
30
0
11
39.709043
21
-22.827005
31
0
39
0
210
0
220
0
230
1
0
LINE
5
A4
100
AcDbEntity
8
1
62
256
6
ByLayer
370
13
48
1
60
0
100
AcDbLine
10
38.991196
20
-22.738865
30
0
11
39.746786
21
-16.585079
31
0
39
0
210
0
220
0
230
1
0
LINE
5
A5
100
AcDbEntity
8
1
62
256
6
ByLayer
370
13
48
1
60
0
100
AcDbLine
10
37.470561
20
-19.700901
30
0
11
35.752036
21
-19.489893
31
0
39
0
210
0
220
0
230
1
0
LINE
5
A6
100
AcDbEntity
8
1
62
256
6
ByLayer
370
13
48
1
60
0
100
AcDbLine
10
37.53637
20
-19.164927
30
0
11
35.817845
21
-18.953918
31
0
39
0
210
0
220
0
230
1
0
LINE
5
A7
100
AcDbEntity
8
1
62
256
6
ByLayer
370
13
48
1
60
0
100
AcDbLine
10
37.434679
20
-19.888664
30
0
11
35.728782
21
-19.679206
31
0
39
0
210
0
220
0
230
1
0
LINE
5
A8
100
AcDbEntity
8
1
62
256
6
ByLayer
370
13
48
1
60
0
100
AcDbLine
10
37.546978
20
-18.974061
30
0
11
35.841082
21
-18.764603
31
0
39
0
210
0
220
0
230
1
0
LINE
5
A9
100
AcDbEntity
8
1
62
256
6
ByLayer
370
13
48
1
60
0
100
AcDbLine
10
37.318272
20
-18.727353
30
0
11
35.776051
21
-18.537992
31
0
39
0
210
0
220
0
230
1
0
LINE
5
AA
100
AcDbEntity
8
1
62
256
6
ByLayer
370
13
48
1
60
0
100
AcDbLine
10
37.153082
20
-20.072714
30
0
11
35.610862
21
-19.883354
31
0
39
0
210
0
220
0
230
1
0
LINE
5
AB
100
AcDbEntity
8
1
62
256
6
ByLayer
370
13
48
1
60
0
100
AcDbLine
10
35.636361
20
-18.465075
30
0
11
37.099885
21
-18.644773
31
0
39
0
210
0
220
0
230
1
0
LINE
5
AC
100
AcDbEntity
8
1
62
256
6
ByLayer
370
13
48
1
60
0
100
AcDbLine
10
35.457777
20
-19.920323
30
0
11
36.921204
21
-20.100009
31
0
39
0
210
0
220
0
230
1
0
LINE
5
AD
100
AcDbEntity
8
1
62
256
6
ByLayer
370
13
48
1
60
0
100
AcDbLine
10
35.458462
20
-19.951438
30
0
11
36.859905
21
-20.123513
31
0
39
0
210
0
220
0
230
1
0
LINE
5
AE
100
AcDbEntity
8
1
62
256
6
ByLayer
370
13
48
1
60
0
100
AcDbLine
10
35.64465
20
-18.435062
30
0
11
37.046093
21
-18.607137
31
0
39
0
210
0
220
0
230
1
0
LINE
5
AF
100
AcDbEntity
8
1
62
256
6
ByLayer
370
13
48
1
60
0
100
AcDbLine
10
36.955452
20
-18.503536
30
0
11
35.643981
21
-18.342507
31
0
39
0
210
0
220
0
230
1
0
LINE
5
B0
100
AcDbEntity
8
1
62
256
6
ByLayer
370
13
48
1
60
0
100
AcDbLine
10
36.746894
20
-20.202109
30
0
11
35.434763
21
-20.041
31
0
39
0
210
0
220
0
230
1
0
LINE
5
B1
100
AcDbEntity
8
1
62
256
6
ByLayer
370
13
48
1
60
0
100
AcDbLine
10
36.713528
20
-20.242614
30
0
11
35.42333
21
-20.084198
31
0
39
0
210
0
220
0
230
1
0
LINE
5
B2
100
AcDbEntity
8
1
62
256
6
ByLayer
370
13
48
1
60
0
100
AcDbLine
10
36.932876
20
-18.456162
30
0
11
35.643617
21
-18.297861
31
0
39
0
210
0
220
0
230
1
0
LINE
5
B3
100
AcDbEntity
8
1
62
256
6
ByLayer
370
18
48
1
60
0
100
AcDbLine
10
34.840773
20
-22.229257
30
0
11
35.970496
21
-22.367969
31
0
39
0
210
0
220
0
230
1
0
LINE
5
B4
100
AcDbEntity
8
1
62
256
6
ByLayer
370
13
48
1
60
0
100
AcDbLine
10
36.005991
20
-22.078889
30
0
11
34.924102
21
-21.94605
31
0
39
0
210
0
220
0
230
1
0
LINE
5
B5
100
AcDbEntity
8
1
62
256
6
ByLayer
370
13
48
1
60
0
100
AcDbLine
10
36.01026
20
-22.061918
30
0
11
34.92916
21
-21.929176
31
0
39
0
210
0
220
0
230
1
0
LINE
5
B6
100
AcDbEntity
8
1
62
256
6
ByLayer
370
13
48
1
60
0
100
AcDbLine
10
36.690629
20
-16.520763
30
0
11
35.609528
21
-16.388021
31
0
39
0
210
0
220
0
230
1
0
LINE
5
B7
100
AcDbEntity
8
1
62
256
6
ByLayer
370
18
48
1
60
0
100
AcDbLine
10
36.726086
20
-16.214183
30
0
11
38.608185
21
-16.445276
31
0
39
0
210
0
220
0
230
1
0
LINE
5
B8
100
AcDbEntity
8
1
62
256
6
ByLayer
370
18
48
1
60
0
100
AcDbLine
10
35.970496
20
-22.367969
30
0
11
37.852595
21
-22.599062
31
0
39
0
210
0
220
0
230
1
0
LINE
5
B9
100
AcDbEntity
8
1
62
256
6
ByLayer
370
13
48
1
60
0
100
AcDbLine
10
37.852595
20
-22.599062
30
0
11
38.608185
21
-16.445276
31
0
39
0
210
0
220
0
230
1
0
LINE
5
BA
100
AcDbEntity
8
1
62
256
6
ByLayer
370
18
48
1
60
0
100
AcDbLine
10
36.690629
20
-16.520763
30
0
11
36.932876
21
-18.456162
31
0
39
0
210
0
220
0
230
1
0
LINE
5
BB
100
AcDbEntity
8
1
62
256
6
ByLayer
370
18
48
1
60
0
100
AcDbLine
10
36.955452
20
-18.503536
30
0
11
37.046094
21
-18.607137
31
0
39
0
210
0
220
0
230
1
0
LINE
5
BC
100
AcDbEntity
8
1
62
256
6
ByLayer
370
18
48
1
60
0
100
AcDbLine
10
37.53637
20
-19.164927
30
0
11
37.503466
21
-19.432914
31
0
39
0
210
0
220
0
230
1
0
LINE
5
BD
100
AcDbEntity
8
1
62
256
6
ByLayer
370
18
48
1
60
0
100
AcDbLine
10
37.470561
20
-19.700901
30
0
11
37.503466
21
-19.432914
31
0
39
0
210
0
220
0
230
1
0
LINE
5
BE
100
AcDbEntity
8
1
62
256
6
ByLayer
370
18
48
1
60
0
100
AcDbLine
10
36.746894
20
-20.202109
30
0
11
36.859906
21
-20.123514
31
0
39
0
210
0
220
0
230
1
0
LINE
5
BF
100
AcDbEntity
8
1
62
256
6
ByLayer
370
18
48
1
60
0
100
AcDbLine
10
36.01026
20
-22.061918
30
0
11
36.713528
21
-20.242614
31
0
39
0
210
0
220
0
230
1
0
LINE
5
C0
100
AcDbEntity
8
1
62
256
6
ByLayer
370
18
48
1
60
0
100
AcDbLine
10
36.005991
20
-22.078889
30
0
11
35.970496
21
-22.367969
31
0
39
0
210
0
220
0
230
1
0
LINE
5
C1
100
AcDbEntity
8
1
62
256
6
ByLayer
370
18
48
1
60
0
100
AcDbLine
10
35.596363
20
-16.075471
30
0
11
36.726086
21
-16.214183
31
0
39
0
210
0
220
0
230
1
0
LINE
5
C2
100
AcDbEntity
8
1
62
256
6
ByLayer
370
13
48
1
60
0
100
AcDbLine
10
36.690591
20
-16.503263
30
0
11
35.608703
21
-16.370424
31
0
39
0
210
0
220
0
230
1
0
LINE
5
C3
100
AcDbEntity
8
1
62
256
6
ByLayer
370
18
48
1
60
0
100
AcDbLine
10
36.690591
20
-16.503263
30
0
11
36.726086
21
-16.214183
31
0
39
0
210
0
220
0
230
1
0
LINE
5
C4
100
AcDbEntity
8
81
62
256
6
ByLayer
370
18
48
1
60
0
100
AcDbLine
10
46.732839
20
-24.075
30
0
11
51.695569
21
-24.684347
31
0
39
0
210
0
220
0
230
1
0
LINE
5
C5
100
AcDbEntity
8
2
62
256
6
ByLayer
370
13
48
1
60
0
100
AcDbLine
10
53.271236
20
-24.877814
30
0
11
93.206706
21
-29.781273
31
0
39
0
210
0
220
0
230
1
0
LINE
5
C7
100
AcDbEntity
8
2
62
256
6
ByLayer
370
13
48
1
60
0
100
AcDbLine
10
48.320339
20
-24.075
30
0
11
93.555717
21
-24.075
31
0
39
0
210
0
220
0
230
1
0
LINE
5
C8
100
AcDbEntity
8
1
62
256
6
ByLayer
370
18
48
1
60
1
100
AcDbLine
10
91.221614
20
-29.537535
30
0
11
91.183543
21
-33.067529
31
0
39
0
210
0
220
0
230
1
0
LINE
5
C9
100
AcDbEntity
8
1
62
256
6
ByLayer
370
18
48
1
60
1
100
AcDbLine
10
91.183543
20
-33.067529
30
0
11
90.271209
21
-32.937397
31
0
39
0
210
0
220
0
230
1
0
LINE
5
CA
100
AcDbEntity
8
1
62
256
6
ByLayer
370
18
48
1
60
1
100
AcDbLine
10
90.271209
20
-32.937397
30
0
11
91.221614
21
-29.537535
31
0
39
0
210
0
220
0
230
1
0
LINE
5
CB
100
AcDbEntity
8
1
62
256
6
ByLayer
370
18
48
1
60
1
100
AcDbLine
10
91.555717
20
-24.075
30
0
11
91.026736
21
-20.584658
31
0
39
0
210
0
220
0
230
1
0
LINE
5
CC
100
AcDbEntity
8
1
62
256
6
ByLayer
370
18
48
1
60
1
100
AcDbLine
10
91.026736
20
-20.584658
30
0
11
91.948128
21
-20.566675
31
0
39
0
210
0
220
0
230
1
0
LINE
5
CD
100
AcDbEntity
8
1
62
256
6
ByLayer
370
18
48
1
60
1
100
AcDbLine
10
91.948128
20
-20.566675
30
0
11
91.555717
21
-24.075
31
0
39
0
210
0
220
0
230
1
0
LINE
5
11F
100
AcDbEntity
8
1
62
256
6
ByLayer
370
18
48
1
60
1
100
AcDbLine
10
91.221614
20
-29.537535
30
0
11
91.183543
21
-33.067529
31
0
39
0
210
0
220
0
230
1
0
LINE
5
120
100
AcDbEntity
8
1
62
256
6
ByLayer
370
18
48
1
60
1
100
AcDbLine
10
91.183543
20
-33.067529
30
0
11
90.271209
21
-32.937397
31
0
39
0
210
0
220
0
230
1
0
LINE
5
121
100
AcDbEntity
8
1
62
256
6
ByLayer
370
18
48
1
60
1
100
AcDbLine
10
90.271209
20
-32.937397
30
0
11
91.221614
21
-29.537535
31
0
39
0
210
0
220
0
230
1
0
LINE
5
123
100
AcDbEntity
8
1
62
256
6
ByLayer
370
18
48
1
60
1
100
AcDbLine
10
91.555717
20
-24.075
30
0
11
91.026736
21
-20.584658
31
0
39
0
210
0
220
0
230
1
0
LINE
5
124
100
AcDbEntity
8
1
62
256
6
ByLayer
370
18
48
1
60
1
100
AcDbLine
10
91.026736
20
-20.584658
30
0
11
91.948128
21
-20.566675
31
0
39
0
210
0
220
0
230
1
0
LINE
5
125
100
AcDbEntity
8
1
62
256
6
ByLayer
370
18
48
1
60
1
100
AcDbLine
10
91.948128
20
-20.566675
30
0
11
91.555717
21
-24.075
31
0
39
0
210
0
220
0
230
1
0
MTEXT
5
11C
100
AcDbEntity
8
2
62
256
6
ByLayer
370
18
48
1
60
0
100
AcDbMText
10
90.813301
20
-26.78578
30
0
210
0
220
0
230
1
1
\W0.9056;7%%d
40
3.5
41
0
44
1.084337
50
88.7302034091856
71
7
72
5
7
iso_b_vert
0
MTEXT
5
127
100
AcDbEntity
8
SK6
62
256
6
ByLayer
370
18
48
1
60
0
100
AcDbMText
10
-80.600296
20
-58.577732
30
0
210
0
220
0
230
1
1
\W0.8036;C2T-RS32-LX07L25DB
40
3.5
41
0
44
1.084337
50
0
71
7
72
5
7
iso_b_vert
0
HATCH
5
122
100
AcDbEntity
8
2
62
256
6
ByLayer
370
13
48
1
60
0
100
AcDbHatch
10
0
20
0
30
0
210
0
220
0
230
1
2
ANSI31
70
0
71
0
91
1
92
5
93
3
72
1
10
91.221614187425
20
-29.5375347621711
11
91.1835429143098
21
-33.067529151228
72
1
10
91.1835429143098
20
-33.067529151228
11
90.2712094809511
21
-32.9373971708969
72
1
10
90.2712094809511
20
-32.9373971708969
11
91.221614187425
21
-29.5375347621711
97
0
75
0
76
1
52
0
41
0.0062
77
0
78
1
53
45
43
0
44
0
45
-0.0139193969876572
46
0.0139193969876572
79
0
47
0
98
1
10
0
20
0
0
HATCH
5
126
100
AcDbEntity
8
2
62
256
6
ByLayer
370
13
48
1
60
0
100
AcDbHatch
10
0
20
0
30
0
210
0
220
0
230
1
2
ANSI31
70
0
71
0
91
1
92
5
93
3
72
1
10
91.5557171261425
20
-24.0750000000002
11
91.0267356576931
21
-20.5846578370243
72
1
10
91.0267356576931
20
-20.5846578370243
11
91.9481276628983
21
-20.566674548307
72
1
10
91.9481276628983
20
-20.566674548307
11
91.5557171261425
21
-24.0750000000002
97
0
75
0
76
1
52
0
41
0.0062
77
0
78
1
53
45
43
0
44
0
45
-0.0139193969876572
46
0.0139193969876572
79
0
47
0
98
1
10
0
20
0
0
DIMENSION
5
12A
100
AcDbEntity
8
2
62
256
6
ByLayer
370
18
48
1
60
0
100
AcDbDimension
2
_U0
10
79.795569
20
15.925
30
0
11
79.795569
21
-4.075
31
0
70
32
71
1
72
1
41
1
210
0
220
0
230
1
3
Standard
100
AcDbAlignedDimension
13
46.732839
23
-24.075
33
0
14
-143.267161
24
15.925
34
0
50
90
100
AcDbRotatedDimension
1001
ACAD
1000
DSTYLE
1002
{
1070
   371
1070
    13
1070
   372
1070
    13
1070
   170
1070
     0
1070
   144
1040
1.0
1070
   277
1070
     2
1070
   284
1070
     8
1070
   278
1070
    46
1070
   146
1040
1.0
1070
   345
1005
16
1070
   347
1005
16
1070
   346
1005
16
1070
   344
1005
0
1070
   343
1005
0
1070
   172
1070
     1
1070
    76
1070
     0
1070
    75
1070
     0
1070
   282
1070
     0
1070
   281
1070
     0
1070
    71
1070
     0
1070
    74
1070
     0
1070
   279
1070
     0
1070
   173
1070
     1
1070
   340
1005
11D
1070
   271
1070
     2
1070
   272
1070
     2
1070
    77
1070
     1
1070
    73
1070
     0
1070
   171
1070
     3
1070
   274
1070
     4
1070
   177
1070
     2
1070
   176
1070
     2
1070
   178
1070
     2
1070
    78
1070
     8
1070
    48
1040
-0.1
1070
    41
1040
3.5
1070
   147
1040
1.75
1070
    42
1040
1.5875
1070
    44
1040
2.0
1070
   140
1040
3.5
1002
}
1001
ACAD_DSTYLE_DIM_LINETYPE
1070
   380
1005
16
1001
ACAD_DSTYLE_DIM_EXT1_LINETYPE
1070
   381
1005
16
1001
ACAD_DSTYLE_DIM_EXT2_LINETYPE
1070
   382
1005
16
0
DIMENSION
5
143
100
AcDbEntity
8
SK2
62
256
6
ByLayer
370
18
48
1
60
0
100
AcDbDimension
2
_U1
10
-154.867161
20
-16.075
30
0
11
-154.867161
21
-0.075
31
0
70
32
71
1
72
1
41
1
210
0
220
0
230
1
3
Standard
100
AcDbAlignedDimension
13
-143.267161
23
15.925
33
0
14
-143.267161
24
-16.075
34
0
50
90
100
AcDbRotatedDimension
1001
ACAD
1000
DSTYLE
1002
{
1070
   371
1070
    13
1070
   372
1070
    13
1070
   170
1070
     0
1070
   144
1040
1.0
1070
   277
1070
     2
1070
   284
1070
     8
1070
   278
1070
    46
1070
   146
1040
1.0
1070
   345
1005
16
1070
   347
1005
16
1070
   346
1005
16
1070
   344
1005
0
1070
   343
1005
0
1070
   172
1070
     1
1070
    76
1070
     0
1070
    75
1070
     0
1070
   282
1070
     0
1070
   281
1070
     0
1070
    71
1070
     0
1070
    74
1070
     0
1070
   279
1070
     0
1070
   173
1070
     1
1070
   340
1005
11D
1070
   271
1070
     2
1070
   272
1070
     2
1070
    77
1070
     1
1070
    73
1070
     0
1070
   171
1070
     3
1070
   274
1070
     4
1070
   177
1070
     2
1070
   176
1070
     2
1070
   178
1070
     2
1070
    78
1070
     8
1070
    48
1040
-0.1
1070
    41
1040
3.5
1070
   147
1040
1.75
1070
    42
1040
1.5875
1070
    44
1040
2.0
1070
   140
1040
3.5
1002
}
1001
ACAD_DSTYLE_DIM_LINETYPE
1070
   380
1005
16
1001
ACAD_DSTYLE_DIM_EXT1_LINETYPE
1070
   381
1005
16
1001
ACAD_DSTYLE_DIM_EXT2_LINETYPE
1070
   382
1005
16
0
DIMENSION
5
15C
100
AcDbEntity
8
2
62
256
6
ByLayer
370
18
48
1
60
0
100
AcDbDimension
2
_U2
10
46.732839
20
22.175
30
0
11
34.232839
21
22.175
31
0
70
32
71
1
72
1
41
1
210
0
220
0
230
1
3
Standard
100
AcDbAlignedDimension
13
21.732839
23
-14.297681
33
0
14
46.732839
24
-24.075
34
0
50
0
100
AcDbRotatedDimension
1001
ACAD
1000
DSTYLE
1002
{
1070
   371
1070
    13
1070
   372
1070
    13
1070
   170
1070
     0
1070
   144
1040
1.0
1070
   277
1070
     2
1070
   284
1070
     8
1070
   278
1070
    46
1070
   146
1040
1.0
1070
   345
1005
16
1070
   347
1005
16
1070
   346
1005
16
1070
   344
1005
0
1070
   343
1005
0
1070
   172
1070
     1
1070
    76
1070
     0
1070
    75
1070
     0
1070
   282
1070
     0
1070
   281
1070
     0
1070
    71
1070
     0
1070
    74
1070
     0
1070
   279
1070
     0
1070
   173
1070
     1
1070
   340
1005
11D
1070
   271
1070
     1
1070
   272
1070
     2
1070
    77
1070
     1
1070
    73
1070
     1
1070
   171
1070
     3
1070
   274
1070
     4
1070
   177
1070
     2
1070
   176
1070
     2
1070
   178
1070
     2
1070
    78
1070
     8
1070
    48
1040
-0.1
1070
    41
1040
3.5
1070
   147
1040
1.75
1070
    42
1040
1.5875
1070
    44
1040
2.0
1070
   140
1040
3.5
1002
}
1001
ACAD_DSTYLE_DIM_LINETYPE
1070
   380
1005
16
1001
ACAD_DSTYLE_DIM_EXT1_LINETYPE
1070
   381
1005
16
1001
ACAD_DSTYLE_DIM_EXT2_LINETYPE
1070
   382
1005
16
0
DIMENSION
5
174
100
AcDbEntity
8
SK2
62
256
6
ByLayer
370
18
48
1
60
0
100
AcDbDimension
2
_U3
10
46.732839
20
33.175
30
0
11
-48.267161
21
33.175
31
0
70
32
71
1
72
1
41
1
210
0
220
0
230
1
3
Standard
100
AcDbAlignedDimension
13
-143.267161
23
15.925
33
0
14
46.732839
24
-24.075
34
0
50
0
100
AcDbRotatedDimension
1001
ACAD
1000
DSTYLE
1002
{
1070
   371
1070
    13
1070
   372
1070
    13
1070
   170
1070
     0
1070
   144
1040
1.0
1070
   277
1070
     2
1070
   284
1070
     8
1070
   278
1070
    46
1070
   146
1040
1.0
1070
   345
1005
16
1070
   347
1005
16
1070
   346
1005
16
1070
   344
1005
0
1070
   343
1005
0
1070
   172
1070
     1
1070
    76
1070
     0
1070
    75
1070
     0
1070
   282
1070
     0
1070
   281
1070
     0
1070
    71
1070
     0
1070
    74
1070
     0
1070
   279
1070
     0
1070
   173
1070
     1
1070
   340
1005
11D
1070
   271
1070
     1
1070
   272
1070
     2
1070
    77
1070
     1
1070
    73
1070
     1
1070
   171
1070
     3
1070
   274
1070
     4
1070
   177
1070
     2
1070
   176
1070
     2
1070
   178
1070
     2
1070
    78
1070
     8
1070
    48
1040
-0.1
1070
    41
1040
3.5
1070
   147
1040
1.75
1070
    42
1040
1.5875
1070
    44
1040
2.0
1070
   140
1040
3.5
1002
}
1001
ACAD_DSTYLE_DIM_LINETYPE
1070
   380
1005
16
1001
ACAD_DSTYLE_DIM_EXT1_LINETYPE
1070
   381
1005
16
1001
ACAD_DSTYLE_DIM_EXT2_LINETYPE
1070
   382
1005
16
0
ENDSEC
0
SECTION
2
OBJECTS
0
DICTIONARY
5
1fb
330
0
100
AcDbDictionary
280
0
281
1
3
ACAD_GROUP
350
1fc
3
ACAD_MLINESTYLE
350
1fd
0
DICTIONARY
5
1fc
330
0
100
AcDbDictionary
280
0
281
1
0
DICTIONARY
5
1fd
330
0
100
AcDbDictionary
280
0
281
1
3
Standard
350
18
0
MLINESTYLE
5
18
330
1fd
100
AcDbMlineStyle
2
Standard
70
0
3

62
256
51
90
52
90
71
2
49
-0.5
62
256
6
ByLayer
49
0.5
62
256
6
ByLayer
0
RASTERVARIABLES
5
1ea
330

100
AcDbRasterVariables
90
0
70
1
71
1
72
1
0
ENDSEC
0
EOF
