0
SECTION
2
HEADER
9
$ACADVER
1
AC1015
9
$DWGCODEPAGE
3
ANSI_1252
9
$HANDSEED
5
208
9
$ANGBASE
50
0
9
$ANGDIR
70
0
9
$ATTMODE
70
1
9
$AUNITS
70
0
9
$AUPREC
70
0
9
$CECOLOR
62
256
9
$CELTSCALE
40
1
9
$CELTYPE
6
ByLayer
9
$CELWEIGHT
370
18
9
$CLAYER
8
0
9
$CMLJUST
70
0
9
$CMLSCALE
40
1
9
$CMLSTYLE
2
Standard
9
$DIMSTYLE
2
Standard
9
$TEXTSIZE
40
0.2
9
$TEXTSTYLE
7
Standard
9
$LUNITS
70
2
9
$LUPREC
70
4
9
$EXTNAMES
290
1
9
$INSUNITS
70
4
9
$LTSCALE
40
1
9
$LWDISPLAY
290
1
9
$PDMODE
70
0
9
$PDSIZE
40
0
9
$PLINEGEN
70
0
0
ENDSEC
0
SECTION
2
CLASSES
0
CLASS
1
RASTERVARIABLES
2
AcDbRasterVariables
3
ISM
90
0
280
0
281
0
0
ENDSEC
0
SECTION
2
TABLES
0
TABLE
2
VPORT
5
1fe
100
AcDbSymbolTable
0
VPORT
5
1
100
AcDbSymbolTableRecord
100
AcDbViewportTableRecord
2
*Active
70
0
10
0
20
0
11
1
21
1
12
-1
22
1
13
0
23
0
14
0.5
24
0.5
15
10
25
10
16
0
26
0
36
1
17
0
27
0
37
0
0
ENDTAB
0
TABLE
2
LTYPE
5
1ff
100
AcDbSymbolTable
0
LTYPE
5
14
100
AcDbSymbolTableRecord
100
AcDbLinetypeTableRecord
70
0
2
ByBlock
3

72
65
73
0
40
0
0
LTYPE
5
15
100
AcDbSymbolTableRecord
100
AcDbLinetypeTableRecord
70
0
2
ByLayer
3

72
65
73
0
40
0
0
LTYPE
5
16
100
AcDbSymbolTableRecord
100
AcDbLinetypeTableRecord
70
0
2
Continuous
3
Solid line
72
65
73
0
40
0
0
LTYPE
5
6E
100
AcDbSymbolTableRecord
100
AcDbLinetypeTableRecord
70
0
2
CENTER
3
____ _ ____ _ ____ _ ____
72
65
73
4
40
47.5
49
22
74
0
49
-8.5
74
0
49
8.5
74
0
49
-8.5
74
0
0
LTYPE
5
6F
100
AcDbSymbolTableRecord
100
AcDbLinetypeTableRecord
70
0
2
DASHED
3
__ __ __ __ __ __ __ __ __
72
65
73
2
40
25.72
49
12.86
74
0
49
-12.86
74
0
0
ENDTAB
0
TABLE
2
LAYER
5
200
100
AcDbSymbolTable
0
LAYER
5
10
100
AcDbSymbolTableRecord
100
AcDbLayerTableRecord
2
0
70
0
62
7
6
Continuous
290
1
370
-3
390
0
0
LAYER
5
71
100
AcDbSymbolTableRecord
100
AcDbLayerTableRecord
2
81
70
0
62
-3
6
Continuous
290
1
370
-3
390
0
0
LAYER
5
73
100
AcDbSymbolTableRecord
100
AcDbLayerTableRecord
2
80
70
0
62
-6
6
Continuous
290
1
370
-3
390
0
0
LAYER
5
75
100
AcDbSymbolTableRecord
100
AcDbLayerTableRecord
2
1
70
0
62
4
6
Continuous
290
1
370
-3
390
0
0
LAYER
5
C6
100
AcDbSymbolTableRecord
100
AcDbLayerTableRecord
2
2
70
0
62
7
6
Continuous
290
1
370
-3
390
0
0
LAYER
5
12D
100
AcDbSymbolTableRecord
100
AcDbLayerTableRecord
2
Defpoints
70
0
62
7
6
Continuous
290
0
370
-3
390
0
0
LAYER
5
1eb
100
AcDbSymbolTableRecord
100
AcDbLayerTableRecord
2
SK1
70
0
62
4
6
Continuous
290
1
370
-3
390
0
0
LAYER
5
1ec
100
AcDbSymbolTableRecord
100
AcDbLayerTableRecord
2
SK6
70
0
62
5
6
Continuous
290
1
370
-3
390
0
0
LAYER
5
1ed
100
AcDbSymbolTableRecord
100
AcDbLayerTableRecord
2
SK2
70
0
62
7
6
Continuous
290
1
370
-3
390
0
0
ENDTAB
0
TABLE
2
STYLE
5
201
100
AcDbSymbolTable
0
STYLE
5
11
100
AcDbSymbolTableRecord
100
AcDbTextStyleTableRecord
2
Standard
3
txt
70
0
71
0
40
0
41
1
42
0
50
0
0
STYLE
5
11D
100
AcDbSymbolTableRecord
100
AcDbTextStyleTableRecord
2
iso_b_vert
3
simplex.shx
70
0
71
0
40
0
41
1
42
0
50
0
0
STYLE
5
11E
100
AcDbSymbolTableRecord
100
AcDbTextStyleTableRecord
2
DWGDirectTextStyle
3
simplex
70
0
71
0
40
0
41
1
42
0
50
0
0
ENDTAB
0
TABLE
2
DIMSTYLE
5
202
100
AcDbSymbolTable
100
AcDbDimStyleTable
0
DIMSTYLE
105
27
100
AcDbSymbolTableRecord
100
AcDbDimStyleTableRecord
2
Standard
70
0
3
<>
41
0.18
42
0.0625
44
0.18
140
0.18
147
0.09
73
0
74
0
77
1
271
2
275
0
278
52
280
0
340
11
0
ENDTAB
0
TABLE
2
VIEW
5
203
100
AcDbSymbolTable
0
ENDTAB
0
TABLE
2
UCS
5
204
100
AcDbSymbolTable
0
ENDTAB
0
TABLE
2
APPID
5
205
100
AcDbSymbolTable
0
APPID
5
12
100
AcDbSymbolTableRecord
100
AcDbRegAppTableRecord
2
ACAD
70
0
0
APPID
5
129
100
AcDbSymbolTableRecord
100
AcDbRegAppTableRecord
2
ACAD_DSTYLE_DIMBREAK
70
0
0
APPID
5
1AA
100
AcDbSymbolTableRecord
100
AcDbRegAppTableRecord
2
ACAD_DSTYLE_DIM_LINETYPE
70
0
0
APPID
5
1AB
100
AcDbSymbolTableRecord
100
AcDbRegAppTableRecord
2
ACAD_DSTYLE_DIM_EXT1_LINETYPE
70
0
0
APPID
5
1AC
100
AcDbSymbolTableRecord
100
AcDbRegAppTableRecord
2
ACAD_DSTYLE_DIM_EXT2_LINETYPE
70
0
0
APPID
5
1E7
100
AcDbSymbolTableRecord
100
AcDbRegAppTableRecord
2
ACAD_MLEADERVER
70
0
0
ENDTAB
0
TABLE
2
BLOCK_RECORD
5
206
100
AcDbSymbolTable
0
BLOCK_RECORD
5
1F
100
AcDbSymbolTableRecord
100
AcDbBlockTableRecord
2
*Model_Space
340
0
70
0
0
BLOCK_RECORD
5
1B
100
AcDbSymbolTableRecord
100
AcDbBlockTableRecord
2
*Paper_Space
340
0
70
0
0
BLOCK_RECORD
5
23
100
AcDbSymbolTableRecord
100
AcDbBlockTableRecord
2
*Paper_Space0
340
0
70
0
0
BLOCK_RECORD
5
12E
100
AcDbSymbolTableRecord
100
AcDbBlockTableRecord
2
*D1
340
0
70
0
0
BLOCK_RECORD
5
13A
100
AcDbSymbolTableRecord
100
AcDbBlockTableRecord
2
_U0
340
0
70
0
0
BLOCK_RECORD
5
146
100
AcDbSymbolTableRecord
100
AcDbBlockTableRecord
2
*D3
340
0
70
0
0
BLOCK_RECORD
5
153
100
AcDbSymbolTableRecord
100
AcDbBlockTableRecord
2
_U1
340
0
70
0
0
BLOCK_RECORD
5
15F
100
AcDbSymbolTableRecord
100
AcDbBlockTableRecord
2
*D5
340
0
70
0
0
BLOCK_RECORD
5
16B
100
AcDbSymbolTableRecord
100
AcDbBlockTableRecord
2
_U2
340
0
70
0
0
BLOCK_RECORD
5
177
100
AcDbSymbolTableRecord
100
AcDbBlockTableRecord
2
*D7
340
0
70
0
0
BLOCK_RECORD
5
183
100
AcDbSymbolTableRecord
100
AcDbBlockTableRecord
2
_U3
340
0
70
0
0
ENDTAB
0
ENDSEC
0
SECTION
2
BLOCKS
0
BLOCK
5
20
100
AcDbEntity
8
0
100
AcDbBlockBegin
2
*Model_Space
70
0
10
0
20
0
30
0
3
*Model_Space
0
ENDBLK
5
21
100
AcDbEntity
8
0
100
AcDbBlockEnd
0
BLOCK
5
1C
100
AcDbEntity
8
0
100
AcDbBlockBegin
2
*Paper_Space
70
0
10
0
20
0
30
0
3
*Paper_Space
0
ENDBLK
5
1D
100
AcDbEntity
8
0
100
AcDbBlockEnd
0
BLOCK
5
24
100
AcDbEntity
8
0
100
AcDbBlockBegin
2
*Paper_Space0
70
0
10
0
20
0
30
0
3
*Paper_Space0
0
ENDBLK
5
25
100
AcDbEntity
8
0
100
AcDbBlockEnd
0
BLOCK
5
12F
100
AcDbEntity
8
0
100
AcDbBlockBegin
2
*D1
70
1
10
0
20
0
30
0
3
*D1
0
LINE
5
131
100
AcDbEntity
8
0
62
256
6
ByLayer
370
-2
48
1
60
0
100
AcDbLine
10
48.320339
20
-19.5625
30
0
11
81.795569
21
-19.5625
31
0
39
0
210
0
220
0
230
1
0
LINE
5
132
100
AcDbEntity
8
0
62
256
6
ByLayer
370
-2
48
1
60
0
100
AcDbLine
10
-141.679661
20
12.4375
30
0
11
81.795569
21
12.4375
31
0
39
0
210
0
220
0
230
1
0
LINE
5
133
100
AcDbEntity
8
0
62
256
6
ByLayer
370
-2
48
1
60
0
100
AcDbLine
10
79.795569
20
-16.0625
30
0
11
79.795569
21
8.9375
31
0
39
0
210
0
220
0
230
1
0
SOLID
5
134
100
AcDbEntity
8
0
62
256
6
ByLayer
370
-1
48
1
60
0
100
AcDbTrace
10
79.212236
20
-16.0625
30
0
11
80.378903
21
-16.0625
31
0
12
79.795569
22
-19.5625
32
0
13
79.795569
23
-19.5625
33
0
39
0
210
0
220
0
230
1
0
SOLID
5
135
100
AcDbEntity
8
0
62
256
6
ByLayer
370
-1
48
1
60
0
100
AcDbTrace
10
80.378903
20
8.9375
30
0
11
79.212236
21
8.9375
31
0
12
79.795569
22
12.4375
32
0
13
79.795569
23
12.4375
33
0
39
0
210
0
220
0
230
1
0
MTEXT
5
136
100
AcDbEntity
8
0
62
256
6
ByLayer
370
18
48
1
60
0
100
AcDbMText
10
72.795569
20
-3.5625
30
0
210
0
220
0
230
1
1
\A1;32
40
3.5
41
0
44
1
50
90
71
5
72
5
7
iso_b_vert
0
POINT
5
137
100
AcDbEntity
8
Defpoints
62
0
6
ByLayer
370
-1
48
1
60
0
100
AcDbPoint
10
46.732839
20
-19.5625
30
0
39
0
210
0
220
0
230
1
50
360
0
POINT
5
138
100
AcDbEntity
8
Defpoints
62
0
6
ByLayer
370
-1
48
1
60
0
100
AcDbPoint
10
-143.267161
20
12.4375
30
0
39
0
210
0
220
0
230
1
50
360
0
POINT
5
139
100
AcDbEntity
8
Defpoints
62
0
6
ByLayer
370
-1
48
1
60
0
100
AcDbPoint
10
79.795569
20
12.4375
30
0
39
0
210
0
220
0
230
1
50
360
0
ENDBLK
5
130
100
AcDbEntity
8
0
100
AcDbBlockEnd
0
BLOCK
5
141
100
AcDbEntity
8
0
100
AcDbBlockBegin
2
_U0
70
0
10
0
20
0
30
0
3
_U0
0
MTEXT
5
13B
100
AcDbEntity
8
2
62
256
6
ByLayer
370
18
48
1
60
0
100
AcDbMText
10
79.105936
20
-5.495466
30
0
210
0
220
0
230
1
1
\W0.6740;32
40
3.5
41
0
44
1.084337
50
90
71
7
72
5
7
iso_b_vert
0
LINE
5
13C
100
AcDbEntity
8
2
62
256
6
ByLayer
370
13
48
1
60
0
100
AcDbLine
10
48.320339
20
-19.5625
30
0
11
81.795569
21
-19.5625
31
0
39
0
210
0
220
0
230
1
0
LINE
5
13D
100
AcDbEntity
8
2
62
256
6
ByLayer
370
13
48
1
60
0
100
AcDbLine
10
-141.679661
20
12.4375
30
0
11
81.795569
21
12.4375
31
0
39
0
210
0
220
0
230
1
0
LINE
5
13E
100
AcDbEntity
8
2
62
256
6
ByLayer
370
13
48
1
60
0
100
AcDbLine
10
79.795569
20
-19.5625
30
0
11
79.795569
21
12.4375
31
0
39
0
210
0
220
0
230
1
0
SOLID
5
13F
100
AcDbEntity
8
2
62
256
6
ByLayer
370
18
48
1
60
0
100
AcDbTrace
10
79.795569
20
-19.5625
30
0
11
79.334786
21
-16.062502
31
0
12
80.256353
22
-16.062498
32
0
13
80.256353
23
-16.062498
33
0
39
0
210
0
220
0
230
1
0
SOLID
5
140
100
AcDbEntity
8
2
62
256
6
ByLayer
370
18
48
1
60
0
100
AcDbTrace
10
79.795569
20
12.4375
30
0
11
80.256353
21
8.937502
31
0
12
79.334786
22
8.937498
32
0
13
79.334786
23
8.937498
33
0
39
0
210
0
220
0
230
1
0
ENDBLK
5
142
100
AcDbEntity
8
0
100
AcDbBlockEnd
0
BLOCK
5
147
100
AcDbEntity
8
0
100
AcDbBlockBegin
2
*D3
70
1
10
0
20
0
30
0
3
*D3
0
LINE
5
149
100
AcDbEntity
8
0
62
256
6
ByLayer
370
-2
48
1
60
0
100
AcDbLine
10
-144.854661
20
12.4375
30
0
11
-156.867161
21
12.4375
31
0
39
0
210
0
220
0
230
1
0
LINE
5
14A
100
AcDbEntity
8
0
62
256
6
ByLayer
370
-2
48
1
60
0
100
AcDbLine
10
-144.854661
20
-12.5625
30
0
11
-156.867161
21
-12.5625
31
0
39
0
210
0
220
0
230
1
0
LINE
5
14B
100
AcDbEntity
8
0
62
256
6
ByLayer
370
-2
48
1
60
0
100
AcDbLine
10
-154.867161
20
8.9375
30
0
11
-154.867161
21
-9.0625
31
0
39
0
210
0
220
0
230
1
0
SOLID
5
14C
100
AcDbEntity
8
0
62
256
6
ByLayer
370
-1
48
1
60
0
100
AcDbTrace
10
-154.283828
20
8.9375
30
0
11
-155.450495
21
8.9375
31
0
12
-154.867161
22
12.4375
32
0
13
-154.867161
23
12.4375
33
0
39
0
210
0
220
0
230
1
0
SOLID
5
14D
100
AcDbEntity
8
0
62
256
6
ByLayer
370
-1
48
1
60
0
100
AcDbTrace
10
-155.450495
20
-9.0625
30
0
11
-154.283828
21
-9.0625
31
0
12
-154.867161
22
-12.5625
32
0
13
-154.867161
23
-12.5625
33
0
39
0
210
0
220
0
230
1
0
MTEXT
5
14E
100
AcDbEntity
8
0
62
256
6
ByLayer
370
18
48
1
60
0
100
AcDbMText
10
-161.867161
20
-0.0625
30
0
210
0
220
0
230
1
1
\A1;25
40
3.5
41
0
44
1
50
90
71
5
72
5
7
iso_b_vert
0
POINT
5
14F
100
AcDbEntity
8
Defpoints
62
0
6
ByLayer
370
-1
48
1
60
0
100
AcDbPoint
10
-143.267161
20
12.4375
30
0
39
0
210
0
220
0
230
1
50
360
0
POINT
5
150
100
AcDbEntity
8
Defpoints
62
0
6
ByLayer
370
-1
48
1
60
0
100
AcDbPoint
10
-143.267161
20
-12.5625
30
0
39
0
210
0
220
0
230
1
50
360
0
POINT
5
151
100
AcDbEntity
8
Defpoints
62
0
6
ByLayer
370
-1
48
1
60
0
100
AcDbPoint
10
-154.867161
20
-12.5625
30
0
39
0
210
0
220
0
230
1
50
360
0
ENDBLK
5
148
100
AcDbEntity
8
0
100
AcDbBlockEnd
0
BLOCK
5
15A
100
AcDbEntity
8
0
100
AcDbBlockBegin
2
_U1
70
0
10
0
20
0
30
0
3
_U1
0
MTEXT
5
154
100
AcDbEntity
8
SK2
62
256
6
ByLayer
370
18
48
1
60
0
100
AcDbMText
10
-155.556795
20
-1.995466
30
0
210
0
220
0
230
1
1
\W0.6740;25
40
3.5
41
0
44
1.084337
50
90
71
7
72
5
7
iso_b_vert
0
LINE
5
155
100
AcDbEntity
8
SK2
62
256
6
ByLayer
370
13
48
1
60
0
100
AcDbLine
10
-144.854661
20
12.4375
30
0
11
-156.867161
21
12.4375
31
0
39
0
210
0
220
0
230
1
0
LINE
5
156
100
AcDbEntity
8
SK2
62
256
6
ByLayer
370
13
48
1
60
0
100
AcDbLine
10
-144.854661
20
-12.5625
30
0
11
-156.867161
21
-12.5625
31
0
39
0
210
0
220
0
230
1
0
LINE
5
157
100
AcDbEntity
8
SK2
62
256
6
ByLayer
370
13
48
1
60
0
100
AcDbLine
10
-154.867161
20
12.4375
30
0
11
-154.867161
21
-12.5625
31
0
39
0
210
0
220
0
230
1
0
SOLID
5
158
100
AcDbEntity
8
SK2
62
256
6
ByLayer
370
18
48
1
60
0
100
AcDbTrace
10
-154.867161
20
12.4375
30
0
11
-154.406378
21
8.937502
31
0
12
-155.327945
22
8.937498
32
0
13
-155.327945
23
8.937498
33
0
39
0
210
0
220
0
230
1
0
SOLID
5
159
100
AcDbEntity
8
SK2
62
256
6
ByLayer
370
18
48
1
60
0
100
AcDbTrace
10
-154.867161
20
-12.5625
30
0
11
-155.327945
21
-9.062502
31
0
12
-154.406378
22
-9.062498
32
0
13
-154.406378
23
-9.062498
33
0
39
0
210
0
220
0
230
1
0
ENDBLK
5
15B
100
AcDbEntity
8
0
100
AcDbBlockEnd
0
BLOCK
5
160
100
AcDbEntity
8
0
100
AcDbBlockBegin
2
*D5
70
1
10
0
20
0
30
0
3
*D5
0
LINE
5
162
100
AcDbEntity
8
0
62
256
6
ByLayer
370
-2
48
1
60
0
100
AcDbLine
10
21.732839
20
-8.197681
30
0
11
21.732839
21
20.6875
31
0
39
0
210
0
220
0
230
1
0
LINE
5
163
100
AcDbEntity
8
0
62
256
6
ByLayer
370
-2
48
1
60
0
100
AcDbLine
10
46.732839
20
-17.975
30
0
11
46.732839
21
20.6875
31
0
39
0
210
0
220
0
230
1
0
LINE
5
164
100
AcDbEntity
8
0
62
256
6
ByLayer
370
-2
48
1
60
0
100
AcDbLine
10
25.232839
20
18.6875
30
0
11
43.232839
21
18.6875
31
0
39
0
210
0
220
0
230
1
0
SOLID
5
165
100
AcDbEntity
8
0
62
256
6
ByLayer
370
-1
48
1
60
0
100
AcDbTrace
10
25.232839
20
19.270833
30
0
11
25.232839
21
18.104167
31
0
12
21.732839
22
18.6875
32
0
13
21.732839
23
18.6875
33
0
39
0
210
0
220
0
230
1
0
SOLID
5
166
100
AcDbEntity
8
0
62
256
6
ByLayer
370
-1
48
1
60
0
100
AcDbTrace
10
43.232839
20
18.104167
30
0
11
43.232839
21
19.270833
31
0
12
46.732839
22
18.6875
32
0
13
46.732839
23
18.6875
33
0
39
0
210
0
220
0
230
1
0
MTEXT
5
167
100
AcDbEntity
8
0
62
256
6
ByLayer
370
18
48
1
60
0
100
AcDbMText
10
34.232839
20
25.6875
30
0
210
0
220
0
230
1
1
\A1;25
40
3.5
41
0
44
1
50
0
71
5
72
5
7
iso_b_vert
0
POINT
5
168
100
AcDbEntity
8
Defpoints
62
0
6
ByLayer
370
-1
48
1
60
0
100
AcDbPoint
10
21.732839
20
-9.785181
30
0
39
0
210
0
220
0
230
1
50
360
0
POINT
5
169
100
AcDbEntity
8
Defpoints
62
0
6
ByLayer
370
-1
48
1
60
0
100
AcDbPoint
10
46.732839
20
-19.5625
30
0
39
0
210
0
220
0
230
1
50
360
0
POINT
5
16A
100
AcDbEntity
8
Defpoints
62
0
6
ByLayer
370
-1
48
1
60
0
100
AcDbPoint
10
46.732839
20
18.6875
30
0
39
0
210
0
220
0
230
1
50
360
0
ENDBLK
5
161
100
AcDbEntity
8
0
100
AcDbBlockEnd
0
BLOCK
5
172
100
AcDbEntity
8
0
100
AcDbBlockBegin
2
_U2
70
0
10
0
20
0
30
0
3
_U2
0
MTEXT
5
16C
100
AcDbEntity
8
2
62
256
6
ByLayer
370
18
48
1
60
0
100
AcDbMText
10
32.327873
20
19.720134
30
0
210
0
220
0
230
1
1
\W0.6740;25
40
3.5
41
0
44
1.084337
50
0
71
7
72
5
7
iso_b_vert
0
LINE
5
16D
100
AcDbEntity
8
2
62
256
6
ByLayer
370
13
48
1
60
0
100
AcDbLine
10
21.732839
20
-8.197681
30
0
11
21.732839
21
20.6875
31
0
39
0
210
0
220
0
230
1
0
LINE
5
16E
100
AcDbEntity
8
2
62
256
6
ByLayer
370
13
48
1
60
0
100
AcDbLine
10
46.732839
20
-17.975
30
0
11
46.732839
21
20.6875
31
0
39
0
210
0
220
0
230
1
0
LINE
5
16F
100
AcDbEntity
8
2
62
256
6
ByLayer
370
13
48
1
60
0
100
AcDbLine
10
21.732839
20
18.6875
30
0
11
46.732839
21
18.6875
31
0
39
0
210
0
220
0
230
1
0
SOLID
5
170
100
AcDbEntity
8
2
62
256
6
ByLayer
370
18
48
1
60
0
100
AcDbTrace
10
21.732839
20
18.6875
30
0
11
25.232837
21
19.148284
31
0
12
25.23284
22
18.226716
32
0
13
25.23284
23
18.226716
33
0
39
0
210
0
220
0
230
1
0
SOLID
5
171
100
AcDbEntity
8
2
62
256
6
ByLayer
370
18
48
1
60
0
100
AcDbTrace
10
46.732839
20
18.6875
30
0
11
43.23284
21
18.226716
31
0
12
43.232837
22
19.148284
32
0
13
43.232837
23
19.148284
33
0
39
0
210
0
220
0
230
1
0
ENDBLK
5
173
100
AcDbEntity
8
0
100
AcDbBlockEnd
0
BLOCK
5
178
100
AcDbEntity
8
0
100
AcDbBlockBegin
2
*D7
70
1
10
0
20
0
30
0
3
*D7
0
LINE
5
17A
100
AcDbEntity
8
0
62
256
6
ByLayer
370
-2
48
1
60
0
100
AcDbLine
10
-143.267161
20
14.025
30
0
11
-143.267161
21
31.6875
31
0
39
0
210
0
220
0
230
1
0
LINE
5
17B
100
AcDbEntity
8
0
62
256
6
ByLayer
370
-2
48
1
60
0
100
AcDbLine
10
46.732839
20
-17.975
30
0
11
46.732839
21
31.6875
31
0
39
0
210
0
220
0
230
1
0
LINE
5
17C
100
AcDbEntity
8
0
62
256
6
ByLayer
370
-2
48
1
60
0
100
AcDbLine
10
-139.767161
20
29.6875
30
0
11
43.232839
21
29.6875
31
0
39
0
210
0
220
0
230
1
0
SOLID
5
17D
100
AcDbEntity
8
0
62
256
6
ByLayer
370
-1
48
1
60
0
100
AcDbTrace
10
-139.767161
20
30.270833
30
0
11
-139.767161
21
29.104167
31
0
12
-143.267161
22
29.6875
32
0
13
-143.267161
23
29.6875
33
0
39
0
210
0
220
0
230
1
0
SOLID
5
17E
100
AcDbEntity
8
0
62
256
6
ByLayer
370
-1
48
1
60
0
100
AcDbTrace
10
43.232839
20
29.104167
30
0
11
43.232839
21
30.270833
31
0
12
46.732839
22
29.6875
32
0
13
46.732839
23
29.6875
33
0
39
0
210
0
220
0
230
1
0
MTEXT
5
17F
100
AcDbEntity
8
0
62
256
6
ByLayer
370
18
48
1
60
0
100
AcDbMText
10
-48.267161
20
36.6875
30
0
210
0
220
0
230
1
1
\A1;190
40
3.5
41
0
44
1
50
0
71
5
72
5
7
iso_b_vert
0
POINT
5
180
100
AcDbEntity
8
Defpoints
62
0
6
ByLayer
370
-1
48
1
60
0
100
AcDbPoint
10
-143.267161
20
12.4375
30
0
39
0
210
0
220
0
230
1
50
360
0
POINT
5
181
100
AcDbEntity
8
Defpoints
62
0
6
ByLayer
370
-1
48
1
60
0
100
AcDbPoint
10
46.732839
20
-19.5625
30
0
39
0
210
0
220
0
230
1
50
360
0
POINT
5
182
100
AcDbEntity
8
Defpoints
62
0
6
ByLayer
370
-1
48
1
60
0
100
AcDbPoint
10
46.732839
20
29.6875
30
0
39
0
210
0
220
0
230
1
50
360
0
ENDBLK
5
179
100
AcDbEntity
8
0
100
AcDbBlockEnd
0
BLOCK
5
18A
100
AcDbEntity
8
0
100
AcDbBlockBegin
2
_U3
70
0
10
0
20
0
30
0
3
_U3
0
MTEXT
5
184
100
AcDbEntity
8
SK2
62
256
6
ByLayer
370
18
48
1
60
0
100
AcDbMText
10
-51.042427
20
30.720134
30
0
210
0
220
0
230
1
1
\W0.6217;190
40
3.5
41
0
44
1.084337
50
0
71
7
72
5
7
iso_b_vert
0
LINE
5
185
100
AcDbEntity
8
SK2
62
256
6
ByLayer
370
13
48
1
60
0
100
AcDbLine
10
-143.267161
20
14.025
30
0
11
-143.267161
21
31.6875
31
0
39
0
210
0
220
0
230
1
0
LINE
5
186
100
AcDbEntity
8
SK2
62
256
6
ByLayer
370
13
48
1
60
0
100
AcDbLine
10
46.732839
20
-17.975
30
0
11
46.732839
21
31.6875
31
0
39
0
210
0
220
0
230
1
0
LINE
5
187
100
AcDbEntity
8
SK2
62
256
6
ByLayer
370
13
48
1
60
0
100
AcDbLine
10
-143.267161
20
29.6875
30
0
11
46.732839
21
29.6875
31
0
39
0
210
0
220
0
230
1
0
SOLID
5
188
100
AcDbEntity
8
SK2
62
256
6
ByLayer
370
18
48
1
60
0
100
AcDbTrace
10
-143.267161
20
29.6875
30
0
11
-139.767163
21
30.148284
31
0
12
-139.76716
22
29.226716
32
0
13
-139.76716
23
29.226716
33
0
39
0
210
0
220
0
230
1
0
SOLID
5
189
100
AcDbEntity
8
SK2
62
256
6
ByLayer
370
18
48
1
60
0
100
AcDbTrace
10
46.732839
20
29.6875
30
0
11
43.23284
21
29.226716
31
0
12
43.232837
22
30.148284
32
0
13
43.232837
23
30.148284
33
0
39
0
210
0
220
0
230
1
0
ENDBLK
5
18B
100
AcDbEntity
8
0
100
AcDbBlockEnd
0
ENDSEC
0
SECTION
2
ENTITIES
0
ARC
5
CE
100
AcDbEntity
8
1
62
256
6
ByLayer
370
18
48
1
60
0
100
AcDbCircle
39
0
10
21.537118
20
-17.770852
30
0
40
1.6
210
0
220
0
230
1
100
AcDbArc
50
83
51
90
0
ARC
5
CF
100
AcDbEntity
8
1
62
256
6
ByLayer
370
18
48
1
60
0
100
AcDbCircle
39
0
10
21.732839
20
-8.173165
30
0
40
1.6
210
0
220
0
230
1
100
AcDbArc
50
180
51
263
0
ARC
5
D1
100
AcDbEntity
8
1
62
256
6
ByLayer
370
18
48
1
60
0
100
AcDbCircle
39
0
10
13.382839
20
-2
30
0
40
2.1768
210
0
220
0
230
1
100
AcDbArc
50
330
51
30
0
ARC
5
D2
100
AcDbEntity
8
1
62
256
6
ByLayer
370
18
48
1
60
0
100
AcDbCircle
39
0
10
13.382839
20
-2
30
0
40
2.1768
210
0
220
0
230
1
100
AcDbArc
50
30
51
90
0
ARC
5
D3
100
AcDbEntity
8
1
62
256
6
ByLayer
370
18
48
1
60
0
100
AcDbCircle
39
0
10
13.382839
20
-2
30
0
40
2.1768
210
0
220
0
230
1
100
AcDbArc
50
90
51
150
0
ARC
5
D4
100
AcDbEntity
8
1
62
256
6
ByLayer
370
18
48
1
60
0
100
AcDbCircle
39
0
10
13.382839
20
-2
30
0
40
2.1768
210
0
220
0
230
1
100
AcDbArc
50
270
51
330
0
ARC
5
D5
100
AcDbEntity
8
1
62
256
6
ByLayer
370
18
48
1
60
0
100
AcDbCircle
39
0
10
13.382839
20
-2
30
0
40
2.1768
210
0
220
0
230
1
100
AcDbArc
50
150
51
210
0
ARC
5
D6
100
AcDbEntity
8
1
62
256
6
ByLayer
370
18
48
1
60
0
100
AcDbCircle
39
0
10
13.382839
20
-2
30
0
40
2.1768
210
0
220
0
230
1
100
AcDbArc
50
210
51
270
0
ARC
5
D9
100
AcDbEntity
8
1
62
256
6
ByLayer
370
18
48
1
60
0
100
AcDbCircle
39
0
10
13.382839
20
-2
30
0
40
2.8067
210
0
220
0
230
1
100
AcDbArc
50
180
51
240
0
ARC
5
DA
100
AcDbEntity
8
1
62
256
6
ByLayer
370
18
48
1
60
0
100
AcDbCircle
39
0
10
13.382839
20
-2
30
0
40
2.8067
210
0
220
0
230
1
100
AcDbArc
50
240
51
300
0
ARC
5
DB
100
AcDbEntity
8
1
62
256
6
ByLayer
370
18
48
1
60
0
100
AcDbCircle
39
0
10
13.382839
20
-2
30
0
40
2.8067
210
0
220
0
230
1
100
AcDbArc
50
60
51
120
0
ARC
5
DC
100
AcDbEntity
8
1
62
256
6
ByLayer
370
18
48
1
60
0
100
AcDbCircle
39
0
10
13.382839
20
-2
30
0
40
2.8067
210
0
220
0
230
1
100
AcDbArc
50
300
51
360
0
ARC
5
DD
100
AcDbEntity
8
1
62
256
6
ByLayer
370
18
48
1
60
0
100
AcDbCircle
39
0
10
13.382839
20
-2
30
0
40
2.8067
210
0
220
0
230
1
100
AcDbArc
50
360
51
60
0
ARC
5
DE
100
AcDbEntity
8
1
62
256
6
ByLayer
370
18
48
1
60
0
100
AcDbCircle
39
0
10
13.382839
20
-2
30
0
40
2.8067
210
0
220
0
230
1
100
AcDbArc
50
120
51
180
0
ARC
5
DF
100
AcDbEntity
8
2
62
256
6
ByLayer
370
13
48
1
60
0
100
AcDbCircle
39
0
10
46.732839
20
-19.5625
30
0
40
44.8228784166885
210
0
220
0
230
1
100
AcDbArc
50
341.954045
51
11.045955
0
CIRCLE
5
D0
100
AcDbEntity
8
1
62
256
6
ByLayer
370
18
48
1
60
0
100
AcDbCircle
10
13.382839
20
-2
30
0
40
5.75000000000001
39
0
210
0
220
0
230
1
0
CIRCLE
5
D7
100
AcDbEntity
8
1
62
256
6
ByLayer
370
18
48
1
60
0
100
AcDbCircle
10
13.382839
20
-2
30
0
40
5.35
39
0
210
0
220
0
230
1
0
CIRCLE
5
D8
100
AcDbEntity
8
1
62
256
6
ByLayer
370
13
48
1
60
0
100
AcDbCircle
10
13.382839
20
-2
30
0
40
4.55
39
0
210
0
220
0
230
1
0
ELLIPSE
5
E0
100
AcDbEntity
8
1
62
256
6
ByLayer
370
18
48
1
60
0
100
AcDbEllipse
10
-1.415859
20
12.447099
30
0
11
3.00000000000931
21
3.51436609375848E-15
31
0
210
0
220
0
230
1
40
0.004363
41
-1.079291487927
42
-0.261799387800227
0
ELLIPSE
5
E1
100
AcDbEntity
8
SK1
62
256
6
ByLayer
370
18
48
1
60
0
100
AcDbEllipse
10
-1.415859
20
12.447099
30
0
11
2.99999999999983
21
3.51436609374737E-15
31
0
210
0
220
0
230
1
40
0.004363
41
-2.31838067646407
42
-1.07929148792838
0
POINT
5
70
100
AcDbEntity
8
81
62
256
6
ByLayer
370
18
48
1
60
0
100
AcDbPoint
10
46.732839
20
-19.5625
30
0
39
0
210
0
220
0
230
1
50
360
0
POINT
5
72
100
AcDbEntity
8
80
62
256
6
ByLayer
370
18
48
1
60
0
100
AcDbPoint
10
0
20
0
30
0
39
0
210
0
220
0
230
1
50
360
0
POINT
5
74
100
AcDbEntity
8
1
62
256
6
ByLayer
370
18
48
1
60
0
100
AcDbPoint
10
46.703023
20
-16.049977
30
0
39
0
210
0
220
0
230
1
50
360
0
POINT
5
76
100
AcDbEntity
8
1
62
256
6
ByLayer
370
18
48
1
60
1
100
AcDbPoint
10
46.732839
20
-19.5625
30
0
39
0
210
0
220
0
230
1
50
360
0
POINT
5
77
100
AcDbEntity
8
1
62
256
6
ByLayer
370
18
48
1
60
1
100
AcDbPoint
10
-143.267161
20
12.4375
30
0
39
0
210
0
220
0
230
1
50
360
0
POINT
5
78
100
AcDbEntity
8
1
62
256
6
ByLayer
370
18
48
1
60
1
100
AcDbPoint
10
-143.267161
20
12.4375
30
0
39
0
210
0
220
0
230
1
50
360
0
POINT
5
79
100
AcDbEntity
8
1
62
256
6
ByLayer
370
18
48
1
60
1
100
AcDbPoint
10
-143.267161
20
-12.5625
30
0
39
0
210
0
220
0
230
1
50
360
0
POINT
5
7A
100
AcDbEntity
8
1
62
256
6
ByLayer
370
18
48
1
60
1
100
AcDbPoint
10
21.732839
20
-9.785181
30
0
39
0
210
0
220
0
230
1
50
360
0
POINT
5
7B
100
AcDbEntity
8
1
62
256
6
ByLayer
370
18
48
1
60
1
100
AcDbPoint
10
46.732839
20
-19.5625
30
0
39
0
210
0
220
0
230
1
50
360
0
POINT
5
7C
100
AcDbEntity
8
1
62
256
6
ByLayer
370
18
48
1
60
1
100
AcDbPoint
10
-143.267161
20
12.4375
30
0
39
0
210
0
220
0
230
1
50
360
0
POINT
5
7D
100
AcDbEntity
8
1
62
256
6
ByLayer
370
18
48
1
60
1
100
AcDbPoint
10
46.732839
20
-19.5625
30
0
39
0
210
0
220
0
230
1
50
360
0
SPLINE
5
E2
100
AcDbEntity
8
1
62
256
6
ByLayer
370
18
48
1
60
0
100
AcDbSpline
70
4
71
3
72
16
73
12
40
0
40
0
40
0
40
0
40
0.125000000000024
40
0.125000000000024
40
0.250000000000049
40
0.250000000000049
40
0.500000000000032
40
0.500000000000032
40
0.750000000000016
40
0.750000000000016
40
1
40
1
40
1
40
1
41
1
10
-2.84E-14
20
-13.0114903551092
30
0
41
1
10
0.0182358325873793
20
-13.0333113530887
30
0
41
1
10
0.0359316766798088
20
-13.0556672594576
30
0
41
1
10
0.0702376274839196
20
-13.1014888518855
30
0
41
1
10
0.0868787754529876
20
-13.1250013799216
30
0
41
1
10
0.134933311047888
20
-13.1969671778693
30
0
41
1
10
0.164229524928174
20
-13.2464376350115
30
0
41
1
10
0.21746600144661
20
-13.3484860467261
30
0
41
1
10
0.241406612978437
20
-13.4010634610955
30
0
41
1
10
0.283800829474956
20
-13.5095899836284
30
0
41
1
10
0.302256746751084
20
-13.5655375358057
30
0
41
1
10
0.317758141296167
20
-13.623389527836
30
0
0
SPLINE
5
E3
100
AcDbEntity
8
1
62
256
6
ByLayer
370
18
48
1
60
0
100
AcDbSpline
70
4
71
3
72
16
73
12
40
0
40
0
40
0
40
0
40
0.125
40
0.125
40
0.25
40
0.25
40
0.5
40
0.5
40
0.75
40
0.75
40
1
40
1
40
1
40
1
41
1
10
35.6168018490226
20
-12.0475082870437
30
0
41
1
10
35.6200988446683
20
-12.1258123197239
30
0
41
1
10
35.6226855997234
20
-12.2042825517552
30
0
41
1
10
35.627109783405
20
-12.3613330263902
30
0
41
1
10
35.6289346755122
20
-12.4399299571388
30
0
41
1
10
35.633701365985
20
-12.6758518391826
30
0
41
1
10
35.6359538802319
20
-12.8333092179756
30
0
41
1
10
35.6396111633733
20
-13.1483553804549
30
0
41
1
10
35.6409921601064
20
-13.3059476271241
30
0
41
1
10
35.6432578819379
20
-13.6212087991995
30
0
41
1
10
35.6441363042574
20
-13.7788786984457
30
0
41
1
10
35.6448572125583
20
-13.9365729351216
30
0
0
SPLINE
5
E4
100
AcDbEntity
8
1
62
256
6
ByLayer
370
18
48
1
60
0
100
AcDbSpline
70
4
71
3
72
16
73
12
40
0
40
0
40
0
40
0
40
0.125
40
0.125
40
0.250000000000001
40
0.250000000000001
40
0.5
40
0.5
40
0.75
40
0.75
40
1
40
1
40
1
40
1
41
1
10
34.9778250975393
20
-17.2515563105452
30
0
41
1
10
34.9999720821775
20
-17.1763607016742
30
0
41
1
10
35.0214735930972
20
-17.1008187113031
30
0
41
1
10
35.0637666721008
20
-16.9494793864461
30
0
41
1
10
35.0845528816948
20
-16.8736533647518
30
0
41
1
10
35.1462529680678
20
-16.6458895359694
30
0
41
1
10
35.1865256432405
20
-16.4936734899392
30
0
41
1
10
35.2662830464723
20
-16.1888994811258
30
0
41
1
10
35.3057455924497
20
-16.0363318927912
30
0
41
1
10
35.3842092199467
20
-15.7309964711737
30
0
41
1
10
35.4232044479691
20
-15.5782260978615
30
0
41
1
10
35.4620531974499
20
-15.4253921625836
30
0
0
SPLINE
5
E5
100
AcDbEntity
8
1
62
256
6
ByLayer
370
18
48
1
60
0
100
AcDbSpline
70
4
71
3
72
8
73
4
40
0
40
0
40
0
40
0
40
1
40
1
40
1
40
1
41
1
10
35.6352812214481
20
-15.3619532464532
30
0
41
1
10
35.5775730110015
20
-15.3834067795631
30
0
41
1
10
35.5198428243438
20
-15.4046644080034
30
0
41
1
10
35.4620531974499
20
-15.4253921625836
30
0
0
SPLINE
5
E6
100
AcDbEntity
8
1
62
256
6
ByLayer
370
18
48
1
60
0
100
AcDbSpline
70
4
71
3
72
22
73
18
40
0
40
0
40
0
40
0
40
0.125
40
0.125
40
0.25
40
0.25
40
0.375
40
0.375
40
0.5
40
0.5
40
0.625
40
0.625
40
0.75
40
0.75
40
0.875
40
0.875
40
1
40
1
40
1
40
1
41
1
10
35.6352812214481
20
-15.3619532464532
30
0
41
1
10
35.6404814393009
20
-15.3600200198808
30
0
41
1
10
35.6456243353357
20
-15.3575480386193
30
0
41
1
10
35.6557895692324
20
-15.3514709773279
30
0
41
1
10
35.6607285426369
20
-15.3479097897388
30
0
41
1
10
35.6701840170505
20
-15.339866379544
30
0
41
1
10
35.6747240284261
20
-15.3353704050897
30
0
41
1
10
35.6834172411171
20
-15.3254012216815
30
0
41
1
10
35.6875795893396
20
-15.3198989652514
30
0
41
1
10
35.695215146118
20
-15.3082774425559
30
0
41
1
10
35.698728575453
20
-15.3021181553837
30
0
41
1
10
35.7051416341366
20
-15.2890966869662
30
0
41
1
10
35.7080622907924
20
-15.2821670511038
30
0
41
1
10
35.7131000739438
20
-15.2679758012519
30
0
41
1
10
35.7152304254428
20
-15.2607089339688
30
0
41
1
10
35.7187232540834
20
-15.2458367719846
30
0
41
1
10
35.7200922793188
20
-15.2381730016876
30
0
41
1
10
35.7210380365589
20
-15.2304704270881
30
0
0
SPLINE
5
E7
100
AcDbEntity
8
1
62
256
6
ByLayer
370
18
48
1
60
0
100
AcDbSpline
70
4
71
3
72
20
73
16
40
0
40
0
40
0
40
0
40
0.125000000000029
40
0.125000000000029
40
0.250000000000059
40
0.250000000000059
40
0.499999999999901
40
0.499999999999901
40
0.624999999999926
40
0.624999999999926
40
0.74999999999995
40
0.74999999999995
40
0.874999999999975
40
0.874999999999975
40
1
40
1
40
1
40
1
41
1
10
35.7975923610694
20
-14.0400350962579
30
0
41
1
10
35.8021771513498
20
-14.0431735518858
30
0
41
1
10
35.8066133051537
20
-14.0468576646507
30
0
41
1
10
35.8149837059519
20
-14.055199973552
30
0
41
1
10
35.8188817172155
20
-14.0598117995928
30
0
41
1
10
35.8297265532716
20
-14.0749503120919
30
0
41
1
10
35.835875957122
20
-14.0869636281181
30
0
41
1
10
35.8427528568797
20
-14.1065930384334
30
0
41
1
10
35.8446799614697
20
-14.1134339767553
30
0
41
1
10
35.8477733168716
20
-14.1277362979026
30
0
41
1
10
35.8489143374893
20
-14.1351077148861
30
0
41
1
10
35.850360022292
20
-14.15000220092
30
0
41
1
10
35.8506742715156
20
-14.1575677491858
30
0
41
1
10
35.8504638378377
20
-14.172941752548
30
0
41
1
10
35.8499305045577
20
-14.1807255157536
30
0
41
1
10
35.8489932593712
20
-14.1883587652402
30
0
0
SPLINE
5
E8
100
AcDbEntity
8
1
62
256
6
ByLayer
370
18
48
1
60
0
100
AcDbSpline
70
4
71
3
72
8
73
4
40
0
40
0
40
0
40
0
40
1
40
1
40
1
40
1
41
1
10
35.6448572125576
20
-13.9365729351217
30
0
41
1
10
35.6959072920054
20
-13.9706599201029
30
0
41
1
10
35.7467822364861
20
-14.0052537187684
30
0
41
1
10
35.7975923610696
20
-14.0400350962572
30
0
0
SPLINE
5
E9
100
AcDbEntity
8
SK1
62
256
6
ByLayer
370
18
48
1
60
0
100
AcDbSpline
70
4
71
3
72
26
73
22
40
0
40
0
40
0
40
0
40
0.124999999999967
40
0.124999999999967
40
0.249999999999934
40
0.249999999999934
40
0.312499999999917
40
0.312499999999917
40
0.374999999999899
40
0.374999999999899
40
0.499999999999918
40
0.499999999999918
40
0.624999999999937
40
0.624999999999937
40
0.687499999999948
40
0.687499999999948
40
0.749999999999958
40
0.749999999999958
40
0.874999999999979
40
0.874999999999979
40
1
40
1
40
1
40
1
41
1
10
-1.22772318076636
20
-12.4375
30
0
41
1
10
-1.16685983926899
20
-12.4375
30
0
41
1
10
-1.1067477082033
20
-12.4409603625339
30
0
41
1
10
-0.987946062732789
20
-12.4544394159952
30
0
41
1
10
-0.929256808376152
20
-12.4644593407722
30
0
41
1
10
-0.842264187150931
20
-12.484339951261
30
0
41
1
10
-0.813440515368058
20
-12.4917772483674
30
0
41
1
10
-0.75614040617981
20
-12.5082849600277
30
0
41
1
10
-0.72785903084096
20
-12.5173020571273
30
0
41
1
10
-0.644516338424495
20
-12.5464152959588
30
0
41
1
10
-0.590754517370726
20
-12.5686218250876
30
0
41
1
10
-0.486559669147738
20
-12.6183422145769
30
0
41
1
10
-0.436127541448315
20
-12.645857014573
30
0
41
1
10
-0.362872067431397
20
-12.6910765838592
30
0
41
1
10
-0.338853293821074
20
-12.7068094566842
30
0
41
1
10
-0.29160856037231
20
-12.7396107845918
30
0
41
1
10
-0.268321757186527
20
-12.7567274995509
30
0
41
1
10
-0.200120780228133
20
-12.8097579813733
30
0
41
1
10
-0.157012445071388
20
-12.8472009067823
30
0
41
1
10
-0.0752153801917075
20
-12.9262128271856
30
0
41
1
10
-0.0365273590783204
20
-12.9677817158231
30
0
41
1
10
-2.84E-14
20
-13.0114903551092
30
0
0
SPLINE
5
EA
100
AcDbEntity
8
1
62
256
6
ByLayer
370
18
48
1
60
0
100
AcDbSpline
70
4
71
9
72
20
73
10
40
0
40
0
40
0
40
0
40
0
40
0
40
0
40
0
40
0
40
0
40
1
40
1
40
1
40
1
40
1
40
1
40
1
40
1
40
1
40
1
41
1
10
17.0253730321093
20
-16.1830050422915
30
0
41
1
10
17.4154140764594
20
-16.3934419081029
30
0
41
1
10
17.8315224518104
20
-16.5555634403381
30
0
41
1
10
18.2668582152338
20
-16.6656793647693
30
0
41
1
10
18.7139719271941
20
-16.7212291030324
30
0
41
1
10
19.1650285722292
20
-16.7209025127396
30
0
41
1
10
19.6120613843415
20
-16.6647051906024
30
0
41
1
10
20.0472372059131
20
-16.5539586379186
30
0
41
1
10
20.4631102913238
20
-16.3912343638068
30
0
41
1
10
20.8528460594449
20
-16.1802326201566
30
0
0
SPLINE
5
EB
100
AcDbEntity
8
1
62
256
6
ByLayer
370
18
48
1
60
0
100
AcDbSpline
70
4
71
9
72
20
73
10
40
0
40
0
40
0
40
0
40
0
40
0
40
0
40
0
40
0
40
0
40
1
40
1
40
1
40
1
40
1
40
1
40
1
40
1
40
1
40
1
41
1
10
20.3423954488258
20
-8.869183220167
30
0
41
1
10
20.5209522337797
20
-8.93574140877442
30
0
41
1
10
20.6959640182933
20
-9.01180983890947
30
0
41
1
10
20.866851909574
20
-9.09717272562153
30
0
41
1
10
21.0330523388865
20
-9.1915731717591
30
0
41
1
10
21.194020565018
20
-9.29471447332409
30
0
41
1
10
21.3492340386975
20
-9.40626179867724
30
0
41
1
10
21.4981955749102
20
-9.52584422242407
30
0
41
1
10
21.6404362841335
20
-9.65305708316711
30
0
41
1
10
21.7755182225029
20
-9.78746462241438
30
0
0
SPLINE
5
EC
100
AcDbEntity
8
1
62
256
6
ByLayer
370
18
48
1
60
0
100
AcDbSpline
70
4
71
9
72
20
73
10
40
0
40
0
40
0
40
0
40
0
40
0
40
0
40
0
40
0
40
0
40
1
40
1
40
1
40
1
40
1
40
1
40
1
40
1
40
1
40
1
41
1
10
46.7030233160193
20
-16.0499773736208
30
0
41
1
10
46.8253711818693
20
-15.0535314437629
30
0
41
1
10
46.6681170884411
20
-14.0227479650597
30
0
41
1
10
46.2202393747583
20
-13.0473206251883
30
0
41
1
10
45.5043081040418
20
-12.2209662152572
30
0
41
1
10
44.5781910323189
20
-11.6266450944171
30
0
41
1
10
43.5287347301515
20
-11.3199960026016
30
0
41
1
10
42.455385934762
20
-11.3191776615921
30
0
41
1
10
41.4527938687567
20
-11.6056080094333
30
0
41
1
10
40.597887568031
20
-12.13192608919
30
0
0
SPLINE
5
ED
100
AcDbEntity
8
1
62
256
6
ByLayer
370
18
48
1
60
0
100
AcDbSpline
70
4
71
9
72
20
73
10
40
0
40
0
40
0
40
0
40
0
40
0
40
0
40
0
40
0
40
0
40
1
40
1
40
1
40
1
40
1
40
1
40
1
40
1
40
1
40
1
41
1
10
46.7030232556767
20
-16.0499778650719
30
0
41
1
10
46.580674780168
20
-17.0464237088971
30
0
41
1
10
46.1787227197852
20
-18.0085452943743
30
0
41
1
10
45.5081716705678
20
-18.8466468415335
30
0
41
1
10
44.6135934103071
20
-19.4752555437468
30
0
41
1
10
43.5712066994849
20
-19.8278747980967
30
0
41
1
10
42.4787386198404
20
-19.8715286599693
30
0
41
1
10
41.4370749044037
20
-19.6126561404498
30
0
41
1
10
40.5335578795658
20
-19.0921850509266
30
0
41
1
10
39.8313738071103
20
-18.3746803399899
30
0
0
SPLINE
5
EE
100
AcDbEntity
8
1
62
256
6
ByLayer
370
18
48
1
60
0
100
AcDbSpline
70
4
71
3
72
21
73
17
40
0
40
0
40
0
40
0
40
0.0498591071721515
40
0.103026384935909
40
0.159504494726039
40
0.219296002903685
40
0.282403422774547
40
0.348829241397562
40
0.4185759366021
40
0.491645989727507
40
0.568041899182923
40
0.647766198197408
40
0.73082147589007
40
0.817210392802301
40
0.906935668680418
40
1
40
1
40
1
40
1
41
1
10
39.8313025975561
20
-18.3747500347273
30
0
41
1
10
39.8296714248634
20
-18.3731164264734
30
0
41
1
10
39.8263008505538
20
-18.369740819441
30
0
41
1
10
39.8208542129182
20
-18.364750681206
30
0
41
1
10
39.8148881489589
20
-18.3596551191263
30
0
41
1
10
39.8083598783664
20
-18.3545181592616
30
0
41
1
10
39.80125096436
20
-18.3493862333296
30
0
41
1
10
39.7935385559595
20
-18.3443170930396
30
0
41
1
10
39.7852046759027
20
-18.3393714670944
30
0
41
1
10
39.7762344668532
20
-18.3346156318535
30
0
41
1
10
39.7666177757938
20
-18.3301202226244
30
0
41
1
10
39.7563495969315
20
-18.3259619857611
30
0
41
1
10
39.7454318664178
20
-18.3222167145889
30
0
41
1
10
39.7338710974061
20
-18.3189856471266
30
0
41
1
10
39.7216923813186
20
-18.3162890020946
30
0
41
1
10
39.7133099553223
20
-18.3151069842821
30
0
41
1
10
39.7090421805721
20
-18.3145051792943
30
0
0
SPLINE
5
EF
100
AcDbEntity
8
1
62
256
6
ByLayer
370
18
48
1
60
0
100
AcDbSpline
70
4
71
2
72
6
73
3
40
0
40
0
40
0
40
1
40
1
40
1
41
1
10
40.5978353344113
20
-12.1318412375066
30
0
41
1
10
40.536518956736
20
-12.1693505013405
30
0
41
1
10
40.4646321096841
20
-12.160719039118
30
0
0
SPLINE
5
F0
100
AcDbEntity
8
1
62
256
6
ByLayer
370
18
48
1
60
0
100
AcDbSpline
70
4
71
8
72
18
73
9
40
0
40
0
40
0
40
0
40
0
40
0
40
0
40
0
40
0
40
1
40
1
40
1
40
1
40
1
40
1
40
1
40
1
40
1
41
1
10
38.6081846018216
20
-11.9327759470259
30
0
41
1
10
38.7323499291057
20
-11.9480215322158
30
0
41
1
10
38.864102308185
20
-11.964198690229
30
0
41
1
10
39.0023385821058
20
-11.9811719704232
30
0
41
1
10
39.145861208919
20
-11.9987943331361
30
0
41
1
10
39.2933988589785
20
-12.0169096787153
30
0
41
1
10
39.4436299396442
20
-12.0353557359888
30
0
41
1
10
39.5952077364865
20
-12.0539671492167
30
0
41
1
10
39.7467855332593
20
-12.0725785624361
30
0
0
SPLINE
5
F1
100
AcDbEntity
8
1
62
256
6
ByLayer
370
18
48
1
60
0
100
AcDbSpline
70
4
71
8
72
18
73
9
40
0
40
0
40
0
40
0
40
0
40
0
40
0
40
0
40
0
40
1
40
1
40
1
40
1
40
1
40
1
40
1
40
1
40
1
41
1
10
37.8525946727097
20
-18.0865620872021
30
0
41
1
10
37.9767599999938
20
-18.101807672392
30
0
41
1
10
38.1085123790731
20
-18.1179848304052
30
0
41
1
10
38.2467486529939
20
-18.1349581105994
30
0
41
1
10
38.3902712798071
20
-18.1525804733123
30
0
41
1
10
38.5378089298665
20
-18.1706958188915
30
0
41
1
10
38.6880400105322
20
-18.189141876165
30
0
41
1
10
38.8396178073745
20
-18.2077532893929
30
0
41
1
10
38.9911956041473
20
-18.2263647026123
30
0
0
SPLINE
5
F2
100
AcDbEntity
8
1
62
256
6
ByLayer
370
18
48
1
60
0
100
AcDbSpline
70
4
71
11
72
24
73
12
40
0
40
0
40
0
40
0
40
0
40
0
40
0
40
0
40
0
40
0
40
0
40
0
40
1
40
1
40
1
40
1
40
1
40
1
40
1
40
1
40
1
40
1
40
1
40
1
41
1
10
36.6905913937278
20
-11.9907634858081
30
0
41
1
10
36.6903980281547
20
-11.992338322023
30
0
41
1
10
36.6902439168401
20
-11.9939179780447
30
0
41
1
10
36.6901291252217
20
-11.995501920845
30
0
41
1
10
36.6900537021393
20
-11.9970896153777
30
0
41
1
10
36.6900176797856
20
-11.9986805248148
30
0
41
1
10
36.6900210736938
20
-12.0002741108972
30
0
41
1
10
36.6900638827165
20
-12.0018698341841
30
0
41
1
10
36.6901460890281
20
-12.0034671543657
30
0
41
1
10
36.6902676581377
20
-12.0050655305671
30
0
41
1
10
36.6904285389055
20
-12.0066644216221
30
0
41
1
10
36.6906286635997
20
-12.0082632863525
30
0
0
SPLINE
5
F3
100
AcDbEntity
8
1
62
256
6
ByLayer
370
18
48
1
60
0
100
AcDbSpline
70
4
71
11
72
24
73
12
40
0
40
0
40
0
40
0
40
0
40
0
40
0
40
0
40
0
40
0
40
0
40
0
40
1
40
1
40
1
40
1
40
1
40
1
40
1
40
1
40
1
40
1
40
1
40
1
41
1
10
36.9328762477859
20
-13.9436622255057
30
0
41
1
10
36.9334375811324
20
-13.9481469100194
30
0
41
1
10
36.9343076686571
20
-13.9526313874978
30
0
41
1
10
36.9354850155667
20
-13.9571037157351
30
0
41
1
10
36.9369670993932
20
-13.9615519532196
30
0
41
1
10
36.9387503763239
20
-13.965964210233
30
0
41
1
10
36.9408302934736
20
-13.9703286999599
30
0
41
1
10
36.9432013069922
20
-13.9746337891809
30
0
41
1
10
36.9458569057839
20
-13.9788680481381
30
0
41
1
10
36.9487896407963
20
-13.9830202991932
30
0
41
1
10
36.9519911595734
20
-13.9870796638742
30
0
41
1
10
36.9554522456169
20
-13.9910356079501
30
0
0
SPLINE
5
F4
100
AcDbEntity
8
1
62
256
6
ByLayer
370
18
48
1
60
0
100
AcDbSpline
70
4
71
3
72
18
73
14
40
0
40
0
40
0
40
0
40
0.109297592928768
40
0.214849986229607
40
0.316674662063723
40
0.414791095966201
40
0.509221058678152
40
0.599988974381973
40
0.687122347628674
40
0.770652274199083
40
0.850614054790625
40
0.927047934932951
40
1
40
1
40
1
40
1
41
1
10
37.0998795367204
20
-14.1322711252044
30
0
41
1
10
37.0977286230247
20
-14.1313235740197
30
0
41
1
10
37.0935004990056
20
-14.1294609405113
30
0
41
1
10
37.0873865336915
20
-14.1263899566594
30
0
41
1
10
37.0815789232092
20
-14.1231974779895
30
0
41
1
10
37.0760830972425
20
-14.1198796684653
30
0
41
1
10
37.0708948890456
20
-14.1164601743628
30
0
41
1
10
37.0660125263088
20
-14.1129551638672
30
0
41
1
10
37.0614341214186
20
-14.109381464735
30
0
41
1
10
37.0571564867845
20
-14.105756698873
30
0
41
1
10
37.0531818415182
20
-14.1020912683849
30
0
41
1
10
37.0494937553634
20
-14.098418020798
30
0
41
1
10
37.0472059481894
20
-14.0958727412202
30
0
41
1
10
37.0460887061518
20
-14.0946297635015
30
0
0
SPLINE
5
F5
100
AcDbEntity
8
1
62
256
6
ByLayer
370
18
48
1
60
0
100
AcDbSpline
70
4
71
5
72
12
73
6
40
0
40
0
40
0
40
0
40
0
40
0
40
1
40
1
40
1
40
1
40
1
40
1
41
1
10
37.3182717317067
20
-14.2148528439255
30
0
41
1
10
37.274070320465
20
-14.2001892938885
30
0
41
1
10
37.2301269148078
20
-14.1844677007347
30
0
41
1
10
37.1864039075945
20
-14.1681952956591
30
0
41
1
10
37.1429860419105
20
-14.1506729119057
30
0
41
1
10
37.099879777352
20
-14.1322691654994
30
0
0
SPLINE
5
F6
100
AcDbEntity
8
1
62
256
6
ByLayer
370
18
48
1
60
0
100
AcDbSpline
70
4
71
2
72
10
73
7
40
0
40
0
40
0
40
0.5
40
0.5
40
0.75
40
0.75
40
1
40
1
40
1
41
1
10
37.3182717316989
20
-14.2148528438882
30
0
41
1
10
37.4065271734031
20
-14.2442243103001
30
0
41
1
10
37.4666575112691
20
-14.2996464968712
30
0
41
1
10
37.5015893000646
20
-14.3318431580676
30
0
41
1
10
37.522278320297
20
-14.3699505176544
30
0
41
1
10
37.5463336831019
20
-14.4142583848276
30
0
41
1
10
37.5469784842689
20
-14.4615610479643
30
0
0
SPLINE
5
F7
100
AcDbEntity
8
1
62
256
6
ByLayer
370
18
48
1
60
0
100
AcDbSpline
70
4
71
5
72
12
73
6
40
0
40
0
40
0
40
0
40
0
40
0
40
1
40
1
40
1
40
1
40
1
40
1
41
1
10
37.54697848434
20
-14.4615610478864
30
0
41
1
10
37.5473916360776
20
-14.4997098038645
30
0
41
1
10
37.5463580114989
20
-14.5380495354763
30
0
41
1
10
37.5445350507477
20
-14.5761149519184
30
0
41
1
10
37.5410398223262
20
-14.6143969994659
30
0
41
1
10
37.5363703848856
20
-14.6524265143752
30
0
0
SPLINE
5
F8
100
AcDbEntity
8
1
62
256
6
ByLayer
370
18
48
1
60
0
100
AcDbSpline
70
4
71
5
72
12
73
6
40
0
40
0
40
0
40
0
40
0
40
0
40
1
40
1
40
1
40
1
40
1
40
1
41
1
10
37.4346793973837
20
-15.3761637156036
30
0
41
1
10
37.44430929611
20
-15.3392480911668
30
0
41
1
10
37.452581595147
20
-15.3017971570199
30
0
41
1
10
37.4600216418234
20
-15.2644214320067
30
0
41
1
10
37.4658915021338
20
-15.226430952593
30
0
41
1
10
37.4705609392767
20
-15.1884014376471
30
0
0
SPLINE
5
F9
100
AcDbEntity
8
1
62
256
6
ByLayer
370
18
48
1
60
0
100
AcDbSpline
70
4
71
3
72
40
73
36
40
0
40
0
40
0
40
0
40
0.0335605829616335
40
0.0663709615071264
40
0.0984232417107698
40
0.129710930810389
40
0.160228792735828
40
0.189972713251239
40
0.218939576168321
40
0.247127151502501
40
0.274533995981333
40
0.301159366011254
40
0.327003142989316
40
0.352065770719514
40
0.376348204639971
40
0.399851872575494
40
0.422578646791697
40
0.444530827244384
40
0.465711136085967
40
0.486122723712571
40
0.505769186920543
40
0.549313132024826
40
0.591337907778117
40
0.631886110491342
40
0.671006428073982
40
0.708754146893589
40
0.745191774120106
40
0.78038975870439
40
0.814427280754948
40
0.84739306206983
40
0.87938613039375
40
0.910516448403539
40
0.940905299290184
40
0.970685310158126
40
1
40
1
40
1
40
1
41
1
10
37.1530820963566
20
-15.5602144604451
30
0
41
1
10
37.1567995834664
20
-15.5599051203059
30
0
41
1
10
37.16415145796
20
-15.5592933549353
30
0
41
1
10
37.1750316622077
20
-15.5580486834681
30
0
41
1
10
37.1856446691658
20
-15.5565950425675
30
0
41
1
10
37.1959869583805
20
-15.5549245221726
30
0
41
1
10
37.2060570141512
20
-15.5530587296811
30
0
41
1
10
37.2158528635236
20
-15.5510111657723
30
0
41
1
10
37.2253727179522
20
-15.5487969077505
30
0
41
1
10
37.2346148119158
20
-15.5464300752235
30
0
41
1
10
37.2435774479098
20
-15.5439244562852
30
0
41
1
10
37.2522589874956
20
-15.541293325154
30
0
41
1
10
37.2606578553272
20
-15.5385494734948
30
0
41
1
10
37.2687725399746
20
-15.5357051924844
30
0
41
1
10
37.2766015923372
20
-15.5327722698541
30
0
41
1
10
37.2841436337764
20
-15.5297619950549
30
0
41
1
10
37.2913973273332
20
-15.5266851377938
30
0
41
1
10
37.2983614787881
20
-15.5235520363592
30
0
41
1
10
37.305034676439
20
-15.5203723068857
30
0
41
1
10
37.3114165617734
20
-15.5171559030411
30
0
41
1
10
37.3200496956707
20
-15.5125512720238
30
0
41
1
10
37.3307599796239
20
-15.5063314334394
30
0
41
1
10
37.3433223188884
20
-15.4981700969024
30
0
41
1
10
37.3551369677665
20
-15.489598504827
30
0
41
1
10
37.3662013181256
20
-15.4806490225866
30
0
41
1
10
37.3765113462651
20
-15.471351182604
30
0
41
1
10
37.3860635129939
20
-15.4617337078299
30
0
41
1
10
37.3948543282897
20
-15.4518238700045
30
0
41
1
10
37.4028802642096
20
-15.4416474723779
30
0
41
1
10
37.4101384220133
20
-15.431228983041
30
0
41
1
10
37.4166239940252
20
-15.4205906674446
30
0
41
1
10
37.4223393107639
20
-15.4097555623974
30
0
41
1
10
37.4272613706843
20
-15.3987367632512
30
0
41
1
10
37.4314589942801
20
-15.387576117501
30
0
41
1
10
37.4336115795822
20
-15.3799478273864
30
0
41
1
10
37.4346793973347
20
-15.3761637155109
30
0
0
SPLINE
5
FA
100
AcDbEntity
8
1
62
256
6
ByLayer
370
18
48
1
60
0
100
AcDbSpline
70
4
71
5
72
12
73
6
40
0
40
0
40
0
40
0
40
0
40
0
40
1
40
1
40
1
40
1
40
1
40
1
41
1
10
37.1530820963709
20
-15.5602144604106
30
0
41
1
10
37.1066462221266
20
-15.5637491511478
30
0
41
1
10
37.0602047258018
20
-15.5683728737994
30
0
41
1
10
37.0138438276809
20
-15.5735843661142
30
0
41
1
10
36.9674766098707
20
-15.580082527815
30
0
41
1
10
36.921198516377
20
-15.5875112550663
30
0
0
SPLINE
5
FB
100
AcDbEntity
8
1
62
256
6
ByLayer
370
18
48
1
60
0
100
AcDbSpline
70
4
71
2
72
6
73
3
40
0
40
0
40
0
40
1
40
1
40
1
41
1
10
36.921198516365
20
-15.5875112550578
30
0
41
1
10
36.8855138008587
20
-15.5933543901311
30
0
41
1
10
36.859899613909
20
-15.6110182318283
30
0
0
SPLINE
5
FC
100
AcDbEntity
8
1
62
256
6
ByLayer
370
18
48
1
60
0
100
AcDbSpline
70
4
71
11
72
24
73
12
40
0
40
0
40
0
40
0
40
0
40
0
40
0
40
0
40
0
40
0
40
0
40
0
40
1
40
1
40
1
40
1
40
1
40
1
40
1
40
1
40
1
40
1
40
1
40
1
41
1
10
36.7135275569195
20
-15.7301139524437
30
0
41
1
10
36.7151571596455
20
-15.7258982810537
30
0
41
1
10
36.7170862951445
20
-15.7217575049451
30
0
41
1
10
36.719310623944
20
-15.7177028499661
30
0
41
1
10
36.7218248095913
20
-15.7137452926742
30
0
41
1
10
36.7246225371564
20
-15.7098955122863
30
0
41
1
10
36.7276965375059
20
-15.7061638440564
30
0
41
1
10
36.7310386171349
20
-15.702560234469
30
0
41
1
10
36.7346396932467
20
-15.6990941985925
30
0
41
1
10
36.7384898339417
20
-15.6957747799528
30
0
41
1
10
36.7425783031273
20
-15.6926105132428
30
0
41
1
10
36.7468936096133
20
-15.6896093901091
30
0
0
SPLINE
5
FD
100
AcDbEntity
8
1
62
256
6
ByLayer
370
18
48
1
60
0
100
AcDbSpline
70
4
71
11
72
24
73
12
40
0
40
0
40
0
40
0
40
0
40
0
40
0
40
0
40
0
40
0
40
0
40
0
40
1
40
1
40
1
40
1
40
1
40
1
40
1
40
1
40
1
40
1
40
1
40
1
41
1
10
36.0059906334637
20
-17.5663892422533
30
0
41
1
10
36.0061839990369
20
-17.5648144060384
30
0
41
1
10
36.0064166188662
20
-17.5632443896502
30
0
41
1
10
36.0066884274942
20
-17.5616797261145
30
0
41
1
10
36.0069993428706
20
-17.5601209463997
30
0
41
1
10
36.0073492663616
20
-17.5585685791759
30
0
41
1
10
36.007738082822
20
-17.5570231504714
30
0
41
1
10
36.0081656606362
20
-17.5554851834257
30
0
41
1
10
36.0086318517953
20
-17.5539551979867
30
0
41
1
10
36.0091364919832
20
-17.552433710619
30
0
41
1
10
36.0096794006596
20
-17.5509212340418
30
0
41
1
10
36.0102603811815
20
-17.5494182769725
30
0
0
SPLINE
5
FE
100
AcDbEntity
8
1
62
256
6
ByLayer
370
18
48
1
60
0
100
AcDbSpline
70
4
71
3
72
37
73
33
40
0
40
0
40
0
40
0
40
0.124999999999979
40
0.124999999999979
40
0.249999999999959
40
0.249999999999959
40
0.374999999999938
40
0.374999999999938
40
0.437499999999911
40
0.437499999999911
40
0.499999999999885
40
0.499999999999885
40
0.562499999999858
40
0.562499999999858
40
0.624999999999832
40
0.624999999999832
40
0.687499999999805
40
0.687499999999805
40
0.718749999999794
40
0.718749999999794
40
0.749999999999783
40
0.749999999999783
40
0.812499999999832
40
0.812499999999832
40
0.843749999999862
40
0.843749999999862
40
0.874999999999892
40
0.906249999999922
40
0.906249999999922
40
0.937499999999952
40
0.937499999999952
40
1
40
1
40
1
40
1
41
1
10
10.5761387094539
20
-2.00000000000003
30
0
41
1
10
10.5761387094539
20
-2.03644084874043
30
0
41
1
10
10.5775639230298
20
-2.07291844440047
30
0
41
1
10
10.5833384336024
20
-2.145547100225
30
0
41
1
10
10.5876930390598
20
-2.18177873327832
30
0
41
1
10
10.5995734763648
20
-2.2535795521637
30
0
41
1
10
10.6071130512142
20
-2.28924964856196
30
0
41
1
10
10.6211592980647
20
-2.34185143250656
30
0
41
1
10
10.6262999064493
20
-2.35923995664532
30
0
41
1
10
10.6376149223715
20
-2.39368639994947
30
0
41
1
10
10.6437902388021
20
-2.41074121982194
30
0
41
1
10
10.6572453922832
20
-2.44423020518855
30
0
41
1
10
10.6645323474512
20
-2.46069232354583
30
0
41
1
10
10.6804351338692
20
-2.49293825585718
30
0
41
1
10
10.6890762402351
20
-2.50875613459684
30
0
41
1
10
10.707704108338
20
-2.53905866467474
30
0
41
1
10
10.7177107406759
20
-2.55359939455565
30
0
41
1
10
10.7340148879813
20
-2.57425323484009
30
0
41
1
10
10.7396665546308
20
-2.58094380536781
30
0
41
1
10
10.7514690866305
20
-2.59387537811816
30
0
41
1
10
10.7576510864683
20
-2.60014344129843
30
0
41
1
10
10.7767562324769
20
-2.61785982120205
30
0
41
1
10
10.7902587671545
20
-2.62828502883676
30
0
41
1
10
10.8119400958896
20
-2.64128856120138
30
0
41
1
10
10.8194651759141
20
-2.6452033678757
30
0
41
1
10
10.8347157401823
20
-2.65185939191954
30
0
41
1
10
10.8501620362478
20
-2.65736181074615
30
0
41
1
10
10.8660074948164
20
-2.66046278982
30
0
41
1
10
10.8820606738883
20
-2.66229360796564
30
0
41
1
10
10.8901191121415
20
-2.66255503029828
30
0
41
1
10
10.9138039414402
20
-2.66145950842267
30
0
41
1
10
10.929179379286
20
-2.65826678296617
30
0
41
1
10
10.9441820671551
20
-2.6528707585764
30
0
0
SPLINE
5
FF
100
AcDbEntity
8
1
62
256
6
ByLayer
370
18
48
1
60
0
100
AcDbSpline
70
4
71
3
72
35
73
31
40
0
40
0
40
0
40
0
40
0.12500000000009
40
0.12500000000009
40
0.25000000000018
40
0.25000000000018
40
0.37500000000027
40
0.37500000000027
40
0.43750000000028
40
0.43750000000028
40
0.50000000000029
40
0.50000000000029
40
0.625000000000311
40
0.625000000000311
40
0.687500000000299
40
0.687500000000299
40
0.718750000000273
40
0.718750000000273
40
0.750000000000247
40
0.750000000000247
40
0.812500000000175
40
0.812500000000175
40
0.843750000000145
40
0.843750000000145
40
0.875000000000114
40
0.906250000000083
40
0.906250000000083
40
0.937500000000053
40
0.937500000000053
40
1
40
1
40
1
40
1
41
1
10
11.9794887094539
20
-4.43067350080182
30
0
41
1
10
11.9479483601668
20
-4.41246367165056
30
0
41
1
10
11.9170542833338
20
-4.39298128927973
30
0
41
1
10
11.857050326173
20
-4.3516713961213
30
0
41
1
10
11.8279303160568
20
-4.32984802469633
30
0
41
1
10
11.7716393521679
20
-4.28362435383056
30
0
41
1
10
11.7445556482933
20
-4.25929407393178
30
0
41
1
10
11.7060611189829
20
-4.22087634152123
30
0
41
1
10
11.6935753822178
20
-4.20773842442603
30
0
41
1
10
11.6693889329269
20
-4.18071216698269
30
0
41
1
10
11.6576897564096
20
-4.1668226475247
30
0
41
1
10
11.624210456396
20
-4.12415343228136
30
0
41
1
10
11.6038547135243
20
-4.09419133952028
30
0
41
1
10
11.5783785292148
20
-4.04710060677232
30
0
41
1
10
11.5706958240855
20
-4.03095389028411
30
0
41
1
10
11.5609218892816
20
-4.00632323323711
30
0
41
1
10
11.5579541658418
20
-3.99804309568211
30
0
41
1
10
11.5526784052504
20
-3.98132656710573
30
0
41
1
10
11.5503648761573
20
-3.97286069269427
30
0
41
1
10
11.5446391073468
20
-3.94752347895448
30
0
41
1
10
11.5423998419482
20
-3.93066173379671
30
0
41
1
10
11.5420270389332
20
-3.90544990923664
30
0
41
1
10
11.5424139962228
20
-3.89699830494155
30
0
41
1
10
11.5442984765508
20
-3.88051610260479
30
0
41
1
10
11.5472746545117
20
-3.86443931510766
30
0
41
1
10
11.5525194691129
20
-3.84921364601757
30
0
41
1
10
11.5589625342155
20
-3.83444107125734
30
0
41
1
10
11.5627615112743
20
-3.82735664974376
30
0
41
1
10
11.5755346337561
20
-3.80745663987
30
0
41
1
10
11.5859647135951
20
-3.79577134708967
30
0
41
1
10
11.5981077259894
20
-3.78550322405024
30
0
0
SPLINE
5
100
100
AcDbEntity
8
1
62
256
6
ByLayer
370
18
48
1
60
0
100
AcDbSpline
70
4
71
3
72
50
73
46
40
0
40
0
40
0
40
0
40
0.0312500000000016
40
0.0312500000000016
40
0.0625000000000032
40
0.0625000000000032
40
0.0937500000000048
40
0.0937500000000048
40
0.125000000000006
40
0.125000000000006
40
0.156250000000008
40
0.156250000000008
40
0.18750000000001
40
0.18750000000001
40
0.218750000000011
40
0.218750000000011
40
0.250000000000013
40
0.250000000000013
40
0.312500000000013
40
0.312500000000013
40
0.375000000000013
40
0.375000000000013
40
0.437500000000012
40
0.437500000000012
40
0.500000000000012
40
0.500000000000012
40
0.625000000000012
40
0.625000000000012
40
0.687500000000008
40
0.687500000000008
40
0.750000000000004
40
0.750000000000004
40
0.8125
40
0.8125
40
0.84375
40
0.84375
40
0.875
40
0.875
40
0.90625
40
0.90625
40
0.9375
40
0.9375
40
0.96875
40
0.96875
40
1
40
1
40
1
40
1
41
1
10
10.9641820671552
20
-2.65149896176555
30
0
41
1
10
10.9778500179772
20
-2.6505614791981
30
0
41
1
10
10.9915447152378
20
-2.65108511935924
30
0
41
1
10
11.0189860322175
20
-2.65446658906177
30
0
41
1
10
11.0327189886949
20
-2.65733756012085
30
0
41
1
10
11.0598023405244
20
-2.66491019765752
30
0
41
1
10
11.0732494801654
20
-2.66963731873838
30
0
41
1
10
11.0996839926162
20
-2.68053579012525
30
0
41
1
10
11.1126938950751
20
-2.68671068436274
30
0
41
1
10
11.1383754287871
20
-2.70029136910091
30
0
41
1
10
11.1510219453297
20
-2.70768785487741
30
0
41
1
10
11.1758322977172
20
-2.7234312473548
30
0
41
1
10
11.1880218080414
20
-2.73179248843127
30
0
41
1
10
11.212029115988
20
-2.74938520558897
30
0
41
1
10
11.2238505454346
20
-2.75862251195295
30
0
41
1
10
11.2470097414989
20
-2.77776235675447
30
0
41
1
10
11.2583687536755
20
-2.78768015715156
30
0
41
1
10
11.2918524217067
20
-2.81838986358963
30
0
41
1
10
11.3134407100922
20
-2.84019493136086
30
0
41
1
10
11.3548567469819
20
-2.88562969247082
30
0
41
1
10
11.3747199690912
20
-2.9092863280207
30
0
41
1
10
11.412918730068
20
-2.95833395463237
30
0
41
1
10
11.4312108945461
20
-2.9836814411581
30
0
41
1
10
11.4659838283998
20
-3.03552989888914
30
0
41
1
10
11.4825131727964
20
-3.06209458610425
30
0
41
1
10
11.529520557437
20
-3.14365108836981
30
0
41
1
10
11.5569271425375
20
-3.19951612707882
30
0
41
1
10
11.5917947353818
20
-3.28571952477515
30
0
41
1
10
11.6023832779363
20
-3.31495490957167
30
0
41
1
10
11.6208725273067
20
-3.37332842931659
30
0
41
1
10
11.6288254229844
20
-3.4025689202424
30
0
41
1
10
11.6418105208471
20
-3.46122323066984
30
0
41
1
10
11.646851902113
20
-3.49063598294967
30
0
41
1
10
11.6516874797532
20
-3.53496684220212
30
0
41
1
10
11.6528401883648
20
-3.54982441271673
30
0
41
1
10
11.6540591296661
20
-3.57920522762228
30
0
41
1
10
11.6541330070586
20
-3.59376737706424
30
0
41
1
10
11.6530570193268
20
-3.62261319924991
30
0
41
1
10
11.65190865627
20
-3.63689716540665
30
0
41
1
10
11.6481526741806
20
-3.66514805351
30
0
41
1
10
11.6455348180148
20
-3.67916662108812
30
0
41
1
10
11.6385126175906
20
-3.70659321568763
30
0
41
1
10
11.6341542305621
20
-3.7198443028106
30
0
41
1
10
11.6233966033138
20
-3.74525067843098
30
0
41
1
10
11.6170031270968
20
-3.75740907709613
30
0
41
1
10
11.6092957368769
20
-3.76886861437939
30
0
0
SPLINE
5
101
100
AcDbEntity
8
1
62
256
6
ByLayer
370
18
48
1
60
0
100
AcDbSpline
70
4
71
3
72
8
73
4
40
0
40
0
40
0
40
0
40
1
40
1
40
1
40
1
41
1
10
10.9441820671551
20
-2.6528707585764
30
0
41
1
10
10.9508484905508
20
-2.65241350965871
30
0
41
1
10
10.957515155317
20
-2.65195624418544
30
0
41
1
10
10.9641820671552
20
-2.65149896176555
30
0
0
SPLINE
5
102
100
AcDbEntity
8
1
62
256
6
ByLayer
370
18
48
1
60
0
100
AcDbSpline
70
4
71
3
72
8
73
4
40
0
40
0
40
0
40
0
40
1
40
1
40
1
40
1
41
1
10
11.5981077259894
20
-3.78550322405024
30
0
41
1
10
11.6018369268658
20
-3.7799585564961
30
0
41
1
10
11.605566262765
20
-3.77441368818668
30
0
41
1
10
11.6092957368764
20
-3.76886861438001
30
0
0
SPLINE
5
103
100
AcDbEntity
8
1
62
256
6
ByLayer
370
18
48
1
60
0
100
AcDbSpline
70
4
71
3
72
35
73
31
40
0
40
0
40
0
40
0
40
0.124999999999989
40
0.124999999999989
40
0.249999999999978
40
0.249999999999978
40
0.374999999999967
40
0.374999999999967
40
0.437499999999962
40
0.437499999999962
40
0.499999999999958
40
0.499999999999958
40
0.624999999999855
40
0.624999999999855
40
0.687499999999803
40
0.687499999999803
40
0.71874999999982
40
0.71874999999982
40
0.749999999999837
40
0.749999999999837
40
0.812499999999871
40
0.812499999999871
40
0.843749999999893
40
0.843749999999893
40
0.874999999999914
40
0.906249999999936
40
0.906249999999936
40
0.937499999999957
40
0.937499999999957
40
1
40
1
40
1
40
1
41
1
10
14.786188709454
20
-4.43067350080182
30
0
41
1
10
14.7546483601667
20
-4.44888332995308
30
0
41
1
10
14.7223290836909
20
-4.46589719413151
30
0
41
1
10
14.6565516882077
20
-4.49720719878118
30
0
41
1
10
14.6230920890993
20
-4.51151418158776
30
0
41
1
10
14.554915733929
20
-4.53715175088618
30
0
41
1
10
14.5203032415181
20
-4.54844178652075
30
0
41
1
10
14.4677852446397
20
-4.56257016060499
30
0
41
1
10
14.4501646062998
20
-4.566814167281
30
0
41
1
10
14.4146659561392
20
-4.57424711807258
30
0
41
1
10
14.3967876911837
20
-4.57743414241082
30
0
41
1
10
14.3430954168166
20
-4.58509345910187
30
0
41
1
10
14.3069696118989
20
-4.5877410031612
30
0
41
1
10
14.2534497489017
20
-4.5862586595907
30
0
41
1
10
14.2356249296706
20
-4.58483871915831
30
0
41
1
10
14.209407187554
20
-4.58098786647005
30
0
41
1
10
14.2007525163646
20
-4.57941792158277
30
0
41
1
10
14.1836376976587
20
-4.57562859999109
30
0
41
1
10
14.1751492708066
20
-4.57339923775234
30
0
41
1
10
14.1503437156416
20
-4.5656892921285
30
0
41
1
10
14.1346213832835
20
-4.55919768027061
30
0
41
1
10
14.1126009012313
20
-4.54691462487213
30
0
41
1
10
14.1054750758537
20
-4.54235370788169
30
0
41
1
10
14.0921433100838
20
-4.5324805988763
30
0
41
1
10
14.0797086348598
20
-4.52186464076479
30
0
41
1
10
14.0691450837595
20
-4.50970978217958
30
0
41
1
10
14.0595731912891
20
-4.49674363674234
30
0
41
1
10
14.0553373908166
20
-4.48991141534432
30
0
41
1
10
14.0444900379713
20
-4.46889956185245
30
0
41
1
10
14.0395853174923
20
-4.45402420135824
30
0
41
1
10
14.0367643682882
20
-4.43837398262664
30
0
0
SPLINE
5
104
100
AcDbEntity
8
1
62
256
6
ByLayer
370
18
48
1
60
0
100
AcDbSpline
70
4
71
3
72
52
73
48
40
0
40
0
40
0
40
0
40
0.0156249999999988
40
0.0156249999999988
40
0.0312499999999977
40
0.0312499999999977
40
0.0624999999999643
40
0.0624999999999643
40
0.0937499999999308
40
0.0937499999999308
40
0.124999999999897
40
0.124999999999897
40
0.187499999999831
40
0.187499999999831
40
0.21874999999982
40
0.21874999999982
40
0.249999999999809
40
0.249999999999809
40
0.312499999999837
40
0.312499999999837
40
0.374999999999865
40
0.374999999999865
40
0.437499999999893
40
0.437499999999893
40
0.499999999999921
40
0.499999999999921
40
0.562499999999949
40
0.562499999999949
40
0.624999999999977
40
0.624999999999977
40
0.687500000000005
40
0.687500000000005
40
0.750000000000033
40
0.750000000000033
40
0.812500000000061
40
0.812500000000061
40
0.843750000000051
40
0.843750000000051
40
0.87500000000004
40
0.87500000000004
40
0.90625000000003
40
0.90625000000003
40
0.93750000000002
40
0.93750000000002
40
0.96875000000001
40
0.96875000000001
40
1
40
1
40
1
40
1
41
1
10
14.0279523791749
20
-4.42036757614486
30
0
41
1
10
14.0249377354791
20
-4.41420745734689
30
0
41
1
10
14.021593557951
20
-4.40821241873655
30
0
41
1
10
14.0143139495515
20
-4.39651733542271
30
0
41
1
10
14.010368832087
20
-4.39080725601201
30
0
41
1
10
13.9978747235459
20
-4.37426543961831
30
0
41
1
10
13.988638154261
20
-4.36395133423213
30
0
41
1
10
13.9687212215767
20
-4.34444420626505
30
0
41
1
10
13.9580376072548
20
-4.33525375527157
30
0
41
1
10
13.9354375944145
20
-4.31781303649447
30
0
41
1
10
13.9235565797671
20
-4.30959723391484
30
0
41
1
10
13.8867885582087
20
-4.2864581926857
30
0
41
1
10
13.8605569373671
20
-4.27288106004096
30
0
41
1
10
13.8198225818957
20
-4.25490525378979
30
0
41
1
10
13.8059913764862
20
-4.24930405245308
30
0
41
1
10
13.7778650123329
20
-4.23880093027017
30
0
41
1
10
13.7635555451529
20
-4.23389595816334
30
0
41
1
10
13.7202366292088
20
-4.22022454919943
30
0
41
1
10
13.6907610408965
20
-4.21246091323229
30
0
41
1
10
13.6307333831832
20
-4.199267154475
30
0
41
1
10
13.6002313956844
20
-4.19385854131176
30
0
41
1
10
13.5388442989275
20
-4.18528297277868
30
0
41
1
10
13.5078603709155
20
-4.18209850827847
30
0
41
1
10
13.4454551550489
20
-4.17785251302192
30
0
41
1
10
13.4141801615118
20
-4.17679988111564
30
0
41
1
10
13.3514866908609
20
-4.17680011890448
30
0
41
1
10
13.320227951591
20
-4.17785300340265
30
0
41
1
10
13.2578873828276
20
-4.18209284645931
30
0
41
1
10
13.2268178719206
20
-4.18528365887471
30
0
41
1
10
13.1653455685806
20
-4.19387402121001
30
0
41
1
10
13.1348203004078
20
-4.19929123322444
30
0
41
1
10
13.0748232078666
20
-4.21248452043648
30
0
41
1
10
13.04528474223
20
-4.22026701835159
30
0
41
1
10
12.987459353984
20
-4.23853025940369
30
0
41
1
10
12.9593494214861
20
-4.24894542921467
30
0
41
1
10
12.9185962296959
20
-4.26693668870249
30
0
41
1
10
12.9052278222419
20
-4.27334384426229
30
0
41
1
10
12.8792063340993
20
-4.28698661436792
30
0
41
1
10
12.866537596041
20
-4.29422651626592
30
0
41
1
10
12.8419845468398
20
-4.3096876881153
30
0
41
1
10
12.8301256578436
20
-4.31789556552201
30
0
41
1
10
12.8075545769841
20
-4.33532515624754
30
0
41
1
10
12.7967864153114
20
-4.34458989396384
30
0
41
1
10
12.7767277906375
20
-4.36427750021988
30
0
41
1
10
12.7675129470893
20
-4.37461831849768
30
0
41
1
10
12.7510289375978
20
-4.39650488229634
30
0
41
1
10
12.7437543521515
20
-4.40804728740906
30
0
41
1
10
12.7377250397327
20
-4.42036757614551
30
0
0
SPLINE
5
105
100
AcDbEntity
8
1
62
256
6
ByLayer
370
18
48
1
60
0
100
AcDbSpline
70
4
71
3
72
8
73
4
40
0
40
0
40
0
40
0
40
1
40
1
40
1
40
1
41
1
10
12.7377250397327
20
-4.42036757614551
30
0
41
1
10
12.7347876020059
20
-4.4263699323721
30
0
41
1
10
12.7318502731389
20
-4.43237206615478
30
0
41
1
10
12.7289130506197
20
-4.43837398262662
30
0
0
SPLINE
5
106
100
AcDbEntity
8
1
62
256
6
ByLayer
370
18
48
1
60
0
100
AcDbSpline
70
4
71
3
72
35
73
31
40
0
40
0
40
0
40
0
40
0.124999999999913
40
0.124999999999913
40
0.249999999999825
40
0.249999999999825
40
0.374999999999738
40
0.374999999999738
40
0.499999999999651
40
0.499999999999651
40
0.562499999999654
40
0.562499999999654
40
0.624999999999657
40
0.624999999999657
40
0.68749999999966
40
0.68749999999966
40
0.718749999999664
40
0.718749999999664
40
0.749999999999669
40
0.749999999999669
40
0.812499999999764
40
0.812499999999764
40
0.843749999999812
40
0.843749999999812
40
0.874999999999859
40
0.906249999999907
40
0.906249999999907
40
0.937499999999955
40
0.937499999999955
40
1
40
1
40
1
40
1
41
1
10
11.9794887094539
20
-4.43067350080182
30
0
41
1
10
12.0110283501359
20
-4.44888292083968
30
0
41
1
10
12.0433070999611
20
-4.46587697738647
30
0
41
1
10
12.1091314398771
20
-4.49721050481418
30
0
41
1
10
12.1425903443651
20
-4.51151520056479
30
0
41
1
10
12.2107056795328
20
-4.53713155624803
30
0
41
1
10
12.2453769719864
20
-4.54844645116722
30
0
41
1
10
12.3156012127465
20
-4.56733031592651
30
0
41
1
10
12.3511721157112
20
-4.57491564107499
30
0
41
1
10
12.4048782278969
20
-4.58256346588294
30
0
41
1
10
12.422811525776
20
-4.58448377228518
30
0
41
1
10
12.4587456667993
20
-4.58682798716268
30
0
41
1
10
12.4767028779029
20
-4.58724469202389
30
0
41
1
10
12.5121946832691
20
-4.58625746632831
30
0
41
1
10
12.5297791866563
20
-4.58486146704905
30
0
41
1
10
12.5558382545715
20
-4.58105973069658
30
0
41
1
10
12.5644713017824
20
-4.57950611890456
30
0
41
1
10
12.5816115358115
20
-4.57573502144433
30
0
41
1
10
12.590126563587
20
-4.5735111179759
30
0
41
1
10
12.614978238625
20
-4.56582476797763
30
0
41
1
10
12.630779451372
20
-4.55933535358156
30
0
41
1
10
12.6529796019655
20
-4.54697685616267
30
0
41
1
10
12.6601079222434
20
-4.54241503959827
30
0
41
1
10
12.6733855035735
20
-4.53259908909581
30
0
41
1
10
12.6857918680754
20
-4.52203518489691
30
0
41
1
10
12.6963673870191
20
-4.50991000149699
30
0
41
1
10
12.7059647672531
20
-4.49695504520636
30
0
41
1
10
12.7102402193255
20
-4.49008536568354
30
0
41
1
10
12.7211570731562
20
-4.46899643111996
30
0
41
1
10
12.7260837279004
20
-4.45407065641089
30
0
41
1
10
12.7289130506197
20
-4.43837398262664
30
0
0
SPLINE
5
107
100
AcDbEntity
8
1
62
256
6
ByLayer
370
18
48
1
60
0
100
AcDbSpline
70
4
71
3
72
8
73
4
40
0
40
0
40
0
40
0
40
1
40
1
40
1
40
1
41
1
10
14.0367643682882
20
-4.43837398262664
30
0
41
1
10
14.0338271457689
20
-4.43237206615478
30
0
41
1
10
14.030889816902
20
-4.4263699323721
30
0
41
1
10
14.0279523791752
20
-4.42036757614551
30
0
0
SPLINE
5
108
100
AcDbEntity
8
1
62
256
6
ByLayer
370
18
48
1
60
0
100
AcDbSpline
70
4
71
3
72
35
73
31
40
0
40
0
40
0
40
0
40
0.124999999999955
40
0.124999999999955
40
0.24999999999991
40
0.24999999999991
40
0.374999999999865
40
0.374999999999865
40
0.437499999999844
40
0.437499999999844
40
0.499999999999824
40
0.499999999999824
40
0.624999999999783
40
0.624999999999783
40
0.687499999999763
40
0.687499999999763
40
0.718749999999752
40
0.718749999999752
40
0.749999999999742
40
0.749999999999742
40
0.812499999999801
40
0.812499999999801
40
0.843749999999835
40
0.843749999999835
40
0.874999999999869
40
0.906249999999903
40
0.906249999999903
40
0.937499999999937
40
0.937499999999937
40
1
40
1
40
1
40
1
41
1
10
11.9794887094539
20
0.43067350080176
30
0
41
1
10
12.0110290587411
20
0.44888332995302
30
0
41
1
10
12.043348335217
20
0.465897194131429
30
0
41
1
10
12.1091257307002
20
0.497207198781098
30
0
41
1
10
12.1425853298085
20
0.511514181587671
30
0
41
1
10
12.2107616849789
20
0.537151750886096
30
0
41
1
10
12.2453741773898
20
0.548441786520669
30
0
41
1
10
12.2978921742682
20
0.562570160604906
30
0
41
1
10
12.3155128126081
20
0.56681416728091
30
0
41
1
10
12.3510114627687
20
0.574247118072492
30
0
41
1
10
12.3688897277243
20
0.577434142410738
30
0
41
1
10
12.4225820020914
20
0.585093459101785
30
0
41
1
10
12.458707807009
20
0.587741003161113
30
0
41
1
10
12.5122276700061
20
0.586258659590612
30
0
41
1
10
12.5300524892373
20
0.584838719158199
30
0
41
1
10
12.5562702313539
20
0.58098786646994
30
0
41
1
10
12.5649249025433
20
0.57941792158266
30
0
41
1
10
12.5820397212492
20
0.575628599991006
30
0
41
1
10
12.5905281481012
20
0.573399237752255
30
0
41
1
10
12.6153337032663
20
0.565689292128411
30
0
41
1
10
12.6310560356243
20
0.559197680270501
30
0
41
1
10
12.6530765176767
20
0.546914624872016
30
0
41
1
10
12.6602023430542
20
0.542353707881603
30
0
41
1
10
12.673534108824
20
0.532480598876219
30
0
41
1
10
12.6859689262274
20
0.521864759407293
30
0
41
1
10
12.6965323351484
20
0.509709782179499
30
0
41
1
10
12.7061042276187
20
0.496743636742252
30
0
41
1
10
12.7103400280913
20
0.48991141534421
30
0
41
1
10
12.7211873809365
20
0.468899561852368
30
0
41
1
10
12.7260921014156
20
0.454024201358152
30
0
41
1
10
12.7289130506197
20
0.438373982626558
30
0
0
SPLINE
5
109
100
AcDbEntity
8
1
62
256
6
ByLayer
370
18
48
1
60
0
100
AcDbSpline
70
4
71
3
72
52
73
48
40
0
40
0
40
0
40
0
40
0.015624999999959
40
0.015624999999959
40
0.031249999999918
40
0.031249999999918
40
0.0624999999998631
40
0.0624999999998631
40
0.0937499999998082
40
0.0937499999998082
40
0.124999999999753
40
0.124999999999753
40
0.187499999999692
40
0.187499999999692
40
0.218749999999686
40
0.218749999999686
40
0.249999999999679
40
0.249999999999679
40
0.312499999999718
40
0.312499999999718
40
0.374999999999757
40
0.374999999999757
40
0.437499999999796
40
0.437499999999796
40
0.499999999999836
40
0.499999999999836
40
0.562499999999875
40
0.562499999999875
40
0.624999999999914
40
0.624999999999914
40
0.687499999999953
40
0.687499999999953
40
0.749999999999992
40
0.749999999999992
40
0.812500000000031
40
0.812500000000031
40
0.843750000000026
40
0.843750000000026
40
0.875000000000021
40
0.875000000000021
40
0.906250000000016
40
0.906250000000016
40
0.93750000000001
40
0.93750000000001
40
0.968750000000005
40
0.968750000000005
40
1
40
1
40
1
40
1
41
1
10
12.737725039733
20
0.42036757614477
30
0
41
1
10
12.7407396834288
20
0.414207457346805
30
0
41
1
10
12.744083860957
20
0.408212418736468
30
0
41
1
10
12.7513634693563
20
0.39651733542263
30
0
41
1
10
12.755308586821
20
0.390807256011897
30
0
41
1
10
12.767802695362
20
0.374265439618199
30
0
41
1
10
12.7770392646469
20
0.363951334232041
30
0
41
1
10
12.7969561973312
20
0.344444206264967
30
0
41
1
10
12.8076398116532
20
0.335253755271481
30
0
41
1
10
12.8302398244934
20
0.317813036494385
30
0
41
1
10
12.8421208391409
20
0.309597233914729
30
0
41
1
10
12.8788888606992
20
0.286458192685615
30
0
41
1
10
12.9051204815408
20
0.272881060040873
30
0
41
1
10
12.9458548370122
20
0.254905253789701
30
0
41
1
10
12.9596860424217
20
0.24930405245297
30
0
41
1
10
12.9878124065749
20
0.23880093027006
30
0
41
1
10
13.002121873755
20
0.233895958163259
30
0
41
1
10
13.0454407896991
20
0.220224549199344
30
0
41
1
10
13.0749163780114
20
0.212460913232206
30
0
41
1
10
13.1349440357246
20
0.19926715447491
30
0
41
1
10
13.1654460232235
20
0.19385854131167
30
0
41
1
10
13.2268331199804
20
0.185282972778595
30
0
41
1
10
13.2578170479924
20
0.182098508278358
30
0
41
1
10
13.3202222638589
20
0.177852513021833
30
0
41
1
10
13.351497257396
20
0.176799881115556
30
0
41
1
10
13.414190728047
20
0.176800118904396
30
0
41
1
10
13.4454494673169
20
0.177853003402561
30
0
41
1
10
13.5077900360803
20
0.182092846459199
30
0
41
1
10
13.5388595469872
20
0.185283658874624
30
0
41
1
10
13.6003318503273
20
0.193874021209893
30
0
41
1
10
13.6308571185001
20
0.199291233224358
30
0
41
1
10
13.6908542110413
20
0.212484520436391
30
0
41
1
10
13.7203926766778
20
0.220267018351507
30
0
41
1
10
13.7782180649239
20
0.238530259403575
30
0
41
1
10
13.8063279974218
20
0.248945429214558
30
0
41
1
10
13.8470811892119
20
0.266936688702401
30
0
41
1
10
13.860449596666
20
0.2733438442622
30
0
41
1
10
13.8864710848086
20
0.286986614367805
30
0
41
1
10
13.8991398228668
20
0.294226516265837
30
0
41
1
10
13.923692872068
20
0.309687688115218
30
0
41
1
10
13.9355517610642
20
0.317895565521923
30
0
41
1
10
13.9581228419237
20
0.335325156247421
30
0
41
1
10
13.9688910035965
20
0.344589893963757
30
0
41
1
10
13.9889496282703
20
0.364277500219799
30
0
41
1
10
13.9981644718185
20
0.374618318497596
30
0
41
1
10
14.01464848131
20
0.396504882296256
30
0
41
1
10
14.0219230667564
20
0.408047287408976
30
0
41
1
10
14.0279523791752
20
0.420367576145424
30
0
0
SPLINE
5
10A
100
AcDbEntity
8
1
62
256
6
ByLayer
370
18
48
1
60
0
100
AcDbSpline
70
4
71
3
72
8
73
4
40
0
40
0
40
0
40
0
40
1
40
1
40
1
40
1
41
1
10
14.0279523791752
20
0.420367576145424
30
0
41
1
10
14.030889816902
20
0.426369932372012
30
0
41
1
10
14.0338271457689
20
0.432372066154699
30
0
41
1
10
14.0367643682882
20
0.43837398262653
30
0
0
SPLINE
5
10B
100
AcDbEntity
8
1
62
256
6
ByLayer
370
18
48
1
60
0
100
AcDbSpline
70
4
71
3
72
35
73
31
40
0
40
0
40
0
40
0
40
0.124999999999955
40
0.124999999999955
40
0.249999999999911
40
0.249999999999911
40
0.374999999999866
40
0.374999999999866
40
0.499999999999822
40
0.499999999999822
40
0.562499999999846
40
0.562499999999846
40
0.624999999999871
40
0.624999999999871
40
0.687499999999896
40
0.687499999999896
40
0.718749999999911
40
0.718749999999911
40
0.749999999999927
40
0.749999999999927
40
0.812499999999958
40
0.812499999999958
40
0.843749999999973
40
0.843749999999973
40
0.874999999999988
40
0.906250000000004
40
0.906250000000004
40
0.937500000000019
40
0.937500000000019
40
1
40
1
40
1
40
1
41
1
10
14.7861887094539
20
0.43067350080176
30
0
41
1
10
14.754649068772
20
0.448882920839594
30
0
41
1
10
14.7223703189468
20
0.465876977386415
30
0
41
1
10
14.6565459790306
20
0.49721050481412
30
0
41
1
10
14.6230870745428
20
0.511515200564702
30
0
41
1
10
14.5549717393751
20
0.537131556247942
30
0
41
1
10
14.5203004469215
20
0.548446451167138
30
0
41
1
10
14.4500762061614
20
0.567330315926398
30
0
41
1
10
14.4145053031967
20
0.574915641074909
30
0
41
1
10
14.3607991910109
20
0.582563465882856
30
0
41
1
10
14.3428658931319
20
0.584483772285097
30
0
41
1
10
14.3069317521085
20
0.586827987162593
30
0
41
1
10
14.288974541005
20
0.587244692023802
30
0
41
1
10
14.2534827356386
20
0.586257466328192
30
0
41
1
10
14.2358982322516
20
0.584861467048967
30
0
41
1
10
14.2098391643364
20
0.581059730696467
30
0
41
1
10
14.2012061171254
20
0.579506118904476
30
0
41
1
10
14.1840658830964
20
0.575735021444245
30
0
41
1
10
14.1755508553208
20
0.573511117975812
30
0
41
1
10
14.1506991802828
20
0.565824767977546
30
0
41
1
10
14.1348979675359
20
0.559335353581474
30
0
41
1
10
14.1126978169424
20
0.546976856162615
30
0
41
1
10
14.1055694966645
20
0.542415039598183
30
0
41
1
10
14.0922919153344
20
0.532599089095697
30
0
41
1
10
14.0798855508324
20
0.522035184896822
30
0
41
1
10
14.0693100318888
20
0.509910001496905
30
0
41
1
10
14.0597126516548
20
0.496955045206249
30
0
41
1
10
14.0554371995824
20
0.490085365683456
30
0
41
1
10
14.0445203457518
20
0.468996431119876
30
0
41
1
10
14.0395936910076
20
0.454070656410778
30
0
41
1
10
14.0367643682882
20
0.43837398262653
30
0
0
SPLINE
5
10C
100
AcDbEntity
8
1
62
256
6
ByLayer
370
18
48
1
60
0
100
AcDbSpline
70
4
71
3
72
8
73
4
40
0
40
0
40
0
40
0
40
1
40
1
40
1
40
1
41
1
10
12.7289130506197
20
0.43837398262653
30
0
41
1
10
12.7318502731389
20
0.432372066154699
30
0
41
1
10
12.7347876020059
20
0.426369932372012
30
0
41
1
10
12.7377250397327
20
0.420367576145424
30
0
0
SPLINE
5
10D
100
AcDbEntity
8
1
62
256
6
ByLayer
370
18
48
1
60
0
100
AcDbSpline
70
4
71
3
72
35
73
31
40
0
40
0
40
0
40
0
40
0.125000000000024
40
0.125000000000024
40
0.250000000000049
40
0.250000000000049
40
0.375000000000073
40
0.375000000000073
40
0.437500000000072
40
0.437500000000072
40
0.500000000000071
40
0.500000000000071
40
0.625000000000031
40
0.625000000000031
40
0.687500000000011
40
0.687500000000011
40
0.718749999999969
40
0.718749999999969
40
0.749999999999928
40
0.749999999999928
40
0.812499999999919
40
0.812499999999919
40
0.843749999999946
40
0.843749999999946
40
0.874999999999974
40
0.906250000000001
40
0.906250000000001
40
0.937500000000029
40
0.937500000000029
40
1
40
1
40
1
40
1
41
1
10
16.1895387094539
20
-2.00000000000006
30
0
41
1
10
16.189538709454
20
-2.03641965830261
30
0
41
1
10
16.1881135098111
20
-2.07291590485187
30
0
41
1
10
16.1823400714887
20
-2.14553580265994
30
0
41
1
10
16.1780004824964
20
-2.18166615689148
30
0
41
1
10
16.166115091215
20
-2.25352739705568
30
0
41
1
10
16.1585863026788
20
-2.28914771258903
30
0
41
1
10
16.1445628351107
20
-2.34169381908379
30
0
41
1
10
16.1394279335359
20
-2.35907574285503
30
0
41
1
10
16.1281157326662
20
-2.39353495108995
30
0
41
1
10
16.1219366442278
20
-2.41061149488618
30
0
41
1
10
16.1017236698744
20
-2.46094002682057
30
0
41
1
10
16.0859536078286
20
-2.49354966364098
30
0
41
1
10
16.0579099291408
20
-2.53915805281844
30
0
41
1
10
16.0477678150389
20
-2.55388482887426
30
0
41
1
10
16.0313240077263
20
-2.57466463323297
30
0
41
1
10
16.0256370599767
20
-2.58137482590072
30
0
41
1
10
16.0137980018623
20
-2.5943020328854
30
0
41
1
10
16.0076231041032
20
-2.60053854505813
30
0
41
1
10
15.9885433177487
20
-2.61816581317407
30
0
41
1
10
15.9750602507892
20
-2.62853594647393
30
0
41
1
10
15.9534125717519
20
-2.64146471563555
30
0
41
1
10
15.9458997890849
20
-2.64535540294023
30
0
41
1
10
15.9306835429869
20
-2.65196449627157
30
0
41
1
10
15.9152725476227
20
-2.65742544429978
30
0
41
1
10
15.8994643241005
20
-2.66049613616207
30
0
41
1
10
15.8834493665275
20
-2.66230256548505
30
0
41
1
10
15.8754145889963
20
-2.66255476560059
30
0
41
1
10
15.851794113669
20
-2.66144292198251
30
0
41
1
10
15.8364593133512
20
-2.65825285426865
30
0
41
1
10
15.8214953517527
20
-2.65287075857643
30
0
0
SPLINE
5
10E
100
AcDbEntity
8
1
62
256
6
ByLayer
370
18
48
1
60
0
100
AcDbSpline
70
4
71
3
72
35
73
31
40
0
40
0
40
0
40
0
40
0.124999999999969
40
0.124999999999969
40
0.249999999999939
40
0.249999999999939
40
0.374999999999909
40
0.374999999999909
40
0.499999999999878
40
0.499999999999878
40
0.562499999999897
40
0.562499999999897
40
0.624999999999915
40
0.624999999999915
40
0.687499999999934
40
0.687499999999934
40
0.718749999999946
40
0.718749999999946
40
0.749999999999958
40
0.749999999999958
40
0.812499999999972
40
0.812499999999972
40
0.843749999999978
40
0.843749999999978
40
0.874999999999985
40
0.906249999999992
40
0.906249999999992
40
0.937499999999998
40
0.937499999999998
40
1
40
1
40
1
40
1
41
1
10
14.786188709454
20
-4.43067350080182
30
0
41
1
10
14.8177283501358
20
-4.41246408076398
30
0
41
1
10
14.8485850097313
20
-4.39300689168633
30
0
41
1
10
14.9086328104319
20
-4.35166810484551
30
0
41
1
10
14.9377504925893
20
-4.32984419145151
30
0
41
1
10
14.9939925749473
20
-4.28366275865054
30
0
41
1
10
15.0211272076152
20
-4.25929398606331
30
0
41
1
10
15.0725932345985
20
-4.20791994198328
30
0
41
1
10
15.0969477703554
20
-4.18090729895451
30
0
41
1
10
15.1304240370156
20
-4.1382203538671
30
0
41
1
10
15.1410537200825
20
-4.12364981553134
30
0
41
1
10
15.1610509402301
20
-4.0937020439807
30
0
41
1
10
15.1703904227776
20
-4.07835899541448
30
0
41
1
10
15.187281362929
20
-4.04712857749331
30
0
41
1
10
15.1948646437831
20
-4.03120195120755
30
0
41
1
10
15.2046017774809
20
-4.0067332682178
30
0
41
1
10
15.2075728338069
20
-3.99848002412509
30
0
41
1
10
15.2128770846208
20
-3.981750597299
30
0
41
1
10
15.2152086416092
20
-3.97326441519718
30
0
41
1
10
15.2209779047674
20
-3.94789905828853
30
0
41
1
10
15.2232585134182
20
-3.93097009944105
30
0
41
1
10
15.2236558159976
20
-3.90556495634982
30
0
41
1
10
15.2232693271043
20
-3.89711074162062
30
0
41
1
10
15.221407255272
20
-3.88070404363665
30
0
41
1
10
15.2184620324076
20
-3.86467779386513
30
0
41
1
10
15.2132488707455
20
-3.8494566049466
30
0
41
1
10
15.2068282396099
20
-3.83466755170892
30
0
41
1
10
15.2030166486635
20
-3.82753006184004
30
0
41
1
10
15.190211522508
20
-3.80753132181155
30
0
41
1
10
15.1797487498109
20
-3.79580182629283
30
0
41
1
10
15.1675696929185
20
-3.78550322405027
30
0
0
SPLINE
5
10F
100
AcDbEntity
8
1
62
256
6
ByLayer
370
18
48
1
60
0
100
AcDbSpline
70
4
71
3
72
52
73
48
40
0
40
0
40
0
40
0
40
0.01562499999999
40
0.01562499999999
40
0.03124999999998
40
0.03124999999998
40
0.0624999999999604
40
0.0624999999999604
40
0.0937499999999408
40
0.0937499999999408
40
0.124999999999921
40
0.124999999999921
40
0.187499999999928
40
0.187499999999928
40
0.218749999999931
40
0.218749999999931
40
0.249999999999934
40
0.249999999999934
40
0.312499999999942
40
0.312499999999942
40
0.374999999999951
40
0.374999999999951
40
0.43749999999996
40
0.43749999999996
40
0.499999999999968
40
0.499999999999968
40
0.562499999999977
40
0.562499999999977
40
0.624999999999985
40
0.624999999999985
40
0.687499999999994
40
0.687499999999994
40
0.750000000000002
40
0.750000000000002
40
0.812500000000011
40
0.812500000000011
40
0.843750000000009
40
0.843750000000009
40
0.875000000000007
40
0.875000000000007
40
0.906250000000005
40
0.906250000000005
40
0.937500000000004
40
0.937500000000004
40
0.968750000000002
40
0.968750000000002
40
1
40
1
40
1
40
1
41
1
10
15.801495351752
20
-2.6514989617655
30
0
41
1
10
15.7946532105347
20
-2.65102966039046
30
0
41
1
10
15.7877892660374
20
-2.65092828377945
30
0
41
1
10
15.7740212225886
20
-2.65138506792596
30
0
41
1
10
15.767103590029
20
-2.65194660016587
30
0
41
1
10
15.7465309025368
20
-2.65449590736324
30
0
41
1
10
15.7329803406126
20
-2.65733795831474
30
0
41
1
10
15.7061282058961
20
-2.66483296400125
30
0
41
1
10
15.6928272347024
20
-2.66949001991151
30
0
41
1
10
15.6664231227611
20
-2.68034184576851
30
0
41
1
10
15.653367521691
20
-2.68652320498606
30
0
41
1
10
15.6149445133881
20
-2.70679572508794
30
0
41
1
10
15.5900705611864
20
-2.72272440879681
30
0
41
1
10
15.5541358785837
20
-2.74901349231627
30
0
41
1
10
15.5423694932297
20
-2.75819106689752
30
0
41
1
10
15.5192103405236
20
-2.77729765167882
30
0
41
1
10
15.5078077764843
20
-2.78723752771793
30
0
41
1
10
15.4743085310438
20
-2.81791710490802
30
0
41
1
10
15.4528472309144
20
-2.83956189519441
30
0
41
1
10
15.4114072718026
20
-2.88495049232512
30
0
41
1
10
15.3914722816546
20
-2.90866168178337
30
0
41
1
10
15.3533520730747
20
-2.95753668277285
30
0
41
1
10
15.3351022819139
20
-2.98277731929019
30
0
41
1
10
15.3002225342242
20
-3.03469882393105
30
0
41
1
10
15.2836734314839
20
-3.06125744688421
30
0
41
1
10
15.2523269020895
20
-3.1155517040138
30
0
41
1
10
15.2376093571773
20
-3.14314900856081
30
0
41
1
10
15.2101108845908
20
-3.19925744632465
30
0
41
1
10
15.1973394537478
20
-3.22775983826094
30
0
41
1
10
15.1740427740878
20
-3.28529159575021
30
0
41
1
10
15.1634715832236
20
-3.3144358594524
30
0
41
1
10
15.144898758838
20
-3.37299150935229
30
0
41
1
10
15.1368693669192
20
-3.40246381993998
30
0
41
1
10
15.1237731035027
20
-3.46167369567073
30
0
41
1
10
15.1187379388948
20
-3.49122519621804
30
0
41
1
10
15.1139422307622
20
-3.53551412533758
30
0
41
1
10
15.112806786516
20
-3.55029508358081
30
0
41
1
10
15.1116110279342
20
-3.57965173840944
30
0
41
1
10
15.1115465978696
20
-3.59424313835072
30
0
41
1
10
15.1126598408629
20
-3.62323728862401
30
0
41
1
10
15.1138386267101
20
-3.6376113264588
30
0
41
1
10
15.1176475546262
20
-3.66587325123672
30
0
41
1
10
15.1202869720116
20
-3.67983112165555
30
0
41
1
10
15.1273076268321
20
-3.70704620331605
30
0
41
1
10
15.1316556163825
20
-3.72019690105964
30
0
41
1
10
15.1423679318879
20
-3.74541575393482
30
0
41
1
10
15.1487266552131
20
-3.75748693228979
30
0
41
1
10
15.1563816820314
20
-3.76886861438001
30
0
0
SPLINE
5
110
100
AcDbEntity
8
1
62
256
6
ByLayer
370
18
48
1
60
0
100
AcDbSpline
70
4
71
3
72
8
73
4
40
0
40
0
40
0
40
0
40
1
40
1
40
1
40
1
41
1
10
15.1563816820314
20
-3.76886861438001
30
0
41
1
10
15.1601111561429
20
-3.77441368818671
30
0
41
1
10
15.1638404920421
20
-3.77995855649613
30
0
41
1
10
15.1675696929185
20
-3.78550322405027
30
0
0
SPLINE
5
111
100
AcDbEntity
8
1
62
256
6
ByLayer
370
18
48
1
60
0
100
AcDbSpline
70
4
71
3
72
8
73
4
40
0
40
0
40
0
40
0
40
1
40
1
40
1
40
1
41
1
10
15.8214953517527
20
-2.65287075857643
30
0
41
1
10
15.8148289283571
20
-2.65241350965874
30
0
41
1
10
15.8081622635909
20
-2.65195624418547
30
0
41
1
10
15.8014953517527
20
-2.65149896176555
30
0
0
SPLINE
5
112
100
AcDbEntity
8
1
62
256
6
ByLayer
370
18
48
1
60
0
100
AcDbSpline
70
4
71
3
72
35
73
31
40
0
40
0
40
0
40
0
40
0.125000000000067
40
0.125000000000067
40
0.250000000000135
40
0.250000000000135
40
0.375000000000202
40
0.375000000000202
40
0.500000000000269
40
0.500000000000269
40
0.562500000000301
40
0.562500000000301
40
0.625000000000334
40
0.625000000000334
40
0.687500000000366
40
0.687500000000366
40
0.718750000000354
40
0.718750000000354
40
0.750000000000343
40
0.750000000000343
40
0.81250000000026
40
0.81250000000026
40
0.843750000000218
40
0.843750000000218
40
0.875000000000177
40
0.906250000000136
40
0.906250000000136
40
0.937500000000094
40
0.937500000000094
40
1
40
1
40
1
40
1
41
1
10
16.1895387094539
20
-2.00000000000006
30
0
41
1
10
16.1895387094539
20
-1.96358115992436
30
0
41
1
10
16.1881166192242
20
-1.92712991429991
30
0
41
1
10
16.1823400800087
20
-1.8544576000314
30
0
41
1
10
16.1779988576782
20
-1.81832899088676
30
0
41
1
10
16.1661256048683
20
-1.74653120240256
30
0
41
1
10
16.1585889450828
20
-1.71084753489615
30
0
41
1
10
16.1398307313059
20
-1.64058962605682
30
0
41
1
10
16.128614364098
20
-1.60599165787957
30
0
41
1
10
16.1083845185726
20
-1.55565688798421
30
0
41
1
10
16.1010809037605
20
-1.53916604324621
30
0
41
1
10
16.0851439828846
20
-1.50687405681805
30
0
41
1
10
16.0765262543285
20
-1.49111430339065
30
0
41
1
10
16.0579253891138
20
-1.46087111116509
30
0
41
1
10
16.0479241665807
20
-1.44634048415855
30
0
41
1
10
16.0316022323633
20
-1.4256735375213
30
0
41
1
10
16.0259402414784
20
-1.41897390522058
30
0
41
1
10
16.0141042582632
20
-1.4060155758547
30
0
41
1
10
16.0079207874761
20
-1.39975329722134
30
0
41
1
10
15.9888383755963
20
-1.38207429031095
30
0
41
1
10
15.9753177715001
20
-1.37163474585955
30
0
41
1
10
15.953514923486
20
-1.35858810018718
30
0
41
1
10
15.9460001143149
20
-1.35469570202241
30
0
41
1
10
15.9308604611523
20
-1.3481049545409
30
0
41
1
10
15.915508669502
20
-1.34264267981311
30
0
41
1
10
15.8997201931803
20
-1.33954660344963
30
0
41
1
10
15.8837021818108
20
-1.33771250650261
30
0
41
1
10
15.875615138792
20
-1.33744469615658
30
0
41
1
10
15.8518931588058
20
-1.33853489069162
30
0
41
1
10
15.8365037313644
20
-1.341731169882
30
0
41
1
10
15.8214953517527
20
-1.34712924142369
30
0
0
SPLINE
5
113
100
AcDbEntity
8
1
62
256
6
ByLayer
370
18
48
1
60
0
100
AcDbSpline
70
4
71
3
72
52
73
48
40
0
40
0
40
0
40
0
40
0.015624999999998
40
0.015624999999998
40
0.031249999999996
40
0.031249999999996
40
0.062499999999992
40
0.062499999999992
40
0.093749999999988
40
0.093749999999988
40
0.124999999999984
40
0.124999999999984
40
0.187499999999974
40
0.187499999999974
40
0.218749999999974
40
0.218749999999974
40
0.249999999999973
40
0.249999999999973
40
0.312499999999975
40
0.312499999999975
40
0.374999999999978
40
0.374999999999978
40
0.43749999999998
40
0.43749999999998
40
0.499999999999982
40
0.499999999999982
40
0.562499999999984
40
0.562499999999984
40
0.624999999999986
40
0.624999999999986
40
0.687499999999989
40
0.687499999999989
40
0.749999999999991
40
0.749999999999991
40
0.812499999999993
40
0.812499999999993
40
0.843749999999994
40
0.843749999999994
40
0.874999999999996
40
0.874999999999996
40
0.906249999999997
40
0.906249999999997
40
0.937499999999998
40
0.937499999999998
40
0.968749999999999
40
0.968749999999999
40
1
40
1
40
1
40
1
41
1
10
15.156381682031
20
-0.231131385620699
30
0
41
1
10
15.1525541845096
20
-0.236822203043602
30
0
41
1
10
15.1490344175404
20
-0.242715865042925
30
0
41
1
10
15.1425459824909
20
-0.254867732503271
30
0
41
1
10
15.1395734673959
20
-0.261139344153918
30
0
41
1
10
15.1314948884448
20
-0.280230467744957
30
0
41
1
10
15.1271808958056
20
-0.293386624082672
30
0
41
1
10
15.1202456937733
20
-0.320388757736254
30
0
41
1
10
15.1176283369016
20
-0.334236264639969
30
0
41
1
10
15.1138242378006
20
-0.362528809274068
30
0
41
1
10
15.1126496513778
20
-0.376925971071273
30
0
41
1
10
15.1109946646334
20
-0.420337532402272
30
0
41
1
10
15.1123523332733
20
-0.449843348755905
30
0
41
1
10
15.117152006142
20
-0.494108238526508
30
0
41
1
10
15.1192168261974
20
-0.508887014444497
30
0
41
1
10
15.1241840376445
20
-0.538496721408706
30
0
41
1
10
15.1270909407852
20
-0.553341569554618
30
0
41
1
10
15.136910611289
20
-0.597692555708619
30
0
41
1
10
15.1449248994719
20
-0.627100981962172
30
0
41
1
10
15.1635125980733
20
-0.685683337850151
30
0
41
1
10
15.1740795954242
20
-0.714803140471673
30
0
41
1
10
15.197346483601
20
-0.772253709994203
30
0
41
1
10
15.2100806204523
20
-0.800678811011778
30
0
41
1
10
15.2376060886291
20
-0.856846310909162
30
0
41
1
10
15.252331979426
20
-0.884457565768599
30
0
41
1
10
15.2836789206827
20
-0.938751585109372
30
0
41
1
10
15.3002201150403
20
-0.965296005158251
30
0
41
1
10
15.3350622112172
20
-1.01716459986542
30
0
41
1
10
15.3533602912811
20
-1.04247617938626
30
0
41
1
10
15.3915359149612
20
-1.09141757454026
30
0
41
1
10
15.4114899922697
20
-1.11514462622802
30
0
41
1
10
15.4529142604253
20
-1.16050698891587
30
0
41
1
10
15.474423334143
20
-1.18219680158845
30
0
41
1
10
15.5191524589726
20
-1.22314343626709
30
0
41
1
10
15.5422272268626
20
-1.24227976700342
30
0
41
1
10
15.5781847105203
20
-1.26857743663515
30
0
41
1
10
15.590417673728
20
-1.27695123931858
30
0
41
1
10
15.6152434032888
20
-1.29266512404155
30
0
41
1
10
15.6278477112825
20
-1.30001662208485
30
0
41
1
10
15.6535140034769
20
-1.31354960050877
30
0
41
1
10
15.6665516783204
20
-1.31971576093682
30
0
41
1
10
15.692931687096
20
-1.33054809498921
30
0
41
1
10
15.7063392661541
20
-1.33524122769177
30
0
41
1
10
15.7334185456484
20
-1.34276870309623
30
0
41
1
10
15.7469813787471
20
-1.34557858256198
30
0
41
1
10
15.7741777037441
20
-1.34891087163854
30
0
41
1
10
15.7878110125156
20
-1.34943964488076
30
0
41
1
10
15.8014953517527
20
-1.34850103823456
30
0
0
SPLINE
5
114
100
AcDbEntity
8
1
62
256
6
ByLayer
370
18
48
1
60
0
100
AcDbSpline
70
4
71
3
72
8
73
4
40
0
40
0
40
0
40
0
40
1
40
1
40
1
40
1
41
1
10
15.8014953517527
20
-1.34850103823456
30
0
41
1
10
15.8081622635909
20
-1.34804375581464
30
0
41
1
10
15.8148289283571
20
-1.34758649034137
30
0
41
1
10
15.8214953517527
20
-1.34712924142369
30
0
0
SPLINE
5
115
100
AcDbEntity
8
1
62
256
6
ByLayer
370
18
48
1
60
0
100
AcDbSpline
70
4
71
3
72
35
73
31
40
0
40
0
40
0
40
0
40
0.125000000000084
40
0.125000000000084
40
0.250000000000168
40
0.250000000000168
40
0.375000000000253
40
0.375000000000253
40
0.43750000000026
40
0.43750000000026
40
0.500000000000268
40
0.500000000000268
40
0.625000000000282
40
0.625000000000282
40
0.68750000000027
40
0.68750000000027
40
0.718750000000244
40
0.718750000000244
40
0.750000000000218
40
0.750000000000218
40
0.812500000000152
40
0.812500000000152
40
0.843750000000127
40
0.843750000000127
40
0.875000000000101
40
0.906250000000076
40
0.906250000000076
40
0.937500000000051
40
0.937500000000051
40
1
40
1
40
1
40
1
41
1
10
14.7861887094539
20
0.43067350080176
30
0
41
1
10
14.8177290587411
20
0.412463671650471
30
0
41
1
10
14.8486231355741
20
0.392981289279618
30
0
41
1
10
14.9086270927349
20
0.351671396121191
30
0
41
1
10
14.9377471028511
20
0.329848024696247
30
0
41
1
10
14.9940380667399
20
0.283624353830476
30
0
41
1
10
15.0211217706145
20
0.259294073931699
30
0
41
1
10
15.0596162999249
20
0.220876341521176
30
0
41
1
10
15.0721020366901
20
0.207738424425941
30
0
41
1
10
15.096288485981
20
0.180712166982602
30
0
41
1
10
15.1079876624982
20
0.166822647524612
30
0
41
1
10
15.1414669625118
20
0.124153432281275
30
0
41
1
10
15.1618227053836
20
0.0941913395201937
30
0
41
1
10
15.187298889693
20
0.0471006067722328
30
0
41
1
10
15.1949815948223
20
0.0309538902840245
30
0
41
1
10
15.2047555296263
20
0.0063232332370262
30
0
41
1
10
15.2077232530661
20
-0.001956904318007
30
0
41
1
10
15.2129990136575
20
-0.0186734328943601
30
0
41
1
10
15.2153125427505
20
-0.0271393073058164
30
0
41
1
10
15.221038311561
20
-0.0524765210456337
30
0
41
1
10
15.2232775769597
20
-0.0693382662033741
30
0
41
1
10
15.2236503799747
20
-0.0945500907634766
30
0
41
1
10
15.2232634226852
20
-0.103001695058566
30
0
41
1
10
15.2213789423571
20
-0.119483897395298
30
0
41
1
10
15.2184027643961
20
-0.135560684892425
30
0
41
1
10
15.213157949795
20
-0.150786353982511
30
0
41
1
10
15.2067148846923
20
-0.16555892874274
30
0
41
1
10
15.2029159076336
20
-0.172643350256351
30
0
41
1
10
15.1901427851517
20
-0.192543360130116
30
0
41
1
10
15.1797127053128
20
-0.204228652910445
30
0
41
1
10
15.1675696929185
20
-0.21449677594984
30
0
0
SPLINE
5
116
100
AcDbEntity
8
1
62
256
6
ByLayer
370
18
48
1
60
0
100
AcDbSpline
70
4
71
3
72
8
73
4
40
0
40
0
40
0
40
0
40
1
40
1
40
1
40
1
41
1
10
15.1675696929185
20
-0.21449677594984
30
0
41
1
10
15.1638404920421
20
-0.220041443503987
30
0
41
1
10
15.1601111561429
20
-0.225586311813402
30
0
41
1
10
15.1563816820314
20
-0.231131385620102
30
0
0
SPLINE
5
117
100
AcDbEntity
8
1
62
256
6
ByLayer
370
18
48
1
60
0
100
AcDbSpline
70
4
71
3
72
39
73
35
40
0
40
0
40
0
40
0
40
0.124999999999966
40
0.124999999999966
40
0.249999999999933
40
0.249999999999933
40
0.374999999999899
40
0.374999999999899
40
0.43749999999988
40
0.43749999999988
40
0.499999999999861
40
0.499999999999861
40
0.562499999999843
40
0.562499999999843
40
0.624999999999824
40
0.624999999999824
40
0.687499999999805
40
0.687499999999805
40
0.718749999999795
40
0.718749999999795
40
0.749999999999785
40
0.749999999999785
40
0.812499999999839
40
0.812499999999839
40
0.843749999999866
40
0.843749999999866
40
0.874999999999892
40
0.874999999999892
40
0.906249999999919
40
0.906249999999919
40
0.937499999999946
40
0.968749999999973
40
0.968749999999973
40
1
40
1
40
1
40
1
41
1
10
10.5761387094539
20
-2.00000000000003
30
0
41
1
10
10.5761387094539
20
-1.96357512771414
30
0
41
1
10
10.5775625644938
20
-1.92711490530144
30
0
41
1
10
10.5833322285526
20
-1.85451470204552
30
0
41
1
10
10.5876822854324
20
-1.81830358400583
30
0
41
1
10
10.5995532542912
20
-1.74652538098462
30
0
41
1
10
10.6070832789849
20
-1.7108812575363
30
0
41
1
10
10.6211196174071
20
-1.65828751800427
30
0
41
1
10
10.6262548160532
20
-1.64090852603806
30
0
41
1
10
10.6375514244753
20
-1.60649580130203
30
0
41
1
10
10.6437221493279
20
-1.58943924755431
30
0
41
1
10
10.6571826161776
20
-1.55591514957084
30
0
41
1
10
10.6644740860273
20
-1.53943306666969
30
0
41
1
10
10.6803919063313
20
-1.50714218825121
30
0
41
1
10
10.6889805198959
20
-1.49141597620567
30
0
41
1
10
10.707539852905
20
-1.46119236324429
30
0
41
1
10
10.717522141073
20
-1.44666176511166
30
0
41
1
10
10.7338228655478
20
-1.42597918431369
30
0
41
1
10
10.7394790103596
20
-1.4192717262778
30
0
41
1
10
10.751307051901
20
-1.40629240283747
30
0
41
1
10
10.7574737934019
20
-1.40003216693245
30
0
41
1
10
10.7765129431971
20
-1.38234389723053
30
0
41
1
10
10.7900122455154
20
-1.37188164827842
30
0
41
1
10
10.8118061058686
20
-1.35878255393254
30
0
41
1
10
10.8192980293415
20
-1.35488131314258
30
0
41
1
10
10.8344538069958
20
-1.34824352399522
30
0
41
1
10
10.8421590751083
20
-1.34548072438867
30
0
41
1
10
10.8578373361765
20
-1.34114190392162
30
0
41
1
10
10.8658755898013
20
-1.33956048207369
30
0
41
1
10
10.8818890040297
20
-1.33771789649333
30
0
41
1
10
10.8977824408474
20
-1.33717684233849
30
0
41
1
10
10.9134425712579
20
-1.33911636079429
30
0
41
1
10
10.928988519789
20
-1.34225810715631
30
0
41
1
10
10.9366802569645
20
-1.34443106153023
30
0
41
1
10
10.9441820671551
20
-1.34712924142366
30
0
0
SPLINE
5
118
100
AcDbEntity
8
1
62
256
6
ByLayer
370
18
48
1
60
0
100
AcDbSpline
70
4
71
3
72
8
73
4
40
0
40
0
40
0
40
0
40
1
40
1
40
1
40
1
41
1
10
11.6092957368764
20
-0.231131385620074
30
0
41
1
10
11.605566262765
20
-0.225586311813402
30
0
41
1
10
11.6018369268658
20
-0.220041443503987
30
0
41
1
10
11.5981077259894
20
-0.214496775949812
30
0
0
SPLINE
5
119
100
AcDbEntity
8
1
62
256
6
ByLayer
370
18
48
1
60
0
100
AcDbSpline
70
4
71
3
72
35
73
31
40
0
40
0
40
0
40
0
40
0.125000000000024
40
0.125000000000024
40
0.250000000000048
40
0.250000000000048
40
0.375000000000071
40
0.375000000000071
40
0.500000000000095
40
0.500000000000095
40
0.56250000000008
40
0.56250000000008
40
0.625000000000065
40
0.625000000000065
40
0.68750000000005
40
0.68750000000005
40
0.718750000000043
40
0.718750000000043
40
0.750000000000036
40
0.750000000000036
40
0.812500000000027
40
0.812500000000027
40
0.84375000000002
40
0.84375000000002
40
0.875000000000013
40
0.906250000000006
40
0.906250000000006
40
0.937499999999998
40
0.937499999999998
40
1
40
1
40
1
40
1
41
1
10
11.9794887094539
20
0.43067350080176
30
0
41
1
10
11.947949068772
20
0.412464080763897
30
0
41
1
10
11.9170924091765
20
0.393006891686241
30
0
41
1
10
11.8570446084759
20
0.35166810484543
30
0
41
1
10
11.8279269263185
20
0.3298441914514
30
0
41
1
10
11.7716848439605
20
0.283662758650422
30
0
41
1
10
11.7445502112926
20
0.259293986063227
30
0
41
1
10
11.6930841843094
20
0.207919941983192
30
0
41
1
10
11.6687296485525
20
0.180907298954423
30
0
41
1
10
11.6352533818923
20
0.138220353867013
30
0
41
1
10
11.6246236988253
20
0.12364981553128
30
0
41
1
10
11.6046264786778
20
0.0937020439806133
30
0
41
1
10
11.5952869961304
20
0.0783589954143906
30
0
41
1
10
11.5783960559789
20
0.0471285774932539
30
0
41
1
10
11.5708127751248
20
0.0312019512074642
30
0
41
1
10
11.5610756414269
20
0.0067332682177437
30
0
41
1
10
11.558104585101
20
-0.0015199758749986
30
0
41
1
10
11.5528003342871
20
-0.018249402701116
30
0
41
1
10
11.5504687772986
20
-0.0267355848029354
30
0
41
1
10
11.5446995141405
20
-0.0521009417115579
30
0
41
1
10
11.5424189054897
20
-0.0690299005590305
30
0
41
1
10
11.5420216029103
20
-0.0944350436502646
30
0
41
1
10
11.5424080918036
20
-0.102889258379463
30
0
41
1
10
11.5442701636359
20
-0.11929595636343
30
0
41
1
10
11.5472155907843
20
-0.135322135290124
30
0
41
1
10
11.5524285481624
20
-0.150543395053518
30
0
41
1
10
11.558849179298
20
-0.165332448291196
30
0
41
1
10
11.5626607702443
20
-0.172469938160049
30
0
41
1
10
11.5754658963999
20
-0.192468678188561
30
0
41
1
10
11.585928669097
20
-0.204198173707255
30
0
41
1
10
11.5981077259894
20
-0.214496775949812
30
0
0
SPLINE
5
11A
100
AcDbEntity
8
1
62
256
6
ByLayer
370
18
48
1
60
0
100
AcDbSpline
70
4
71
3
72
8
73
4
40
0
40
0
40
0
40
0
40
1
40
1
40
1
40
1
41
1
10
10.9641820671552
20
-1.34850103823453
30
0
41
1
10
10.957515155317
20
-1.34804375581464
30
0
41
1
10
10.9508484905508
20
-1.34758649034137
30
0
41
1
10
10.9441820671551
20
-1.34712924142366
30
0
0
SPLINE
5
11B
100
AcDbEntity
8
1
62
256
6
ByLayer
370
18
48
1
60
0
100
AcDbSpline
70
4
71
3
72
50
73
46
40
0
40
0
40
0
40
0
40
0.0312499999999739
40
0.0312499999999739
40
0.046874999999969
40
0.046874999999969
40
0.0624999999999641
40
0.0624999999999641
40
0.124999999999978
40
0.124999999999978
40
0.156249999999984
40
0.156249999999984
40
0.18749999999999
40
0.18749999999999
40
0.249999999999993
40
0.249999999999993
40
0.281250000000002
40
0.281250000000002
40
0.312500000000011
40
0.312500000000011
40
0.375000000000012
40
0.375000000000012
40
0.50000000000001
40
0.50000000000001
40
0.562499999999994
40
0.562499999999994
40
0.624999999999977
40
0.624999999999977
40
0.687499999999961
40
0.687499999999961
40
0.749999999999944
40
0.749999999999944
40
0.812499999999928
40
0.812499999999928
40
0.84374999999994
40
0.84374999999994
40
0.874999999999952
40
0.874999999999952
40
0.906249999999964
40
0.906249999999964
40
0.937499999999976
40
0.937499999999976
40
0.968749999999988
40
0.968749999999988
40
1
40
1
40
1
40
1
41
1
10
11.6092957368764
20
-0.231131385620074
30
0
41
1
10
11.6169938815279
20
-0.242577176364648
30
0
41
1
10
11.6233973192656
20
-0.254745945477993
30
0
41
1
10
11.6314850076019
20
-0.273854314794391
30
0
41
1
10
11.633925349395
20
-0.280367812839046
30
0
41
1
10
11.638341550252
20
-0.293658451778839
30
0
41
1
10
11.6403214884212
20
-0.300455062843554
30
0
41
1
10
11.6490662205229
20
-0.334693594033496
30
0
41
1
10
11.6525357370635
20
-0.36302947306956
30
0
41
1
10
11.6541384659693
20
-0.406572652451274
30
0
41
1
10
11.6540504287512
20
-0.421310501358562
30
0
41
1
10
11.65280406299
20
-0.450729000363538
30
0
41
1
10
11.6516499862809
20
-0.46544548757501
30
0
41
1
10
11.6468078862419
20
-0.509627765991524
30
0
41
1
10
11.6417530588289
20
-0.539126586158403
30
0
41
1
10
11.631904039335
20
-0.583478327085345
30
0
41
1
10
11.6282301881797
20
-0.598312038710816
30
0
41
1
10
11.6202034638926
20
-0.627865191234008
30
0
41
1
10
11.6158651478189
20
-0.642537892639922
30
0
41
1
10
11.601955287144
20
-0.68627413493536
30
0
41
1
10
11.5914943229842
20
-0.715057780677995
30
0
41
1
10
11.5569205839978
20
-0.800429979896165
30
0
41
1
10
11.5296719832555
20
-0.856059686608944
30
0
41
1
10
11.4826568539272
20
-0.937669291329371
30
0
41
1
10
11.4661048519746
20
-0.96428387935083
30
0
41
1
10
11.4312452102218
20
-1.01627313513867
30
0
41
1
10
11.4129331251958
20
-1.04164691385557
30
0
41
1
10
11.3747255186326
20
-1.09070719398008
30
0
41
1
10
11.3547526220374
20
-1.11449243238664
30
0
41
1
10
11.3132832080983
20
-1.15996990720174
30
0
41
1
10
11.2917518552294
20
-1.18171265310667
30
0
41
1
10
11.2469647474147
20
-1.22276872099033
30
0
41
1
10
11.2238593947299
20
-1.24195628633407
30
0
41
1
10
11.1878533950247
20
-1.26832546819037
30
0
41
1
10
11.1756033215628
20
-1.2767225994325
30
0
41
1
10
11.1507409562399
20
-1.29248171925372
30
0
41
1
10
11.1381179283166
20
-1.29985462142841
30
0
41
1
10
11.1124132342826
20
-1.31342770307239
30
0
41
1
10
11.0993543057076
20
-1.31961329460415
30
0
41
1
10
11.0729319401831
20
-1.33048011014247
30
0
41
1
10
11.0595035764819
20
-1.33518843228055
30
0
41
1
10
11.0323773132967
20
-1.34274251938643
30
0
41
1
10
11.0187909462292
20
-1.34556289483305
30
0
41
1
10
10.991547354663
20
-1.34890907247626
30
0
41
1
10
10.977890314657
20
-1.34944128474481
30
0
41
1
10
10.9641820671552
20
-1.34850103823453
30
0
0
LINE
5
7E
100
AcDbEntity
8
80
62
256
6
ByLayer
370
18
48
1
60
0
100
AcDbLine
10
0
20
0
30
0
11
-5
21
0
31
0
39
0
210
0
220
0
230
1
0
LINE
5
7F
100
AcDbEntity
8
1
62
256
6
ByLayer
370
18
48
1
60
0
100
AcDbLine
10
0
20
12.435559
30
0
11
0
21
-13.01149
31
0
39
0
210
0
220
0
230
1
0
LINE
5
80
100
AcDbEntity
8
1
62
256
6
ByLayer
370
18
48
1
60
0
100
AcDbLine
10
40.645406
20
-12.107352
30
0
11
37.172105
21
-11.680884
31
0
39
0
210
0
220
0
230
1
0
LINE
5
81
100
AcDbEntity
8
1
62
256
6
ByLayer
370
18
48
1
60
0
100
AcDbLine
10
39.819434
20
-18.403623
30
0
11
36.398235
21
-17.983552
31
0
39
0
210
0
220
0
230
1
0
LINE
5
82
100
AcDbEntity
8
1
62
256
6
ByLayer
370
18
48
1
60
0
100
AcDbLine
10
37.162829
20
-11.755332
30
0
11
37.172105
21
-11.680884
31
0
39
0
210
0
220
0
230
1
0
LINE
5
83
100
AcDbEntity
8
1
62
256
6
ByLayer
370
18
48
1
60
0
100
AcDbLine
10
37.172105
20
-11.680884
30
0
11
35.593209
21
-11.48702
31
0
39
0
210
0
220
0
230
1
0
LINE
5
84
100
AcDbEntity
8
1
62
256
6
ByLayer
370
18
48
1
60
0
100
AcDbLine
10
36.398235
20
-17.983552
30
0
11
34.819339
21
-17.789688
31
0
39
0
210
0
220
0
230
1
0
LINE
5
85
100
AcDbEntity
8
1
62
256
6
ByLayer
370
18
48
1
60
0
100
AcDbLine
10
36.398235
20
-17.983552
30
0
11
36.407245
21
-17.909072
31
0
39
0
210
0
220
0
230
1
0
LINE
5
86
100
AcDbEntity
8
1
62
256
6
ByLayer
370
18
48
1
60
0
100
AcDbLine
10
1.000349
20
-16.170852
30
0
11
1.481918
21
-16.170852
31
0
39
0
210
0
220
0
230
1
0
LINE
5
87
100
AcDbEntity
8
1
62
256
6
ByLayer
370
18
48
1
60
0
100
AcDbLine
10
1.000349
20
-16.170852
30
0
11
0.317758
21
-13.62339
31
0
39
0
210
0
220
0
230
1
0
LINE
5
88
100
AcDbEntity
8
1
62
256
6
ByLayer
370
18
48
1
60
0
100
AcDbLine
10
32.698039
20
-11.131538
30
0
11
35.593202
21
-11.487019
31
0
39
0
210
0
220
0
230
1
0
LINE
5
89
100
AcDbEntity
8
1
62
256
6
ByLayer
370
18
48
1
60
0
100
AcDbLine
10
34.819332
20
-17.789687
30
0
11
31.924169
21
-17.434206
31
0
39
0
210
0
220
0
230
1
0
LINE
5
8A
100
AcDbEntity
8
1
62
256
6
ByLayer
370
18
48
1
60
0
100
AcDbLine
10
35.593202
20
-11.487019
30
0
11
35.616802
21
-12.047508
31
0
39
0
210
0
220
0
230
1
0
LINE
5
8B
100
AcDbEntity
8
1
62
256
6
ByLayer
370
18
48
1
60
0
100
AcDbLine
10
34.977825
20
-17.251556
30
0
11
34.819332
21
-17.789687
31
0
39
0
210
0
220
0
230
1
0
LINE
5
8C
100
AcDbEntity
8
1
62
256
6
ByLayer
370
18
48
1
60
0
100
AcDbLine
10
35.848993
20
-14.188359
30
0
11
35.721038
21
-15.23047
31
0
39
0
210
0
220
0
230
1
0
LINE
5
8D
100
AcDbEntity
8
1
62
256
6
ByLayer
370
18
48
1
60
0
100
AcDbLine
10
27.453279
20
-10.487562
30
0
11
32.698039
21
-11.131538
31
0
39
0
210
0
220
0
230
1
0
LINE
5
8E
100
AcDbEntity
8
1
62
256
6
ByLayer
370
18
48
1
60
0
100
AcDbLine
10
31.924169
20
-17.434206
30
0
11
26.679409
21
-16.79023
31
0
39
0
210
0
220
0
230
1
0
LINE
5
8F
100
AcDbEntity
8
1
62
256
6
ByLayer
370
18
48
1
60
0
100
AcDbLine
10
32.698039
20
-11.131538
30
0
11
31.924169
21
-17.434206
31
0
39
0
210
0
220
0
230
1
0
LINE
5
90
100
AcDbEntity
8
1
62
256
6
ByLayer
370
18
48
1
60
0
100
AcDbLine
10
3.465133
20
12.476007
30
0
11
1.481918
21
12.443711
31
0
39
0
210
0
220
0
230
1
0
LINE
5
91
100
AcDbEntity
8
1
62
256
6
ByLayer
370
18
48
1
60
0
100
AcDbLine
10
1.481918
20
-16.170852
30
0
11
3.465133
21
-16.170852
31
0
39
0
210
0
220
0
230
1
0
LINE
5
92
100
AcDbEntity
8
1
62
256
6
ByLayer
370
13
48
1
60
0
100
AcDbLine
10
1.481918
20
-16.170852
30
0
11
1.481918
21
12.443711
31
0
39
0
210
0
220
0
230
1
0
LINE
5
93
100
AcDbEntity
8
1
62
256
6
ByLayer
370
18
48
1
60
0
100
AcDbLine
10
15.094332
20
12.476007
30
0
11
3.465133
21
12.476007
31
0
39
0
210
0
220
0
230
1
0
LINE
5
94
100
AcDbEntity
8
1
62
256
6
ByLayer
370
18
48
1
60
0
100
AcDbLine
10
15.094332
20
12.476007
30
0
11
20.132839
21
7.4375
31
0
39
0
210
0
220
0
230
1
0
LINE
5
95
100
AcDbEntity
8
1
62
256
6
ByLayer
370
18
48
1
60
0
100
AcDbLine
10
3.465133
20
12.476007
30
0
11
3.465133
21
-16.170852
31
0
39
0
210
0
220
0
230
1
0
LINE
5
96
100
AcDbEntity
8
1
62
256
6
ByLayer
370
18
48
1
60
0
100
AcDbLine
10
3.465133
20
-16.170852
30
0
11
21.537118
21
-16.170852
31
0
39
0
210
0
220
0
230
1
0
LINE
5
97
100
AcDbEntity
8
1
62
256
6
ByLayer
370
18
48
1
60
0
100
AcDbLine
10
21.732109
20
-16.182778
30
0
11
26.679409
21
-16.79023
31
0
39
0
210
0
220
0
230
1
0
LINE
5
98
100
AcDbEntity
8
1
62
256
6
ByLayer
370
18
48
1
60
0
100
AcDbLine
10
26.679409
20
-16.79023
30
0
11
27.453279
21
-10.487562
31
0
39
0
210
0
220
0
230
1
0
LINE
5
99
100
AcDbEntity
8
1
62
256
6
ByLayer
370
18
48
1
60
0
100
AcDbLine
10
21.537848
20
-9.761239
30
0
11
27.453279
21
-10.487562
31
0
39
0
210
0
220
0
230
1
0
LINE
5
9A
100
AcDbEntity
8
1
62
256
6
ByLayer
370
18
48
1
60
0
100
AcDbLine
10
20.132839
20
7.4375
30
0
11
20.132839
21
-8.173165
31
0
39
0
210
0
220
0
230
1
0
LINE
5
9B
100
AcDbEntity
8
SK1
62
256
6
ByLayer
370
18
48
1
60
0
100
AcDbLine
10
-1.227723
20
-12.4375
30
0
11
-3.455467
21
-12.4375
31
0
39
0
210
0
220
0
230
1
0
LINE
5
9D
100
AcDbEntity
8
SK1
62
256
6
ByLayer
370
18
48
1
60
0
100
AcDbLine
10
0
20
12.435559
30
0
11
0
21
-13.01149
31
0
39
0
210
0
220
0
230
1
0
LINE
5
9E
100
AcDbEntity
8
SK1
62
256
6
ByLayer
370
18
48
1
60
0
100
AcDbLine
10
-3.455467
20
12.4375
30
0
11
-3.455467
21
-12.4375
31
0
39
0
210
0
220
0
230
1
0
LINE
5
9F
100
AcDbEntity
8
SK1
62
256
6
ByLayer
370
18
48
1
60
0
100
AcDbLine
10
-3.455467
20
12.4375
30
0
11
-143.267161
21
12.4375
31
0
39
0
210
0
220
0
230
1
0
LINE
5
A0
100
AcDbEntity
8
SK1
62
256
6
ByLayer
370
18
48
1
60
0
100
AcDbLine
10
-143.267161
20
-12.4375
30
0
11
-143.267161
21
12.4375
31
0
39
0
210
0
220
0
230
1
0
LINE
5
A1
100
AcDbEntity
8
SK1
62
256
6
ByLayer
370
18
48
1
60
0
100
AcDbLine
10
-3.455467
20
-12.4375
30
0
11
-143.267161
21
-12.4375
31
0
39
0
210
0
220
0
230
1
0
LINE
5
A2
100
AcDbEntity
8
1
62
256
6
ByLayer
370
18
48
1
60
0
100
AcDbLine
10
39.746786
20
-12.072579
30
0
11
40.464633
21
-12.160719
31
0
39
0
210
0
220
0
230
1
0
LINE
5
A3
100
AcDbEntity
8
1
62
256
6
ByLayer
370
18
48
1
60
0
100
AcDbLine
10
38.991196
20
-18.226365
30
0
11
39.709043
21
-18.314505
31
0
39
0
210
0
220
0
230
1
0
LINE
5
A4
100
AcDbEntity
8
1
62
256
6
ByLayer
370
13
48
1
60
0
100
AcDbLine
10
38.991196
20
-18.226365
30
0
11
39.746786
21
-12.072579
31
0
39
0
210
0
220
0
230
1
0
LINE
5
A5
100
AcDbEntity
8
1
62
256
6
ByLayer
370
13
48
1
60
0
100
AcDbLine
10
37.470561
20
-15.188401
30
0
11
35.752036
21
-14.977393
31
0
39
0
210
0
220
0
230
1
0
LINE
5
A6
100
AcDbEntity
8
1
62
256
6
ByLayer
370
13
48
1
60
0
100
AcDbLine
10
37.53637
20
-14.652427
30
0
11
35.817845
21
-14.441418
31
0
39
0
210
0
220
0
230
1
0
LINE
5
A7
100
AcDbEntity
8
1
62
256
6
ByLayer
370
13
48
1
60
0
100
AcDbLine
10
37.546978
20
-14.461561
30
0
11
35.841082
21
-14.252103
31
0
39
0
210
0
220
0
230
1
0
LINE
5
A8
100
AcDbEntity
8
1
62
256
6
ByLayer
370
13
48
1
60
0
100
AcDbLine
10
37.434679
20
-15.376164
30
0
11
35.728782
21
-15.166706
31
0
39
0
210
0
220
0
230
1
0
LINE
5
A9
100
AcDbEntity
8
1
62
256
6
ByLayer
370
13
48
1
60
0
100
AcDbLine
10
37.153082
20
-15.560214
30
0
11
35.610862
21
-15.370854
31
0
39
0
210
0
220
0
230
1
0
LINE
5
AA
100
AcDbEntity
8
1
62
256
6
ByLayer
370
13
48
1
60
0
100
AcDbLine
10
37.318272
20
-14.214853
30
0
11
35.776051
21
-14.025492
31
0
39
0
210
0
220
0
230
1
0
LINE
5
AB
100
AcDbEntity
8
1
62
256
6
ByLayer
370
13
48
1
60
0
100
AcDbLine
10
35.457777
20
-15.407823
30
0
11
36.921204
21
-15.587509
31
0
39
0
210
0
220
0
230
1
0
LINE
5
AC
100
AcDbEntity
8
1
62
256
6
ByLayer
370
13
48
1
60
0
100
AcDbLine
10
35.636361
20
-13.952575
30
0
11
37.099885
21
-14.132273
31
0
39
0
210
0
220
0
230
1
0
LINE
5
AD
100
AcDbEntity
8
1
62
256
6
ByLayer
370
13
48
1
60
0
100
AcDbLine
10
35.458462
20
-15.438938
30
0
11
36.859905
21
-15.611013
31
0
39
0
210
0
220
0
230
1
0
LINE
5
AE
100
AcDbEntity
8
1
62
256
6
ByLayer
370
13
48
1
60
0
100
AcDbLine
10
35.64465
20
-13.922562
30
0
11
37.046093
21
-14.094637
31
0
39
0
210
0
220
0
230
1
0
LINE
5
AF
100
AcDbEntity
8
1
62
256
6
ByLayer
370
13
48
1
60
0
100
AcDbLine
10
36.746894
20
-15.689609
30
0
11
35.434763
21
-15.5285
31
0
39
0
210
0
220
0
230
1
0
LINE
5
B0
100
AcDbEntity
8
1
62
256
6
ByLayer
370
13
48
1
60
0
100
AcDbLine
10
36.955452
20
-13.991036
30
0
11
35.643981
21
-13.830007
31
0
39
0
210
0
220
0
230
1
0
LINE
5
B1
100
AcDbEntity
8
1
62
256
6
ByLayer
370
13
48
1
60
0
100
AcDbLine
10
36.713528
20
-15.730114
30
0
11
35.42333
21
-15.571698
31
0
39
0
210
0
220
0
230
1
0
LINE
5
B2
100
AcDbEntity
8
1
62
256
6
ByLayer
370
13
48
1
60
0
100
AcDbLine
10
36.932876
20
-13.943662
30
0
11
35.643617
21
-13.785361
31
0
39
0
210
0
220
0
230
1
0
LINE
5
B3
100
AcDbEntity
8
1
62
256
6
ByLayer
370
18
48
1
60
0
100
AcDbLine
10
34.840773
20
-17.716757
30
0
11
35.970496
21
-17.855469
31
0
39
0
210
0
220
0
230
1
0
LINE
5
B4
100
AcDbEntity
8
1
62
256
6
ByLayer
370
13
48
1
60
0
100
AcDbLine
10
36.005991
20
-17.566389
30
0
11
34.924102
21
-17.43355
31
0
39
0
210
0
220
0
230
1
0
LINE
5
B5
100
AcDbEntity
8
1
62
256
6
ByLayer
370
13
48
1
60
0
100
AcDbLine
10
36.01026
20
-17.549418
30
0
11
34.92916
21
-17.416676
31
0
39
0
210
0
220
0
230
1
0
LINE
5
B6
100
AcDbEntity
8
1
62
256
6
ByLayer
370
13
48
1
60
0
100
AcDbLine
10
36.690629
20
-12.008263
30
0
11
35.609528
21
-11.875521
31
0
39
0
210
0
220
0
230
1
0
LINE
5
B7
100
AcDbEntity
8
1
62
256
6
ByLayer
370
18
48
1
60
0
100
AcDbLine
10
35.596363
20
-11.562971
30
0
11
36.726086
21
-11.701683
31
0
39
0
210
0
220
0
230
1
0
LINE
5
B8
100
AcDbEntity
8
1
62
256
6
ByLayer
370
13
48
1
60
0
100
AcDbLine
10
36.690591
20
-11.990763
30
0
11
35.608703
21
-11.857924
31
0
39
0
210
0
220
0
230
1
0
LINE
5
B9
100
AcDbEntity
8
1
62
256
6
ByLayer
370
18
48
1
60
0
100
AcDbLine
10
35.970496
20
-17.855469
30
0
11
37.852595
21
-18.086562
31
0
39
0
210
0
220
0
230
1
0
LINE
5
BA
100
AcDbEntity
8
1
62
256
6
ByLayer
370
13
48
1
60
0
100
AcDbLine
10
37.852595
20
-18.086562
30
0
11
38.608185
21
-11.932776
31
0
39
0
210
0
220
0
230
1
0
LINE
5
BB
100
AcDbEntity
8
1
62
256
6
ByLayer
370
18
48
1
60
0
100
AcDbLine
10
36.726086
20
-11.701683
30
0
11
38.608185
21
-11.932776
31
0
39
0
210
0
220
0
230
1
0
LINE
5
BC
100
AcDbEntity
8
1
62
256
6
ByLayer
370
18
48
1
60
0
100
AcDbLine
10
36.690591
20
-11.990763
30
0
11
36.726086
21
-11.701683
31
0
39
0
210
0
220
0
230
1
0
LINE
5
BD
100
AcDbEntity
8
1
62
256
6
ByLayer
370
18
48
1
60
0
100
AcDbLine
10
36.690629
20
-12.008263
30
0
11
36.932876
21
-13.943662
31
0
39
0
210
0
220
0
230
1
0
LINE
5
BE
100
AcDbEntity
8
1
62
256
6
ByLayer
370
18
48
1
60
0
100
AcDbLine
10
36.955452
20
-13.991036
30
0
11
37.046094
21
-14.094637
31
0
39
0
210
0
220
0
230
1
0
LINE
5
BF
100
AcDbEntity
8
1
62
256
6
ByLayer
370
18
48
1
60
0
100
AcDbLine
10
37.53637
20
-14.652427
30
0
11
37.503466
21
-14.920414
31
0
39
0
210
0
220
0
230
1
0
LINE
5
C0
100
AcDbEntity
8
1
62
256
6
ByLayer
370
18
48
1
60
0
100
AcDbLine
10
37.470561
20
-15.188401
30
0
11
37.503466
21
-14.920414
31
0
39
0
210
0
220
0
230
1
0
LINE
5
C1
100
AcDbEntity
8
1
62
256
6
ByLayer
370
18
48
1
60
0
100
AcDbLine
10
36.746894
20
-15.689609
30
0
11
36.859906
21
-15.611014
31
0
39
0
210
0
220
0
230
1
0
LINE
5
C2
100
AcDbEntity
8
1
62
256
6
ByLayer
370
18
48
1
60
0
100
AcDbLine
10
36.01026
20
-17.549418
30
0
11
36.713528
21
-15.730114
31
0
39
0
210
0
220
0
230
1
0
LINE
5
C3
100
AcDbEntity
8
1
62
256
6
ByLayer
370
18
48
1
60
0
100
AcDbLine
10
36.005991
20
-17.566389
30
0
11
35.970496
21
-17.855469
31
0
39
0
210
0
220
0
230
1
0
LINE
5
C4
100
AcDbEntity
8
81
62
256
6
ByLayer
370
18
48
1
60
0
100
AcDbLine
10
46.732839
20
-19.5625
30
0
11
51.695569
21
-20.171847
31
0
39
0
210
0
220
0
230
1
0
LINE
5
C5
100
AcDbEntity
8
2
62
256
6
ByLayer
370
13
48
1
60
0
100
AcDbLine
10
53.271236
20
-20.365314
30
0
11
93.206706
21
-25.268773
31
0
39
0
210
0
220
0
230
1
0
LINE
5
C7
100
AcDbEntity
8
2
62
256
6
ByLayer
370
13
48
1
60
0
100
AcDbLine
10
48.320339
20
-19.5625
30
0
11
93.555717
21
-19.5625
31
0
39
0
210
0
220
0
230
1
0
LINE
5
C8
100
AcDbEntity
8
1
62
256
6
ByLayer
370
18
48
1
60
1
100
AcDbLine
10
91.221614
20
-25.025035
30
0
11
91.183543
21
-28.555029
31
0
39
0
210
0
220
0
230
1
0
LINE
5
C9
100
AcDbEntity
8
1
62
256
6
ByLayer
370
18
48
1
60
1
100
AcDbLine
10
91.183543
20
-28.555029
30
0
11
90.271209
21
-28.424897
31
0
39
0
210
0
220
0
230
1
0
LINE
5
CA
100
AcDbEntity
8
1
62
256
6
ByLayer
370
18
48
1
60
1
100
AcDbLine
10
90.271209
20
-28.424897
30
0
11
91.221614
21
-25.025035
31
0
39
0
210
0
220
0
230
1
0
LINE
5
CB
100
AcDbEntity
8
1
62
256
6
ByLayer
370
18
48
1
60
1
100
AcDbLine
10
91.555717
20
-19.5625
30
0
11
91.026736
21
-16.072158
31
0
39
0
210
0
220
0
230
1
0
LINE
5
CC
100
AcDbEntity
8
1
62
256
6
ByLayer
370
18
48
1
60
1
100
AcDbLine
10
91.026736
20
-16.072158
30
0
11
91.948128
21
-16.054175
31
0
39
0
210
0
220
0
230
1
0
LINE
5
CD
100
AcDbEntity
8
1
62
256
6
ByLayer
370
18
48
1
60
1
100
AcDbLine
10
91.948128
20
-16.054175
30
0
11
91.555717
21
-19.5625
31
0
39
0
210
0
220
0
230
1
0
LINE
5
11F
100
AcDbEntity
8
1
62
256
6
ByLayer
370
18
48
1
60
1
100
AcDbLine
10
91.221614
20
-25.025035
30
0
11
91.183543
21
-28.555029
31
0
39
0
210
0
220
0
230
1
0
LINE
5
120
100
AcDbEntity
8
1
62
256
6
ByLayer
370
18
48
1
60
1
100
AcDbLine
10
91.183543
20
-28.555029
30
0
11
90.271209
21
-28.424897
31
0
39
0
210
0
220
0
230
1
0
LINE
5
121
100
AcDbEntity
8
1
62
256
6
ByLayer
370
18
48
1
60
1
100
AcDbLine
10
90.271209
20
-28.424897
30
0
11
91.221614
21
-25.025035
31
0
39
0
210
0
220
0
230
1
0
LINE
5
123
100
AcDbEntity
8
1
62
256
6
ByLayer
370
18
48
1
60
1
100
AcDbLine
10
91.555717
20
-19.5625
30
0
11
91.026736
21
-16.072158
31
0
39
0
210
0
220
0
230
1
0
LINE
5
124
100
AcDbEntity
8
1
62
256
6
ByLayer
370
18
48
1
60
1
100
AcDbLine
10
91.026736
20
-16.072158
30
0
11
91.948128
21
-16.054175
31
0
39
0
210
0
220
0
230
1
0
LINE
5
125
100
AcDbEntity
8
1
62
256
6
ByLayer
370
18
48
1
60
1
100
AcDbLine
10
91.948128
20
-16.054175
30
0
11
91.555717
21
-19.5625
31
0
39
0
210
0
220
0
230
1
0
MTEXT
5
11C
100
AcDbEntity
8
2
62
256
6
ByLayer
370
18
48
1
60
0
100
AcDbMText
10
90.813301
20
-22.27328
30
0
210
0
220
0
230
1
1
\W0.9056;7%%d
40
3.5
41
0
44
1.084337
50
88.7302034091856
71
7
72
5
7
iso_b_vert
0
MTEXT
5
127
100
AcDbEntity
8
SK6
62
256
6
ByLayer
370
18
48
1
60
0
100
AcDbMText
10
-80.600296
20
-58.065287
30
0
210
0
220
0
230
1
1
\W0.8036;C2T-RS25-LX07L25DB
40
3.5
41
0
44
1.084337
50
0
71
7
72
5
7
iso_b_vert
0
HATCH
5
122
100
AcDbEntity
8
2
62
256
6
ByLayer
370
13
48
1
60
0
100
AcDbHatch
10
0
20
0
30
0
210
0
220
0
230
1
2
ANSI31
70
0
71
0
91
1
92
5
93
3
72
1
10
91.221614187425
20
-25.0250347621711
11
91.1835429143098
21
-28.555029151228
72
1
10
91.1835429143098
20
-28.555029151228
11
90.2712094809511
21
-28.4248971708969
72
1
10
90.2712094809511
20
-28.4248971708969
11
91.221614187425
21
-25.0250347621711
97
0
75
0
76
1
52
0
41
0.0062
77
0
78
1
53
45
43
0
44
0
45
-0.0139193969876572
46
0.0139193969876572
79
0
47
0
98
1
10
0
20
0
0
HATCH
5
126
100
AcDbEntity
8
2
62
256
6
ByLayer
370
13
48
1
60
0
100
AcDbHatch
10
0
20
0
30
0
210
0
220
0
230
1
2
ANSI31
70
0
71
0
91
1
92
5
93
3
72
1
10
91.5557171261425
20
-19.5625000000002
11
91.0267356576931
21
-16.0721578370243
72
1
10
91.0267356576931
20
-16.0721578370243
11
91.9481276628983
21
-16.0541745483071
72
1
10
91.9481276628983
20
-16.0541745483071
11
91.5557171261425
21
-19.5625000000002
97
0
75
0
76
1
52
0
41
0.0062
77
0
78
1
53
45
43
0
44
0
45
-0.0139193969876572
46
0.0139193969876572
79
0
47
0
98
1
10
0
20
0
0
DIMENSION
5
12A
100
AcDbEntity
8
2
62
256
6
ByLayer
370
18
48
1
60
0
100
AcDbDimension
2
_U0
10
79.795569
20
12.4375
30
0
11
79.795569
21
-3.5625
31
0
70
32
71
1
72
1
41
1
210
0
220
0
230
1
3
Standard
100
AcDbAlignedDimension
13
46.732839
23
-19.5625
33
0
14
-143.267161
24
12.4375
34
0
50
90
100
AcDbRotatedDimension
1001
ACAD
1000
DSTYLE
1002
{
1070
   371
1070
    13
1070
   372
1070
    13
1070
   170
1070
     0
1070
   144
1040
1.0
1070
   277
1070
     2
1070
   284
1070
     8
1070
   278
1070
    46
1070
   146
1040
1.0
1070
   345
1005
16
1070
   347
1005
16
1070
   346
1005
16
1070
   344
1005
0
1070
   343
1005
0
1070
   172
1070
     1
1070
    76
1070
     0
1070
    75
1070
     0
1070
   282
1070
     0
1070
   281
1070
     0
1070
    71
1070
     0
1070
    74
1070
     0
1070
   279
1070
     0
1070
   173
1070
     1
1070
   340
1005
11D
1070
   271
1070
     2
1070
   272
1070
     2
1070
    77
1070
     1
1070
    73
1070
     0
1070
   171
1070
     3
1070
   274
1070
     4
1070
   177
1070
     2
1070
   176
1070
     2
1070
   178
1070
     2
1070
    78
1070
     8
1070
    48
1040
-0.1
1070
    41
1040
3.5
1070
   147
1040
1.75
1070
    42
1040
1.5875
1070
    44
1040
2.0
1070
   140
1040
3.5
1002
}
1001
ACAD_DSTYLE_DIM_LINETYPE
1070
   380
1005
16
1001
ACAD_DSTYLE_DIM_EXT1_LINETYPE
1070
   381
1005
16
1001
ACAD_DSTYLE_DIM_EXT2_LINETYPE
1070
   382
1005
16
0
DIMENSION
5
143
100
AcDbEntity
8
SK2
62
256
6
ByLayer
370
18
48
1
60
0
100
AcDbDimension
2
_U1
10
-154.867161
20
-12.5625
30
0
11
-154.867161
21
-0.0625
31
0
70
32
71
1
72
1
41
1
210
0
220
0
230
1
3
Standard
100
AcDbAlignedDimension
13
-143.267161
23
12.4375
33
0
14
-143.267161
24
-12.5625
34
0
50
90
100
AcDbRotatedDimension
1001
ACAD
1000
DSTYLE
1002
{
1070
   371
1070
    13
1070
   372
1070
    13
1070
   170
1070
     0
1070
   144
1040
1.0
1070
   277
1070
     2
1070
   284
1070
     8
1070
   278
1070
    46
1070
   146
1040
1.0
1070
   345
1005
16
1070
   347
1005
16
1070
   346
1005
16
1070
   344
1005
0
1070
   343
1005
0
1070
   172
1070
     1
1070
    76
1070
     0
1070
    75
1070
     0
1070
   282
1070
     0
1070
   281
1070
     0
1070
    71
1070
     0
1070
    74
1070
     0
1070
   279
1070
     0
1070
   173
1070
     1
1070
   340
1005
11D
1070
   271
1070
     2
1070
   272
1070
     2
1070
    77
1070
     1
1070
    73
1070
     0
1070
   171
1070
     3
1070
   274
1070
     4
1070
   177
1070
     2
1070
   176
1070
     2
1070
   178
1070
     2
1070
    78
1070
     8
1070
    48
1040
-0.1
1070
    41
1040
3.5
1070
   147
1040
1.75
1070
    42
1040
1.5875
1070
    44
1040
2.0
1070
   140
1040
3.5
1002
}
1001
ACAD_DSTYLE_DIM_LINETYPE
1070
   380
1005
16
1001
ACAD_DSTYLE_DIM_EXT1_LINETYPE
1070
   381
1005
16
1001
ACAD_DSTYLE_DIM_EXT2_LINETYPE
1070
   382
1005
16
0
DIMENSION
5
15C
100
AcDbEntity
8
2
62
256
6
ByLayer
370
18
48
1
60
0
100
AcDbDimension
2
_U2
10
46.732839
20
18.6875
30
0
11
34.232839
21
18.6875
31
0
70
32
71
1
72
1
41
1
210
0
220
0
230
1
3
Standard
100
AcDbAlignedDimension
13
21.732839
23
-9.785181
33
0
14
46.732839
24
-19.5625
34
0
50
0
100
AcDbRotatedDimension
1001
ACAD
1000
DSTYLE
1002
{
1070
   371
1070
    13
1070
   372
1070
    13
1070
   170
1070
     0
1070
   144
1040
1.0
1070
   277
1070
     2
1070
   284
1070
     8
1070
   278
1070
    46
1070
   146
1040
1.0
1070
   345
1005
16
1070
   347
1005
16
1070
   346
1005
16
1070
   344
1005
0
1070
   343
1005
0
1070
   172
1070
     1
1070
    76
1070
     0
1070
    75
1070
     0
1070
   282
1070
     0
1070
   281
1070
     0
1070
    71
1070
     0
1070
    74
1070
     0
1070
   279
1070
     0
1070
   173
1070
     1
1070
   340
1005
11D
1070
   271
1070
     1
1070
   272
1070
     2
1070
    77
1070
     1
1070
    73
1070
     1
1070
   171
1070
     3
1070
   274
1070
     4
1070
   177
1070
     2
1070
   176
1070
     2
1070
   178
1070
     2
1070
    78
1070
     8
1070
    48
1040
-0.1
1070
    41
1040
3.5
1070
   147
1040
1.75
1070
    42
1040
1.5875
1070
    44
1040
2.0
1070
   140
1040
3.5
1002
}
1001
ACAD_DSTYLE_DIM_LINETYPE
1070
   380
1005
16
1001
ACAD_DSTYLE_DIM_EXT1_LINETYPE
1070
   381
1005
16
1001
ACAD_DSTYLE_DIM_EXT2_LINETYPE
1070
   382
1005
16
0
DIMENSION
5
174
100
AcDbEntity
8
SK2
62
256
6
ByLayer
370
18
48
1
60
0
100
AcDbDimension
2
_U3
10
46.732839
20
29.6875
30
0
11
-48.267161
21
29.6875
31
0
70
32
71
1
72
1
41
1
210
0
220
0
230
1
3
Standard
100
AcDbAlignedDimension
13
-143.267161
23
12.4375
33
0
14
46.732839
24
-19.5625
34
0
50
0
100
AcDbRotatedDimension
1001
ACAD
1000
DSTYLE
1002
{
1070
   371
1070
    13
1070
   372
1070
    13
1070
   170
1070
     0
1070
   144
1040
1.0
1070
   277
1070
     2
1070
   284
1070
     8
1070
   278
1070
    46
1070
   146
1040
1.0
1070
   345
1005
16
1070
   347
1005
16
1070
   346
1005
16
1070
   344
1005
0
1070
   343
1005
0
1070
   172
1070
     1
1070
    76
1070
     0
1070
    75
1070
     0
1070
   282
1070
     0
1070
   281
1070
     0
1070
    71
1070
     0
1070
    74
1070
     0
1070
   279
1070
     0
1070
   173
1070
     1
1070
   340
1005
11D
1070
   271
1070
     1
1070
   272
1070
     2
1070
    77
1070
     1
1070
    73
1070
     1
1070
   171
1070
     3
1070
   274
1070
     4
1070
   177
1070
     2
1070
   176
1070
     2
1070
   178
1070
     2
1070
    78
1070
     8
1070
    48
1040
-0.1
1070
    41
1040
3.5
1070
   147
1040
1.75
1070
    42
1040
1.5875
1070
    44
1040
2.0
1070
   140
1040
3.5
1002
}
1001
ACAD_DSTYLE_DIM_LINETYPE
1070
   380
1005
16
1001
ACAD_DSTYLE_DIM_EXT1_LINETYPE
1070
   381
1005
16
1001
ACAD_DSTYLE_DIM_EXT2_LINETYPE
1070
   382
1005
16
0
ENDSEC
0
SECTION
2
OBJECTS
0
DICTIONARY
5
1fb
330
0
100
AcDbDictionary
280
0
281
1
3
ACAD_GROUP
350
1fc
3
ACAD_MLINESTYLE
350
1fd
0
DICTIONARY
5
1fc
330
0
100
AcDbDictionary
280
0
281
1
0
DICTIONARY
5
1fd
330
0
100
AcDbDictionary
280
0
281
1
3
Standard
350
18
0
MLINESTYLE
5
18
330
1fd
100
AcDbMlineStyle
2
Standard
70
0
3

62
256
51
90
52
90
71
2
49
-0.5
62
256
6
ByLayer
49
0.5
62
256
6
ByLayer
0
RASTERVARIABLES
5
1ea
330

100
AcDbRasterVariables
90
0
70
1
71
1
72
1
0
ENDSEC
0
EOF
