0
SECTION
2
HEADER
9
$ACADVER
1
AC1015
9
$DWGCODEPAGE
3
ANSI_1252
9
$HANDSEED
5
2b5
9
$ANGBASE
50
0
9
$ANGDIR
70
0
9
$ATTMODE
70
1
9
$AUNITS
70
0
9
$AUPREC
70
0
9
$CECOLOR
62
256
9
$CELTSCALE
40
1
9
$CELTYPE
6
ByLayer
9
$CELWEIGHT
370
18
9
$CLAYER
8
0
9
$CMLJUST
70
0
9
$CMLSCALE
40
1
9
$CMLSTYLE
2
Standard
9
$DIMSTYLE
2
Standard
9
$TEXTSIZE
40
0.2
9
$TEXTSTYLE
7
Standard
9
$LUNITS
70
2
9
$LUPREC
70
4
9
$EXTNAMES
290
1
9
$INSUNITS
70
4
9
$LTSCALE
40
1
9
$LWDISPLAY
290
1
9
$PDMODE
70
0
9
$PDSIZE
40
0
9
$PLINEGEN
70
0
0
ENDSEC
0
SECTION
2
CLASSES
0
CLASS
1
RASTERVARIABLES
2
AcDbRasterVariables
3
ISM
90
0
280
0
281
0
0
ENDSEC
0
SECTION
2
TABLES
0
TABLE
2
VPORT
5
2ab
100
AcDbSymbolTable
0
VPORT
5
1
100
AcDbSymbolTableRecord
100
AcDbViewportTableRecord
2
*Active
70
0
10
0
20
0
11
1
21
1
12
-1
22
1
13
0
23
0
14
0.5
24
0.5
15
10
25
10
16
0
26
0
36
1
17
0
27
0
37
0
0
ENDTAB
0
TABLE
2
LTYPE
5
2ac
100
AcDbSymbolTable
0
LTYPE
5
14
100
AcDbSymbolTableRecord
100
AcDbLinetypeTableRecord
70
0
2
ByBlock
3

72
65
73
0
40
0
0
LTYPE
5
15
100
AcDbSymbolTableRecord
100
AcDbLinetypeTableRecord
70
0
2
ByLayer
3

72
65
73
0
40
0
0
LTYPE
5
16
100
AcDbSymbolTableRecord
100
AcDbLinetypeTableRecord
70
0
2
Continuous
3
Solid line
72
65
73
0
40
0
0
LTYPE
5
6E
100
AcDbSymbolTableRecord
100
AcDbLinetypeTableRecord
70
0
2
CENTER
3
____ _ ____ _ ____ _ ____
72
65
73
4
40
47.5
49
22
74
0
49
-8.5
74
0
49
8.5
74
0
49
-8.5
74
0
0
LTYPE
5
6F
100
AcDbSymbolTableRecord
100
AcDbLinetypeTableRecord
70
0
2
DASHED
3
__ __ __ __ __ __ __ __ __
72
65
73
2
40
25.72
49
12.86
74
0
49
-12.86
74
0
0
ENDTAB
0
TABLE
2
LAYER
5
2ad
100
AcDbSymbolTable
0
LAYER
5
10
100
AcDbSymbolTableRecord
100
AcDbLayerTableRecord
2
0
70
0
62
7
6
Continuous
290
1
370
-3
390
0
0
LAYER
5
71
100
AcDbSymbolTableRecord
100
AcDbLayerTableRecord
2
81
70
0
62
-3
6
Continuous
290
1
370
-3
390
0
0
LAYER
5
73
100
AcDbSymbolTableRecord
100
AcDbLayerTableRecord
2
80
70
0
62
-6
6
Continuous
290
1
370
-3
390
0
0
LAYER
5
75
100
AcDbSymbolTableRecord
100
AcDbLayerTableRecord
2
1
70
0
62
4
6
Continuous
290
1
370
-3
390
0
0
LAYER
5
119
100
AcDbSymbolTableRecord
100
AcDbLayerTableRecord
2
2
70
0
62
7
6
Continuous
290
1
370
-3
390
0
0
LAYER
5
209
100
AcDbSymbolTableRecord
100
AcDbLayerTableRecord
2
Defpoints
70
0
62
7
6
Continuous
290
0
370
-3
390
0
0
LAYER
5
298
100
AcDbSymbolTableRecord
100
AcDbLayerTableRecord
2
SK1
70
0
62
4
6
Continuous
290
1
370
-3
390
0
0
LAYER
5
299
100
AcDbSymbolTableRecord
100
AcDbLayerTableRecord
2
SK2
70
0
62
7
6
Continuous
290
1
370
-3
390
0
0
LAYER
5
29a
100
AcDbSymbolTableRecord
100
AcDbLayerTableRecord
2
SK6
70
0
62
5
6
Continuous
290
1
370
-3
390
0
0
ENDTAB
0
TABLE
2
STYLE
5
2ae
100
AcDbSymbolTable
0
STYLE
5
11
100
AcDbSymbolTableRecord
100
AcDbTextStyleTableRecord
2
Standard
3
txt
70
0
71
0
40
0
41
1
42
0
50
0
0
STYLE
5
1F0
100
AcDbSymbolTableRecord
100
AcDbTextStyleTableRecord
2
iso_b_vert
3
simplex.shx
70
0
71
0
40
0
41
1
42
0
50
0
0
STYLE
5
1F1
100
AcDbSymbolTableRecord
100
AcDbTextStyleTableRecord
2
DWGDirectTextStyle
3
simplex
70
0
71
0
40
0
41
1
42
0
50
0
0
ENDTAB
0
TABLE
2
DIMSTYLE
5
2af
100
AcDbSymbolTable
100
AcDbDimStyleTable
0
DIMSTYLE
105
27
100
AcDbSymbolTableRecord
100
AcDbDimStyleTableRecord
2
Standard
70
0
3
<>
41
0.18
42
0.0625
44
0.18
140
0.18
147
0.09
73
0
74
0
77
1
271
2
275
0
278
52
280
0
340
11
0
ENDTAB
0
TABLE
2
VIEW
5
2b0
100
AcDbSymbolTable
0
ENDTAB
0
TABLE
2
UCS
5
2b1
100
AcDbSymbolTable
0
ENDTAB
0
TABLE
2
APPID
5
2b2
100
AcDbSymbolTable
0
APPID
5
12
100
AcDbSymbolTableRecord
100
AcDbRegAppTableRecord
2
ACAD
70
0
0
APPID
5
205
100
AcDbSymbolTableRecord
100
AcDbRegAppTableRecord
2
ACAD_DSTYLE_DIMBREAK
70
0
0
APPID
5
257
100
AcDbSymbolTableRecord
100
AcDbRegAppTableRecord
2
ACAD_DSTYLE_DIM_LINETYPE
70
0
0
APPID
5
258
100
AcDbSymbolTableRecord
100
AcDbRegAppTableRecord
2
ACAD_DSTYLE_DIM_EXT1_LINETYPE
70
0
0
APPID
5
259
100
AcDbSymbolTableRecord
100
AcDbRegAppTableRecord
2
ACAD_DSTYLE_DIM_EXT2_LINETYPE
70
0
0
APPID
5
294
100
AcDbSymbolTableRecord
100
AcDbRegAppTableRecord
2
ACAD_MLEADERVER
70
0
0
ENDTAB
0
TABLE
2
BLOCK_RECORD
5
2b3
100
AcDbSymbolTable
0
BLOCK_RECORD
5
1F
100
AcDbSymbolTableRecord
100
AcDbBlockTableRecord
2
*Model_Space
340
0
70
0
0
BLOCK_RECORD
5
1B
100
AcDbSymbolTableRecord
100
AcDbBlockTableRecord
2
*Paper_Space
340
0
70
0
0
BLOCK_RECORD
5
23
100
AcDbSymbolTableRecord
100
AcDbBlockTableRecord
2
*Paper_Space0
340
0
70
0
0
BLOCK_RECORD
5
20A
100
AcDbSymbolTableRecord
100
AcDbBlockTableRecord
2
*D1
340
0
70
0
0
BLOCK_RECORD
5
217
100
AcDbSymbolTableRecord
100
AcDbBlockTableRecord
2
_U0
340
0
70
0
0
BLOCK_RECORD
5
223
100
AcDbSymbolTableRecord
100
AcDbBlockTableRecord
2
*D3
340
0
70
0
0
BLOCK_RECORD
5
230
100
AcDbSymbolTableRecord
100
AcDbBlockTableRecord
2
_U1
340
0
70
0
0
ENDTAB
0
ENDSEC
0
SECTION
2
BLOCKS
0
BLOCK
5
20
100
AcDbEntity
8
0
100
AcDbBlockBegin
2
*Model_Space
70
0
10
0
20
0
30
0
3
*Model_Space
0
ENDBLK
5
21
100
AcDbEntity
8
0
100
AcDbBlockEnd
0
BLOCK
5
1C
100
AcDbEntity
8
0
100
AcDbBlockBegin
2
*Paper_Space
70
0
10
0
20
0
30
0
3
*Paper_Space
0
ENDBLK
5
1D
100
AcDbEntity
8
0
100
AcDbBlockEnd
0
BLOCK
5
24
100
AcDbEntity
8
0
100
AcDbBlockBegin
2
*Paper_Space0
70
0
10
0
20
0
30
0
3
*Paper_Space0
0
ENDBLK
5
25
100
AcDbEntity
8
0
100
AcDbBlockEnd
0
BLOCK
5
20B
100
AcDbEntity
8
0
100
AcDbBlockBegin
2
*D1
70
1
10
0
20
0
30
0
3
*D1
0
LINE
5
20D
100
AcDbEntity
8
0
62
256
6
ByLayer
370
-2
48
1
60
0
100
AcDbLine
10
48.4125
20
1.175
30
0
11
-107.25
21
1.175
31
0
39
0
210
0
220
0
230
1
0
LINE
5
20E
100
AcDbEntity
8
0
62
256
6
ByLayer
370
-2
48
1
60
0
100
AcDbLine
10
-101.5875
20
-1.175
30
0
11
-107.25
21
-1.175
31
0
39
0
210
0
220
0
230
1
0
LINE
5
20F
100
AcDbEntity
8
0
62
256
6
ByLayer
370
-2
48
1
60
0
100
AcDbLine
10
-105.25
20
4.675
30
0
11
-105.25
21
8.175
31
0
39
0
210
0
220
0
230
1
0
LINE
5
210
100
AcDbEntity
8
0
62
256
6
ByLayer
370
-2
48
1
60
0
100
AcDbLine
10
-105.25
20
-4.675
30
0
11
-105.25
21
-8.175
31
0
39
0
210
0
220
0
230
1
0
SOLID
5
211
100
AcDbEntity
8
0
62
256
6
ByLayer
370
-1
48
1
60
0
100
AcDbTrace
10
-105.833333
20
4.675
30
0
11
-104.666667
21
4.675
31
0
12
-105.25
22
1.175
32
0
13
-105.25
23
1.175
33
0
39
0
210
0
220
0
230
1
0
SOLID
5
212
100
AcDbEntity
8
0
62
256
6
ByLayer
370
-1
48
1
60
0
100
AcDbTrace
10
-104.666667
20
-4.675
30
0
11
-105.833333
21
-4.675
31
0
12
-105.25
22
-1.175
32
0
13
-105.25
23
-1.175
33
0
39
0
210
0
220
0
230
1
0
MTEXT
5
213
100
AcDbEntity
8
0
62
256
6
ByLayer
370
18
48
1
60
0
100
AcDbMText
10
-112.25
20
0
30
0
210
0
220
0
230
1
1
\A1;2.35
40
3.5
41
0
44
1
50
90
71
5
72
5
7
iso_b_vert
0
POINT
5
214
100
AcDbEntity
8
Defpoints
62
0
6
ByLayer
370
-1
48
1
60
0
100
AcDbPoint
10
50
20
1.175
30
0
39
0
210
0
220
0
230
1
50
360
0
POINT
5
215
100
AcDbEntity
8
Defpoints
62
0
6
ByLayer
370
-1
48
1
60
0
100
AcDbPoint
10
-100
20
-1.175
30
0
39
0
210
0
220
0
230
1
50
360
0
POINT
5
216
100
AcDbEntity
8
Defpoints
62
0
6
ByLayer
370
-1
48
1
60
0
100
AcDbPoint
10
-105.25
20
-1.175
30
0
39
0
210
0
220
0
230
1
50
360
0
ENDBLK
5
20C
100
AcDbEntity
8
0
100
AcDbBlockEnd
0
BLOCK
5
21E
100
AcDbEntity
8
0
100
AcDbBlockBegin
2
_U0
70
0
10
0
20
0
30
0
3
_U0
0
MTEXT
5
218
100
AcDbEntity
8
2
62
256
6
ByLayer
370
18
48
1
60
0
100
AcDbMText
10
-105.939634
20
-3.949699
30
0
210
0
220
0
230
1
1
\W0.7346;2.35
40
3.5
41
0
44
1.084337
50
90
71
7
72
5
7
iso_b_vert
0
LINE
5
219
100
AcDbEntity
8
2
62
256
6
ByLayer
370
13
48
1
60
0
100
AcDbLine
10
48.4125
20
1.175
30
0
11
-107.25
21
1.175
31
0
39
0
210
0
220
0
230
1
0
LINE
5
21A
100
AcDbEntity
8
2
62
256
6
ByLayer
370
13
48
1
60
0
100
AcDbLine
10
-101.5875
20
-1.175
30
0
11
-107.25
21
-1.175
31
0
39
0
210
0
220
0
230
1
0
LINE
5
21B
100
AcDbEntity
8
2
62
256
6
ByLayer
370
13
48
1
60
0
100
AcDbLine
10
-105.25
20
9.925
30
0
11
-105.25
21
-9.925
31
0
39
0
210
0
220
0
230
1
0
SOLID
5
21C
100
AcDbEntity
8
2
62
256
6
ByLayer
370
18
48
1
60
0
100
AcDbTrace
10
-105.25
20
1.175
30
0
11
-105.710784
21
4.674998
31
0
12
-104.789216
22
4.675002
32
0
13
-104.789216
23
4.675002
33
0
39
0
210
0
220
0
230
1
0
SOLID
5
21D
100
AcDbEntity
8
2
62
256
6
ByLayer
370
18
48
1
60
0
100
AcDbTrace
10
-105.25
20
-1.175
30
0
11
-104.789216
21
-4.674998
31
0
12
-105.710784
22
-4.675002
32
0
13
-105.710784
23
-4.675002
33
0
39
0
210
0
220
0
230
1
0
ENDBLK
5
21F
100
AcDbEntity
8
0
100
AcDbBlockEnd
0
BLOCK
5
224
100
AcDbEntity
8
0
100
AcDbBlockBegin
2
*D3
70
1
10
0
20
0
30
0
3
*D3
0
LINE
5
226
100
AcDbEntity
8
0
62
256
6
ByLayer
370
-2
48
1
60
0
100
AcDbLine
10
46.5875
20
-1.5
30
0
11
67.75
21
-1.5
31
0
39
0
210
0
220
0
230
1
0
LINE
5
227
100
AcDbEntity
8
0
62
256
6
ByLayer
370
-2
48
1
60
0
100
AcDbLine
10
46.5875
20
1.5
30
0
11
67.75
21
1.5
31
0
39
0
210
0
220
0
230
1
0
LINE
5
228
100
AcDbEntity
8
0
62
256
6
ByLayer
370
-2
48
1
60
0
100
AcDbLine
10
65.75
20
-5
30
0
11
65.75
21
-8.5
31
0
39
0
210
0
220
0
230
1
0
LINE
5
229
100
AcDbEntity
8
0
62
256
6
ByLayer
370
-2
48
1
60
0
100
AcDbLine
10
65.75
20
5
30
0
11
65.75
21
8.5
31
0
39
0
210
0
220
0
230
1
0
SOLID
5
22A
100
AcDbEntity
8
0
62
256
6
ByLayer
370
-1
48
1
60
0
100
AcDbTrace
10
66.333333
20
-5
30
0
11
65.166667
21
-5
31
0
12
65.75
22
-1.5
32
0
13
65.75
23
-1.5
33
0
39
0
210
0
220
0
230
1
0
SOLID
5
22B
100
AcDbEntity
8
0
62
256
6
ByLayer
370
-1
48
1
60
0
100
AcDbTrace
10
65.166667
20
5
30
0
11
66.333333
21
5
31
0
12
65.75
22
1.5
32
0
13
65.75
23
1.5
33
0
39
0
210
0
220
0
230
1
0
MTEXT
5
22C
100
AcDbEntity
8
0
62
256
6
ByLayer
370
18
48
1
60
0
100
AcDbMText
10
58.75
20
0
30
0
210
0
220
0
230
1
1
\A1;3
40
3.5
41
0
44
1
50
90
71
5
72
5
7
iso_b_vert
0
POINT
5
22D
100
AcDbEntity
8
Defpoints
62
0
6
ByLayer
370
-1
48
1
60
0
100
AcDbPoint
10
45
20
-1.5
30
0
39
0
210
0
220
0
230
1
50
360
0
POINT
5
22E
100
AcDbEntity
8
Defpoints
62
0
6
ByLayer
370
-1
48
1
60
0
100
AcDbPoint
10
45
20
1.5
30
0
39
0
210
0
220
0
230
1
50
360
0
POINT
5
22F
100
AcDbEntity
8
Defpoints
62
0
6
ByLayer
370
-1
48
1
60
0
100
AcDbPoint
10
65.75
20
1.5
30
0
39
0
210
0
220
0
230
1
50
360
0
ENDBLK
5
225
100
AcDbEntity
8
0
100
AcDbBlockEnd
0
BLOCK
5
237
100
AcDbEntity
8
0
100
AcDbBlockBegin
2
_U1
70
0
10
0
20
0
30
0
3
_U1
0
MTEXT
5
231
100
AcDbEntity
8
2
62
256
6
ByLayer
370
18
48
1
60
0
100
AcDbMText
10
65.060366
20
-0.625233
30
0
210
0
220
0
230
1
1
\W0.5404;3
40
3.5
41
0
44
1.084337
50
90
71
7
72
5
7
iso_b_vert
0
LINE
5
232
100
AcDbEntity
8
2
62
256
6
ByLayer
370
13
48
1
60
0
100
AcDbLine
10
46.5875
20
-1.5
30
0
11
67.75
21
-1.5
31
0
39
0
210
0
220
0
230
1
0
LINE
5
233
100
AcDbEntity
8
2
62
256
6
ByLayer
370
13
48
1
60
0
100
AcDbLine
10
46.5875
20
1.5
30
0
11
67.75
21
1.5
31
0
39
0
210
0
220
0
230
1
0
LINE
5
234
100
AcDbEntity
8
2
62
256
6
ByLayer
370
13
48
1
60
0
100
AcDbLine
10
65.75
20
-10.25
30
0
11
65.75
21
10.25
31
0
39
0
210
0
220
0
230
1
0
SOLID
5
235
100
AcDbEntity
8
2
62
256
6
ByLayer
370
18
48
1
60
0
100
AcDbTrace
10
65.75
20
-1.5
30
0
11
66.210784
21
-4.999998
31
0
12
65.289216
22
-5.000002
32
0
13
65.289216
23
-5.000002
33
0
39
0
210
0
220
0
230
1
0
SOLID
5
236
100
AcDbEntity
8
2
62
256
6
ByLayer
370
18
48
1
60
0
100
AcDbTrace
10
65.75
20
1.5
30
0
11
65.289216
21
4.999998
31
0
12
66.210784
22
5.000002
32
0
13
66.210784
23
5.000002
33
0
39
0
210
0
220
0
230
1
0
ENDBLK
5
238
100
AcDbEntity
8
0
100
AcDbBlockEnd
0
ENDSEC
0
SECTION
2
ENTITIES
0
ELLIPSE
5
122
100
AcDbEntity
8
1
62
256
6
ByLayer
370
18
48
1
60
0
100
AcDbEllipse
10
41.782449
20
-1.45
30
0
11
-7.47280926374772E-16
21
-0.2
31
0
210
0
220
0
230
1
40
1
41
3.06326125373329
42
3.14155644897434
0
ELLIPSE
5
123
100
AcDbEntity
8
1
62
256
6
ByLayer
370
18
48
1
60
0
100
AcDbEllipse
10
41.782449
20
1.45
30
0
11
-7.47280926374772E-16
21
-0.2
31
0
210
0
220
0
230
1
40
0.999999
41
4.11509546389574E-06
42
0.0871082921511713
0
ELLIPSE
5
124
100
AcDbEntity
8
1
62
256
6
ByLayer
370
18
48
1
60
0
100
AcDbEllipse
10
46.913415
20
0
30
0
11
0.614713774863182
21
-2.88043402452532E-15
31
0
210
0
220
0
230
1
40
0.976064
41
2.42167771749016
42
-2.42167619053653
0
ELLIPSE
5
125
100
AcDbEntity
8
1
62
256
6
ByLayer
370
18
48
1
60
0
100
AcDbEllipse
10
45.885358
20
0
30
0
11
-2.24184277911643E-15
21
-0.59999999999789
31
0
210
0
220
0
230
1
40
0.996608
41
-2.04557991779695
42
-1.09601273579285
0
ELLIPSE
5
126
100
AcDbEntity
8
1
62
256
6
ByLayer
370
18
48
1
60
0
100
AcDbEllipse
10
45.948394
20
0
30
0
11
0.668839619151363
21
-3.13405762931364E-15
31
0
210
0
220
0
230
1
40
0.897076
41
-2.66680906258957
42
2.66680906258955
0
ELLIPSE
5
127
100
AcDbEntity
8
1
62
256
6
ByLayer
370
18
48
1
60
0
100
AcDbEllipse
10
41.504265
20
-0.048824
30
0
11
-0.159626665871387
21
5.86655822269152E-16
31
0
210
0
220
0
230
1
40
0.939693
41
1.95476876223378
42
3.14159265358979
0
ELLIPSE
5
128
100
AcDbEntity
8
1
62
256
6
ByLayer
370
18
48
1
60
0
100
AcDbEllipse
10
41.504265
20
0.048824
30
0
11
-0.159626665871387
21
5.86655822269152E-16
31
0
210
0
220
0
230
1
40
0.939693
41
3.14159265358979
42
-1.95476876223378
0
ELLIPSE
5
129
100
AcDbEntity
8
1
62
256
6
ByLayer
370
18
48
1
60
0
100
AcDbEllipse
10
37.204184
20
0
30
0
11
2.06916072368611
21
0
31
0
210
0
220
0
230
1
40
0.289973
41
-0.90485180651895
42
0.904851806518946
0
ELLIPSE
5
12A
100
AcDbEntity
8
1
62
256
6
ByLayer
370
18
48
1
60
0
100
AcDbEllipse
10
45.000038
20
-137.833293
30
0
11
3.38467283481303E-05
21
-167.942497043063
31
0
210
0
220
0
230
1
40
0.267949
41
-2.54581729338995
42
-2.53346154338556
0
ELLIPSE
5
12B
100
AcDbEntity
8
1
62
256
6
ByLayer
370
18
48
1
60
0
100
AcDbEllipse
10
45.000084
20
137.833541
30
0
11
7.43723525975456E-05
21
167.942749853589
31
0
210
0
220
0
230
1
40
0.267949
41
2.53346203219892
42
2.54581777113243
0
ELLIPSE
5
12C
100
AcDbEntity
8
1
62
256
6
ByLayer
370
13
48
1
60
0
100
AcDbEllipse
10
39.6
20
1.269586
30
0
11
0.999999999918163
21
-4.68581336888163E-15
31
0
210
0
220
0
230
1
40
0.46444
41
-3.09940852599958
42
-2.93650190660272
0
ELLIPSE
5
12D
100
AcDbEntity
8
1
62
256
6
ByLayer
370
13
48
1
60
0
100
AcDbEllipse
10
39.6
20
-1.269586
30
0
11
0.999999999891272
21
-4.68581336875562E-15
31
0
210
0
220
0
230
1
40
0.46444
41
2.93650190660008
42
3.09940852599921
0
ELLIPSE
5
12E
100
AcDbEntity
8
1
62
256
6
ByLayer
370
13
48
1
60
0
100
AcDbEllipse
10
44.940074
20
0.482663
30
0
11
0.215622156674618
21
-0.208583521762834
31
0
210
0
220
0
230
1
40
0.886446
41
0.000377509688777759
42
0.224115849925516
0
ELLIPSE
5
12F
100
AcDbEntity
8
1
62
256
6
ByLayer
370
13
48
1
60
0
100
AcDbEllipse
10
44.940074
20
-0.482663
30
0
11
-0.215622156674608
21
-0.208583521762843
31
0
210
0
220
0
230
1
40
0.886446
41
2.91747680366418
42
-3.14143243575333
0
ELLIPSE
5
130
100
AcDbEntity
8
1
62
256
6
ByLayer
370
13
48
1
60
0
100
AcDbEllipse
10
44.936776
20
-0.479243
30
0
11
0.216278100403011
21
0.207903302730055
31
0
210
0
220
0
230
1
40
0.887173
41
-0.225455697619054
42
0.00307597418668565
0
ELLIPSE
5
131
100
AcDbEntity
8
1
62
256
6
ByLayer
370
13
48
1
60
0
100
AcDbEllipse
10
44.936776
20
0.479243
30
0
11
0.216278100402979
21
-0.207903302730089
31
0
210
0
220
0
230
1
40
0.887173
41
-0.00056988807407208
42
0.22545569761912
0
ELLIPSE
5
132
100
AcDbEntity
8
1
62
256
6
ByLayer
370
13
48
1
60
0
100
AcDbEllipse
10
45.3
20
0.834465
30
0
11
0.3
21
0
31
0
210
0
220
0
230
1
40
0.99879
41
-1.18983361619727
42
-3.70522673977235E-16
0
ELLIPSE
5
133
100
AcDbEntity
8
1
62
256
6
ByLayer
370
13
48
1
60
0
100
AcDbEllipse
10
45.3
20
1E-06
30
0
11
2.11268434391916E-07
21
-0.599999177503373
31
0
210
0
220
0
230
1
40
0.496273
41
2.71076802502776
42
2.75761978948951
0
ELLIPSE
5
134
100
AcDbEntity
8
1
62
256
6
ByLayer
370
13
48
1
60
0
100
AcDbEllipse
10
41.546042
20
0.004698
30
0
11
0.204971695501128
21
0.00340647081199877
31
0
210
0
220
0
230
1
40
0.992252
41
0
42
1.22710562745252
0
ELLIPSE
5
135
100
AcDbEntity
8
1
62
256
6
ByLayer
370
13
48
1
60
0
100
AcDbEllipse
10
41.546042
20
-0.004698
30
0
11
0.204971695501128
21
-0.00340647081200029
31
0
210
0
220
0
230
1
40
0.992252
41
-1.2271056274524
42
-2.6878144444798E-13
0
ELLIPSE
5
136
100
AcDbEntity
8
1
62
256
6
ByLayer
370
13
48
1
60
0
100
AcDbEllipse
10
39.6
20
1.269586
30
0
11
0.999999999948982
21
-4.68581336902604E-15
31
0
210
0
220
0
230
1
40
0.357276
41
-3.08674422611959
42
-2.87365744176939
0
ELLIPSE
5
137
100
AcDbEntity
8
1
62
256
6
ByLayer
370
13
48
1
60
0
100
AcDbEllipse
10
39.6
20
-1.269586
30
0
11
0.9999999999396
21
-4.68581336898208E-15
31
0
210
0
220
0
230
1
40
0.357276
41
2.87365744176816
42
3.08674422611939
0
ELLIPSE
5
138
100
AcDbEntity
8
1
62
256
6
ByLayer
370
13
48
1
60
0
100
AcDbEllipse
10
45.3
20
-0.834465
30
0
11
-0.3
21
1.10255229425482E-15
31
0
210
0
220
0
230
1
40
0.99879
41
-3.14159265358979
42
-1.95175903739252
0
ELLIPSE
5
139
100
AcDbEntity
8
1
62
256
6
ByLayer
370
13
48
1
60
0
100
AcDbEllipse
10
45.343304
20
-0.821836
30
0
11
0.218032823884696
21
0.122317977864519
31
0
210
0
220
0
230
1
40
0.430409
41
0.0272408272676552
42
0.733289149429492
0
ELLIPSE
5
13A
100
AcDbEntity
8
1
62
256
6
ByLayer
370
13
48
1
60
0
100
AcDbEllipse
10
45.343304
20
0.821836
30
0
11
-0.218032823884693
21
0.122317977864525
31
0
210
0
220
0
230
1
40
0.430409
41
2.40830350416021
42
3.11435182632227
0
ELLIPSE
5
13B
100
AcDbEntity
8
1
62
256
6
ByLayer
370
13
48
1
60
0
100
AcDbEllipse
10
45.270163
20
0.834465
30
0
11
-0.10636877417581
21
0.280509685893973
31
0
210
0
220
0
230
1
40
0.382745
41
-3.09215663061167
42
-2.42943703417868
0
ELLIPSE
5
13C
100
AcDbEntity
8
1
62
256
6
ByLayer
370
13
48
1
60
0
100
AcDbEllipse
10
45.270163
20
-0.834465
30
0
11
0.106368774175814
21
0.280509685893972
31
0
210
0
220
0
230
1
40
0.382745
41
-0.712155619411293
42
-0.0494360229778783
0
ELLIPSE
5
13D
100
AcDbEntity
8
1
62
256
6
ByLayer
370
18
48
1
60
0
100
AcDbEllipse
10
45.593147
20
0
30
0
11
2.72926243244265E-09
21
0.599999995523295
31
0
210
0
220
0
230
1
40
0.673637
41
0.430824169644263
42
0.603277912523659
0
ELLIPSE
5
13E
100
AcDbEntity
8
1
62
256
6
ByLayer
370
13
48
1
60
0
100
AcDbEllipse
10
45.3
20
0
30
0
11
1.13939272691054E-07
21
0.599999557158047
31
0
210
0
220
0
230
1
40
0.496273
41
-2.7576199872276
42
-2.71076823881539
0
ELLIPSE
5
13F
100
AcDbEntity
8
1
62
256
6
ByLayer
370
18
48
1
60
0
100
AcDbEllipse
10
45.593147
20
0
30
0
11
4.62273082707989E-09
21
0.600000007632006
31
0
210
0
220
0
230
1
40
0.673637
41
2.53831475525462
42
2.71076849614943
0
ELLIPSE
5
140
100
AcDbEntity
8
1
62
256
6
ByLayer
370
13
48
1
60
0
100
AcDbEllipse
10
45.042309
20
-0.706933
30
0
11
0.185251381899676
21
0.235970179269035
31
0
210
0
220
0
230
1
40
0.024816
41
0.0755181062571917
42
0.649813656087619
0
ELLIPSE
5
141
100
AcDbEntity
8
1
62
256
6
ByLayer
370
13
48
1
60
0
100
AcDbEllipse
10
45.042309
20
0.706933
30
0
11
-0.185251381899649
21
0.235970179269056
31
0
210
0
220
0
230
1
40
0.024816
41
2.49177899750268
42
3.06607454733481
0
ELLIPSE
5
142
100
AcDbEntity
8
1
62
256
6
ByLayer
370
13
48
1
60
0
100
AcDbEllipse
10
45.35
20
-0.847896
30
0
11
-0.25
21
9.18793578545685E-16
31
0
210
0
220
0
230
1
40
0.716565
41
3.14159265358979
42
-2.10516294826005
0
ELLIPSE
5
143
100
AcDbEntity
8
1
62
256
6
ByLayer
370
13
48
1
60
0
100
AcDbEllipse
10
45.35
20
0.847896
30
0
11
0.25
21
0
31
0
210
0
220
0
230
1
40
0.716565
41
-1.03642970532974
42
-6.19747280218909E-16
0
ELLIPSE
5
144
100
AcDbEntity
8
1
62
256
6
ByLayer
370
13
48
1
60
0
100
AcDbEllipse
10
44.731477
20
-0.288572
30
0
11
0.277807685913358
21
0.113238198711677
31
0
210
0
220
0
230
1
40
0.448652
41
-0.482879683781888
42
-0.129526115048164
0
ELLIPSE
5
145
100
AcDbEntity
8
1
62
256
6
ByLayer
370
13
48
1
60
0
100
AcDbEllipse
10
44.731477
20
0.288572
30
0
11
0.277807685914776
21
-0.113238198708196
31
0
210
0
220
0
230
1
40
0.448652
41
0.129526115049834
42
0.482879683776682
0
ELLIPSE
5
146
100
AcDbEntity
8
1
62
256
6
ByLayer
370
13
48
1
60
0
100
AcDbEllipse
10
45.357062
20
1.061383
30
0
11
-0.105265981741878
21
0.215682806658108
31
0
210
0
220
0
230
1
40
0.655509
41
-2.48880390239095
42
-1.93279707018513
0
ELLIPSE
5
147
100
AcDbEntity
8
1
62
256
6
ByLayer
370
13
48
1
60
0
100
AcDbEllipse
10
45.357062
20
-1.061383
30
0
11
-0.105265981741879
21
-0.215682806658107
31
0
210
0
220
0
230
1
40
0.655509
41
1.93279707018513
42
2.48880390239098
0
ELLIPSE
5
148
100
AcDbEntity
8
1
62
256
6
ByLayer
370
18
48
1
60
0
100
AcDbEllipse
10
45.35
20
1.341309
30
0
11
0.249996922432998
21
0.017697667287417
31
0
210
0
220
0
230
1
40
0.070092
41
-0.00496191395625306
42
0.781655708977425
0
ELLIPSE
5
149
100
AcDbEntity
8
1
62
256
6
ByLayer
370
18
48
1
60
0
100
AcDbEllipse
10
45.35
20
-1.341309
30
0
11
0.249996922450664
21
-0.0176976672892232
31
0
210
0
220
0
230
1
40
0.070092
41
-0.781655708948088
42
0.00496191395443527
0
ELLIPSE
5
14A
100
AcDbEntity
8
1
62
256
6
ByLayer
370
13
48
1
60
0
100
AcDbEllipse
10
45.355302
20
-1.061022
30
0
11
-0.00744334576048907
21
0.239884548489247
31
0
210
0
220
0
230
1
40
0.707703
41
-1.5433346513936
42
-0.890209515941731
0
ELLIPSE
5
14B
100
AcDbEntity
8
1
62
256
6
ByLayer
370
13
48
1
60
0
100
AcDbEllipse
10
45.355302
20
1.061022
30
0
11
-0.00744334576049083
21
-0.239884548489247
31
0
210
0
220
0
230
1
40
0.707703
41
0.89020951594165
42
1.54333465139357
0
ELLIPSE
5
14C
100
AcDbEntity
8
1
62
256
6
ByLayer
370
13
48
1
60
0
100
AcDbEllipse
10
45.252152
20
1.059701
30
0
11
0.0129292648640048
21
-0.239651484681561
31
0
210
0
220
0
230
1
40
0.705254
41
0.802472791623927
42
1.48332441859008
0
ELLIPSE
5
14D
100
AcDbEntity
8
1
62
256
6
ByLayer
370
13
48
1
60
0
100
AcDbEllipse
10
45.252152
20
-1.059701
30
0
11
0.0129292648640066
21
0.239651484681561
31
0
210
0
220
0
230
1
40
0.705254
41
-1.48332441859008
42
-0.802472791623805
0
ELLIPSE
5
14E
100
AcDbEntity
8
1
62
256
6
ByLayer
370
13
48
1
60
0
100
AcDbEllipse
10
41.198229
20
1.108953
30
0
11
-0.0913882981922495
21
-0.0405977703023761
31
0
210
0
220
0
230
1
40
0.179349
41
-1.07543914650997
42
-0.334417906793554
0
ELLIPSE
5
14F
100
AcDbEntity
8
1
62
256
6
ByLayer
370
13
48
1
60
0
100
AcDbEllipse
10
41.198229
20
-1.108953
30
0
11
-0.0913882981922492
21
0.0405977703023768
31
0
210
0
220
0
230
1
40
0.179349
41
0.334417906793273
42
1.07543914651013
0
ELLIPSE
5
150
100
AcDbEntity
8
1
62
256
6
ByLayer
370
13
48
1
60
0
100
AcDbEllipse
10
41.590466
20
-0.437086
30
0
11
0.224575682401174
21
-0.0350965006802646
31
0
210
0
220
0
230
1
40
0.876749
41
2.16787998689239
42
2.98201262796732
0
ELLIPSE
5
151
100
AcDbEntity
8
1
62
256
6
ByLayer
370
13
48
1
60
0
100
AcDbEllipse
10
41.590466
20
0.437086
30
0
11
0.224575682385988
21
0.0350965006276322
31
0
210
0
220
0
230
1
40
0.876749
41
-2.98201262777268
42
-2.16787998664795
0
ELLIPSE
5
152
100
AcDbEntity
8
1
62
256
6
ByLayer
370
13
48
1
60
0
100
AcDbEllipse
10
41.543598
20
0.419668
30
0
11
0.132325628802372
21
0.015560112295002
31
0
210
0
220
0
230
1
40
0.746507
41
-2.96185273172891
42
-2.14772009062976
0
ELLIPSE
5
153
100
AcDbEntity
8
1
62
256
6
ByLayer
370
13
48
1
60
0
100
AcDbEllipse
10
41.528025
20
-0.345805
30
0
11
-0.0328940156646538
21
0.0944350768171103
31
0
210
0
220
0
230
1
40
0.406497
41
0.153479571104943
42
1.24649049708901
0
ELLIPSE
5
154
100
AcDbEntity
8
1
62
256
6
ByLayer
370
13
48
1
60
0
100
AcDbEllipse
10
42.714396
20
-2.080126
30
0
11
2.60689198010488
21
-0.31208495131873
31
0
210
0
220
0
230
1
40
0.757793
41
2.13459855372425
42
2.148169698941
0
ELLIPSE
5
155
100
AcDbEntity
8
1
62
256
6
ByLayer
370
13
48
1
60
0
100
AcDbEllipse
10
41.528025
20
0.345805
30
0
11
-0.0328940156646545
21
-0.09443507681711
31
0
210
0
220
0
230
1
40
0.406497
41
-1.24649049708908
42
-0.153479571104954
0
ELLIPSE
5
156
100
AcDbEntity
8
1
62
256
6
ByLayer
370
13
48
1
60
0
100
AcDbEllipse
10
42.714548
20
2.080356
30
0
11
2.60707178885383
21
0.312375330209252
31
0
210
0
220
0
230
1
40
0.757813
41
-2.14827488560387
42
-2.13470459277724
0
ELLIPSE
5
157
100
AcDbEntity
8
1
62
256
6
ByLayer
370
13
48
1
60
0
100
AcDbEllipse
10
42.6675
20
2.062666
30
0
11
2.51414110823475
21
0.295572660073491
31
0
210
0
220
0
230
1
40
0.746502
41
-2.14769398077532
42
-2.13412266975019
0
ELLIPSE
5
158
100
AcDbEntity
8
1
62
256
6
ByLayer
370
13
48
1
60
0
100
AcDbEllipse
10
42.667462
20
-2.06261
30
0
11
2.5140961927729
21
-0.295504577511623
31
0
210
0
220
0
230
1
40
0.746497
41
2.13409684757297
42
2.14766837667994
0
ELLIPSE
5
159
100
AcDbEntity
8
1
62
256
6
ByLayer
370
13
48
1
60
0
100
AcDbEllipse
10
41.543598
20
-0.419668
30
0
11
0.132325628793631
21
-0.0155601122849075
31
0
210
0
220
0
230
1
40
0.746507
41
2.14772009053997
42
2.96185273167437
0
ELLIPSE
5
15A
100
AcDbEntity
8
1
62
256
6
ByLayer
370
13
48
1
60
0
100
AcDbEllipse
10
41.558365
20
0.335435
30
0
11
-0.0317934266722987
21
-0.0948112758084879
31
0
210
0
220
0
230
1
40
0.40973
41
-1.25123738844885
42
-0.149012201295612
0
ELLIPSE
5
15B
100
AcDbEntity
8
1
62
256
6
ByLayer
370
13
48
1
60
0
100
AcDbEllipse
10
41.558365
20
-0.335435
30
0
11
-0.031793426672298
21
0.0948112758084882
31
0
210
0
220
0
230
1
40
0.40973
41
0.149012201294953
42
1.25123738844892
0
ELLIPSE
5
15C
100
AcDbEntity
8
1
62
256
6
ByLayer
370
13
48
1
60
0
100
AcDbEllipse
10
41.648704
20
-0.308566
30
0
11
-0.0249467370181223
21
0.0968383204736051
31
0
210
0
220
0
230
1
40
0.614454
41
0.157322652930596
42
1.16674817605287
0
ELLIPSE
5
15D
100
AcDbEntity
8
1
62
256
6
ByLayer
370
13
48
1
60
0
100
AcDbEllipse
10
41.648704
20
0.308566
30
0
11
-0.024946737018123
21
-0.0968383204736049
31
0
210
0
220
0
230
1
40
0.614454
41
-1.16674817605264
42
-0.15732265292969
0
ELLIPSE
5
15E
100
AcDbEntity
8
1
62
256
6
ByLayer
370
13
48
1
60
0
100
AcDbEllipse
10
41.784994
20
-0.228052
30
0
11
-0.0748448907520715
21
0.0663192455348407
31
0
210
0
220
0
230
1
40
0.697349
41
0.105335255847098
42
0.506662271757418
0
ELLIPSE
5
15F
100
AcDbEntity
8
1
62
256
6
ByLayer
370
13
48
1
60
0
100
AcDbEllipse
10
41.545965
20
0.008119
30
0
11
0.204919776428591
21
0.00573456436497861
31
0
210
0
220
0
230
1
40
0.992188
41
0
42
1.2158345666476
0
ELLIPSE
5
160
100
AcDbEntity
8
1
62
256
6
ByLayer
370
13
48
1
60
0
100
AcDbEllipse
10
41.784994
20
0.228052
30
0
11
-0.074844890752072
21
-0.0663192455348401
31
0
210
0
220
0
230
1
40
0.697349
41
-0.506662271757443
42
-0.105335255847268
0
ELLIPSE
5
161
100
AcDbEntity
8
1
62
256
6
ByLayer
370
13
48
1
60
0
100
AcDbEllipse
10
41.545965
20
-0.008119
30
0
11
0.204919776428591
21
-0.00573456436497979
31
0
210
0
220
0
230
1
40
0.992188
41
-1.21583456664771
42
-6.51592059434788E-15
0
ELLIPSE
5
162
100
AcDbEntity
8
1
62
256
6
ByLayer
370
13
48
1
60
0
100
AcDbEllipse
10
38.879508
20
1.05
30
0
11
3.2577380715268
21
-1.08779721592366E-09
31
0
210
0
220
0
230
1
40
0.061392
41
0
42
0.071465896141982
0
ELLIPSE
5
163
100
AcDbEntity
8
1
62
256
6
ByLayer
370
13
48
1
60
0
100
AcDbEllipse
10
38.879508
20
-1.05
30
0
11
3.25773816504202
21
8.30977126745039E-10
31
0
210
0
220
0
230
1
40
0.061392
41
-0.0714658951106099
42
-4.44091293907755E-15
0
ELLIPSE
5
164
100
AcDbEntity
8
1
62
256
6
ByLayer
370
13
48
1
60
0
100
AcDbEllipse
10
42.128931
20
-1.078562
30
0
11
-0.172778142297957
21
0.10073586026866
31
0
210
0
220
0
230
1
40
0.061726
41
-1.6762735922131
42
-1.53482331182254
0
ELLIPSE
5
165
100
AcDbEntity
8
1
62
256
6
ByLayer
370
13
48
1
60
0
100
AcDbEllipse
10
41.807823
20
-1.45
30
0
11
7.6719772028333E-16
21
0.2
31
0
210
0
220
0
230
1
40
0.672759
41
-0.13439966688725
42
0
0
ELLIPSE
5
166
100
AcDbEntity
8
1
62
256
6
ByLayer
370
13
48
1
60
0
100
AcDbEllipse
10
41.807823
20
1.45
30
0
11
-7.47280926374772E-16
21
-0.2
31
0
210
0
220
0
230
1
40
0.672759
41
0
42
0.134399666887267
0
ELLIPSE
5
167
100
AcDbEntity
8
1
62
256
6
ByLayer
370
13
48
1
60
0
100
AcDbEllipse
10
42.128931
20
1.078562
30
0
11
-0.17277814229802
21
-0.100735860268551
31
0
210
0
220
0
230
1
40
0.061726
41
1.53482331182169
42
1.67627359221243
0
ELLIPSE
5
168
100
AcDbEntity
8
1
62
256
6
ByLayer
370
18
48
1
60
0
100
AcDbEllipse
10
44.963259
20
-1.003257
30
0
11
0.0964819477628538
21
0.026291324726722
31
0
210
0
220
0
230
1
40
0.846768
41
-0.230582190455515
42
-0.00413718002170788
0
ELLIPSE
5
169
100
AcDbEntity
8
1
62
256
6
ByLayer
370
18
48
1
60
0
100
AcDbEllipse
10
45.397018
20
-0.73707
30
0
11
-1.49456185274954E-15
21
-0.4
31
0
210
0
220
0
230
1
40
0.992546
41
-1.5707963267949
42
-1.50150186307725
0
ELLIPSE
5
16A
100
AcDbEntity
8
1
62
256
6
ByLayer
370
18
48
1
60
0
100
AcDbEllipse
10
45.397018
20
0.73707
30
0
11
-1.49456185274954E-15
21
-0.4
31
0
210
0
220
0
230
1
40
0.992546
41
-1.64009079051255
42
-1.5707963267949
0
ELLIPSE
5
16B
100
AcDbEntity
8
1
62
256
6
ByLayer
370
13
48
1
60
0
100
AcDbEllipse
10
38.903881
20
1.05
30
0
11
3.25773881415017
21
1.10811731406069E-09
31
0
210
0
220
0
230
1
40
0.122785
41
0
42
0.0714658879301942
0
ELLIPSE
5
16C
100
AcDbEntity
8
1
62
256
6
ByLayer
370
13
48
1
60
0
100
AcDbEllipse
10
38.903881
20
-1.05
30
0
11
3.25773881307672
21
-1.10340185724105E-09
31
0
210
0
220
0
230
1
40
0.122785
41
-0.0714658879421549
42
-2.22043794374352E-15
0
POINT
5
70
100
AcDbEntity
8
81
62
256
6
ByLayer
370
18
48
1
60
0
100
AcDbPoint
10
45
20
0
30
0
39
0
210
0
220
0
230
1
50
360
0
POINT
5
72
100
AcDbEntity
8
80
62
256
6
ByLayer
370
18
48
1
60
0
100
AcDbPoint
10
0
20
0
30
0
39
0
210
0
220
0
230
1
50
360
0
POINT
5
74
100
AcDbEntity
8
1
62
256
6
ByLayer
370
18
48
1
60
1
100
AcDbPoint
10
50
20
1.175
30
0
39
0
210
0
220
0
230
1
50
360
0
POINT
5
76
100
AcDbEntity
8
1
62
256
6
ByLayer
370
18
48
1
60
1
100
AcDbPoint
10
-100
20
-1.175
30
0
39
0
210
0
220
0
230
1
50
360
0
POINT
5
77
100
AcDbEntity
8
1
62
256
6
ByLayer
370
18
48
1
60
1
100
AcDbPoint
10
45
20
-1.5
30
0
39
0
210
0
220
0
230
1
50
360
0
POINT
5
78
100
AcDbEntity
8
1
62
256
6
ByLayer
370
18
48
1
60
1
100
AcDbPoint
10
45
20
1.5
30
0
39
0
210
0
220
0
230
1
50
360
0
SPLINE
5
16D
100
AcDbEntity
8
1
62
256
6
ByLayer
370
18
48
1
60
0
100
AcDbSpline
70
4
71
1
72
4
73
2
40
0
40
0
40
1
40
1
41
1
10
45.1864602219017
20
-0.305478126358651
30
0
41
1
10
45.1468684019543
20
-0.264979264632274
30
0
0
SPLINE
5
16E
100
AcDbEntity
8
1
62
256
6
ByLayer
370
18
48
1
60
0
100
AcDbSpline
70
4
71
2
72
6
73
3
40
0
40
0
40
0
40
1
40
1
40
1
41
1
10
45.1468684019543
20
0.264979264632018
30
0
41
1
10
45.1635097966518
20
0.282681134290783
30
0
41
1
10
45.1862423137082
20
0.305181788882805
30
0
0
SPLINE
5
16F
100
AcDbEntity
8
1
62
256
6
ByLayer
370
18
48
1
60
0
100
AcDbSpline
70
4
71
2
72
6
73
3
40
0
40
0
40
0
40
1
40
1
40
1
41
1
10
45.1530485248038
20
0.271332029244405
30
0
41
1
10
45.1543518142371
20
0.272700035680572
30
0
41
1
10
45.1556943968889
20
0.274070491907565
30
0
0
SPLINE
5
170
100
AcDbEntity
8
1
62
256
6
ByLayer
370
18
48
1
60
0
100
AcDbSpline
70
4
71
2
72
6
73
3
40
0
40
0
40
0
40
1
40
1
40
1
41
1
10
45.1557019877396
20
-0.27408368329489
30
0
41
1
10
45.1543597246217
20
-0.272707999449182
30
0
41
1
10
45.1530563557953
20
-0.27133483536764
30
0
0
SPLINE
5
171
100
AcDbEntity
8
1
62
256
6
ByLayer
370
18
48
1
60
0
100
AcDbSpline
70
4
71
1
72
4
73
2
40
0
40
0
40
1
40
1
41
1
10
45.0814434791519
20
-1.09514396849977
30
0
41
1
10
45.0785267138774
20
-1.06409179490492
30
0
0
SPLINE
5
172
100
AcDbEntity
8
1
62
256
6
ByLayer
370
18
48
1
60
0
100
AcDbSpline
70
4
71
3
72
13
73
9
40
0
40
0
40
0
40
0
40
0.111820563637142
40
0.29335770650109
40
0.543911891906577
40
0.797463401867697
40
0.992911700523813
40
1
40
1
40
1
40
1
41
1
10
45.1524227297761
20
-0.270615901197573
30
0
41
1
10
45.152139674796
20
-0.270569730360933
30
0
41
1
10
45.1494252572008
20
-0.267322410843604
30
0
41
1
10
45.1311924792329
20
-0.243949351170102
30
0
41
1
10
45.101227888218
20
-0.19269074491649
30
0
41
1
10
45.0748322934515
20
-0.114065288724703
30
0
41
1
10
45.061906678518
20
-0.0509476873361336
30
0
41
1
10
45.0630480982775
20
-0.0223904775055246
30
0
41
1
10
45.063092850688
20
-0.0213892851432433
30
0
0
SPLINE
5
173
100
AcDbEntity
8
1
62
256
6
ByLayer
370
18
48
1
60
0
100
AcDbSpline
70
4
71
3
72
12
73
8
40
0
40
0
40
0
40
0
40
0.176025917805429
40
0.365391893209365
40
0.584792113953284
40
0.850326105556094
40
1
40
1
40
1
40
1
41
1
10
45.063092850688
20
-0.0213892851432433
30
0
41
1
10
45.06205442178
20
0.0072106134462615
30
0
41
1
10
45.0639113022386
20
0.0634319126943126
30
0
41
1
10
45.0835774382779
20
0.147083355473058
30
0
41
1
10
45.1150751101147
20
0.2197938253735
30
0
41
1
10
45.1450238393044
20
0.262112845445586
30
0
41
1
10
45.1515569385652
20
0.270418280983819
30
0
41
1
10
45.1528854130332
20
0.271134540031227
30
0
0
SPLINE
5
174
100
AcDbEntity
8
1
62
256
6
ByLayer
370
18
48
1
60
0
100
AcDbSpline
70
4
71
2
72
6
73
3
40
0
40
0
40
0
40
1
40
1
40
1
41
1
10
45.0790246183153
20
1.0639953923835
30
0
41
1
10
45.0823482690075
20
1.07930071941595
30
0
41
1
10
45.0816595077883
20
1.09497590463667
30
0
0
SPLINE
5
175
100
AcDbEntity
8
1
62
256
6
ByLayer
370
18
48
1
60
0
100
AcDbSpline
70
4
71
3
72
10
73
6
40
0
40
0
40
0
40
0
40
0.195351358260567
40
0.687568308107859
40
1
40
1
40
1
40
1
41
1
10
45.0791219352135
20
-1.06467301209253
30
0
41
1
10
45.077948532561
20
-1.05744460995206
30
0
41
1
10
45.0737609068839
20
-1.03304183865941
30
0
41
1
10
45.0670935841284
20
-1.00494296417168
30
0
41
1
10
45.0618213081191
20
-0.984609781065558
30
0
41
1
10
45.0597517488427
20
-0.977326033087621
30
0
0
SPLINE
5
176
100
AcDbEntity
8
1
62
256
6
ByLayer
370
18
48
1
60
0
100
AcDbSpline
70
4
71
2
72
6
73
3
40
0
40
0
40
0
40
1
40
1
40
1
41
1
10
45.0722408290594
20
1.50600396148951
30
0
41
1
10
43.4607289909612
20
1.37923405813026
30
0
41
1
10
41.8491748764936
20
1.25240232078247
30
0
0
SPLINE
5
177
100
AcDbEntity
8
1
62
256
6
ByLayer
370
18
48
1
60
0
100
AcDbSpline
70
4
71
2
72
6
73
3
40
0
40
0
40
0
40
1
40
1
40
1
41
1
10
41.844755263981
20
-1.25205445249708
30
0
41
1
10
43.4586255815753
20
-1.37906855085339
30
0
41
1
10
45.0724535595461
20
-1.50602072673181
30
0
0
SPLINE
5
178
100
AcDbEntity
8
1
62
256
6
ByLayer
370
18
48
1
60
0
100
AcDbSpline
70
4
71
3
72
30
73
26
40
0
40
0
40
0
40
0
40
0.124999999999963
40
0.124999999999963
40
0.249999999999925
40
0.249999999999925
40
0.374999999999888
40
0.374999999999888
40
0.499999999999851
40
0.499999999999851
40
0.562499999999851
40
0.562499999999851
40
0.624999999999851
40
0.624999999999851
40
0.74999999999989
40
0.74999999999989
40
0.812499999999891
40
0.812499999999891
40
0.874999999999891
40
0.874999999999891
40
0.90624999999991
40
0.90624999999991
40
0.937499999999928
40
0.937499999999928
40
1
40
1
40
1
40
1
41
1
10
38.4825160483183
20
-0.47180016560489
30
0
41
1
10
38.3945699073594
20
-0.491836412046951
30
0
41
1
10
38.3064205873826
20
-0.509399202860408
30
0
41
1
10
38.1297677695423
20
-0.5400575526468
30
0
41
1
10
38.0412633346297
20
-0.553144335458967
30
0
41
1
10
37.863895952503
20
-0.574793378174178
30
0
41
1
10
37.7750328765736
20
-0.583354503361932
30
0
41
1
10
37.5969056171705
20
-0.595527986488037
30
0
41
1
10
37.5076418511144
20
-0.599144417621972
30
0
41
1
10
37.3733811493398
20
-0.600228037371124
30
0
41
1
10
37.3285663688977
20
-0.599862156968413
30
0
41
1
10
37.2387977524464
20
-0.597514088621523
30
0
41
1
10
37.1940508825132
20
-0.595536778062041
30
0
41
1
10
37.0603453850374
20
-0.586960471177946
30
0
41
1
10
36.9718766037782
20
-0.577755796871088
30
0
41
1
10
36.8403845472059
20
-0.5572319933963
30
0
41
1
10
36.7967568611413
20
-0.549263298460062
30
0
41
1
10
36.7099651950064
20
-0.530664239577021
30
0
41
1
10
36.6668006677597
20
-0.520037673398065
30
0
41
1
10
36.6024658592233
20
-0.501651126590843
30
0
41
1
10
36.5810587360165
20
-0.495102143293138
30
0
41
1
10
36.5385575577898
20
-0.4811309670676
30
0
41
1
10
36.5174850192174
20
-0.47371744267906
30
0
41
1
10
36.4548578681044
20
-0.450043781471663
30
0
41
1
10
36.4138849936295
20
-0.432373328926218
30
0
41
1
10
36.3739182992447
20
-0.412214572886114
30
0
0
SPLINE
5
179
100
AcDbEntity
8
1
62
256
6
ByLayer
370
18
48
1
60
0
100
AcDbSpline
70
4
71
3
72
30
73
26
40
0
40
0
40
0
40
0
40
0.0624999999999798
40
0.0624999999999798
40
0.12499999999996
40
0.12499999999996
40
0.187499999999939
40
0.187499999999939
40
0.218749999999947
40
0.218749999999947
40
0.249999999999956
40
0.249999999999956
40
0.37499999999995
40
0.37499999999995
40
0.499999999999945
40
0.499999999999945
40
0.62499999999994
40
0.62499999999994
40
0.687499999999937
40
0.687499999999937
40
0.749999999999935
40
0.749999999999935
40
0.874999999999967
40
0.874999999999967
40
1
40
1
40
1
40
1
41
1
10
36.3739182992447
20
0.412214572885858
30
0
41
1
10
36.4139680492347
20
0.432415221249272
30
0
41
1
10
36.4548303267254
20
0.450022731276562
30
0
41
1
10
36.537784628696
20
0.481401451072628
30
0
41
1
10
36.5798810290707
20
0.495157853491662
30
0
41
1
10
36.6650851681929
20
0.519584768006041
30
0
41
1
10
36.7081946316503
20
0.530249436512065
30
0
41
1
10
36.7735113260175
20
0.544298605963661
30
0
41
1
10
36.7953927877898
20
0.548655392051955
30
0
41
1
10
36.839360711394
20
0.556763228270114
30
0
41
1
10
36.8614613573423
20
0.560515666047024
30
0
41
1
10
36.9718787973797
20
0.577780003824984
30
0
41
1
10
37.0603817952925
20
0.586950978610162
30
0
41
1
10
37.2376965503899
20
0.598348122675162
30
0
41
1
10
37.3265086375635
20
0.600547822304463
30
0
41
1
10
37.5044264885991
20
0.599227164292046
30
0
41
1
10
37.5935323673761
20
0.595697524921889
30
0
41
1
10
37.7274053375952
20
0.58663833264842
30
0
41
1
10
37.7720653995219
20
0.582987675667312
30
0
41
1
10
37.8614564611948
20
0.574476971325083
30
0
41
1
10
37.9062236390378
20
0.569611848863985
30
0
41
1
10
38.0401844499271
20
0.553305397776313
30
0
41
1
10
38.1291398882285
20
0.540160548831892
30
0
41
1
10
38.3063611939174
20
0.509415461072109
30
0
41
1
10
38.3946283901815
20
0.491823088253
30
0
41
1
10
38.4825160483183
20
0.471800165604606
30
0
0
SPLINE
5
17A
100
AcDbEntity
8
1
62
256
6
ByLayer
370
18
48
1
60
0
100
AcDbSpline
70
4
71
3
72
41
73
37
40
0
40
0
40
0
40
0
40
0.124999999999954
40
0.124999999999954
40
0.187499999999932
40
0.187499999999932
40
0.24999999999991
40
0.24999999999991
40
0.281249999999924
40
0.281249999999924
40
0.312499999999938
40
0.312499999999938
40
0.374999999999968
40
0.374999999999968
40
0.437499999999997
40
0.437499999999997
40
0.468750000000002
40
0.468750000000002
40
0.500000000000007
40
0.500000000000007
40
0.562500000000017
40
0.562500000000017
40
0.59375000000003
40
0.59375000000003
40
0.625000000000044
40
0.656250000000057
40
0.656250000000057
40
0.687500000000071
40
0.687500000000071
40
0.750000000000056
40
0.750000000000056
40
0.812500000000042
40
0.812500000000042
40
0.875000000000027
40
0.875000000000027
40
1
40
1
40
1
40
1
41
1
10
36.3739182992447
20
-0.412214572886114
30
0
41
1
10
36.3323426013609
20
-0.391244253380449
30
0
41
1
10
36.2923555283106
20
-0.368037774754782
30
0
41
1
10
36.2355516689304
20
-0.328741545912834
30
0
41
1
10
36.2171511235986
20
-0.314888487617935
30
0
41
1
10
36.1816525865628
20
-0.285339879679469
30
0
41
1
10
36.1645515105404
20
-0.269648712671028
30
0
41
1
10
36.1401544606465
20
-0.244334941024221
30
0
41
1
10
36.1322030234975
20
-0.235562647561068
30
0
41
1
10
36.1169611365154
20
-0.217526409678925
30
0
41
1
10
36.109674437345
20
-0.20827231547841
30
0
41
1
10
36.0889247047826
20
-0.179725801308109
30
0
41
1
10
36.0765565120757
20
-0.159660127561182
30
0
41
1
10
36.0556057574131
20
-0.116853298994073
30
0
41
1
10
36.0473659591435
20
-0.0947800024403591
30
0
41
1
10
36.0388298666072
20
-0.0605550618726625
30
0
41
1
10
36.0366233824597
20
-0.0489588641188163
30
0
41
1
10
36.033600984233
20
-0.0253574857259196
30
0
41
1
10
36.0327989424356
20
-0.0133277713404425
30
0
41
1
10
36.032619307406
20
0.0222516738160436
30
0
41
1
10
36.0353919580441
20
0.0456684914273637
30
0
41
1
10
36.0436592889491
20
0.0803636541172636
30
0
41
1
10
36.0471171005546
20
0.0918715081424182
30
0
41
1
10
36.0551571330958
20
0.114202788867487
30
0
41
1
10
36.0643496493888
20
0.135998077244295
30
0
41
1
10
36.0756199996881
20
0.156827225419221
30
0
41
1
10
36.0878411534238
20
0.17721439417798
30
0
41
1
10
36.0943834600126
20
0.187110021941464
30
0
41
1
10
36.1149781293637
20
0.215783078591073
30
0
41
1
10
36.1300563477771
20
0.233666734852562
30
0
41
1
10
36.1623252272647
20
0.26750626989886
30
0
41
1
10
36.1795607260496
20
0.283490876291751
30
0
41
1
10
36.2156198954294
20
0.31371138563668
30
0
41
1
10
36.2342792049919
20
0.327817974081967
30
0
41
1
10
36.2917764104325
20
0.367720309205367
30
0
41
1
10
36.3321145024068
20
0.391129202805217
30
0
41
1
10
36.3739182992447
20
0.412214572885858
30
0
0
SPLINE
5
17B
100
AcDbEntity
8
1
62
256
6
ByLayer
370
18
48
1
60
0
100
AcDbSpline
70
4
71
3
72
10
73
6
40
0
40
0
40
0
40
0
40
0.673323990136812
40
0.673323990136812
40
1
40
1
40
1
40
1
41
1
10
38.6008896183755
20
-1.25000000000014
30
0
41
1
10
38.6009861028012
20
-1.25000000000014
30
0
41
1
10
38.6011104637517
20
-1.25000000000014
30
0
41
1
10
38.6013364805931
20
-1.25000000000014
30
0
41
1
10
38.6014168669921
20
-1.25000000000014
30
0
41
1
10
38.6015037979453
20
-1.25000000000014
30
0
0
SPLINE
5
17C
100
AcDbEntity
8
1
62
256
6
ByLayer
370
18
48
1
60
0
100
AcDbSpline
70
4
71
3
72
10
73
6
40
0
40
0
40
0
40
0
40
0.875314793907101
40
0.875314793907101
40
1
40
1
40
1
40
1
41
1
10
38.6015037979453
20
1.24999999999986
30
0
41
1
10
38.6012708782429
20
1.24999999999986
30
0
41
1
10
38.6010849347807
20
1.24999999999986
30
0
41
1
10
38.6009263098653
20
1.24999999999986
30
0
41
1
10
38.6009074861729
20
1.24999999999986
30
0
41
1
10
38.6008896183755
20
1.24999999999986
30
0
0
SPLINE
5
17D
100
AcDbEntity
8
1
62
256
6
ByLayer
370
18
48
1
60
0
100
AcDbSpline
70
4
71
3
72
12
73
8
40
0
40
0
40
0
40
0
40
0.282766550537889
40
0.282766550537889
40
0.565533101075778
40
0.565533101075778
40
1
40
1
40
1
40
1
41
1
10
45.2107878157921
20
-0.339032963251469
30
0
41
1
10
45.2088762857942
20
-0.335644582726559
30
0
41
1
10
45.206817212952
20
-0.332261478760813
30
0
41
1
10
45.202518565907
20
-0.325713393244854
30
0
41
1
10
45.2002674365726
20
-0.322526544628999
30
0
41
1
10
45.1942988591128
20
-0.314664354781456
30
0
41
1
10
45.1904460115501
20
-0.31011555673382
30
0
41
1
10
45.1863895512124
20
-0.305810542245439
30
0
0
SPLINE
5
17E
100
AcDbEntity
8
1
62
256
6
ByLayer
370
18
48
1
60
0
100
AcDbSpline
70
4
71
3
72
28
73
24
40
0
40
0
40
0
40
0
40
0.0624999999999182
40
0.0624999999999182
40
0.124999999999836
40
0.124999999999836
40
0.187499999999755
40
0.187499999999755
40
0.249999999999673
40
0.249999999999673
40
0.37499999999958
40
0.37499999999958
40
0.437499999999583
40
0.437499999999583
40
0.499999999999585
40
0.499999999999585
40
0.624999999999689
40
0.624999999999689
40
0.749999999999793
40
0.749999999999793
40
0.874999999999896
40
0.874999999999896
40
1
40
1
40
1
40
1
41
1
10
45.6
20
0.826755677450933
30
0
41
1
10
45.6
20
0.818595888501051
30
0
41
1
10
45.5996673605484
20
0.810466014343689
30
0
41
1
10
45.5983523278867
20
0.794264683546942
30
0
41
1
10
45.597364741047
20
0.786166856939275
30
0
41
1
10
45.5947733862483
20
0.7701997834927
30
0
41
1
10
45.5931717173691
20
0.762324396648893
30
0
41
1
10
45.5893825014213
20
0.746780613746637
30
0
41
1
10
45.5871862155275
20
0.739090789444873
30
0
41
1
10
45.5798494880245
20
0.7166312695893
30
0
41
1
10
45.5739523191004
20
0.702378719941976
30
0
41
1
10
45.5637686870803
20
0.681957346416993
30
0
41
1
10
45.5601482617195
20
0.675314461603335
30
0
41
1
10
45.5526157341608
20
0.662556447859032
30
0
41
1
10
45.5486883679922
20
0.656409300686221
30
0
41
1
10
45.536464744115
20
0.638603139326989
30
0
41
1
10
45.5277295393208
20
0.627575676999612
30
0
41
1
10
45.5092256282277
20
0.607007365695637
30
0
41
1
10
45.4994289297407
20
0.597445227124012
30
0
41
1
10
45.4789863240293
20
0.579818998255405
30
0
41
1
10
45.4683982449649
20
0.57180459206856
30
0
41
1
10
45.4467515490483
20
0.55735698683003
30
0
41
1
10
45.4356715816668
20
0.550904567715406
30
0
41
1
10
45.4243520771964
20
0.54517312237877
30
0
0
SPLINE
5
17F
100
AcDbEntity
8
1
62
256
6
ByLayer
370
13
48
1
60
0
100
AcDbSpline
70
4
71
3
72
18
73
14
40
0
40
0
40
0
40
0
40
0.250000000000093
40
0.250000000000093
40
0.37500000000014
40
0.37500000000014
40
0.500000000000187
40
0.500000000000187
40
0.749999999999963
40
0.749999999999963
40
0.874999999999981
40
0.874999999999981
40
1
40
1
40
1
40
1
41
1
10
45.4115442998023
20
-0.56761951385397
30
0
41
1
10
45.4270354895406
20
-0.573909292631356
30
0
41
1
10
45.4419603861177
20
-0.5814695740942
30
0
41
1
10
45.463287252602
20
-0.594594156732143
30
0
41
1
10
45.4702535208589
20
-0.599290278629383
30
0
41
1
10
45.483722033525
20
-0.60920884928538
30
0
41
1
10
45.4902168224632
20
-0.614422127371739
30
0
41
1
10
45.5089972537499
20
-0.630808590874921
30
0
41
1
10
45.5205837991415
20
-0.642723273875703
30
0
41
1
10
45.5365325600122
20
-0.662113124243945
30
0
41
1
10
45.5416078187201
20
-0.66883370023055
30
0
41
1
10
45.5511482114042
20
-0.682626853248195
30
0
41
1
10
45.5556302040465
20
-0.689718753543644
30
0
41
1
10
45.5598215621651
20
-0.697007623422508
30
0
0
SPLINE
5
180
100
AcDbEntity
8
1
62
256
6
ByLayer
370
18
48
1
60
0
100
AcDbSpline
70
4
71
3
72
14
73
10
40
0
40
0
40
0
40
0
40
0.249999999999998
40
0.249999999999998
40
0.499999999999996
40
0.499999999999996
40
0.749999999999998
40
0.749999999999998
40
1
40
1
40
1
40
1
41
1
10
45.6
20
-0.847896195347971
30
0
41
1
10
45.6
20
-0.834725280561969
30
0
41
1
10
45.5991394160639
20
-0.821519587930595
30
0
41
1
10
45.5957496170253
20
-0.795532045068086
30
0
41
1
10
45.5932265129543
20
-0.782714688091147
30
0
41
1
10
45.5865276329221
20
-0.757432281632816
30
0
41
1
10
45.582347486718
20
-0.744955772151229
30
0
41
1
10
45.5722712450549
20
-0.720419625550477
30
0
41
1
10
45.5664444895822
20
-0.708525049228939
30
0
41
1
10
45.5598215621653
20
-0.697007623422479
30
0
0
SPLINE
5
181
100
AcDbEntity
8
1
62
256
6
ByLayer
370
13
48
1
60
0
100
AcDbSpline
70
4
71
3
72
8
73
4
40
0
40
0
40
0
40
0
40
1
40
1
40
1
40
1
41
1
10
45.4115442998024
20
-0.56761951385397
30
0
41
1
10
45.4016093205859
20
-0.563855557737696
30
0
41
1
10
45.3916636549208
20
-0.5600859171021
30
0
41
1
10
45.3817068456804
20
-0.556310312740237
30
0
0
SPLINE
5
182
100
AcDbEntity
8
1
62
256
6
ByLayer
370
13
48
1
60
0
100
AcDbSpline
70
4
71
3
72
8
73
4
40
0
40
0
40
0
40
0
40
1
40
1
40
1
40
1
41
1
10
45.1913960847216
20
0.321775625355883
30
0
41
1
10
45.19053279103
20
0.321015487081553
30
0
41
1
10
45.1896718921683
20
0.320255442751488
30
0
41
1
10
45.1888133665115
20
0.319495491067045
30
0
0
SPLINE
5
183
100
AcDbEntity
8
1
62
256
6
ByLayer
370
13
48
1
60
0
100
AcDbSpline
70
4
71
3
72
10
73
6
40
0
40
0
40
0
40
0
40
0.5
40
0.5
40
1
40
1
40
1
40
1
41
1
10
45.4700595950892
20
-0.668145945896669
30
0
41
1
10
45.4726965392865
20
-0.672596314164394
30
0
41
1
10
45.4744628821228
20
-0.67707941671398
30
0
41
1
10
45.4767267858871
20
-0.685619071512946
30
0
41
1
10
45.4772517191482
20
-0.68976405543674
30
0
41
1
10
45.4773240153788
20
-0.693728829137569
30
0
0
SPLINE
5
184
100
AcDbEntity
8
1
62
256
6
ByLayer
370
18
48
1
60
0
100
AcDbSpline
70
4
71
3
72
12
73
8
40
0
40
0
40
0
40
0
40
0.141789228742082
40
0.141789228742082
40
0.570894614371041
40
0.570894614371041
40
1
40
1
40
1
40
1
41
1
10
41.8001433914581
20
1.25071803138434
30
0
41
1
10
41.8009865656598
20
1.25075685363635
30
0
41
1
10
41.8019967059041
20
1.25080158821817
30
0
41
1
10
41.8062335593533
20
1.25098660546638
30
0
41
1
10
41.8100000575212
20
1.25114533771222
30
0
41
1
10
41.8177500400458
20
1.25146916089031
30
0
41
1
10
41.8217665176326
20
1.25163534334032
30
0
41
1
10
41.8258524678319
20
1.25180360966792
30
0
0
SPLINE
5
185
100
AcDbEntity
8
1
62
256
6
ByLayer
370
13
48
1
60
0
100
AcDbSpline
70
4
71
3
72
8
73
4
40
0
40
0
40
0
40
0
40
1
40
1
40
1
40
1
41
1
10
41.6119275125129
20
0.197335450364903
30
0
41
1
10
41.6119086022059
20
0.198473307665921
30
0
41
1
10
41.6118830434373
20
0.199613402592291
30
0
41
1
10
41.6118510782375
20
0.200755651798147
30
0
0
SPLINE
5
186
100
AcDbEntity
8
1
62
256
6
ByLayer
370
13
48
1
60
0
100
AcDbSpline
70
4
71
3
72
8
73
4
40
0
40
0
40
0
40
0
40
1
40
1
40
1
40
1
41
1
10
41.6119275125129
20
-0.197335450365188
30
0
41
1
10
41.6119086022059
20
-0.198473307666205
30
0
41
1
10
41.6118830434373
20
-0.199613402592604
30
0
41
1
10
41.6118510782375
20
-0.20075565179846
30
0
0
SPLINE
5
187
100
AcDbEntity
8
1
62
256
6
ByLayer
370
18
48
1
60
0
100
AcDbSpline
70
4
71
3
72
8
73
4
40
0
40
0
40
0
40
0
40
1
40
1
40
1
40
1
41
1
10
45.0828770378077
20
-1.09501624062634
30
0
41
1
10
45.0823769376172
20
-1.08781928154227
30
0
41
1
10
45.0812904940753
20
-1.08071372837077
30
0
41
1
10
45.0796018667686
20
-1.07370561088084
30
0
0
SPLINE
5
188
100
AcDbEntity
8
1
62
256
6
ByLayer
370
18
48
1
60
0
100
AcDbSpline
70
4
71
3
72
16
73
12
40
0
40
0
40
0
40
0
40
0.367826718101125
40
0.367826718101125
40
0.551740077151687
40
0.551740077151687
40
0.73565343620225
40
0.73565343620225
40
0.919566795252812
40
0.919566795252812
40
1
40
1
40
1
40
1
41
1
10
41.825852467832
20
-1.2518036096682
30
0
41
1
10
41.8217646656075
20
-1.25163526707109
30
0
41
1
10
41.8177362155058
20
-1.25146858442554
30
0
41
1
10
41.8119384933826
20
-1.25122633219246
30
0
41
1
10
41.8100460557514
20
-1.25114684349907
30
0
41
1
10
41.8063938925916
20
-1.25099204958275
30
0
41
1
10
41.8046150659441
20
-1.25091595329545
30
0
41
1
10
41.8014096079056
20
-1.2507759248507
30
0
41
1
10
41.7999476727506
20
-1.25071064645192
30
0
41
1
10
41.7985664369134
20
-1.25064245699639
30
0
41
1
10
41.7982628634808
20
-1.25062599925505
30
0
41
1
10
41.798139996087
20
-1.25061644657293
30
0
0
SPLINE
5
189
100
AcDbEntity
8
1
62
256
6
ByLayer
370
18
48
1
60
0
100
AcDbSpline
70
4
71
3
72
12
73
8
40
0
40
0
40
0
40
0
40
0.444023775410599
40
0.444023775410599
40
0.722011887705299
40
0.722011887705299
40
1
40
1
40
1
40
1
41
1
10
45.1859719728979
20
0.305368678138564
30
0
41
1
10
45.1902153004391
20
0.309838550676403
30
0
41
1
10
45.1942120867635
20
0.314546438674171
30
0
41
1
10
45.2002913510962
20
0.322560337722109
30
0
41
1
10
45.2025329888971
20
0.325734810720803
30
0
41
1
10
45.2068175671166
20
0.332262573132766
30
0
41
1
10
45.2088694485615
20
0.335632463039531
30
0
41
1
10
45.2107878157921
20
0.339032963251128
30
0
0
SPLINE
5
18A
100
AcDbEntity
8
1
62
256
6
ByLayer
370
18
48
1
60
0
100
AcDbSpline
70
4
71
3
72
24
73
20
40
0
40
0
40
0
40
0
40
0.24999999999979
40
0.24999999999979
40
0.374999999999745
40
0.374999999999745
40
0.4999999999997
40
0.4999999999997
40
0.562499999999738
40
0.562499999999738
40
0.624999999999776
40
0.624999999999776
40
0.687499999999813
40
0.687499999999813
40
0.749999999999851
40
0.749999999999851
40
0.874999999999925
40
0.874999999999925
40
1
40
1
40
1
40
1
41
1
10
45.4243520771952
20
-0.5451731223786
30
0
41
1
10
45.4469700503815
20
-0.556625361942679
30
0
41
1
10
45.4687855776682
20
-0.571035401795768
30
0
41
1
10
45.4992965450166
20
-0.597325219596939
30
0
41
1
10
45.509168251838
20
-0.606942750311816
30
0
41
1
10
45.5278043220187
20
-0.627659641421417
30
0
41
1
10
45.5365784646173
20
-0.638750765428711
30
0
41
1
10
45.5488258431893
20
-0.656618792406732
30
0
41
1
10
45.5527553538587
20
-0.662780895677372
30
0
41
1
10
45.5602818788755
20
-0.675553245723165
30
0
41
1
10
45.5638895341844
20
-0.682186662305952
30
0
41
1
10
45.5706575201497
20
-0.695785067018903
30
0
41
1
10
45.5738243241269
20
-0.702757283325667
30
0
41
1
10
45.5796956223339
20
-0.71707011800828
30
0
41
1
10
45.5824066111759
20
-0.724433785193867
30
0
41
1
10
45.5897075530681
20
-0.746861744173543
30
0
41
1
10
45.5935001571511
20
-0.762320451651647
30
0
41
1
10
45.5986712431026
20
-0.794251425754823
30
0
41
1
10
45.6
20
-0.810481798856813
30
0
41
1
10
45.6
20
-0.826755677451274
30
0
0
SPLINE
5
18B
100
AcDbEntity
8
1
62
256
6
ByLayer
370
13
48
1
60
0
100
AcDbSpline
70
4
71
3
72
17
73
13
40
0
40
0
40
0
40
0
40
0.250000000000003
40
0.500000000000007
40
0.500000000000007
40
0.625000000000006
40
0.625000000000006
40
0.750000000000006
40
0.875000000000006
40
0.937500000000003
40
0.937500000000003
40
1
40
1
40
1
40
1
41
1
10
45.5598215621651
20
0.697007623422166
30
0
41
1
10
45.5514002659997
20
0.682362792265963
30
0
41
1
10
45.5323910515454
20
0.654943755167409
30
0
41
1
10
45.5092758565873
20
0.631069816081038
30
0
41
1
10
45.4903541835778
20
0.614533108113733
30
0
41
1
10
45.4837588161087
20
0.609236807014128
30
0
41
1
10
45.470257346659
20
0.599292228606032
30
0
41
1
10
45.4564001174802
20
0.589950678146892
30
0
41
1
10
45.4382018513646
20
0.579759846026434
30
0
41
1
10
45.426885740201
20
0.574318543372613
30
0
41
1
10
45.4192522464755
20
0.570842580394213
30
0
41
1
10
45.4153772977527
20
0.569175799048878
30
0
41
1
10
45.4115442998023
20
0.567619513853629
30
0
0
SPLINE
5
18C
100
AcDbEntity
8
1
62
256
6
ByLayer
370
13
48
1
60
0
100
AcDbSpline
70
4
71
3
72
12
73
8
40
0
40
0
40
0
40
0
40
0.500000000000067
40
0.500000000000067
40
0.750000000000034
40
0.750000000000034
40
1
40
1
40
1
40
1
41
1
10
45.6
20
0.847896195347658
30
0
41
1
10
45.6000000000001
20
0.821473282934335
30
0
41
1
10
45.5966225799659
20
0.795612254228388
30
0
41
1
10
45.5865952413969
20
0.757647794421956
30
0
41
1
10
45.5823929182069
20
0.745078505152634
30
0
41
1
10
45.5723047247106
20
0.720489139365981
30
0
41
1
10
45.5664657935055
20
0.708562097249086
30
0
41
1
10
45.5598215621657
20
0.69700762342211
30
0
0
SPLINE
5
18D
100
AcDbEntity
8
1
62
256
6
ByLayer
370
13
48
1
60
0
100
AcDbSpline
70
4
71
3
72
17
73
13
40
0
40
0
40
0
40
0
40
0.250000000000019
40
0.500000000000038
40
0.500000000000038
40
0.624999999999987
40
0.624999999999987
40
0.749999999999935
40
0.874999999999883
40
0.937499999999942
40
0.937499999999942
40
1
40
1
40
1
40
1
41
1
10
45.4700595950892
20
0.668145945896327
30
0
41
1
10
45.4680192095919
20
0.655551871645315
30
0
41
1
10
45.4624165327486
20
0.632441783916136
30
0
41
1
10
45.4539385500856
20
0.613273124616313
30
0
41
1
10
45.4464727853509
20
0.600419543043728
30
0
41
1
10
45.4437886731357
20
0.596380803969168
30
0
41
1
10
45.438137279305
20
0.588960386514799
30
0
41
1
10
45.4321859594346
20
0.582161147308284
30
0
41
1
10
45.4240083336048
20
0.575193349075477
30
0
41
1
10
45.4187674279347
20
0.571706476560905
30
0
41
1
10
45.4151982244343
20
0.569538121675606
30
0
41
1
10
45.4133695871511
20
0.568529762274608
30
0
41
1
10
45.4115442998024
20
0.567619513853657
30
0
0
SPLINE
5
18E
100
AcDbEntity
8
1
62
256
6
ByLayer
370
13
48
1
60
0
100
AcDbSpline
70
4
71
3
72
8
73
4
40
0
40
0
40
0
40
0
40
1
40
1
40
1
40
1
41
1
10
45.3817068456804
20
0.556310312739924
30
0
41
1
10
45.3916636549208
20
0.560085917101759
30
0
41
1
10
45.4016093205859
20
0.563855557737384
30
0
41
1
10
45.4115442998024
20
0.567619513853657
30
0
0
SPLINE
5
18F
100
AcDbEntity
8
1
62
256
6
ByLayer
370
13
48
1
60
0
100
AcDbSpline
70
4
71
3
72
16
73
12
40
0
40
0
40
0
40
0
40
0.250000000000022
40
0.250000000000022
40
0.375000000000032
40
0.375000000000032
40
0.500000000000043
40
0.500000000000043
40
0.750000000000021
40
0.750000000000021
40
1
40
1
40
1
40
1
41
1
10
45.4115442998023
20
-0.567619513853941
30
0
41
1
10
45.4189192158821
20
-0.571297294080921
30
0
41
1
10
45.4257643495089
20
-0.576258125145159
30
0
41
1
10
45.4351410910229
20
-0.585538247946516
30
0
41
1
10
45.4381325928584
20
-0.588955609961317
30
0
41
1
10
45.4437703875724
20
-0.596355423280187
30
0
41
1
10
45.4464142108004
20
-0.600330359401482
30
0
41
1
10
45.4538302242055
20
-0.613063822700752
30
0
41
1
10
45.4580905531171
20
-0.622625443354224
30
0
41
1
10
45.4652088123355
20
-0.643941413252691
30
0
41
1
10
45.4680287842992
20
-0.655610970563771
30
0
41
1
10
45.4700595950892
20
-0.668145945896669
30
0
0
SPLINE
5
190
100
AcDbEntity
8
1
62
256
6
ByLayer
370
18
48
1
60
0
100
AcDbSpline
70
4
71
3
72
12
73
8
40
0
40
0
40
0
40
0
40
0.249999999999933
40
0.249999999999933
40
0.499999999999866
40
0.499999999999866
40
1
40
1
40
1
40
1
41
1
10
45.2107878157903
20
-0.339032963243198
30
0
41
1
10
45.2212790971793
20
-0.354344390063062
30
0
41
1
10
45.232407789865
20
-0.369155306100367
30
0
41
1
10
45.2556705466329
20
-0.397430090772474
30
0
41
1
10
45.26784026831
20
-0.410948307639956
30
0
41
1
10
45.3060143323415
20
-0.449692625229403
30
0
41
1
10
45.3336675361646
20
-0.473124770156716
30
0
41
1
10
45.3638359159764
20
-0.494088203146987
30
0
0
SPLINE
5
191
100
AcDbEntity
8
1
62
256
6
ByLayer
370
13
48
1
60
0
100
AcDbSpline
70
4
71
3
72
8
73
4
40
0
40
0
40
0
40
0
40
1
40
1
40
1
40
1
41
1
10
45.1913960847216
20
-0.321775625356196
30
0
41
1
10
45.1975040674974
20
-0.327153762057833
30
0
41
1
10
45.203937994497
20
-0.332892252693341
30
0
41
1
10
45.2107878157894
20
-0.339032963244989
30
0
0
SPLINE
5
192
100
AcDbEntity
8
1
62
256
6
ByLayer
370
13
48
1
60
0
100
AcDbSpline
70
4
71
3
72
8
73
4
40
0
40
0
40
0
40
0
40
1
40
1
40
1
40
1
41
1
10
45.1888133665115
20
-0.319495491067357
30
0
41
1
10
45.1896718921683
20
-0.320255442751829
30
0
41
1
10
45.19053279103
20
-0.321015487081894
30
0
41
1
10
45.1913960847216
20
-0.321775625356196
30
0
0
SPLINE
5
193
100
AcDbEntity
8
1
62
256
6
ByLayer
370
13
48
1
60
0
100
AcDbSpline
70
4
71
3
72
48
73
44
40
0
40
0
40
0
40
0
40
0.0625000000000373
40
0.0625000000000373
40
0.093750000000056
40
0.093750000000056
40
0.125000000000075
40
0.125000000000075
40
0.187500000000075
40
0.187500000000075
40
0.218750000000079
40
0.218750000000079
40
0.250000000000083
40
0.250000000000083
40
0.31250000000012
40
0.31250000000012
40
0.343750000000123
40
0.343750000000123
40
0.375000000000126
40
0.375000000000126
40
0.437500000000112
40
0.437500000000112
40
0.500000000000098
40
0.500000000000098
40
0.562500000000084
40
0.562500000000084
40
0.59375000000007
40
0.59375000000007
40
0.625000000000057
40
0.625000000000057
40
0.687500000000029
40
0.687500000000029
40
0.718750000000015
40
0.718750000000015
40
0.750000000000002
40
0.750000000000002
40
0.812499999999982
40
0.812499999999982
40
0.843749999999987
40
0.843749999999987
40
0.874999999999992
40
0.874999999999992
40
1
40
1
40
1
40
1
41
1
10
45.1888133665115
20
0.319495491067045
30
0
41
1
10
45.1834539747961
20
0.314751452575479
30
0
41
1
10
45.1776608610143
20
0.309100016449378
30
0
41
1
10
45.1683944981185
20
0.299065410248318
30
0
41
1
10
45.1652038103898
20
0.295452317005555
30
0
41
1
10
45.1587057764891
20
0.287731844685595
30
0
41
1
10
45.155393625716
20
0.283619885087404
30
0
41
1
10
45.1453098708276
20
0.270487347375166
30
0
41
1
10
45.1383891282185
20
0.260676036626279
30
0
41
1
10
45.1279066383828
20
0.244124217620936
30
0
41
1
10
45.1243959808618
20
0.238299859228107
30
0
41
1
10
45.1173810897116
20
0.225973408896095
30
0
41
1
10
45.1138771993361
20
0.219467044952609
30
0
41
1
10
45.1036394514367
20
0.199220252067562
30
0
41
1
10
45.0971112992076
20
0.18464913973358
30
0
41
1
10
45.0880771506254
20
0.160956389792318
30
0
41
1
10
45.0851927216879
20
0.15275125023561
30
0
41
1
10
45.0797425707424
20
0.135661439833768
30
0
41
1
10
45.0771645003754
20
0.126721074172195
30
0
41
1
10
45.0701813403153
20
0.0993936168822529
30
0
41
1
10
45.0664763342368
20
0.0804027127208258
30
0
41
1
10
45.0613785032779
20
0.0407080218060685
30
0
41
1
10
45.0600366962803
20
0.0199141503660485
30
0
41
1
10
45.0600739754515
20
-0.020785141201543
30
0
41
1
10
45.0613930949834
20
-0.0408344213385874
30
0
41
1
10
45.0652020103021
20
-0.0704736731629225
30
0
41
1
10
45.0667868809804
20
-0.0803204787645768
30
0
41
1
10
45.0704972363218
20
-0.0995717658811373
30
0
41
1
10
45.0726120635513
20
-0.108934290024365
30
0
41
1
10
45.079557580968
20
-0.136027433433668
30
0
41
1
10
45.0850090882929
20
-0.152897355536254
30
0
41
1
10
45.0940612116995
20
-0.176656381997446
30
0
41
1
10
45.097225627035
20
-0.18431633052316
30
0
41
1
10
45.1037990372003
20
-0.199137265423985
30
0
41
1
10
45.1071756010896
20
-0.206223404729116
30
0
41
1
10
45.1174107916042
20
-0.226435054475957
30
0
41
1
10
45.1244076215193
20
-0.238599551459487
30
0
41
1
10
45.1349011587787
20
-0.255168408286352
30
0
41
1
10
45.1383993804786
20
-0.260409799045362
30
0
41
1
10
45.1453588107733
20
-0.270359238817889
30
0
41
1
10
45.1488155297838
20
-0.275059237437915
30
0
41
1
10
45.1657027233701
20
-0.297019891852386
30
0
41
1
10
45.1780989375146
20
-0.310011268551932
30
0
41
1
10
45.1888133665115
20
-0.319495491067357
30
0
0
SPLINE
5
194
100
AcDbEntity
8
1
62
256
6
ByLayer
370
13
48
1
60
0
100
AcDbSpline
70
4
71
3
72
8
73
4
40
0
40
0
40
0
40
0
40
1
40
1
40
1
40
1
41
1
10
45.2107878157903
20
0.339032963242857
30
0
41
1
10
45.203937994498
20
0.332892252691209
30
0
41
1
10
45.1975040674969
20
0.327153762059169
30
0
41
1
10
45.1913960847211
20
0.321775625357532
30
0
0
SPLINE
5
195
100
AcDbEntity
8
1
62
256
6
ByLayer
370
18
48
1
60
0
100
AcDbSpline
70
4
71
3
72
12
73
8
40
0
40
0
40
0
40
0
40
0.500000000000003
40
0.500000000000003
40
0.750000000000001
40
0.750000000000001
40
1
40
1
40
1
40
1
41
1
10
45.3638359159785
20
0.494088203148124
30
0
41
1
10
45.3337356514465
20
0.473172102169599
30
0
41
1
10
45.3060950995372
20
0.449767548136123
30
0
41
1
10
45.2678860446097
20
0.410998281249675
30
0
41
1
10
45.2556955060173
20
0.397460655782737
30
0
41
1
10
45.2323766101395
20
0.369117180497028
30
0
41
1
10
45.2212456472743
20
0.354295571834228
30
0
41
1
10
45.2107878157903
20
0.339032963242857
30
0
0
SPLINE
5
196
100
AcDbEntity
8
1
62
256
6
ByLayer
370
13
48
1
60
0
100
AcDbSpline
70
4
71
3
72
14
73
10
40
0
40
0
40
0
40
0
40
0.25000000000037
40
0.25000000000037
40
0.375000000000376
40
0.375000000000376
40
0.500000000000382
40
0.500000000000382
40
1
40
1
40
1
40
1
41
1
10
45.2265909190414
20
0.471288952304491
30
0
41
1
10
45.239261583725
20
0.481181637168703
30
0
41
1
10
45.2522113075508
20
0.490339856353018
30
0
41
1
10
45.2720007121871
20
0.503102313120905
30
0
41
1
10
45.278690797375
20
0.507211492196973
30
0
41
1
10
45.2919460632299
20
0.514981989105507
30
0
41
1
10
45.2985255257087
20
0.518654563506772
30
0
41
1
10
45.3312040810245
20
0.5360864552338
30
0
41
1
10
45.356666741536
20
0.547129355470219
30
0
41
1
10
45.3817068456804
20
0.556310312739896
30
0
0
SPLINE
5
197
100
AcDbEntity
8
1
62
256
6
ByLayer
370
13
48
1
60
0
100
AcDbSpline
70
4
71
3
72
16
73
12
40
0
40
0
40
0
40
0
40
0.249999999999907
40
0.249999999999907
40
0.499999999999813
40
0.499999999999813
40
0.74999999999972
40
0.74999999999972
40
0.87499999999986
40
0.87499999999986
40
1
40
1
40
1
40
1
41
1
10
45.3817068456804
20
-0.556310312740237
30
0
41
1
10
45.3692067835402
20
-0.551727163416416
30
0
41
1
10
45.3565398580489
20
-0.546646400674234
30
0
41
1
10
45.3307779647951
20
-0.535230899171921
30
0
41
1
10
45.3176353151163
20
-0.528865036649876
30
0
41
1
10
45.2914701311843
20
-0.514873669634596
30
0
41
1
10
45.2783770186415
20
-0.507218753400707
30
0
41
1
10
45.2587593501985
20
-0.494560615633617
30
0
41
1
10
45.2521996955016
20
-0.490126886808213
30
0
41
1
10
45.2392675385208
20
-0.480950549523612
30
0
41
1
10
45.2328851984452
20
-0.47620324245014
30
0
41
1
10
45.2265909190413
20
-0.47128895230486
30
0
0
SPLINE
5
198
100
AcDbEntity
8
1
62
256
6
ByLayer
370
13
48
1
60
0
100
AcDbSpline
70
4
71
3
72
16
73
12
40
0
40
0
40
0
40
0
40
0.250000000000174
40
0.250000000000174
40
0.375000000000185
40
0.375000000000185
40
0.500000000000197
40
0.500000000000197
40
0.750000000000098
40
0.750000000000098
40
1
40
1
40
1
40
1
41
1
10
45.2265909190414
20
-0.471288952304832
30
0
41
1
10
45.201314385242
20
-0.451554172040318
30
0
41
1
10
45.1779844644363
20
-0.430340382798903
30
0
41
1
10
45.1456053252916
20
-0.39665581899672
30
0
41
1
10
45.1352503611725
20
-0.385115366475787
30
0
41
1
10
45.1153863664992
20
-0.361456633027842
30
0
41
1
10
45.1058506732013
20
-0.349298114260023
30
0
41
1
10
45.0788228561857
20
-0.312509130997427
30
0
41
1
10
45.0631641857099
20
-0.287961200594168
30
0
41
1
10
45.035681061941
20
-0.23955473981681
30
0
41
1
10
45.0238429285691
20
-0.215662618423608
30
0
41
1
10
45.0135194229721
20
-0.192381484214991
30
0
0
SPLINE
5
199
100
AcDbEntity
8
1
62
256
6
ByLayer
370
13
48
1
60
0
100
AcDbSpline
70
4
71
3
72
18
73
14
40
0
40
0
40
0
40
0
40
0.125000000000012
40
0.125000000000012
40
0.250000000000024
40
0.250000000000024
40
0.500000000000048
40
0.500000000000048
40
0.624999999999998
40
0.624999999999998
40
0.749999999999949
40
0.749999999999949
40
1
40
1
40
1
40
1
41
1
10
45.0135194229682
20
0.192381484206066
30
0
41
1
10
45.018682243687
20
0.204024459639413
30
0
41
1
10
45.0242808533321
20
0.215940671293765
30
0
41
1
10
45.0362972291563
20
0.239902941828831
30
0
41
1
10
45.0427216693443
20
0.251968886574048
30
0
41
1
10
45.0633755779317
20
0.28830615771372
30
0
41
1
10
45.0789758063534
20
0.312716679998743
30
0
41
1
10
45.105766152946
20
0.349183388909182
30
0
41
1
10
45.1153210292125
20
0.361375840372887
30
0
41
1
10
45.1352044629999
20
0.385063657101796
30
0
41
1
10
45.1455683593879
20
0.396615973448036
30
0
41
1
10
45.1779708044593
20
0.430328945061092
30
0
41
1
10
45.2013116923674
20
0.451552069564656
30
0
41
1
10
45.2265909190414
20
0.471288952304491
30
0
0
SPLINE
5
19A
100
AcDbEntity
8
1
62
256
6
ByLayer
370
18
48
1
60
0
100
AcDbSpline
70
4
71
3
72
11
73
7
40
0
40
0
40
0
40
0
40
0.250000000000007
40
0.250000000000007
40
0.500000000000013
40
1
40
1
40
1
40
1
41
1
10
45.6
20
-1.0648446992162
30
0
41
1
10
45.6
20
-1.04746531825475
30
0
41
1
10
45.6000000000002
20
-1.0298325423272
30
0
41
1
10
45.6000000000002
20
-0.994246500054174
30
0
41
1
10
45.5999999999991
20
-0.940390931392272
30
0
41
1
10
45.6000000000001
20
-0.885191594469973
30
0
41
1
10
45.6000000000001
20
-0.847896195347971
30
0
0
SPLINE
5
19B
100
AcDbEntity
8
1
62
256
6
ByLayer
370
18
48
1
60
0
100
AcDbSpline
70
4
71
3
72
11
73
7
40
0
40
0
40
0
40
0
40
0.25
40
0.25
40
0.5
40
1
40
1
40
1
40
1
41
1
10
45.6
20
1.06484469921588
30
0
41
1
10
45.6
20
1.04746531825444
30
0
41
1
10
45.6
20
1.02983254232692
30
0
41
1
10
45.6
20
0.99424650005389
30
0
41
1
10
45.5999999999995
20
0.940390931391931
30
0
41
1
10
45.6
20
0.885191594469632
30
0
41
1
10
45.6
20
0.84789619534763
30
0
0
SPLINE
5
19C
100
AcDbEntity
8
1
62
256
6
ByLayer
370
13
48
1
60
0
100
AcDbSpline
70
4
71
3
72
18
73
14
40
0
40
0
40
0
40
0
40
0.250000000000016
40
0.250000000000016
40
0.375000000000024
40
0.375000000000024
40
0.500000000000033
40
0.500000000000033
40
0.750000000000017
40
0.750000000000017
40
0.875000000000008
40
0.875000000000008
40
1
40
1
40
1
40
1
41
1
10
45.5265609898446
20
0.931958608995586
30
0
41
1
10
45.5382819737221
20
0.940744453352352
30
0
41
1
10
45.5486476782306
20
0.950241168307713
30
0
41
1
10
45.5622551791261
20
0.965503180204308
30
0
41
1
10
45.5664650661516
20
0.970761287563874
30
0
41
1
10
45.5742194924532
20
0.981625910556289
30
0
41
1
10
45.577779699474
20
0.987265566658294
30
0
41
1
10
45.5872285081988
20
1.00437305219495
30
0
41
1
10
45.591955862778
20
1.0160790556009
30
0
41
1
10
45.5967489527105
20
1.03407746983788
30
0
41
1
10
45.5979609101054
20
1.0401507067335
30
0
41
1
10
45.599589350573
20
1.05244924310901
30
0
41
1
10
45.6000000000002
20
1.05873100178493
30
0
41
1
10
45.5999999999999
20
1.0648446992148
30
0
0
SPLINE
5
19D
100
AcDbEntity
8
1
62
256
6
ByLayer
370
13
48
1
60
0
100
AcDbSpline
70
4
71
3
72
18
73
14
40
0
40
0
40
0
40
0
40
0.250000000000129
40
0.250000000000129
40
0.375000000000077
40
0.375000000000077
40
0.500000000000025
40
0.500000000000025
40
0.749999999999954
40
0.749999999999954
40
0.874999999999977
40
0.874999999999977
40
1
40
1
40
1
40
1
41
1
10
45.5265609898446
20
-0.931958608995899
30
0
41
1
10
45.5382819737221
20
-0.940744453352664
30
0
41
1
10
45.5486476782313
20
-0.950241168306206
30
0
41
1
10
45.5622551791269
20
-0.965503180202774
30
0
41
1
10
45.5664650661511
20
-0.970761287565466
30
0
41
1
10
45.5742194924528
20
-0.981625910557824
30
0
41
1
10
45.5777796994743
20
-0.98726556665801
30
0
41
1
10
45.587228508199
20
-1.00437305219458
30
0
41
1
10
45.5919558627781
20
-1.01607905560093
30
0
41
1
10
45.5967489527106
20
-1.03407746983791
30
0
41
1
10
45.5979609101063
20
-1.04015070672728
30
0
41
1
10
45.5995893505741
20
-1.05244924309719
30
0
41
1
10
45.6
20
-1.05873100178528
30
0
41
1
10
45.5999999999999
20
-1.06484469921514
30
0
0
SPLINE
5
19E
100
AcDbEntity
8
1
62
256
6
ByLayer
370
13
48
1
60
0
100
AcDbSpline
70
4
71
3
72
8
73
4
40
0
40
0
40
0
40
0
40
1
40
1
40
1
40
1
41
1
10
45.482562250731
20
0.905980725467231
30
0
41
1
10
45.4985216101505
20
0.91328317817937
30
0
41
1
10
45.5132312427766
20
0.921966863919891
30
0
41
1
10
45.5265609898449
20
0.931958608994989
30
0
0
SPLINE
5
19F
100
AcDbEntity
8
1
62
256
6
ByLayer
370
13
48
1
60
0
100
AcDbSpline
70
4
71
3
72
8
73
4
40
0
40
0
40
0
40
0
40
1
40
1
40
1
40
1
41
1
10
45.482562250731
20
-0.905980725467543
30
0
41
1
10
45.4985216101505
20
-0.913283178179682
30
0
41
1
10
45.5132312427766
20
-0.921966863920233
30
0
41
1
10
45.5265609898449
20
-0.93195860899533
30
0
0
SPLINE
5
1A0
100
AcDbEntity
8
1
62
256
6
ByLayer
370
13
48
1
60
0
100
AcDbSpline
70
4
71
3
72
18
73
14
40
0
40
0
40
0
40
0
40
0.249999999999789
40
0.249999999999789
40
0.374999999999824
40
0.374999999999824
40
0.49999999999986
40
0.49999999999986
40
0.74999999999993
40
0.74999999999993
40
0.874999999999965
40
0.874999999999965
40
1
40
1
40
1
40
1
41
1
10
45.5265609918009
20
1.04953045594905
30
0
41
1
10
45.5382819531203
20
1.05054227330501
30
0
41
1
10
45.5486476360311
20
1.05163609440126
30
0
41
1
10
45.562255114807
20
1.05339425108244
30
0
41
1
10
45.566464996088
20
1.05400002165592
30
0
41
1
10
45.5742194148352
20
1.05525181011385
30
0
41
1
10
45.5777796198714
20
1.05590164727496
30
0
41
1
10
45.5872284360338
20
1.05787306061239
30
0
41
1
10
45.5919558086945
20
1.05922225653029
30
0
41
1
10
45.596748925491
20
1.06129709009107
30
0
41
1
10
45.5979608917739
20
1.06199726904592
30
0
41
1
10
45.5995893458074
20
1.06341529445419
30
0
41
1
10
45.6
20
1.06413966176714
30
0
41
1
10
45.6
20
1.06484469921594
30
0
0
SPLINE
5
1A1
100
AcDbEntity
8
1
62
256
6
ByLayer
370
13
48
1
60
0
100
AcDbSpline
70
4
71
3
72
18
73
14
40
0
40
0
40
0
40
0
40
0.249999999999827
40
0.249999999999827
40
0.37499999999988
40
0.37499999999988
40
0.499999999999934
40
0.499999999999934
40
0.749999999999993
40
0.749999999999993
40
0.874999999999996
40
0.874999999999996
40
1
40
1
40
1
40
1
41
1
10
45.5265609918009
20
-1.04953045594939
30
0
41
1
10
45.5382819531204
20
-1.05054227330535
30
0
41
1
10
45.5486476360311
20
-1.05163609440245
30
0
41
1
10
45.5622551148072
20
-1.05339425108352
30
0
41
1
10
45.566464996088
20
-1.05400002165655
30
0
41
1
10
45.5742194148353
20
-1.05525181011461
30
0
41
1
10
45.5777796198714
20
-1.05590164727525
30
0
41
1
10
45.5872284360338
20
-1.05787306061239
30
0
41
1
10
45.5919558086944
20
-1.05922225653526
30
0
41
1
10
45.596748925491
20
-1.06129709009909
30
0
41
1
10
45.5979608917739
20
-1.06199726905231
30
0
41
1
10
45.5995893458075
20
-1.06341529446436
30
0
41
1
10
45.6
20
-1.06413966176746
30
0
41
1
10
45.6
20
-1.06484469921625
30
0
0
SPLINE
5
1A2
100
AcDbEntity
8
1
62
256
6
ByLayer
370
13
48
1
60
0
100
AcDbSpline
70
4
71
3
72
8
73
4
40
0
40
0
40
0
40
0
40
1
40
1
40
1
40
1
41
1
10
45.5248010422362
20
1.049169449934
30
0
41
1
10
45.5253956606051
20
1.04915099959968
30
0
41
1
10
45.5259877643255
20
1.04925068681112
30
0
41
1
10
45.5265609917967
20
1.04953045574459
30
0
0
SPLINE
5
1A3
100
AcDbEntity
8
1
62
256
6
ByLayer
370
13
48
1
60
0
100
AcDbSpline
70
4
71
3
72
8
73
4
40
0
40
0
40
0
40
0
40
1
40
1
40
1
40
1
41
1
10
45.5248010422362
20
-1.04916944993431
30
0
41
1
10
45.5253956606051
20
-1.04915099960002
30
0
41
1
10
45.5259877643255
20
-1.04925068681146
30
0
41
1
10
45.5265609917967
20
-1.0495304557449
30
0
0
SPLINE
5
1A4
100
AcDbEntity
8
1
62
256
6
ByLayer
370
13
48
1
60
0
100
AcDbSpline
70
4
71
3
72
8
73
4
40
0
40
0
40
0
40
0
40
1
40
1
40
1
40
1
41
1
10
45.4216505545405
20
-1.04784802843153
30
0
41
1
10
45.4561608343848
20
-1.04970986771548
30
0
41
1
10
45.4905516293115
20
-1.05023217041423
30
0
41
1
10
45.5248010422362
20
-1.04916944993428
30
0
0
SPLINE
5
1A5
100
AcDbEntity
8
1
62
256
6
ByLayer
370
13
48
1
60
0
100
AcDbSpline
70
4
71
3
72
8
73
4
40
0
40
0
40
0
40
0
40
1
40
1
40
1
40
1
41
1
10
45.4216505545405
20
1.04784802843122
30
0
41
1
10
45.4561608343848
20
1.04970986771517
30
0
41
1
10
45.4905516293114
20
1.05023217041392
30
0
41
1
10
45.524801042236
20
1.04916944993397
30
0
0
SPLINE
5
1A6
100
AcDbEntity
8
1
62
256
6
ByLayer
370
13
48
1
60
0
100
AcDbSpline
70
4
71
3
72
16
73
12
40
0
40
0
40
0
40
0
40
0.302537928978803
40
0.302537928978803
40
0.453806893468317
40
0.453806893468317
40
0.605075857957832
40
0.605075857957832
40
0.907613786936669
40
0.907613786936669
40
1
40
1
40
1
40
1
41
1
10
45.1862628173316
20
0.516273284346852
30
0
41
1
10
45.1623615434819
20
0.501613036883327
30
0
41
1
10
45.1399225936189
20
0.485411460225634
30
0
41
1
10
45.1083295609391
20
0.459175836319559
30
0
41
1
10
45.0981469180362
20
0.450099800857373
30
0
41
1
10
45.0784734804651
20
0.431323657309406
30
0
41
1
10
45.0689443542556
20
0.421579061173475
30
0
41
1
10
45.0417697517252
20
0.391901677848267
30
0
41
1
10
45.0254832372166
20
0.371497263618608
30
0
41
1
10
45.0062997309905
20
0.344522275003754
30
0
41
1
10
45.0019604911295
20
0.338187937704078
30
0
41
1
10
44.9977625303982
20
0.331841777238822
30
0
0
SPLINE
5
1A7
100
AcDbEntity
8
1
62
256
6
ByLayer
370
13
48
1
60
0
100
AcDbSpline
70
4
71
3
72
18
73
14
40
0
40
0
40
0
40
0
40
0.096743024581365
40
0.096743024581365
40
0.247285853817744
40
0.247285853817744
40
0.397828683054122
40
0.397828683054122
40
0.69891434152706
40
0.69891434152706
40
0.84945717076353
40
0.84945717076353
40
1
40
1
40
1
40
1
41
1
10
44.9969919239259
20
-0.330671807282073
30
0
41
1
10
45.0013773748092
20
-0.337331409746184
30
0
41
1
10
45.0059234202959
20
-0.343987690634947
30
0
41
1
10
45.0179795721585
20
-0.360954186266213
30
0
41
1
10
45.0257310132266
20
-0.371240163037783
30
0
41
1
10
45.0421273160419
20
-0.391629839021249
30
0
41
1
10
45.0508072035882
20
-0.401771362934028
30
0
41
1
10
45.078036832267
20
-0.431509188454129
30
0
41
1
10
45.0976193649143
20
-0.450267323956751
30
0
41
1
10
45.1292053325379
20
-0.476518743348691
30
0
41
1
10
45.1401029108706
20
-0.484955566627093
30
0
41
1
10
45.1626519238854
20
-0.501157267120334
30
0
41
1
10
45.1743122207933
20
-0.50894318538721
30
0
41
1
10
45.1862628173316
20
-0.516273284347193
30
0
0
SPLINE
5
1A8
100
AcDbEntity
8
1
62
256
6
ByLayer
370
18
48
1
60
0
100
AcDbSpline
70
4
71
3
72
20
73
16
40
0
40
0
40
0
40
0
40
0.227926233345001
40
0.227926233345001
40
0.341889350017502
40
0.341889350017502
40
0.455852466690003
40
0.455852466690003
40
0.683778700034919
40
0.683778700034919
40
0.797741816707415
40
0.797741816707415
40
0.911704933379911
40
0.911704933379911
40
1
40
1
40
1
40
1
41
1
10
45.4439118745626
20
1.36619973650161
30
0
41
1
10
45.4090490718301
20
1.36619375428182
30
0
41
1
10
45.3760535476304
20
1.3664290695499
30
0
41
1
10
45.3293366055024
20
1.36714081317751
30
0
41
1
10
45.3142278585921
20
1.36743796512371
30
0
41
1
10
45.2849435406876
20
1.36815285788396
30
0
41
1
10
45.2707685391439
20
1.36857085347972
30
0
41
1
10
45.2298793845137
20
1.36999901559315
30
0
41
1
10
45.204714176905
20
1.37118468446687
30
0
41
1
10
45.1701067233929
20
1.37331341908631
30
0
41
1
10
45.1590812456144
20
1.37408266109901
30
0
41
1
10
45.1381720836991
20
1.37573258415676
30
0
41
1
10
45.1282881107197
20
1.37661292871846
30
0
41
1
10
45.111752183246
20
1.37827296322942
30
0
41
1
10
45.1048730645536
20
1.37903060469236
30
0
41
1
10
45.0983346099153
20
1.37982131090234
30
0
0
SPLINE
5
1A9
100
AcDbEntity
8
1
62
256
6
ByLayer
370
18
48
1
60
0
100
AcDbSpline
70
4
71
3
72
14
73
10
40
0
40
0
40
0
40
0
40
0.0840936135647535
40
0.0840936135647535
40
0.313070210173565
40
0.313070210173565
40
0.542046806782377
40
0.542046806782377
40
1
40
1
40
1
40
1
41
1
10
45.1001188860603
20
-1.37960753883289
30
0
41
1
10
45.1063843033076
20
-1.37886253945902
30
0
41
1
10
45.112952067468
20
-1.37814782395961
30
0
41
1
10
45.1385237681189
20
-1.37559928013059
30
0
41
1
10
45.1594544977434
20
-1.37395844454838
30
0
41
1
10
45.2058163093802
20
-1.37112754070122
30
0
41
1
10
45.2310077808613
20
-1.36995246713909
30
0
41
1
10
45.3123245229993
20
-1.3671340652871
30
0
41
1
10
45.3741873078962
20
-1.36618777223961
30
0
41
1
10
45.4439118745615
20
-1.36619973650093
30
0
0
SPLINE
5
1AA
100
AcDbEntity
8
1
62
256
6
ByLayer
370
13
48
1
60
0
100
AcDbSpline
70
4
71
3
72
16
73
12
40
0
40
0
40
0
40
0
40
0.0781569118841161
40
0.0781569118841161
40
0.539078455942017
40
0.539078455942017
40
0.769539227970968
40
0.769539227970968
40
0.884769613985484
40
0.884769613985484
40
1
40
1
40
1
40
1
41
1
10
45.0790683719811
20
1.07997518369837
30
0
41
1
10
45.0847890279567
20
1.07784891413229
30
0
41
1
10
45.090790684402
20
1.07579101487679
30
0
41
1
10
45.1338663275884
20
1.06219552215529
30
0
41
1
10
45.1793607591718
20
1.05338519754957
30
0
41
1
10
45.260506139581
20
1.04604043481868
30
0
41
1
10
45.289721523402
20
1.04458506251359
30
0
41
1
10
45.3369432084164
20
1.04428368535551
30
0
41
1
10
45.3532659380661
20
1.04450017438191
30
0
41
1
10
45.3867667248766
20
1.04563242423916
30
0
41
1
10
45.4039786247627
20
1.04654743590368
30
0
41
1
10
45.4216505545405
20
1.04784802843122
30
0
0
SPLINE
5
1AB
100
AcDbEntity
8
1
62
256
6
ByLayer
370
13
48
1
60
0
100
AcDbSpline
70
4
71
3
72
16
73
12
40
0
40
0
40
0
40
0
40
0.0870433175342176
40
0.0870433175342176
40
0.543521658767068
40
0.543521658767068
40
0.771760829383494
40
0.771760829383494
40
0.885880414691747
40
0.885880414691747
40
1
40
1
40
1
40
1
41
1
10
45.076944169367
20
-1.08077274572952
30
0
41
1
10
45.083297913962
20
-1.0783628414892
30
0
41
1
10
45.0900129062179
20
-1.07603649647317
30
0
41
1
10
45.1338663275885
20
-1.06219552215572
30
0
41
1
10
45.1793607591718
20
-1.05338519754992
30
0
41
1
10
45.260506139581
20
-1.04604043481905
30
0
41
1
10
45.289721523402
20
-1.04458506251385
30
0
41
1
10
45.3369432084164
20
-1.04428368535579
30
0
41
1
10
45.3532659380662
20
-1.04450017438231
30
0
41
1
10
45.3867667248766
20
-1.0456324242395
30
0
41
1
10
45.4039786247628
20
-1.04654743590399
30
0
41
1
10
45.4216505545405
20
-1.04784802843153
30
0
0
SPLINE
5
1AC
100
AcDbEntity
8
1
62
256
6
ByLayer
370
13
48
1
60
0
100
AcDbSpline
70
4
71
3
72
16
73
12
40
0
40
0
40
0
40
0
40
0.249999999999921
40
0.249999999999921
40
0.499999999999843
40
0.499999999999843
40
0.624999999999885
40
0.624999999999885
40
0.749999999999927
40
0.749999999999927
40
1
40
1
40
1
40
1
41
1
10
41.7387183145794
20
-1.421E-13
30
0
41
1
10
41.7387183145794
20
0.0215408628930049
30
0
41
1
10
41.7356605300437
20
0.0430176893251257
30
0
41
1
10
41.7237252970162
20
0.0840053084593819
30
0
41
1
10
41.7149095302375
20
0.103362688183239
30
0
41
1
10
41.6978965327977
20
0.129688657038258
30
0
41
1
10
41.691652085679
20
0.137930787764134
30
0
41
1
10
41.678025021955
20
0.153356608580424
30
0
41
1
10
41.6706228285513
20
0.160536273475202
30
0
41
1
10
41.64742954292
20
0.17981883796773
30
0
41
1
10
41.6304632523465
20
0.18998206662377
30
0
41
1
10
41.6119275125129
20
0.197335450364903
30
0
0
SPLINE
5
1AD
100
AcDbEntity
8
1
62
256
6
ByLayer
370
13
48
1
60
0
100
AcDbSpline
70
4
71
3
72
16
73
12
40
0
40
0
40
0
40
0
40
0.249999999999998
40
0.249999999999998
40
0.499999999999996
40
0.499999999999996
40
0.624999999999994
40
0.624999999999994
40
0.749999999999992
40
0.749999999999992
40
1
40
1
40
1
40
1
41
1
10
41.7387183145794
20
-1.421E-13
30
0
41
1
10
41.7387183145794
20
-0.0215408628932892
30
0
41
1
10
41.7356605300437
20
-0.0430176893254099
30
0
41
1
10
41.7237252970162
20
-0.0840053084596661
30
0
41
1
10
41.7149095302377
20
-0.103362688183523
30
0
41
1
10
41.6978965327977
20
-0.129688657038571
30
0
41
1
10
41.6916520856789
20
-0.137930787764418
30
0
41
1
10
41.6780250219549
20
-0.153356608580708
30
0
41
1
10
41.6706228285513
20
-0.160536273475486
30
0
41
1
10
41.64742954292
20
-0.179818837968014
30
0
41
1
10
41.6304632523465
20
-0.189982066624054
30
0
41
1
10
41.6119275125129
20
-0.197335450365188
30
0
0
SPLINE
5
1AE
100
AcDbEntity
8
1
62
256
6
ByLayer
370
13
48
1
60
0
100
AcDbSpline
70
4
71
3
72
10
73
6
40
0
40
0
40
0
40
0
40
0.5
40
0.5
40
1
40
1
40
1
40
1
41
1
10
41.1007307747705
20
-1.12543792813545
30
0
41
1
10
41.1007307747704
20
-1.11698998996573
30
0
41
1
10
41.1014782244412
20
-1.10853991343208
30
0
41
1
10
41.1044190973703
20
-1.09201253858805
30
0
41
1
10
41.1066045203276
20
-1.08391460261049
30
0
41
1
10
41.1095137258025
20
-1.07598433134606
30
0
0
SPLINE
5
1AF
100
AcDbEntity
8
1
62
256
6
ByLayer
370
13
48
1
60
0
100
AcDbSpline
70
4
71
3
72
10
73
6
40
0
40
0
40
0
40
0
40
0.5
40
0.5
40
1
40
1
40
1
40
1
41
1
10
41.1007307747705
20
1.12543792813517
30
0
41
1
10
41.1007307747703
20
1.11698998996542
30
0
41
1
10
41.1014782244412
20
1.1085399134318
30
0
41
1
10
41.1044190973704
20
1.09201253858777
30
0
41
1
10
41.1066045203276
20
1.08391460261021
30
0
41
1
10
41.1095137258025
20
1.07598433134575
30
0
0
SPLINE
5
1B0
100
AcDbEntity
8
1
62
256
6
ByLayer
370
13
48
1
60
0
100
AcDbSpline
70
4
71
3
72
10
73
6
40
0
40
0
40
0
40
0
40
0.5
40
0.5
40
1
40
1
40
1
40
1
41
1
10
41.1095137258025
20
1.07598433134575
30
0
41
1
10
41.1134118298344
20
1.06720943826667
30
0
41
1
10
41.1172168941383
20
1.05833898904927
30
0
41
1
10
41.1246438491421
20
1.04040996278317
30
0
41
1
10
41.1282693051746
20
1.03139023477419
30
0
41
1
10
41.1316723340808
20
1.02223313856931
30
0
0
SPLINE
5
1B1
100
AcDbEntity
8
1
62
256
6
ByLayer
370
13
48
1
60
0
100
AcDbSpline
70
4
71
3
72
10
73
6
40
0
40
0
40
0
40
0
40
0.5
40
0.5
40
1
40
1
40
1
40
1
41
1
10
41.1095137258025
20
-1.07598433134604
30
0
41
1
10
41.1134118298344
20
-1.06720943826696
30
0
41
1
10
41.1172168941383
20
-1.05833898904956
30
0
41
1
10
41.1246438491421
20
-1.04040996278346
30
0
41
1
10
41.1282693051746
20
-1.03139023477448
30
0
41
1
10
41.1316723340808
20
-1.02223313856959
30
0
0
SPLINE
5
1B2
100
AcDbEntity
8
1
62
256
6
ByLayer
370
13
48
1
60
0
100
AcDbSpline
70
4
71
3
72
10
73
6
40
0
40
0
40
0
40
0
40
0.5
40
0.5
40
1
40
1
40
1
40
1
41
1
10
41.1735194631633
20
-1.03778468315571
30
0
41
1
10
41.1693860558686
20
-1.04890540486335
30
0
41
1
10
41.1651926459833
20
-1.05999811230737
30
0
41
1
10
41.1567528938184
20
-1.08209116622552
30
0
41
1
10
41.1525082164741
20
-1.09308168760987
30
0
41
1
10
41.1483820483085
20
-1.10407567968767
30
0
0
SPLINE
5
1B3
100
AcDbEntity
8
1
62
256
6
ByLayer
370
13
48
1
60
0
100
AcDbSpline
70
4
71
3
72
10
73
6
40
0
40
0
40
0
40
0
40
0.5
40
0.5
40
1
40
1
40
1
40
1
41
1
10
41.1483820483085
20
-1.1040756796877
30
0
41
1
10
41.1471085670968
20
-1.10746881389716
30
0
41
1
10
41.1461792648761
20
-1.11095661204052
30
0
41
1
10
41.1449712970802
20
-1.11810835386058
30
0
41
1
10
41.1447012911499
20
-1.1218113643645
30
0
41
1
10
41.1447000368491
20
-1.12543792813543
30
0
0
SPLINE
5
1B4
100
AcDbEntity
8
1
62
256
6
ByLayer
370
13
48
1
60
0
100
AcDbSpline
70
4
71
3
72
10
73
6
40
0
40
0
40
0
40
0
40
0.5
40
0.5
40
1
40
1
40
1
40
1
41
1
10
41.1483820483085
20
1.10407567968741
30
0
41
1
10
41.1471085670967
20
1.10746881389687
30
0
41
1
10
41.146179264876
20
1.11095661204021
30
0
41
1
10
41.14497129708
20
1.11810835386026
30
0
41
1
10
41.1447003449461
20
1.12181136400955
30
0
41
1
10
41.1447000368491
20
1.12543792813511
30
0
0
SPLINE
5
1B5
100
AcDbEntity
8
1
62
256
6
ByLayer
370
13
48
1
60
0
100
AcDbSpline
70
4
71
3
72
10
73
6
40
0
40
0
40
0
40
0
40
0.5
40
0.5
40
1
40
1
40
1
40
1
41
1
10
41.1735194631633
20
1.03778468315542
30
0
41
1
10
41.1693862454105
20
1.04890547520819
30
0
41
1
10
41.1651926459833
20
1.05999811230706
30
0
41
1
10
41.1567528938184
20
1.08209116622524
30
0
41
1
10
41.1525082164741
20
1.09308168760958
30
0
41
1
10
41.1483820483085
20
1.10407567968735
30
0
0
SPLINE
5
1B6
100
AcDbEntity
8
1
62
256
6
ByLayer
370
13
48
1
60
0
100
AcDbSpline
70
4
71
3
72
8
73
4
40
0
40
0
40
0
40
0
40
1
40
1
40
1
40
1
41
1
10
41.5211563939863
20
0.243608267740427
30
0
41
1
10
41.5540514869738
20
0.232426909249909
30
0
41
1
10
41.5854464081467
20
0.223016634976403
30
0
41
1
10
41.6147429618596
20
0.215325091036902
30
0
0
SPLINE
5
1B7
100
AcDbEntity
8
1
62
256
6
ByLayer
370
13
48
1
60
0
100
AcDbSpline
70
4
71
3
72
8
73
4
40
0
40
0
40
0
40
0
40
1
40
1
40
1
40
1
41
1
10
41.5211563939863
20
-0.243608267740711
30
0
41
1
10
41.5540514869738
20
-0.232426909250194
30
0
41
1
10
41.5854464081467
20
-0.223016634976688
30
0
41
1
10
41.6147429618596
20
-0.215325091037187
30
0
0
SPLINE
5
1B8
100
AcDbEntity
8
1
62
256
6
ByLayer
370
18
48
1
60
0
100
AcDbSpline
70
4
71
3
72
8
73
4
40
0
40
0
40
0
40
0
40
1
40
1
40
1
40
1
41
1
10
45.0828770378077
20
1.09501624062599
30
0
41
1
10
45.0823769376173
20
1.08781928154207
30
0
41
1
10
45.0812904940754
20
1.08071372837043
30
0
41
1
10
45.0796018667686
20
1.07370561088052
30
0
0
SPLINE
5
1B9
100
AcDbEntity
8
1
62
256
6
ByLayer
370
13
48
1
60
0
100
AcDbSpline
70
4
71
3
72
14
73
10
40
0
40
0
40
0
40
0
40
0.25
40
0.25
40
0.5
40
0.5
40
0.75
40
0.75
40
1
40
1
40
1
40
1
41
1
10
41.6971097032309
20
0.195391530150488
30
0
41
1
10
41.6897425670369
20
0.205321322529301
30
0
41
1
10
41.6819458506037
20
0.214490909578728
30
0
41
1
10
41.6652712992377
20
0.231769528530378
30
0
41
1
10
41.6564196893671
20
0.239833811372705
30
0
41
1
10
41.6377357089363
20
0.254745176183207
30
0
41
1
10
41.6278808127272
20
0.261615712689519
30
0
41
1
10
41.6069851764084
20
0.274104425601621
30
0
41
1
10
41.5959473149595
20
0.279724211266085
30
0
41
1
10
41.5841851255188
20
0.284588827440729
30
0
0
SPLINE
5
1BA
100
AcDbEntity
8
1
62
256
6
ByLayer
370
13
48
1
60
0
100
AcDbSpline
70
4
71
3
72
8
73
4
40
0
40
0
40
0
40
0
40
1
40
1
40
1
40
1
41
1
10
41.5841851255188
20
0.284588827440729
30
0
41
1
10
41.5611283874213
20
0.294124652523209
30
0
41
1
10
41.5367258138216
20
0.305310982182391
30
0
41
1
10
41.5114965587949
20
0.318017379081766
30
0
0
SPLINE
5
1BB
100
AcDbEntity
8
1
62
256
6
ByLayer
370
13
48
1
60
0
100
AcDbSpline
70
4
71
3
72
8
73
4
40
0
40
0
40
0
40
0
40
1
40
1
40
1
40
1
41
1
10
41.2238025076639
20
-1.12543792813543
30
0
41
1
10
41.2238025076639
20
-1.10466980358677
30
0
41
1
10
41.2282514981443
20
-1.08019200098977
30
0
41
1
10
41.2354571900312
20
-1.0608024466695
30
0
0
SPLINE
5
1BC
100
AcDbEntity
8
1
62
256
6
ByLayer
370
13
48
1
60
0
100
AcDbSpline
70
4
71
3
72
14
73
10
40
0
40
0
40
0
40
0
40
0.25
40
0.25
40
0.5
40
0.5
40
0.75
40
0.75
40
1
40
1
40
1
40
1
41
1
10
41.6971097032309
20
-0.1953915301508
30
0
41
1
10
41.6897425670369
20
-0.205321322529613
30
0
41
1
10
41.6819458506037
20
-0.214490909579013
30
0
41
1
10
41.6652712992377
20
-0.231769528530663
30
0
41
1
10
41.6564196893671
20
-0.239833811373103
30
0
41
1
10
41.6377357089363
20
-0.254745176183604
30
0
41
1
10
41.6278808127272
20
-0.261615712689633
30
0
41
1
10
41.6069851764084
20
-0.274104425601791
30
0
41
1
10
41.5959473149595
20
-0.279724211266398
30
0
41
1
10
41.5841851255188
20
-0.284588827441013
30
0
0
SPLINE
5
1BD
100
AcDbEntity
8
1
62
256
6
ByLayer
370
13
48
1
60
0
100
AcDbSpline
70
4
71
3
72
8
73
4
40
0
40
0
40
0
40
0
40
1
40
1
40
1
40
1
41
1
10
41.5841851255188
20
-0.284588827441013
30
0
41
1
10
41.5611283874213
20
-0.294124652523493
30
0
41
1
10
41.5367258138216
20
-0.305310982182675
30
0
41
1
10
41.5114965587949
20
-0.31801737908205
30
0
0
SPLINE
5
1BE
100
AcDbEntity
8
1
62
256
6
ByLayer
370
13
48
1
60
0
100
AcDbSpline
70
4
71
3
72
12
73
8
40
0
40
0
40
0
40
0
40
0.500000000000024
40
0.500000000000024
40
0.750000000000012
40
0.750000000000012
40
1
40
1
40
1
40
1
41
1
10
41.6147429618645
20
0.215325091034515
30
0
41
1
10
41.6340626112556
20
0.211308633817225
30
0
41
1
10
41.6508403148315
20
0.205150270457494
30
0
41
1
10
41.6733242860009
20
0.193323864894694
30
0
41
1
10
41.6803735358978
20
0.18892688601187
30
0
41
1
10
41.693630285338
20
0.179126707339464
30
0
41
1
10
41.6998110871716
20
0.17376838273475
30
0
41
1
10
41.7057014233671
20
0.167587691699595
30
0
0
SPLINE
5
1BF
100
AcDbEntity
8
1
62
256
6
ByLayer
370
13
48
1
60
0
100
AcDbSpline
70
4
71
3
72
8
73
4
40
0
40
0
40
0
40
0
40
1
40
1
40
1
40
1
41
1
10
41.6118510782375
20
0.200755651798147
30
0
41
1
10
41.6129413966769
20
0.205419516227835
30
0
41
1
10
41.6139085832659
20
0.210271080013285
30
0
41
1
10
41.6147429618685
20
0.215325091033634
30
0
0
SPLINE
5
1C0
100
AcDbEntity
8
1
62
256
6
ByLayer
370
13
48
1
60
0
100
AcDbSpline
70
4
71
3
72
12
73
8
40
0
40
0
40
0
40
0
40
0.500000000000001
40
0.500000000000001
40
0.75
40
0.75
40
1
40
1
40
1
40
1
41
1
10
41.7057014233667
20
0.167587691700277
30
0
41
1
10
41.7158649158389
20
0.156923205884141
30
0
41
1
10
41.7239178088825
20
0.145498391053763
30
0
41
1
10
41.7331104621986
20
0.127535288015508
30
0
41
1
10
41.735689946718
20
0.121405912754
30
0
41
1
10
41.7398782881332
20
0.108881462130483
30
0
41
1
10
41.7414875102901
20
0.102457627622812
30
0
41
1
10
41.7425773707897
20
0.0960474842361805
30
0
0
SPLINE
5
1C1
100
AcDbEntity
8
1
62
256
6
ByLayer
370
18
48
1
60
0
100
AcDbSpline
70
4
71
3
72
12
73
8
40
0
40
0
40
0
40
0
40
0.250000000000041
40
0.250000000000041
40
0.500000000000082
40
0.500000000000082
40
1
40
1
40
1
40
1
41
1
10
41.7425773707895
20
0.096047484237431
30
0
41
1
10
41.7410531745582
20
0.105012224586176
30
0
41
1
10
41.7389387182334
20
0.113906371066179
30
0
41
1
10
41.7335879253968
20
0.131330468546679
30
0
41
1
10
41.7303586747357
20
0.139852095028402
30
0
41
1
10
41.7190190614873
20
0.164803413771978
30
0
41
1
10
41.7092613711733
20
0.18065851736003
30
0
41
1
10
41.6971097032308
20
0.195391530151113
30
0
0
SPLINE
5
1C2
100
AcDbEntity
8
1
62
256
6
ByLayer
370
13
48
1
60
0
100
AcDbSpline
70
4
71
3
72
8
73
4
40
0
40
0
40
0
40
0
40
1
40
1
40
1
40
1
41
1
10
41.2238025076639
20
1.12543792813511
30
0
41
1
10
41.2238025076639
20
1.10466980358649
30
0
41
1
10
41.2282514981443
20
1.08019200098948
30
0
41
1
10
41.2354571900312
20
1.06080244666921
30
0
0
SPLINE
5
1C3
100
AcDbEntity
8
1
62
256
6
ByLayer
370
18
48
1
60
0
100
AcDbSpline
70
4
71
3
72
12
73
8
40
0
40
0
40
0
40
0
40
0.250000000000001
40
0.250000000000001
40
0.500000000000001
40
0.500000000000001
40
1
40
1
40
1
40
1
41
1
10
41.7425773707895
20
-0.0960474842377153
30
0
41
1
10
41.741053174558
20
-0.105012224586432
30
0
41
1
10
41.7389387182334
20
-0.113906371066491
30
0
41
1
10
41.7335879253968
20
-0.131330468546963
30
0
41
1
10
41.7303586747357
20
-0.13985209502863
30
0
41
1
10
41.7190190614873
20
-0.164803413772233
30
0
41
1
10
41.7092615851524
20
-0.180657876369423
30
0
41
1
10
41.6971097032308
20
-0.195391530151397
30
0
0
SPLINE
5
1C4
100
AcDbEntity
8
1
62
256
6
ByLayer
370
13
48
1
60
0
100
AcDbSpline
70
4
71
3
72
12
73
8
40
0
40
0
40
0
40
0
40
0.5
40
0.5
40
0.75
40
0.75
40
1
40
1
40
1
40
1
41
1
10
41.6147429618645
20
-0.215325091034799
30
0
41
1
10
41.6340626112555
20
-0.211308633817026
30
0
41
1
10
41.6508403148315
20
-0.205150270457807
30
0
41
1
10
41.6733242860009
20
-0.193323864894978
30
0
41
1
10
41.6803735358978
20
-0.188926886012126
30
0
41
1
10
41.693630285338
20
-0.179126707339748
30
0
41
1
10
41.6998110871716
20
-0.173768382735062
30
0
41
1
10
41.7057014233671
20
-0.167587691699907
30
0
0
SPLINE
5
1C5
100
AcDbEntity
8
1
62
256
6
ByLayer
370
13
48
1
60
0
100
AcDbSpline
70
4
71
3
72
12
73
8
40
0
40
0
40
0
40
0
40
0.49999999999997
40
0.49999999999997
40
0.749999999999985
40
0.749999999999985
40
1
40
1
40
1
40
1
41
1
10
41.7057014233667
20
-0.167587691700561
30
0
41
1
10
41.7158649158389
20
-0.156923205884453
30
0
41
1
10
41.7239178088825
20
-0.145498391054048
30
0
41
1
10
41.7331104621985
20
-0.127535288015764
30
0
41
1
10
41.7356899467179
20
-0.121405912754511
30
0
41
1
10
41.7398782881332
20
-0.10888146213091
30
0
41
1
10
41.7414875102907
20
-0.10245762762321
30
0
41
1
10
41.7425773707897
20
-0.0960474842364931
30
0
0
SPLINE
5
1C6
100
AcDbEntity
8
1
62
256
6
ByLayer
370
13
48
1
60
0
100
AcDbSpline
70
4
71
3
72
8
73
4
40
0
40
0
40
0
40
0
40
1
40
1
40
1
40
1
41
1
10
41.6118510782375
20
-0.200755651798431
30
0
41
1
10
41.6129413966769
20
-0.205419516228147
30
0
41
1
10
41.6139085832658
20
-0.21027108001357
30
0
41
1
10
41.6147429618685
20
-0.215325091033918
30
0
0
SPLINE
5
1C7
100
AcDbEntity
8
1
62
256
6
ByLayer
370
18
48
1
60
0
100
AcDbSpline
70
4
71
3
72
12
73
8
40
0
40
0
40
0
40
0
40
0.5
40
0.5
40
0.75
40
0.75
40
1
40
1
40
1
40
1
41
1
10
41.3566452201385
20
-1.25000000000014
30
0
41
1
10
41.3626167220091
20
-1.25000000000014
30
0
41
1
10
41.3669367267721
20
-1.2478931412949
30
0
41
1
10
41.3711735228523
20
-1.24116564283287
30
0
41
1
10
41.3721924107747
20
-1.23833201291939
30
0
41
1
10
41.3735019866336
20
-1.23159863934004
30
0
41
1
10
41.3738025076639
20
-1.22768468259162
30
0
41
1
10
41.3738025076639
20
-1.22320508075703
30
0
0
SPLINE
5
1C8
100
AcDbEntity
8
1
62
256
6
ByLayer
370
18
48
1
60
0
100
AcDbSpline
70
4
71
3
72
14
73
10
40
0
40
0
40
0
40
0
40
0.25
40
0.25
40
0.5
40
0.5
40
0.75
40
0.75
40
1
40
1
40
1
40
1
41
1
10
41.3738025076639
20
-1.12543792813543
30
0
41
1
10
41.3738025076639
20
-1.12439074655671
30
0
41
1
10
41.3737922002884
20
-1.12334004224343
30
0
41
1
10
41.3737855277431
20
-1.12123167400648
30
0
41
1
10
41.3737694134429
20
-1.12016666892009
30
0
41
1
10
41.374158470656
20
-1.11807470614309
30
0
41
1
10
41.3745494337437
20
-1.11707622269941
30
0
41
1
10
41.3753028876097
20
-1.1150688171592
30
0
41
1
10
41.3756866129699
20
-1.11406471526388
30
0
41
1
10
41.3760618485322
20
-1.11305500649004
30
0
0
SPLINE
5
1C9
100
AcDbEntity
8
1
62
256
6
ByLayer
370
18
48
1
60
0
100
AcDbSpline
70
4
71
3
72
12
73
8
40
0
40
0
40
0
40
0
40
0.500000000000046
40
0.500000000000046
40
0.750000000000023
40
0.750000000000023
40
1
40
1
40
1
40
1
41
1
10
41.3738025076639
20
1.22320508075674
30
0
41
1
10
41.3738025076639
20
1.23216263579525
30
0
41
1
10
41.3726085481061
20
1.23884561241005
30
0
41
1
10
41.3683918789763
20
1.2456028424084
30
0
41
1
10
41.3665851076148
20
1.24727626737626
30
0
41
1
10
41.3622092993708
20
1.24946687237164
30
0
41
1
10
41.3596315104879
20
1.24999999999986
30
0
41
1
10
41.3566452201385
20
1.24999999999986
30
0
0
SPLINE
5
1CA
100
AcDbEntity
8
1
62
256
6
ByLayer
370
18
48
1
60
0
100
AcDbSpline
70
4
71
3
72
14
73
10
40
0
40
0
40
0
40
0
40
0.25
40
0.25
40
0.5
40
0.5
40
0.75
40
0.75
40
1
40
1
40
1
40
1
41
1
10
41.3760618485322
20
1.11305500648976
30
0
41
1
10
41.375686051579
20
1.11406622589121
30
0
41
1
10
41.3753017147319
20
1.11507184175556
30
0
41
1
10
41.3745472297763
20
1.11708219538519
30
0
41
1
10
41.3741548559539
20
1.11808914786684
30
0
41
1
10
41.3737704080343
20
1.12016634961853
30
0
41
1
10
41.3737855208919
20
1.12123393270065
30
0
41
1
10
41.3737922181013
20
1.12334123992585
30
0
41
1
10
41.3738025076639
20
1.12439136820831
30
0
41
1
10
41.3738025076639
20
1.12543792813511
30
0
0
SPLINE
5
1CB
100
AcDbEntity
8
1
62
256
6
ByLayer
370
18
48
1
60
0
100
AcDbSpline
70
4
71
3
72
8
73
4
40
0
40
0
40
0
40
0
40
1
40
1
40
1
40
1
41
1
10
41.7146661740586
20
0.20191599777516
30
0
41
1
10
41.7239197890986
20
0.177015755814409
30
0
41
1
10
41.7316556176835
20
0.14992033954519
30
0
41
1
10
41.7375833579746
20
0.122122714318977
30
0
0
SPLINE
5
1CC
100
AcDbEntity
8
1
62
256
6
ByLayer
370
18
48
1
60
0
100
AcDbSpline
70
4
71
3
72
8
73
4
40
0
40
0
40
0
40
0
40
1
40
1
40
1
40
1
41
1
10
41.7375833579745
20
0.122122714318977
30
0
41
1
10
41.7462767708766
20
0.0813557066694273
30
0
41
1
10
41.7510813273183
20
0.0390783801665009
30
0
41
1
10
41.7510813273183
20
-3.126E-13
30
0
0
SPLINE
5
1CD
100
AcDbEntity
8
1
62
256
6
ByLayer
370
18
48
1
60
0
100
AcDbSpline
70
4
71
3
72
8
73
4
40
0
40
0
40
0
40
0
40
1
40
1
40
1
40
1
41
1
10
41.7375833579745
20
-0.122122714319289
30
0
41
1
10
41.7462767708766
20
-0.0813557066697115
30
0
41
1
10
41.7510813273183
20
-0.0390783801667851
30
0
41
1
10
41.7510813273183
20
2.84E-14
30
0
0
SPLINE
5
1CE
100
AcDbEntity
8
1
62
256
6
ByLayer
370
18
48
1
60
0
100
AcDbSpline
70
4
71
3
72
8
73
4
40
0
40
0
40
0
40
0
40
1
40
1
40
1
40
1
41
1
10
41.7146661740586
20
-0.201915997775473
30
0
41
1
10
41.7239197890986
20
-0.177015755814693
30
0
41
1
10
41.7316556176835
20
-0.149920339545474
30
0
41
1
10
41.7375833579746
20
-0.122122714319289
30
0
0
SPLINE
5
1CF
100
AcDbEntity
8
1
62
256
6
ByLayer
370
13
48
1
60
0
100
AcDbSpline
70
4
71
3
72
26
73
22
40
0
40
0
40
0
40
0
40
0.125000000000079
40
0.125000000000079
40
0.250000000000158
40
0.250000000000158
40
0.375000000000237
40
0.375000000000237
40
0.437500000000269
40
0.437500000000269
40
0.500000000000301
40
0.500000000000301
40
0.625000000000255
40
0.625000000000255
40
0.687500000000172
40
0.687500000000172
40
0.750000000000089
40
0.750000000000089
40
0.875000000000045
40
0.875000000000045
40
1
40
1
40
1
40
1
41
1
10
41.8078231559424
20
-1.25000000000014
30
0
41
1
10
41.8247069046204
20
-1.25000000000014
30
0
41
1
10
41.8410492952942
20
-1.24956919825396
30
0
41
1
10
41.8725263192612
20
-1.24713571495133
30
0
41
1
10
41.8876646946978
20
-1.24512700611714
30
0
41
1
10
41.9167917438348
20
-1.23861013443778
30
0
41
1
10
41.9304539686369
20
-1.23416054247542
30
0
41
1
10
41.9500357390113
20
-1.22533150668434
30
0
41
1
10
41.956413542121
20
-1.22203152620034
30
0
41
1
10
41.9689675933938
20
-1.21468400555406
30
0
41
1
10
41.9751500391994
20
-1.21062850438392
30
0
41
1
10
41.9932863847759
20
-1.19753752843678
30
0
41
1
10
42.0049259725382
20
-1.18752195848609
30
0
41
1
10
42.0224373516462
20
-1.17088739488696
30
0
41
1
10
42.0283044166551
20
-1.16505317100558
30
0
41
1
10
42.0400646261577
20
-1.15303974154486
30
0
41
1
10
42.0459467351489
20
-1.14687413042537
30
0
41
1
10
42.0637715890372
20
-1.12805804089354
30
0
41
1
10
42.0758936422226
20
-1.11508547062297
30
0
41
1
10
42.1014900918169
20
-1.08916493485373
30
0
41
1
10
42.1148343667367
20
-1.07636959742217
30
0
41
1
10
42.1289305225021
20
-1.06428101446781
30
0
0
SPLINE
5
1D0
100
AcDbEntity
8
1
62
256
6
ByLayer
370
13
48
1
60
0
100
AcDbSpline
70
4
71
3
72
26
73
22
40
0
40
0
40
0
40
0
40
0.125000000000118
40
0.125000000000118
40
0.187500000000111
40
0.187500000000111
40
0.250000000000105
40
0.250000000000105
40
0.375000000000093
40
0.375000000000093
40
0.50000000000008
40
0.50000000000008
40
0.625000000000068
40
0.625000000000068
40
0.687500000000003
40
0.687500000000003
40
0.749999999999937
40
0.749999999999937
40
0.874999999999969
40
0.874999999999969
40
1
40
1
40
1
40
1
41
1
10
42.128930522502
20
1.06428101446758
30
0
41
1
10
42.1148273334973
20
1.07637562898827
30
0
41
1
10
42.1015972782372
20
1.08906372242944
30
0
41
1
10
42.0825401922865
20
1.1083511866573
30
0
41
1
10
42.0763179746068
20
1.11482220230047
30
0
41
1
10
42.0640346320006
20
1.12773569923982
30
0
41
1
10
42.0579515216376
20
1.13420133226273
30
0
41
1
10
42.0400219605374
20
1.1531292279972
30
0
41
1
10
42.0284529411605
20
1.16516161107265
30
0
41
1
10
42.0051318564508
20
1.18733759893286
30
0
41
1
10
41.9933062930721
20
1.19751888588223
30
0
41
1
10
41.9691811776578
20
1.21494113737717
30
0
41
1
10
41.9568141872333
20
1.2222582061822
30
0
41
1
10
41.9371474323453
20
1.23115091866566
30
0
41
1
10
41.930381255734
20
1.23377629767143
30
0
41
1
10
41.9165995384434
20
1.23830643886021
30
0
41
1
10
41.9095668360307
20
1.24022224000822
30
0
41
1
10
41.8879688461515
20
1.24506761273682
30
0
41
1
10
41.8728934097052
20
1.24709702986729
30
0
41
1
10
41.841250078283
20
1.24956379797575
30
0
41
1
10
41.8247305229202
20
1.24999999999986
30
0
41
1
10
41.8078231559424
20
1.24999999999986
30
0
0
SPLINE
5
1D1
100
AcDbEntity
8
1
62
256
6
ByLayer
370
13
48
1
60
0
100
AcDbSpline
70
4
71
3
72
8
73
4
40
0
40
0
40
0
40
0
40
1
40
1
40
1
40
1
41
1
10
45.4700595950889
20
0.668145945888341
30
0
41
1
10
45.453679289986
20
0.661683316823115
30
0
41
1
10
45.4372728617076
20
0.65521369146353
30
0
41
1
10
45.4208376211001
20
0.648736310957077
30
0
0
SPLINE
5
1D2
100
AcDbEntity
8
1
62
256
6
ByLayer
370
13
48
1
60
0
100
AcDbSpline
70
4
71
3
72
10
73
6
40
0
40
0
40
0
40
0
40
0.5
40
0.5
40
1
40
1
40
1
40
1
41
1
10
45.4773240153788
20
0.693728829137228
30
0
41
1
10
45.4772516148017
20
0.689758333006012
30
0
41
1
10
45.4767338946355
20
0.685659310039455
30
0
41
1
10
45.4744764419474
20
0.677117264126508
30
0
41
1
10
45.4727057132499
20
0.672611797008017
30
0
41
1
10
45.4700595951144
20
0.668145945891695
30
0
0
SPLINE
5
1D3
100
AcDbEntity
8
1
62
256
6
ByLayer
370
13
48
1
60
0
100
AcDbSpline
70
4
71
3
72
12
73
8
40
0
40
0
40
0
40
0
40
0.49999999999999
40
0.49999999999999
40
0.749999999999995
40
0.749999999999995
40
1
40
1
40
1
40
1
41
1
10
45.4773240153788
20
0.6937288291372
30
0
41
1
10
45.4779875054722
20
0.730115070177078
30
0
41
1
10
45.4787060071688
20
0.766062048229031
30
0
41
1
10
45.4797809758614
20
0.819106942461275
30
0
41
1
10
45.4801292968157
20
0.836634997170876
30
0
41
1
10
45.4808029612166
20
0.871361005364122
30
0
41
1
10
45.4815839538579
20
0.88875517925996
30
0
41
1
10
45.4825622507264
20
0.905980725467941
30
0
0
SPLINE
5
1D4
100
AcDbEntity
8
1
62
256
6
ByLayer
370
13
48
1
60
0
100
AcDbSpline
70
4
71
3
72
8
73
4
40
0
40
0
40
0
40
0
40
1
40
1
40
1
40
1
41
1
10
45.4825622507309
20
0.905980725467231
30
0
41
1
10
45.4494030382266
20
0.905316156630477
30
0
41
1
10
45.4160691085765
20
0.903098132613366
30
0
41
1
10
45.3826718606573
20
0.899716188449503
30
0
0
SPLINE
5
1D5
100
AcDbEntity
8
1
62
256
6
ByLayer
370
13
48
1
60
0
100
AcDbSpline
70
4
71
3
72
16
73
12
40
0
40
0
40
0
40
0
40
0.129815412800616
40
0.129815412800616
40
0.259630825601233
40
0.259630825601233
40
0.519261651202364
40
0.519261651202364
40
0.778892476803496
40
0.778892476803496
40
1
40
1
40
1
40
1
41
1
10
45.3826718606573
20
0.899716188449503
30
0
41
1
10
45.3631586651148
20
0.897740201148338
30
0
41
1
10
45.3441256688855
20
0.896152941587616
30
0
41
1
10
45.3070287525864
20
0.893687516682263
30
0
41
1
10
45.2889246000032
20
0.892808509447946
30
0
41
1
10
45.2364732093891
20
0.891160935446777
30
0
41
1
10
45.203942080931
20
0.891366256416291
30
0
41
1
10
45.1435759275005
20
0.893871038302962
30
0
41
1
10
45.1157419574297
20
0.896169107219123
30
0
41
1
10
45.0685365893138
20
0.902066122686335
30
0
41
1
10
45.0485218920149
20
0.905422871924742
30
0
41
1
10
45.0302469133815
20
0.909358745264001
30
0
0
SPLINE
5
1D6
100
AcDbEntity
8
1
62
256
6
ByLayer
370
13
48
1
60
0
100
AcDbSpline
70
4
71
3
72
12
73
8
40
0
40
0
40
0
40
0
40
0.0605354011467244
40
0.0605354011467244
40
0.530267700573362
40
0.530267700573362
40
1
40
1
40
1
40
1
41
1
10
45.0104655779779
20
0.588483534559941
30
0
41
1
10
45.0135434967973
20
0.586939551340066
30
0
41
1
10
45.0166513711767
20
0.585400408382895
30
0
41
1
10
45.0441251769809
20
0.571967224517664
30
0
41
1
10
45.0701723412782
20
0.560400395192403
30
0
41
1
10
45.1256660497135
20
0.537907417463231
30
0
41
1
10
45.1551225823731
20
0.526998453470412
30
0
41
1
10
45.1862628173316
20
0.516273284346909
30
0
0
SPLINE
5
1D7
100
AcDbEntity
8
1
62
256
6
ByLayer
370
13
48
1
60
0
100
AcDbSpline
70
4
71
3
72
14
73
10
40
0
40
0
40
0
40
0
40
0.500000000000263
40
0.500000000000263
40
0.625000000000197
40
0.625000000000197
40
0.750000000000131
40
0.750000000000131
40
1
40
1
40
1
40
1
41
1
10
45.4208376211001
20
0.648736310957077
30
0
41
1
10
45.3807126284602
20
0.63292243567804
30
0
41
1
10
45.340854380533
20
0.614440737684902
30
0
41
1
10
45.2914063268743
20
0.587328293896377
30
0
41
1
10
45.2815317535897
20
0.581728464013878
30
0
41
1
10
45.2618541525574
20
0.569910075920063
30
0
41
1
10
45.2520546402855
20
0.563701634284854
30
0
41
1
10
45.2231865424626
20
0.544459978169414
30
0
41
1
10
45.2044747394088
20
0.530769825763173
30
0
41
1
10
45.1862628173316
20
0.51627328434688
30
0
0
SPLINE
5
1D8
100
AcDbEntity
8
1
62
256
6
ByLayer
370
13
48
1
60
0
100
AcDbSpline
70
4
71
3
72
8
73
4
40
0
40
0
40
0
40
0
40
1
40
1
40
1
40
1
41
1
10
45.4208376211001
20
-0.648736310957389
30
0
41
1
10
45.4372728617076
20
-0.655213691463842
30
0
41
1
10
45.453679289986
20
-0.6616833168234
30
0
41
1
10
45.4700595950889
20
-0.668145945888568
30
0
0
SPLINE
5
1D9
100
AcDbEntity
8
1
62
256
6
ByLayer
370
13
48
1
60
0
100
AcDbSpline
70
4
71
3
72
16
73
12
40
0
40
0
40
0
40
0
40
0.250000000000002
40
0.250000000000002
40
0.375000000000002
40
0.375000000000002
40
0.500000000000002
40
0.500000000000002
40
0.750000000000001
40
0.750000000000001
40
1
40
1
40
1
40
1
41
1
10
45.1862628173316
20
-0.516273284347193
30
0
41
1
10
45.2045150662036
20
-0.530801925563196
30
0
41
1
10
45.2231495810227
20
-0.544423941581869
30
0
41
1
10
45.2516861439935
20
-0.563461602911531
30
0
41
1
10
45.2613008928687
20
-0.56956284583768
30
0
41
1
10
45.2807369367016
20
-0.581265036413186
30
0
41
1
10
45.2905632881147
20
-0.58685329311183
30
0
41
1
10
45.320224826357
20
-0.603153474931759
30
0
41
1
10
45.3403694024165
20
-0.613355822112624
30
0
41
1
10
45.3806091764156
20
-0.632180786566693
30
0
41
1
10
45.4007239755134
20
-0.640809214607032
30
0
41
1
10
45.4208376211001
20
-0.648736310957389
30
0
0
SPLINE
5
1DA
100
AcDbEntity
8
1
62
256
6
ByLayer
370
13
48
1
60
0
100
AcDbSpline
70
4
71
3
72
12
73
8
40
0
40
0
40
0
40
0
40
0.0605354011391517
40
0.0605354011391517
40
0.530267700569576
40
0.530267700569576
40
1
40
1
40
1
40
1
41
1
10
45.0104655779791
20
-0.588483534559629
30
0
41
1
10
45.0135434967982
20
-0.586939551339981
30
0
41
1
10
45.0166513711771
20
-0.585400408383038
30
0
41
1
10
45.0441251769809
20
-0.571967224518033
30
0
41
1
10
45.0701723412783
20
-0.560400395192715
30
0
41
1
10
45.1256660497136
20
-0.537907417463543
30
0
41
1
10
45.155122582373
20
-0.526998453470611
30
0
41
1
10
45.1862628173315
20
-0.516273284347164
30
0
0
SPLINE
5
1DB
100
AcDbEntity
8
1
62
256
6
ByLayer
370
13
48
1
60
0
100
AcDbSpline
70
4
71
3
72
16
73
12
40
0
40
0
40
0
40
0
40
0.129815412800864
40
0.129815412800864
40
0.259630825601727
40
0.259630825601727
40
0.519261651203543
40
0.519261651203543
40
0.778892476805358
40
0.778892476805358
40
1
40
1
40
1
40
1
41
1
10
45.3826718606573
20
-0.899716188449844
30
0
41
1
10
45.3631586651148
20
-0.89774020114865
30
0
41
1
10
45.3441256688856
20
-0.896152941588014
30
0
41
1
10
45.3070287525864
20
-0.893687516682576
30
0
41
1
10
45.2889246000033
20
-0.892808509448287
30
0
41
1
10
45.2364732093892
20
-0.891160935447147
30
0
41
1
10
45.2039420809309
20
-0.891366256416603
30
0
41
1
10
45.1435759275004
20
-0.893871038303189
30
0
41
1
10
45.1157419574297
20
-0.896169107219436
30
0
41
1
10
45.068536589314
20
-0.90206612268662
30
0
41
1
10
45.0485218920154
20
-0.905422871924941
30
0
41
1
10
45.0302469133822
20
-0.9093587452642
30
0
0
SPLINE
5
1DC
100
AcDbEntity
8
1
62
256
6
ByLayer
370
13
48
1
60
0
100
AcDbSpline
70
4
71
3
72
8
73
4
40
0
40
0
40
0
40
0
40
1
40
1
40
1
40
1
41
1
10
45.482562250731
20
-0.9059807254676
30
0
41
1
10
45.4494030382268
20
-0.905316156631329
30
0
41
1
10
45.4160691085765
20
-0.903098132613678
30
0
41
1
10
45.3826718606573
20
-0.899716188449844
30
0
0
SPLINE
5
1DD
100
AcDbEntity
8
1
62
256
6
ByLayer
370
13
48
1
60
0
100
AcDbSpline
70
4
71
3
72
12
73
8
40
0
40
0
40
0
40
0
40
0.500000000000003
40
0.500000000000003
40
0.750000000000001
40
0.750000000000001
40
1
40
1
40
1
40
1
41
1
10
45.4773240153786
20
-0.693728829137541
30
0
41
1
10
45.477987505472
20
-0.730115070177334
30
0
41
1
10
45.4787060071689
20
-0.766062048229401
30
0
41
1
10
45.4797809758614
20
-0.819106942461559
30
0
41
1
10
45.4801292968157
20
-0.836634997171245
30
0
41
1
10
45.4808029612167
20
-0.871361005364491
30
0
41
1
10
45.481583953858
20
-0.888755179260272
30
0
41
1
10
45.4825622507264
20
-0.905980725468254
30
0
0
SPLINE
5
1DE
100
AcDbEntity
8
1
62
256
6
ByLayer
370
18
48
1
60
0
100
AcDbSpline
70
4
71
3
72
8
73
4
40
0
40
0
40
0
40
0
40
1
40
1
40
1
40
1
41
1
10
45.006378812637
20
-0.737070138485109
30
0
41
1
10
45.0072819952886
20
-0.746426540966496
30
0
41
1
10
45.0085268360659
20
-0.75566614973846
30
0
41
1
10
45.0100918813799
20
-0.764765747110573
30
0
0
SPLINE
5
1DF
100
AcDbEntity
8
1
62
256
6
ByLayer
370
18
48
1
60
0
100
AcDbSpline
70
4
71
3
72
8
73
4
40
0
40
0
40
0
40
0
40
1
40
1
40
1
40
1
41
1
10
45.006378812637
20
0.737070138484796
30
0
41
1
10
45.0072819952886
20
0.746426540966155
30
0
41
1
10
45.0085268360659
20
0.755666149738147
30
0
41
1
10
45.0100918813799
20
0.764765747110232
30
0
0
SPLINE
5
1E0
100
AcDbEntity
8
1
62
256
6
ByLayer
370
18
48
1
60
0
100
AcDbSpline
70
4
71
3
72
12
73
8
40
0
40
0
40
0
40
0
40
0.250000000000005
40
0.250000000000005
40
0.500000000000009
40
0.500000000000009
40
1
40
1
40
1
40
1
41
1
10
45.0003651931003
20
-0.578389618655905
30
0
41
1
10
45.0003651931003
20
-0.59253947578668
30
0
41
1
10
45.0005068580644
20
-0.60653469066105
30
0
41
1
10
45.0010554122012
20
-0.634235600198025
30
0
41
1
10
45.001466724942
20
-0.648034585170279
30
0
41
1
10
45.0030430270728
20
-0.688132071182253
30
0
41
1
10
45.0045381284184
20
-0.713234729388688
30
0
41
1
10
45.006378812637
20
-0.737070138485166
30
0
0
SPLINE
5
1E1
100
AcDbEntity
8
1
62
256
6
ByLayer
370
18
48
1
60
0
100
AcDbSpline
70
4
71
3
72
12
73
8
40
0
40
0
40
0
40
0
40
0.250000000000005
40
0.250000000000005
40
0.500000000000011
40
0.500000000000011
40
1
40
1
40
1
40
1
41
1
10
45.0003651931003
20
0.578389618655592
30
0
41
1
10
45.0003651931002
20
0.592539475786367
30
0
41
1
10
45.0005068580644
20
0.606534690660794
30
0
41
1
10
45.0010554122012
20
0.634235600197769
30
0
41
1
10
45.0014667249419
20
0.648034585170024
30
0
41
1
10
45.0030430270727
20
0.688132071181855
30
0
41
1
10
45.0045381284184
20
0.713234729388375
30
0
41
1
10
45.006378812637
20
0.737070138484853
30
0
0
SPLINE
5
1E2
100
AcDbEntity
8
1
62
256
6
ByLayer
370
18
48
1
60
0
100
AcDbSpline
70
4
71
3
72
8
73
4
40
0
40
0
40
0
40
0
40
1
40
1
40
1
40
1
41
1
10
41.825852467832
20
1.25180360966792
30
0
41
1
10
41.8337824819116
20
1.25213018103608
30
0
41
1
10
41.8416344147088
20
1.25236669219981
30
0
41
1
10
41.8493850512548
20
1.25248031889129
30
0
0
SPLINE
5
1E3
100
AcDbEntity
8
1
62
256
6
ByLayer
370
13
48
1
60
0
100
AcDbSpline
70
4
71
3
72
29
73
25
40
0
40
0
40
0
40
0
40
0.0708632748061575
40
0.0708632748061575
40
0.20359709269101
40
0.20359709269101
40
0.269964001633359
40
0.269964001633359
40
0.336330910575709
40
0.336330910575709
40
0.469064728460563
40
0.469064728460563
40
0.53543163740299
40
0.53543163740299
40
0.601798546345417
40
0.601798546345417
40
0.734532364230285
40
0.734532364230285
40
0.800899273172713
40
0.800899273172713
40
0.867266182115142
40
0.933633091057571
40
0.933633091057571
40
1
40
1
40
1
40
1
41
1
10
41.8493848217036
20
1.25248031552593
30
0
41
1
10
41.8582619089187
20
1.25261045907251
30
0
41
1
10
41.8670061165081
20
1.25257940379504
30
0
41
1
10
41.8916470892676
20
1.2518853473307
30
0
41
1
10
41.9070692144984
20
1.25069477353924
30
0
41
1
10
41.9293057433353
20
1.24724263728802
30
0
41
1
10
41.9365702584939
20
1.24581334581038
30
0
41
1
10
41.9508384634051
20
1.24229890500388
30
0
41
1
10
41.9578690447848
20
1.24020309737512
30
0
41
1
10
41.9784152567424
20
1.23287330712233
30
0
41
1
10
41.9913681727784
20
1.22660936798161
30
0
41
1
10
42.0102002467015
20
1.2149881864124
30
0
41
1
10
42.0163793166439
20
1.2107453241361
30
0
41
1
10
42.0286433284003
20
1.20151662258826
30
0
41
1
10
42.0347178882007
20
1.19653508412483
30
0
41
1
10
42.0526805726911
20
1.18077908618085
30
0
41
1
10
42.0644016539987
20
1.16911422923059
30
0
41
1
10
42.0823716758507
20
1.15036763778727
30
0
41
1
10
42.0884519649213
20
1.14388599890216
30
0
41
1
10
42.1007255564691
20
1.13079672443749
30
0
41
1
10
42.113123359998
20
1.11757198995903
30
0
41
1
10
42.1260385380602
20
1.1043609939793
30
0
41
1
10
42.139345556982
20
1.09130602272396
30
0
41
1
10
42.1462226822609
20
1.08483337056623
30
0
41
1
10
42.153304391183
20
1.07856202893524
30
0
0
SPLINE
5
1E4
100
AcDbEntity
8
1
62
256
6
ByLayer
370
18
48
1
60
0
100
AcDbSpline
70
4
71
3
72
27
73
23
40
0
40
0
40
0
40
0
40
0.12500000000001
40
0.12500000000001
40
0.187499999999999
40
0.187499999999999
40
0.249999999999989
40
0.249999999999989
40
0.374999999999968
40
0.374999999999968
40
0.437499999999961
40
0.437499999999961
40
0.499999999999955
40
0.562499999999949
40
0.562499999999949
40
0.624999999999943
40
0.624999999999943
40
0.749999999999962
40
0.749999999999962
40
0.874999999999981
40
0.874999999999981
40
1
40
1
40
1
40
1
41
1
10
45.078046702135
20
1.50820379766051
30
0
41
1
10
45.0764215765559
20
1.50904906443776
30
0
41
1
10
45.0747150281505
20
1.50842952092953
30
0
41
1
10
45.0720387579767
20
1.50540529445385
30
0
41
1
10
45.0711270985659
20
1.50404516302501
30
0
41
1
10
45.069263671916
20
1.50060335362011
30
0
41
1
10
45.0683155595372
20
1.49852434458816
30
0
41
1
10
45.0654761054202
20
1.49135456719694
30
0
41
1
10
45.0635695810674
20
1.48530591952129
30
0
41
1
10
45.0606894900573
20
1.4743323683397
30
0
41
1
10
45.0597225978006
20
1.47033685584614
30
0
41
1
10
45.0578239910355
20
1.46187742312253
30
0
41
1
10
45.0559510150774
20
1.45291764735939
30
0
41
1
10
45.0541281152266
20
1.44298032798574
30
0
41
1
10
45.0523304509122
20
1.43255038170579
30
0
41
1
10
45.0514395426407
20
1.4270576158687
30
0
41
1
10
45.0488438504673
20
1.41006220904939
30
0
41
1
10
45.0472226312428
20
1.39811351711165
30
0
41
1
10
45.0441924974416
20
1.37301427566749
30
0
41
1
10
45.042773931539
20
1.35973661828137
30
0
41
1
10
45.0402630183671
20
1.33294871502508
30
0
41
1
10
45.0391575176056
20
1.31935543449316
30
0
41
1
10
45.0382069162087
20
1.30555625385281
30
0
0
SPLINE
5
1E5
100
AcDbEntity
8
1
62
256
6
ByLayer
370
18
48
1
60
0
100
AcDbSpline
70
4
71
3
72
14
73
10
40
0
40
0
40
0
40
0
40
0.25
40
0.25
40
0.5
40
0.5
40
0.75
40
0.75
40
1
40
1
40
1
40
1
41
1
10
45.0100918813799
20
0.764765747110232
30
0
41
1
10
45.012452235938
20
0.780359011250823
30
0
41
1
10
45.0148638395166
20
0.794927462965916
30
0
41
1
10
45.0197668050562
20
0.822469460178155
30
0
41
1
10
45.022258359616
20
0.835439154333301
30
0
41
1
10
45.0273076822011
20
0.860054490365883
30
0
41
1
10
45.0298655372539
20
0.871698391978583
30
0
41
1
10
45.0350385147539
20
0.893841035032011
30
0
41
1
10
45.0376557044737
20
0.904343198214178
30
0
41
1
10
45.0402727175494
20
0.914243319239546
30
0
0
SPLINE
5
1E6
100
AcDbEntity
8
1
62
256
6
ByLayer
370
18
48
1
60
0
100
AcDbSpline
70
4
71
3
72
8
73
4
40
0
40
0
40
0
40
0
40
1
40
1
40
1
40
1
41
1
10
45.0402727175494
20
0.914243319239546
30
0
41
1
10
45.0476054967975
20
0.941983112624229
30
0
41
1
10
45.0549395788143
20
0.969410843862335
30
0
41
1
10
45.0622757728668
20
0.996332663082256
30
0
0
SPLINE
5
1E7
100
AcDbEntity
8
1
62
256
6
ByLayer
370
18
48
1
60
0
100
AcDbSpline
70
4
71
3
72
12
73
8
40
0
40
0
40
0
40
0
40
0.5
40
0.5
40
0.75
40
0.75
40
1
40
1
40
1
40
1
41
1
10
45.0622757728668
20
0.996332663082256
30
0
41
1
10
45.0652126090074
20
1.00711004588973
30
0
41
1
10
45.0681388120256
20
1.0185409673137
30
0
41
1
10
45.072499210516
20
1.03746398766376
30
0
41
1
10
45.0739520358871
20
1.04409375962317
30
0
41
1
10
45.0768153983039
20
1.05815944720979
30
0
41
1
10
45.0782269593938
20
1.06557967327794
30
0
41
1
10
45.0796018667686
20
1.07370561088052
30
0
0
SPLINE
5
1E8
100
AcDbEntity
8
1
62
256
6
ByLayer
370
13
48
1
60
0
100
AcDbSpline
70
4
71
1
72
4
73
2
40
0
40
0
40
1
40
1
41
1.04427759851713
10
45.0382069162087
20
-1.30555625385313
30
0
41
1.04427759851713
10
42.1533043911831
20
-1.07856202893545
30
0
0
SPLINE
5
1E9
100
AcDbEntity
8
1
62
256
6
ByLayer
370
13
48
1
60
0
100
AcDbSpline
70
4
71
3
72
24
73
20
40
0
40
0
40
0
40
0
40
0.131477265450721
40
0.131477265450721
40
0.262954530901442
40
0.262954530901442
40
0.394431796352163
40
0.394431796352163
40
0.525909061802884
40
0.525909061802884
40
0.591647694528173
40
0.591647694528173
40
0.657386327253461
40
0.657386327253461
40
0.788863592704038
40
0.788863592704038
40
0.920340858154614
40
0.920340858154614
40
1
40
1
40
1
40
1
41
1
10
42.1533043911829
20
-1.07856202893552
30
0
41
1
10
42.1391381308649
20
-1.09110722940682
30
0
41
1
10
42.125786274307
20
-1.10448033687436
30
0
41
1
10
42.1003357968196
20
-1.13107099919301
30
0
41
1
10
42.0882793689789
20
-1.1442060982952
30
0
41
1
10
42.064387850496
20
-1.16912717041089
30
0
41
1
10
42.0524822073693
20
-1.1809662701194
30
0
41
1
10
42.0285798969999
20
-1.20190565183427
30
0
41
1
10
42.0165127726389
20
-1.21109640697958
30
0
41
1
10
41.9975681072168
20
-1.22278158495311
30
0
41
1
10
41.9911102155956
20
-1.22632529976897
30
0
41
1
10
41.9780217711553
20
-1.23262320806793
30
0
41
1
10
41.9713666155003
20
-1.23539388413087
30
0
41
1
10
41.9509580876319
20
-1.24265635429532
30
0
41
1
10
41.9367153792047
20
-1.24610008105677
30
0
41
1
10
41.9067865552163
20
-1.25073081951413
30
0
41
1
10
41.8913301527113
20
-1.25190169293919
30
0
41
1
10
41.8656586077622
20
-1.25261277448274
30
0
41
1
10
41.8557798250932
20
-1.2526143061211
30
0
41
1
10
41.8457179158741
20
-1.25241819462988
30
0
0
SPLINE
5
1EA
100
AcDbEntity
8
1
62
256
6
ByLayer
370
18
48
1
60
0
100
AcDbSpline
70
4
71
3
72
8
73
4
40
0
40
0
40
0
40
0
40
1
40
1
40
1
40
1
41
1
10
41.845717574348
20
-1.25241818797335
30
0
41
1
10
41.8391724322625
20
-1.25229061712273
30
0
41
1
10
41.8325498033186
20
-1.25207941725074
30
0
41
1
10
41.8258524678319
20
-1.25180360966817
30
0
0
SPLINE
5
1EB
100
AcDbEntity
8
1
62
256
6
ByLayer
370
13
48
1
60
0
100
AcDbSpline
70
4
71
3
72
12
73
8
40
0
40
0
40
0
40
0
40
0.500000000000033
40
0.500000000000033
40
0.750000000000016
40
0.750000000000016
40
1
40
1
40
1
40
1
41
1
10
45.0622757728668
20
-0.996332663082569
30
0
41
1
10
45.0652126090073
20
-1.00711004589005
30
0
41
1
10
45.0681388120256
20
-1.01854096731404
30
0
41
1
10
45.072499210516
20
-1.03746398766412
30
0
41
1
10
45.073952035887
20
-1.04409375962348
30
0
41
1
10
45.0768153983039
20
-1.0581594472101
30
0
41
1
10
45.0782269593939
20
-1.06557967327825
30
0
41
1
10
45.0796018667686
20
-1.07370561088084
30
0
0
SPLINE
5
1EC
100
AcDbEntity
8
1
62
256
6
ByLayer
370
18
48
1
60
0
100
AcDbSpline
70
4
71
3
72
8
73
4
40
0
40
0
40
0
40
0
40
1
40
1
40
1
40
1
41
1
10
45.0402727175494
20
-0.914243319239858
30
0
41
1
10
45.0476054967975
20
-0.941983112624541
30
0
41
1
10
45.0549395788143
20
-0.969410843862647
30
0
41
1
10
45.0622757728668
20
-0.996332663082569
30
0
0
SPLINE
5
1ED
100
AcDbEntity
8
1
62
256
6
ByLayer
370
18
48
1
60
0
100
AcDbSpline
70
4
71
3
72
14
73
10
40
0
40
0
40
0
40
0
40
0.25
40
0.25
40
0.5
40
0.5
40
0.75
40
0.75
40
1
40
1
40
1
40
1
41
1
10
45.0100918813799
20
-0.764765747110545
30
0
41
1
10
45.012452235938
20
-0.780359011251164
30
0
41
1
10
45.0148638395166
20
-0.794927462966228
30
0
41
1
10
45.0197668050562
20
-0.822469460178496
30
0
41
1
10
45.022258359616
20
-0.835439154333613
30
0
41
1
10
45.0273076822011
20
-0.860054490366196
30
0
41
1
10
45.0298655372539
20
-0.871698391978924
30
0
41
1
10
45.0350385147539
20
-0.893841035032324
30
0
41
1
10
45.0376557044737
20
-0.904343198214491
30
0
41
1
10
45.0402727175494
20
-0.914243319239858
30
0
0
SPLINE
5
1EE
100
AcDbEntity
8
1
62
256
6
ByLayer
370
18
48
1
60
0
100
AcDbSpline
70
4
71
3
72
28
73
24
40
0
40
0
40
0
40
0
40
0.125000000000004
40
0.125000000000004
40
0.187499999999996
40
0.187499999999996
40
0.249999999999987
40
0.249999999999987
40
0.374999999999954
40
0.374999999999954
40
0.437499999999964
40
0.437499999999964
40
0.499999999999974
40
0.499999999999974
40
0.624999999999991
40
0.624999999999991
40
0.750000000000008
40
0.750000000000008
40
0.812500000000014
40
0.812500000000014
40
0.87500000000002
40
0.87500000000002
40
1
40
1
40
1
40
1
41
1
10
45.0382069162087
20
-1.30555625385313
30
0
41
1
10
45.0391576621981
20
-1.31935753343504
30
0
41
1
10
45.0402612749605
20
-1.33292289355998
30
0
41
1
10
45.0421358453927
20
-1.35293271732556
30
0
41
1
10
45.0427975209052
20
-1.35954583623823
30
0
41
1
10
45.044196311336
20
-1.37265564834672
30
0
41
1
10
45.0449347826971
20
-1.37915847681703
30
0
41
1
10
45.0472143572279
20
-1.39805348316551
30
0
41
1
10
45.0488342354731
20
-1.40998892236499
30
0
41
1
10
45.0514145121444
20
-1.42689880458025
30
0
41
1
10
45.0523049479192
20
-1.43239739203346
30
0
41
1
10
45.0541120569272
20
-1.44289206721172
30
0
41
1
10
45.0550259532223
20
-1.4478763353022
30
0
41
1
10
45.0577979332538
20
-1.46205860800649
30
0
41
1
10
45.0596859823114
20
-1.47049436922092
30
0
41
1
10
45.0635460297279
20
-1.48523042979335
30
0
41
1
10
45.065463381581
20
-1.49131343259472
30
0
41
1
10
45.0682912109404
20
-1.49846729318671
30
0
41
1
10
45.0692273938698
20
-1.50052726408361
30
0
41
1
10
45.0710865306858
20
-1.50397894774474
30
0
41
1
10
45.0720117370594
20
-1.50536968547436
30
0
41
1
10
45.0747086129374
20
-1.50843225271072
30
0
41
1
10
45.0764213625358
20
-1.50904917575514
30
0
41
1
10
45.078046702135
20
-1.50820379766083
30
0
0
LINE
5
79
100
AcDbEntity
8
81
62
256
6
ByLayer
370
18
48
1
60
0
100
AcDbLine
10
45
20
0
30
0
11
50
21
0
31
0
39
0
210
0
220
0
230
1
0
LINE
5
7A
100
AcDbEntity
8
80
62
256
6
ByLayer
370
18
48
1
60
0
100
AcDbLine
10
0
20
0
30
0
11
-5
21
0
31
0
39
0
210
0
220
0
230
1
0
LINE
5
7B
100
AcDbEntity
8
1
62
256
6
ByLayer
370
18
48
1
60
0
100
AcDbLine
10
45.110514
20
-1.49025
30
0
11
45.08288
21
-1.09506
31
0
39
0
210
0
220
0
230
1
0
LINE
5
7C
100
AcDbEntity
8
1
62
256
6
ByLayer
370
18
48
1
60
0
100
AcDbLine
10
45.08288
20
1.09506
30
0
11
45.110514
21
1.49025
31
0
39
0
210
0
220
0
230
1
0
LINE
5
7D
100
AcDbEntity
8
1
62
256
6
ByLayer
370
18
48
1
60
0
100
AcDbLine
10
45.001111
20
-0.57839
30
0
11
45.001111
21
0.57839
31
0
39
0
210
0
220
0
230
1
0
LINE
5
7E
100
AcDbEntity
8
1
62
256
6
ByLayer
370
18
48
1
60
0
100
AcDbLine
10
0
20
-1.175
30
0
11
0
21
0
31
0
39
0
210
0
220
0
230
1
0
LINE
5
7F
100
AcDbEntity
8
1
62
256
6
ByLayer
370
18
48
1
60
0
100
AcDbLine
10
0
20
0
30
0
11
0
21
1.175
31
0
39
0
210
0
220
0
230
1
0
LINE
5
80
100
AcDbEntity
8
1
62
256
6
ByLayer
370
18
48
1
60
0
100
AcDbLine
10
0
20
0
30
0
11
19.289927
21
0
31
0
39
0
210
0
220
0
230
1
0
LINE
5
81
100
AcDbEntity
8
1
62
256
6
ByLayer
370
18
48
1
60
0
100
AcDbLine
10
50
20
1.175
30
0
11
49.074599
21
1.175
31
0
39
0
210
0
220
0
230
1
0
LINE
5
82
100
AcDbEntity
8
1
62
256
6
ByLayer
370
18
48
1
60
0
100
AcDbLine
10
49.074599
20
-1.175
30
0
11
50
21
-1.175
31
0
39
0
210
0
220
0
230
1
0
LINE
5
83
100
AcDbEntity
8
1
62
256
6
ByLayer
370
18
48
1
60
0
100
AcDbLine
10
50
20
1.175
30
0
11
50
21
-1.175
31
0
39
0
210
0
220
0
230
1
0
LINE
5
84
100
AcDbEntity
8
1
62
256
6
ByLayer
370
18
48
1
60
0
100
AcDbLine
10
49.074599
20
1.175
30
0
11
47.734853
21
1.175
31
0
39
0
210
0
220
0
230
1
0
LINE
5
85
100
AcDbEntity
8
1
62
256
6
ByLayer
370
18
48
1
60
0
100
AcDbLine
10
49.074599
20
-1.175
30
0
11
47.734853
21
-1.175
31
0
39
0
210
0
220
0
230
1
0
LINE
5
86
100
AcDbEntity
8
1
62
256
6
ByLayer
370
18
48
1
60
0
100
AcDbLine
10
49.074599
20
-1.175
30
0
11
49.074599
21
1.175
31
0
39
0
210
0
220
0
230
1
0
LINE
5
87
100
AcDbEntity
8
1
62
256
6
ByLayer
370
18
48
1
60
0
100
AcDbLine
10
47.734853
20
1.175
30
0
11
45.600034
21
1.175
31
0
39
0
210
0
220
0
230
1
0
LINE
5
88
100
AcDbEntity
8
1
62
256
6
ByLayer
370
18
48
1
60
0
100
AcDbLine
10
45.600034
20
-1.175
30
0
11
47.734853
21
-1.175
31
0
39
0
210
0
220
0
230
1
0
LINE
5
89
100
AcDbEntity
8
1
62
256
6
ByLayer
370
18
48
1
60
0
100
AcDbLine
10
45.353534
20
-0.274288
30
0
11
45.353534
21
-0.48394
31
0
39
0
210
0
220
0
230
1
0
LINE
5
8A
100
AcDbEntity
8
1
62
256
6
ByLayer
370
13
48
1
60
0
100
AcDbLine
10
47.734853
20
-1.175
30
0
11
47.734853
21
1.175
31
0
39
0
210
0
220
0
230
1
0
LINE
5
8B
100
AcDbEntity
8
1
62
256
6
ByLayer
370
18
48
1
60
0
100
AcDbLine
10
45.353534
20
0.484275
30
0
11
45.353534
21
0.274288
31
0
39
0
210
0
220
0
230
1
0
LINE
5
8C
100
AcDbEntity
8
1
62
256
6
ByLayer
370
18
48
1
60
0
100
AcDbLine
10
38.482516
20
1.175
30
0
11
41.056743
21
1.175
31
0
39
0
210
0
220
0
230
1
0
LINE
5
8D
100
AcDbEntity
8
1
62
256
6
ByLayer
370
18
48
1
60
0
100
AcDbLine
10
41.056743
20
-1.175
30
0
11
38.482516
21
-1.175
31
0
39
0
210
0
220
0
230
1
0
LINE
5
8E
100
AcDbEntity
8
1
62
256
6
ByLayer
370
18
48
1
60
0
100
AcDbLine
10
41.056743
20
-1.175
30
0
11
41.400498
21
-0.25
31
0
39
0
210
0
220
0
230
1
0
LINE
5
8F
100
AcDbEntity
8
1
62
256
6
ByLayer
370
18
48
1
60
0
100
AcDbLine
10
41.400498
20
-0.25
30
0
11
41.564062
21
-0.187901
31
0
39
0
210
0
220
0
230
1
0
LINE
5
90
100
AcDbEntity
8
1
62
256
6
ByLayer
370
18
48
1
60
0
100
AcDbLine
10
41.663891
20
0.048824
30
0
11
41.663891
21
-0.048824
31
0
39
0
210
0
220
0
230
1
0
LINE
5
91
100
AcDbEntity
8
1
62
256
6
ByLayer
370
18
48
1
60
0
100
AcDbLine
10
41.400498
20
0.25
30
0
11
41.564062
21
0.187901
31
0
39
0
210
0
220
0
230
1
0
LINE
5
92
100
AcDbEntity
8
1
62
256
6
ByLayer
370
18
48
1
60
0
100
AcDbLine
10
41.056743
20
1.175
30
0
11
41.400498
21
0.25
31
0
39
0
210
0
220
0
230
1
0
LINE
5
93
100
AcDbEntity
8
1
62
256
6
ByLayer
370
18
48
1
60
0
100
AcDbLine
10
38.482516
20
-1.175
30
0
11
36.373918
21
-1.175
31
0
39
0
210
0
220
0
230
1
0
LINE
5
94
100
AcDbEntity
8
1
62
256
6
ByLayer
370
13
48
1
60
0
100
AcDbLine
10
38.482516
20
-0.4718
30
0
11
38.482516
21
-1.175
31
0
39
0
210
0
220
0
230
1
0
LINE
5
95
100
AcDbEntity
8
1
62
256
6
ByLayer
370
18
48
1
60
0
100
AcDbLine
10
36.373918
20
1.175
30
0
11
38.482516
21
1.175
31
0
39
0
210
0
220
0
230
1
0
LINE
5
96
100
AcDbEntity
8
1
62
256
6
ByLayer
370
13
48
1
60
0
100
AcDbLine
10
38.482516
20
1.175
30
0
11
38.482516
21
0.4718
31
0
39
0
210
0
220
0
230
1
0
LINE
5
97
100
AcDbEntity
8
1
62
256
6
ByLayer
370
18
48
1
60
0
100
AcDbLine
10
19.748204
20
1.175
30
0
11
0
21
1.175
31
0
39
0
210
0
220
0
230
1
0
LINE
5
98
100
AcDbEntity
8
1
62
256
6
ByLayer
370
13
48
1
60
0
100
AcDbLine
10
36.373918
20
-0.412215
30
0
11
36.373918
21
-1.175
31
0
39
0
210
0
220
0
230
1
0
LINE
5
99
100
AcDbEntity
8
1
62
256
6
ByLayer
370
13
48
1
60
0
100
AcDbLine
10
36.373918
20
1.175
30
0
11
36.373918
21
0.412215
31
0
39
0
210
0
220
0
230
1
0
LINE
5
9A
100
AcDbEntity
8
1
62
256
6
ByLayer
370
18
48
1
60
0
100
AcDbLine
10
19.748204
20
1.175
30
0
11
36.373918
21
1.175
31
0
39
0
210
0
220
0
230
1
0
LINE
5
9B
100
AcDbEntity
8
1
62
256
6
ByLayer
370
18
48
1
60
0
100
AcDbLine
10
36.373918
20
-1.175
30
0
11
19.748204
21
-1.175
31
0
39
0
210
0
220
0
230
1
0
LINE
5
9C
100
AcDbEntity
8
1
62
256
6
ByLayer
370
18
48
1
60
0
100
AcDbLine
10
19.748204
20
-1.175
30
0
11
0
21
-1.175
31
0
39
0
210
0
220
0
230
1
0
LINE
5
9D
100
AcDbEntity
8
1
62
256
6
ByLayer
370
18
48
1
60
0
100
AcDbLine
10
38.60089
20
1.25
30
0
11
38.6
21
1.25
31
0
39
0
210
0
220
0
230
1
0
LINE
5
9E
100
AcDbEntity
8
1
62
256
6
ByLayer
370
18
48
1
60
0
100
AcDbLine
10
38.6
20
1.25
30
0
11
38.6
21
1.174998
31
0
39
0
210
0
220
0
230
1
0
LINE
5
9F
100
AcDbEntity
8
1
62
256
6
ByLayer
370
18
48
1
60
0
100
AcDbLine
10
38.6
20
-1.25
30
0
11
38.60089
21
-1.25
31
0
39
0
210
0
220
0
230
1
0
LINE
5
A0
100
AcDbEntity
8
1
62
256
6
ByLayer
370
18
48
1
60
0
100
AcDbLine
10
38.6
20
-1.25
30
0
11
38.6
21
-1.174998
31
0
39
0
210
0
220
0
230
1
0
LINE
5
A1
100
AcDbEntity
8
1
62
256
6
ByLayer
370
18
48
1
60
0
100
AcDbLine
10
45.6
20
0.826756
30
0
11
45.6
21
0.834465
31
0
39
0
210
0
220
0
230
1
0
LINE
5
A2
100
AcDbEntity
8
1
62
256
6
ByLayer
370
18
48
1
60
0
100
AcDbLine
10
45.6
20
-0.834465
30
0
11
45.6
21
-0.826756
31
0
39
0
210
0
220
0
230
1
0
LINE
5
A3
100
AcDbEntity
8
1
62
256
6
ByLayer
370
13
48
1
60
0
100
AcDbLine
10
45.411544
20
0.56762
30
0
11
45.411544
21
0.55631
31
0
39
0
210
0
220
0
230
1
0
LINE
5
A4
100
AcDbEntity
8
1
62
256
6
ByLayer
370
13
48
1
60
0
100
AcDbLine
10
45.381707
20
0.55631
30
0
11
45.411544
21
0.55631
31
0
39
0
210
0
220
0
230
1
0
LINE
5
A5
100
AcDbEntity
8
1
62
256
6
ByLayer
370
18
48
1
60
0
100
AcDbLine
10
45.079602
20
-1.073706
30
0
11
45.079298
21
-1.064662
31
0
39
0
210
0
220
0
230
1
0
LINE
5
A6
100
AcDbEntity
8
1
62
256
6
ByLayer
370
18
48
1
60
0
100
AcDbLine
10
38.660307
20
1.25
30
0
11
38.601504
21
1.25
31
0
39
0
210
0
220
0
230
1
0
LINE
5
A7
100
AcDbEntity
8
1
62
256
6
ByLayer
370
18
48
1
60
0
100
AcDbLine
10
38.601504
20
-1.25
30
0
11
38.660307
21
-1.25
31
0
39
0
210
0
220
0
230
1
0
LINE
5
A8
100
AcDbEntity
8
1
62
256
6
ByLayer
370
13
48
1
60
0
100
AcDbLine
10
45.411544
20
-0.55631
30
0
11
45.411544
21
-0.56762
31
0
39
0
210
0
220
0
230
1
0
LINE
5
A9
100
AcDbEntity
8
1
62
256
6
ByLayer
370
13
48
1
60
0
100
AcDbLine
10
45.381707
20
-0.55631
30
0
11
45.411544
21
-0.55631
31
0
39
0
210
0
220
0
230
1
0
LINE
5
AA
100
AcDbEntity
8
1
62
256
6
ByLayer
370
18
48
1
60
0
100
AcDbLine
10
45.6
20
1.358919
30
0
11
45.6
21
1.064845
31
0
39
0
210
0
220
0
230
1
0
LINE
5
AB
100
AcDbEntity
8
1
62
256
6
ByLayer
370
18
48
1
60
0
100
AcDbLine
10
45.6
20
-1.358919
30
0
11
45.6
21
-1.064845
31
0
39
0
210
0
220
0
230
1
0
LINE
5
AC
100
AcDbEntity
8
1
62
256
6
ByLayer
370
18
48
1
60
0
100
AcDbLine
10
45.526561
20
1.366214
30
0
11
45.443912
21
1.3662
31
0
39
0
210
0
220
0
230
1
0
LINE
5
AD
100
AcDbEntity
8
1
62
256
6
ByLayer
370
13
48
1
60
0
100
AcDbLine
10
45.526561
20
1.04953
30
0
11
45.526561
21
1.366214
31
0
39
0
210
0
220
0
230
1
0
LINE
5
AE
100
AcDbEntity
8
1
62
256
6
ByLayer
370
18
48
1
60
0
100
AcDbLine
10
45.443912
20
-1.3662
30
0
11
45.526561
21
-1.366214
31
0
39
0
210
0
220
0
230
1
0
LINE
5
AF
100
AcDbEntity
8
1
62
256
6
ByLayer
370
13
48
1
60
0
100
AcDbLine
10
45.526561
20
-1.04953
30
0
11
45.526561
21
-1.366214
31
0
39
0
210
0
220
0
230
1
0
LINE
5
B0
100
AcDbEntity
8
1
62
256
6
ByLayer
370
13
48
1
60
0
100
AcDbLine
10
45.421651
20
1.047848
30
0
11
45.443912
21
1.3662
31
0
39
0
210
0
220
0
230
1
0
LINE
5
B1
100
AcDbEntity
8
1
62
256
6
ByLayer
370
13
48
1
60
0
100
AcDbLine
10
45.421651
20
-1.047848
30
0
11
45.443912
21
-1.3662
31
0
39
0
210
0
220
0
230
1
0
LINE
5
B2
100
AcDbEntity
8
1
62
256
6
ByLayer
370
18
48
1
60
0
100
AcDbLine
10
41.751081
20
0
30
0
11
41.738718
21
0
31
0
39
0
210
0
220
0
230
1
0
LINE
5
B3
100
AcDbEntity
8
1
62
256
6
ByLayer
370
13
48
1
60
0
100
AcDbLine
10
41.539168
20
-0.197335
30
0
11
41.611928
21
-0.197335
31
0
39
0
210
0
220
0
230
1
0
LINE
5
B4
100
AcDbEntity
8
1
62
256
6
ByLayer
370
13
48
1
60
0
100
AcDbLine
10
41.539168
20
0.197335
30
0
11
41.611928
21
0.197335
31
0
39
0
210
0
220
0
230
1
0
LINE
5
B5
100
AcDbEntity
8
1
62
256
6
ByLayer
370
18
48
1
60
0
100
AcDbLine
10
41.100731
20
-1.25
30
0
11
38.660307
21
-1.25
31
0
39
0
210
0
220
0
230
1
0
LINE
5
B6
100
AcDbEntity
8
1
62
256
6
ByLayer
370
13
48
1
60
0
100
AcDbLine
10
38.660307
20
-1.175001
30
0
11
38.660307
21
-1.25
31
0
39
0
210
0
220
0
230
1
0
LINE
5
B7
100
AcDbEntity
8
1
62
256
6
ByLayer
370
18
48
1
60
0
100
AcDbLine
10
38.660307
20
1.25
30
0
11
41.100731
21
1.25
31
0
39
0
210
0
220
0
230
1
0
LINE
5
B8
100
AcDbEntity
8
1
62
256
6
ByLayer
370
13
48
1
60
0
100
AcDbLine
10
38.660307
20
1.175001
30
0
11
38.660307
21
1.25
31
0
39
0
210
0
220
0
230
1
0
LINE
5
B9
100
AcDbEntity
8
1
62
256
6
ByLayer
370
13
48
1
60
0
100
AcDbLine
10
41.100731
20
1.125438
30
0
11
41.075126
21
1.125438
31
0
39
0
210
0
220
0
230
1
0
LINE
5
BA
100
AcDbEntity
8
1
62
256
6
ByLayer
370
13
48
1
60
0
100
AcDbLine
10
41.100731
20
-1.125438
30
0
11
41.075126
21
-1.125438
31
0
39
0
210
0
220
0
230
1
0
LINE
5
BB
100
AcDbEntity
8
1
62
256
6
ByLayer
370
13
48
1
60
0
100
AcDbLine
10
41.109514
20
-1.075984
30
0
11
41.093523
21
-1.075984
31
0
39
0
210
0
220
0
230
1
0
LINE
5
BC
100
AcDbEntity
8
1
62
256
6
ByLayer
370
13
48
1
60
0
100
AcDbLine
10
41.109514
20
1.075984
30
0
11
41.093523
21
1.075984
31
0
39
0
210
0
220
0
230
1
0
LINE
5
BD
100
AcDbEntity
8
1
62
256
6
ByLayer
370
13
48
1
60
0
100
AcDbLine
10
41.355465
20
-0.371148
30
0
11
41.373634
21
-0.371148
31
0
39
0
210
0
220
0
230
1
0
LINE
5
BE
100
AcDbEntity
8
1
62
256
6
ByLayer
370
13
48
1
60
0
100
AcDbLine
10
41.355465
20
0.371148
30
0
11
41.373634
21
0.371148
31
0
39
0
210
0
220
0
230
1
0
LINE
5
BF
100
AcDbEntity
8
1
62
256
6
ByLayer
370
18
48
1
60
0
100
AcDbLine
10
41.100731
20
-1.25
30
0
11
41.1447
21
-1.25
31
0
39
0
210
0
220
0
230
1
0
LINE
5
C0
100
AcDbEntity
8
1
62
256
6
ByLayer
370
13
48
1
60
0
100
AcDbLine
10
41.100731
20
-1.25
30
0
11
41.100731
21
-1.125438
31
0
39
0
210
0
220
0
230
1
0
LINE
5
C1
100
AcDbEntity
8
1
62
256
6
ByLayer
370
18
48
1
60
0
100
AcDbLine
10
41.1447
20
1.25
30
0
11
41.100731
21
1.25
31
0
39
0
210
0
220
0
230
1
0
LINE
5
C2
100
AcDbEntity
8
1
62
256
6
ByLayer
370
13
48
1
60
0
100
AcDbLine
10
41.100731
20
1.25
30
0
11
41.100731
21
1.125438
31
0
39
0
210
0
220
0
230
1
0
LINE
5
C3
100
AcDbEntity
8
1
62
256
6
ByLayer
370
13
48
1
60
0
100
AcDbLine
10
41.100731
20
-1.125438
30
0
11
41.1447
21
-1.125438
31
0
39
0
210
0
220
0
230
1
0
LINE
5
C4
100
AcDbEntity
8
1
62
256
6
ByLayer
370
13
48
1
60
0
100
AcDbLine
10
41.100731
20
1.125438
30
0
11
41.1447
21
1.125438
31
0
39
0
210
0
220
0
230
1
0
LINE
5
C5
100
AcDbEntity
8
1
62
256
6
ByLayer
370
13
48
1
60
0
100
AcDbLine
10
41.131672
20
-1.022233
30
0
11
41.373634
21
-0.371148
31
0
39
0
210
0
220
0
230
1
0
LINE
5
C6
100
AcDbEntity
8
1
62
256
6
ByLayer
370
13
48
1
60
0
100
AcDbLine
10
41.131672
20
1.022233
30
0
11
41.373634
21
0.371148
31
0
39
0
210
0
220
0
230
1
0
LINE
5
C7
100
AcDbEntity
8
1
62
256
6
ByLayer
370
13
48
1
60
0
100
AcDbLine
10
41.131672
20
1.022233
30
0
11
41.173519
21
1.037785
31
0
39
0
210
0
220
0
230
1
0
LINE
5
C8
100
AcDbEntity
8
1
62
256
6
ByLayer
370
13
48
1
60
0
100
AcDbLine
10
41.131672
20
-1.022233
30
0
11
41.173519
21
-1.037785
31
0
39
0
210
0
220
0
230
1
0
LINE
5
C9
100
AcDbEntity
8
1
62
256
6
ByLayer
370
13
48
1
60
0
100
AcDbLine
10
41.530196
20
0.200756
30
0
11
41.611851
21
0.200756
31
0
39
0
210
0
220
0
230
1
0
LINE
5
CA
100
AcDbEntity
8
1
62
256
6
ByLayer
370
13
48
1
60
0
100
AcDbLine
10
41.398786
20
0.254524
30
0
11
41.489649
21
0.254524
31
0
39
0
210
0
220
0
230
1
0
LINE
5
CB
100
AcDbEntity
8
1
62
256
6
ByLayer
370
13
48
1
60
0
100
AcDbLine
10
41.530196
20
-0.200756
30
0
11
41.611851
21
-0.200756
31
0
39
0
210
0
220
0
230
1
0
LINE
5
CC
100
AcDbEntity
8
1
62
256
6
ByLayer
370
13
48
1
60
0
100
AcDbLine
10
41.398786
20
-0.254524
30
0
11
41.489649
21
-0.254524
31
0
39
0
210
0
220
0
230
1
0
LINE
5
CD
100
AcDbEntity
8
1
62
256
6
ByLayer
370
13
48
1
60
0
100
AcDbLine
10
41.373634
20
-0.371148
30
0
11
41.415481
21
-0.386699
31
0
39
0
210
0
220
0
230
1
0
LINE
5
CE
100
AcDbEntity
8
1
62
256
6
ByLayer
370
13
48
1
60
0
100
AcDbLine
10
41.373634
20
0.371148
30
0
11
41.415481
21
0.386699
31
0
39
0
210
0
220
0
230
1
0
LINE
5
CF
100
AcDbEntity
8
1
62
256
6
ByLayer
370
13
48
1
60
0
100
AcDbLine
10
41.415481
20
0.386699
30
0
11
41.173519
21
1.037785
31
0
39
0
210
0
220
0
230
1
0
LINE
5
D0
100
AcDbEntity
8
1
62
256
6
ByLayer
370
18
48
1
60
0
100
AcDbLine
10
41.223803
20
-1.25
30
0
11
41.1447
21
-1.25
31
0
39
0
210
0
220
0
230
1
0
LINE
5
D1
100
AcDbEntity
8
1
62
256
6
ByLayer
370
13
48
1
60
0
100
AcDbLine
10
41.1447
20
-1.125438
30
0
11
41.1447
21
-1.25
31
0
39
0
210
0
220
0
230
1
0
LINE
5
D2
100
AcDbEntity
8
1
62
256
6
ByLayer
370
13
48
1
60
0
100
AcDbLine
10
41.223803
20
-1.125438
30
0
11
41.1447
21
-1.125438
31
0
39
0
210
0
220
0
230
1
0
LINE
5
D3
100
AcDbEntity
8
1
62
256
6
ByLayer
370
13
48
1
60
0
100
AcDbLine
10
41.415481
20
-0.386699
30
0
11
41.173519
21
-1.037785
31
0
39
0
210
0
220
0
230
1
0
LINE
5
D4
100
AcDbEntity
8
1
62
256
6
ByLayer
370
13
48
1
60
0
100
AcDbLine
10
41.173519
20
-1.037785
30
0
11
41.235457
21
-1.060802
31
0
39
0
210
0
220
0
230
1
0
LINE
5
D5
100
AcDbEntity
8
1
62
256
6
ByLayer
370
18
48
1
60
0
100
AcDbLine
10
41.1447
20
1.25
30
0
11
41.223803
21
1.25
31
0
39
0
210
0
220
0
230
1
0
LINE
5
D6
100
AcDbEntity
8
1
62
256
6
ByLayer
370
13
48
1
60
0
100
AcDbLine
10
41.1447
20
1.125438
30
0
11
41.1447
21
1.25
31
0
39
0
210
0
220
0
230
1
0
LINE
5
D7
100
AcDbEntity
8
1
62
256
6
ByLayer
370
13
48
1
60
0
100
AcDbLine
10
41.173519
20
1.037785
30
0
11
41.235457
21
1.060802
31
0
39
0
210
0
220
0
230
1
0
LINE
5
D8
100
AcDbEntity
8
1
62
256
6
ByLayer
370
13
48
1
60
0
100
AcDbLine
10
41.223803
20
1.125438
30
0
11
41.1447
21
1.125438
31
0
39
0
210
0
220
0
230
1
0
LINE
5
D9
100
AcDbEntity
8
1
62
256
6
ByLayer
370
13
48
1
60
0
100
AcDbLine
10
41.223803
20
-1.25
30
0
11
41.223803
21
-1.125438
31
0
39
0
210
0
220
0
230
1
0
LINE
5
DA
100
AcDbEntity
8
1
62
256
6
ByLayer
370
18
48
1
60
0
100
AcDbLine
10
41.356645
20
-1.25
30
0
11
41.223803
21
-1.25
31
0
39
0
210
0
220
0
230
1
0
LINE
5
DB
100
AcDbEntity
8
1
62
256
6
ByLayer
370
13
48
1
60
0
100
AcDbLine
10
41.223803
20
1.25
30
0
11
41.223803
21
1.125438
31
0
39
0
210
0
220
0
230
1
0
LINE
5
DC
100
AcDbEntity
8
1
62
256
6
ByLayer
370
18
48
1
60
0
100
AcDbLine
10
41.223803
20
1.25
30
0
11
41.356645
21
1.25
31
0
39
0
210
0
220
0
230
1
0
LINE
5
DD
100
AcDbEntity
8
1
62
256
6
ByLayer
370
13
48
1
60
0
100
AcDbLine
10
41.235457
20
1.060802
30
0
11
41.511497
21
0.318017
31
0
39
0
210
0
220
0
230
1
0
LINE
5
DE
100
AcDbEntity
8
1
62
256
6
ByLayer
370
13
48
1
60
0
100
AcDbLine
10
41.69711
20
0.195392
30
0
11
41.714666
21
0.201916
31
0
39
0
210
0
220
0
230
1
0
LINE
5
DF
100
AcDbEntity
8
1
62
256
6
ByLayer
370
13
48
1
60
0
100
AcDbLine
10
41.223803
20
-1.125438
30
0
11
41.373803
21
-1.125438
31
0
39
0
210
0
220
0
230
1
0
LINE
5
E0
100
AcDbEntity
8
1
62
256
6
ByLayer
370
13
48
1
60
0
100
AcDbLine
10
41.235457
20
-1.060802
30
0
11
41.511497
21
-0.318017
31
0
39
0
210
0
220
0
230
1
0
LINE
5
E1
100
AcDbEntity
8
1
62
256
6
ByLayer
370
13
48
1
60
0
100
AcDbLine
10
41.235457
20
-1.060802
30
0
11
41.376062
21
-1.113055
31
0
39
0
210
0
220
0
230
1
0
LINE
5
E2
100
AcDbEntity
8
1
62
256
6
ByLayer
370
13
48
1
60
0
100
AcDbLine
10
41.223803
20
1.125438
30
0
11
41.373803
21
1.125438
31
0
39
0
210
0
220
0
230
1
0
LINE
5
E3
100
AcDbEntity
8
1
62
256
6
ByLayer
370
13
48
1
60
0
100
AcDbLine
10
41.235457
20
1.060802
30
0
11
41.376062
21
1.113055
31
0
39
0
210
0
220
0
230
1
0
LINE
5
E4
100
AcDbEntity
8
1
62
256
6
ByLayer
370
13
48
1
60
0
100
AcDbLine
10
41.69711
20
-0.195392
30
0
11
41.714666
21
-0.201916
31
0
39
0
210
0
220
0
230
1
0
LINE
5
E5
100
AcDbEntity
8
1
62
256
6
ByLayer
370
18
48
1
60
0
100
AcDbLine
10
45.079187
20
1.063962
30
0
11
45.079602
21
1.073706
31
0
39
0
210
0
220
0
230
1
0
LINE
5
E6
100
AcDbEntity
8
1
62
256
6
ByLayer
370
18
48
1
60
0
100
AcDbLine
10
41.807823
20
-1.25
30
0
11
41.356645
21
-1.25
31
0
39
0
210
0
220
0
230
1
0
LINE
5
E7
100
AcDbEntity
8
1
62
256
6
ByLayer
370
18
48
1
60
0
100
AcDbLine
10
41.376062
20
-1.113055
30
0
11
41.399495
21
-1.05
31
0
39
0
210
0
220
0
230
1
0
LINE
5
E8
100
AcDbEntity
8
1
62
256
6
ByLayer
370
18
48
1
60
0
100
AcDbLine
10
41.373803
20
-1.223205
30
0
11
41.373803
21
-1.125438
31
0
39
0
210
0
220
0
230
1
0
LINE
5
E9
100
AcDbEntity
8
1
62
256
6
ByLayer
370
18
48
1
60
0
100
AcDbLine
10
41.373803
20
1.125438
30
0
11
41.373803
21
1.223205
31
0
39
0
210
0
220
0
230
1
0
LINE
5
EA
100
AcDbEntity
8
1
62
256
6
ByLayer
370
18
48
1
60
0
100
AcDbLine
10
41.399495
20
1.05
30
0
11
41.376062
21
1.113055
31
0
39
0
210
0
220
0
230
1
0
LINE
5
EB
100
AcDbEntity
8
1
62
256
6
ByLayer
370
18
48
1
60
0
100
AcDbLine
10
41.356645
20
1.25
30
0
11
41.807823
21
1.25
31
0
39
0
210
0
220
0
230
1
0
LINE
5
EC
100
AcDbEntity
8
1
62
256
6
ByLayer
370
18
48
1
60
0
100
AcDbLine
10
41.399495
20
-1.05
30
0
11
41.714666
21
-0.201916
31
0
39
0
210
0
220
0
230
1
0
LINE
5
ED
100
AcDbEntity
8
1
62
256
6
ByLayer
370
13
48
1
60
0
100
AcDbLine
10
41.399495
20
-1.05
30
0
11
42.137246
21
-1.05
31
0
39
0
210
0
220
0
230
1
0
LINE
5
EE
100
AcDbEntity
8
1
62
256
6
ByLayer
370
13
48
1
60
0
100
AcDbLine
10
42.137246
20
1.05
30
0
11
41.399495
21
1.05
31
0
39
0
210
0
220
0
230
1
0
LINE
5
EF
100
AcDbEntity
8
1
62
256
6
ByLayer
370
18
48
1
60
0
100
AcDbLine
10
41.714666
20
0.201916
30
0
11
41.399495
21
1.05
31
0
39
0
210
0
220
0
230
1
0
LINE
5
F0
100
AcDbEntity
8
1
62
256
6
ByLayer
370
13
48
1
60
0
100
AcDbLine
10
42.16162
20
1.05
30
0
11
42.137246
21
1.05
31
0
39
0
210
0
220
0
230
1
0
LINE
5
F1
100
AcDbEntity
8
1
62
256
6
ByLayer
370
13
48
1
60
0
100
AcDbLine
10
42.137246
20
-1.05
30
0
11
42.137246
21
1.05
31
0
39
0
210
0
220
0
230
1
0
LINE
5
F2
100
AcDbEntity
8
1
62
256
6
ByLayer
370
13
48
1
60
0
100
AcDbLine
10
42.16162
20
-1.05
30
0
11
42.137246
21
-1.05
31
0
39
0
210
0
220
0
230
1
0
LINE
5
F3
100
AcDbEntity
8
1
62
256
6
ByLayer
370
13
48
1
60
0
100
AcDbLine
10
42.16162
20
1.05
30
0
11
42.16162
21
-1.05
31
0
39
0
210
0
220
0
230
1
0
LINE
5
F4
100
AcDbEntity
8
1
62
256
6
ByLayer
370
18
48
1
60
0
100
AcDbLine
10
45.000365
20
-0.57839
30
0
11
45.001111
21
-0.57839
31
0
39
0
210
0
220
0
230
1
0
LINE
5
F5
100
AcDbEntity
8
1
62
256
6
ByLayer
370
18
48
1
60
0
100
AcDbLine
10
45
20
0.73707
30
0
11
45
21
-0.73707
31
0
39
0
210
0
220
0
230
1
0
LINE
5
F6
100
AcDbEntity
8
1
62
256
6
ByLayer
370
13
48
1
60
0
100
AcDbLine
10
45.006379
20
-0.73707
30
0
11
45
21
-0.73707
31
0
39
0
210
0
220
0
230
1
0
LINE
5
F7
100
AcDbEntity
8
1
62
256
6
ByLayer
370
13
48
1
60
0
100
AcDbLine
10
45.000365
20
0.57839
30
0
11
45.000365
21
-0.57839
31
0
39
0
210
0
220
0
230
1
0
LINE
5
F8
100
AcDbEntity
8
1
62
256
6
ByLayer
370
13
48
1
60
0
100
AcDbLine
10
45.006379
20
0.73707
30
0
11
45
21
0.73707
31
0
39
0
210
0
220
0
230
1
0
LINE
5
F9
100
AcDbEntity
8
1
62
256
6
ByLayer
370
18
48
1
60
0
100
AcDbLine
10
45.000365
20
0.57839
30
0
11
45.001111
21
0.57839
31
0
39
0
210
0
220
0
230
1
0
LINE
5
FA
100
AcDbEntity
8
1
62
256
6
ByLayer
370
13
48
1
60
0
100
AcDbLine
10
45.038207
20
1.305556
30
0
11
42.153304
21
1.078562
31
0
39
0
210
0
220
0
230
1
0
LINE
5
FB
100
AcDbEntity
8
1
62
256
6
ByLayer
370
18
48
1
60
0
100
AcDbLine
10
45.108864
20
1.492175
30
0
11
45.078047
21
1.508204
31
0
39
0
210
0
220
0
230
1
0
LINE
5
FC
100
AcDbEntity
8
1
62
256
6
ByLayer
370
18
48
1
60
0
100
AcDbLine
10
45.038207
20
1.305556
30
0
11
45.000953
21
0.764766
31
0
39
0
210
0
220
0
230
1
0
LINE
5
FD
100
AcDbEntity
8
1
62
256
6
ByLayer
370
13
48
1
60
0
100
AcDbLine
10
45.000953
20
0.764766
30
0
11
45.010092
21
0.764766
31
0
39
0
210
0
220
0
230
1
0
LINE
5
FE
100
AcDbEntity
8
1
62
256
6
ByLayer
370
13
48
1
60
0
100
AcDbLine
10
45.079602
20
1.073706
30
0
11
45.108864
21
1.492175
31
0
39
0
210
0
220
0
230
1
0
LINE
5
FF
100
AcDbEntity
8
1
62
256
6
ByLayer
370
18
48
1
60
0
100
AcDbLine
10
45.078047
20
-1.508204
30
0
11
45.108864
21
-1.492175
31
0
39
0
210
0
220
0
230
1
0
LINE
5
100
100
AcDbEntity
8
1
62
256
6
ByLayer
370
13
48
1
60
0
100
AcDbLine
10
45.079602
20
-1.073706
30
0
11
45.108864
21
-1.492175
31
0
39
0
210
0
220
0
230
1
0
LINE
5
101
100
AcDbEntity
8
1
62
256
6
ByLayer
370
13
48
1
60
0
100
AcDbLine
10
45.000953
20
-0.764766
30
0
11
45.010092
21
-0.764766
31
0
39
0
210
0
220
0
230
1
0
LINE
5
102
100
AcDbEntity
8
1
62
256
6
ByLayer
370
18
48
1
60
0
100
AcDbLine
10
45.000953
20
-0.764766
30
0
11
45.038207
21
-1.305556
31
0
39
0
210
0
220
0
230
1
0
LINE
5
103
100
AcDbEntity
8
SK1
62
256
6
ByLayer
370
18
48
1
60
0
100
AcDbLine
10
0
20
-1.175
30
0
11
0
21
0
31
0
39
0
210
0
220
0
230
1
0
LINE
5
105
100
AcDbEntity
8
SK1
62
256
6
ByLayer
370
18
48
1
60
0
100
AcDbLine
10
0
20
-1.175
30
0
11
-97.626537
21
-1.175
31
0
39
0
210
0
220
0
230
1
0
LINE
5
106
100
AcDbEntity
8
SK1
62
256
6
ByLayer
370
18
48
1
60
0
100
AcDbLine
10
0
20
0
30
0
11
0
21
1.175
31
0
39
0
210
0
220
0
230
1
0
LINE
5
107
100
AcDbEntity
8
SK1
62
256
6
ByLayer
370
18
48
1
60
0
100
AcDbLine
10
-97.081218
20
0
30
0
11
0
21
0
31
0
39
0
210
0
220
0
230
1
0
LINE
5
108
100
AcDbEntity
8
SK1
62
256
6
ByLayer
370
18
48
1
60
0
100
AcDbLine
10
0
20
1.175
30
0
11
-97.626537
21
1.175
31
0
39
0
210
0
220
0
230
1
0
LINE
5
109
100
AcDbEntity
8
SK1
62
256
6
ByLayer
370
18
48
1
60
0
100
AcDbLine
10
-100
20
-1.175
30
0
11
-97.626537
21
-1.175
31
0
39
0
210
0
220
0
230
1
0
LINE
5
10A
100
AcDbEntity
8
SK1
62
256
6
ByLayer
370
18
48
1
60
0
100
AcDbLine
10
-97.081218
20
0
30
0
11
-97.626537
21
-1.175
31
0
39
0
210
0
220
0
230
1
0
LINE
5
10B
100
AcDbEntity
8
SK1
62
256
6
ByLayer
370
18
48
1
60
0
100
AcDbLine
10
-97.626537
20
1.175
30
0
11
-97.081218
21
0
31
0
39
0
210
0
220
0
230
1
0
LINE
5
10C
100
AcDbEntity
8
SK1
62
256
6
ByLayer
370
18
48
1
60
0
100
AcDbLine
10
-97.626537
20
1.175
30
0
11
-100
21
1.175
31
0
39
0
210
0
220
0
230
1
0
LINE
5
10D
100
AcDbEntity
8
SK1
62
256
6
ByLayer
370
18
48
1
60
0
100
AcDbLine
10
-100
20
-1.175
30
0
11
-100
21
1.175
31
0
39
0
210
0
220
0
230
1
0
LINE
5
10E
100
AcDbEntity
8
SK2
62
256
6
ByLayer
370
18
48
1
60
0
100
AcDbLine
10
-100
20
18.25
30
0
11
45
21
18.25
31
0
39
0
210
0
220
0
230
1
0
LINE
5
110
100
AcDbEntity
8
SK2
62
256
6
ByLayer
370
18
48
1
60
0
100
AcDbLine
10
45
20
1.5875
30
0
11
45
21
20.25
31
0
39
0
210
0
220
0
230
1
0
LINE
5
111
100
AcDbEntity
8
SK2
62
256
6
ByLayer
370
18
48
1
60
0
100
AcDbLine
10
-100
20
2.7625
30
0
11
-100
21
20.25
31
0
39
0
210
0
220
0
230
1
0
LINE
5
112
100
AcDbEntity
8
1
62
256
6
ByLayer
370
18
48
1
60
1
100
AcDbLine
10
45
20
18.25
30
0
11
41.500002
21
17.789216
31
0
39
0
210
0
220
0
230
1
0
LINE
5
113
100
AcDbEntity
8
1
62
256
6
ByLayer
370
18
48
1
60
1
100
AcDbLine
10
41.500002
20
17.789216
30
0
11
41.499998
21
18.710784
31
0
39
0
210
0
220
0
230
1
0
LINE
5
114
100
AcDbEntity
8
1
62
256
6
ByLayer
370
18
48
1
60
1
100
AcDbLine
10
41.499998
20
18.710784
30
0
11
45
21
18.25
31
0
39
0
210
0
220
0
230
1
0
LINE
5
115
100
AcDbEntity
8
1
62
256
6
ByLayer
370
18
48
1
60
1
100
AcDbLine
10
-100
20
18.25
30
0
11
-96.500002
21
18.710784
31
0
39
0
210
0
220
0
230
1
0
LINE
5
116
100
AcDbEntity
8
1
62
256
6
ByLayer
370
18
48
1
60
1
100
AcDbLine
10
-96.500002
20
18.710784
30
0
11
-96.499998
21
17.789216
31
0
39
0
210
0
220
0
230
1
0
LINE
5
117
100
AcDbEntity
8
1
62
256
6
ByLayer
370
18
48
1
60
1
100
AcDbLine
10
-96.499998
20
17.789216
30
0
11
-100
21
18.25
31
0
39
0
210
0
220
0
230
1
0
LINE
5
118
100
AcDbEntity
8
2
62
256
6
ByLayer
370
18
48
1
60
0
100
AcDbLine
10
0
20
8.25
30
0
11
45
21
8.25
31
0
39
0
210
0
220
0
230
1
0
LINE
5
11A
100
AcDbEntity
8
2
62
256
6
ByLayer
370
18
48
1
60
0
100
AcDbLine
10
45
20
1.5875
30
0
11
45
21
10.25
31
0
39
0
210
0
220
0
230
1
0
LINE
5
11B
100
AcDbEntity
8
2
62
256
6
ByLayer
370
18
48
1
60
0
100
AcDbLine
10
0
20
1.5875
30
0
11
0
21
10.25
31
0
39
0
210
0
220
0
230
1
0
LINE
5
11C
100
AcDbEntity
8
1
62
256
6
ByLayer
370
18
48
1
60
1
100
AcDbLine
10
45
20
8.25
30
0
11
41.500002
21
7.789216
31
0
39
0
210
0
220
0
230
1
0
LINE
5
11D
100
AcDbEntity
8
1
62
256
6
ByLayer
370
18
48
1
60
1
100
AcDbLine
10
41.500002
20
7.789216
30
0
11
41.499998
21
8.710784
31
0
39
0
210
0
220
0
230
1
0
LINE
5
11E
100
AcDbEntity
8
1
62
256
6
ByLayer
370
18
48
1
60
1
100
AcDbLine
10
41.499998
20
8.710784
30
0
11
45
21
8.25
31
0
39
0
210
0
220
0
230
1
0
LINE
5
11F
100
AcDbEntity
8
1
62
256
6
ByLayer
370
18
48
1
60
1
100
AcDbLine
10
0
20
8.25
30
0
11
3.499998
21
8.710784
31
0
39
0
210
0
220
0
230
1
0
LINE
5
120
100
AcDbEntity
8
1
62
256
6
ByLayer
370
18
48
1
60
1
100
AcDbLine
10
3.499998
20
8.710784
30
0
11
3.500002
21
7.789216
31
0
39
0
210
0
220
0
230
1
0
LINE
5
121
100
AcDbEntity
8
1
62
256
6
ByLayer
370
18
48
1
60
1
100
AcDbLine
10
3.500002
20
7.789216
30
0
11
0
21
8.25
31
0
39
0
210
0
220
0
230
1
0
LINE
5
1F2
100
AcDbEntity
8
1
62
256
6
ByLayer
370
18
48
1
60
1
100
AcDbLine
10
45
20
18.25
30
0
11
41.500002
21
17.789216
31
0
39
0
210
0
220
0
230
1
0
LINE
5
1F3
100
AcDbEntity
8
1
62
256
6
ByLayer
370
18
48
1
60
1
100
AcDbLine
10
41.500002
20
17.789216
30
0
11
41.499998
21
18.710784
31
0
39
0
210
0
220
0
230
1
0
LINE
5
1F4
100
AcDbEntity
8
1
62
256
6
ByLayer
370
18
48
1
60
1
100
AcDbLine
10
41.499998
20
18.710784
30
0
11
45
21
18.25
31
0
39
0
210
0
220
0
230
1
0
LINE
5
1F6
100
AcDbEntity
8
1
62
256
6
ByLayer
370
18
48
1
60
1
100
AcDbLine
10
-100
20
18.25
30
0
11
-96.500002
21
18.710784
31
0
39
0
210
0
220
0
230
1
0
LINE
5
1F7
100
AcDbEntity
8
1
62
256
6
ByLayer
370
18
48
1
60
1
100
AcDbLine
10
-96.500002
20
18.710784
30
0
11
-96.499998
21
17.789216
31
0
39
0
210
0
220
0
230
1
0
LINE
5
1F8
100
AcDbEntity
8
1
62
256
6
ByLayer
370
18
48
1
60
1
100
AcDbLine
10
-96.499998
20
17.789216
30
0
11
-100
21
18.25
31
0
39
0
210
0
220
0
230
1
0
LINE
5
1FB
100
AcDbEntity
8
1
62
256
6
ByLayer
370
18
48
1
60
1
100
AcDbLine
10
45
20
8.25
30
0
11
41.500002
21
7.789216
31
0
39
0
210
0
220
0
230
1
0
LINE
5
1FC
100
AcDbEntity
8
1
62
256
6
ByLayer
370
18
48
1
60
1
100
AcDbLine
10
41.500002
20
7.789216
30
0
11
41.499998
21
8.710784
31
0
39
0
210
0
220
0
230
1
0
LINE
5
1FD
100
AcDbEntity
8
1
62
256
6
ByLayer
370
18
48
1
60
1
100
AcDbLine
10
41.499998
20
8.710784
30
0
11
45
21
8.25
31
0
39
0
210
0
220
0
230
1
0
LINE
5
1FF
100
AcDbEntity
8
1
62
256
6
ByLayer
370
18
48
1
60
1
100
AcDbLine
10
0
20
8.25
30
0
11
3.499998
21
8.710784
31
0
39
0
210
0
220
0
230
1
0
LINE
5
200
100
AcDbEntity
8
1
62
256
6
ByLayer
370
18
48
1
60
1
100
AcDbLine
10
3.499998
20
8.710784
30
0
11
3.500002
21
7.789216
31
0
39
0
210
0
220
0
230
1
0
LINE
5
201
100
AcDbEntity
8
1
62
256
6
ByLayer
370
18
48
1
60
1
100
AcDbLine
10
3.500002
20
7.789216
30
0
11
0
21
8.25
31
0
39
0
210
0
220
0
230
1
0
MTEXT
5
1EF
100
AcDbEntity
8
SK2
62
256
6
ByLayer
370
18
48
1
60
0
100
AcDbMText
10
-30.459533
20
19.282634
30
0
210
0
220
0
230
1
1
\W0.6620;145
40
3.5
41
0
44
1.084337
50
0
71
7
72
5
7
iso_b_vert
0
MTEXT
5
1FA
100
AcDbEntity
8
2
62
256
6
ByLayer
370
18
48
1
60
0
100
AcDbMText
10
20.410767
20
9.282634
30
0
210
0
220
0
230
1
1
\W0.7361;45
40
3.5
41
0
44
1.084337
50
0
71
7
72
5
7
iso_b_vert
0
MTEXT
5
203
100
AcDbEntity
8
SK6
62
256
6
ByLayer
370
18
48
1
60
0
100
AcDbMText
10
-63.865615
20
-33.080525
30
0
210
0
220
0
230
1
1
\W0.8051;QD-NN1G45C25AY1
40
3.5
41
0
44
1.084337
50
0
71
7
72
5
7
iso_b_vert
0
HATCH
5
1F5
100
AcDbEntity
8
SK2
62
256
6
ByLayer
370
13
48
1
60
0
100
AcDbHatch
10
0
20
0
30
0
210
0
220
0
230
1
2
ANSI31
70
0
71
0
91
1
92
5
93
3
72
1
10
45
20
18.2499999999999
11
41.5000016925532
21
17.7892162584471
72
1
10
41.5000016925532
20
17.7892162584471
11
41.4999983074468
21
18.7107837415526
72
1
10
41.4999983074468
20
18.7107837415526
11
45
21
18.2499999999999
97
0
75
0
76
1
52
0
41
0.0062
77
0
78
1
53
45
43
0
44
0
45
-0.0139193969876572
46
0.0139193969876572
79
0
47
0
98
1
10
0
20
0
0
HATCH
5
1F9
100
AcDbEntity
8
SK2
62
256
6
ByLayer
370
13
48
1
60
0
100
AcDbHatch
10
0
20
0
30
0
210
0
220
0
230
1
2
ANSI31
70
0
71
0
91
1
92
5
93
3
72
1
10
-100
20
18.2499999999999
11
-96.5000016925532
21
18.7107837415526
72
1
10
-96.5000016925532
20
18.7107837415526
11
-96.4999983074468
21
17.7892162584471
72
1
10
-96.4999983074468
20
17.7892162584471
11
-100
21
18.2499999999999
97
0
75
0
76
1
52
0
41
0.0062
77
0
78
1
53
45
43
0
44
0
45
-0.0139193969876572
46
0.0139193969876572
79
0
47
0
98
1
10
0
20
0
0
HATCH
5
1FE
100
AcDbEntity
8
2
62
256
6
ByLayer
370
13
48
1
60
0
100
AcDbHatch
10
0
20
0
30
0
210
0
220
0
230
1
2
ANSI31
70
0
71
0
91
1
92
5
93
3
72
1
10
45
20
8.24999999999986
11
41.5000016925532
21
7.78921625844708
72
1
10
41.5000016925532
20
7.78921625844708
11
41.4999983074468
21
8.71078374155263
72
1
10
41.4999983074468
20
8.71078374155263
11
45
21
8.24999999999986
97
0
75
0
76
1
52
0
41
0.0062
77
0
78
1
53
45
43
0
44
0
45
-0.0139193969876572
46
0.0139193969876572
79
0
47
0
98
1
10
0
20
0
0
HATCH
5
202
100
AcDbEntity
8
2
62
256
6
ByLayer
370
13
48
1
60
0
100
AcDbHatch
10
0
20
0
30
0
210
0
220
0
230
1
2
ANSI31
70
0
71
0
91
1
92
5
93
3
72
1
10
0
20
8.24999999999986
11
3.49999830744682
21
8.71078374155263
72
1
10
3.49999830744682
20
8.71078374155263
11
3.50000169255318
21
7.78921625844708
72
1
10
3.50000169255318
20
7.78921625844708
11
0
21
8.24999999999986
97
0
75
0
76
1
52
0
41
0.0062
77
0
78
1
53
45
43
0
44
0
45
-0.0139193969876572
46
0.0139193969876572
79
0
47
0
98
1
10
0
20
0
0
DIMENSION
5
206
100
AcDbEntity
8
2
62
256
6
ByLayer
370
18
48
1
60
0
100
AcDbDimension
2
_U0
10
-105.25
20
-1.175
30
0
11
-105.25
21
0
31
0
70
32
71
1
72
1
41
1
210
0
220
0
230
1
3
Standard
100
AcDbAlignedDimension
13
50
23
1.175
33
0
14
-100
24
-1.175
34
0
50
90
100
AcDbRotatedDimension
1001
ACAD
1000
DSTYLE
1002
{
1070
   371
1070
    13
1070
   372
1070
    13
1070
   170
1070
     0
1070
   144
1040
1.0
1070
   277
1070
     2
1070
   284
1070
     8
1070
   278
1070
    46
1070
   146
1040
1.0
1070
   345
1005
16
1070
   347
1005
16
1070
   346
1005
16
1070
   344
1005
0
1070
   343
1005
0
1070
   172
1070
     1
1070
    76
1070
     0
1070
    75
1070
     0
1070
   282
1070
     0
1070
   281
1070
     0
1070
    71
1070
     0
1070
    74
1070
     0
1070
   279
1070
     0
1070
   173
1070
     1
1070
   340
1005
1F0
1070
   271
1070
     2
1070
   272
1070
     2
1070
    77
1070
     1
1070
    73
1070
     0
1070
   171
1070
     3
1070
   274
1070
     4
1070
   177
1070
     2
1070
   176
1070
     2
1070
   178
1070
     2
1070
    78
1070
     8
1070
    48
1040
-0.1
1070
    41
1040
3.5
1070
   147
1040
1.75
1070
    42
1040
1.5875
1070
    44
1040
2.0
1070
   140
1040
3.5
1002
}
1001
ACAD_DSTYLE_DIM_LINETYPE
1070
   380
1005
16
1001
ACAD_DSTYLE_DIM_EXT1_LINETYPE
1070
   381
1005
16
1001
ACAD_DSTYLE_DIM_EXT2_LINETYPE
1070
   382
1005
16
0
DIMENSION
5
220
100
AcDbEntity
8
2
62
256
6
ByLayer
370
18
48
1
60
0
100
AcDbDimension
2
_U1
10
65.75
20
1.5
30
0
11
65.75
21
0
31
0
70
32
71
1
72
1
41
1
210
0
220
0
230
1
3
Standard
100
AcDbAlignedDimension
13
45
23
-1.5
33
0
14
45
24
1.5
34
0
50
90
100
AcDbRotatedDimension
1001
ACAD
1000
DSTYLE
1002
{
1070
   371
1070
    13
1070
   372
1070
    13
1070
   170
1070
     0
1070
   144
1040
1.0
1070
   277
1070
     2
1070
   284
1070
     8
1070
   278
1070
    46
1070
   146
1040
1.0
1070
   345
1005
16
1070
   347
1005
16
1070
   346
1005
16
1070
   344
1005
0
1070
   343
1005
0
1070
   172
1070
     1
1070
    76
1070
     0
1070
    75
1070
     0
1070
   282
1070
     0
1070
   281
1070
     0
1070
    71
1070
     0
1070
    74
1070
     0
1070
   279
1070
     0
1070
   173
1070
     1
1070
   340
1005
1F0
1070
   271
1070
     2
1070
   272
1070
     2
1070
    77
1070
     1
1070
    73
1070
     0
1070
   171
1070
     3
1070
   274
1070
     4
1070
   177
1070
     2
1070
   176
1070
     2
1070
   178
1070
     2
1070
    78
1070
     8
1070
    48
1040
-0.1
1070
    41
1040
3.5
1070
   147
1040
1.75
1070
    42
1040
1.5875
1070
    44
1040
2.0
1070
   140
1040
3.5
1002
}
1001
ACAD_DSTYLE_DIM_LINETYPE
1070
   380
1005
16
1001
ACAD_DSTYLE_DIM_EXT1_LINETYPE
1070
   381
1005
16
1001
ACAD_DSTYLE_DIM_EXT2_LINETYPE
1070
   382
1005
16
0
ENDSEC
0
SECTION
2
OBJECTS
0
DICTIONARY
5
2a8
330
0
100
AcDbDictionary
280
0
281
1
3
ACAD_GROUP
350
2a9
3
ACAD_MLINESTYLE
350
2aa
0
DICTIONARY
5
2a9
330
0
100
AcDbDictionary
280
0
281
1
0
DICTIONARY
5
2aa
330
0
100
AcDbDictionary
280
0
281
1
3
Standard
350
18
0
MLINESTYLE
5
18
330
2aa
100
AcDbMlineStyle
2
Standard
70
0
3

62
256
51
90
52
90
71
2
49
-0.5
62
256
6
ByLayer
49
0.5
62
256
6
ByLayer
0
RASTERVARIABLES
5
297
330

100
AcDbRasterVariables
90
0
70
1
71
1
72
1
0
ENDSEC
0
EOF
