0
SECTION
2
HEADER
9
$ACADVER
1
AC1015
9
$DWGCODEPAGE
3
ANSI_1252
9
$HANDSEED
5
2c0
9
$ANGBASE
50
0
9
$ANGDIR
70
0
9
$ATTMODE
70
1
9
$AUNITS
70
0
9
$AUPREC
70
0
9
$CECOLOR
62
256
9
$CELTSCALE
40
1
9
$CELTYPE
6
ByLayer
9
$CELWEIGHT
370
18
9
$CLAYER
8
0
9
$CMLJUST
70
0
9
$CMLSCALE
40
1
9
$CMLSTYLE
2
Standard
9
$DIMSTYLE
2
Standard
9
$TEXTSIZE
40
0.2
9
$TEXTSTYLE
7
Standard
9
$LUNITS
70
2
9
$LUPREC
70
4
9
$EXTNAMES
290
1
9
$INSUNITS
70
4
9
$LTSCALE
40
1
9
$LWDISPLAY
290
1
9
$PDMODE
70
0
9
$PDSIZE
40
0
9
$PLINEGEN
70
0
0
ENDSEC
0
SECTION
2
CLASSES
0
CLASS
1
RASTERVARIABLES
2
AcDbRasterVariables
3
ISM
90
0
280
0
281
0
0
ENDSEC
0
SECTION
2
TABLES
0
TABLE
2
VPORT
5
2b6
100
AcDbSymbolTable
0
VPORT
5
1
100
AcDbSymbolTableRecord
100
AcDbViewportTableRecord
2
*Active
70
0
10
0
20
0
11
1
21
1
12
-1
22
1
13
0
23
0
14
0.5
24
0.5
15
10
25
10
16
0
26
0
36
1
17
0
27
0
37
0
0
ENDTAB
0
TABLE
2
LTYPE
5
2b7
100
AcDbSymbolTable
0
LTYPE
5
14
100
AcDbSymbolTableRecord
100
AcDbLinetypeTableRecord
70
0
2
ByBlock
3

72
65
73
0
40
0
0
LTYPE
5
15
100
AcDbSymbolTableRecord
100
AcDbLinetypeTableRecord
70
0
2
ByLayer
3

72
65
73
0
40
0
0
LTYPE
5
16
100
AcDbSymbolTableRecord
100
AcDbLinetypeTableRecord
70
0
2
Continuous
3
Solid line
72
65
73
0
40
0
0
LTYPE
5
6E
100
AcDbSymbolTableRecord
100
AcDbLinetypeTableRecord
70
0
2
CENTER
3
____ _ ____ _ ____ _ ____
72
65
73
4
40
47.5
49
22
74
0
49
-8.5
74
0
49
8.5
74
0
49
-8.5
74
0
0
LTYPE
5
6F
100
AcDbSymbolTableRecord
100
AcDbLinetypeTableRecord
70
0
2
DASHED
3
__ __ __ __ __ __ __ __ __
72
65
73
2
40
25.72
49
12.86
74
0
49
-12.86
74
0
0
ENDTAB
0
TABLE
2
LAYER
5
2b8
100
AcDbSymbolTable
0
LAYER
5
10
100
AcDbSymbolTableRecord
100
AcDbLayerTableRecord
2
0
70
0
62
7
6
Continuous
290
1
370
-3
390
0
0
LAYER
5
71
100
AcDbSymbolTableRecord
100
AcDbLayerTableRecord
2
81
70
0
62
-3
6
Continuous
290
1
370
-3
390
0
0
LAYER
5
73
100
AcDbSymbolTableRecord
100
AcDbLayerTableRecord
2
80
70
0
62
-6
6
Continuous
290
1
370
-3
390
0
0
LAYER
5
75
100
AcDbSymbolTableRecord
100
AcDbLayerTableRecord
2
1
70
0
62
4
6
Continuous
290
1
370
-3
390
0
0
LAYER
5
125
100
AcDbSymbolTableRecord
100
AcDbLayerTableRecord
2
2
70
0
62
7
6
Continuous
290
1
370
-3
390
0
0
LAYER
5
214
100
AcDbSymbolTableRecord
100
AcDbLayerTableRecord
2
Defpoints
70
0
62
7
6
Continuous
290
0
370
-3
390
0
0
LAYER
5
2a3
100
AcDbSymbolTableRecord
100
AcDbLayerTableRecord
2
SK1
70
0
62
4
6
Continuous
290
1
370
-3
390
0
0
LAYER
5
2a4
100
AcDbSymbolTableRecord
100
AcDbLayerTableRecord
2
SK2
70
0
62
7
6
Continuous
290
1
370
-3
390
0
0
LAYER
5
2a5
100
AcDbSymbolTableRecord
100
AcDbLayerTableRecord
2
SK6
70
0
62
5
6
Continuous
290
1
370
-3
390
0
0
ENDTAB
0
TABLE
2
STYLE
5
2b9
100
AcDbSymbolTable
0
STYLE
5
11
100
AcDbSymbolTableRecord
100
AcDbTextStyleTableRecord
2
Standard
3
txt
70
0
71
0
40
0
41
1
42
0
50
0
0
STYLE
5
1FB
100
AcDbSymbolTableRecord
100
AcDbTextStyleTableRecord
2
iso_b_vert
3
simplex.shx
70
0
71
0
40
0
41
1
42
0
50
0
0
STYLE
5
1FC
100
AcDbSymbolTableRecord
100
AcDbTextStyleTableRecord
2
DWGDirectTextStyle
3
simplex
70
0
71
0
40
0
41
1
42
0
50
0
0
ENDTAB
0
TABLE
2
DIMSTYLE
5
2ba
100
AcDbSymbolTable
100
AcDbDimStyleTable
0
DIMSTYLE
105
27
100
AcDbSymbolTableRecord
100
AcDbDimStyleTableRecord
2
Standard
70
0
3
<>
41
0.18
42
0.0625
44
0.18
140
0.18
147
0.09
73
0
74
0
77
1
271
2
275
0
278
52
280
0
340
11
0
ENDTAB
0
TABLE
2
VIEW
5
2bb
100
AcDbSymbolTable
0
ENDTAB
0
TABLE
2
UCS
5
2bc
100
AcDbSymbolTable
0
ENDTAB
0
TABLE
2
APPID
5
2bd
100
AcDbSymbolTable
0
APPID
5
12
100
AcDbSymbolTableRecord
100
AcDbRegAppTableRecord
2
ACAD
70
0
0
APPID
5
210
100
AcDbSymbolTableRecord
100
AcDbRegAppTableRecord
2
ACAD_DSTYLE_DIMBREAK
70
0
0
APPID
5
262
100
AcDbSymbolTableRecord
100
AcDbRegAppTableRecord
2
ACAD_DSTYLE_DIM_LINETYPE
70
0
0
APPID
5
263
100
AcDbSymbolTableRecord
100
AcDbRegAppTableRecord
2
ACAD_DSTYLE_DIM_EXT1_LINETYPE
70
0
0
APPID
5
264
100
AcDbSymbolTableRecord
100
AcDbRegAppTableRecord
2
ACAD_DSTYLE_DIM_EXT2_LINETYPE
70
0
0
APPID
5
29F
100
AcDbSymbolTableRecord
100
AcDbRegAppTableRecord
2
ACAD_MLEADERVER
70
0
0
ENDTAB
0
TABLE
2
BLOCK_RECORD
5
2be
100
AcDbSymbolTable
0
BLOCK_RECORD
5
1F
100
AcDbSymbolTableRecord
100
AcDbBlockTableRecord
2
*Model_Space
340
0
70
0
0
BLOCK_RECORD
5
1B
100
AcDbSymbolTableRecord
100
AcDbBlockTableRecord
2
*Paper_Space
340
0
70
0
0
BLOCK_RECORD
5
23
100
AcDbSymbolTableRecord
100
AcDbBlockTableRecord
2
*Paper_Space0
340
0
70
0
0
BLOCK_RECORD
5
215
100
AcDbSymbolTableRecord
100
AcDbBlockTableRecord
2
*D1
340
0
70
0
0
BLOCK_RECORD
5
222
100
AcDbSymbolTableRecord
100
AcDbBlockTableRecord
2
_U0
340
0
70
0
0
BLOCK_RECORD
5
22E
100
AcDbSymbolTableRecord
100
AcDbBlockTableRecord
2
*D3
340
0
70
0
0
BLOCK_RECORD
5
23B
100
AcDbSymbolTableRecord
100
AcDbBlockTableRecord
2
_U1
340
0
70
0
0
ENDTAB
0
ENDSEC
0
SECTION
2
BLOCKS
0
BLOCK
5
20
100
AcDbEntity
8
0
100
AcDbBlockBegin
2
*Model_Space
70
0
10
0
20
0
30
0
3
*Model_Space
0
ENDBLK
5
21
100
AcDbEntity
8
0
100
AcDbBlockEnd
0
BLOCK
5
1C
100
AcDbEntity
8
0
100
AcDbBlockBegin
2
*Paper_Space
70
0
10
0
20
0
30
0
3
*Paper_Space
0
ENDBLK
5
1D
100
AcDbEntity
8
0
100
AcDbBlockEnd
0
BLOCK
5
24
100
AcDbEntity
8
0
100
AcDbBlockBegin
2
*Paper_Space0
70
0
10
0
20
0
30
0
3
*Paper_Space0
0
ENDBLK
5
25
100
AcDbEntity
8
0
100
AcDbBlockEnd
0
BLOCK
5
216
100
AcDbEntity
8
0
100
AcDbBlockBegin
2
*D1
70
1
10
0
20
0
30
0
3
*D1
0
LINE
5
218
100
AcDbEntity
8
0
62
256
6
ByLayer
370
-2
48
1
60
0
100
AcDbLine
10
-80.5875
20
1.175
30
0
11
-86.25
21
1.175
31
0
39
0
210
0
220
0
230
1
0
LINE
5
219
100
AcDbEntity
8
0
62
256
6
ByLayer
370
-2
48
1
60
0
100
AcDbLine
10
39.4125
20
-1.175
30
0
11
-86.25
21
-1.175
31
0
39
0
210
0
220
0
230
1
0
LINE
5
21A
100
AcDbEntity
8
0
62
256
6
ByLayer
370
-2
48
1
60
0
100
AcDbLine
10
-84.25
20
4.675
30
0
11
-84.25
21
8.175
31
0
39
0
210
0
220
0
230
1
0
LINE
5
21B
100
AcDbEntity
8
0
62
256
6
ByLayer
370
-2
48
1
60
0
100
AcDbLine
10
-84.25
20
-4.675
30
0
11
-84.25
21
-8.175
31
0
39
0
210
0
220
0
230
1
0
SOLID
5
21C
100
AcDbEntity
8
0
62
256
6
ByLayer
370
-1
48
1
60
0
100
AcDbTrace
10
-84.833333
20
4.675
30
0
11
-83.666667
21
4.675
31
0
12
-84.25
22
1.175
32
0
13
-84.25
23
1.175
33
0
39
0
210
0
220
0
230
1
0
SOLID
5
21D
100
AcDbEntity
8
0
62
256
6
ByLayer
370
-1
48
1
60
0
100
AcDbTrace
10
-83.666667
20
-4.675
30
0
11
-84.833333
21
-4.675
31
0
12
-84.25
22
-1.175
32
0
13
-84.25
23
-1.175
33
0
39
0
210
0
220
0
230
1
0
MTEXT
5
21E
100
AcDbEntity
8
0
62
256
6
ByLayer
370
18
48
1
60
0
100
AcDbMText
10
-91.25
20
0
30
0
210
0
220
0
230
1
1
\A1;2.35
40
3.5
41
0
44
1
50
90
71
5
72
5
7
iso_b_vert
0
POINT
5
21F
100
AcDbEntity
8
Defpoints
62
0
6
ByLayer
370
-1
48
1
60
0
100
AcDbPoint
10
-79
20
1.175
30
0
39
0
210
0
220
0
230
1
50
360
0
POINT
5
220
100
AcDbEntity
8
Defpoints
62
0
6
ByLayer
370
-1
48
1
60
0
100
AcDbPoint
10
41
20
-1.175
30
0
39
0
210
0
220
0
230
1
50
360
0
POINT
5
221
100
AcDbEntity
8
Defpoints
62
0
6
ByLayer
370
-1
48
1
60
0
100
AcDbPoint
10
-84.25
20
-1.175
30
0
39
0
210
0
220
0
230
1
50
360
0
ENDBLK
5
217
100
AcDbEntity
8
0
100
AcDbBlockEnd
0
BLOCK
5
229
100
AcDbEntity
8
0
100
AcDbBlockBegin
2
_U0
70
0
10
0
20
0
30
0
3
_U0
0
MTEXT
5
223
100
AcDbEntity
8
2
62
256
6
ByLayer
370
18
48
1
60
0
100
AcDbMText
10
-84.939634
20
-3.949699
30
0
210
0
220
0
230
1
1
\W0.7346;2.35
40
3.5
41
0
44
1.084337
50
90
71
7
72
5
7
iso_b_vert
0
LINE
5
224
100
AcDbEntity
8
2
62
256
6
ByLayer
370
13
48
1
60
0
100
AcDbLine
10
-80.5875
20
1.175
30
0
11
-86.25
21
1.175
31
0
39
0
210
0
220
0
230
1
0
LINE
5
225
100
AcDbEntity
8
2
62
256
6
ByLayer
370
13
48
1
60
0
100
AcDbLine
10
39.4125
20
-1.175
30
0
11
-86.25
21
-1.175
31
0
39
0
210
0
220
0
230
1
0
LINE
5
226
100
AcDbEntity
8
2
62
256
6
ByLayer
370
13
48
1
60
0
100
AcDbLine
10
-84.25
20
9.925
30
0
11
-84.25
21
-9.925
31
0
39
0
210
0
220
0
230
1
0
SOLID
5
227
100
AcDbEntity
8
2
62
256
6
ByLayer
370
18
48
1
60
0
100
AcDbTrace
10
-84.25
20
1.175
30
0
11
-84.710784
21
4.674998
31
0
12
-83.789216
22
4.675002
32
0
13
-83.789216
23
4.675002
33
0
39
0
210
0
220
0
230
1
0
SOLID
5
228
100
AcDbEntity
8
2
62
256
6
ByLayer
370
18
48
1
60
0
100
AcDbTrace
10
-84.25
20
-1.175
30
0
11
-83.789216
21
-4.674998
31
0
12
-84.710784
22
-4.675002
32
0
13
-84.710784
23
-4.675002
33
0
39
0
210
0
220
0
230
1
0
ENDBLK
5
22A
100
AcDbEntity
8
0
100
AcDbBlockEnd
0
BLOCK
5
22F
100
AcDbEntity
8
0
100
AcDbBlockBegin
2
*D3
70
1
10
0
20
0
30
0
3
*D3
0
LINE
5
231
100
AcDbEntity
8
0
62
256
6
ByLayer
370
-2
48
1
60
0
100
AcDbLine
10
37.5875
20
-1.425
30
0
11
58.75
21
-1.425
31
0
39
0
210
0
220
0
230
1
0
LINE
5
232
100
AcDbEntity
8
0
62
256
6
ByLayer
370
-2
48
1
60
0
100
AcDbLine
10
37.5875
20
1.075
30
0
11
58.75
21
1.075
31
0
39
0
210
0
220
0
230
1
0
LINE
5
233
100
AcDbEntity
8
0
62
256
6
ByLayer
370
-2
48
1
60
0
100
AcDbLine
10
56.75
20
-4.925
30
0
11
56.75
21
-8.425
31
0
39
0
210
0
220
0
230
1
0
LINE
5
234
100
AcDbEntity
8
0
62
256
6
ByLayer
370
-2
48
1
60
0
100
AcDbLine
10
56.75
20
4.575
30
0
11
56.75
21
8.075
31
0
39
0
210
0
220
0
230
1
0
SOLID
5
235
100
AcDbEntity
8
0
62
256
6
ByLayer
370
-1
48
1
60
0
100
AcDbTrace
10
57.333333
20
-4.925
30
0
11
56.166667
21
-4.925
31
0
12
56.75
22
-1.425
32
0
13
56.75
23
-1.425
33
0
39
0
210
0
220
0
230
1
0
SOLID
5
236
100
AcDbEntity
8
0
62
256
6
ByLayer
370
-1
48
1
60
0
100
AcDbTrace
10
56.166667
20
4.575
30
0
11
57.333333
21
4.575
31
0
12
56.75
22
1.075
32
0
13
56.75
23
1.075
33
0
39
0
210
0
220
0
230
1
0
MTEXT
5
237
100
AcDbEntity
8
0
62
256
6
ByLayer
370
18
48
1
60
0
100
AcDbMText
10
49.75
20
-0.175
30
0
210
0
220
0
230
1
1
\A1;2.5
40
3.5
41
0
44
1
50
90
71
5
72
5
7
iso_b_vert
0
POINT
5
238
100
AcDbEntity
8
Defpoints
62
0
6
ByLayer
370
-1
48
1
60
0
100
AcDbPoint
10
36
20
-1.425
30
0
39
0
210
0
220
0
230
1
50
360
0
POINT
5
239
100
AcDbEntity
8
Defpoints
62
0
6
ByLayer
370
-1
48
1
60
0
100
AcDbPoint
10
36
20
1.075
30
0
39
0
210
0
220
0
230
1
50
360
0
POINT
5
23A
100
AcDbEntity
8
Defpoints
62
0
6
ByLayer
370
-1
48
1
60
0
100
AcDbPoint
10
56.75
20
1.075
30
0
39
0
210
0
220
0
230
1
50
360
0
ENDBLK
5
230
100
AcDbEntity
8
0
100
AcDbBlockEnd
0
BLOCK
5
242
100
AcDbEntity
8
0
100
AcDbBlockBegin
2
_U1
70
0
10
0
20
0
30
0
3
_U1
0
MTEXT
5
23C
100
AcDbEntity
8
2
62
256
6
ByLayer
370
18
48
1
60
0
100
AcDbMText
10
56.060366
20
-2.816966
30
0
210
0
220
0
230
1
1
\W0.7121;2.5
40
3.5
41
0
44
1.084337
50
90
71
7
72
5
7
iso_b_vert
0
LINE
5
23D
100
AcDbEntity
8
2
62
256
6
ByLayer
370
13
48
1
60
0
100
AcDbLine
10
37.5875
20
-1.425
30
0
11
58.75
21
-1.425
31
0
39
0
210
0
220
0
230
1
0
LINE
5
23E
100
AcDbEntity
8
2
62
256
6
ByLayer
370
13
48
1
60
0
100
AcDbLine
10
37.5875
20
1.075
30
0
11
58.75
21
1.075
31
0
39
0
210
0
220
0
230
1
0
LINE
5
23F
100
AcDbEntity
8
2
62
256
6
ByLayer
370
13
48
1
60
0
100
AcDbLine
10
56.75
20
-10.175
30
0
11
56.75
21
9.825
31
0
39
0
210
0
220
0
230
1
0
SOLID
5
240
100
AcDbEntity
8
2
62
256
6
ByLayer
370
18
48
1
60
0
100
AcDbTrace
10
56.75
20
-1.425
30
0
11
57.210784
21
-4.924998
31
0
12
56.289216
22
-4.925002
32
0
13
56.289216
23
-4.925002
33
0
39
0
210
0
220
0
230
1
0
SOLID
5
241
100
AcDbEntity
8
2
62
256
6
ByLayer
370
18
48
1
60
0
100
AcDbTrace
10
56.75
20
1.075
30
0
11
56.289216
21
4.574998
31
0
12
57.210784
22
4.575002
32
0
13
57.210784
23
4.575002
33
0
39
0
210
0
220
0
230
1
0
ENDBLK
5
243
100
AcDbEntity
8
0
100
AcDbBlockEnd
0
ENDSEC
0
SECTION
2
ENTITIES
0
ARC
5
12E
100
AcDbEntity
8
1
62
256
6
ByLayer
370
18
48
1
60
0
100
AcDbCircle
39
0
10
7.767327
20
1.825
30
0
40
1
210
0
220
0
230
1
100
AcDbArc
50
220.541602
51
270
0
ARC
5
12F
100
AcDbEntity
8
SK1
62
256
6
ByLayer
370
18
48
1
60
0
100
AcDbCircle
39
0
10
-0.232673
20
1.825
30
0
40
1.00000000000398
210
0
220
0
230
1
100
AcDbArc
50
220.541602
51
270
0
ELLIPSE
5
130
100
AcDbEntity
8
1
62
256
6
ByLayer
370
18
48
1
60
0
100
AcDbEllipse
10
32.884118
20
1.025
30
0
11
-7.47280926374772E-16
21
-0.2
31
0
210
0
220
0
230
1
40
1
41
0
42
0.077994513206647
0
ELLIPSE
5
131
100
AcDbEntity
8
1
62
256
6
ByLayer
370
18
48
1
60
0
100
AcDbEllipse
10
32.884118
20
-1.375
30
0
11
-7.47280926374772E-16
21
-0.2
31
0
210
0
220
0
230
1
40
1
41
3.06299535149063
42
3.14154746973543
0
ELLIPSE
5
132
100
AcDbEntity
8
1
62
256
6
ByLayer
370
18
48
1
60
0
100
AcDbEllipse
10
37.930263
20
-0.175
30
0
11
0.614884980017528
21
-2.88123625992644E-15
31
0
210
0
220
0
230
1
40
0.975792
41
2.43311481869008
42
-2.43311402276836
0
ELLIPSE
5
133
100
AcDbEntity
8
1
62
256
6
ByLayer
370
18
48
1
60
0
100
AcDbEllipse
10
36.954788
20
-0.175
30
0
11
0.669736055441998
21
-3.13825816246899E-15
31
0
210
0
220
0
230
1
40
0.895875
41
-2.68542662218181
42
2.6854266221818
0
ELLIPSE
5
134
100
AcDbEntity
8
1
62
256
6
ByLayer
370
18
48
1
60
0
100
AcDbEllipse
10
36.890345
20
-0.175
30
0
11
-2.24184277911436E-15
21
-0.599999999997335
31
0
210
0
220
0
230
1
40
0.996589
41
-2.02696235820507
42
-1.11463029538472
0
ELLIPSE
5
135
100
AcDbEntity
8
1
62
256
6
ByLayer
370
18
48
1
60
0
100
AcDbEllipse
10
32.504265
20
-0.223824
30
0
11
-0.159626665871387
21
5.86655822269152E-16
31
0
210
0
220
0
230
1
40
0.939693
41
1.95476876223368
42
3.14159265358979
0
ELLIPSE
5
136
100
AcDbEntity
8
1
62
256
6
ByLayer
370
18
48
1
60
0
100
AcDbEllipse
10
32.504265
20
-0.126176
30
0
11
-0.159626665871387
21
5.86655822269152E-16
31
0
210
0
220
0
230
1
40
0.939693
41
3.14159265358979
42
-1.95476876223358
0
ELLIPSE
5
137
100
AcDbEntity
8
1
62
256
6
ByLayer
370
18
48
1
60
0
100
AcDbEllipse
10
27.664422
20
-0.175
30
0
11
2.20073708743072
21
0
31
0
210
0
220
0
230
1
40
0.272636
41
-0.310656714667364
42
0.310656714667417
0
ELLIPSE
5
138
100
AcDbEntity
8
1
62
256
6
ByLayer
370
13
48
1
60
0
100
AcDbEllipse
10
7.362375
20
1.825
30
0
11
-3.73640463187386E-15
21
-1
31
0
210
0
220
0
230
1
40
0.790381
41
-0.863211890069538
42
-2.80933631913003E-16
0
ELLIPSE
5
139
100
AcDbEntity
8
1
62
256
6
ByLayer
370
18
48
1
60
0
100
AcDbEllipse
10
36.000021
20
112.601541
30
0
11
1.89213462363872E-05
21
134.3539524975
31
0
210
0
220
0
230
1
40
0.267949
41
2.56458035869047
42
2.58081505162303
0
ELLIPSE
5
13A
100
AcDbEntity
8
1
62
256
6
ByLayer
370
18
48
1
60
0
100
AcDbEllipse
10
35.99998
20
-112.601305
30
0
11
1.78354672347001E-05
21
134.353713435351
31
0
210
0
220
0
230
1
40
0.267949
41
0.565657365232789
42
0.577012848188337
0
ELLIPSE
5
13B
100
AcDbEntity
8
1
62
256
6
ByLayer
370
13
48
1
60
0
100
AcDbEllipse
10
35.960231
20
0.307663
30
0
11
0.203997444122265
21
-0.21996600371781
31
0
210
0
220
0
230
1
40
0.86829
41
0.000137736016036181
42
0.19720074393152
0
ELLIPSE
5
13C
100
AcDbEntity
8
1
62
256
6
ByLayer
370
13
48
1
60
0
100
AcDbEllipse
10
35.960231
20
-0.657663
30
0
11
0.20399744412226
21
0.219966003717815
31
0
210
0
220
0
230
1
40
0.86829
41
-0.197200743931515
42
-0.00011470224909583
0
ELLIPSE
5
13D
100
AcDbEntity
8
1
62
256
6
ByLayer
370
13
48
1
60
0
100
AcDbEllipse
10
35.956557
20
-0.654243
30
0
11
0.204806150757461
21
0.219213230923483
31
0
210
0
220
0
230
1
40
0.869475
41
-0.198850998350112
42
0.00532491410982051
0
ELLIPSE
5
13E
100
AcDbEntity
8
1
62
256
6
ByLayer
370
13
48
1
60
0
100
AcDbEllipse
10
35.956557
20
0.304243
30
0
11
0.204806150757451
21
-0.219213230923492
31
0
210
0
220
0
230
1
40
0.869475
41
-0.00305535120551024
42
0.198850998350096
0
ELLIPSE
5
13F
100
AcDbEntity
8
1
62
256
6
ByLayer
370
13
48
1
60
0
100
AcDbEllipse
10
36.342989
20
-0.936523
30
0
11
0.216527084281975
21
0.124964081928954
31
0
210
0
220
0
230
1
40
0.430913
41
0.027834054646604
42
0.717667747610603
0
ELLIPSE
5
140
100
AcDbEntity
8
1
62
256
6
ByLayer
370
13
48
1
60
0
100
AcDbEllipse
10
36.18321
20
-0.916747
30
0
11
0.106550500155881
21
0.280440708379742
31
0
210
0
220
0
230
1
40
0.371484
41
-0.692605183282362
42
-0.049191672987377
0
ELLIPSE
5
141
100
AcDbEntity
8
1
62
256
6
ByLayer
370
13
48
1
60
0
100
AcDbEllipse
10
35.973363
20
-0.797657
30
0
11
0.188249302176662
21
0.233585530866104
31
0
210
0
220
0
230
1
40
0.041411
41
0.0766583150902863
42
0.607207557335354
0
ELLIPSE
5
142
100
AcDbEntity
8
1
62
256
6
ByLayer
370
13
48
1
60
0
100
AcDbEllipse
10
36.357062
20
-1.122585
30
0
11
-0.105797441983909
21
-0.21542261085982
31
0
210
0
220
0
230
1
40
0.654975
41
1.93441261417502
42
2.49395711808176
0
ELLIPSE
5
143
100
AcDbEntity
8
1
62
256
6
ByLayer
370
13
48
1
60
0
100
AcDbEllipse
10
32.54601
20
-0.170302
30
0
11
0.204971695501128
21
0.00340647081195912
31
0
210
0
220
0
230
1
40
0.992252
41
0
42
1.22710562745274
0
ELLIPSE
5
144
100
AcDbEntity
8
1
62
256
6
ByLayer
370
13
48
1
60
0
100
AcDbEllipse
10
32.54601
20
-0.179698
30
0
11
0.204971695501128
21
-0.00340647081196041
31
0
210
0
220
0
230
1
40
0.992252
41
-1.22710562745281
42
6.82251342318064E-16
0
ELLIPSE
5
145
100
AcDbEntity
8
1
62
256
6
ByLayer
370
18
48
1
60
0
100
AcDbEllipse
10
36.3
20
0.583586
30
0
11
0.215444676636531
21
0.218397954169637
31
0
210
0
220
0
230
1
40
0.955901
41
-1.95949130545068
42
-0.769657689263338
0
ELLIPSE
5
146
100
AcDbEntity
8
1
62
256
6
ByLayer
370
13
48
1
60
0
100
AcDbEllipse
10
33.133675
20
0.545936
30
0
11
-0.18927860173403
21
-0.0646034900420285
31
0
210
0
220
0
230
1
40
0.03963
41
1.5572707308317
42
1.68638987372348
0
ELLIPSE
5
147
100
AcDbEntity
8
1
62
256
6
ByLayer
370
13
48
1
60
0
100
AcDbEllipse
10
35.147467
20
1.025
30
0
11
7.6719772028333E-16
21
0.2
31
0
210
0
220
0
230
1
40
0.707969
41
3.14159265358979
42
-3.04290205598151
0
ELLIPSE
5
148
100
AcDbEntity
8
1
62
256
6
ByLayer
370
18
48
1
60
0
100
AcDbEllipse
10
36.159685
20
0.365956
30
0
11
0.147381535000993
21
-0.135198680247815
31
0
210
0
220
0
230
1
40
0.880485
41
-0.163882987447086
42
0.154218650010975
0
ELLIPSE
5
149
100
AcDbEntity
8
1
62
256
6
ByLayer
370
18
48
1
60
0
100
AcDbEllipse
10
36.296824
20
0.474029
30
0
11
0.0945239520154837
21
-0.1762532907363
31
0
210
0
220
0
230
1
40
0.924273
41
-0.119881388398113
42
1.27142036699798E-05
0
ELLIPSE
5
14A
100
AcDbEntity
8
1
62
256
6
ByLayer
370
18
48
1
60
0
100
AcDbEllipse
10
36.296824
20
-0.824029
30
0
11
0.0945239520154883
21
0.176253290736297
31
0
210
0
220
0
230
1
40
0.924273
41
-1.27142037627713E-05
42
0.119881388398025
0
ELLIPSE
5
14B
100
AcDbEntity
8
1
62
256
6
ByLayer
370
18
48
1
60
0
100
AcDbEllipse
10
36.337181
20
0.495672
30
0
11
0.0945239520154837
21
-0.1762532907363
31
0
210
0
220
0
230
1
40
0.924273
41
-0.119881388398113
42
1.27142036753851E-05
0
ELLIPSE
5
14C
100
AcDbEntity
8
1
62
256
6
ByLayer
370
18
48
1
60
0
100
AcDbEllipse
10
36.337181
20
-0.845672
30
0
11
0.0945239520154883
21
0.176253290736297
31
0
210
0
220
0
230
1
40
0.924273
41
-1.27142037561648E-05
42
0.119881388398032
0
ELLIPSE
5
14D
100
AcDbEntity
8
1
62
256
6
ByLayer
370
18
48
1
60
0
100
AcDbEllipse
10
36.3
20
-0.933586
30
0
11
0.215444676622727
21
-0.218397954179079
31
0
210
0
220
0
230
1
40
0.955901
41
0.769657689311021
42
1.95949130551081
0
ELLIPSE
5
14E
100
AcDbEntity
8
1
62
256
6
ByLayer
370
13
48
1
60
0
100
AcDbEllipse
10
36.342989
20
0.586523
30
0
11
-0.216527084281967
21
0.124964081928968
31
0
210
0
220
0
230
1
40
0.430913
41
2.42392490597911
42
3.11375859894319
0
ELLIPSE
5
14F
100
AcDbEntity
8
1
62
256
6
ByLayer
370
18
48
1
60
0
100
AcDbEllipse
10
36.494374
20
-0.175
30
0
11
-1.86820231607151E-15
21
-0.500000000036018
31
0
210
0
220
0
230
1
40
0.657691
41
-2.75762021815757
42
-2.45402785175891
0
ELLIPSE
5
150
100
AcDbEntity
8
1
62
256
6
ByLayer
370
18
48
1
60
0
100
AcDbEllipse
10
36.494374
20
-0.175
30
0
11
7.29362317819036E-11
21
-0.499999999863069
31
0
210
0
220
0
230
1
40
0.657691
41
-0.687564802043583
42
-0.383972435583412
0
ELLIPSE
5
151
100
AcDbEntity
8
1
62
256
6
ByLayer
370
13
48
1
60
0
100
AcDbEllipse
10
36.18321
20
0.566747
30
0
11
0.106550500155878
21
-0.280440708379743
31
0
210
0
220
0
230
1
40
0.371484
41
0.049191672987376
42
0.692605183282326
0
ELLIPSE
5
152
100
AcDbEntity
8
1
62
256
6
ByLayer
370
13
48
1
60
0
100
AcDbEllipse
10
36.35
20
-0.963171
30
0
11
-0.25
21
9.18793578545685E-16
31
0
210
0
220
0
230
1
40
0.727352
41
-3.14159265358978
42
-2.10984983023443
0
ELLIPSE
5
153
100
AcDbEntity
8
1
62
256
6
ByLayer
370
13
48
1
60
0
100
AcDbEllipse
10
36.35
20
0.613171
30
0
11
0.25
21
0
31
0
210
0
220
0
230
1
40
0.727352
41
-1.03174282335536
42
9.76889780684043E-15
0
ELLIPSE
5
154
100
AcDbEntity
8
1
62
256
6
ByLayer
370
13
48
1
60
0
100
AcDbEllipse
10
35.973363
20
0.447657
30
0
11
0.188249302176507
21
-0.233585530866229
31
0
210
0
220
0
230
1
40
0.041411
41
-0.607207557333909
42
-0.0766583150901642
0
ELLIPSE
5
155
100
AcDbEntity
8
1
62
256
6
ByLayer
370
13
48
1
60
0
100
AcDbEllipse
10
36.357062
20
0.772585
30
0
11
-0.105797441983908
21
0.215422610859821
31
0
210
0
220
0
230
1
40
0.654975
41
-2.49395711808176
42
-1.93441261417502
0
ELLIPSE
5
156
100
AcDbEntity
8
1
62
256
6
ByLayer
370
18
48
1
60
0
100
AcDbEllipse
10
36.35
20
0.92203
30
0
11
0.249996922446081
21
0.0176976672887243
31
0
210
0
220
0
230
1
40
0.070092
41
-0.00496191395544297
42
0.781655708955775
0
ELLIPSE
5
157
100
AcDbEntity
8
1
62
256
6
ByLayer
370
18
48
1
60
0
100
AcDbEllipse
10
36.35
20
-1.27203
30
0
11
0.249996922444546
21
-0.017697667288521
31
0
210
0
220
0
230
1
40
0.070092
41
-0.781655708958254
42
0.0049619139558843
0
ELLIPSE
5
158
100
AcDbEntity
8
1
62
256
6
ByLayer
370
13
48
1
60
0
100
AcDbEllipse
10
36.355313
20
0.772216
30
0
11
-0.00549578527720626
21
-0.239937067466006
31
0
210
0
220
0
230
1
40
0.70758
41
0.881458165797524
42
1.53759014033229
0
ELLIPSE
5
159
100
AcDbEntity
8
1
62
256
6
ByLayer
370
13
48
1
60
0
100
AcDbEllipse
10
36.355313
20
-1.122216
30
0
11
-0.00549578527720449
21
0.239937067466006
31
0
210
0
220
0
230
1
40
0.70758
41
-1.53759014033232
42
-0.881458165797523
0
ELLIPSE
5
15A
100
AcDbEntity
8
1
62
256
6
ByLayer
370
13
48
1
60
0
100
AcDbEllipse
10
36.253954
20
-1.120286
30
0
11
0.0140146634423009
21
0.239590461430749
31
0
210
0
220
0
230
1
40
0.705051
41
-1.48013032855335
42
-0.796001808693584
0
ELLIPSE
5
15B
100
AcDbEntity
8
1
62
256
6
ByLayer
370
13
48
1
60
0
100
AcDbEllipse
10
36.253954
20
0.770286
30
0
11
0.0140146634422991
21
-0.239590461430749
31
0
210
0
220
0
230
1
40
0.705051
41
0.796001808693616
42
1.48013032855335
0
ELLIPSE
5
15C
100
AcDbEntity
8
1
62
256
6
ByLayer
370
13
48
1
60
0
100
AcDbEllipse
10
32.291104
20
-1.033953
30
0
11
-0.0913882981922495
21
0.040597770302376
31
0
210
0
220
0
230
1
40
0.179349
41
0.334417906793589
42
1.07543914650989
0
ELLIPSE
5
15D
100
AcDbEntity
8
1
62
256
6
ByLayer
370
13
48
1
60
0
100
AcDbEllipse
10
32.291104
20
0.683953
30
0
11
-0.0913882981922498
21
-0.0405977703023754
31
0
210
0
220
0
230
1
40
0.179349
41
-1.07543914650989
42
-0.334417906793314
0
ELLIPSE
5
15E
100
AcDbEntity
8
1
62
256
6
ByLayer
370
13
48
1
60
0
100
AcDbEllipse
10
32.590434
20
-0.612086
30
0
11
0.224575682386382
21
-0.0350965006321008
31
0
210
0
220
0
230
1
40
0.876749
41
2.16787998666709
42
2.98201262778859
0
ELLIPSE
5
15F
100
AcDbEntity
8
1
62
256
6
ByLayer
370
13
48
1
60
0
100
AcDbEllipse
10
32.590434
20
0.262086
30
0
11
0.224575682398024
21
0.0350965006711736
31
0
210
0
220
0
230
1
40
0.876749
41
-2.98201262793344
42
-2.16787998684919
0
ELLIPSE
5
160
100
AcDbEntity
8
1
62
256
6
ByLayer
370
13
48
1
60
0
100
AcDbEllipse
10
32.527993
20
-0.520805
30
0
11
-0.0328940156646535
21
0.0944350768171104
31
0
210
0
220
0
230
1
40
0.406497
41
0.153479571105968
42
1.24649049708923
0
ELLIPSE
5
161
100
AcDbEntity
8
1
62
256
6
ByLayer
370
13
48
1
60
0
100
AcDbEllipse
10
33.714418
20
-2.255207
30
0
11
2.60695561404263
21
-0.312187666549937
31
0
210
0
220
0
230
1
40
0.7578
41
2.1346360285601
42
2.14820687179789
0
ELLIPSE
5
162
100
AcDbEntity
8
1
62
256
6
ByLayer
370
13
48
1
60
0
100
AcDbEllipse
10
33.667455
20
-2.237648
30
0
11
2.51412631240831
21
-0.295550233345005
31
0
210
0
220
0
230
1
40
0.7465
41
2.13411416484331
42
2.14768554771595
0
ELLIPSE
5
163
100
AcDbEntity
8
1
62
256
6
ByLayer
370
13
48
1
60
0
100
AcDbEllipse
10
32.543566
20
-0.594668
30
0
11
0.132325628815515
21
-0.0155601123111055
31
0
210
0
220
0
230
1
40
0.746507
41
2.14772009077035
42
2.96185273181447
0
ELLIPSE
5
164
100
AcDbEntity
8
1
62
256
6
ByLayer
370
13
48
1
60
0
100
AcDbEllipse
10
32.543566
20
0.244668
30
0
11
0.132325628813934
21
0.0155601123095204
31
0
210
0
220
0
230
1
40
0.746507
41
-2.96185273180555
42
-2.14772009075545
0
ELLIPSE
5
165
100
AcDbEntity
8
1
62
256
6
ByLayer
370
13
48
1
60
0
100
AcDbEllipse
10
32.527993
20
0.170805
30
0
11
-0.0328940156646542
21
-0.0944350768171101
31
0
210
0
220
0
230
1
40
0.406497
41
-1.24649049708931
42
-0.153479571105969
0
ELLIPSE
5
166
100
AcDbEntity
8
1
62
256
6
ByLayer
370
13
48
1
60
0
100
AcDbEllipse
10
33.714377
20
1.905146
30
0
11
2.60690762520831
21
0.312110197836015
31
0
210
0
220
0
230
1
40
0.757795
41
-2.14817882984703
42
-2.13460775892798
0
ELLIPSE
5
167
100
AcDbEntity
8
1
62
256
6
ByLayer
370
13
48
1
60
0
100
AcDbEllipse
10
33.667408
20
1.887578
30
0
11
2.51407037155501
21
0.29546546237324
31
0
210
0
220
0
230
1
40
0.746494
41
-2.14765368899105
42
-2.13408203431014
0
ELLIPSE
5
168
100
AcDbEntity
8
1
62
256
6
ByLayer
370
13
48
1
60
0
100
AcDbEllipse
10
32.558333
20
-0.510435
30
0
11
-0.0317934266722864
21
0.094811275808492
31
0
210
0
220
0
230
1
40
0.40973
41
0.14901220129576
42
1.25123738844892
0
ELLIPSE
5
169
100
AcDbEntity
8
1
62
256
6
ByLayer
370
13
48
1
60
0
100
AcDbEllipse
10
32.558333
20
0.160435
30
0
11
-0.0317934266722873
21
-0.0948112758084918
31
0
210
0
220
0
230
1
40
0.40973
41
-1.25123738844892
42
-0.14901220129572
0
ELLIPSE
5
16A
100
AcDbEntity
8
1
62
256
6
ByLayer
370
13
48
1
60
0
100
AcDbEllipse
10
32.648672
20
0.133566
30
0
11
-0.0249467370180905
21
-0.0968383204736133
31
0
210
0
220
0
230
1
40
0.614454
41
-1.16674817605272
42
-0.157322652931494
0
ELLIPSE
5
16B
100
AcDbEntity
8
1
62
256
6
ByLayer
370
13
48
1
60
0
100
AcDbEllipse
10
32.648672
20
-0.483566
30
0
11
-0.0249467370180899
21
0.0968383204736135
31
0
210
0
220
0
230
1
40
0.614454
41
0.157322652931035
42
1.16674817605272
0
ELLIPSE
5
16C
100
AcDbEntity
8
1
62
256
6
ByLayer
370
13
48
1
60
0
100
AcDbEllipse
10
32.545933
20
-0.183119
30
0
11
0.204919776428594
21
-0.00573456436489099
31
0
210
0
220
0
230
1
40
0.992188
41
-1.21583456664789
42
-2.72918140077398E-16
0
ELLIPSE
5
16D
100
AcDbEntity
8
1
62
256
6
ByLayer
370
13
48
1
60
0
100
AcDbEllipse
10
32.784962
20
0.053052
30
0
11
-0.0748448907519722
21
-0.0663192455349527
31
0
210
0
220
0
230
1
40
0.697349
41
-0.506662271755542
42
-0.10533525584702
0
ELLIPSE
5
16E
100
AcDbEntity
8
1
62
256
6
ByLayer
370
13
48
1
60
0
100
AcDbEllipse
10
32.784962
20
-0.403052
30
0
11
-0.0748448907519717
21
0.0663192455349533
31
0
210
0
220
0
230
1
40
0.697349
41
0.105335255847033
42
0.506662271755478
0
ELLIPSE
5
16F
100
AcDbEntity
8
1
62
256
6
ByLayer
370
13
48
1
60
0
100
AcDbEllipse
10
32.545933
20
-0.166881
30
0
11
0.204919776428594
21
0.00573456436488942
31
0
210
0
220
0
230
1
40
0.992188
41
0
42
1.21583456664797
0
ELLIPSE
5
170
100
AcDbEntity
8
1
62
256
6
ByLayer
370
13
48
1
60
0
100
AcDbEllipse
10
29.065072
20
0.525
30
0
11
4.07217436395466
21
1.86586445934377E-09
31
0
210
0
220
0
230
1
40
0.073671
41
0
42
0.0418836098283477
0
ELLIPSE
5
171
100
AcDbEntity
8
1
62
256
6
ByLayer
370
13
48
1
60
0
100
AcDbEllipse
10
29.065073
20
-0.875
30
0
11
4.07217357800507
21
-6.48044128376277E-10
31
0
210
0
220
0
230
1
40
0.073671
41
-0.0418836138926722
42
-3.33065686518385E-15
0
ELLIPSE
5
172
100
AcDbEntity
8
1
62
256
6
ByLayer
370
13
48
1
60
0
100
AcDbEllipse
10
33.133675
20
-0.895936
30
0
11
-0.189278601734008
21
0.064603490042093
31
0
210
0
220
0
230
1
40
0.03963
41
-1.68638987372348
42
-1.55727073083177
0
ELLIPSE
5
173
100
AcDbEntity
8
1
62
256
6
ByLayer
370
13
48
1
60
0
100
AcDbEllipse
10
32.895003
20
-1.375
30
0
11
7.6719772028333E-16
21
0.2
31
0
210
0
220
0
230
1
40
0.826505
41
-0.103516967753806
42
-8.59695628895276E-14
0
ELLIPSE
5
174
100
AcDbEntity
8
1
62
256
6
ByLayer
370
13
48
1
60
0
100
AcDbEllipse
10
32.895003
20
1.025
30
0
11
-7.47280926374772E-16
21
-0.2
31
0
210
0
220
0
230
1
40
0.826505
41
0
42
0.103516967753717
0
ELLIPSE
5
175
100
AcDbEntity
8
1
62
256
6
ByLayer
370
18
48
1
60
0
100
AcDbEllipse
10
35.963246
20
-1.037997
30
0
11
0.0964735129855986
21
0.0263222584938591
31
0
210
0
220
0
230
1
40
0.847154
41
-0.23085375265828
42
-0.00421735468280385
0
ELLIPSE
5
176
100
AcDbEntity
8
1
62
256
6
ByLayer
370
18
48
1
60
0
100
AcDbEllipse
10
36.397018
20
-0.771883
30
0
11
-1.49456185274954E-15
21
-0.4
31
0
210
0
220
0
230
1
40
0.992546
41
-1.5707963267949
42
-1.50150186307725
0
ELLIPSE
5
177
100
AcDbEntity
8
1
62
256
6
ByLayer
370
18
48
1
60
0
100
AcDbEllipse
10
36.397018
20
0.421883
30
0
11
-1.49456185274954E-15
21
-0.4
31
0
210
0
220
0
230
1
40
0.992546
41
-1.64009079051255
42
-1.5707963267949
0
ELLIPSE
5
178
100
AcDbEntity
8
1
62
256
6
ByLayer
370
13
48
1
60
0
100
AcDbEllipse
10
29.089447
20
0.525
30
0
11
4.07217357624966
21
1.08374557292222E-09
31
0
210
0
220
0
230
1
40
0.122785
41
0
42
0.0418836138807509
0
ELLIPSE
5
179
100
AcDbEntity
8
1
62
256
6
ByLayer
370
13
48
1
60
0
100
AcDbEllipse
10
29.089447
20
-0.875
30
0
11
4.07217357519995
21
-1.08377650193318E-09
31
0
210
0
220
0
230
1
40
0.122785
41
-0.0418836138861526
42
-1.99839412048691E-15
0
POINT
5
70
100
AcDbEntity
8
81
62
256
6
ByLayer
370
18
48
1
60
0
100
AcDbPoint
10
36
20
-0.175
30
0
39
0
210
0
220
0
230
1
50
360
0
POINT
5
72
100
AcDbEntity
8
80
62
256
6
ByLayer
370
18
48
1
60
0
100
AcDbPoint
10
0
20
0
30
0
39
0
210
0
220
0
230
1
50
360
0
POINT
5
74
100
AcDbEntity
8
1
62
256
6
ByLayer
370
18
48
1
60
1
100
AcDbPoint
10
-79
20
1.175
30
0
39
0
210
0
220
0
230
1
50
360
0
POINT
5
76
100
AcDbEntity
8
1
62
256
6
ByLayer
370
18
48
1
60
1
100
AcDbPoint
10
41
20
-1.175
30
0
39
0
210
0
220
0
230
1
50
360
0
POINT
5
77
100
AcDbEntity
8
1
62
256
6
ByLayer
370
18
48
1
60
1
100
AcDbPoint
10
36
20
-1.425
30
0
39
0
210
0
220
0
230
1
50
360
0
POINT
5
78
100
AcDbEntity
8
1
62
256
6
ByLayer
370
18
48
1
60
1
100
AcDbPoint
10
36
20
1.075
30
0
39
0
210
0
220
0
230
1
50
360
0
SPLINE
5
17A
100
AcDbEntity
8
1
62
256
6
ByLayer
370
18
48
1
60
0
100
AcDbSpline
70
4
71
1
72
4
73
2
40
0
40
0
40
1
40
1
41
1
10
36.1969128389016
20
-0.466874241781909
30
0
41
1
10
36.1547192024443
20
-0.428883191787151
30
0
0
SPLINE
5
17B
100
AcDbEntity
8
1
62
256
6
ByLayer
370
18
48
1
60
0
100
AcDbSpline
70
4
71
2
72
6
73
3
40
0
40
0
40
0
40
1
40
1
40
1
41
1
10
36.1547192024442
20
0.0788831917868151
30
0
41
1
10
36.171514422914
20
0.0954733739283995
30
0
41
1
10
36.196434104085
20
0.116538481622285
30
0
0
SPLINE
5
17C
100
AcDbEntity
8
1
62
256
6
ByLayer
370
18
48
1
60
0
100
AcDbSpline
70
4
71
2
72
6
73
3
40
0
40
0
40
0
40
1
40
1
40
1
41
1
10
36.1642294148029
20
-0.437695236308485
30
0
41
1
10
36.1627758200481
20
-0.43636059739012
30
0
41
1
10
36.1613730335827
20
-0.43503046957602
30
0
0
SPLINE
5
17D
100
AcDbEntity
8
1
62
256
6
ByLayer
370
18
48
1
60
0
100
AcDbSpline
70
4
71
1
72
4
73
2
40
0
40
0
40
1
40
1
41
1
10
36.0814315354121
20
-1.12979013987516
30
0
41
1
10
36.0785125869585
20
-1.09872958362934
30
0
0
SPLINE
5
17E
100
AcDbEntity
8
1
62
256
6
ByLayer
370
18
48
1
60
0
100
AcDbSpline
70
4
71
3
72
13
73
9
40
0
40
0
40
0
40
0
40
0.0873852323149675
40
0.26618948391078
40
0.515348991057524
40
0.770958602009268
40
0.956693429182598
40
1
40
1
40
1
40
1
41
1
10
36.1603640735786
20
-0.434004776075284
30
0
41
1
10
36.1599757799349
20
-0.433796017595512
30
0
41
1
10
36.1571897432092
20
-0.430949785685556
30
0
41
1
10
36.1379176023924
20
-0.409522798816767
30
0
41
1
10
36.1062344273043
20
-0.362450901801651
30
0
41
1
10
36.0766037335704
20
-0.288768647219854
30
0
41
1
10
36.0625080483029
20
-0.223722745218737
30
0
41
1
10
36.0635071696364
20
-0.191999577504049
30
0
41
1
10
36.0638736246531
20
-0.18592969658468
30
0
0
SPLINE
5
17F
100
AcDbEntity
8
1
62
256
6
ByLayer
370
18
48
1
60
0
100
AcDbSpline
70
4
71
3
72
13
73
9
40
0
40
0
40
0
40
0
40
0.138692323141983
40
0.322580188788533
40
0.537059280761326
40
0.806176209673883
40
0.984157244424477
40
1
40
1
40
1
40
1
41
1
10
36.0638736246531
20
-0.18592969658468
30
0
41
1
10
36.0628666186377
20
-0.164904526332833
30
0
41
1
10
36.0637980708248
20
-0.118078930024097
30
0
41
1
10
36.0814712541062
20
-0.0452833063429523
30
0
41
1
10
36.1136145943416
20
0.0251075169969113
30
0
41
1
10
36.1441952244736
20
0.0679691990464732
30
0
41
1
10
36.161667879374
20
0.0851770148989601
30
0
41
1
10
36.1608274302675
20
0.0845523501961338
30
0
41
1
10
36.1607280485208
20
0.0844666016989493
30
0
0
SPLINE
5
180
100
AcDbEntity
8
1
62
256
6
ByLayer
370
18
48
1
60
0
100
AcDbSpline
70
4
71
2
72
6
73
3
40
0
40
0
40
0
40
1
40
1
40
1
41
1
10
36.0790110588394
20
0.748631772954013
30
0
41
1
10
36.0823381344527
20
0.763942585346996
30
0
41
1
10
36.0816475681369
20
0.779628292315209
30
0
0
SPLINE
5
181
100
AcDbEntity
8
1
62
256
6
ByLayer
370
18
48
1
60
0
100
AcDbSpline
70
4
71
3
72
10
73
6
40
0
40
0
40
0
40
0
40
0.193912533190297
40
0.68286499091465
40
1
40
1
40
1
40
1
41
1
10
36.0791075695198
20
-1.09932168189906
30
0
41
1
10
36.077942970343
20
-1.09213878288858
30
0
41
1
10
36.0737843128717
20
-1.06787814587312
30
0
41
1
10
36.0671137219038
20
-1.03979328078589
30
0
41
1
10
36.0618318543981
20
-1.01942378740233
30
0
41
1
10
36.059730723766
20
-1.01204243917414
30
0
0
SPLINE
5
182
100
AcDbEntity
8
1
62
256
6
ByLayer
370
18
48
1
60
0
100
AcDbSpline
70
4
71
1
72
4
73
2
40
0
40
0
40
1
40
1
41
1
10
36.0741709927114
20
1.0720407553718
30
0
41
1
10
32.9414384187282
20
0.825546395046985
30
0
0
SPLINE
5
183
100
AcDbEntity
8
1
62
256
6
ByLayer
370
18
48
1
60
0
100
AcDbSpline
70
4
71
1
72
4
73
2
40
0
40
0
40
1
40
1
41
1
10
32.9374989807375
20
-1.17523642628208
30
0
41
1
10
36.074490069464
20
-1.42206586144744
30
0
0
SPLINE
5
184
100
AcDbEntity
8
1
62
256
6
ByLayer
370
18
48
1
60
0
100
AcDbSpline
70
4
71
3
72
22
73
18
40
0
40
0
40
0
40
0
40
0.250000000000001
40
0.250000000000001
40
0.375000000000002
40
0.375000000000002
40
0.500000000000003
40
0.500000000000003
40
0.625000000000002
40
0.625000000000002
40
0.750000000000002
40
0.750000000000002
40
0.875000000000002
40
0.875000000000002
40
0.937500000000001
40
0.937500000000001
40
1
40
1
40
1
40
1
41
1
10
0
20
0.824994999499978
30
0
41
1
10
0
20
0.825005000499999
30
0
41
1
10
-2.84E-14
20
0.827552794850675
30
0
41
1
10
0
20
0.838938712526641
30
0
41
1
10
0
20
0.844005230401024
30
0
41
1
10
-2.84E-14
20
0.857516933459038
30
0
41
1
10
0
20
0.865957981824778
30
0
41
1
10
0
20
0.887297425774932
30
0
41
1
10
0
20
0.900187311200455
30
0
41
1
10
0
20
0.931927534739259
30
0
41
1
10
0
20
0.95072785929159
30
0
41
1
10
-2.84E-14
20
0.996357879008031
30
0
41
1
10
0
20
1.02314231188572
30
0
41
1
10
-2.84E-14
20
1.07211741876088
30
0
41
1
10
0
20
1.08992352459225
30
0
41
1
10
-2.84E-14
20
1.12931502880232
30
0
41
1
10
0
20
1.1508886709286
30
0
41
1
10
0
20
1.17500000000001
30
0
0
SPLINE
5
185
100
AcDbEntity
8
1
62
256
6
ByLayer
370
18
48
1
60
0
100
AcDbSpline
70
4
71
3
72
17
73
13
40
0
40
0
40
0
40
0
40
0.249999999999992
40
0.249999999999992
40
0.499999999999983
40
0.499999999999983
40
0.56249999999999
40
0.56249999999999
40
0.624999999999997
40
0.749999999999989
40
0.749999999999989
40
1
40
1
40
1
40
1
41
1
10
7.0073977808004
20
1.17499999999998
30
0
41
1
10
7.00738777980041
20
1.17499999999998
30
0
41
1
10
7.00208928585255
20
1.17499999999998
30
0
41
1
10
6.98117005837614
20
1.17499999999998
30
0
41
1
10
6.96555527810222
20
1.17499999999998
30
0
41
1
10
6.93930079538842
20
1.17499999999998
30
0
41
1
10
6.93372389201733
20
1.17499999999998
30
0
41
1
10
6.92199309460989
20
1.17499999999998
30
0
41
1
10
6.90350242678238
20
1.17499999999998
30
0
41
1
10
6.88237100283686
20
1.17499999999998
30
0
41
1
10
6.83663929386259
20
1.17499999999998
30
0
41
1
10
6.80154742963813
20
1.17499999999998
30
0
41
1
10
6.7617369090014
20
1.17499999999998
30
0
0
SPLINE
5
186
100
AcDbEntity
8
1
62
256
6
ByLayer
370
18
48
1
60
0
100
AcDbSpline
70
4
71
3
72
48
73
44
40
0
40
0
40
0
40
0
40
0.0312500000000141
40
0.0312500000000141
40
0.0625000000000282
40
0.0625000000000282
40
0.0937500000000423
40
0.0937500000000423
40
0.125000000000056
40
0.125000000000056
40
0.187500000000071
40
0.187500000000071
40
0.250000000000086
40
0.250000000000086
40
0.312500000000101
40
0.312500000000101
40
0.375000000000116
40
0.375000000000116
40
0.437500000000131
40
0.437500000000131
40
0.468750000000131
40
0.468750000000131
40
0.500000000000131
40
0.500000000000131
40
0.625000000000104
40
0.625000000000104
40
0.687500000000091
40
0.687500000000091
40
0.750000000000077
40
0.750000000000077
40
0.812500000000064
40
0.812500000000064
40
0.843750000000057
40
0.843750000000057
40
0.875000000000051
40
0.875000000000051
40
0.937500000000037
40
0.937500000000037
40
0.953125000000028
40
0.953125000000028
40
0.968750000000018
40
0.968750000000018
40
1
40
1
40
1
40
1
41
1
10
29.7598163148107
20
-0.358410389224162
30
0
41
1
10
29.7363049769208
20
-0.378376127751835
30
0
41
1
10
29.7115254672377
20
-0.39616548271681
30
0
41
1
10
29.6604784669572
20
-0.429188526570613
30
0
41
1
10
29.6341903738882
20
-0.444386892407323
30
0
41
1
10
29.5805595742585
20
-0.472970697277674
30
0
41
1
10
29.5532109280249
20
-0.486345953245234
30
0
41
1
10
29.4977043915538
20
-0.511703994970077
30
0
41
1
10
29.4695440987365
20
-0.523678812320128
30
0
41
1
10
29.3848337821146
20
-0.557621140746647
30
0
41
1
10
29.3277787100511
20
-0.577770201271505
30
0
41
1
10
29.2128651140504
20
-0.614556431838054
30
0
41
1
10
29.1550006578287
20
-0.631169648537337
30
0
41
1
10
29.0386198183118
20
-0.661489900711388
30
0
41
1
10
28.9801014824049
20
-0.675189061303399
30
0
41
1
10
28.8624845297632
20
-0.699963689416364
30
0
41
1
10
28.8033851604486
20
-0.711036130964516
30
0
41
1
10
28.6846305852109
20
-0.730648183895454
30
0
41
1
10
28.6249751099417
20
-0.739186725028873
30
0
41
1
10
28.5350678544568
20
-0.750058996088256
30
0
41
1
10
28.5050186174798
20
-0.753359469541181
30
0
41
1
10
28.4450588319078
20
-0.759271239023406
30
0
41
1
10
28.4151136337036
20
-0.761887051899549
30
0
41
1
10
28.2655619159819
20
-0.773238275205614
30
0
41
1
10
28.1464747938289
20
-0.776868712481416
30
0
41
1
10
27.9687301666743
20
-0.772714079951072
30
0
41
1
10
27.9096302546769
20
-0.769714950363039
30
0
41
1
10
27.7917465484011
20
-0.760008982900871
30
0
41
1
10
27.7329625498772
20
-0.753307010148092
30
0
41
1
10
27.6157416045253
20
-0.735448001624462
30
0
41
1
10
27.55730416952
20
-0.724302554973576
30
0
41
1
10
27.4699473189905
20
-0.703308969091353
30
0
41
1
10
27.4408836659313
20
-0.695588538621706
30
0
41
1
10
27.3835391468594
20
-0.678689598216863
30
0
41
1
10
27.3551791527191
20
-0.669494068390861
30
0
41
1
10
27.271150139784
20
-0.639357993811274
30
0
41
1
10
27.2165049585097
20
-0.615940155083933
30
0
41
1
10
27.1505767050952
20
-0.58072596627423
30
0
41
1
10
27.1375121388803
20
-0.573380252036628
30
0
41
1
10
27.1116531818535
20
-0.558007936661227
30
0
41
1
10
27.0988740176188
20
-0.549988474790098
30
0
41
1
10
27.0612906572146
20
-0.524979989475725
30
0
41
1
10
27.0371416129474
20
-0.507000363135546
30
0
41
1
10
27.0141354933274
20
-0.487355961441153
30
0
0
SPLINE
5
187
100
AcDbEntity
8
1
62
256
6
ByLayer
370
18
48
1
60
0
100
AcDbSpline
70
4
71
3
72
46
73
42
40
0
40
0
40
0
40
0
40
0.0312500000000056
40
0.0312500000000056
40
0.0625000000000112
40
0.0625000000000112
40
0.0937500000000168
40
0.0937500000000168
40
0.109375000000026
40
0.109375000000026
40
0.125000000000035
40
0.125000000000035
40
0.187500000000045
40
0.187500000000045
40
0.250000000000056
40
0.250000000000056
40
0.281250000000053
40
0.281250000000053
40
0.312500000000051
40
0.312500000000051
40
0.375000000000047
40
0.375000000000047
40
0.500000000000037
40
0.500000000000037
40
0.625000000000028
40
0.625000000000028
40
0.687500000000023
40
0.687500000000023
40
0.750000000000019
40
0.750000000000019
40
0.812500000000014
40
0.812500000000014
40
0.875000000000009
40
0.875000000000009
40
0.906250000000007
40
0.906250000000007
40
0.937500000000005
40
0.937500000000005
40
0.968750000000002
40
0.968750000000002
40
1
40
1
40
1
40
1
41
1
10
27.0141354933274
20
0.13735596144096
30
0
41
1
10
27.0371269533282
20
0.156987845620279
30
0
41
1
10
27.0611174542533
20
0.17484062845665
30
0
41
1
10
27.1106358438222
20
0.207838612456612
30
0
41
1
10
27.1361681972561
20
0.222975653460765
30
0
41
1
10
27.1885046010607
20
0.251035786898115
30
0
41
1
10
27.2153105408602
20
0.263955422202429
30
0
41
1
10
27.2563420279198
20
0.281919832885563
30
0
41
1
10
27.2701803402637
20
0.287680133442251
30
0
41
1
10
27.2979810312204
20
0.298706261730018
30
0
41
1
10
27.3119401506964
20
0.303972070900073
30
0
41
1
10
27.3820072069997
20
0.329171809436559
30
0
41
1
10
27.4389194790576
20
0.345765263415643
30
0
41
1
10
27.5540876337031
20
0.373612868084933
30
0
41
1
10
27.6123478874764
20
0.384846373818448
30
0
41
1
10
27.7005973593206
20
0.398415027954115
30
0
41
1
10
27.7301579267787
20
0.402386746161454
30
0
41
1
10
27.7895497059537
20
0.409314005353878
30
0
41
1
10
27.8194288774843
20
0.412272971647695
30
0
41
1
10
27.9090562846687
20
0.419697135493635
30
0
41
1
10
27.9687396982649
20
0.422721557526756
30
0
41
1
10
28.1476415479615
20
0.426881402447066
30
0
41
1
10
28.2667156891809
20
0.423164882666811
30
0
41
1
10
28.5046250019582
20
0.405078754105034
30
0
41
1
10
28.6234593671753
20
0.390695971153832
30
0
41
1
10
28.8015419261006
20
0.361367164185737
30
0
41
1
10
28.860873711625
20
0.350285070261975
30
0
41
1
10
28.979466592762
20
0.325340376223153
30
0
41
1
10
29.0384734008441
20
0.311531579073915
30
0
41
1
10
29.1555411388621
20
0.281025294398972
30
0
41
1
10
29.2136491657435
20
0.264325818923311
30
0
41
1
10
29.3288194395959
20
0.22741633841548
30
0
41
1
10
29.3858885621125
20
0.207228384534943
30
0
41
1
10
29.4703976098473
20
0.173321512169622
30
0
41
1
10
29.4984234397359
20
0.161389511062737
30
0
41
1
10
29.5538150947549
20
0.136055590654763
30
0
41
1
10
29.5811015902453
20
0.122696005264146
30
0
41
1
10
29.6345972623442
20
0.0941555895104784
30
0
41
1
10
29.6608123426398
20
0.0789847149738421
30
0
41
1
10
29.711701206951
20
0.0460394942122662
30
0
41
1
10
29.7363953108199
20
0.0282994165592925
30
0
41
1
10
29.7598163148144
20
0.0084103892321252
30
0
0
SPLINE
5
188
100
AcDbEntity
8
1
62
256
6
ByLayer
370
18
48
1
60
0
100
AcDbSpline
70
4
71
3
72
31
73
27
40
0
40
0
40
0
40
0
40
0.125000000000045
40
0.125000000000045
40
0.187500000000051
40
0.187500000000051
40
0.250000000000057
40
0.250000000000057
40
0.375000000000039
40
0.375000000000039
40
0.50000000000002
40
0.50000000000002
40
0.531250000000015
40
0.531250000000015
40
0.56250000000001
40
0.625000000000009
40
0.625000000000009
40
0.687500000000008
40
0.687500000000008
40
0.750000000000006
40
0.750000000000006
40
0.812500000000005
40
0.812500000000005
40
0.875000000000003
40
0.875000000000003
40
1
40
1
40
1
40
1
41
1
10
27.0141354933274
20
-0.487355961441153
30
0
41
1
10
26.9910829713819
20
-0.467671937857631
30
0
41
1
10
26.9694309547978
20
-0.446623978076673
30
0
41
1
10
26.93962109244
20
-0.412447698616347
30
0
41
1
10
26.9301320762811
20
-0.400618695746545
30
0
41
1
10
26.9121993009595
20
-0.375939429206625
30
0
41
1
10
26.9037784075208
20
-0.363104253188652
30
0
41
1
10
26.880828419843
20
-0.323644984712615
30
0
41
1
10
26.8683999971091
20
-0.295858404545129
30
0
41
1
10
26.8510094602746
20
-0.236432357550854
30
0
41
1
10
26.8464745021312
20
-0.206112460564526
30
0
41
1
10
26.8464452883296
20
-0.167520279179598
30
0
41
1
10
26.8467261493585
20
-0.15973254073441
30
0
41
1
10
26.8478514645478
20
-0.144303490000937
30
0
41
1
10
26.8503773159952
20
-0.121346898447939
30
0
41
1
10
26.8553109249748
20
-0.0989276069050504
30
0
41
1
10
26.8638938368991
20
-0.0694824869637216
30
0
41
1
10
26.8692357820244
20
-0.0548921508815283
30
0
41
1
10
26.8815067662981
20
-0.0268209657233456
30
0
41
1
10
26.8884376108034
20
-0.0132823713626635
30
0
41
1
10
26.9036745803581
20
0.0129359271020064
30
0
41
1
10
26.9119815783555
20
0.0256150856294823
30
0
41
1
10
26.9298180308419
20
0.0502104894694639
30
0
41
1
10
26.9393825881512
20
0.0621621167287572
30
0
41
1
10
26.9693479850583
20
0.0965528033066505
30
0
41
1
10
26.9910669940511
20
0.117658295178472
30
0
41
1
10
27.0141354933274
20
0.137355961440932
30
0
0
SPLINE
5
189
100
AcDbEntity
8
1
62
256
6
ByLayer
370
18
48
1
60
0
100
AcDbSpline
70
4
71
3
72
10
73
6
40
0
40
0
40
0
40
0
40
0.393894194787325
40
0.393894194787325
40
1
40
1
40
1
40
1
41
1
10
36.196152450329
20
0.117048322811769
30
0
41
1
10
36.1993775364904
20
0.120071679740391
30
0
41
1
10
36.2024861753234
20
0.123250482620961
30
0
41
1
10
36.2100255469929
20
0.131665545319038
30
0
41
1
10
36.2143116946094
20
0.137142040104607
30
0
41
1
10
36.2182077183176
20
0.142843403036267
30
0
0
SPLINE
5
18A
100
AcDbEntity
8
1
62
256
6
ByLayer
370
13
48
1
60
0
100
AcDbSpline
70
4
71
3
72
16
73
12
40
0
40
0
40
0
40
0
40
0.250000000000002
40
0.250000000000002
40
0.500000000000002
40
0.500000000000002
40
0.625
40
0.625
40
0.749999999999998
40
0.749999999999998
40
1
40
1
40
1
40
1
41
1
10
36.5579334983083
20
-0.809010385597702
30
0
41
1
10
36.5495318588537
20
-0.794810619397026
30
0
41
1
10
36.5399779525412
20
-0.781323644579601
30
0
41
1
10
36.518873728266
20
-0.756146634766225
30
0
41
1
10
36.5074138468314
20
-0.74454425680517
30
0
41
1
10
36.4888934810869
20
-0.728586109872509
30
0
41
1
10
36.4824971571316
20
-0.7235088382036
30
0
41
1
10
36.4692505142626
20
-0.713847489975763
30
0
41
1
10
36.4623922950856
20
-0.709261655393561
30
0
41
1
10
36.4414088821901
20
-0.696437162282962
30
0
41
1
10
36.4267460467687
20
-0.689039570033515
30
0
41
1
10
36.4115442997955
20
-0.682868111916292
30
0
0
SPLINE
5
18B
100
AcDbEntity
8
1
62
256
6
ByLayer
370
18
48
1
60
0
100
AcDbSpline
70
4
71
3
72
14
73
10
40
0
40
0
40
0
40
0
40
0.25
40
0.25
40
0.5
40
0.5
40
0.75
40
0.75
40
1
40
1
40
1
40
1
41
1
10
36.6
20
-0.963170963521151
30
0
41
1
10
36.6
20
-0.949684973757172
30
0
41
1
10
36.599099546741
20
-0.936193231805191
30
0
41
1
10
36.5955610428946
20
-0.909653605281335
30
0
41
1
10
36.5929256028149
20
-0.896549122911779
30
0
41
1
10
36.5859084587396
20
-0.870673841939947
30
0
41
1
10
36.5814993092351
20
-0.857840353729443
30
0
41
1
10
36.5709612660804
20
-0.8328401970615
30
0
41
1
10
36.5648666203625
20
-0.820728183384944
30
0
41
1
10
36.5579334983083
20
-0.809010385597702
30
0
0
SPLINE
5
18C
100
AcDbEntity
8
1
62
256
6
ByLayer
370
13
48
1
60
0
100
AcDbSpline
70
4
71
3
72
16
73
12
40
0
40
0
40
0
40
0
40
0.249999999999939
40
0.249999999999939
40
0.374999999999949
40
0.374999999999949
40
0.499999999999958
40
0.499999999999958
40
0.749999999999979
40
0.749999999999979
40
1
40
1
40
1
40
1
41
1
10
36.4115442997955
20
-0.682868111916292
30
0
41
1
10
36.418877574844
20
-0.686512763862737
30
0
41
1
10
36.425704267803
20
-0.691394744187278
30
0
41
1
10
36.4350895204307
20
-0.70049608144447
30
0
41
1
10
36.4380892755972
20
-0.703843251563768
30
0
41
1
10
36.443745779393
20
-0.711068652113312
30
0
41
1
10
36.4464065365959
20
-0.714947390062775
30
0
41
1
10
36.453894648377
20
-0.727367389448403
30
0
41
1
10
36.4582311815712
20
-0.73668722135011
30
0
41
1
10
36.4655571552315
20
-0.75745603606876
30
0
41
1
10
36.4685066600399
20
-0.76881643693136
30
0
41
1
10
36.4706953140111
20
-0.781022467535649
30
0
0
SPLINE
5
18D
100
AcDbEntity
8
1
62
256
6
ByLayer
370
13
48
1
60
0
100
AcDbSpline
70
4
71
3
72
8
73
4
40
0
40
0
40
0
40
0
40
1
40
1
40
1
40
1
41
1
10
36.4115442998024
20
-0.682868111918964
30
0
41
1
10
36.3728028643919
20
-0.6682101477125
30
0
41
1
10
36.3338939773382
20
-0.653462748205584
30
0
41
1
10
36.2947540057053
20
-0.638591927283528
30
0
0
SPLINE
5
18E
100
AcDbEntity
8
1
62
256
6
ByLayer
370
13
48
1
60
0
100
AcDbSpline
70
4
71
3
72
16
73
12
40
0
40
0
40
0
40
0
40
0.249999999999949
40
0.249999999999949
40
0.499999999999898
40
0.499999999999898
40
0.749999999999847
40
0.749999999999847
40
0.874999999999923
40
0.874999999999923
40
1
40
1
40
1
40
1
41
1
10
36.2947540057053
20
-0.638591927283528
30
0
41
1
10
36.2839384299061
20
-0.634640619371339
30
0
41
1
10
36.272967342588
20
-0.630241882659135
30
0
41
1
10
36.2507150273473
20
-0.620369020229703
30
0
41
1
10
36.2393651592546
20
-0.614856500501531
30
0
41
1
10
36.216703884451
20
-0.602669159653288
30
0
41
1
10
36.205350466366
20
-0.595981925279034
30
0
41
1
10
36.1882564418724
20
-0.584802237725683
30
0
41
1
10
36.1825415620117
20
-0.580876009142486
30
0
41
1
10
36.1713154954889
20
-0.572752455197815
30
0
41
1
10
36.165777143848
20
-0.568538118246607
30
0
41
1
10
36.1603183400969
20
-0.564160900884218
30
0
0
SPLINE
5
18F
100
AcDbEntity
8
1
62
256
6
ByLayer
370
13
48
1
60
0
100
AcDbSpline
70
4
71
3
72
16
73
12
40
0
40
0
40
0
40
0
40
0.153982258529214
40
0.153982258529214
40
0.307964517058428
40
0.307964517058428
40
0.615929034116955
40
0.615929034116955
40
0.923893551175482
40
0.923893551175482
40
1
40
1
40
1
40
1
41
1
10
36.1603183400969
20
-0.564160900884161
30
0
41
1
10
36.1487083200113
20
-0.554851245543205
30
0
41
1
10
36.1374834998276
20
-0.545039066847721
30
0
41
1
10
36.1161168860069
20
-0.52477076212304
30
0
41
1
10
36.1059349225459
20
-0.51428535660466
30
0
41
1
10
36.0768183068226
20
-0.481855677733421
30
0
41
1
10
36.0592884934856
20
-0.458913950703959
30
0
41
1
10
36.0279040787362
20
-0.410850773983725
30
0
41
1
10
36.0146474671997
20
-0.386664754572223
30
0
41
1
10
36.0005706204867
20
-0.356623325317969
30
0
41
1
10
35.9979020690999
20
-0.350676064716481
30
0
41
1
10
35.9953491717628
20
-0.344738815334551
30
0
0
SPLINE
5
190
100
AcDbEntity
8
1
62
256
6
ByLayer
370
13
48
1
60
0
100
AcDbSpline
70
4
71
3
72
18
73
14
40
0
40
0
40
0
40
0
40
0.249999999999999
40
0.249999999999999
40
0.374999999999983
40
0.374999999999983
40
0.499999999999968
40
0.499999999999968
40
0.749999999999987
40
0.749999999999987
40
0.874999999999993
40
0.874999999999993
40
1
40
1
40
1
40
1
41
1
10
36.5265609899025
20
-0.992588867502946
30
0
41
1
10
36.5382821002937
20
-1.00141452714308
30
0
41
1
10
36.548647781989
20
-1.01095410991238
30
0
41
1
10
36.5622551521219
20
-1.02628464860018
30
0
41
1
10
36.5664649790133
20
-1.03156630804162
30
0
41
1
10
36.574219271648
20
-1.04247945945673
30
0
41
1
10
36.5777794908289
20
-1.04814434813184
30
0
41
1
10
36.5872286760444
20
-1.0653290099676
30
0
41
1
10
36.5919560224926
20
-1.07708741724045
30
0
41
1
10
36.5967490287563
20
-1.09516571112263
30
0
41
1
10
36.5979609455192
20
-1.10126578890819
30
0
41
1
10
36.5995893323665
20
-1.1136184318062
30
0
41
1
10
36.6
20
-1.11992812421565
30
0
41
1
10
36.6
20
-1.12606875232979
30
0
0
SPLINE
5
191
100
AcDbEntity
8
1
62
256
6
ByLayer
370
13
48
1
60
0
100
AcDbSpline
70
4
71
3
72
8
73
4
40
0
40
0
40
0
40
0
40
1
40
1
40
1
40
1
41
1
10
36.4828271009402
20
-0.966609145413827
30
0
41
1
10
36.4987080849629
20
-0.973934576471549
30
0
41
1
10
36.5132863727892
20
-0.982593461904003
30
0
41
1
10
36.5265609899024
20
-0.992588867498711
30
0
0
SPLINE
5
192
100
AcDbEntity
8
1
62
256
6
ByLayer
370
13
48
1
60
0
100
AcDbSpline
70
4
71
3
72
18
73
14
40
0
40
0
40
0
40
0
40
0.250000000000028
40
0.250000000000028
40
0.375000000000041
40
0.375000000000041
40
0.500000000000055
40
0.500000000000055
40
0.750000000000002
40
0.750000000000002
40
0.875000000000001
40
0.875000000000001
40
1
40
1
40
1
40
1
41
1
10
36.5265609918034
20
-1.11073297768812
30
0
41
1
10
36.5382820780869
20
-1.11174623887729
30
0
41
1
10
36.5486477365596
20
-1.11284160915122
30
0
41
1
10
36.5622550828178
20
-1.11460223149311
30
0
41
1
10
36.5664649034862
20
-1.11520884778844
30
0
41
1
10
36.574219187894
20
-1.11646237490046
30
0
41
1
10
36.5777794048601
20
-1.11711312276034
30
0
41
1
10
36.5872285979879
20
-1.11908738326562
30
0
41
1
10
36.5919559639604
20
-1.12043849593155
30
0
41
1
10
36.5967489992767
20
-1.12251622393862
30
0
41
1
10
36.5979609256647
20
-1.12321737100214
30
0
41
1
10
36.5995893271992
20
-1.12463733799874
30
0
41
1
10
36.5999999999999
20
-1.12536273678163
30
0
41
1
10
36.6
20
-1.12606875233092
30
0
0
SPLINE
5
193
100
AcDbEntity
8
1
62
256
6
ByLayer
370
13
48
1
60
0
100
AcDbSpline
70
4
71
3
72
8
73
4
40
0
40
0
40
0
40
0
40
1
40
1
40
1
40
1
41
1
10
36.5248116362444
20
-1.11036379658205
30
0
41
1
10
36.5254045382241
20
-1.11035021609607
30
0
41
1
10
36.5259891695837
20
-1.11045214608839
30
0
41
1
10
36.5265609917674
20
-1.11073297691283
30
0
0
SPLINE
5
194
100
AcDbEntity
8
1
62
256
6
ByLayer
370
13
48
1
60
0
100
AcDbSpline
70
4
71
3
72
14
73
10
40
0
40
0
40
0
40
0
40
0.0502472093006491
40
0.0502472093006491
40
0.525123604650408
40
0.525123604650408
40
0.762561802325204
40
0.762561802325204
40
1
40
1
40
1
40
1
41
1
10
36.0006453886329
20
-0.486095650272631
30
0
41
1
10
36.0023107883654
20
-0.488336138221967
30
0
41
1
10
36.0039983704024
20
-0.49056683917243
30
0
41
1
10
36.0218626347895
20
-0.51376328499893
30
0
41
1
10
36.0396604886326
20
-0.533382504360986
30
0
41
1
10
36.0688364929564
20
-0.560607366821699
30
0
41
1
10
36.0789760462727
20
-0.569314597761831
30
0
41
1
10
36.1000993198868
20
-0.585956805551518
30
0
41
1
10
36.1111101822834
20
-0.593907366320764
30
0
41
1
10
36.1224422437396
20
-0.601378666863695
30
0
0
SPLINE
5
195
100
AcDbEntity
8
1
62
256
6
ByLayer
370
13
48
1
60
0
100
AcDbSpline
70
4
71
3
72
8
73
4
40
0
40
0
40
0
40
0
40
1
40
1
40
1
40
1
41
1
10
36.0144974855204
20
-0.648618486072507
30
0
41
1
10
36.0471688924544
20
-0.632313297652701
30
0
41
1
10
36.0831416848388
20
-0.616577883733385
30
0
41
1
10
36.1224422437366
20
-0.601378666862558
30
0
0
SPLINE
5
196
100
AcDbEntity
8
1
62
256
6
ByLayer
370
13
48
1
60
0
100
AcDbSpline
70
4
71
3
72
10
73
6
40
0
40
0
40
0
40
0
40
0.5
40
0.5
40
1
40
1
40
1
40
1
41
1
10
36.4706953140111
20
-0.781022467535649
30
0
41
1
10
36.4734823408742
20
-0.78557887976072
30
0
41
1
10
36.475337618729
20
-0.790171771099693
30
0
41
1
10
36.4777088718974
20
-0.798891749132366
30
0
41
1
10
36.4782527438006
20
-0.803094193933219
30
0
41
1
10
36.4783309857904
20
-0.807118428719974
30
0
0
SPLINE
5
197
100
AcDbEntity
8
1
62
256
6
ByLayer
370
13
48
1
60
0
100
AcDbSpline
70
4
71
3
72
14
73
10
40
0
40
0
40
0
40
0
40
0.125000000000083
40
0.125000000000083
40
0.250000000000167
40
0.250000000000167
40
0.500000000000111
40
0.500000000000111
40
1
40
1
40
1
40
1
41
1
10
36.331732512757
20
-0.726198855898531
30
0
41
1
10
36.3375585745056
20
-0.728530575910952
30
0
41
1
10
36.3433769161852
20
-0.730779949794567
30
0
41
1
10
36.3550043280521
20
-0.73532078339926
30
0
41
1
10
36.3608134042436
20
-0.73759908149276
30
0
41
1
10
36.3782290308524
20
-0.74445843030216
30
0
41
1
10
36.3898242321072
20
-0.749053870158235
30
0
41
1
10
36.4245617618357
20
-0.762785040418606
30
0
41
1
10
36.4476567009818
20
-0.771908106909052
30
0
41
1
10
36.4706953140105
20
-0.781022467521638
30
0
0
SPLINE
5
198
100
AcDbEntity
8
1
62
256
6
ByLayer
370
13
48
1
60
0
100
AcDbSpline
70
4
71
3
72
14
73
10
40
0
40
0
40
0
40
0
40
0.499999999999999
40
0.499999999999999
40
0.749999999999999
40
0.749999999999999
40
0.874999999999999
40
0.874999999999999
40
1
40
1
40
1
40
1
41
1
10
36.1224422437397
20
-0.60137866686344
30
0
41
1
10
36.1549283154998
20
-0.627733871470497
30
0
41
1
10
36.1888336694473
20
-0.651117793192583
30
0
41
1
10
36.241542188091
20
-0.682387986583052
30
0
41
1
10
36.2594953025361
20
-0.69220658722287
30
0
41
1
10
36.2864885948265
20
-0.705839275435125
30
0
41
1
10
36.295504924764
20
-0.710207044296936
30
0
41
1
10
36.3135765944825
20
-0.718609435792104
30
0
41
1
10
36.3226413105004
20
-0.722560353741613
30
0
41
1
10
36.331732512757
20
-0.726198855898531
30
0
0
SPLINE
5
199
100
AcDbEntity
8
1
62
256
6
ByLayer
370
18
48
1
60
0
100
AcDbSpline
70
4
71
3
72
10
73
6
40
0
40
0
40
0
40
0
40
0.484275293441927
40
0.484275293441927
40
1
40
1
40
1
40
1
41
1
10
32.8997977278466
20
0.825615562757406
30
0
41
1
10
32.9000719310868
20
0.825638489472254
30
0
41
1
10
32.9017982420018
20
0.825705688228595
30
0
41
1
10
32.9062701766172
20
0.825868968804315
30
0
41
1
10
32.9090718105599
20
0.825966885555545
30
0
41
1
10
32.9120841901698
20
0.826070619706485
30
0
0
SPLINE
5
19A
100
AcDbEntity
8
1
62
256
6
ByLayer
370
13
48
1
60
0
100
AcDbSpline
70
4
71
3
72
8
73
4
40
0
40
0
40
0
40
0
40
1
40
1
40
1
40
1
41
1
10
32.6118955871797
20
0.0223354503649205
30
0
41
1
10
32.6118766768727
20
0.0234733076659381
30
0
41
1
10
32.6118511181041
20
0.0246134025923368
30
0
41
1
10
32.6118191529043
20
0.0257556517981641
30
0
0
SPLINE
5
19B
100
AcDbEntity
8
1
62
256
6
ByLayer
370
13
48
1
60
0
100
AcDbSpline
70
4
71
3
72
8
73
4
40
0
40
0
40
0
40
0
40
1
40
1
40
1
40
1
41
1
10
32.6118955871797
20
-0.372335450365171
30
0
41
1
10
32.6118766768727
20
-0.373473307666188
30
0
41
1
10
32.6118511181041
20
-0.374613402592558
30
0
41
1
10
32.6118191529043
20
-0.375755651798414
30
0
0
SPLINE
5
19C
100
AcDbEntity
8
1
62
256
6
ByLayer
370
18
48
1
60
0
100
AcDbSpline
70
4
71
3
72
8
73
4
40
0
40
0
40
0
40
0
40
1
40
1
40
1
40
1
41
1
10
36.0828635835673
20
-1.12963699651547
30
0
41
1
10
36.082362560908
20
-1.12244374462708
30
0
41
1
10
36.0812770920394
20
-1.11534721829062
30
0
41
1
10
36.0795900955991
20
-1.10835035942668
30
0
0
SPLINE
5
19D
100
AcDbEntity
8
1
62
256
6
ByLayer
370
18
48
1
60
0
100
AcDbSpline
70
4
71
3
72
12
73
8
40
0
40
0
40
0
40
0
40
0.516976051166462
40
0.516976051166462
40
0.775464076749878
40
0.775464076749878
40
1
40
1
40
1
40
1
41
1
10
32.9120841901698
20
-1.17607061970673
30
0
41
1
10
32.9090707835226
20
-1.17596685018879
30
0
41
1
10
32.9062300052825
20
-1.17586752025275
30
0
41
1
10
32.9028105727317
20
-1.17574264154592
30
0
41
1
10
32.9018090718654
20
-1.17570496308875
30
0
41
1
10
32.9003903448751
20
-1.17564749030095
30
0
41
1
10
32.899938759519
20
-1.17562690193591
30
0
41
1
10
32.8998027113701
20
-1.17561596422243
30
0
0
SPLINE
5
19E
100
AcDbEntity
8
1
62
256
6
ByLayer
370
18
48
1
60
0
100
AcDbSpline
70
4
71
3
72
12
73
8
40
0
40
0
40
0
40
0
40
0.382089449027727
40
0.382089449027727
40
0.691044724513863
40
0.691044724513863
40
1
40
1
40
1
40
1
41
1
10
36.1966096480541
20
-0.467477555321153
30
0
41
1
10
36.1996540544788
20
-0.470354761512198
30
0
41
1
10
36.2025949058377
20
-0.473373429418672
30
0
41
1
10
36.2077230245955
20
-0.479094316462124
30
0
41
1
10
36.2099365522029
20
-0.481735498338423
30
0
41
1
10
36.2142023653871
20
-0.487180733760084
30
0
41
1
10
36.2162640713492
20
-0.489999109056896
30
0
41
1
10
36.2182077183176
20
-0.492843403036517
30
0
0
SPLINE
5
19F
100
AcDbEntity
8
1
62
256
6
ByLayer
370
13
48
1
60
0
100
AcDbSpline
70
4
71
3
72
17
73
13
40
0
40
0
40
0
40
0
40
0.0625000000000179
40
0.0625000000000179
40
0.125000000000036
40
0.250000000000076
40
0.375000000000116
40
0.375000000000116
40
0.500000000000157
40
0.500000000000157
40
0.750000000000078
40
1
40
1
40
1
40
1
41
1
10
36.4115442997954
20
0.332868111915957
30
0
41
1
10
36.4153050490523
20
0.334394864517293
30
0
41
1
10
36.4191068371456
20
0.336028206625571
30
0
41
1
10
36.426601396357
20
0.33943342391683
30
0
41
1
10
36.4377154973242
20
0.344760939369252
30
0
41
1
10
36.455608047849
20
0.354725269107917
30
0
41
1
10
36.4692527813253
20
0.363847831264963
30
0
41
1
10
36.4825579047919
20
0.373554462500607
30
0
41
1
10
36.4890531478973
20
0.378714309082795
30
0
41
1
10
36.5076986870005
20
0.394808910297314
30
0
41
1
10
36.5305518546472
20
0.418046136853349
30
0
41
1
10
36.5494940101149
20
0.444746650543465
30
0
41
1
10
36.5579334983083
20
0.459010385597424
30
0
0
SPLINE
5
1A0
100
AcDbEntity
8
1
62
256
6
ByLayer
370
18
48
1
60
0
100
AcDbSpline
70
4
71
3
72
12
73
8
40
0
40
0
40
0
40
0
40
0.249999999999985
40
0.249999999999985
40
0.499999999999971
40
0.499999999999971
40
1
40
1
40
1
40
1
41
1
10
36.5579334983083
20
0.459010385597424
30
0
41
1
10
36.5648829218635
20
0.470755734852929
30
0
41
1
10
36.5709879390125
20
0.48289375721717
30
0
41
1
10
36.5815378573494
20
0.507941582390174
30
0
41
1
10
36.5859573088748
20
0.520825390260995
30
0
41
1
10
36.5964697519916
20
0.559675665360942
30
0
41
1
10
36.6
20
0.586138520467557
30
0
41
1
10
36.6
20
0.613170963520872
30
0
0
SPLINE
5
1A1
100
AcDbEntity
8
1
62
256
6
ByLayer
370
13
48
1
60
0
100
AcDbSpline
70
4
71
3
72
8
73
4
40
0
40
0
40
0
40
0
40
1
40
1
40
1
40
1
41
1
10
36.2947540057053
20
0.28859192728325
30
0
41
1
10
36.3338939773382
20
0.303462748205305
30
0
41
1
10
36.3728028643918
20
0.318210147712222
30
0
41
1
10
36.4115442998023
20
0.332868111918714
30
0
0
SPLINE
5
1A2
100
AcDbEntity
8
1
62
256
6
ByLayer
370
13
48
1
60
0
100
AcDbSpline
70
4
71
3
72
17
73
13
40
0
40
0
40
0
40
0
40
0.062499999999942
40
0.062499999999942
40
0.124999999999884
40
0.2499999999999
40
0.374999999999917
40
0.374999999999917
40
0.499999999999934
40
0.499999999999934
40
0.749999999999967
40
1
40
1
40
1
40
1
41
1
10
36.4115442998125
20
0.332868111922551
30
0
41
1
10
36.4133590213587
20
0.333770032059675
30
0
41
1
10
36.4151777545621
20
0.334766689177997
30
0
41
1
10
36.4187316762956
20
0.336906838131824
30
0
41
1
10
36.4239544041912
20
0.340343194221219
30
0
41
1
10
36.4321246534106
20
0.347187317378172
30
0
41
1
10
36.4380937427488
20
0.353847057001872
30
0
41
1
10
36.4437747968909
20
0.361107629913448
30
0
41
1
10
36.4464756996384
20
0.365050213079087
30
0
41
1
10
36.4540080247225
20
0.377579830161977
30
0
41
1
10
36.462635192566
20
0.396254207290809
30
0
41
1
10
36.4684965254172
20
0.418759916569314
30
0
41
1
10
36.4706953140111
20
0.431022467535371
30
0
0
SPLINE
5
1A3
100
AcDbEntity
8
1
62
256
6
ByLayer
370
18
48
1
60
0
100
AcDbSpline
70
4
71
3
72
10
73
6
40
0
40
0
40
0
40
0
40
0.5
40
0.5
40
1
40
1
40
1
40
1
41
1
10
36.218207718321
20
-0.492843403040467
30
0
41
1
10
36.2284756917271
20
-0.505464186680939
30
0
41
1
10
36.2392885503632
20
-0.517544360312542
30
0
41
1
10
36.2617739158943
20
-0.540387190679894
30
0
41
1
10
36.2734788602672
20
-0.55119151012164
30
0
41
1
10
36.2856699672621
20
-0.561396910407922
30
0
0
SPLINE
5
1A4
100
AcDbEntity
8
1
62
256
6
ByLayer
370
13
48
1
60
0
100
AcDbSpline
70
4
71
3
72
8
73
4
40
0
40
0
40
0
40
0
40
1
40
1
40
1
40
1
41
1
10
36.1976956959651
20
-0.476664648771418
30
0
41
1
10
36.2041049238675
20
-0.481692642904022
30
0
41
1
10
36.2109003921336
20
-0.487069228045755
30
0
41
1
10
36.2182077183178
20
-0.492843403045327
30
0
0
SPLINE
5
1A5
100
AcDbEntity
8
1
62
256
6
ByLayer
370
13
48
1
60
0
100
AcDbSpline
70
4
71
3
72
8
73
4
40
0
40
0
40
0
40
0
40
1
40
1
40
1
40
1
41
1
10
36.1949790948179
20
-0.474527022875634
30
0
41
1
10
36.1958815460784
20
-0.475239294155926
30
0
41
1
10
36.1967870649437
20
-0.475951834136993
30
0
41
1
10
36.1976956959651
20
-0.476664648771418
30
0
0
SPLINE
5
1A6
100
AcDbEntity
8
1
62
256
6
ByLayer
370
13
48
1
60
0
100
AcDbSpline
70
4
71
3
72
44
73
40
40
0
40
0
40
0
40
0
40
0.0625000000000079
40
0.0625000000000079
40
0.125000000000016
40
0.125000000000016
40
0.187500000000024
40
0.187500000000024
40
0.218750000000036
40
0.218750000000036
40
0.250000000000049
40
0.250000000000049
40
0.312500000000074
40
0.312500000000074
40
0.343750000000079
40
0.343750000000079
40
0.375000000000085
40
0.375000000000085
40
0.437500000000079
40
0.437500000000079
40
0.500000000000074
40
0.500000000000074
40
0.562500000000069
40
0.562500000000069
40
0.593750000000066
40
0.593750000000066
40
0.625000000000064
40
0.625000000000064
40
0.68750000000006
40
0.68750000000006
40
0.71875000000005
40
0.71875000000005
40
0.75000000000004
40
0.75000000000004
40
0.812500000000028
40
0.812500000000028
40
0.875000000000017
40
0.875000000000017
40
1
40
1
40
1
40
1
41
1
10
36.1949790948179
20
0.124527022875384
30
0
41
1
10
36.189450036273
20
0.120163142208582
30
0
41
1
10
36.1834594828616
20
0.114976881118309
30
0
41
1
10
36.1706697296961
20
0.102714675494724
30
0
41
1
10
36.1638684241998
20
0.0956294562782887
30
0
41
1
10
36.1499011522439
20
0.0795589418702889
30
0
41
1
10
36.1427069794281
20
0.0705511747922003
30
0
41
1
10
36.1318020284757
20
0.0553368121210838
30
0
41
1
10
36.1281484428369
20
0.0499803569605319
30
0
41
1
10
36.120843824294
20
0.0386359680096575
30
0
41
1
10
36.1171784961777
20
0.0326210942639591
30
0
41
1
10
36.1064388685762
20
0.0138395427174203
30
0
41
1
10
36.0995757089119
20
0.000288267640741
30
0
41
1
10
36.0900485513591
20
-0.0218255962325031
30
0
41
1
10
36.087001388034
20
-0.0294962611964422
30
0
41
1
10
36.081231564415
20
-0.0455041256915365
30
0
41
1
10
36.0784927395614
20
-0.0538999006970187
30
0
41
1
10
36.0710272106647
20
-0.0797306021542568
30
0
41
1
10
36.0670449398559
20
-0.0977429423307967
30
0
41
1
10
36.0615320581889
20
-0.135552069269664
30
0
41
1
10
36.0600595072026
20
-0.155438643245958
30
0
41
1
10
36.0600507858999
20
-0.194380343037352
30
0
41
1
10
36.0614466500622
20
-0.213563221456212
30
0
41
1
10
36.0655174473713
20
-0.241920242985771
30
0
41
1
10
36.06721105964
20
-0.251312119995646
30
0
41
1
10
36.071161164501
20
-0.269599749812016
30
0
41
1
10
36.0734074894728
20
-0.278465244865316
30
0
41
1
10
36.0807879484062
20
-0.304118103080953
30
0
41
1
10
36.0865786872974
20
-0.320059552121251
30
0
41
1
10
36.0961965291297
20
-0.342473495536552
30
0
41
1
10
36.0995659639994
20
-0.34970420500656
30
0
41
1
10
36.1064853515318
20
-0.363531381190313
30
0
41
1
10
36.1100194465312
20
-0.370100863699207
30
0
41
1
10
36.1207394848732
20
-0.388849428399794
30
0
41
1
10
36.128051125169
20
-0.400095232075699
30
0
41
1
10
36.1426487060885
20
-0.420478170547284
30
0
41
1
10
36.1499775491858
20
-0.429654836355667
30
0
41
1
10
36.171040124402
20
-0.453864914617213
30
0
41
1
10
36.1839091388956
20
-0.46578991759111
30
0
41
1
10
36.1949790948179
20
-0.474527022875634
30
0
0
SPLINE
5
1A7
100
AcDbEntity
8
1
62
256
6
ByLayer
370
13
48
1
60
0
100
AcDbSpline
70
4
71
3
72
8
73
4
40
0
40
0
40
0
40
0
40
1
40
1
40
1
40
1
41
1
10
36.1976956959651
20
0.126664648771168
30
0
41
1
10
36.1967870649437
20
0.125951834136714
30
0
41
1
10
36.1958815460784
20
0.125239294155648
30
0
41
1
10
36.1949790948179
20
0.124527022875384
30
0
0
SPLINE
5
1A8
100
AcDbEntity
8
1
62
256
6
ByLayer
370
13
48
1
60
0
100
AcDbSpline
70
4
71
3
72
8
73
4
40
0
40
0
40
0
40
0
40
1
40
1
40
1
40
1
41
1
10
36.218207718321
20
0.142843403040217
30
0
41
1
10
36.2109003921369
20
0.137069228040645
30
0
41
1
10
36.2041049238661
20
0.131692642908377
30
0
41
1
10
36.1976956959637
20
0.126664648775772
30
0
0
SPLINE
5
1A9
100
AcDbEntity
8
1
62
256
6
ByLayer
370
18
48
1
60
0
100
AcDbSpline
70
4
71
3
72
8
73
4
40
0
40
0
40
0
40
0
40
1
40
1
40
1
40
1
41
1
10
36.2856699672621
20
0.211396910407672
30
0
41
1
10
36.2612624988603
20
0.190964968901483
30
0
41
1
10
36.2388237648465
20
0.168183424135861
30
0
41
1
10
36.218207718321
20
0.142843403040217
30
0
0
SPLINE
5
1AA
100
AcDbEntity
8
1
62
256
6
ByLayer
370
13
48
1
60
0
100
AcDbSpline
70
4
71
3
72
16
73
12
40
0
40
0
40
0
40
0
40
0.249999999999839
40
0.249999999999839
40
0.374999999999866
40
0.374999999999866
40
0.499999999999892
40
0.499999999999892
40
0.749999999999946
40
0.749999999999946
40
1
40
1
40
1
40
1
41
1
10
36.1603183400971
20
0.214160900884053
30
0
41
1
10
36.1713169044405
20
0.222980251972814
30
0
41
1
10
36.1825537515278
20
0.231074388476657
30
0
41
1
10
36.1997157574197
20
0.242295868701149
30
0
41
1
10
36.2055215749991
20
0.245901738777974
30
0
41
1
10
36.2170290807274
20
0.252710470347012
30
0
41
1
10
36.2227318849612
20
0.255917041743146
30
0
41
1
10
36.2397158676202
20
0.2650325347619
30
0
41
1
10
36.2508738733155
20
0.270441738299581
30
0
41
1
10
36.2729682851821
20
0.280240042984957
30
0
41
1
10
36.2839159377041
20
0.284632402183462
30
0
41
1
10
36.2947540057053
20
0.28859192728325
30
0
0
SPLINE
5
1AB
100
AcDbEntity
8
1
62
256
6
ByLayer
370
18
48
1
60
0
100
AcDbSpline
70
4
71
3
72
10
73
6
40
0
40
0
40
0
40
0
40
0.5
40
0.5
40
1
40
1
40
1
40
1
41
1
10
36.6
20
-1.12606875233098
30
0
41
1
10
36.6
20
-1.09982110533642
30
0
41
1
10
36.5999999999986
20
-1.07294804153833
30
0
41
1
10
36.5999999999986
20
-1.0185972264297
30
0
41
1
10
36.6
20
-0.991045023491921
30
0
41
1
10
36.6
20
-0.963170963521151
30
0
0
SPLINE
5
1AC
100
AcDbEntity
8
1
62
256
6
ByLayer
370
18
48
1
60
0
100
AcDbSpline
70
4
71
3
72
10
73
6
40
0
40
0
40
0
40
0
40
0.5
40
0.5
40
1
40
1
40
1
40
1
41
1
10
36.6
20
0.776068752330701
30
0
41
1
10
36.6
20
0.749821105336139
30
0
41
1
10
36.5999999999985
20
0.722948041538046
30
0
41
1
10
36.5999999999985
20
0.668597226429426
30
0
41
1
10
36.6000000000001
20
0.641045023491671
30
0
41
1
10
36.6000000000001
20
0.613170963520872
30
0
0
SPLINE
5
1AD
100
AcDbEntity
8
1
62
256
6
ByLayer
370
13
48
1
60
0
100
AcDbSpline
70
4
71
3
72
16
73
12
40
0
40
0
40
0
40
0
40
0.0645279252261467
40
0.0645279252261467
40
0.37635195015071
40
0.37635195015071
40
0.532263962613032
40
0.532263962613032
40
0.688175975075353
40
0.688175975075353
40
1
40
1
40
1
40
1
41
1
10
35.9967546873613
20
-0.0020185685900742
30
0
41
1
10
35.9989377902394
20
0.0029790792358995
30
0
41
1
10
36.0012014168958
20
0.0079786715344028
30
0
41
1
10
36.0148896572007
20
0.037135102299942
30
0
41
1
10
36.028165281482
20
0.0612801793518258
30
0
41
1
10
36.0515802030405
20
0.0970942590054449
30
0
41
1
10
36.0599841133338
20
0.108965804248129
30
0
41
1
10
36.0775793237879
20
0.131884225080199
30
0
41
1
10
36.0868214511266
20
0.143013765467941
30
0
41
1
10
36.11591269575
20
0.17536424958999
30
0
41
1
10
36.1371162570361
20
0.195555989359633
30
0
41
1
10
36.1603183400971
20
0.214160900884053
30
0
0
SPLINE
5
1AE
100
AcDbEntity
8
1
62
256
6
ByLayer
370
13
48
1
60
0
100
AcDbSpline
70
4
71
3
72
18
73
14
40
0
40
0
40
0
40
0
40
0.250000000000055
40
0.250000000000055
40
0.375000000000067
40
0.375000000000067
40
0.50000000000008
40
0.50000000000008
40
0.750000000000058
40
0.750000000000058
40
0.875000000000029
40
0.875000000000029
40
1
40
1
40
1
40
1
41
1
10
36.5265609899025
20
0.642588867502667
30
0
41
1
10
36.5382821002937
20
0.651414527142833
30
0
41
1
10
36.548647781989
20
0.660954109912012
30
0
41
1
10
36.562255152122
20
0.676284648599818
30
0
41
1
10
36.5664649790134
20
0.681566308041255
30
0
41
1
10
36.5742192716481
20
0.692479459456365
30
0
41
1
10
36.5777794908289
20
0.698144348131535
30
0
41
1
10
36.5872286760445
20
0.715329009967292
30
0
41
1
10
36.5919560224926
20
0.727087417240284
30
0
41
1
10
36.5967490287563
20
0.745165711122468
30
0
41
1
10
36.5979609455192
20
0.751265788907887
30
0
41
1
10
36.5995893323665
20
0.763618431805753
30
0
41
1
10
36.6000000000001
20
0.769928124215369
30
0
41
1
10
36.6
20
0.776068752329508
30
0
0
SPLINE
5
1AF
100
AcDbEntity
8
1
62
256
6
ByLayer
370
13
48
1
60
0
100
AcDbSpline
70
4
71
3
72
8
73
4
40
0
40
0
40
0
40
0
40
1
40
1
40
1
40
1
41
1
10
36.4828271009403
20
0.616609145413548
30
0
41
1
10
36.4987080849629
20
0.623934576471299
30
0
41
1
10
36.5132863727892
20
0.632593461903724
30
0
41
1
10
36.5265609899024
20
0.642588867498461
30
0
0
SPLINE
5
1B0
100
AcDbEntity
8
1
62
256
6
ByLayer
370
13
48
1
60
0
100
AcDbSpline
70
4
71
3
72
18
73
14
40
0
40
0
40
0
40
0
40
0.250000000000085
40
0.250000000000085
40
0.375000000000105
40
0.375000000000105
40
0.500000000000125
40
0.500000000000125
40
0.750000000000037
40
0.750000000000037
40
0.875000000000018
40
0.875000000000018
40
1
40
1
40
1
40
1
41
1
10
36.5265609918034
20
0.760732977687837
30
0
41
1
10
36.5382820780869
20
0.761746238877009
30
0
41
1
10
36.5486477365596
20
0.762841609150968
30
0
41
1
10
36.5622550828178
20
0.764602231492859
30
0
41
1
10
36.5664649034862
20
0.765208847788045
30
0
41
1
10
36.574219187894
20
0.766462374900073
30
0
41
1
10
36.5777794048601
20
0.767113122760037
30
0
41
1
10
36.5872285979879
20
0.769087383265315
30
0
41
1
10
36.5919559639604
20
0.770438495931558
30
0
41
1
10
36.5967489992767
20
0.772516223938851
30
0
41
1
10
36.5979609256648
20
0.773217371001266
30
0
41
1
10
36.5995893271992
20
0.774637337997206
30
0
41
1
10
36.5999999999999
20
0.775362736781346
30
0
41
1
10
36.6
20
0.776068752330644
30
0
0
SPLINE
5
1B1
100
AcDbEntity
8
1
62
256
6
ByLayer
370
13
48
1
60
0
100
AcDbSpline
70
4
71
3
72
8
73
4
40
0
40
0
40
0
40
0
40
1
40
1
40
1
40
1
41
1
10
36.42345273389
20
-1.10843347795719
30
0
41
1
10
36.457355782731
20
-1.11041661124361
30
0
41
1
10
36.4911486021038
20
-1.11113485213158
30
0
41
1
10
36.524811636244
20
-1.11036379658208
30
0
0
SPLINE
5
1B2
100
AcDbEntity
8
1
62
256
6
ByLayer
370
13
48
1
60
0
100
AcDbSpline
70
4
71
3
72
8
73
4
40
0
40
0
40
0
40
0
40
1
40
1
40
1
40
1
41
1
10
36.4234527338901
20
0.758433477956913
30
0
41
1
10
36.457355782731
20
0.760416611243329
30
0
41
1
10
36.4911486021038
20
0.761134852131335
30
0
41
1
10
36.524811636244
20
0.7603637965818
30
0
0
SPLINE
5
1B3
100
AcDbEntity
8
1
62
256
6
ByLayer
370
13
48
1
60
0
100
AcDbSpline
70
4
71
3
72
8
73
4
40
0
40
0
40
0
40
0
40
1
40
1
40
1
40
1
41
1
10
36.5248116362444
20
0.760363796581771
30
0
41
1
10
36.5254045382241
20
0.760350216095816
30
0
41
1
10
36.5259891695837
20
0.760452146088113
30
0
41
1
10
36.5265609917674
20
0.76073297691255
30
0
0
SPLINE
5
1B4
100
AcDbEntity
8
1
62
256
6
ByLayer
370
13
48
1
60
0
100
AcDbSpline
70
4
71
3
72
14
73
10
40
0
40
0
40
0
40
0
40
0.466621290078635
40
0.466621290078635
40
0.699931935117957
40
0.699931935117957
40
0.933242580157279
40
0.933242580157279
40
1
40
1
40
1
40
1
41
1
10
36.12244224374
20
0.251378666863701
30
0
41
1
10
36.0997885493874
20
0.236442941393932
30
0
41
1
10
36.0787709966415
20
0.219853761040099
30
0
41
1
10
36.0496239358355
20
0.192691309366467
30
0
41
1
10
36.040305898338
20
0.183256199320937
30
0
41
1
10
36.0224656515579
20
0.163646558762679
30
0
41
1
10
36.0139090795445
20
0.153426229479521
30
0
41
1
10
36.0035291595248
20
0.139960196375796
30
0
41
1
10
36.0012625203984
20
0.136948393709616
30
0
41
1
10
35.999037801864
20
0.133921474442502
30
0
0
SPLINE
5
1B5
100
AcDbEntity
8
1
62
256
6
ByLayer
370
18
48
1
60
0
100
AcDbSpline
70
4
71
3
72
20
73
16
40
0
40
0
40
0
40
0
40
0.227926233345138
40
0.227926233345138
40
0.341889350017707
40
0.341889350017707
40
0.455852466690277
40
0.455852466690277
40
0.683778700035415
40
0.683778700035415
40
0.797741816707984
40
0.797741816707984
40
0.911704933380553
40
0.911704933380553
40
1
40
1
40
1
40
1
41
1
10
36.4366329535885
20
0.946919401054402
30
0
41
1
10
36.401770150856
20
0.946913418834612
30
0
41
1
10
36.3687746266563
20
0.947148734102683
30
0
41
1
10
36.3220576845283
20
0.94786047773033
30
0
41
1
10
36.3069489376179
20
0.948157629676501
30
0
41
1
10
36.2776646197136
20
0.948872522436744
30
0
41
1
10
36.2634896181698
20
0.949290518032512
30
0
41
1
10
36.2226004635396
20
0.95071868014594
30
0
41
1
10
36.1974352559309
20
0.951904349019657
30
0
41
1
10
36.1628278024189
20
0.954033083639104
30
0
41
1
10
36.1518023246403
20
0.954802325651798
30
0
41
1
10
36.1308931627249
20
0.956452248709553
30
0
41
1
10
36.1210091897456
20
0.957332593271246
30
0
41
1
10
36.104473262272
20
0.95899262778218
30
0
41
1
10
36.0975941435797
20
0.95975026924512
30
0
41
1
10
36.0910556889414
20
0.960540975455103
30
0
0
SPLINE
5
1B6
100
AcDbEntity
8
1
62
256
6
ByLayer
370
18
48
1
60
0
100
AcDbSpline
70
4
71
3
72
14
73
10
40
0
40
0
40
0
40
0
40
0.0840936135660219
40
0.0840936135660219
40
0.313070210174525
40
0.313070210174525
40
0.542046806783029
40
0.542046806783029
40
1
40
1
40
1
40
1
41
1
10
36.0928399650858
20
-1.31032720338567
30
0
41
1
10
36.0991053823333
20
-1.30958220401178
30
0
41
1
10
36.1056731464937
20
-1.30886748851236
30
0
41
1
10
36.1312448471448
20
-1.30631894468331
30
0
41
1
10
36.1521755767693
20
-1.30467810910113
30
0
41
1
10
36.1985373884061
20
-1.30184720525398
30
0
41
1
10
36.2237288598871
20
-1.30067213169181
30
0
41
1
10
36.3050456020253
20
-1.29785372983986
30
0
41
1
10
36.366908386922
20
-1.29690743679237
30
0
41
1
10
36.4366329535874
20
-1.29691940105369
30
0
0
SPLINE
5
1B7
100
AcDbEntity
8
1
62
256
6
ByLayer
370
13
48
1
60
0
100
AcDbSpline
70
4
71
3
72
30
73
26
40
0
40
0
40
0
40
0
40
0.124999999999997
40
0.124999999999997
40
0.156249999999996
40
0.156249999999996
40
0.187499999999996
40
0.187499999999996
40
0.218749999999996
40
0.218749999999996
40
0.249999999999996
40
0.249999999999996
40
0.374999999999992
40
0.374999999999992
40
0.437499999999984
40
0.437499999999984
40
0.499999999999977
40
0.499999999999977
40
0.749999999999964
40
0.749999999999964
40
0.812499999999969
40
0.812499999999969
40
0.874999999999974
40
0.874999999999974
40
1
40
1
40
1
40
1
41
1
10
35.9910751315999
20
-1.20799794738647
30
0
41
1
10
35.9907608543583
20
-1.20350357344202
30
0
41
1
10
35.992861473329
20
-1.19857205943987
30
0
41
1
10
35.9983838267137
20
-1.19181139972872
30
0
41
1
10
35.999633242788
20
-1.19042528930774
30
0
41
1
10
36.0024012869952
20
-1.18736777351833
30
0
41
1
10
36.0039213694725
20
-1.1857147194311
30
0
41
1
10
36.0072299694361
20
-1.18214888495803
30
0
41
1
10
36.0090154718657
20
-1.18020327579177
30
0
41
1
10
36.0128724253449
20
-1.17626913611065
30
0
41
1
10
36.0149495106144
20
-1.17434122388474
30
0
41
1
10
36.0260729250671
20
-1.16481406743188
30
0
41
1
10
36.0373253286517
20
-1.15753490709236
30
0
41
1
10
36.0578670529444
20
-1.1473568421078
30
0
41
1
10
36.065339108087
20
-1.14407746242531
30
0
41
1
10
36.0814826857281
20
-1.13781413472924
30
0
41
1
10
36.0901095483524
20
-1.13484640281214
30
0
41
1
10
36.1359749534377
20
-1.1208866809545
30
0
41
1
10
36.1813230734141
20
-1.11246751649969
30
0
41
1
10
36.2489656767529
20
-1.10682218550303
30
0
41
1
10
36.2630472851575
20
-1.10594077069325
30
0
41
1
10
36.2923429579952
20
-1.1047376222154
30
0
41
1
10
36.3075889070128
20
-1.10441594011584
30
0
41
1
10
36.3548487336271
20
-1.10440387118965
30
0
41
1
10
36.3882235875351
20
-1.10565553266687
30
0
41
1
10
36.42345273389
20
-1.10843347795719
30
0
0
SPLINE
5
1B8
100
AcDbEntity
8
1
62
256
6
ByLayer
370
13
48
1
60
0
100
AcDbSpline
70
4
71
3
72
30
73
26
40
0
40
0
40
0
40
0
40
0.125000000000007
40
0.125000000000007
40
0.156250000000008
40
0.156250000000008
40
0.187500000000008
40
0.187500000000008
40
0.218750000000009
40
0.218750000000009
40
0.250000000000009
40
0.250000000000009
40
0.374999999999998
40
0.374999999999998
40
0.437499999999987
40
0.437499999999987
40
0.499999999999977
40
0.499999999999977
40
0.749999999999982
40
0.749999999999982
40
0.812499999999992
40
0.812499999999992
40
0.875000000000002
40
0.875000000000002
40
1
40
1
40
1
40
1
41
1
10
35.9910751315999
20
0.857997947386195
30
0
41
1
10
35.9907608543583
20
0.85350357344177
30
0
41
1
10
35.992861473329
20
0.848572059439647
30
0
41
1
10
35.9983838267138
20
0.841811399728414
30
0
41
1
10
35.999633242788
20
0.840425289307461
30
0
41
1
10
36.0024012869951
20
0.837367773518054
30
0
41
1
10
36.0039213694725
20
0.835714719430825
30
0
41
1
10
36.0072299694362
20
0.832148884957746
30
0
41
1
10
36.0090154718658
20
0.830203275791519
30
0
41
1
10
36.0128724253449
20
0.826269136110398
30
0
41
1
10
36.0149495106144
20
0.82434122388446
30
0
41
1
10
36.0260729250671
20
0.814814067431712
30
0
41
1
10
36.0373253286517
20
0.807534907092077
30
0
41
1
10
36.0578670529444
20
0.797356842107519
30
0
41
1
10
36.065339108087
20
0.794077462425093
30
0
41
1
10
36.0814826857281
20
0.787814134728904
30
0
41
1
10
36.0901095483524
20
0.784846402811866
30
0
41
1
10
36.1359749534377
20
0.770886680954163
30
0
41
1
10
36.1813230734141
20
0.762467516499413
30
0
41
1
10
36.248965676753
20
0.756822185502756
30
0
41
1
10
36.2630472851575
20
0.755940770692973
30
0
41
1
10
36.2923429579952
20
0.754737622215089
30
0
41
1
10
36.3075889070128
20
0.754415940115592
30
0
41
1
10
36.3548487336271
20
0.754403871189339
30
0
41
1
10
36.3882235875351
20
0.755655532666623
30
0
41
1
10
36.4234527338901
20
0.758433477956913
30
0
0
SPLINE
5
1B9
100
AcDbEntity
8
1
62
256
6
ByLayer
370
13
48
1
60
0
100
AcDbSpline
70
4
71
3
72
16
73
12
40
0
40
0
40
0
40
0
40
0.249999999999963
40
0.249999999999963
40
0.499999999999926
40
0.499999999999926
40
0.624999999999911
40
0.624999999999911
40
0.749999999999896
40
0.749999999999896
40
1
40
1
40
1
40
1
41
1
10
32.7386863892462
20
-0.175000000000125
30
0
41
1
10
32.7386863892462
20
-0.196540862893272
30
0
41
1
10
32.7356286047105
20
-0.218017689325421
30
0
41
1
10
32.723693371683
20
-0.259005308459706
30
0
41
1
10
32.7148776049044
20
-0.278362688183449
30
0
41
1
10
32.6978646074645
20
-0.304688657038525
30
0
41
1
10
32.6916201603457
20
-0.312930787764401
30
0
41
1
10
32.6779930966218
20
-0.32835660858072
30
0
41
1
10
32.670590903218
20
-0.335536273475498
30
0
41
1
10
32.6473976175868
20
-0.354818837967997
30
0
41
1
10
32.6304313270133
20
-0.364982066624037
30
0
41
1
10
32.6118955871797
20
-0.372335450365171
30
0
0
SPLINE
5
1BA
100
AcDbEntity
8
1
62
256
6
ByLayer
370
13
48
1
60
0
100
AcDbSpline
70
4
71
3
72
16
73
12
40
0
40
0
40
0
40
0
40
0.24999999999997
40
0.24999999999997
40
0.49999999999994
40
0.49999999999994
40
0.624999999999929
40
0.624999999999929
40
0.749999999999918
40
0.749999999999918
40
1
40
1
40
1
40
1
41
1
10
32.7386863892462
20
-0.175000000000125
30
0
41
1
10
32.7386863892462
20
-0.15345913710695
30
0
41
1
10
32.7356286047104
20
-0.131982310674829
30
0
41
1
10
32.723693371683
20
-0.0909946915405158
30
0
41
1
10
32.7148776049044
20
-0.0716373118167724
30
0
41
1
10
32.6978646074645
20
-0.0453113429616963
30
0
41
1
10
32.6916201603457
20
-0.0370692122358207
30
0
41
1
10
32.6779930966218
20
-0.0216433914195306
30
0
41
1
10
32.670590903218
20
-0.0144637265247525
30
0
41
1
10
32.6473976175868
20
0.004818837967747
30
0
41
1
10
32.6304313270133
20
0.0149820666237872
30
0
41
1
10
32.6118955871797
20
0.0223354503649205
30
0
0
SPLINE
5
1BB
100
AcDbEntity
8
1
62
256
6
ByLayer
370
13
48
1
60
0
100
AcDbSpline
70
4
71
3
72
10
73
6
40
0
40
0
40
0
40
0
40
0.5
40
0.5
40
1
40
1
40
1
40
1
41
1
10
32.1936057281593
20
-1.05043792813544
30
0
41
1
10
32.1936057281593
20
-1.04198998996571
30
0
41
1
10
32.1943531778301
20
-1.03353991343207
30
0
41
1
10
32.1972940507592
20
-1.01701253858803
30
0
41
1
10
32.1994794737165
20
-1.00891460261047
30
0
41
1
10
32.2023886791914
20
-1.00098433134602
30
0
0
SPLINE
5
1BC
100
AcDbEntity
8
1
62
256
6
ByLayer
370
13
48
1
60
0
100
AcDbSpline
70
4
71
3
72
10
73
6
40
0
40
0
40
0
40
0
40
0.5
40
0.5
40
1
40
1
40
1
40
1
41
1
10
32.1936057281594
20
0.700437928135187
30
0
41
1
10
32.1936057281594
20
0.691989989965464
30
0
41
1
10
32.1943531778301
20
0.683539913431815
30
0
41
1
10
32.1972940507592
20
0.667012538587812
30
0
41
1
10
32.1994794737165
20
0.658914602610224
30
0
41
1
10
32.2023886791914
20
0.650984331345768
30
0
0
SPLINE
5
1BD
100
AcDbEntity
8
1
62
256
6
ByLayer
370
13
48
1
60
0
100
AcDbSpline
70
4
71
3
72
10
73
6
40
0
40
0
40
0
40
0
40
0.5
40
0.5
40
1
40
1
40
1
40
1
41
1
10
32.2023886791914
20
-1.00098433134602
30
0
41
1
10
32.2062867832233
20
-0.99220943826694
30
0
41
1
10
32.2100918475272
20
-0.983338989049514
30
0
41
1
10
32.2175188025309
20
-0.965409962783411
30
0
41
1
10
32.2211442585635
20
-0.95639023477446
30
0
41
1
10
32.2245472874697
20
-0.947233138569572
30
0
0
SPLINE
5
1BE
100
AcDbEntity
8
1
62
256
6
ByLayer
370
13
48
1
60
0
100
AcDbSpline
70
4
71
3
72
10
73
6
40
0
40
0
40
0
40
0
40
0.5
40
0.5
40
1
40
1
40
1
40
1
41
1
10
32.2023886791914
20
0.650984331345768
30
0
41
1
10
32.2062867832233
20
0.64220943826669
30
0
41
1
10
32.2100918475273
20
0.633338989049264
30
0
41
1
10
32.217518802531
20
0.61540996278319
30
0
41
1
10
32.2211442585635
20
0.60639023477421
30
0
41
1
10
32.2245472874697
20
0.597233138569322
30
0
0
SPLINE
5
1BF
100
AcDbEntity
8
1
62
256
6
ByLayer
370
13
48
1
60
0
100
AcDbSpline
70
4
71
3
72
10
73
6
40
0
40
0
40
0
40
0
40
0.5
40
0.5
40
1
40
1
40
1
40
1
41
1
10
32.2663944165522
20
-0.962784683155689
30
0
41
1
10
32.2622610092576
20
-0.973905404863388
30
0
41
1
10
32.2580675993722
20
-0.984998112307323
30
0
41
1
10
32.2496278472073
20
-1.00709116622551
30
0
41
1
10
32.245383169863
20
-1.01808168760985
30
0
41
1
10
32.2412570016974
20
-1.02907567968762
30
0
0
SPLINE
5
1C0
100
AcDbEntity
8
1
62
256
6
ByLayer
370
13
48
1
60
0
100
AcDbSpline
70
4
71
3
72
10
73
6
40
0
40
0
40
0
40
0
40
0.5
40
0.5
40
1
40
1
40
1
40
1
41
1
10
32.2412570016974
20
-1.02907567968768
30
0
41
1
10
32.2399835204853
20
-1.03246881389705
30
0
41
1
10
32.239054218265
20
-1.03595661204048
30
0
41
1
10
32.237846250469
20
-1.04310835386056
30
0
41
1
10
32.2375762445387
20
-1.04681136436446
30
0
41
1
10
32.2375749902379
20
-1.05043792813538
30
0
0
SPLINE
5
1C1
100
AcDbEntity
8
1
62
256
6
ByLayer
370
13
48
1
60
0
100
AcDbSpline
70
4
71
3
72
10
73
6
40
0
40
0
40
0
40
0
40
0.5
40
0.5
40
1
40
1
40
1
40
1
41
1
10
32.2412570016974
20
0.679075679687429
30
0
41
1
10
32.2399835204854
20
0.682468813896804
30
0
41
1
10
32.239054218265
20
0.685956612040258
30
0
41
1
10
32.237846250469
20
0.69310835386031
30
0
41
1
10
32.237575298335
20
0.696811364009534
30
0
41
1
10
32.237574990238
20
0.700437928135131
30
0
0
SPLINE
5
1C2
100
AcDbEntity
8
1
62
256
6
ByLayer
370
13
48
1
60
0
100
AcDbSpline
70
4
71
3
72
10
73
6
40
0
40
0
40
0
40
0
40
0.5
40
0.5
40
1
40
1
40
1
40
1
41
1
10
32.2663944165522
20
0.612784683155439
30
0
41
1
10
32.2622611987994
20
0.623905475208232
30
0
41
1
10
32.2580675993722
20
0.634998112307102
30
0
41
1
10
32.2496278472073
20
0.657091166225257
30
0
41
1
10
32.245383169863
20
0.6680816876096
30
0
41
1
10
32.2412570016974
20
0.679075679687372
30
0
0
SPLINE
5
1C3
100
AcDbEntity
8
1
62
256
6
ByLayer
370
13
48
1
60
0
100
AcDbSpline
70
4
71
3
72
8
73
4
40
0
40
0
40
0
40
0
40
1
40
1
40
1
40
1
41
1
10
32.5211244686532
20
-0.418608267740694
30
0
41
1
10
32.5540195616407
20
-0.407426909250176
30
0
41
1
10
32.5854144828137
20
-0.398016634976642
30
0
41
1
10
32.6147110365266
20
-0.39032509103717
30
0
0
SPLINE
5
1C4
100
AcDbEntity
8
1
62
256
6
ByLayer
370
13
48
1
60
0
100
AcDbSpline
70
4
71
3
72
8
73
4
40
0
40
0
40
0
40
0
40
1
40
1
40
1
40
1
41
1
10
32.5211244686532
20
0.0686082677404727
30
0
41
1
10
32.5540195616407
20
0.0574269092499264
30
0
41
1
10
32.5854144828137
20
0.0480166349764204
30
0
41
1
10
32.6147110365266
20
0.0403250910369195
30
0
0
SPLINE
5
1C5
100
AcDbEntity
8
1
62
256
6
ByLayer
370
18
48
1
60
0
100
AcDbSpline
70
4
71
3
72
8
73
4
40
0
40
0
40
0
40
0
40
1
40
1
40
1
40
1
41
1
10
36.0828652489969
20
0.77966093866101
30
0
41
1
10
36.0823649687275
20
0.772459491316312
30
0
41
1
10
36.0812789636877
20
0.765354980997131
30
0
41
1
10
36.0795900955991
20
0.75835035942643
30
0
0
SPLINE
5
1C6
100
AcDbEntity
8
1
62
256
6
ByLayer
370
13
48
1
60
0
100
AcDbSpline
70
4
71
3
72
12
73
8
40
0
40
0
40
0
40
0
40
0.500000000000058
40
0.500000000000058
40
0.750000000000029
40
0.750000000000029
40
1
40
1
40
1
40
1
41
1
10
32.6147110365314
20
-0.390325091034839
30
0
41
1
10
32.6340306859223
20
-0.386308633817066
30
0
41
1
10
32.6508083894982
20
-0.380150270457875
30
0
41
1
10
32.6732923606676
20
-0.368323864895132
30
0
41
1
10
32.6803416105645
20
-0.36392688601228
30
0
41
1
10
32.6935983600046
20
-0.354126707339958
30
0
41
1
10
32.6997791618382
20
-0.348768382735301
30
0
41
1
10
32.7056694980337
20
-0.342587691700231
30
0
0
SPLINE
5
1C7
100
AcDbEntity
8
1
62
256
6
ByLayer
370
13
48
1
60
0
100
AcDbSpline
70
4
71
3
72
8
73
4
40
0
40
0
40
0
40
0
40
1
40
1
40
1
40
1
41
1
10
32.6118191529043
20
-0.375755651798414
30
0
41
1
10
32.6129094713436
20
-0.38041951622813
30
0
41
1
10
32.6138766579327
20
-0.385271080013581
30
0
41
1
10
32.6147110365353
20
-0.390325091033929
30
0
0
SPLINE
5
1C8
100
AcDbEntity
8
1
62
256
6
ByLayer
370
13
48
1
60
0
100
AcDbSpline
70
4
71
3
72
8
73
4
40
0
40
0
40
0
40
0
40
1
40
1
40
1
40
1
41
1
10
32.3166774610528
20
-1.05043792813538
30
0
41
1
10
32.3166774610528
20
-1.02966980358673
30
0
41
1
10
32.3211264515332
20
-1.00519200098972
30
0
41
1
10
32.32833214342
20
-0.985802446669481
30
0
0
SPLINE
5
1C9
100
AcDbEntity
8
1
62
256
6
ByLayer
370
18
48
1
60
0
100
AcDbSpline
70
4
71
3
72
12
73
8
40
0
40
0
40
0
40
0
40
0.250000000000021
40
0.250000000000021
40
0.500000000000043
40
0.500000000000043
40
1
40
1
40
1
40
1
41
1
10
32.7425454454563
20
-0.0789525157625803
30
0
41
1
10
32.7410212492249
20
-0.0699877754136935
30
0
41
1
10
32.7389067929003
20
-0.0610936289339179
30
0
41
1
10
32.7335560000637
20
-0.0436695314534177
30
0
41
1
10
32.7303267494026
20
-0.0351479049718648
30
0
41
1
10
32.7189871361541
20
-0.0101965862274369
30
0
41
1
10
32.7092294458407
20
0.0056585173594783
30
0
41
1
10
32.6970777778976
20
0.0203915301511586
30
0
0
SPLINE
5
1CA
100
AcDbEntity
8
1
62
256
6
ByLayer
370
13
48
1
60
0
100
AcDbSpline
70
4
71
3
72
14
73
10
40
0
40
0
40
0
40
0
40
0.25
40
0.25
40
0.5
40
0.5
40
0.75
40
0.75
40
1
40
1
40
1
40
1
41
1
10
32.6970777778975
20
0.0203915301507891
30
0
41
1
10
32.6897106417035
20
0.0303213225295735
30
0
41
1
10
32.6819139252704
20
0.0394909095787739
30
0
41
1
10
32.6652393739045
20
0.0567695285303671
30
0
41
1
10
32.6563877640339
20
0.0648338113728641
30
0
41
1
10
32.6377037836031
20
0.0797451761833088
30
0
41
1
10
32.6278488873941
20
0.0866157126895075
30
0
41
1
10
32.6069532510752
20
0.099104425601638
30
0
41
1
10
32.5959153896263
20
0.104724211266102
30
0
41
1
10
32.5841532001857
20
0.109588827440717
30
0
0
SPLINE
5
1CB
100
AcDbEntity
8
1
62
256
6
ByLayer
370
13
48
1
60
0
100
AcDbSpline
70
4
71
3
72
8
73
4
40
0
40
0
40
0
40
0
40
1
40
1
40
1
40
1
41
1
10
32.5841532001857
20
0.109588827440717
30
0
41
1
10
32.5610964620881
20
0.119124652523197
30
0
41
1
10
32.5366938884884
20
0.13031098218238
30
0
41
1
10
32.5114646334616
20
0.143017379081783
30
0
0
SPLINE
5
1CC
100
AcDbEntity
8
1
62
256
6
ByLayer
370
13
48
1
60
0
100
AcDbSpline
70
4
71
3
72
12
73
8
40
0
40
0
40
0
40
0
40
0.499999999999968
40
0.499999999999968
40
0.749999999999984
40
0.749999999999984
40
1
40
1
40
1
40
1
41
1
10
32.7056694980334
20
-0.342587691700601
30
0
41
1
10
32.7158329905057
20
-0.331923205884579
30
0
41
1
10
32.7238858835493
20
-0.320498391054088
30
0
41
1
10
32.7330785368654
20
-0.302535288015832
30
0
41
1
10
32.7356580213848
20
-0.296405912754381
30
0
41
1
10
32.7398463628
20
-0.283881462130836
30
0
41
1
10
32.7414555849575
20
-0.277457627623193
30
0
41
1
10
32.7425454454565
20
-0.271047484236419
30
0
0
SPLINE
5
1CD
100
AcDbEntity
8
1
62
256
6
ByLayer
370
18
48
1
60
0
100
AcDbSpline
70
4
71
3
72
12
73
8
40
0
40
0
40
0
40
0
40
0.249999999999987
40
0.249999999999987
40
0.499999999999975
40
0.499999999999975
40
1
40
1
40
1
40
1
41
1
10
32.7425454454563
20
-0.27104748423767
30
0
41
1
10
32.7410212492248
20
-0.280012224586528
30
0
41
1
10
32.7389067929003
20
-0.288906371066361
30
0
41
1
10
32.7335560000637
20
-0.306330468546918
30
0
41
1
10
32.7303267494026
20
-0.314852095028641
30
0
41
1
10
32.7189871361542
20
-0.339803413772216
30
0
41
1
10
32.7092296598192
20
-0.355657876368156
30
0
41
1
10
32.6970777778976
20
-0.370391530151409
30
0
0
SPLINE
5
1CE
100
AcDbEntity
8
1
62
256
6
ByLayer
370
13
48
1
60
0
100
AcDbSpline
70
4
71
3
72
8
73
4
40
0
40
0
40
0
40
0
40
1
40
1
40
1
40
1
41
1
10
32.3166774610528
20
0.700437928135131
30
0
41
1
10
32.3166774610528
20
0.679669803586506
30
0
41
1
10
32.3211264515332
20
0.655192000989501
30
0
41
1
10
32.3283321434201
20
0.635802446669231
30
0
0
SPLINE
5
1CF
100
AcDbEntity
8
1
62
256
6
ByLayer
370
13
48
1
60
0
100
AcDbSpline
70
4
71
3
72
14
73
10
40
0
40
0
40
0
40
0
40
0.25
40
0.25
40
0.5
40
0.5
40
0.75
40
0.75
40
1
40
1
40
1
40
1
41
1
10
32.6970777778975
20
-0.370391530151039
30
0
41
1
10
32.6897106417035
20
-0.380321322529824
30
0
41
1
10
32.6819139252704
20
-0.389490909579052
30
0
41
1
10
32.6652393739045
20
-0.406769528530674
30
0
41
1
10
32.6563877640339
20
-0.414833811373171
30
0
41
1
10
32.6377037836031
20
-0.429745176183502
30
0
41
1
10
32.627848887394
20
-0.436615712689729
30
0
41
1
10
32.6069532510752
20
-0.449104425601831
30
0
41
1
10
32.5959153896263
20
-0.454724211266352
30
0
41
1
10
32.5841532001857
20
-0.459588827440967
30
0
0
SPLINE
5
1D0
100
AcDbEntity
8
1
62
256
6
ByLayer
370
13
48
1
60
0
100
AcDbSpline
70
4
71
3
72
8
73
4
40
0
40
0
40
0
40
0
40
1
40
1
40
1
40
1
41
1
10
32.5841532001857
20
-0.459588827440967
30
0
41
1
10
32.5610964620881
20
-0.469124652523448
30
0
41
1
10
32.5366938884884
20
-0.48031098218263
30
0
41
1
10
32.5114646334616
20
-0.493017379082033
30
0
0
SPLINE
5
1D1
100
AcDbEntity
8
1
62
256
6
ByLayer
370
13
48
1
60
0
100
AcDbSpline
70
4
71
3
72
12
73
8
40
0
40
0
40
0
40
0
40
0.499999999999917
40
0.499999999999917
40
0.749999999999959
40
0.749999999999959
40
1
40
1
40
1
40
1
41
1
10
32.6147110365314
20
0.0403250910345889
30
0
41
1
10
32.6340306859223
20
0.0363086338172991
30
0
41
1
10
32.6508083894981
20
0.0301502704577388
30
0
41
1
10
32.6732923606676
20
0.0183238648950237
30
0
41
1
10
32.6803416105645
20
0.0139268860119444
30
0
41
1
10
32.6935983600046
20
0.0041267073396511
30
0
41
1
10
32.6997791618382
20
-0.0012316172648923
30
0
41
1
10
32.7056694980337
20
-0.0074123082999904
30
0
0
SPLINE
5
1D2
100
AcDbEntity
8
1
62
256
6
ByLayer
370
13
48
1
60
0
100
AcDbSpline
70
4
71
3
72
8
73
4
40
0
40
0
40
0
40
0
40
1
40
1
40
1
40
1
41
1
10
32.6118191529043
20
0.0257556517981641
30
0
41
1
10
32.6129094713436
20
0.0304195162278802
30
0
41
1
10
32.6138766579327
20
0.0352710800133309
30
0
41
1
10
32.6147110365354
20
0.0403250910336794
30
0
0
SPLINE
5
1D3
100
AcDbEntity
8
1
62
256
6
ByLayer
370
13
48
1
60
0
100
AcDbSpline
70
4
71
3
72
12
73
8
40
0
40
0
40
0
40
0
40
0.499999999999938
40
0.499999999999938
40
0.749999999999969
40
0.749999999999969
40
1
40
1
40
1
40
1
41
1
10
32.7056694980334
20
-0.0074123082996493
30
0
41
1
10
32.7158329905056
20
-0.0180767941156716
30
0
41
1
10
32.7238858835493
20
-0.0295016089461058
30
0
41
1
10
32.7330785368653
20
-0.047464711984361
30
0
41
1
10
32.7356580213848
20
-0.0535940872459264
30
0
41
1
10
32.7398463628001
20
-0.0661185378695563
30
0
41
1
10
32.7414555849569
20
-0.0725423723771712
30
0
41
1
10
32.7425454454565
20
-0.0789525157638025
30
0
0
SPLINE
5
1D4
100
AcDbEntity
8
1
62
256
6
ByLayer
370
18
48
1
60
0
100
AcDbSpline
70
4
71
3
72
17
73
13
40
0
40
0
40
0
40
0
40
0.250000000000034
40
0.250000000000034
40
0.375000000000026
40
0.375000000000026
40
0.500000000000017
40
0.625000000000009
40
0.625000000000009
40
0.750000000000001
40
0.750000000000001
40
1
40
1
40
1
40
1
41
1
10
32.3902842588026
20
-1.17500000000013
30
0
41
1
10
32.4035908790809
20
-1.17500000000013
30
0
41
1
10
32.4151848137621
20
-1.17390345686283
30
0
41
1
10
32.4301017952745
20
-1.16982939764063
30
0
41
1
10
32.4346882765222
20
-1.16804525908896
30
0
41
1
10
32.4428371898283
20
-1.16360328023322
30
0
41
1
10
32.4499810463289
20
-1.15830406657622
30
0
41
1
10
32.4552797603367
20
-1.1511610889566
30
0
41
1
10
32.459721432922
20
-1.1430136160723
30
0
41
1
10
32.4615060618591
20
-1.13842675960169
30
0
41
1
10
32.4655809377757
20
-1.12350826409065
30
0
41
1
10
32.4666774610527
20
-1.11191352123595
30
0
41
1
10
32.4666774610527
20
-1.09860679775008
30
0
0
SPLINE
5
1D5
100
AcDbEntity
8
1
62
256
6
ByLayer
370
18
48
1
60
0
100
AcDbSpline
70
4
71
3
72
14
73
10
40
0
40
0
40
0
40
0
40
0.25
40
0.25
40
0.5
40
0.5
40
0.75
40
0.75
40
1
40
1
40
1
40
1
41
1
10
32.4666774610528
20
-1.05043792813538
30
0
41
1
10
32.4666774610528
20
-1.04940305191627
30
0
41
1
10
32.4666674934181
20
-1.04836348600017
30
0
41
1
10
32.4666603609435
20
-1.04627494243309
30
0
41
1
10
32.4666420630579
20
-1.04522280134626
30
0
41
1
10
32.4670139554713
20
-1.04313808256418
30
0
41
1
10
32.4674067137476
20
-1.04212418003195
30
0
41
1
10
32.4681678194583
20
-1.04009467741267
30
0
41
1
10
32.4685566246411
20
-1.03907801270245
30
0
41
1
10
32.4689368020003
20
-1.03805500621348
30
0
0
SPLINE
5
1D6
100
AcDbEntity
8
1
62
256
6
ByLayer
370
18
48
1
60
0
100
AcDbSpline
70
4
71
3
72
17
73
13
40
0
40
0
40
0
40
0
40
0.249999999999991
40
0.249999999999991
40
0.374999999999986
40
0.374999999999986
40
0.499999999999982
40
0.624999999999977
40
0.624999999999977
40
0.749999999999972
40
0.749999999999972
40
1
40
1
40
1
40
1
41
1
10
32.4666774610527
20
0.748606797749858
30
0
41
1
10
32.4666774610527
20
0.761913418028115
30
0
41
1
10
32.4655809179154
20
0.773507352709316
30
0
41
1
10
32.4615068586932
20
0.78842433422173
30
0
41
1
10
32.4597227201415
20
0.793010815469387
30
0
41
1
10
32.4552807412858
20
0.801159728775502
30
0
41
1
10
32.4499815276288
20
0.808303585276121
30
0
41
1
10
32.4428385500092
20
0.813602299283957
30
0
41
1
10
32.4346910771249
20
0.818043971869201
30
0
41
1
10
32.4301042206542
20
0.819828600806289
30
0
41
1
10
32.4151857251431
20
0.823903476722904
30
0
41
1
10
32.4035909822885
20
0.824999999999875
30
0
41
1
10
32.3902842588026
20
0.824999999999875
30
0
0
SPLINE
5
1D7
100
AcDbEntity
8
1
62
256
6
ByLayer
370
18
48
1
60
0
100
AcDbSpline
70
4
71
3
72
14
73
10
40
0
40
0
40
0
40
0
40
0.25
40
0.25
40
0.5
40
0.5
40
0.75
40
0.75
40
1
40
1
40
1
40
1
41
1
10
32.4689368019211
20
0.688055006489776
30
0
41
1
10
32.468556914173
20
0.689077233673856
30
0
41
1
10
32.4681684172489
20
0.690093138864995
30
0
41
1
10
32.4674078590785
20
0.692121070641008
30
0
41
1
10
32.467015993287
20
0.693131606446769
30
0
41
1
10
32.4666424056652
20
0.695215965000557
30
0
41
1
10
32.4666603684618
20
0.696271668484513
30
0
41
1
10
32.466667469261
20
0.698361874944538
30
0
41
1
10
32.4666774610528
20
0.699402247197725
30
0
41
1
10
32.4666774610528
20
0.700437928135131
30
0
0
SPLINE
5
1D8
100
AcDbEntity
8
1
62
256
6
ByLayer
370
18
48
1
60
0
100
AcDbSpline
70
4
71
3
72
8
73
4
40
0
40
0
40
0
40
0
40
1
40
1
40
1
40
1
41
1
10
32.7146342487254
20
0.0269159977752054
30
0
41
1
10
32.7238878637654
20
0.0020157558144547
30
0
41
1
10
32.7316236923503
20
-0.0250796604547645
30
0
41
1
10
32.7375514326413
20
-0.052877285680978
30
0
0
SPLINE
5
1D9
100
AcDbEntity
8
1
62
256
6
ByLayer
370
18
48
1
60
0
100
AcDbSpline
70
4
71
3
72
8
73
4
40
0
40
0
40
0
40
0
40
1
40
1
40
1
40
1
41
1
10
32.7375514326413
20
-0.052877285680978
30
0
41
1
10
32.7462448455434
20
-0.0936442933304988
30
0
41
1
10
32.7510494019851
20
-0.135921619833397
30
0
41
1
10
32.7510494019851
20
-0.175000000000154
30
0
0
SPLINE
5
1DA
100
AcDbEntity
8
1
62
256
6
ByLayer
370
18
48
1
60
0
100
AcDbSpline
70
4
71
3
72
8
73
4
40
0
40
0
40
0
40
0
40
1
40
1
40
1
40
1
41
1
10
32.7375514326413
20
-0.297122714319272
30
0
41
1
10
32.7462448455434
20
-0.256355706669751
30
0
41
1
10
32.7510494019851
20
-0.214078380166853
30
0
41
1
10
32.7510494019851
20
-0.175000000000097
30
0
0
SPLINE
5
1DB
100
AcDbEntity
8
1
62
256
6
ByLayer
370
18
48
1
60
0
100
AcDbSpline
70
4
71
3
72
8
73
4
40
0
40
0
40
0
40
0
40
1
40
1
40
1
40
1
41
1
10
32.7146342487254
20
-0.376915997775455
30
0
41
1
10
32.7238878637654
20
-0.352015755814705
30
0
41
1
10
32.7316236923503
20
-0.324920339545486
30
0
41
1
10
32.7375514326413
20
-0.297122714319272
30
0
0
SPLINE
5
1DC
100
AcDbEntity
8
1
62
256
6
ByLayer
370
13
48
1
60
0
100
AcDbSpline
70
4
71
3
72
28
73
24
40
0
40
0
40
0
40
0
40
0.124999999999964
40
0.124999999999964
40
0.187499999999962
40
0.187499999999962
40
0.249999999999961
40
0.249999999999961
40
0.374999999999957
40
0.374999999999957
40
0.437499999999965
40
0.437499999999965
40
0.499999999999972
40
0.499999999999972
40
0.624999999999971
40
0.624999999999971
40
0.74999999999997
40
0.74999999999997
40
0.812499999999969
40
0.812499999999969
40
0.874999999999967
40
0.874999999999967
40
1
40
1
40
1
40
1
41
1
10
32.8950032846261
20
-1.17500000000013
30
0
41
1
10
32.9114548307884
20
-1.17500000000013
30
0
41
1
10
32.9261264138082
20
-1.17394687292466
30
0
41
1
10
32.9460088136568
20
-1.16994794948366
30
0
41
1
10
32.9522864724316
20
-1.16821254309195
30
0
41
1
10
32.9642672939878
20
-1.16380857872434
30
0
41
1
10
32.9699917661609
20
-1.16112240881071
30
0
41
1
10
32.9861675723934
20
-1.15170982606438
30
0
41
1
10
32.9957532351836
20
-1.14360807934745
30
0
41
1
10
33.0092929266676
20
-1.12858642131067
30
0
41
1
10
33.0136834492944
20
-1.12307065957225
30
0
41
1
10
33.0221919437115
20
-1.11121959137566
30
0
41
1
10
33.0263072087532
20
-1.10489622019068
30
0
41
1
10
33.0384298225555
20
-1.08478344634878
30
0
41
1
10
33.0462147399919
20
-1.06985695913406
30
0
41
1
10
33.0620697662506
20
-1.03709482825312
30
0
41
1
10
33.0699360505567
20
-1.01967575654396
30
0
41
1
10
33.0821879016868
20
-0.992463677951662
30
0
41
1
10
33.0863512162124
20
-0.983202239318047
30
0
41
1
10
33.0949510128367
20
-0.964343976544825
30
0
41
1
10
33.0994047271409
20
-0.954711470956909
30
0
41
1
10
33.1131484543412
20
-0.925863758519739
30
0
41
1
10
33.1228558895903
20
-0.906580386421354
30
0
41
1
10
33.1336749692819
20
-0.88756141136534
30
0
0
SPLINE
5
1DD
100
AcDbEntity
8
1
62
256
6
ByLayer
370
13
48
1
60
0
100
AcDbSpline
70
4
71
3
72
28
73
24
40
0
40
0
40
0
40
0
40
0.125000000000068
40
0.125000000000068
40
0.187500000000087
40
0.187500000000087
40
0.250000000000107
40
0.250000000000107
40
0.375000000000123
40
0.375000000000123
40
0.437500000000122
40
0.437500000000122
40
0.500000000000121
40
0.500000000000121
40
0.625000000000119
40
0.625000000000119
40
0.687500000000118
40
0.687500000000118
40
0.750000000000117
40
0.750000000000117
40
0.875000000000059
40
0.875000000000059
40
1
40
1
40
1
40
1
41
1
10
33.1336749692819
20
0.537561411365118
30
0
41
1
10
33.1228536518514
20
0.556584320166309
30
0
41
1
10
33.113191172916
20
0.575783865851434
30
0
41
1
10
33.09956125611
20
0.604378129670664
30
0
41
1
10
33.0951658605518
20
0.613877342758627
30
0
41
1
10
33.0865569206881
20
0.632746869534117
30
0
41
1
10
33.0823281054859
20
0.642152045843659
30
0
41
1
10
33.0699916751647
20
0.66955266407291
30
0
41
1
10
33.0621623232182
20
0.686887446460304
30
0
41
1
10
33.0503785461154
20
0.711260865378705
30
0
41
1
10
33.0464379834418
20
0.719126333489641
30
0
41
1
10
33.0384640874563
20
0.734206575767899
30
0
41
1
10
33.0344771633703
20
0.741334091528842
30
0
41
1
10
33.0223478075733
20
0.761479599103808
30
0
41
1
10
33.0140489538988
20
0.773266039089748
30
0
41
1
10
33.0004882523169
20
0.788375873051393
30
0
41
1
10
32.9957685574522
20
0.792984429426923
30
0
41
1
10
32.9859993376735
20
0.80115361114116
30
0
41
1
10
32.9809269449649
20
0.804742884397456
30
0
41
1
10
32.9649195221907
20
0.814105819810322
30
0
41
1
10
32.9532003919441
20
0.818466789559466
30
0
41
1
10
32.9262697333185
20
0.823951874312002
30
0
41
1
10
32.9114576571635
20
0.824999999999875
30
0
41
1
10
32.8950032846261
20
0.824999999999875
30
0
0
SPLINE
5
1DE
100
AcDbEntity
8
1
62
256
6
ByLayer
370
13
48
1
60
0
100
AcDbSpline
70
4
71
3
72
14
73
10
40
0
40
0
40
0
40
0
40
0.499999999999986
40
0.499999999999986
40
0.624999999999982
40
0.624999999999982
40
0.749999999999978
40
0.749999999999978
40
1
40
1
40
1
40
1
41
1
10
36.4783309857904
20
0.457118428719696
30
0
41
1
10
36.4788597706858
20
0.484315520404124
30
0
41
1
10
36.4794119207607
20
0.511222342138439
30
0
41
1
10
36.4801478832754
20
0.544397903185228
30
0
41
1
10
36.480283659556
20
0.551004245939367
30
0
41
1
10
36.4805196402574
20
0.564155065003405
30
0
41
1
10
36.4805820355078
20
0.570683966173675
30
0
41
1
10
36.481129241516
20
0.59035319827106
30
0
41
1
10
36.4820246316289
20
0.603584231254644
30
0
41
1
10
36.4828271009414
20
0.61660914541369
30
0
0
SPLINE
5
1DF
100
AcDbEntity
8
1
62
256
6
ByLayer
370
13
48
1
60
0
100
AcDbSpline
70
4
71
3
72
8
73
4
40
0
40
0
40
0
40
0
40
1
40
1
40
1
40
1
41
1
10
36.4828271009405
20
0.616609145413577
30
0
41
1
10
36.4501005578893
20
0.615619983279231
30
0
41
1
10
36.4173073602117
20
0.613247415820126
30
0
41
1
10
36.3844651718877
20
0.609736500623313
30
0
0
SPLINE
5
1E0
100
AcDbEntity
8
1
62
256
6
ByLayer
370
13
48
1
60
0
100
AcDbSpline
70
4
71
3
72
15
73
11
40
0
40
0
40
0
40
0
40
0.288153224067371
40
0.288153224067371
40
0.43222983610105
40
0.43222983610105
40
0.576306448134728
40
0.576306448134728
40
0.864459672202085
40
1
40
1
40
1
40
1
41
1
10
36.3844651718877
20
0.609736500623313
30
0
41
1
10
36.3456783657086
20
0.60559009034435
30
0
41
1
10
36.3088093447724
20
0.602970636828815
30
0
41
1
10
36.2564341031879
20
0.600958376894596
30
0
41
1
10
36.2394931666543
20
0.600611076221043
30
0
41
1
10
36.206905563933
20
0.600501519897762
30
0
41
1
10
36.1912178697238
20
0.600737519461347
30
0
41
1
10
36.145937787514
20
0.602224132896737
30
0
41
1
10
36.1050425495127
20
0.605203447166787
30
0
41
1
10
36.0692005489748
20
0.610061299175044
30
0
41
1
10
36.0582560271888
20
0.611795791190588
30
0
0
SPLINE
5
1E1
100
AcDbEntity
8
1
62
256
6
ByLayer
370
13
48
1
60
0
100
AcDbSpline
70
4
71
3
72
8
73
4
40
0
40
0
40
0
40
0
40
1
40
1
40
1
40
1
41
1
10
36.0144974855241
20
0.29861848607041
30
0
41
1
10
36.0471688924572
20
0.282313297651257
30
0
41
1
10
36.0831416848404
20
0.266577883732481
30
0
41
1
10
36.1224422437367
20
0.251378666862252
30
0
0
SPLINE
5
1E2
100
AcDbEntity
8
1
62
256
6
ByLayer
370
13
48
1
60
0
100
AcDbSpline
70
4
71
3
72
15
73
11
40
0
40
0
40
0
40
0
40
0.125000000000004
40
0.125000000000004
40
0.250000000000008
40
0.500000000000005
40
0.500000000000005
40
0.750000000000003
40
0.750000000000003
40
1
40
1
40
1
40
1
41
1
10
36.331732512757
20
0.376198855898252
30
0
41
1
10
36.3226356844202
20
0.372558102058434
30
0
41
1
10
36.3135936156068
20
0.368616563262975
30
0
41
1
10
36.2956093636888
20
0.360256384171066
30
0
41
1
10
36.2687334105765
20
0.347240004696374
30
0
41
1
10
36.242155896188
20
0.33273297607704
30
0
41
1
10
36.2069906423996
20
0.3119081764155
30
0
41
1
10
36.1894600012971
20
0.300692149091986
30
0
41
1
10
36.1553141754497
20
0.277012994190017
30
0
41
1
10
36.1386580157812
20
0.26453415064006
30
0
41
1
10
36.1224422437401
20
0.251378666863474
30
0
0
SPLINE
5
1E3
100
AcDbEntity
8
1
62
256
6
ByLayer
370
13
48
1
60
0
100
AcDbSpline
70
4
71
3
72
14
73
10
40
0
40
0
40
0
40
0
40
0.499999999999888
40
0.499999999999888
40
0.749999999999821
40
0.749999999999821
40
0.87499999999991
40
0.87499999999991
40
1
40
1
40
1
40
1
41
1
10
36.4706953140105
20
0.431022467521387
30
0
41
1
10
36.4476567009818
20
0.42190810690883
30
0
41
1
10
36.4245617618357
20
0.412785040418299
30
0
41
1
10
36.3898242321072
20
0.399053870157928
30
0
41
1
10
36.3782290308524
20
0.394458430301967
30
0
41
1
10
36.3608134042436
20
0.387599081492624
30
0
41
1
10
36.3550043280521
20
0.385320783398981
30
0
41
1
10
36.3433769161853
20
0.380779949794146
30
0
41
1
10
36.3375585745056
20
0.378530575910645
30
0
41
1
10
36.331732512757
20
0.376198855898252
30
0
0
SPLINE
5
1E4
100
AcDbEntity
8
1
62
256
6
ByLayer
370
13
48
1
60
0
100
AcDbSpline
70
4
71
3
72
10
73
6
40
0
40
0
40
0
40
0
40
0.5
40
0.5
40
1
40
1
40
1
40
1
41
1
10
36.4783309857904
20
0.457118428719696
30
0
41
1
10
36.4782526650182
20
0.453090141902265
30
0
41
1
10
36.4777142027474
20
0.448920849136641
30
0
41
1
10
36.4753472718962
20
0.440197832756013
30
0
41
1
10
36.4734894797329
20
0.435590550673965
30
0
41
1
10
36.4706953141007
20
0.43102246751991
30
0
0
SPLINE
5
1E5
100
AcDbEntity
8
1
62
256
6
ByLayer
370
13
48
1
60
0
100
AcDbSpline
70
4
71
3
72
15
73
11
40
0
40
0
40
0
40
0
40
0.257665558972828
40
0.257665558972828
40
0.386498338459242
40
0.386498338459242
40
0.515331117945656
40
0.515331117945656
40
0.772996676918445
40
1
40
1
40
1
40
1
41
1
10
36.3844651718876
20
-0.959736500623592
30
0
41
1
10
36.3456783657085
20
-0.9555900903446
30
0
41
1
10
36.3088093447723
20
-0.952970636829122
30
0
41
1
10
36.2564341031879
20
-0.950958376894874
30
0
41
1
10
36.2394931666542
20
-0.950611076221293
30
0
41
1
10
36.206905563933
20
-0.950501519898012
30
0
41
1
10
36.1912178697237
20
-0.950737519461569
30
0
41
1
10
36.1459377875138
20
-0.95222413289693
30
0
41
1
10
36.0936219558907
20
-0.956035464272588
30
0
41
1
10
36.0495758383376
20
-0.962921056471544
30
0
41
1
10
36.0307881871067
20
-0.966742991805091
30
0
0
SPLINE
5
1E6
100
AcDbEntity
8
1
62
256
6
ByLayer
370
13
48
1
60
0
100
AcDbSpline
70
4
71
3
72
8
73
4
40
0
40
0
40
0
40
0
40
1
40
1
40
1
40
1
41
1
10
36.4828271009405
20
-0.966609145413827
30
0
41
1
10
36.4501005578893
20
-0.965619983279481
30
0
41
1
10
36.4173073602117
20
-0.963247415820405
30
0
41
1
10
36.3844651718876
20
-0.959736500623592
30
0
0
SPLINE
5
1E7
100
AcDbEntity
8
1
62
256
6
ByLayer
370
13
48
1
60
0
100
AcDbSpline
70
4
71
3
72
14
73
10
40
0
40
0
40
0
40
0
40
0.499999999999985
40
0.499999999999985
40
0.624999999999998
40
0.624999999999998
40
0.750000000000011
40
0.750000000000011
40
1
40
1
40
1
40
1
41
1
10
36.4783309857904
20
-0.807118428719974
30
0
41
1
10
36.4788597706857
20
-0.834315520404374
30
0
41
1
10
36.4794119207604
20
-0.861222342138632
30
0
41
1
10
36.4801478832753
20
-0.894397903185478
30
0
41
1
10
36.4802836595558
20
-0.901004245939617
30
0
41
1
10
36.4805196402571
20
-0.91415506500357
30
0
41
1
10
36.4805820355084
20
-0.920683966174039
30
0
41
1
10
36.4811292415172
20
-0.940353198271708
30
0
41
1
10
36.4820246316289
20
-0.953584231254922
30
0
41
1
10
36.4828271009414
20
-0.966609145413969
30
0
0
SPLINE
5
1E8
100
AcDbEntity
8
1
62
256
6
ByLayer
370
18
48
1
60
0
100
AcDbSpline
70
4
71
3
72
8
73
4
40
0
40
0
40
0
40
0
40
1
40
1
40
1
40
1
41
1
10
36.0063781902779
20
-0.771883222597239
30
0
41
1
10
36.00728125204
20
-0.781239540920126
30
0
41
1
10
36.0085259558874
20
-0.790479149285773
30
0
41
1
10
36.010090865946
20
-0.799578831222675
30
0
0
SPLINE
5
1E9
100
AcDbEntity
8
1
62
256
6
ByLayer
370
18
48
1
60
0
100
AcDbSpline
70
4
71
3
72
8
73
4
40
0
40
0
40
0
40
0
40
1
40
1
40
1
40
1
41
1
10
36.0063781902779
20
0.421883222596961
30
0
41
1
10
36.0072812520401
20
0.431239540919847
30
0
41
1
10
36.0085259558874
20
0.440479149285494
30
0
41
1
10
36.010090865946
20
0.449578831222425
30
0
0
SPLINE
5
1EA
100
AcDbEntity
8
1
62
256
6
ByLayer
370
18
48
1
60
0
100
AcDbSpline
70
4
71
3
72
13
73
9
40
0
40
0
40
0
40
0
40
0.500000000000015
40
0.500000000000015
40
0.625000000000008
40
0.625000000000008
40
0.750000000000001
40
1
40
1
40
1
40
1
41
1
10
36.0003651930968
20
-0.613205770125973
30
0
41
1
10
36.0003651930968
20
-0.641524601051117
30
0
41
1
10
36.0009283125793
20
-0.669015283976108
30
0
41
1
10
36.0022373474008
20
-0.702488699095852
30
0
41
1
10
36.0025306058187
20
-0.709153526064995
30
0
41
1
10
36.0031683420825
20
-0.722234488241639
30
0
41
1
10
36.004203562814
20
-0.741536753048621
30
0
41
1
10
36.0054570014332
20
-0.759953063961405
30
0
41
1
10
36.0063781902777
20
-0.771883222597779
30
0
0
SPLINE
5
1EB
100
AcDbEntity
8
1
62
256
6
ByLayer
370
18
48
1
60
0
100
AcDbSpline
70
4
71
3
72
13
73
9
40
0
40
0
40
0
40
0
40
0.500000000000031
40
0.500000000000031
40
0.625000000000027
40
0.625000000000027
40
0.750000000000023
40
1
40
1
40
1
40
1
41
1
10
36.0003651930968
20
0.263205770125722
30
0
41
1
10
36.0003651930968
20
0.291524601050867
30
0
41
1
10
36.0009283125793
20
0.31901528397583
30
0
41
1
10
36.0022373474008
20
0.352488699095602
30
0
41
1
10
36.0025306058186
20
0.359153526064745
30
0
41
1
10
36.0031683420824
20
0.372234488241389
30
0
41
1
10
36.004203562814
20
0.391536753048428
30
0
41
1
10
36.0054570014332
20
0.409953063961154
30
0
41
1
10
36.0063781902777
20
0.421883222597501
30
0
0
SPLINE
5
1EC
100
AcDbEntity
8
1
62
256
6
ByLayer
370
18
48
1
60
0
100
AcDbSpline
70
4
71
3
72
8
73
4
40
0
40
0
40
0
40
0
40
1
40
1
40
1
40
1
41
1
10
32.9120841901698
20
0.826070619706485
30
0
41
1
10
32.9227911981473
20
0.826439325688369
30
0
41
1
10
32.9329247608399
20
0.82640093392763
30
0
41
1
10
32.9425391310204
20
0.82580028318236
30
0
0
SPLINE
5
1ED
100
AcDbEntity
8
1
62
256
6
ByLayer
370
13
48
1
60
0
100
AcDbSpline
70
4
71
3
72
31
73
27
40
0
40
0
40
0
40
0
40
0.0489934166843551
40
0.0489934166843551
40
0.184851500015167
40
0.184851500015167
40
0.252780541680551
40
0.252780541680551
40
0.320709583345935
40
0.320709583345935
40
0.456567666676722
40
0.456567666676722
40
0.524496708342116
40
0.524496708342116
40
0.59242575000751
40
0.59242575000751
40
0.728283833338329
40
0.728283833338329
40
0.796212875003739
40
0.796212875003739
40
0.864141916669148
40
0.932070958334558
40
0.932070958334558
40
0.966035479167279
40
0.966035479167279
40
1
40
1
40
1
40
1
41
1
10
32.9425391192422
20
0.825800283918198
30
0
41
1
10
32.9479618151555
20
0.825461505231004
30
0
41
1
10
32.9532193463722
20
0.824943861637308
30
0
41
1
10
32.9724695039496
20
0.822210905199256
30
0
41
1
10
32.9851008225966
20
0.818641467298221
30
0
41
1
10
33.0024290036754
20
0.810512575453998
30
0
41
1
10
33.0079427247776
20
0.807340872586451
30
0
41
1
10
33.0185683131762
20
0.800004995468981
30
0
41
1
10
33.0237038285235
20
0.795817626333985
30
0
41
1
10
33.0385026728696
20
0.781830201281764
30
0
41
1
10
33.0474899491156
20
0.770716608961635
30
0
41
1
10
33.0603955414413
20
0.751410124710873
30
0
41
1
10
33.0645988952774
20
0.744533981119474
30
0
41
1
10
33.072915335251
20
0.72988988878123
30
0
41
1
10
33.0770149255949
20
0.722140298795637
30
0
41
1
10
33.0890872812773
20
0.698071193648673
30
0
41
1
10
33.0969132908788
20
0.680790929383647
30
0
41
1
10
33.1089852868282
20
0.653232055881432
30
0
41
1
10
33.1130871717227
20
0.643720615488519
30
0
41
1
10
33.1213933244213
20
0.624512784292108
30
0
41
1
10
33.1298104125632
20
0.605102922905928
30
0
41
1
10
33.1387169794237
20
0.585426909378413
30
0
41
1
10
33.1457008583728
20
0.570629568360431
30
0
41
1
10
33.148079727411
20
0.565690503749977
30
0
41
1
10
33.1529632284142
20
0.555810810459633
30
0
41
1
10
33.1554818151246
20
0.550844018184819
30
0
41
1
10
33.1580488379628
20
0.545935685608725
30
0
0
SPLINE
5
1EE
100
AcDbEntity
8
1
62
256
6
ByLayer
370
18
48
1
60
0
100
AcDbSpline
70
4
71
3
72
27
73
23
40
0
40
0
40
0
40
0
40
0.125000000000017
40
0.125000000000017
40
0.18750000000002
40
0.18750000000002
40
0.250000000000023
40
0.250000000000023
40
0.375000000000029
40
0.375000000000029
40
0.437500000000026
40
0.437500000000026
40
0.500000000000024
40
0.562500000000021
40
0.562500000000021
40
0.625000000000018
40
0.625000000000018
40
0.750000000000012
40
0.750000000000012
40
0.875000000000006
40
0.875000000000006
40
1
40
1
40
1
40
1
41
1
10
36.082880082492
20
1.07534085696497
30
0
41
1
10
36.0804423941234
20
1.07660875713086
30
0
41
1
10
36.0778825715154
20
1.07567944186849
30
0
41
1
10
36.0738681662546
20
1.07114310215499
30
0
41
1
10
36.0725006771383
20
1.06910290501173
30
0
41
1
10
36.0697055371635
20
1.06394019090436
30
0
41
1
10
36.0682833685953
20
1.06082167735644
30
0
41
1
10
36.0640241874198
20
1.05006701126959
30
0
41
1
10
36.0611644008906
20
1.04099403975613
30
0
41
1
10
36.0568442643754
20
1.02453371298373
30
0
41
1
10
36.0553939259904
20
1.0185404442434
30
0
41
1
10
36.0525460158429
20
1.00585129515798
30
0
41
1
10
36.0497365519058
20
0.992411631513278
30
0
41
1
10
36.0470022021292
20
0.977505652452805
30
0
41
1
10
36.0443057056577
20
0.961860733032893
30
0
41
1
10
36.0429693432505
20
0.953621584277272
30
0
41
1
10
36.0390758049905
20
0.928128474048265
30
0
41
1
10
36.0366439761537
20
0.910205436141695
30
0
41
1
10
36.032098775452
20
0.872556573975402
30
0
41
1
10
36.029970926598
20
0.852640087896248
30
0
41
1
10
36.0262045568402
20
0.812458233011796
30
0
41
1
10
36.024546305698
20
0.792068312213956
30
0
41
1
10
36.0231204036025
20
0.771369541253392
30
0
0
SPLINE
5
1EF
100
AcDbEntity
8
1
62
256
6
ByLayer
370
18
48
1
60
0
100
AcDbSpline
70
4
71
3
72
14
73
10
40
0
40
0
40
0
40
0
40
0.25
40
0.25
40
0.5
40
0.5
40
0.75
40
0.75
40
1
40
1
40
1
40
1
41
1
10
36.0100908659461
20
0.449578831222425
30
0
41
1
10
36.0124520577936
20
0.46517898402783
30
0
41
1
10
36.0148645517782
20
0.479753771569335
30
0
41
1
10
36.0197693761758
20
0.507307672372377
30
0
41
1
10
36.0222618995177
20
0.520282929603582
30
0
41
1
10
36.0273132266914
20
0.544908709546064
30
0
41
1
10
36.0298721176787
20
0.556557490296058
30
0
41
1
10
36.0350472326917
20
0.578709148147993
30
0
41
1
10
36.0376654754183
20
0.589215254272176
30
0
41
1
10
36.0402835317939
20
0.599118698163039
30
0
0
SPLINE
5
1F0
100
AcDbEntity
8
1
62
256
6
ByLayer
370
18
48
1
60
0
100
AcDbSpline
70
4
71
3
72
8
73
4
40
0
40
0
40
0
40
0
40
1
40
1
40
1
40
1
41
1
10
36.0402835317939
20
0.599118698163039
30
0
41
1
10
36.0476083440557
20
0.626826606946508
30
0
41
1
10
36.0549344599164
20
0.654214468818196
30
0
41
1
10
36.0622627307631
20
0.681073259558218
30
0
0
SPLINE
5
1F1
100
AcDbEntity
8
1
62
256
6
ByLayer
370
18
48
1
60
0
100
AcDbSpline
70
4
71
3
72
12
73
8
40
0
40
0
40
0
40
0
40
0.500000000000023
40
0.500000000000023
40
0.750000000000012
40
0.750000000000012
40
1
40
1
40
1
40
1
41
1
10
36.0622627307631
20
0.681073259558218
30
0
41
1
10
36.0651994336483
20
0.691836547365881
30
0
41
1
10
36.0681257004195
20
0.703250774685216
30
0
41
1
10
36.0724866373886
20
0.722147471295898
30
0
41
1
10
36.0739396897933
20
0.728767966159694
30
0
41
1
10
36.0768032649317
20
0.742815161769812
30
0
41
1
10
36.0782149984736
20
0.750227588023535
30
0
41
1
10
36.0795900955991
20
0.758350359426402
30
0
0
SPLINE
5
1F2
100
AcDbEntity
8
1
62
256
6
ByLayer
370
13
48
1
60
0
100
AcDbSpline
70
4
71
3
72
12
73
8
40
0
40
0
40
0
40
0
40
0.500000000000026
40
0.500000000000026
40
0.750000000000013
40
0.750000000000013
40
1
40
1
40
1
40
1
41
1
10
36.0622627307631
20
-1.0310732595585
30
0
41
1
10
36.0651994336483
20
-1.04183654736616
30
0
41
1
10
36.0681257004195
20
-1.05325077468547
30
0
41
1
10
36.0724866373886
20
-1.07214747129615
30
0
41
1
10
36.0739396897932
20
-1.07876796615994
30
0
41
1
10
36.0768032649316
20
-1.09281516177006
30
0
41
1
10
36.0782149984736
20
-1.10022758802381
30
0
41
1
10
36.0795900955991
20
-1.10835035942668
30
0
0
SPLINE
5
1F3
100
AcDbEntity
8
1
62
256
6
ByLayer
370
18
48
1
60
0
100
AcDbSpline
70
4
71
3
72
8
73
4
40
0
40
0
40
0
40
0
40
1
40
1
40
1
40
1
41
1
10
36.0402835317939
20
-0.949118698163318
30
0
41
1
10
36.0476083440557
20
-0.976826606946759
30
0
41
1
10
36.0549344599164
20
-1.00421446881848
30
0
41
1
10
36.0622627307631
20
-1.0310732595585
30
0
0
SPLINE
5
1F4
100
AcDbEntity
8
1
62
256
6
ByLayer
370
18
48
1
60
0
100
AcDbSpline
70
4
71
3
72
14
73
10
40
0
40
0
40
0
40
0
40
0.25
40
0.25
40
0.5
40
0.5
40
0.75
40
0.75
40
1
40
1
40
1
40
1
41
1
10
36.010090865946
20
-0.799578831222675
30
0
41
1
10
36.0124520577936
20
-0.81517898402808
30
0
41
1
10
36.0148645517782
20
-0.829753771569585
30
0
41
1
10
36.0197693761757
20
-0.857307672372656
30
0
41
1
10
36.0222618995177
20
-0.87028292960386
30
0
41
1
10
36.0273132266914
20
-0.894908709546343
30
0
41
1
10
36.0298721176787
20
-0.906557490296365
30
0
41
1
10
36.0350472326917
20
-0.9287091481483
30
0
41
1
10
36.0376654754183
20
-0.939215254272455
30
0
41
1
10
36.0402835317939
20
-0.949118698163318
30
0
0
SPLINE
5
1F5
100
AcDbEntity
8
1
62
256
6
ByLayer
370
18
48
1
60
0
100
AcDbSpline
70
4
71
3
72
29
73
25
40
0
40
0
40
0
40
0
40
0.12499999999998
40
0.12499999999998
40
0.18749999999997
40
0.18749999999997
40
0.24999999999996
40
0.24999999999996
40
0.374999999999941
40
0.374999999999941
40
0.437499999999942
40
0.437499999999942
40
0.499999999999943
40
0.499999999999943
40
0.624999999999961
40
0.624999999999961
40
0.687499999999967
40
0.687499999999967
40
0.749999999999974
40
0.81249999999998
40
0.81249999999998
40
0.874999999999987
40
0.874999999999987
40
1
40
1
40
1
40
1
41
1
10
36.0231204036025
20
-1.12136954125367
30
0
41
1
10
36.0245465225866
20
-1.14207146062654
30
0
41
1
10
36.0262019417302
20
-1.16241950081397
30
0
41
1
10
36.0290137973784
20
-1.19243423646233
30
0
41
1
10
36.0300063106472
20
-1.20235391483132
30
0
41
1
10
36.0321044962933
20
-1.22201863299406
30
0
41
1
10
36.0332122033353
20
-1.23177287569948
30
0
41
1
10
36.0366315651314
20
-1.26011538522224
30
0
41
1
10
36.039061382499
20
-1.27801854402145
30
0
41
1
10
36.042931797506
20
-1.30338336734434
30
0
41
1
10
36.0442674511683
20
-1.31163124852415
30
0
41
1
10
36.0469781146803
20
-1.32737326129154
30
0
41
1
10
36.048348959123
20
-1.33484966342729
30
0
41
1
10
36.0525069291701
20
-1.35612307248368
30
0
41
1
10
36.0553390027566
20
-1.36877671430537
30
0
41
1
10
36.0596815561001
20
-1.38535478244933
30
0
41
1
10
36.0611290053846
20
-1.39041327086682
30
0
41
1
10
36.0639954600528
20
-1.39951826860175
30
0
41
1
10
36.0668425726286
20
-1.40764621072236
30
0
41
1
10
36.0696511200942
20
-1.41382605659939
30
0
41
1
10
36.0724398253183
20
-1.41900358209108
30
0
41
1
10
36.0738276348787
20
-1.42108968868556
30
0
41
1
10
36.0778729486955
20
-1.42568353954007
30
0
41
1
10
36.0804420730931
20
-1.42660892410669
30
0
41
1
10
36.0828800824919
20
-1.42534085696522
30
0
0
SPLINE
5
1F6
100
AcDbEntity
8
1
62
256
6
ByLayer
370
13
48
1
60
0
100
AcDbSpline
70
4
71
1
72
4
73
2
40
0
40
0
40
1
40
1
41
1.04427759851713
10
36.0231204036025
20
-1.12136954125367
30
0
41
1.04427759851713
10
33.1580488379629
20
-0.895935685608821
30
0
0
SPLINE
5
1F7
100
AcDbEntity
8
1
62
256
6
ByLayer
370
13
48
1
60
0
100
AcDbSpline
70
4
71
3
72
32
73
28
40
0
40
0
40
0
40
0
40
0.0337609589525636
40
0.0337609589525636
40
0.0675219179051272
40
0.135043835810216
40
0.135043835810216
40
0.202565753715305
40
0.202565753715305
40
0.270087671620394
40
0.337609589525484
40
0.337609589525484
40
0.405131507430573
40
0.405131507430573
40
0.540175343240739
40
0.540175343240739
40
0.607697261145797
40
0.607697261145797
40
0.675219179050856
40
0.675219179050856
40
0.810263014860989
40
0.810263014860989
40
0.877784932766056
40
0.877784932766056
40
0.945306850671123
40
0.945306850671123
40
1
40
1
40
1
40
1
41
1
10
33.1580488379628
20
-0.895935685608976
30
0
41
1
10
33.1554867694422
20
-0.900834545174462
30
0
41
1
10
33.1529620628143
20
-0.905812964160504
30
0
41
1
10
33.1480690893763
20
-0.915712230192014
30
0
41
1
10
33.1409109064467
20
-0.930576296864729
30
0
41
1
10
33.1341883271781
20
-0.945431310410868
30
0
41
1
10
33.1254524866166
20
-0.965147835605876
30
0
41
1
10
33.1211949191324
20
-0.974970821220353
30
0
41
1
10
33.1129178114253
20
-0.994113065636128
30
0
41
1
10
33.1048393465827
20
-1.01284092484107
30
0
41
1
10
33.0969094519788
20
-1.03065141016532
30
0
41
1
10
33.0889409435308
20
-1.04795651138082
30
0
41
1
10
33.0849176482071
20
-1.05639588254942
30
0
41
1
10
33.0727770848124
20
-1.0805656331863
30
0
41
1
10
33.0646381716629
20
-1.09507590798648
30
0
41
1
10
33.0517170344726
20
-1.11438657181961
30
0
41
1
10
33.0472910222359
20
-1.12041280084759
30
0
41
1
10
33.038075710515
20
-1.13161688357147
30
0
41
1
10
33.0333260780215
20
-1.13674173128055
30
0
41
1
10
33.0186082130258
20
-1.15059504319706
30
0
41
1
10
33.008127053479
20
-1.15786876871073
30
0
41
1
10
32.9905916937701
20
-1.16605059960244
30
0
41
1
10
32.9844304460147
20
-1.16831889414064
30
0
41
1
10
32.9716358161865
20
-1.17192940197859
30
0
41
1
10
32.9649717068405
20
-1.17328838621515
30
0
41
1
10
32.9523432583371
20
-1.17505713331366
30
0
41
1
10
32.9464842975416
20
-1.17559813461344
30
0
41
1
10
32.9404010185335
20
-1.17592341158104
30
0
0
SPLINE
5
1F8
100
AcDbEntity
8
1
62
256
6
ByLayer
370
18
48
1
60
0
100
AcDbSpline
70
4
71
3
72
8
73
4
40
0
40
0
40
0
40
0
40
1
40
1
40
1
40
1
41
1
10
32.9404007327505
20
-1.17592342686191
30
0
41
1
10
32.9314637634093
20
-1.17640128206889
30
0
41
1
10
32.9220426561411
20
-1.17641354893419
30
0
41
1
10
32.9120841901698
20
-1.17607061970673
30
0
0
SPLINE
5
1F9
100
AcDbEntity
8
SK1
62
256
6
ByLayer
370
18
48
1
60
0
100
AcDbSpline
70
4
71
3
72
22
73
18
40
0
40
0
40
0
40
0
40
0.249999999999997
40
0.249999999999997
40
0.374999999999996
40
0.374999999999996
40
0.499999999999997
40
0.499999999999997
40
0.624999999999998
40
0.624999999999998
40
0.749999999999999
40
0.749999999999999
40
0.874999999999999
40
0.874999999999999
40
0.9375
40
0.9375
40
1
40
1
40
1
40
1
41
1
10
0
20
0.824994999499978
30
0
41
1
10
0
20
0.825005000499999
30
0
41
1
10
0
20
0.827552794850675
30
0
41
1
10
0
20
0.838938712526641
30
0
41
1
10
0
20
0.844005230401024
30
0
41
1
10
-2.84E-14
20
0.857516933459038
30
0
41
1
10
0
20
0.865957981824778
30
0
41
1
10
0
20
0.887297425774932
30
0
41
1
10
0
20
0.900187311200455
30
0
41
1
10
0
20
0.931927534739259
30
0
41
1
10
0
20
0.95072785929159
30
0
41
1
10
0
20
0.996357879008002
30
0
41
1
10
0
20
1.02314231188569
30
0
41
1
10
0
20
1.07211741876088
30
0
41
1
10
0
20
1.08992352459222
30
0
41
1
10
0
20
1.12931502880232
30
0
41
1
10
0
20
1.1508886709286
30
0
41
1
10
0
20
1.17499999999998
30
0
0
LINE
5
79
100
AcDbEntity
8
80
62
256
6
ByLayer
370
18
48
1
60
0
100
AcDbLine
10
0
20
0
30
0
11
-5
21
0
31
0
39
0
210
0
220
0
230
1
0
LINE
5
7A
100
AcDbEntity
8
81
62
256
6
ByLayer
370
18
48
1
60
0
100
AcDbLine
10
36
20
-0.175
30
0
11
41
21
-0.175
31
0
39
0
210
0
220
0
230
1
0
LINE
5
7B
100
AcDbEntity
8
1
62
256
6
ByLayer
370
18
48
1
60
0
100
AcDbLine
10
36.16288
20
0.086446
30
0
11
36.164233
21
0.087692
31
0
39
0
210
0
220
0
230
1
0
LINE
5
7C
100
AcDbEntity
8
1
62
256
6
ByLayer
370
18
48
1
60
0
100
AcDbLine
10
36.391348
20
0.297775
30
0
11
36.431705
21
0.319419
31
0
39
0
210
0
220
0
230
1
0
LINE
5
7D
100
AcDbEntity
8
1
62
256
6
ByLayer
370
18
48
1
60
0
100
AcDbLine
10
36.431705
20
-0.669419
30
0
11
36.391348
21
-0.647775
31
0
39
0
210
0
220
0
230
1
0
LINE
5
7E
100
AcDbEntity
8
1
62
256
6
ByLayer
370
18
48
1
60
0
100
AcDbLine
10
36.082868
20
0.77971
30
0
11
36.102744
21
1.063943
31
0
39
0
210
0
220
0
230
1
0
LINE
5
7F
100
AcDbEntity
8
1
62
256
6
ByLayer
370
18
48
1
60
0
100
AcDbLine
10
36.102744
20
-1.413943
30
0
11
36.082868
21
-1.12971
31
0
39
0
210
0
220
0
230
1
0
LINE
5
80
100
AcDbEntity
8
1
62
256
6
ByLayer
370
18
48
1
60
0
100
AcDbLine
10
36.001111
20
-0.613206
30
0
11
36.001111
21
0.263206
31
0
39
0
210
0
220
0
230
1
0
LINE
5
81
100
AcDbEntity
8
1
62
256
6
ByLayer
370
18
48
1
60
0
100
AcDbLine
10
35.985662
20
0.825
30
0
11
35.897683
21
0.825
31
0
39
0
210
0
220
0
230
1
0
LINE
5
82
100
AcDbEntity
8
1
62
256
6
ByLayer
370
18
48
1
60
0
100
AcDbLine
10
0
20
0
30
0
11
0
21
0.825
31
0
39
0
210
0
220
0
230
1
0
LINE
5
83
100
AcDbEntity
8
1
62
256
6
ByLayer
370
18
48
1
60
0
100
AcDbLine
10
0
20
-1.175
30
0
11
0
21
0
31
0
39
0
210
0
220
0
230
1
0
LINE
5
84
100
AcDbEntity
8
1
62
256
6
ByLayer
370
18
48
1
60
0
100
AcDbLine
10
0
20
0
30
0
11
16.361185
21
0
31
0
39
0
210
0
220
0
230
1
0
LINE
5
85
100
AcDbEntity
8
1
62
256
6
ByLayer
370
18
48
1
60
0
100
AcDbLine
10
34.274613
20
0.825
30
0
11
34.695964
21
0.825
31
0
39
0
210
0
220
0
230
1
0
LINE
5
86
100
AcDbEntity
8
1
62
256
6
ByLayer
370
18
48
1
60
0
100
AcDbLine
10
34.274613
20
-1.175
30
0
11
34.695964
21
-1.175
31
0
39
0
210
0
220
0
230
1
0
LINE
5
87
100
AcDbEntity
8
1
62
256
6
ByLayer
370
18
48
1
60
0
100
AcDbLine
10
34.274599
20
0.825
30
0
11
33.656324
21
0.825
31
0
39
0
210
0
220
0
230
1
0
LINE
5
88
100
AcDbEntity
8
1
62
256
6
ByLayer
370
18
48
1
60
0
100
AcDbLine
10
34.274599
20
-1.175
30
0
11
33.656324
21
-1.175
31
0
39
0
210
0
220
0
230
1
0
LINE
5
89
100
AcDbEntity
8
1
62
256
6
ByLayer
370
18
48
1
60
0
100
AcDbLine
10
33.237535
20
0.825
30
0
11
33.17
21
0.825
31
0
39
0
210
0
220
0
230
1
0
LINE
5
8A
100
AcDbEntity
8
1
62
256
6
ByLayer
370
18
48
1
60
0
100
AcDbLine
10
33.17
20
-1.175
30
0
11
33.237535
21
-1.175
31
0
39
0
210
0
220
0
230
1
0
LINE
5
8B
100
AcDbEntity
8
1
62
256
6
ByLayer
370
18
48
1
60
0
100
AcDbLine
10
35.130447
20
-1.175
30
0
11
34.695984
21
-1.175
31
0
39
0
210
0
220
0
230
1
0
LINE
5
8C
100
AcDbEntity
8
1
62
256
6
ByLayer
370
18
48
1
60
0
100
AcDbLine
10
35.14748
20
0.825
30
0
11
34.695984
21
0.825
31
0
39
0
210
0
220
0
230
1
0
LINE
5
8D
100
AcDbEntity
8
1
62
256
6
ByLayer
370
18
48
1
60
0
100
AcDbLine
10
35.985662
20
-1.175
30
0
11
35.895236
21
-1.175
31
0
39
0
210
0
220
0
230
1
0
LINE
5
8E
100
AcDbEntity
8
1
62
256
6
ByLayer
370
18
48
1
60
0
100
AcDbLine
10
41
20
0.825
30
0
11
40.074599
21
0.825
31
0
39
0
210
0
220
0
230
1
0
LINE
5
8F
100
AcDbEntity
8
1
62
256
6
ByLayer
370
18
48
1
60
0
100
AcDbLine
10
40.074599
20
-1.175
30
0
11
41
21
-1.175
31
0
39
0
210
0
220
0
230
1
0
LINE
5
90
100
AcDbEntity
8
1
62
256
6
ByLayer
370
18
48
1
60
0
100
AcDbLine
10
41
20
0.825
30
0
11
41
21
-1.175
31
0
39
0
210
0
220
0
230
1
0
LINE
5
91
100
AcDbEntity
8
1
62
256
6
ByLayer
370
18
48
1
60
0
100
AcDbLine
10
33.17
20
0.825
30
0
11
32.902502
21
0.825
31
0
39
0
210
0
220
0
230
1
0
LINE
5
92
100
AcDbEntity
8
1
62
256
6
ByLayer
370
18
48
1
60
0
100
AcDbLine
10
32.920444
20
-1.175
30
0
11
33.17
21
-1.175
31
0
39
0
210
0
220
0
230
1
0
LINE
5
93
100
AcDbEntity
8
1
62
256
6
ByLayer
370
18
48
1
60
0
100
AcDbLine
10
40.074599
20
0.825
30
0
11
38.734853
21
0.825
31
0
39
0
210
0
220
0
230
1
0
LINE
5
94
100
AcDbEntity
8
1
62
256
6
ByLayer
370
18
48
1
60
0
100
AcDbLine
10
40.074599
20
-1.175
30
0
11
38.734853
21
-1.175
31
0
39
0
210
0
220
0
230
1
0
LINE
5
95
100
AcDbEntity
8
1
62
256
6
ByLayer
370
18
48
1
60
0
100
AcDbLine
10
40.074599
20
-1.175
30
0
11
40.074599
21
0.825
31
0
39
0
210
0
220
0
230
1
0
LINE
5
96
100
AcDbEntity
8
1
62
256
6
ByLayer
370
18
48
1
60
0
100
AcDbLine
10
38.734853
20
0.825
30
0
11
36.600016
21
0.825
31
0
39
0
210
0
220
0
230
1
0
LINE
5
97
100
AcDbEntity
8
1
62
256
6
ByLayer
370
18
48
1
60
0
100
AcDbLine
10
36.600016
20
-1.175
30
0
11
38.734853
21
-1.175
31
0
39
0
210
0
220
0
230
1
0
LINE
5
98
100
AcDbEntity
8
1
62
256
6
ByLayer
370
13
48
1
60
0
100
AcDbLine
10
38.734853
20
-1.175
30
0
11
38.734853
21
0.825
31
0
39
0
210
0
220
0
230
1
0
LINE
5
99
100
AcDbEntity
8
1
62
256
6
ByLayer
370
18
48
1
60
0
100
AcDbLine
10
36.353534
20
0.276826
30
0
11
36.353534
21
0.089306
31
0
39
0
210
0
220
0
230
1
0
LINE
5
9A
100
AcDbEntity
8
1
62
256
6
ByLayer
370
18
48
1
60
0
100
AcDbLine
10
36.353534
20
-0.439306
30
0
11
36.353534
21
-0.626826
31
0
39
0
210
0
220
0
230
1
0
LINE
5
9B
100
AcDbEntity
8
1
62
256
6
ByLayer
370
18
48
1
60
0
100
AcDbLine
10
29.759816
20
0.825
30
0
11
32.121777
21
0.825
31
0
39
0
210
0
220
0
230
1
0
LINE
5
9C
100
AcDbEntity
8
1
62
256
6
ByLayer
370
18
48
1
60
0
100
AcDbLine
10
32.121777
20
-1.175
30
0
11
29.759816
21
-1.175
31
0
39
0
210
0
220
0
230
1
0
LINE
5
9D
100
AcDbEntity
8
1
62
256
6
ByLayer
370
18
48
1
60
0
100
AcDbLine
10
32.663891
20
-0.126176
30
0
11
32.663891
21
-0.223824
31
0
39
0
210
0
220
0
230
1
0
LINE
5
9E
100
AcDbEntity
8
1
62
256
6
ByLayer
370
18
48
1
60
0
100
AcDbLine
10
32.400498
20
-0.425
30
0
11
32.564062
21
-0.362901
31
0
39
0
210
0
220
0
230
1
0
LINE
5
9F
100
AcDbEntity
8
1
62
256
6
ByLayer
370
18
48
1
60
0
100
AcDbLine
10
32.121777
20
-1.175
30
0
11
32.400498
21
-0.425
31
0
39
0
210
0
220
0
230
1
0
LINE
5
A0
100
AcDbEntity
8
1
62
256
6
ByLayer
370
18
48
1
60
0
100
AcDbLine
10
32.400498
20
0.075
30
0
11
32.564062
21
0.012901
31
0
39
0
210
0
220
0
230
1
0
LINE
5
A1
100
AcDbEntity
8
1
62
256
6
ByLayer
370
18
48
1
60
0
100
AcDbLine
10
32.121777
20
0.825
30
0
11
32.400498
21
0.075
31
0
39
0
210
0
220
0
230
1
0
LINE
5
A2
100
AcDbEntity
8
1
62
256
6
ByLayer
370
18
48
1
60
0
100
AcDbLine
10
29.759816
20
-1.175
30
0
11
27.014135
21
-1.175
31
0
39
0
210
0
220
0
230
1
0
LINE
5
A3
100
AcDbEntity
8
1
62
256
6
ByLayer
370
13
48
1
60
0
100
AcDbLine
10
29.759816
20
-0.35841
30
0
11
29.759816
21
-1.175
31
0
39
0
210
0
220
0
230
1
0
LINE
5
A4
100
AcDbEntity
8
1
62
256
6
ByLayer
370
18
48
1
60
0
100
AcDbLine
10
29.759816
20
0.825
30
0
11
27.014135
21
0.825
31
0
39
0
210
0
220
0
230
1
0
LINE
5
A5
100
AcDbEntity
8
1
62
256
6
ByLayer
370
13
48
1
60
0
100
AcDbLine
10
29.759816
20
0.825
30
0
11
29.759816
21
0.00841
31
0
39
0
210
0
220
0
230
1
0
LINE
5
A6
100
AcDbEntity
8
1
62
256
6
ByLayer
370
18
48
1
60
0
100
AcDbLine
10
6.761737
20
1.175
30
0
11
0
21
1.175
31
0
39
0
210
0
220
0
230
1
0
LINE
5
A7
100
AcDbEntity
8
1
62
256
6
ByLayer
370
18
48
1
60
0
100
AcDbLine
10
16.853576
20
-1.175
30
0
11
0
21
-1.175
31
0
39
0
210
0
220
0
230
1
0
LINE
5
A8
100
AcDbEntity
8
1
62
256
6
ByLayer
370
18
48
1
60
0
100
AcDbLine
10
16.705055
20
0.825
30
0
11
27.014135
21
0.825
31
0
39
0
210
0
220
0
230
1
0
LINE
5
A9
100
AcDbEntity
8
1
62
256
6
ByLayer
370
18
48
1
60
0
100
AcDbLine
10
27.014135
20
-1.175
30
0
11
16.853576
21
-1.175
31
0
39
0
210
0
220
0
230
1
0
LINE
5
AA
100
AcDbEntity
8
1
62
256
6
ByLayer
370
13
48
1
60
0
100
AcDbLine
10
27.014135
20
-0.487356
30
0
11
27.014135
21
-1.175
31
0
39
0
210
0
220
0
230
1
0
LINE
5
AB
100
AcDbEntity
8
1
62
256
6
ByLayer
370
13
48
1
60
0
100
AcDbLine
10
27.014135
20
0.825
30
0
11
27.014135
21
0.137356
31
0
39
0
210
0
220
0
230
1
0
LINE
5
AC
100
AcDbEntity
8
1
62
256
6
ByLayer
370
18
48
1
60
0
100
AcDbLine
10
16.705055
20
0.825
30
0
11
0
21
0.825
31
0
39
0
210
0
220
0
230
1
0
LINE
5
AD
100
AcDbEntity
8
1
62
256
6
ByLayer
370
18
48
1
60
0
100
AcDbLine
10
35.147467
20
0.825
30
0
11
35.897678
21
0.825
31
0
39
0
210
0
220
0
230
1
0
LINE
5
AE
100
AcDbEntity
8
1
62
256
6
ByLayer
370
18
48
1
60
0
100
AcDbLine
10
35.895227
20
-1.175
30
0
11
35.130445
21
-1.175
31
0
39
0
210
0
220
0
230
1
0
LINE
5
AF
100
AcDbEntity
8
1
62
256
6
ByLayer
370
13
48
1
60
0
100
AcDbLine
10
36.294754
20
-0.638592
30
0
11
36.371186
21
-0.638592
31
0
39
0
210
0
220
0
230
1
0
LINE
5
B0
100
AcDbEntity
8
1
62
256
6
ByLayer
370
13
48
1
60
0
100
AcDbLine
10
36.526561
20
-1.110733
30
0
11
36.526561
21
-1.296935
31
0
39
0
210
0
220
0
230
1
0
LINE
5
B1
100
AcDbEntity
8
1
62
256
6
ByLayer
370
18
48
1
60
0
100
AcDbLine
10
36.07959
20
-1.10835
30
0
11
36.079287
21
-1.099309
31
0
39
0
210
0
220
0
230
1
0
LINE
5
B2
100
AcDbEntity
8
1
62
256
6
ByLayer
370
13
48
1
60
0
100
AcDbLine
10
36.411544
20
-0.660236
30
0
11
36.411544
21
-0.682868
31
0
39
0
210
0
220
0
230
1
0
LINE
5
B3
100
AcDbEntity
8
1
62
256
6
ByLayer
370
13
48
1
60
0
100
AcDbLine
10
36.371186
20
-0.638592
30
0
11
36.411544
21
-0.660236
31
0
39
0
210
0
220
0
230
1
0
LINE
5
B4
100
AcDbEntity
8
1
62
256
6
ByLayer
370
13
48
1
60
0
100
AcDbLine
10
36.411544
20
0.332868
30
0
11
36.411544
21
0.310236
31
0
39
0
210
0
220
0
230
1
0
LINE
5
B5
100
AcDbEntity
8
1
62
256
6
ByLayer
370
13
48
1
60
0
100
AcDbLine
10
36.411544
20
0.310236
30
0
11
36.371186
21
0.288592
31
0
39
0
210
0
220
0
230
1
0
LINE
5
B6
100
AcDbEntity
8
1
62
256
6
ByLayer
370
13
48
1
60
0
100
AcDbLine
10
36.294754
20
0.288592
30
0
11
36.371186
21
0.288592
31
0
39
0
210
0
220
0
230
1
0
LINE
5
B7
100
AcDbEntity
8
1
62
256
6
ByLayer
370
18
48
1
60
0
100
AcDbLine
10
36.6
20
0.93964
30
0
11
36.6
21
0.776069
31
0
39
0
210
0
220
0
230
1
0
LINE
5
B8
100
AcDbEntity
8
1
62
256
6
ByLayer
370
18
48
1
60
0
100
AcDbLine
10
36.6
20
-1.28964
30
0
11
36.6
21
-1.126069
31
0
39
0
210
0
220
0
230
1
0
LINE
5
B9
100
AcDbEntity
8
1
62
256
6
ByLayer
370
18
48
1
60
0
100
AcDbLine
10
36.436633
20
-1.296919
30
0
11
36.526561
21
-1.296935
31
0
39
0
210
0
220
0
230
1
0
LINE
5
BA
100
AcDbEntity
8
1
62
256
6
ByLayer
370
18
48
1
60
0
100
AcDbLine
10
36.526561
20
0.946935
30
0
11
36.436633
21
0.946919
31
0
39
0
210
0
220
0
230
1
0
LINE
5
BB
100
AcDbEntity
8
1
62
256
6
ByLayer
370
13
48
1
60
0
100
AcDbLine
10
36.526561
20
0.760733
30
0
11
36.526561
21
0.946935
31
0
39
0
210
0
220
0
230
1
0
LINE
5
BC
100
AcDbEntity
8
1
62
256
6
ByLayer
370
13
48
1
60
0
100
AcDbLine
10
36.423453
20
0.758433
30
0
11
36.436633
21
0.946919
31
0
39
0
210
0
220
0
230
1
0
LINE
5
BD
100
AcDbEntity
8
1
62
256
6
ByLayer
370
13
48
1
60
0
100
AcDbLine
10
36.423453
20
-1.108433
30
0
11
36.436633
21
-1.296919
31
0
39
0
210
0
220
0
230
1
0
LINE
5
BE
100
AcDbEntity
8
1
62
256
6
ByLayer
370
18
48
1
60
0
100
AcDbLine
10
32.751049
20
-0.175
30
0
11
32.738686
21
-0.175
31
0
39
0
210
0
220
0
230
1
0
LINE
5
BF
100
AcDbEntity
8
1
62
256
6
ByLayer
370
13
48
1
60
0
100
AcDbLine
10
32.539182
20
0.022335
30
0
11
32.611896
21
0.022335
31
0
39
0
210
0
220
0
230
1
0
LINE
5
C0
100
AcDbEntity
8
1
62
256
6
ByLayer
370
13
48
1
60
0
100
AcDbLine
10
32.539182
20
-0.372335
30
0
11
32.611896
21
-0.372335
31
0
39
0
210
0
220
0
230
1
0
LINE
5
C1
100
AcDbEntity
8
1
62
256
6
ByLayer
370
18
48
1
60
0
100
AcDbLine
10
32.193606
20
-1.175
30
0
11
32.121763
21
-1.175
31
0
39
0
210
0
220
0
230
1
0
LINE
5
C2
100
AcDbEntity
8
1
62
256
6
ByLayer
370
18
48
1
60
0
100
AcDbLine
10
32.121763
20
0.825
30
0
11
32.193606
21
0.825
31
0
39
0
210
0
220
0
230
1
0
LINE
5
C3
100
AcDbEntity
8
1
62
256
6
ByLayer
370
13
48
1
60
0
100
AcDbLine
10
32.193606
20
0.700438
30
0
11
32.168058
21
0.700438
31
0
39
0
210
0
220
0
230
1
0
LINE
5
C4
100
AcDbEntity
8
1
62
256
6
ByLayer
370
13
48
1
60
0
100
AcDbLine
10
32.193606
20
-1.050438
30
0
11
32.168058
21
-1.050438
31
0
39
0
210
0
220
0
230
1
0
LINE
5
C5
100
AcDbEntity
8
1
62
256
6
ByLayer
370
13
48
1
60
0
100
AcDbLine
10
32.202389
20
0.650984
30
0
11
32.18644
21
0.650984
31
0
39
0
210
0
220
0
230
1
0
LINE
5
C6
100
AcDbEntity
8
1
62
256
6
ByLayer
370
13
48
1
60
0
100
AcDbLine
10
32.202389
20
-1.000984
30
0
11
32.18644
21
-1.000984
31
0
39
0
210
0
220
0
230
1
0
LINE
5
C7
100
AcDbEntity
8
1
62
256
6
ByLayer
370
13
48
1
60
0
100
AcDbLine
10
32.355475
20
0.196148
30
0
11
32.373602
21
0.196148
31
0
39
0
210
0
220
0
230
1
0
LINE
5
C8
100
AcDbEntity
8
1
62
256
6
ByLayer
370
13
48
1
60
0
100
AcDbLine
10
32.355475
20
-0.546148
30
0
11
32.373602
21
-0.546148
31
0
39
0
210
0
220
0
230
1
0
LINE
5
C9
100
AcDbEntity
8
1
62
256
6
ByLayer
370
18
48
1
60
0
100
AcDbLine
10
32.237575
20
0.825
30
0
11
32.193606
21
0.825
31
0
39
0
210
0
220
0
230
1
0
LINE
5
CA
100
AcDbEntity
8
1
62
256
6
ByLayer
370
13
48
1
60
0
100
AcDbLine
10
32.193606
20
0.825
30
0
11
32.193606
21
0.700438
31
0
39
0
210
0
220
0
230
1
0
LINE
5
CB
100
AcDbEntity
8
1
62
256
6
ByLayer
370
18
48
1
60
0
100
AcDbLine
10
32.193606
20
-1.175
30
0
11
32.237575
21
-1.175
31
0
39
0
210
0
220
0
230
1
0
LINE
5
CC
100
AcDbEntity
8
1
62
256
6
ByLayer
370
13
48
1
60
0
100
AcDbLine
10
32.193606
20
-1.175
30
0
11
32.193606
21
-1.050438
31
0
39
0
210
0
220
0
230
1
0
LINE
5
CD
100
AcDbEntity
8
1
62
256
6
ByLayer
370
13
48
1
60
0
100
AcDbLine
10
32.193606
20
-1.050438
30
0
11
32.237575
21
-1.050438
31
0
39
0
210
0
220
0
230
1
0
LINE
5
CE
100
AcDbEntity
8
1
62
256
6
ByLayer
370
13
48
1
60
0
100
AcDbLine
10
32.193606
20
0.700438
30
0
11
32.237575
21
0.700438
31
0
39
0
210
0
220
0
230
1
0
LINE
5
CF
100
AcDbEntity
8
1
62
256
6
ByLayer
370
13
48
1
60
0
100
AcDbLine
10
32.224547
20
-0.947233
30
0
11
32.373602
21
-0.546148
31
0
39
0
210
0
220
0
230
1
0
LINE
5
D0
100
AcDbEntity
8
1
62
256
6
ByLayer
370
13
48
1
60
0
100
AcDbLine
10
32.224547
20
0.597233
30
0
11
32.373602
21
0.196148
31
0
39
0
210
0
220
0
230
1
0
LINE
5
D1
100
AcDbEntity
8
1
62
256
6
ByLayer
370
13
48
1
60
0
100
AcDbLine
10
32.224547
20
-0.947233
30
0
11
32.266394
21
-0.962785
31
0
39
0
210
0
220
0
230
1
0
LINE
5
D2
100
AcDbEntity
8
1
62
256
6
ByLayer
370
13
48
1
60
0
100
AcDbLine
10
32.224547
20
0.597233
30
0
11
32.266394
21
0.612785
31
0
39
0
210
0
220
0
230
1
0
LINE
5
D3
100
AcDbEntity
8
1
62
256
6
ByLayer
370
13
48
1
60
0
100
AcDbLine
10
32.530165
20
0.025756
30
0
11
32.611819
21
0.025756
31
0
39
0
210
0
220
0
230
1
0
LINE
5
D4
100
AcDbEntity
8
1
62
256
6
ByLayer
370
13
48
1
60
0
100
AcDbLine
10
32.398797
20
0.079524
30
0
11
32.489617
21
0.079524
31
0
39
0
210
0
220
0
230
1
0
LINE
5
D5
100
AcDbEntity
8
1
62
256
6
ByLayer
370
13
48
1
60
0
100
AcDbLine
10
32.530165
20
-0.375756
30
0
11
32.611819
21
-0.375756
31
0
39
0
210
0
220
0
230
1
0
LINE
5
D6
100
AcDbEntity
8
1
62
256
6
ByLayer
370
13
48
1
60
0
100
AcDbLine
10
32.398797
20
-0.429524
30
0
11
32.489617
21
-0.429524
31
0
39
0
210
0
220
0
230
1
0
LINE
5
D7
100
AcDbEntity
8
1
62
256
6
ByLayer
370
13
48
1
60
0
100
AcDbLine
10
32.373602
20
-0.546148
30
0
11
32.415449
21
-0.561699
31
0
39
0
210
0
220
0
230
1
0
LINE
5
D8
100
AcDbEntity
8
1
62
256
6
ByLayer
370
13
48
1
60
0
100
AcDbLine
10
32.373602
20
0.196148
30
0
11
32.415449
21
0.211699
31
0
39
0
210
0
220
0
230
1
0
LINE
5
D9
100
AcDbEntity
8
1
62
256
6
ByLayer
370
18
48
1
60
0
100
AcDbLine
10
32.316677
20
-1.175
30
0
11
32.237575
21
-1.175
31
0
39
0
210
0
220
0
230
1
0
LINE
5
DA
100
AcDbEntity
8
1
62
256
6
ByLayer
370
13
48
1
60
0
100
AcDbLine
10
32.237575
20
-1.050438
30
0
11
32.237575
21
-1.175
31
0
39
0
210
0
220
0
230
1
0
LINE
5
DB
100
AcDbEntity
8
1
62
256
6
ByLayer
370
13
48
1
60
0
100
AcDbLine
10
32.415449
20
-0.561699
30
0
11
32.266394
21
-0.962785
31
0
39
0
210
0
220
0
230
1
0
LINE
5
DC
100
AcDbEntity
8
1
62
256
6
ByLayer
370
13
48
1
60
0
100
AcDbLine
10
32.415449
20
0.211699
30
0
11
32.266394
21
0.612785
31
0
39
0
210
0
220
0
230
1
0
LINE
5
DD
100
AcDbEntity
8
1
62
256
6
ByLayer
370
13
48
1
60
0
100
AcDbLine
10
32.266394
20
-0.962785
30
0
11
32.328332
21
-0.985802
31
0
39
0
210
0
220
0
230
1
0
LINE
5
DE
100
AcDbEntity
8
1
62
256
6
ByLayer
370
13
48
1
60
0
100
AcDbLine
10
32.316677
20
-1.050438
30
0
11
32.237575
21
-1.050438
31
0
39
0
210
0
220
0
230
1
0
LINE
5
DF
100
AcDbEntity
8
1
62
256
6
ByLayer
370
13
48
1
60
0
100
AcDbLine
10
32.266394
20
0.612785
30
0
11
32.328332
21
0.635802
31
0
39
0
210
0
220
0
230
1
0
LINE
5
E0
100
AcDbEntity
8
1
62
256
6
ByLayer
370
18
48
1
60
0
100
AcDbLine
10
32.237575
20
0.825
30
0
11
32.316677
21
0.825
31
0
39
0
210
0
220
0
230
1
0
LINE
5
E1
100
AcDbEntity
8
1
62
256
6
ByLayer
370
13
48
1
60
0
100
AcDbLine
10
32.237575
20
0.700438
30
0
11
32.237575
21
0.825
31
0
39
0
210
0
220
0
230
1
0
LINE
5
E2
100
AcDbEntity
8
1
62
256
6
ByLayer
370
13
48
1
60
0
100
AcDbLine
10
32.316677
20
0.700438
30
0
11
32.237575
21
0.700438
31
0
39
0
210
0
220
0
230
1
0
LINE
5
E3
100
AcDbEntity
8
1
62
256
6
ByLayer
370
13
48
1
60
0
100
AcDbLine
10
32.697078
20
0.020392
30
0
11
32.714634
21
0.026916
31
0
39
0
210
0
220
0
230
1
0
LINE
5
E4
100
AcDbEntity
8
1
62
256
6
ByLayer
370
13
48
1
60
0
100
AcDbLine
10
32.328332
20
0.635802
30
0
11
32.511465
21
0.143017
31
0
39
0
210
0
220
0
230
1
0
LINE
5
E5
100
AcDbEntity
8
1
62
256
6
ByLayer
370
13
48
1
60
0
100
AcDbLine
10
32.316677
20
0.825
30
0
11
32.316677
21
0.700438
31
0
39
0
210
0
220
0
230
1
0
LINE
5
E6
100
AcDbEntity
8
1
62
256
6
ByLayer
370
18
48
1
60
0
100
AcDbLine
10
32.316677
20
0.825
30
0
11
32.390284
21
0.825
31
0
39
0
210
0
220
0
230
1
0
LINE
5
E7
100
AcDbEntity
8
1
62
256
6
ByLayer
370
13
48
1
60
0
100
AcDbLine
10
32.316677
20
-1.050438
30
0
11
32.466677
21
-1.050438
31
0
39
0
210
0
220
0
230
1
0
LINE
5
E8
100
AcDbEntity
8
1
62
256
6
ByLayer
370
13
48
1
60
0
100
AcDbLine
10
32.316677
20
-1.175
30
0
11
32.316677
21
-1.050438
31
0
39
0
210
0
220
0
230
1
0
LINE
5
E9
100
AcDbEntity
8
1
62
256
6
ByLayer
370
18
48
1
60
0
100
AcDbLine
10
32.390284
20
-1.175
30
0
11
32.316677
21
-1.175
31
0
39
0
210
0
220
0
230
1
0
LINE
5
EA
100
AcDbEntity
8
1
62
256
6
ByLayer
370
13
48
1
60
0
100
AcDbLine
10
32.316677
20
0.700438
30
0
11
32.466677
21
0.700438
31
0
39
0
210
0
220
0
230
1
0
LINE
5
EB
100
AcDbEntity
8
1
62
256
6
ByLayer
370
13
48
1
60
0
100
AcDbLine
10
32.328332
20
0.635802
30
0
11
32.468937
21
0.688055
31
0
39
0
210
0
220
0
230
1
0
LINE
5
EC
100
AcDbEntity
8
1
62
256
6
ByLayer
370
13
48
1
60
0
100
AcDbLine
10
32.328332
20
-0.985802
30
0
11
32.511465
21
-0.493017
31
0
39
0
210
0
220
0
230
1
0
LINE
5
ED
100
AcDbEntity
8
1
62
256
6
ByLayer
370
13
48
1
60
0
100
AcDbLine
10
32.328332
20
-0.985802
30
0
11
32.468937
21
-1.038055
31
0
39
0
210
0
220
0
230
1
0
LINE
5
EE
100
AcDbEntity
8
1
62
256
6
ByLayer
370
13
48
1
60
0
100
AcDbLine
10
32.697078
20
-0.370392
30
0
11
32.714634
21
-0.376916
31
0
39
0
210
0
220
0
230
1
0
LINE
5
EF
100
AcDbEntity
8
1
62
256
6
ByLayer
370
18
48
1
60
0
100
AcDbLine
10
36.079173
20
0.748598
30
0
11
36.07959
21
0.75835
31
0
39
0
210
0
220
0
230
1
0
LINE
5
F0
100
AcDbEntity
8
1
62
256
6
ByLayer
370
18
48
1
60
0
100
AcDbLine
10
32.468937
20
-1.038055
30
0
11
32.529533
21
-0.875
31
0
39
0
210
0
220
0
230
1
0
LINE
5
F1
100
AcDbEntity
8
1
62
256
6
ByLayer
370
18
48
1
60
0
100
AcDbLine
10
32.895003
20
-1.175
30
0
11
32.390284
21
-1.175
31
0
39
0
210
0
220
0
230
1
0
LINE
5
F2
100
AcDbEntity
8
1
62
256
6
ByLayer
370
18
48
1
60
0
100
AcDbLine
10
32.466677
20
-1.098607
30
0
11
32.466677
21
-1.050438
31
0
39
0
210
0
220
0
230
1
0
LINE
5
F3
100
AcDbEntity
8
1
62
256
6
ByLayer
370
18
48
1
60
0
100
AcDbLine
10
32.529533
20
0.525
30
0
11
32.468937
21
0.688055
31
0
39
0
210
0
220
0
230
1
0
LINE
5
F4
100
AcDbEntity
8
1
62
256
6
ByLayer
370
18
48
1
60
0
100
AcDbLine
10
32.466677
20
0.700438
30
0
11
32.466677
21
0.748607
31
0
39
0
210
0
220
0
230
1
0
LINE
5
F5
100
AcDbEntity
8
1
62
256
6
ByLayer
370
18
48
1
60
0
100
AcDbLine
10
32.390284
20
0.825
30
0
11
32.895003
21
0.825
31
0
39
0
210
0
220
0
230
1
0
LINE
5
F6
100
AcDbEntity
8
1
62
256
6
ByLayer
370
18
48
1
60
0
100
AcDbLine
10
32.529533
20
-0.875
30
0
11
32.714634
21
-0.376916
31
0
39
0
210
0
220
0
230
1
0
LINE
5
F7
100
AcDbEntity
8
1
62
256
6
ByLayer
370
13
48
1
60
0
100
AcDbLine
10
32.529533
20
-0.875
30
0
11
33.137246
21
-0.875
31
0
39
0
210
0
220
0
230
1
0
LINE
5
F8
100
AcDbEntity
8
1
62
256
6
ByLayer
370
13
48
1
60
0
100
AcDbLine
10
33.137246
20
0.525
30
0
11
32.529533
21
0.525
31
0
39
0
210
0
220
0
230
1
0
LINE
5
F9
100
AcDbEntity
8
1
62
256
6
ByLayer
370
18
48
1
60
0
100
AcDbLine
10
32.714634
20
0.026916
30
0
11
32.529533
21
0.525
31
0
39
0
210
0
220
0
230
1
0
LINE
5
FA
100
AcDbEntity
8
1
62
256
6
ByLayer
370
13
48
1
60
0
100
AcDbLine
10
33.16162
20
0.525
30
0
11
33.137246
21
0.525
31
0
39
0
210
0
220
0
230
1
0
LINE
5
FB
100
AcDbEntity
8
1
62
256
6
ByLayer
370
13
48
1
60
0
100
AcDbLine
10
33.137246
20
-0.875
30
0
11
33.137246
21
0.525
31
0
39
0
210
0
220
0
230
1
0
LINE
5
FC
100
AcDbEntity
8
1
62
256
6
ByLayer
370
13
48
1
60
0
100
AcDbLine
10
33.16162
20
-0.875
30
0
11
33.137246
21
-0.875
31
0
39
0
210
0
220
0
230
1
0
LINE
5
FD
100
AcDbEntity
8
1
62
256
6
ByLayer
370
13
48
1
60
0
100
AcDbLine
10
33.16162
20
0.525
30
0
11
33.16162
21
-0.875
31
0
39
0
210
0
220
0
230
1
0
LINE
5
FE
100
AcDbEntity
8
1
62
256
6
ByLayer
370
18
48
1
60
0
100
AcDbLine
10
36.000365
20
-0.613206
30
0
11
36.001111
21
-0.613206
31
0
39
0
210
0
220
0
230
1
0
LINE
5
FF
100
AcDbEntity
8
1
62
256
6
ByLayer
370
18
48
1
60
0
100
AcDbLine
10
36.000365
20
0.263206
30
0
11
36.001111
21
0.263206
31
0
39
0
210
0
220
0
230
1
0
LINE
5
100
100
AcDbEntity
8
1
62
256
6
ByLayer
370
18
48
1
60
0
100
AcDbLine
10
36
20
0.421883
30
0
11
36
21
-0.771883
31
0
39
0
210
0
220
0
230
1
0
LINE
5
101
100
AcDbEntity
8
1
62
256
6
ByLayer
370
13
48
1
60
0
100
AcDbLine
10
36.006378
20
-0.771883
30
0
11
36
21
-0.771883
31
0
39
0
210
0
220
0
230
1
0
LINE
5
102
100
AcDbEntity
8
1
62
256
6
ByLayer
370
13
48
1
60
0
100
AcDbLine
10
36.000365
20
0.263206
30
0
11
36.000365
21
-0.613206
31
0
39
0
210
0
220
0
230
1
0
LINE
5
103
100
AcDbEntity
8
1
62
256
6
ByLayer
370
13
48
1
60
0
100
AcDbLine
10
36.006378
20
0.421883
30
0
11
36
21
0.421883
31
0
39
0
210
0
220
0
230
1
0
LINE
5
104
100
AcDbEntity
8
1
62
256
6
ByLayer
370
13
48
1
60
0
100
AcDbLine
10
36.02312
20
0.77137
30
0
11
33.158049
21
0.545936
31
0
39
0
210
0
220
0
230
1
0
LINE
5
105
100
AcDbEntity
8
1
62
256
6
ByLayer
370
18
48
1
60
0
100
AcDbLine
10
36.101094
20
1.065867
30
0
11
36.08288
21
1.075341
31
0
39
0
210
0
220
0
230
1
0
LINE
5
106
100
AcDbEntity
8
1
62
256
6
ByLayer
370
18
48
1
60
0
100
AcDbLine
10
36.02312
20
0.77137
30
0
11
36.000953
21
0.449579
31
0
39
0
210
0
220
0
230
1
0
LINE
5
107
100
AcDbEntity
8
1
62
256
6
ByLayer
370
13
48
1
60
0
100
AcDbLine
10
36.000953
20
0.449579
30
0
11
36.010091
21
0.449579
31
0
39
0
210
0
220
0
230
1
0
LINE
5
108
100
AcDbEntity
8
1
62
256
6
ByLayer
370
13
48
1
60
0
100
AcDbLine
10
36.07959
20
0.75835
30
0
11
36.101094
21
1.065867
31
0
39
0
210
0
220
0
230
1
0
LINE
5
109
100
AcDbEntity
8
1
62
256
6
ByLayer
370
18
48
1
60
0
100
AcDbLine
10
36.08288
20
-1.425341
30
0
11
36.101094
21
-1.415867
31
0
39
0
210
0
220
0
230
1
0
LINE
5
10A
100
AcDbEntity
8
1
62
256
6
ByLayer
370
13
48
1
60
0
100
AcDbLine
10
36.07959
20
-1.10835
30
0
11
36.101094
21
-1.415867
31
0
39
0
210
0
220
0
230
1
0
LINE
5
10B
100
AcDbEntity
8
1
62
256
6
ByLayer
370
13
48
1
60
0
100
AcDbLine
10
36.000953
20
-0.799579
30
0
11
36.010091
21
-0.799579
31
0
39
0
210
0
220
0
230
1
0
LINE
5
10C
100
AcDbEntity
8
1
62
256
6
ByLayer
370
18
48
1
60
0
100
AcDbLine
10
36.000953
20
-0.799579
30
0
11
36.02312
21
-1.12137
31
0
39
0
210
0
220
0
230
1
0
LINE
5
10D
100
AcDbEntity
8
SK1
62
256
6
ByLayer
370
18
48
1
60
0
100
AcDbLine
10
0
20
1.175
30
0
11
-0.992607
21
1.175
31
0
39
0
210
0
220
0
230
1
0
LINE
5
10F
100
AcDbEntity
8
SK1
62
256
6
ByLayer
370
18
48
1
60
0
100
AcDbLine
10
-79
20
-1.175
30
0
11
-76.626537
21
-1.175
31
0
39
0
210
0
220
0
230
1
0
LINE
5
110
100
AcDbEntity
8
SK1
62
256
6
ByLayer
370
18
48
1
60
0
100
AcDbLine
10
-76.626537
20
1.175
30
0
11
-79
21
1.175
31
0
39
0
210
0
220
0
230
1
0
LINE
5
111
100
AcDbEntity
8
SK1
62
256
6
ByLayer
370
18
48
1
60
0
100
AcDbLine
10
-79
20
-1.175
30
0
11
-79
21
1.175
31
0
39
0
210
0
220
0
230
1
0
LINE
5
112
100
AcDbEntity
8
SK1
62
256
6
ByLayer
370
18
48
1
60
0
100
AcDbLine
10
0
20
0
30
0
11
0
21
0.825
31
0
39
0
210
0
220
0
230
1
0
LINE
5
113
100
AcDbEntity
8
SK1
62
256
6
ByLayer
370
18
48
1
60
0
100
AcDbLine
10
0
20
0.825
30
0
11
-0.232673
21
0.825
31
0
39
0
210
0
220
0
230
1
0
LINE
5
114
100
AcDbEntity
8
SK1
62
256
6
ByLayer
370
18
48
1
60
0
100
AcDbLine
10
-0.992607
20
1.175
30
0
11
-76.626537
21
1.175
31
0
39
0
210
0
220
0
230
1
0
LINE
5
115
100
AcDbEntity
8
SK1
62
256
6
ByLayer
370
18
48
1
60
0
100
AcDbLine
10
-76.626537
20
1.175
30
0
11
-76.081218
21
0
31
0
39
0
210
0
220
0
230
1
0
LINE
5
116
100
AcDbEntity
8
SK1
62
256
6
ByLayer
370
18
48
1
60
0
100
AcDbLine
10
0
20
-1.175
30
0
11
-76.626537
21
-1.175
31
0
39
0
210
0
220
0
230
1
0
LINE
5
117
100
AcDbEntity
8
SK1
62
256
6
ByLayer
370
18
48
1
60
0
100
AcDbLine
10
0
20
-1.175
30
0
11
0
21
0
31
0
39
0
210
0
220
0
230
1
0
LINE
5
118
100
AcDbEntity
8
SK1
62
256
6
ByLayer
370
18
48
1
60
0
100
AcDbLine
10
-76.081218
20
0
30
0
11
0
21
0
31
0
39
0
210
0
220
0
230
1
0
LINE
5
119
100
AcDbEntity
8
SK1
62
256
6
ByLayer
370
18
48
1
60
0
100
AcDbLine
10
-76.081218
20
0
30
0
11
-76.626537
21
-1.175
31
0
39
0
210
0
220
0
230
1
0
LINE
5
11A
100
AcDbEntity
8
SK2
62
256
6
ByLayer
370
18
48
1
60
0
100
AcDbLine
10
-79
20
18.075
30
0
11
36
21
18.075
31
0
39
0
210
0
220
0
230
1
0
LINE
5
11C
100
AcDbEntity
8
SK2
62
256
6
ByLayer
370
18
48
1
60
0
100
AcDbLine
10
36
20
1.4125
30
0
11
36
21
20.075
31
0
39
0
210
0
220
0
230
1
0
LINE
5
11D
100
AcDbEntity
8
SK2
62
256
6
ByLayer
370
18
48
1
60
0
100
AcDbLine
10
-79
20
2.7625
30
0
11
-79
21
20.075
31
0
39
0
210
0
220
0
230
1
0
LINE
5
11E
100
AcDbEntity
8
1
62
256
6
ByLayer
370
18
48
1
60
1
100
AcDbLine
10
36
20
18.075
30
0
11
32.500002
21
17.614216
31
0
39
0
210
0
220
0
230
1
0
LINE
5
11F
100
AcDbEntity
8
1
62
256
6
ByLayer
370
18
48
1
60
1
100
AcDbLine
10
32.500002
20
17.614216
30
0
11
32.499998
21
18.535784
31
0
39
0
210
0
220
0
230
1
0
LINE
5
120
100
AcDbEntity
8
1
62
256
6
ByLayer
370
18
48
1
60
1
100
AcDbLine
10
32.499998
20
18.535784
30
0
11
36
21
18.075
31
0
39
0
210
0
220
0
230
1
0
LINE
5
121
100
AcDbEntity
8
1
62
256
6
ByLayer
370
18
48
1
60
1
100
AcDbLine
10
-79
20
18.075
30
0
11
-75.500002
21
18.535784
31
0
39
0
210
0
220
0
230
1
0
LINE
5
122
100
AcDbEntity
8
1
62
256
6
ByLayer
370
18
48
1
60
1
100
AcDbLine
10
-75.500002
20
18.535784
30
0
11
-75.499998
21
17.614216
31
0
39
0
210
0
220
0
230
1
0
LINE
5
123
100
AcDbEntity
8
1
62
256
6
ByLayer
370
18
48
1
60
1
100
AcDbLine
10
-75.499998
20
17.614216
30
0
11
-79
21
18.075
31
0
39
0
210
0
220
0
230
1
0
LINE
5
124
100
AcDbEntity
8
2
62
256
6
ByLayer
370
18
48
1
60
0
100
AcDbLine
10
0
20
8.075
30
0
11
36
21
8.075
31
0
39
0
210
0
220
0
230
1
0
LINE
5
126
100
AcDbEntity
8
2
62
256
6
ByLayer
370
18
48
1
60
0
100
AcDbLine
10
36
20
1.4125
30
0
11
36
21
10.075
31
0
39
0
210
0
220
0
230
1
0
LINE
5
127
100
AcDbEntity
8
2
62
256
6
ByLayer
370
18
48
1
60
0
100
AcDbLine
10
0
20
1.5875
30
0
11
0
21
10.075
31
0
39
0
210
0
220
0
230
1
0
LINE
5
128
100
AcDbEntity
8
1
62
256
6
ByLayer
370
18
48
1
60
1
100
AcDbLine
10
36
20
8.075
30
0
11
32.500002
21
7.614216
31
0
39
0
210
0
220
0
230
1
0
LINE
5
129
100
AcDbEntity
8
1
62
256
6
ByLayer
370
18
48
1
60
1
100
AcDbLine
10
32.500002
20
7.614216
30
0
11
32.499998
21
8.535784
31
0
39
0
210
0
220
0
230
1
0
LINE
5
12A
100
AcDbEntity
8
1
62
256
6
ByLayer
370
18
48
1
60
1
100
AcDbLine
10
32.499998
20
8.535784
30
0
11
36
21
8.075
31
0
39
0
210
0
220
0
230
1
0
LINE
5
12B
100
AcDbEntity
8
1
62
256
6
ByLayer
370
18
48
1
60
1
100
AcDbLine
10
0
20
8.075
30
0
11
3.499998
21
8.535784
31
0
39
0
210
0
220
0
230
1
0
LINE
5
12C
100
AcDbEntity
8
1
62
256
6
ByLayer
370
18
48
1
60
1
100
AcDbLine
10
3.499998
20
8.535784
30
0
11
3.500002
21
7.614216
31
0
39
0
210
0
220
0
230
1
0
LINE
5
12D
100
AcDbEntity
8
1
62
256
6
ByLayer
370
18
48
1
60
1
100
AcDbLine
10
3.500002
20
7.614216
30
0
11
0
21
8.075
31
0
39
0
210
0
220
0
230
1
0
LINE
5
1FD
100
AcDbEntity
8
1
62
256
6
ByLayer
370
18
48
1
60
1
100
AcDbLine
10
36
20
18.075
30
0
11
32.500002
21
17.614216
31
0
39
0
210
0
220
0
230
1
0
LINE
5
1FE
100
AcDbEntity
8
1
62
256
6
ByLayer
370
18
48
1
60
1
100
AcDbLine
10
32.500002
20
17.614216
30
0
11
32.499998
21
18.535784
31
0
39
0
210
0
220
0
230
1
0
LINE
5
1FF
100
AcDbEntity
8
1
62
256
6
ByLayer
370
18
48
1
60
1
100
AcDbLine
10
32.499998
20
18.535784
30
0
11
36
21
18.075
31
0
39
0
210
0
220
0
230
1
0
LINE
5
201
100
AcDbEntity
8
1
62
256
6
ByLayer
370
18
48
1
60
1
100
AcDbLine
10
-79
20
18.075
30
0
11
-75.500002
21
18.535784
31
0
39
0
210
0
220
0
230
1
0
LINE
5
202
100
AcDbEntity
8
1
62
256
6
ByLayer
370
18
48
1
60
1
100
AcDbLine
10
-75.500002
20
18.535784
30
0
11
-75.499998
21
17.614216
31
0
39
0
210
0
220
0
230
1
0
LINE
5
203
100
AcDbEntity
8
1
62
256
6
ByLayer
370
18
48
1
60
1
100
AcDbLine
10
-75.499998
20
17.614216
30
0
11
-79
21
18.075
31
0
39
0
210
0
220
0
230
1
0
LINE
5
206
100
AcDbEntity
8
1
62
256
6
ByLayer
370
18
48
1
60
1
100
AcDbLine
10
36
20
8.075
30
0
11
32.500002
21
7.614216
31
0
39
0
210
0
220
0
230
1
0
LINE
5
207
100
AcDbEntity
8
1
62
256
6
ByLayer
370
18
48
1
60
1
100
AcDbLine
10
32.500002
20
7.614216
30
0
11
32.499998
21
8.535784
31
0
39
0
210
0
220
0
230
1
0
LINE
5
208
100
AcDbEntity
8
1
62
256
6
ByLayer
370
18
48
1
60
1
100
AcDbLine
10
32.499998
20
8.535784
30
0
11
36
21
8.075
31
0
39
0
210
0
220
0
230
1
0
LINE
5
20A
100
AcDbEntity
8
1
62
256
6
ByLayer
370
18
48
1
60
1
100
AcDbLine
10
0
20
8.075
30
0
11
3.499998
21
8.535784
31
0
39
0
210
0
220
0
230
1
0
LINE
5
20B
100
AcDbEntity
8
1
62
256
6
ByLayer
370
18
48
1
60
1
100
AcDbLine
10
3.499998
20
8.535784
30
0
11
3.500002
21
7.614216
31
0
39
0
210
0
220
0
230
1
0
LINE
5
20C
100
AcDbEntity
8
1
62
256
6
ByLayer
370
18
48
1
60
1
100
AcDbLine
10
3.500002
20
7.614216
30
0
11
0
21
8.075
31
0
39
0
210
0
220
0
230
1
0
MTEXT
5
1FA
100
AcDbEntity
8
SK2
62
256
6
ByLayer
370
18
48
1
60
0
100
AcDbMText
10
-23.837833
20
19.107634
30
0
210
0
220
0
230
1
1
\W0.5296;115
40
3.5
41
0
44
1.084337
50
0
71
7
72
5
7
iso_b_vert
0
MTEXT
5
205
100
AcDbEntity
8
2
62
256
6
ByLayer
370
18
48
1
60
0
100
AcDbMText
10
16.095034
20
9.107634
30
0
210
0
220
0
230
1
1
\W0.6740;36
40
3.5
41
0
44
1.084337
50
0
71
7
72
5
7
iso_b_vert
0
MTEXT
5
20E
100
AcDbEntity
8
SK6
62
256
6
ByLayer
370
18
48
1
60
0
100
AcDbMText
10
-57.865615
20
-33.042028
30
0
210
0
220
0
230
1
1
\W0.7840;QD-NR1F36C21AY1
40
3.5
41
0
44
1.084337
50
0
71
7
72
5
7
iso_b_vert
0
HATCH
5
200
100
AcDbEntity
8
SK2
62
256
6
ByLayer
370
13
48
1
60
0
100
AcDbHatch
10
0
20
0
30
0
210
0
220
0
230
1
2
ANSI31
70
0
71
0
91
1
92
5
93
3
72
1
10
36
20
18.0749999999999
11
32.5000016925532
21
17.6142162584471
72
1
10
32.5000016925532
20
17.6142162584471
11
32.4999983074468
21
18.5357837415526
72
1
10
32.4999983074468
20
18.5357837415526
11
36
21
18.0749999999999
97
0
75
0
76
1
52
0
41
0.0062
77
0
78
1
53
45
43
0
44
0
45
-0.0139193969876572
46
0.0139193969876572
79
0
47
0
98
1
10
0
20
0
0
HATCH
5
204
100
AcDbEntity
8
SK2
62
256
6
ByLayer
370
13
48
1
60
0
100
AcDbHatch
10
0
20
0
30
0
210
0
220
0
230
1
2
ANSI31
70
0
71
0
91
1
92
5
93
3
72
1
10
-79
20
18.0749999999999
11
-75.5000016925532
21
18.5357837415526
72
1
10
-75.5000016925532
20
18.5357837415526
11
-75.4999983074468
21
17.6142162584471
72
1
10
-75.4999983074468
20
17.6142162584471
11
-79
21
18.0749999999999
97
0
75
0
76
1
52
0
41
0.0062
77
0
78
1
53
45
43
0
44
0
45
-0.0139193969876572
46
0.0139193969876572
79
0
47
0
98
1
10
0
20
0
0
HATCH
5
209
100
AcDbEntity
8
2
62
256
6
ByLayer
370
13
48
1
60
0
100
AcDbHatch
10
0
20
0
30
0
210
0
220
0
230
1
2
ANSI31
70
0
71
0
91
1
92
5
93
3
72
1
10
36
20
8.07499999999987
11
32.5000016925532
21
7.6142162584471
72
1
10
32.5000016925532
20
7.6142162584471
11
32.4999983074468
21
8.53578374155265
72
1
10
32.4999983074468
20
8.53578374155265
11
36
21
8.07499999999987
97
0
75
0
76
1
52
0
41
0.0062
77
0
78
1
53
45
43
0
44
0
45
-0.0139193969876572
46
0.0139193969876572
79
0
47
0
98
1
10
0
20
0
0
HATCH
5
20D
100
AcDbEntity
8
2
62
256
6
ByLayer
370
13
48
1
60
0
100
AcDbHatch
10
0
20
0
30
0
210
0
220
0
230
1
2
ANSI31
70
0
71
0
91
1
92
5
93
3
72
1
10
0
20
8.07499999999987
11
3.49999830744682
21
8.53578374155265
72
1
10
3.49999830744682
20
8.53578374155265
11
3.50000169255318
21
7.6142162584471
72
1
10
3.50000169255318
20
7.6142162584471
11
0
21
8.07499999999987
97
0
75
0
76
1
52
0
41
0.0062
77
0
78
1
53
45
43
0
44
0
45
-0.0139193969876572
46
0.0139193969876572
79
0
47
0
98
1
10
0
20
0
0
DIMENSION
5
211
100
AcDbEntity
8
2
62
256
6
ByLayer
370
18
48
1
60
0
100
AcDbDimension
2
_U0
10
-84.25
20
-1.175
30
0
11
-84.25
21
0
31
0
70
32
71
1
72
1
41
1
210
0
220
0
230
1
3
Standard
100
AcDbAlignedDimension
13
-79
23
1.175
33
0
14
41
24
-1.175
34
0
50
90
100
AcDbRotatedDimension
1001
ACAD
1000
DSTYLE
1002
{
1070
   371
1070
    13
1070
   372
1070
    13
1070
   170
1070
     0
1070
   144
1040
1.0
1070
   277
1070
     2
1070
   284
1070
     8
1070
   278
1070
    46
1070
   146
1040
1.0
1070
   345
1005
16
1070
   347
1005
16
1070
   346
1005
16
1070
   344
1005
0
1070
   343
1005
0
1070
   172
1070
     1
1070
    76
1070
     0
1070
    75
1070
     0
1070
   282
1070
     0
1070
   281
1070
     0
1070
    71
1070
     0
1070
    74
1070
     0
1070
   279
1070
     0
1070
   173
1070
     1
1070
   340
1005
1FB
1070
   271
1070
     2
1070
   272
1070
     2
1070
    77
1070
     1
1070
    73
1070
     0
1070
   171
1070
     3
1070
   274
1070
     4
1070
   177
1070
     2
1070
   176
1070
     2
1070
   178
1070
     2
1070
    78
1070
     8
1070
    48
1040
-0.1
1070
    41
1040
3.5
1070
   147
1040
1.75
1070
    42
1040
1.5875
1070
    44
1040
2.0
1070
   140
1040
3.5
1002
}
1001
ACAD_DSTYLE_DIM_LINETYPE
1070
   380
1005
16
1001
ACAD_DSTYLE_DIM_EXT1_LINETYPE
1070
   381
1005
16
1001
ACAD_DSTYLE_DIM_EXT2_LINETYPE
1070
   382
1005
16
0
DIMENSION
5
22B
100
AcDbEntity
8
2
62
256
6
ByLayer
370
18
48
1
60
0
100
AcDbDimension
2
_U1
10
56.75
20
1.075
30
0
11
56.75
21
-0.175
31
0
70
32
71
1
72
1
41
1
210
0
220
0
230
1
3
Standard
100
AcDbAlignedDimension
13
36
23
-1.425
33
0
14
36
24
1.075
34
0
50
90
100
AcDbRotatedDimension
1001
ACAD
1000
DSTYLE
1002
{
1070
   371
1070
    13
1070
   372
1070
    13
1070
   170
1070
     0
1070
   144
1040
1.0
1070
   277
1070
     2
1070
   284
1070
     8
1070
   278
1070
    46
1070
   146
1040
1.0
1070
   345
1005
16
1070
   347
1005
16
1070
   346
1005
16
1070
   344
1005
0
1070
   343
1005
0
1070
   172
1070
     1
1070
    76
1070
     0
1070
    75
1070
     0
1070
   282
1070
     0
1070
   281
1070
     0
1070
    71
1070
     0
1070
    74
1070
     0
1070
   279
1070
     0
1070
   173
1070
     1
1070
   340
1005
1FB
1070
   271
1070
     2
1070
   272
1070
     2
1070
    77
1070
     1
1070
    73
1070
     0
1070
   171
1070
     3
1070
   274
1070
     4
1070
   177
1070
     2
1070
   176
1070
     2
1070
   178
1070
     2
1070
    78
1070
     8
1070
    48
1040
-0.1
1070
    41
1040
3.5
1070
   147
1040
1.75
1070
    42
1040
1.5875
1070
    44
1040
2.0
1070
   140
1040
3.5
1002
}
1001
ACAD_DSTYLE_DIM_LINETYPE
1070
   380
1005
16
1001
ACAD_DSTYLE_DIM_EXT1_LINETYPE
1070
   381
1005
16
1001
ACAD_DSTYLE_DIM_EXT2_LINETYPE
1070
   382
1005
16
0
ENDSEC
0
SECTION
2
OBJECTS
0
DICTIONARY
5
2b3
330
0
100
AcDbDictionary
280
0
281
1
3
ACAD_GROUP
350
2b4
3
ACAD_MLINESTYLE
350
2b5
0
DICTIONARY
5
2b4
330
0
100
AcDbDictionary
280
0
281
1
0
DICTIONARY
5
2b5
330
0
100
AcDbDictionary
280
0
281
1
3
Standard
350
18
0
MLINESTYLE
5
18
330
2b5
100
AcDbMlineStyle
2
Standard
70
0
3

62
256
51
90
52
90
71
2
49
-0.5
62
256
6
ByLayer
49
0.5
62
256
6
ByLayer
0
RASTERVARIABLES
5
2a2
330

100
AcDbRasterVariables
90
0
70
1
71
1
72
1
0
ENDSEC
0
EOF
