0
SECTION
2
HEADER
9
$ACADVER
1
AC1015
9
$DWGCODEPAGE
3
ANSI_1252
9
$HANDSEED
5
338
9
$ANGBASE
50
0
9
$ANGDIR
70
0
9
$ATTMODE
70
1
9
$AUNITS
70
0
9
$AUPREC
70
0
9
$CECOLOR
62
256
9
$CELTSCALE
40
1
9
$CELTYPE
6
ByLayer
9
$CELWEIGHT
370
18
9
$CLAYER
8
0
9
$CMLJUST
70
0
9
$CMLSCALE
40
1
9
$CMLSTYLE
2
Standard
9
$DIMSTYLE
2
Standard
9
$TEXTSIZE
40
0.2
9
$TEXTSTYLE
7
Standard
9
$LUNITS
70
2
9
$LUPREC
70
4
9
$EXTNAMES
290
1
9
$INSUNITS
70
4
9
$LTSCALE
40
1
9
$LWDISPLAY
290
1
9
$PDMODE
70
0
9
$PDSIZE
40
0
9
$PLINEGEN
70
0
0
ENDSEC
0
SECTION
2
CLASSES
0
CLASS
1
RASTERVARIABLES
2
AcDbRasterVariables
3
ISM
90
0
280
0
281
0
0
ENDSEC
0
SECTION
2
TABLES
0
TABLE
2
VPORT
5
32e
100
AcDbSymbolTable
0
VPORT
5
1
100
AcDbSymbolTableRecord
100
AcDbViewportTableRecord
2
*Active
70
0
10
0
20
0
11
1
21
1
12
-1
22
1
13
0
23
0
14
0.5
24
0.5
15
10
25
10
16
0
26
0
36
1
17
0
27
0
37
0
0
ENDTAB
0
TABLE
2
LTYPE
5
32f
100
AcDbSymbolTable
0
LTYPE
5
14
100
AcDbSymbolTableRecord
100
AcDbLinetypeTableRecord
70
0
2
ByBlock
3

72
65
73
0
40
0
0
LTYPE
5
15
100
AcDbSymbolTableRecord
100
AcDbLinetypeTableRecord
70
0
2
ByLayer
3

72
65
73
0
40
0
0
LTYPE
5
16
100
AcDbSymbolTableRecord
100
AcDbLinetypeTableRecord
70
0
2
Continuous
3
Solid line
72
65
73
0
40
0
0
LTYPE
5
6E
100
AcDbSymbolTableRecord
100
AcDbLinetypeTableRecord
70
0
2
CENTER
3
____ _ ____ _ ____ _ ____
72
65
73
4
40
47.5
49
22
74
0
49
-8.5
74
0
49
8.5
74
0
49
-8.5
74
0
0
LTYPE
5
6F
100
AcDbSymbolTableRecord
100
AcDbLinetypeTableRecord
70
0
2
DASHED
3
__ __ __ __ __ __ __ __ __
72
65
73
2
40
25.72
49
12.86
74
0
49
-12.86
74
0
0
ENDTAB
0
TABLE
2
LAYER
5
330
100
AcDbSymbolTable
0
LAYER
5
10
100
AcDbSymbolTableRecord
100
AcDbLayerTableRecord
2
0
70
0
62
7
6
Continuous
290
1
370
-3
390
0
0
LAYER
5
71
100
AcDbSymbolTableRecord
100
AcDbLayerTableRecord
2
80
70
0
62
-6
6
Continuous
290
1
370
-3
390
0
0
LAYER
5
73
100
AcDbSymbolTableRecord
100
AcDbLayerTableRecord
2
81
70
0
62
-3
6
Continuous
290
1
370
-3
390
0
0
LAYER
5
8E
100
AcDbSymbolTableRecord
100
AcDbLayerTableRecord
2
4
70
0
62
-2
6
CENTER
290
1
370
-3
390
0
0
LAYER
5
90
100
AcDbSymbolTableRecord
100
AcDbLayerTableRecord
2
1
70
0
62
4
6
Continuous
290
1
370
-3
390
0
0
LAYER
5
22A
100
AcDbSymbolTableRecord
100
AcDbLayerTableRecord
2
Defpoints
70
0
62
7
6
Continuous
290
0
370
-3
390
0
0
LAYER
5
267
100
AcDbSymbolTableRecord
100
AcDbLayerTableRecord
2
2
70
0
62
7
6
Continuous
290
1
370
-3
390
0
0
LAYER
5
319
100
AcDbSymbolTableRecord
100
AcDbLayerTableRecord
2
SK4
70
0
62
2
6
CENTER
290
1
370
-3
390
0
0
LAYER
5
31a
100
AcDbSymbolTableRecord
100
AcDbLayerTableRecord
2
SK3
70
0
62
1
6
DASHED
290
1
370
-3
390
0
0
LAYER
5
31b
100
AcDbSymbolTableRecord
100
AcDbLayerTableRecord
2
SK2
70
0
62
7
6
Continuous
290
1
370
-3
390
0
0
LAYER
5
31c
100
AcDbSymbolTableRecord
100
AcDbLayerTableRecord
2
SK1
70
0
62
4
6
Continuous
290
1
370
-3
390
0
0
LAYER
5
31d
100
AcDbSymbolTableRecord
100
AcDbLayerTableRecord
2
SK6
70
0
62
5
6
Continuous
290
1
370
-3
390
0
0
ENDTAB
0
TABLE
2
STYLE
5
331
100
AcDbSymbolTable
0
STYLE
5
11
100
AcDbSymbolTableRecord
100
AcDbTextStyleTableRecord
2
Standard
3
txt
70
0
71
0
40
0
41
1
42
0
50
0
0
STYLE
5
222
100
AcDbSymbolTableRecord
100
AcDbTextStyleTableRecord
2
iso_b_vert
3
simplex.shx
70
0
71
0
40
0
41
1
42
0
50
0
0
STYLE
5
223
100
AcDbSymbolTableRecord
100
AcDbTextStyleTableRecord
2
DWGDirectTextStyle
3
simplex
70
0
71
0
40
0
41
1
42
0
50
0
0
ENDTAB
0
TABLE
2
DIMSTYLE
5
332
100
AcDbSymbolTable
100
AcDbDimStyleTable
0
DIMSTYLE
105
27
100
AcDbSymbolTableRecord
100
AcDbDimStyleTableRecord
2
Standard
70
0
3
<>
41
0.18
42
0.0625
44
0.18
140
0.18
147
0.09
73
0
74
0
77
1
271
2
275
0
278
52
280
0
340
11
0
ENDTAB
0
TABLE
2
VIEW
5
333
100
AcDbSymbolTable
0
ENDTAB
0
TABLE
2
UCS
5
334
100
AcDbSymbolTable
0
ENDTAB
0
TABLE
2
APPID
5
335
100
AcDbSymbolTable
0
APPID
5
12
100
AcDbSymbolTableRecord
100
AcDbRegAppTableRecord
2
ACAD
70
0
0
APPID
5
226
100
AcDbSymbolTableRecord
100
AcDbRegAppTableRecord
2
ACAD_DSTYLE_DIMBREAK
70
0
0
APPID
5
2D8
100
AcDbSymbolTableRecord
100
AcDbRegAppTableRecord
2
ACAD_DSTYLE_DIM_LINETYPE
70
0
0
APPID
5
2D9
100
AcDbSymbolTableRecord
100
AcDbRegAppTableRecord
2
ACAD_DSTYLE_DIM_EXT1_LINETYPE
70
0
0
APPID
5
2DA
100
AcDbSymbolTableRecord
100
AcDbRegAppTableRecord
2
ACAD_DSTYLE_DIM_EXT2_LINETYPE
70
0
0
APPID
5
315
100
AcDbSymbolTableRecord
100
AcDbRegAppTableRecord
2
ACAD_MLEADERVER
70
0
0
ENDTAB
0
TABLE
2
BLOCK_RECORD
5
336
100
AcDbSymbolTable
0
BLOCK_RECORD
5
1F
100
AcDbSymbolTableRecord
100
AcDbBlockTableRecord
2
*Model_Space
340
0
70
0
0
BLOCK_RECORD
5
1B
100
AcDbSymbolTableRecord
100
AcDbBlockTableRecord
2
*Paper_Space
340
0
70
0
0
BLOCK_RECORD
5
23
100
AcDbSymbolTableRecord
100
AcDbBlockTableRecord
2
*Paper_Space0
340
0
70
0
0
BLOCK_RECORD
5
22B
100
AcDbSymbolTableRecord
100
AcDbBlockTableRecord
2
*D1
340
0
70
0
0
BLOCK_RECORD
5
237
100
AcDbSymbolTableRecord
100
AcDbBlockTableRecord
2
_U0
340
0
70
0
0
BLOCK_RECORD
5
243
100
AcDbSymbolTableRecord
100
AcDbBlockTableRecord
2
*D3
340
0
70
0
0
BLOCK_RECORD
5
24F
100
AcDbSymbolTableRecord
100
AcDbBlockTableRecord
2
_U1
340
0
70
0
0
BLOCK_RECORD
5
25B
100
AcDbSymbolTableRecord
100
AcDbBlockTableRecord
2
*D5
340
0
70
0
0
BLOCK_RECORD
5
268
100
AcDbSymbolTableRecord
100
AcDbBlockTableRecord
2
_U2
340
0
70
0
0
BLOCK_RECORD
5
274
100
AcDbSymbolTableRecord
100
AcDbBlockTableRecord
2
*D7
340
0
70
0
0
BLOCK_RECORD
5
281
100
AcDbSymbolTableRecord
100
AcDbBlockTableRecord
2
_U3
340
0
70
0
0
BLOCK_RECORD
5
28D
100
AcDbSymbolTableRecord
100
AcDbBlockTableRecord
2
*D9
340
0
70
0
0
BLOCK_RECORD
5
299
100
AcDbSymbolTableRecord
100
AcDbBlockTableRecord
2
_U4
340
0
70
0
0
BLOCK_RECORD
5
2A5
100
AcDbSymbolTableRecord
100
AcDbBlockTableRecord
2
*D11
340
0
70
0
0
BLOCK_RECORD
5
2B1
100
AcDbSymbolTableRecord
100
AcDbBlockTableRecord
2
_U5
340
0
70
0
0
ENDTAB
0
ENDSEC
0
SECTION
2
BLOCKS
0
BLOCK
5
20
100
AcDbEntity
8
0
100
AcDbBlockBegin
2
*Model_Space
70
0
10
0
20
0
30
0
3
*Model_Space
0
ENDBLK
5
21
100
AcDbEntity
8
0
100
AcDbBlockEnd
0
BLOCK
5
1C
100
AcDbEntity
8
0
100
AcDbBlockBegin
2
*Paper_Space
70
0
10
0
20
0
30
0
3
*Paper_Space
0
ENDBLK
5
1D
100
AcDbEntity
8
0
100
AcDbBlockEnd
0
BLOCK
5
24
100
AcDbEntity
8
0
100
AcDbBlockBegin
2
*Paper_Space0
70
0
10
0
20
0
30
0
3
*Paper_Space0
0
ENDBLK
5
25
100
AcDbEntity
8
0
100
AcDbBlockEnd
0
BLOCK
5
22C
100
AcDbEntity
8
0
100
AcDbBlockBegin
2
*D1
70
1
10
0
20
0
30
0
3
*D1
0
LINE
5
22E
100
AcDbEntity
8
0
62
256
6
ByLayer
370
-2
48
1
60
0
100
AcDbLine
10
39
20
8
30
0
11
39
21
47.335133
31
0
39
0
210
0
220
0
230
1
0
LINE
5
22F
100
AcDbEntity
8
0
62
256
6
ByLayer
370
-2
48
1
60
0
100
AcDbLine
10
63
20
25.993424
30
0
11
63
21
47.335133
31
0
39
0
210
0
220
0
230
1
0
LINE
5
230
100
AcDbEntity
8
0
62
256
6
ByLayer
370
-2
48
1
60
0
100
AcDbLine
10
42.175
20
45.335133
30
0
11
59.825
21
45.335133
31
0
39
0
210
0
220
0
230
1
0
SOLID
5
231
100
AcDbEntity
8
0
62
256
6
ByLayer
370
-1
48
1
60
0
100
AcDbTrace
10
42.175
20
45.8643
30
0
11
42.175
21
44.805967
31
0
12
39
22
45.335133
32
0
13
39
23
45.335133
33
0
39
0
210
0
220
0
230
1
0
SOLID
5
232
100
AcDbEntity
8
0
62
256
6
ByLayer
370
-1
48
1
60
0
100
AcDbTrace
10
59.825
20
44.805967
30
0
11
59.825
21
45.8643
31
0
12
63
22
45.335133
32
0
13
63
23
45.335133
33
0
39
0
210
0
220
0
230
1
0
MTEXT
5
233
100
AcDbEntity
8
0
62
256
6
ByLayer
370
18
48
1
60
0
100
AcDbMText
10
51
20
52.835133
30
0
210
0
220
0
230
1
1
\A1;24.0
40
3
41
0
44
1
50
0
71
5
72
5
7
iso_b_vert
0
POINT
5
234
100
AcDbEntity
8
Defpoints
62
0
6
ByLayer
370
-1
48
1
60
0
100
AcDbPoint
10
39
20
6
30
0
39
0
210
0
220
0
230
1
50
360
0
POINT
5
235
100
AcDbEntity
8
Defpoints
62
0
6
ByLayer
370
-1
48
1
60
0
100
AcDbPoint
10
63
20
23.993424
30
0
39
0
210
0
220
0
230
1
50
360
0
POINT
5
236
100
AcDbEntity
8
Defpoints
62
0
6
ByLayer
370
-1
48
1
60
0
100
AcDbPoint
10
63
20
45.335133
30
0
39
0
210
0
220
0
230
1
50
360
0
ENDBLK
5
22D
100
AcDbEntity
8
0
100
AcDbBlockEnd
0
BLOCK
5
23E
100
AcDbEntity
8
0
100
AcDbBlockBegin
2
_U0
70
0
10
0
20
0
30
0
3
_U0
0
MTEXT
5
238
100
AcDbEntity
8
SK2
62
256
6
ByLayer
370
18
48
1
60
0
100
AcDbMText
10
47.481516
20
46.220248
30
0
210
0
220
0
230
1
1
\W0.7640;24.0
40
3
41
0
44
1.084337
50
0
71
7
72
5
7
iso_b_vert
0
LINE
5
239
100
AcDbEntity
8
SK2
62
256
6
ByLayer
370
13
48
1
60
0
100
AcDbLine
10
39
20
8
30
0
11
39
21
47.335133
31
0
39
0
210
0
220
0
230
1
0
LINE
5
23A
100
AcDbEntity
8
SK2
62
256
6
ByLayer
370
13
48
1
60
0
100
AcDbLine
10
63
20
25.993424
30
0
11
63
21
47.335133
31
0
39
0
210
0
220
0
230
1
0
LINE
5
23B
100
AcDbEntity
8
SK2
62
256
6
ByLayer
370
13
48
1
60
0
100
AcDbLine
10
39
20
45.335133
30
0
11
63
21
45.335133
31
0
39
0
210
0
220
0
230
1
0
SOLID
5
23C
100
AcDbEntity
8
SK2
62
256
6
ByLayer
370
18
48
1
60
0
100
AcDbTrace
10
39
20
45.335133
30
0
11
42.174998
21
45.75313
31
0
12
42.175002
22
44.917137
32
0
13
42.175002
23
44.917137
33
0
39
0
210
0
220
0
230
1
0
SOLID
5
23D
100
AcDbEntity
8
SK2
62
256
6
ByLayer
370
18
48
1
60
0
100
AcDbTrace
10
63
20
45.335133
30
0
11
59.825002
21
44.917137
31
0
12
59.824998
22
45.75313
32
0
13
59.824998
23
45.75313
33
0
39
0
210
0
220
0
230
1
0
ENDBLK
5
23F
100
AcDbEntity
8
0
100
AcDbBlockEnd
0
BLOCK
5
244
100
AcDbEntity
8
0
100
AcDbBlockBegin
2
*D3
70
1
10
0
20
0
30
0
3
*D3
0
LINE
5
246
100
AcDbEntity
8
0
62
256
6
ByLayer
370
-2
48
1
60
0
100
AcDbLine
10
-31.9
20
-21.672662
30
0
11
-31.9
21
-61.227649
31
0
39
0
210
0
220
0
230
1
0
LINE
5
247
100
AcDbEntity
8
0
62
256
6
ByLayer
370
-2
48
1
60
0
100
AcDbLine
10
63
20
-23.375
30
0
11
63
21
-61.227649
31
0
39
0
210
0
220
0
230
1
0
LINE
5
248
100
AcDbEntity
8
0
62
256
6
ByLayer
370
-2
48
1
60
0
100
AcDbLine
10
-28.725
20
-59.227649
30
0
11
59.825
21
-59.227649
31
0
39
0
210
0
220
0
230
1
0
SOLID
5
249
100
AcDbEntity
8
0
62
256
6
ByLayer
370
-1
48
1
60
0
100
AcDbTrace
10
-28.725
20
-58.698482
30
0
11
-28.725
21
-59.756816
31
0
12
-31.9
22
-59.227649
32
0
13
-31.9
23
-59.227649
33
0
39
0
210
0
220
0
230
1
0
SOLID
5
24A
100
AcDbEntity
8
0
62
256
6
ByLayer
370
-1
48
1
60
0
100
AcDbTrace
10
59.825
20
-59.756816
30
0
11
59.825
21
-58.698482
31
0
12
63
22
-59.227649
32
0
13
63
23
-59.227649
33
0
39
0
210
0
220
0
230
1
0
MTEXT
5
24B
100
AcDbEntity
8
0
62
256
6
ByLayer
370
18
48
1
60
0
100
AcDbMText
10
15.55
20
-51.727649
30
0
210
0
220
0
230
1
1
\A1;94.9
40
3
41
0
44
1
50
0
71
5
72
5
7
iso_b_vert
0
POINT
5
24C
100
AcDbEntity
8
Defpoints
62
0
6
ByLayer
370
-1
48
1
60
0
100
AcDbPoint
10
-31.9
20
-19.672662
30
0
39
0
210
0
220
0
230
1
50
360
0
POINT
5
24D
100
AcDbEntity
8
Defpoints
62
0
6
ByLayer
370
-1
48
1
60
0
100
AcDbPoint
10
63
20
-21.375
30
0
39
0
210
0
220
0
230
1
50
360
0
POINT
5
24E
100
AcDbEntity
8
Defpoints
62
0
6
ByLayer
370
-1
48
1
60
0
100
AcDbPoint
10
63
20
-59.227649
30
0
39
0
210
0
220
0
230
1
50
360
0
ENDBLK
5
245
100
AcDbEntity
8
0
100
AcDbBlockEnd
0
BLOCK
5
256
100
AcDbEntity
8
0
100
AcDbBlockBegin
2
_U1
70
0
10
0
20
0
30
0
3
_U1
0
MTEXT
5
250
100
AcDbEntity
8
SK2
62
256
6
ByLayer
370
18
48
1
60
0
100
AcDbMText
10
12.031516
20
-58.342535
30
0
210
0
220
0
230
1
1
\W0.7756;94.9
40
3
41
0
44
1.084337
50
0
71
7
72
5
7
iso_b_vert
0
LINE
5
251
100
AcDbEntity
8
SK2
62
256
6
ByLayer
370
13
48
1
60
0
100
AcDbLine
10
-31.9
20
-21.672662
30
0
11
-31.9
21
-61.227649
31
0
39
0
210
0
220
0
230
1
0
LINE
5
252
100
AcDbEntity
8
SK2
62
256
6
ByLayer
370
13
48
1
60
0
100
AcDbLine
10
63
20
-23.375
30
0
11
63
21
-61.227649
31
0
39
0
210
0
220
0
230
1
0
LINE
5
253
100
AcDbEntity
8
SK2
62
256
6
ByLayer
370
13
48
1
60
0
100
AcDbLine
10
-31.9
20
-59.227649
30
0
11
63
21
-59.227649
31
0
39
0
210
0
220
0
230
1
0
SOLID
5
254
100
AcDbEntity
8
SK2
62
256
6
ByLayer
370
18
48
1
60
0
100
AcDbTrace
10
-31.9
20
-59.227649
30
0
11
-28.725002
21
-58.809652
31
0
12
-28.724998
22
-59.645646
32
0
13
-28.724998
23
-59.645646
33
0
39
0
210
0
220
0
230
1
0
SOLID
5
255
100
AcDbEntity
8
SK2
62
256
6
ByLayer
370
18
48
1
60
0
100
AcDbTrace
10
63
20
-59.227649
30
0
11
59.825002
21
-59.645646
31
0
12
59.824998
22
-58.809652
32
0
13
59.824998
23
-58.809652
33
0
39
0
210
0
220
0
230
1
0
ENDBLK
5
257
100
AcDbEntity
8
0
100
AcDbBlockEnd
0
BLOCK
5
25C
100
AcDbEntity
8
0
100
AcDbBlockBegin
2
*D5
70
1
10
0
20
0
30
0
3
*D5
0
LINE
5
25E
100
AcDbEntity
8
0
62
256
6
ByLayer
370
-2
48
1
60
0
100
AcDbLine
10
0
20
32.97
30
0
11
0
21
60.5
31
0
39
0
210
0
220
0
230
1
0
LINE
5
25F
100
AcDbEntity
8
0
62
256
6
ByLayer
370
-2
48
1
60
0
100
AcDbLine
10
63
20
25.993424
30
0
11
63
21
60.5
31
0
39
0
210
0
220
0
230
1
0
LINE
5
260
100
AcDbEntity
8
0
62
256
6
ByLayer
370
-2
48
1
60
0
100
AcDbLine
10
3.175
20
58.5
30
0
11
59.825
21
58.5
31
0
39
0
210
0
220
0
230
1
0
SOLID
5
261
100
AcDbEntity
8
0
62
256
6
ByLayer
370
-1
48
1
60
0
100
AcDbTrace
10
3.175
20
59.029167
30
0
11
3.175
21
57.970833
31
0
12
0
22
58.5
32
0
13
0
23
58.5
33
0
39
0
210
0
220
0
230
1
0
SOLID
5
262
100
AcDbEntity
8
0
62
256
6
ByLayer
370
-1
48
1
60
0
100
AcDbTrace
10
59.825
20
57.970833
30
0
11
59.825
21
59.029167
31
0
12
63
22
58.5
32
0
13
63
23
58.5
33
0
39
0
210
0
220
0
230
1
0
MTEXT
5
263
100
AcDbEntity
8
0
62
256
6
ByLayer
370
18
48
1
60
0
100
AcDbMText
10
31.5
20
66
30
0
210
0
220
0
230
1
1
\A1;63.0
40
3
41
0
44
1
50
0
71
5
72
5
7
iso_b_vert
0
POINT
5
264
100
AcDbEntity
8
Defpoints
62
0
6
ByLayer
370
-1
48
1
60
0
100
AcDbPoint
10
0
20
30.97
30
0
39
0
210
0
220
0
230
1
50
360
0
POINT
5
265
100
AcDbEntity
8
Defpoints
62
0
6
ByLayer
370
-1
48
1
60
0
100
AcDbPoint
10
63
20
23.993424
30
0
39
0
210
0
220
0
230
1
50
360
0
POINT
5
266
100
AcDbEntity
8
Defpoints
62
0
6
ByLayer
370
-1
48
1
60
0
100
AcDbPoint
10
63
20
58.5
30
0
39
0
210
0
220
0
230
1
50
360
0
ENDBLK
5
25D
100
AcDbEntity
8
0
100
AcDbBlockEnd
0
BLOCK
5
26F
100
AcDbEntity
8
0
100
AcDbBlockBegin
2
_U2
70
0
10
0
20
0
30
0
3
_U2
0
MTEXT
5
269
100
AcDbEntity
8
2
62
256
6
ByLayer
370
18
48
1
60
0
100
AcDbMText
10
28.139459
20
59.385114
30
0
210
0
220
0
230
1
1
\W0.7346;63.0
40
3
41
0
44
1.084337
50
0
71
7
72
5
7
iso_b_vert
0
LINE
5
26A
100
AcDbEntity
8
2
62
256
6
ByLayer
370
13
48
1
60
0
100
AcDbLine
10
0
20
32.97
30
0
11
0
21
60.5
31
0
39
0
210
0
220
0
230
1
0
LINE
5
26B
100
AcDbEntity
8
2
62
256
6
ByLayer
370
13
48
1
60
0
100
AcDbLine
10
63
20
25.993424
30
0
11
63
21
60.5
31
0
39
0
210
0
220
0
230
1
0
LINE
5
26C
100
AcDbEntity
8
2
62
256
6
ByLayer
370
13
48
1
60
0
100
AcDbLine
10
0
20
58.5
30
0
11
63
21
58.5
31
0
39
0
210
0
220
0
230
1
0
SOLID
5
26D
100
AcDbEntity
8
2
62
256
6
ByLayer
370
18
48
1
60
0
100
AcDbTrace
10
0
20
58.5
30
0
11
3.174998
21
58.917997
31
0
12
3.175002
22
58.082003
32
0
13
3.175002
23
58.082003
33
0
39
0
210
0
220
0
230
1
0
SOLID
5
26E
100
AcDbEntity
8
2
62
256
6
ByLayer
370
18
48
1
60
0
100
AcDbTrace
10
63
20
58.5
30
0
11
59.825002
21
58.082003
31
0
12
59.824998
22
58.917997
32
0
13
59.824998
23
58.917997
33
0
39
0
210
0
220
0
230
1
0
ENDBLK
5
270
100
AcDbEntity
8
0
100
AcDbBlockEnd
0
BLOCK
5
275
100
AcDbEntity
8
0
100
AcDbBlockBegin
2
*D7
70
1
10
0
20
0
30
0
3
*D7
0
LINE
5
277
100
AcDbEntity
8
0
62
256
6
ByLayer
370
-2
48
1
60
0
100
AcDbLine
10
65
20
6
30
0
11
93.5
21
6
31
0
39
0
210
0
220
0
230
1
0
LINE
5
278
100
AcDbEntity
8
0
62
256
6
ByLayer
370
-2
48
1
60
0
100
AcDbLine
10
65
20
-6
30
0
11
93.5
21
-6
31
0
39
0
210
0
220
0
230
1
0
LINE
5
279
100
AcDbEntity
8
0
62
256
6
ByLayer
370
-2
48
1
60
0
100
AcDbLine
10
91.5
20
9.175
30
0
11
91.5
21
12.35
31
0
39
0
210
0
220
0
230
1
0
LINE
5
27A
100
AcDbEntity
8
0
62
256
6
ByLayer
370
-2
48
1
60
0
100
AcDbLine
10
91.5
20
-9.175
30
0
11
91.5
21
-12.35
31
0
39
0
210
0
220
0
230
1
0
SOLID
5
27B
100
AcDbEntity
8
0
62
256
6
ByLayer
370
-1
48
1
60
0
100
AcDbTrace
10
90.970833
20
9.175
30
0
11
92.029167
21
9.175
31
0
12
91.5
22
6
32
0
13
91.5
23
6
33
0
39
0
210
0
220
0
230
1
0
SOLID
5
27C
100
AcDbEntity
8
0
62
256
6
ByLayer
370
-1
48
1
60
0
100
AcDbTrace
10
92.029167
20
-9.175
30
0
11
90.970833
21
-9.175
31
0
12
91.5
22
-6
32
0
13
91.5
23
-6
33
0
39
0
210
0
220
0
230
1
0
MTEXT
5
27D
100
AcDbEntity
8
0
62
256
6
ByLayer
370
18
48
1
60
0
100
AcDbMText
10
84
20
0
30
0
210
0
220
0
230
1
1
\A1;12
40
3
41
0
44
1
50
90
71
5
72
5
7
iso_b_vert
0
POINT
5
27E
100
AcDbEntity
8
Defpoints
62
0
6
ByLayer
370
-1
48
1
60
0
100
AcDbPoint
10
63
20
6
30
0
39
0
210
0
220
0
230
1
50
360
0
POINT
5
27F
100
AcDbEntity
8
Defpoints
62
0
6
ByLayer
370
-1
48
1
60
0
100
AcDbPoint
10
63
20
-6
30
0
39
0
210
0
220
0
230
1
50
360
0
POINT
5
280
100
AcDbEntity
8
Defpoints
62
0
6
ByLayer
370
-1
48
1
60
0
100
AcDbPoint
10
91.5
20
-6
30
0
39
0
210
0
220
0
230
1
50
360
0
ENDBLK
5
276
100
AcDbEntity
8
0
100
AcDbBlockEnd
0
BLOCK
5
288
100
AcDbEntity
8
0
100
AcDbBlockBegin
2
_U3
70
0
10
0
20
0
30
0
3
_U3
0
MTEXT
5
282
100
AcDbEntity
8
SK2
62
256
6
ByLayer
370
18
48
1
60
0
100
AcDbMText
10
90.908886
20
-3.64137
30
0
210
0
220
0
230
1
1
\W0.7337;%%c 12
40
3
41
0
44
1.084337
50
90
71
7
72
5
7
iso_b_vert
0
LINE
5
283
100
AcDbEntity
8
SK2
62
256
6
ByLayer
370
13
48
1
60
0
100
AcDbLine
10
65
20
6
30
0
11
93.5
21
6
31
0
39
0
210
0
220
0
230
1
0
LINE
5
284
100
AcDbEntity
8
SK2
62
256
6
ByLayer
370
13
48
1
60
0
100
AcDbLine
10
65
20
-6
30
0
11
93.5
21
-6
31
0
39
0
210
0
220
0
230
1
0
LINE
5
285
100
AcDbEntity
8
SK2
62
256
6
ByLayer
370
13
48
1
60
0
100
AcDbLine
10
91.5
20
13.5
30
0
11
91.5
21
-13.5
31
0
39
0
210
0
220
0
230
1
0
SOLID
5
286
100
AcDbEntity
8
SK2
62
256
6
ByLayer
370
18
48
1
60
0
100
AcDbTrace
10
91.5
20
6
30
0
11
91.082003
21
9.174998
31
0
12
91.917997
22
9.175002
32
0
13
91.917997
23
9.175002
33
0
39
0
210
0
220
0
230
1
0
SOLID
5
287
100
AcDbEntity
8
SK2
62
256
6
ByLayer
370
18
48
1
60
0
100
AcDbTrace
10
91.5
20
-6
30
0
11
91.917997
21
-9.174998
31
0
12
91.082003
22
-9.175002
32
0
13
91.082003
23
-9.175002
33
0
39
0
210
0
220
0
230
1
0
ENDBLK
5
289
100
AcDbEntity
8
0
100
AcDbBlockEnd
0
BLOCK
5
28E
100
AcDbEntity
8
0
100
AcDbBlockBegin
2
*D9
70
1
10
0
20
0
30
0
3
*D9
0
LINE
5
290
100
AcDbEntity
8
0
62
256
6
ByLayer
370
-2
48
1
60
0
100
AcDbLine
10
64
20
24.99375
30
0
11
108.5
21
24.99375
31
0
39
0
210
0
220
0
230
1
0
LINE
5
291
100
AcDbEntity
8
0
62
256
6
ByLayer
370
-2
48
1
60
0
100
AcDbLine
10
29.628234
20
-24.746766
30
0
11
108.5
21
-24.746766
31
0
39
0
210
0
220
0
230
1
0
LINE
5
292
100
AcDbEntity
8
0
62
256
6
ByLayer
370
-2
48
1
60
0
100
AcDbLine
10
106.5
20
21.81875
30
0
11
106.5
21
-21.571766
31
0
39
0
210
0
220
0
230
1
0
SOLID
5
293
100
AcDbEntity
8
0
62
256
6
ByLayer
370
-1
48
1
60
0
100
AcDbTrace
10
107.029167
20
21.81875
30
0
11
105.970833
21
21.81875
31
0
12
106.5
22
24.99375
32
0
13
106.5
23
24.99375
33
0
39
0
210
0
220
0
230
1
0
SOLID
5
294
100
AcDbEntity
8
0
62
256
6
ByLayer
370
-1
48
1
60
0
100
AcDbTrace
10
105.970833
20
-21.571766
30
0
11
107.029167
21
-21.571766
31
0
12
106.5
22
-24.746766
32
0
13
106.5
23
-24.746766
33
0
39
0
210
0
220
0
230
1
0
MTEXT
5
295
100
AcDbEntity
8
0
62
256
6
ByLayer
370
18
48
1
60
0
100
AcDbMText
10
99
20
0.123492
30
0
210
0
220
0
230
1
1
\A1;50
40
3
41
0
44
1
50
90
71
5
72
5
7
iso_b_vert
0
POINT
5
296
100
AcDbEntity
8
Defpoints
62
0
6
ByLayer
370
-1
48
1
60
0
100
AcDbPoint
10
62
20
24.99375
30
0
39
0
210
0
220
0
230
1
50
360
0
POINT
5
297
100
AcDbEntity
8
Defpoints
62
0
6
ByLayer
370
-1
48
1
60
0
100
AcDbPoint
10
27.628234
20
-24.746766
30
0
39
0
210
0
220
0
230
1
50
360
0
POINT
5
298
100
AcDbEntity
8
Defpoints
62
0
6
ByLayer
370
-1
48
1
60
0
100
AcDbPoint
10
106.5
20
-24.746766
30
0
39
0
210
0
220
0
230
1
50
360
0
ENDBLK
5
28F
100
AcDbEntity
8
0
100
AcDbBlockEnd
0
BLOCK
5
2A0
100
AcDbEntity
8
0
100
AcDbBlockBegin
2
_U4
70
0
10
0
20
0
30
0
3
_U4
0
MTEXT
5
29A
100
AcDbEntity
8
SK2
62
256
6
ByLayer
370
18
48
1
60
0
100
AcDbMText
10
105.908886
20
-3.89282
30
0
210
0
220
0
230
1
1
\W0.8066;%%c 50
40
3
41
0
44
1.084337
50
90
71
7
72
5
7
iso_b_vert
0
LINE
5
29B
100
AcDbEntity
8
SK2
62
256
6
ByLayer
370
13
48
1
60
0
100
AcDbLine
10
64
20
24.99375
30
0
11
108.5
21
24.99375
31
0
39
0
210
0
220
0
230
1
0
LINE
5
29C
100
AcDbEntity
8
SK2
62
256
6
ByLayer
370
13
48
1
60
0
100
AcDbLine
10
29.628234
20
-24.746766
30
0
11
108.5
21
-24.746766
31
0
39
0
210
0
220
0
230
1
0
LINE
5
29D
100
AcDbEntity
8
SK2
62
256
6
ByLayer
370
13
48
1
60
0
100
AcDbLine
10
106.5
20
24.99375
30
0
11
106.5
21
-24.746766
31
0
39
0
210
0
220
0
230
1
0
SOLID
5
29E
100
AcDbEntity
8
SK2
62
256
6
ByLayer
370
18
48
1
60
0
100
AcDbTrace
10
106.5
20
24.99375
30
0
11
106.917997
21
21.818752
31
0
12
106.082003
22
21.818748
32
0
13
106.082003
23
21.818748
33
0
39
0
210
0
220
0
230
1
0
SOLID
5
29F
100
AcDbEntity
8
SK2
62
256
6
ByLayer
370
18
48
1
60
0
100
AcDbTrace
10
106.5
20
-24.746766
30
0
11
106.082003
21
-21.571768
31
0
12
106.917997
22
-21.571764
32
0
13
106.917997
23
-21.571764
33
0
39
0
210
0
220
0
230
1
0
ENDBLK
5
2A1
100
AcDbEntity
8
0
100
AcDbBlockEnd
0
BLOCK
5
2A6
100
AcDbEntity
8
0
100
AcDbBlockBegin
2
*D11
70
1
10
0
20
0
30
0
3
*D11
0
LINE
5
2A8
100
AcDbEntity
8
0
62
256
6
ByLayer
370
-2
48
1
60
0
100
AcDbLine
10
-1.5
20
31.47
30
0
11
-60.5
21
31.47
31
0
39
0
210
0
220
0
230
1
0
LINE
5
2A9
100
AcDbEntity
8
0
62
256
6
ByLayer
370
-2
48
1
60
0
100
AcDbLine
10
-1.5
20
-31.47
30
0
11
-60.5
21
-31.47
31
0
39
0
210
0
220
0
230
1
0
LINE
5
2AA
100
AcDbEntity
8
0
62
256
6
ByLayer
370
-2
48
1
60
0
100
AcDbLine
10
-58.5
20
28.295
30
0
11
-58.5
21
-28.295
31
0
39
0
210
0
220
0
230
1
0
SOLID
5
2AB
100
AcDbEntity
8
0
62
256
6
ByLayer
370
-1
48
1
60
0
100
AcDbTrace
10
-57.970833
20
28.295
30
0
11
-59.029167
21
28.295
31
0
12
-58.5
22
31.47
32
0
13
-58.5
23
31.47
33
0
39
0
210
0
220
0
230
1
0
SOLID
5
2AC
100
AcDbEntity
8
0
62
256
6
ByLayer
370
-1
48
1
60
0
100
AcDbTrace
10
-59.029167
20
-28.295
30
0
11
-57.970833
21
-28.295
31
0
12
-58.5
22
-31.47
32
0
13
-58.5
23
-31.47
33
0
39
0
210
0
220
0
230
1
0
MTEXT
5
2AD
100
AcDbEntity
8
0
62
256
6
ByLayer
370
18
48
1
60
0
100
AcDbMText
10
-66
20
0
30
0
210
0
220
0
230
1
1
\A1;63
40
3
41
0
44
1
50
90
71
5
72
5
7
iso_b_vert
0
POINT
5
2AE
100
AcDbEntity
8
Defpoints
62
0
6
ByLayer
370
-1
48
1
60
0
100
AcDbPoint
10
0.5
20
31.47
30
0
39
0
210
0
220
0
230
1
50
360
0
POINT
5
2AF
100
AcDbEntity
8
Defpoints
62
0
6
ByLayer
370
-1
48
1
60
0
100
AcDbPoint
10
0.5
20
-31.47
30
0
39
0
210
0
220
0
230
1
50
360
0
POINT
5
2B0
100
AcDbEntity
8
Defpoints
62
0
6
ByLayer
370
-1
48
1
60
0
100
AcDbPoint
10
-58.5
20
-31.47
30
0
39
0
210
0
220
0
230
1
50
360
0
ENDBLK
5
2A7
100
AcDbEntity
8
0
100
AcDbBlockEnd
0
BLOCK
5
2B8
100
AcDbEntity
8
0
100
AcDbBlockBegin
2
_U5
70
0
10
0
20
0
30
0
3
_U5
0
MTEXT
5
2B2
100
AcDbEntity
8
SK2
62
256
6
ByLayer
370
18
48
1
60
0
100
AcDbMText
10
-59.091114
20
-4.016312
30
0
210
0
220
0
230
1
1
\W0.8066;%%c 63
40
3
41
0
44
1.084337
50
90
71
7
72
5
7
iso_b_vert
0
LINE
5
2B3
100
AcDbEntity
8
SK2
62
256
6
ByLayer
370
13
48
1
60
0
100
AcDbLine
10
-1.5
20
31.47
30
0
11
-60.5
21
31.47
31
0
39
0
210
0
220
0
230
1
0
LINE
5
2B4
100
AcDbEntity
8
SK2
62
256
6
ByLayer
370
13
48
1
60
0
100
AcDbLine
10
-1.5
20
-31.47
30
0
11
-60.5
21
-31.47
31
0
39
0
210
0
220
0
230
1
0
LINE
5
2B5
100
AcDbEntity
8
SK2
62
256
6
ByLayer
370
13
48
1
60
0
100
AcDbLine
10
-58.5
20
31.47
30
0
11
-58.5
21
-31.47
31
0
39
0
210
0
220
0
230
1
0
SOLID
5
2B6
100
AcDbEntity
8
SK2
62
256
6
ByLayer
370
18
48
1
60
0
100
AcDbTrace
10
-58.5
20
31.47
30
0
11
-58.082003
21
28.295002
31
0
12
-58.917997
22
28.294998
32
0
13
-58.917997
23
28.294998
33
0
39
0
210
0
220
0
230
1
0
SOLID
5
2B7
100
AcDbEntity
8
SK2
62
256
6
ByLayer
370
18
48
1
60
0
100
AcDbTrace
10
-58.5
20
-31.47
30
0
11
-58.917997
21
-28.295002
31
0
12
-58.082003
22
-28.294998
32
0
13
-58.082003
23
-28.294998
33
0
39
0
210
0
220
0
230
1
0
ENDBLK
5
2B9
100
AcDbEntity
8
0
100
AcDbBlockEnd
0
ENDSEC
0
SECTION
2
ENTITIES
0
ARC
5
142
100
AcDbEntity
8
SK2
62
256
6
ByLayer
370
13
48
0.05
60
0
100
AcDbCircle
39
0
10
113.6
20
10.720035
30
0
40
0.4
210
0
220
0
230
1
100
AcDbArc
50
0
51
120
0
ARC
5
143
100
AcDbEntity
8
SK2
62
256
6
ByLayer
370
13
48
0.05
60
0
100
AcDbCircle
39
0
10
108.8465
20
7.9756
30
0
40
0.4
210
0
220
0
230
1
100
AcDbArc
50
120
51
240
0
ARC
5
145
100
AcDbEntity
8
SK2
62
256
6
ByLayer
370
13
48
0.05
60
0
100
AcDbCircle
39
0
10
113.6
20
5.231165
30
0
40
0.4
210
0
220
0
230
1
100
AcDbArc
50
240
51
0
0
ARC
5
146
100
AcDbEntity
8
1
62
256
6
ByLayer
370
70
48
1
60
0
100
AcDbCircle
39
0
10
46
20
0
30
0
40
3.3095
210
0
220
0
230
1
100
AcDbArc
50
75
51
345
0
ARC
5
148
100
AcDbEntity
8
SK1
62
256
6
ByLayer
370
70
48
1
60
0
100
AcDbCircle
39
0
10
-27.2
20
22.245
30
0
40
1.40000000000001
210
0
220
0
230
1
100
AcDbArc
50
270
51
304.922922
0
ARC
5
149
100
AcDbEntity
8
SK1
62
256
6
ByLayer
370
70
48
1
60
0
100
AcDbCircle
39
0
10
-23.2
20
-22.245
30
0
40
1.4
210
0
220
0
230
1
100
AcDbArc
50
40.841223
51
90
0
ARC
5
14B
100
AcDbEntity
8
SK1
62
256
6
ByLayer
370
70
48
1
60
0
100
AcDbCircle
39
0
10
-0.45
20
24.570431
30
0
40
0.599999999999994
210
0
220
0
230
1
100
AcDbArc
50
270
51
318.590163
0
ARC
5
14C
100
AcDbEntity
8
SK1
62
256
6
ByLayer
370
70
48
1
60
0
100
AcDbCircle
39
0
10
-0.45
20
-24.570431
30
0
40
0.600000000000015
210
0
220
0
230
1
100
AcDbArc
50
41.409837
51
90
0
ARC
5
14D
100
AcDbEntity
8
1
62
256
6
ByLayer
370
70
48
1
60
0
100
AcDbCircle
39
0
10
27.188108
20
25.25
30
0
40
0.599999999999994
210
0
220
0
230
1
100
AcDbArc
50
270
51
285
0
ARC
5
14E
100
AcDbEntity
8
1
62
256
6
ByLayer
370
70
48
1
60
0
100
AcDbCircle
39
0
10
27.188108
20
-25.25
30
0
40
0.599999999999993
210
0
220
0
230
1
100
AcDbArc
50
75
51
90
0
ARC
5
14F
100
AcDbEntity
8
1
62
256
6
ByLayer
370
70
48
1
60
0
100
AcDbCircle
39
0
10
26.55
20
25.25
30
0
40
0.599999999999994
210
0
220
0
230
1
100
AcDbArc
50
180
51
270
0
ARC
5
150
100
AcDbEntity
8
1
62
256
6
ByLayer
370
70
48
1
60
0
100
AcDbCircle
39
0
10
26.55
20
-25.25
30
0
40
0.599999999999994
210
0
220
0
230
1
100
AcDbArc
50
90
51
180
0
CIRCLE
5
144
100
AcDbEntity
8
SK2
62
256
6
ByLayer
370
13
48
0.05
60
0
100
AcDbCircle
10
112.0155
20
7.9756
30
0
40
1.3
39
0
210
0
220
0
230
1
0
CIRCLE
5
147
100
AcDbEntity
8
1
62
256
6
ByLayer
370
70
48
1
60
0
100
AcDbCircle
10
46
20
0
30
0
40
3
39
0
210
0
220
0
230
1
0
CIRCLE
5
14A
100
AcDbEntity
8
1
62
256
6
ByLayer
370
70
48
1
60
0
100
AcDbCircle
10
46
20
0
30
0
40
4
39
0
210
0
220
0
230
1
0
ELLIPSE
5
151
100
AcDbEntity
8
1
62
256
6
ByLayer
370
70
48
1
60
0
100
AcDbEllipse
10
35.899996
20
-6.452575
30
0
11
0.750000000002042
21
0
31
0
210
0
220
0
230
1
40
0.96126
41
3.14159265358979
42
-2.08216796920519
0
ELLIPSE
5
152
100
AcDbEntity
8
1
62
256
6
ByLayer
370
70
48
1
60
0
100
AcDbEllipse
10
35.899996
20
-6.452575
30
0
11
-0.749995904044996
21
5.12618428464484E-05
31
0
210
0
220
0
230
1
40
0.961267
41
1.05949177301762
42
-3.14150527146864
0
ELLIPSE
5
153
100
AcDbEntity
8
1
62
256
6
ByLayer
370
70
48
1
60
0
100
AcDbEllipse
10
35.899996
20
-6.480135
30
0
11
0.750000000000003
21
0
31
0
210
0
220
0
230
1
40
0.96126
41
0
42
6.28318530717959
0
ELLIPSE
5
154
100
AcDbEntity
8
1
62
256
6
ByLayer
370
70
48
1
60
0
100
AcDbEllipse
10
35.899996
20
-6.358955
30
0
11
2.99999999963011
21
3.05929274527729E-05
31
0
210
0
220
0
230
1
40
0.96126
41
1.01974141560582E-05
42
0.137356761646131
0
ELLIPSE
5
155
100
AcDbEntity
8
1
62
256
6
ByLayer
370
70
48
1
60
0
100
AcDbEllipse
10
35.899996
20
-6.358955
30
0
11
2.99999441953525
21
0.000354326581174224
31
0
210
0
220
0
230
1
40
0.961261
41
2.97312465084496
42
3.14139605841519
0
ELLIPSE
5
156
100
AcDbEntity
8
1
62
256
6
ByLayer
370
70
48
1
60
0
100
AcDbEllipse
10
35.899996
20
-6.758625
30
0
11
2.49999999999999
21
0
31
0
210
0
220
0
230
1
40
0.96126
41
0
42
6.28318530717959
0
ELLIPSE
5
157
100
AcDbEntity
8
1
62
256
6
ByLayer
370
70
48
1
60
0
100
AcDbEllipse
10
35.899996
20
-6.758625
30
0
11
2.94999999999999
21
0
31
0
210
0
220
0
230
1
40
0.96126
41
0
42
6.28318530717959
0
ELLIPSE
5
158
100
AcDbEntity
8
1
62
256
6
ByLayer
370
70
48
1
60
0
100
AcDbEllipse
10
35.899996
20
-6.744845
30
0
11
3
21
0
31
0
210
0
220
0
230
1
40
0.96126
41
0
42
6.28318530717959
0
ELLIPSE
5
159
100
AcDbEntity
8
SK1
62
256
6
ByLayer
370
70
48
1
60
0
100
AcDbEllipse
10
-23.200004
20
-21.778505
30
0
11
1.39999689086928
21
6.10063380810665E-08
31
0
210
0
220
0
230
1
40
0.891014
41
1.10550740068649
42
1.57079716898675
0
ELLIPSE
5
15A
100
AcDbEntity
8
1
62
256
6
ByLayer
370
70
48
1
60
0
100
AcDbEllipse
10
35.899996
20
-6.345175
30
0
11
3.12499909569514
21
0.000118206186478926
31
0
210
0
220
0
230
1
40
0.96126
41
-3.08576995370682
42
-2.7721998032423
0
ELLIPSE
5
15B
100
AcDbEntity
8
1
62
256
6
ByLayer
370
70
48
1
60
0
100
AcDbEllipse
10
35.899996
20
-6.345175
30
0
11
3.12499716748859
21
0.000144955630404172
31
0
210
0
220
0
230
1
40
0.961265
41
-0.369481430999804
42
-0.0491372857142239
0
ELLIPSE
5
15C
100
AcDbEntity
8
1
62
256
6
ByLayer
370
70
48
1
60
0
100
AcDbEllipse
10
17.999996
20
-8.677455
30
0
11
1.7499984867877
21
2.61355577823825E-05
31
0
210
0
220
0
230
1
40
0.909958
41
-2.10969621766146
42
-1.02555223802636
0
ELLIPSE
5
15D
100
AcDbEntity
8
1
62
256
6
ByLayer
370
70
48
1
60
0
100
AcDbEllipse
10
17.999996
20
8.677455
30
0
11
1.7499999999546
21
0
31
0
210
0
220
0
230
1
40
0.90996
41
1.5707963267949
42
2.10889247413182
0
ELLIPSE
5
15E
100
AcDbEntity
8
1
62
256
6
ByLayer
370
70
48
1
60
0
100
AcDbEllipse
10
17.999996
20
8.677455
30
0
11
1.75000684253593
21
1.38296611695809E-05
31
0
210
0
220
0
230
1
40
0.909963
41
1.03327995913762
42
1.57078665829165
0
ELLIPSE
5
15F
100
AcDbEntity
8
1
62
256
6
ByLayer
370
70
48
1
60
0
100
AcDbEllipse
10
17.999996
20
-3.992675
30
0
11
-1.75000353715547
21
1.01651821330593E-05
31
0
210
0
220
0
230
1
40
0.981626
41
0.360994299279005
42
2.77167551310886
0
ELLIPSE
5
160
100
AcDbEntity
8
1
62
256
6
ByLayer
370
70
48
1
60
0
100
AcDbEllipse
10
17.999996
20
3.992675
30
0
11
1.74999999999818
21
0
31
0
210
0
220
0
230
1
40
0.98163
41
1.5707963267949
42
2.76803756667728
0
ELLIPSE
5
161
100
AcDbEntity
8
1
62
256
6
ByLayer
370
70
48
1
60
0
100
AcDbEllipse
10
17.999996
20
3.992675
30
0
11
-1.74999915100503
21
9.40323476524587E-05
31
0
210
0
220
0
230
1
40
0.981629
41
-2.76012919394124
42
-1.57074163243398
0
POINT
5
70
100
AcDbEntity
8
80
62
256
6
ByLayer
370
13
48
1
60
0
100
AcDbPoint
10
0
20
0
30
0
39
0
210
0
220
0
230
1
50
360
0
POINT
5
72
100
AcDbEntity
8
81
62
256
6
ByLayer
370
13
48
1
60
0
100
AcDbPoint
10
63
20
0
30
0
39
0
210
0
220
0
230
1
50
360
0
SPLINE
5
162
100
AcDbEntity
8
1
62
256
6
ByLayer
370
70
48
1
60
0
100
AcDbSpline
70
4
71
3
72
8
73
4
40
0
40
0
40
0
40
0
40
1
40
1
40
1
40
1
41
1
10
57.3450550517964
20
-21.4143312887907
30
0
41
1
10
56.6889354361442
20
-21.5607478409849
30
0
41
1
10
56.0328157962807
20
-21.7071642757223
30
0
41
1
10
55.3766961128807
20
-21.8535804992499
30
0
0
SPLINE
5
163
100
AcDbEntity
8
1
62
256
6
ByLayer
370
70
48
1
60
0
100
AcDbSpline
70
4
71
3
72
8
73
4
40
0
40
0
40
0
40
0
40
1
40
1
40
1
40
1
41
1
10
55.3766961128807
20
-21.8535804992499
30
0
41
1
10
55.3697947684619
20
-21.8536002238943
30
0
41
1
10
55.3628893514467
20
-21.8536002238943
30
0
41
1
10
55.355979875324
20
-21.8535804992499
30
0
0
SPLINE
5
164
100
AcDbEntity
8
1
62
256
6
ByLayer
370
70
48
1
60
0
100
AcDbSpline
70
4
71
3
72
8
73
4
40
0
40
0
40
0
40
0
40
1
40
1
40
1
40
1
41
1
10
57.3243388142398
20
-21.4143312887907
30
0
41
1
10
56.6682191985875
20
-21.5607478409849
30
0
41
1
10
56.012099558724
20
-21.7071642757223
30
0
41
1
10
55.355979875324
20
-21.8535804992499
30
0
0
SPLINE
5
165
100
AcDbEntity
8
1
62
256
6
ByLayer
370
70
48
1
60
0
100
AcDbSpline
70
4
71
3
72
10
73
6
40
0
40
0
40
0
40
0
40
0.876183133825518
40
0.876183133825518
40
1
40
1
40
1
40
1
41
1
10
56.8518319463418
20
-21.4143312887907
30
0
41
1
10
56.0338172802031
20
-21.60525837528
30
0
41
1
10
55.2158025764129
20
-21.7961852707221
30
0
41
1
10
54.2821909185148
20
-22.014092303853
30
0
41
1
10
54.1665940470366
20
-22.0410728608148
30
0
41
1
10
54.0509971735452
20
-22.0680534075613
30
0
0
SPLINE
5
166
100
AcDbEntity
8
1
62
256
6
ByLayer
370
70
48
1
60
0
100
AcDbSpline
70
4
71
3
72
8
73
4
40
0
40
0
40
0
40
0
40
1
40
1
40
1
40
1
41
1
10
54.0214099997652
20
-22.0680534075613
30
0
41
1
10
54.0312767188648
20
-22.068075387577
30
0
41
1
10
54.0411391180991
20
-22.068075387577
30
0
41
1
10
54.0509971735452
20
-22.0680534075613
30
0
0
SPLINE
5
167
100
AcDbEntity
8
1
62
256
6
ByLayer
370
70
48
1
60
0
100
AcDbSpline
70
4
71
3
72
10
73
6
40
0
40
0
40
0
40
0
40
0.876183133825518
40
0.876183133825518
40
1
40
1
40
1
40
1
41
1
10
56.8222447725619
20
-21.4143312887907
30
0
41
1
10
56.0042301064231
20
-21.60525837528
30
0
41
1
10
55.1862154026329
20
-21.7961852707221
30
0
41
1
10
54.2526037447348
20
-22.014092303853
30
0
41
1
10
54.1370068732566
20
-22.0410728608148
30
0
41
1
10
54.0214099997652
20
-22.0680534075613
30
0
0
SPLINE
5
168
100
AcDbEntity
8
1
62
256
6
ByLayer
370
70
48
1
60
0
100
AcDbSpline
70
4
71
3
72
8
73
4
40
0
40
0
40
0
40
0
40
1
40
1
40
1
40
1
41
1
10
56.1874689618631
20
-21.4143312887907
30
0
41
1
10
55.5988573031111
20
-21.5607478409849
30
0
41
1
10
55.0102456226389
20
-21.7071642757223
30
0
41
1
10
54.4216339031097
20
-21.8535804992499
30
0
0
SPLINE
5
169
100
AcDbEntity
8
1
62
256
6
ByLayer
370
70
48
1
60
0
100
AcDbSpline
70
4
71
3
72
8
73
4
40
0
40
0
40
0
40
0
40
1
40
1
40
1
40
1
41
1
10
54.4216339031097
20
-21.8535804992499
30
0
41
1
10
54.4089737205509
20
-21.8536002238944
30
0
41
1
10
54.3963098781056
20
-21.8536002238944
30
0
41
1
10
54.3836424005115
20
-21.8535804992499
30
0
0
SPLINE
5
16A
100
AcDbEntity
8
1
62
256
6
ByLayer
370
70
48
1
60
0
100
AcDbSpline
70
4
71
3
72
8
73
4
40
0
40
0
40
0
40
0
40
1
40
1
40
1
40
1
41
1
10
56.1494774592649
20
-21.4143312887907
30
0
41
1
10
55.5608658005129
20
-21.5607478409849
30
0
41
1
10
54.9722541200407
20
-21.7071642757223
30
0
41
1
10
54.3836424005115
20
-21.8535804992499
30
0
0
SPLINE
5
16B
100
AcDbEntity
8
1
62
256
6
ByLayer
370
70
48
1
60
0
100
AcDbSpline
70
4
71
3
72
8
73
4
40
0
40
0
40
0
40
0
40
1
40
1
40
1
40
1
41
1
10
55.3624434994967
20
-21.4143312887907
30
0
41
1
10
54.8218151205902
20
-21.5607478409849
30
0
41
1
10
54.281186721734
20
-21.7071642757223
30
0
41
1
10
53.7405582870047
20
-21.8535804992499
30
0
0
SPLINE
5
16C
100
AcDbEntity
8
1
62
256
6
ByLayer
370
70
48
1
60
0
100
AcDbSpline
70
4
71
3
72
8
73
4
40
0
40
0
40
0
40
0
40
1
40
1
40
1
40
1
41
1
10
53.7405582870047
20
-21.8535804992499
30
0
41
1
10
53.7252960812403
20
-21.8536002238944
30
0
41
1
10
53.7100305103919
20
-21.8536002238944
30
0
41
1
10
53.6947616042792
20
-21.8535804992499
30
0
0
SPLINE
5
16D
100
AcDbEntity
8
1
62
256
6
ByLayer
370
70
48
1
60
0
100
AcDbSpline
70
4
71
3
72
8
73
4
40
0
40
0
40
0
40
0
40
1
40
1
40
1
40
1
41
1
10
55.3166468167713
20
-21.4143312887907
30
0
41
1
10
54.7760184378647
20
-21.5607478409849
30
0
41
1
10
54.2353900390085
20
-21.7071642757223
30
0
41
1
10
53.6947616042792
20
-21.8535804992499
30
0
0
SPLINE
5
16E
100
AcDbEntity
8
1
62
256
6
ByLayer
370
70
48
1
60
0
100
AcDbSpline
70
4
71
3
72
8
73
4
40
0
40
0
40
0
40
0
40
1
40
1
40
1
40
1
41
1
10
54.3897667036305
20
-21.4143312887907
30
0
41
1
10
53.9056476370604
20
-21.5607478409849
30
0
41
1
10
53.421528552626
20
-21.7071642757223
30
0
41
1
10
52.9374094360681
20
-21.8535804992499
30
0
0
SPLINE
5
16F
100
AcDbEntity
8
1
62
256
6
ByLayer
370
70
48
1
60
0
100
AcDbSpline
70
4
71
3
72
8
73
4
40
0
40
0
40
0
40
0
40
1
40
1
40
1
40
1
41
1
10
52.9374094360681
20
-21.8535804992499
30
0
41
1
10
52.9197859012003
20
-21.8536002238944
30
0
41
1
10
52.9021593491202
20
-21.8536002238944
30
0
41
1
10
52.8845298142596
20
-21.8535804992499
30
0
0
SPLINE
5
170
100
AcDbEntity
8
1
62
256
6
ByLayer
370
70
48
1
60
0
100
AcDbSpline
70
4
71
3
72
8
73
4
40
0
40
0
40
0
40
0
40
1
40
1
40
1
40
1
41
1
10
54.336887081822
20
-21.4143312887907
30
0
41
1
10
53.8527680152519
20
-21.5607478409849
30
0
41
1
10
53.3686489308175
20
-21.7071642757223
30
0
41
1
10
52.8845298142596
20
-21.8535804992499
30
0
0
SPLINE
5
171
100
AcDbEntity
8
1
62
256
6
ByLayer
370
70
48
1
60
0
100
AcDbSpline
70
4
71
3
72
8
73
4
40
0
40
0
40
0
40
0
40
1
40
1
40
1
40
1
41
1
10
53.2847782683842
20
-21.4143312887907
30
0
41
1
10
52.8648033610292
20
-21.5607478409849
30
0
41
1
10
52.4448284381768
20
-21.7071642757223
30
0
41
1
10
52.0248534874571
20
-21.8535804992499
30
0
0
SPLINE
5
172
100
AcDbEntity
8
1
62
256
6
ByLayer
370
70
48
1
60
0
100
AcDbSpline
70
4
71
3
72
8
73
4
40
0
40
0
40
0
40
0
40
1
40
1
40
1
40
1
41
1
10
52.0248534874571
20
-21.8535804992499
30
0
41
1
10
52.0051465571585
20
-21.8536002238944
30
0
41
1
10
51.9854370051027
20
-21.8536002238944
30
0
41
1
10
51.9657248697902
20
-21.8535804992499
30
0
0
SPLINE
5
173
100
AcDbEntity
8
1
62
256
6
ByLayer
370
70
48
1
60
0
100
AcDbSpline
70
4
71
3
72
8
73
4
40
0
40
0
40
0
40
0
40
1
40
1
40
1
40
1
41
1
10
53.2256496507174
20
-21.4143312887907
30
0
41
1
10
52.8056747433623
20
-21.5607478409849
30
0
41
1
10
52.3856998205099
20
-21.7071642757223
30
0
41
1
10
51.9657248697902
20
-21.8535804992499
30
0
0
SPLINE
5
174
100
AcDbEntity
8
1
62
256
6
ByLayer
370
70
48
1
60
0
100
AcDbSpline
70
4
71
3
72
8
73
4
40
0
40
0
40
0
40
0
40
1
40
1
40
1
40
1
41
1
10
52.0649045214699
20
-21.4143312887907
30
0
41
1
10
51.5451885847649
20
-21.6322390287579
30
0
41
1
10
51.0254726218262
20
-21.8501465296042
30
0
41
1
10
50.5057565905516
20
-22.0680534075613
30
0
0
SPLINE
5
175
100
AcDbEntity
8
1
62
256
6
ByLayer
370
70
48
1
60
0
100
AcDbSpline
70
4
71
3
72
8
73
4
40
0
40
0
40
0
40
0
40
1
40
1
40
1
40
1
41
1
10
50.4413114706486
20
-22.0680534075613
30
0
41
1
10
50.4627955800076
20
-22.068075387577
30
0
41
1
10
50.484277304011
20
-22.068075387577
30
0
41
1
10
50.5057565905516
20
-22.0680534075613
30
0
0
SPLINE
5
176
100
AcDbEntity
8
1
62
256
6
ByLayer
370
70
48
1
60
0
100
AcDbSpline
70
4
71
3
72
8
73
4
40
0
40
0
40
0
40
0
40
1
40
1
40
1
40
1
41
1
10
52.000459401567
20
-21.4143312887907
30
0
41
1
10
51.480743464862
20
-21.6322390287579
30
0
41
1
10
50.9610275019233
20
-21.8501465296042
30
0
41
1
10
50.4413114706486
20
-22.0680534075613
30
0
0
SPLINE
5
177
100
AcDbEntity
8
1
62
256
6
ByLayer
370
70
48
1
60
0
100
AcDbSpline
70
4
71
3
72
8
73
4
40
0
40
0
40
0
40
0
40
1
40
1
40
1
40
1
41
1
10
50.7493836005935
20
-21.4143312887907
30
0
41
1
10
50.4764507327788
20
-21.5607478409849
30
0
41
1
10
50.2035178548926
20
-21.7071642757223
30
0
41
1
10
49.9305849588961
20
-21.8535804992499
30
0
0
SPLINE
5
178
100
AcDbEntity
8
1
62
256
6
ByLayer
370
70
48
1
60
0
100
AcDbSpline
70
4
71
3
72
8
73
4
40
0
40
0
40
0
40
0
40
1
40
1
40
1
40
1
41
1
10
49.9305849588961
20
-21.8535804992499
30
0
41
1
10
49.9076715629709
20
-21.8536002238944
30
0
41
1
10
49.88475645335
20
-21.8536002238944
30
0
41
1
10
49.8618396747957
20
-21.8535804992499
30
0
0
SPLINE
5
179
100
AcDbEntity
8
1
62
256
6
ByLayer
370
70
48
1
60
0
100
AcDbSpline
70
4
71
3
72
8
73
4
40
0
40
0
40
0
40
0
40
1
40
1
40
1
40
1
41
1
10
50.680638316493
20
-21.4143312887907
30
0
41
1
10
50.4077054486783
20
-21.5607478409849
30
0
41
1
10
50.1347725707921
20
-21.7071642757223
30
0
41
1
10
49.8618396747957
20
-21.8535804992499
30
0
0
SPLINE
5
17A
100
AcDbEntity
8
1
62
256
6
ByLayer
370
70
48
1
60
0
100
AcDbSpline
70
4
71
3
72
8
73
4
40
0
40
0
40
0
40
0
40
1
40
1
40
1
40
1
41
1
10
49.3589620565314
20
-21.4143312887907
30
0
41
1
10
49.1666081282398
20
-21.5607478409849
30
0
41
1
10
48.9742541928501
20
-21.7071642757223
30
0
41
1
10
48.7819002446969
20
-21.8535804992499
30
0
0
SPLINE
5
17B
100
AcDbEntity
8
1
62
256
6
ByLayer
370
70
48
1
60
0
100
AcDbSpline
70
4
71
3
72
8
73
4
40
0
40
0
40
0
40
0
40
1
40
1
40
1
40
1
41
1
10
48.7819002446969
20
-21.8535804992499
30
0
41
1
10
48.7579143464543
20
-21.8536002238944
30
0
41
1
10
48.7339272328017
20
-21.8536002238944
30
0
41
1
10
48.7099389505956
20
-21.8535804992499
30
0
0
SPLINE
5
17C
100
AcDbEntity
8
1
62
256
6
ByLayer
370
70
48
1
60
0
100
AcDbSpline
70
4
71
3
72
8
73
4
40
0
40
0
40
0
40
0
40
1
40
1
40
1
40
1
41
1
10
49.2870007624301
20
-21.4143312887907
30
0
41
1
10
49.0946468341385
20
-21.5607478409849
30
0
41
1
10
48.9022928987488
20
-21.7071642757223
30
0
41
1
10
48.7099389505956
20
-21.8535804992499
30
0
0
SPLINE
5
17D
100
AcDbEntity
8
1
62
256
6
ByLayer
370
70
48
1
60
0
100
AcDbSpline
70
4
71
3
72
8
73
4
40
0
40
0
40
0
40
0
40
1
40
1
40
1
40
1
41
1
10
47.915567667631
20
-21.4143312887907
30
0
41
1
10
47.8068262152183
20
-21.5607478409849
30
0
41
1
10
47.6980847587929
20
-21.7071642757223
30
0
41
1
10
47.589343295152
20
-21.8535804992499
30
0
0
SPLINE
5
17E
100
AcDbEntity
8
1
62
256
6
ByLayer
370
70
48
1
60
0
100
AcDbSpline
70
4
71
3
72
8
73
4
40
0
40
0
40
0
40
0
40
1
40
1
40
1
40
1
41
1
10
47.589343295152
20
-21.8535804992499
30
0
41
1
10
47.5646631665358
20
-21.8536002238944
30
0
41
1
10
47.5399823399631
20
-21.8536002238944
30
0
41
1
10
47.5153008636455
20
-21.8535804992499
30
0
0
SPLINE
5
17F
100
AcDbEntity
8
1
62
256
6
ByLayer
370
70
48
1
60
0
100
AcDbSpline
70
4
71
3
72
8
73
4
40
0
40
0
40
0
40
0
40
1
40
1
40
1
40
1
41
1
10
47.8415252361245
20
-21.4143312887907
30
0
41
1
10
47.7327837837117
20
-21.5607478409849
30
0
41
1
10
47.6240423272863
20
-21.7071642757223
30
0
41
1
10
47.5153008636455
20
-21.8535804992499
30
0
0
SPLINE
5
180
100
AcDbEntity
8
1
62
256
6
ByLayer
370
70
48
1
60
0
100
AcDbSpline
70
4
71
3
72
8
73
4
40
0
40
0
40
0
40
0
40
1
40
1
40
1
40
1
41
1
10
46.4419636256474
20
-21.4143312887907
30
0
41
1
10
46.4185495667771
20
-21.5607478409849
30
0
41
1
10
46.3951355070427
20
-21.7071642757223
30
0
41
1
10
46.3717214457548
20
-21.8535804992499
30
0
0
SPLINE
5
181
100
AcDbEntity
8
1
62
256
6
ByLayer
370
70
48
1
60
0
100
AcDbSpline
70
4
71
3
72
8
73
4
40
0
40
0
40
0
40
0
40
1
40
1
40
1
40
1
41
1
10
46.3717214457548
20
-21.8535804992499
30
0
41
1
10
46.3467363071364
20
-21.8536002238944
30
0
41
1
10
46.3217509990223
20
-21.8536002238944
30
0
41
1
10
46.2967655702187
20
-21.8535804992499
30
0
0
SPLINE
5
182
100
AcDbEntity
8
1
62
256
6
ByLayer
370
70
48
1
60
0
100
AcDbSpline
70
4
71
3
72
8
73
4
40
0
40
0
40
0
40
0
40
1
40
1
40
1
40
1
41
1
10
46.3670077501113
20
-21.4143312887907
30
0
41
1
10
46.3435936912409
20
-21.5607478409849
30
0
41
1
10
46.3201796315066
20
-21.7071642757223
30
0
41
1
10
46.2967655702187
20
-21.8535804992499
30
0
0
SPLINE
5
183
100
AcDbEntity
8
1
62
256
6
ByLayer
370
70
48
1
60
0
100
AcDbSpline
70
4
71
3
72
8
73
4
40
0
40
0
40
0
40
0
40
1
40
1
40
1
40
1
41
1
10
44.9613895466109
20
-21.4143312887907
30
0
41
1
10
45.0540830151229
20
-21.6322390287579
30
0
41
1
10
45.1467764883137
20
-21.8501465296042
30
0
41
1
10
45.2394699736926
20
-22.0680534075613
30
0
0
SPLINE
5
184
100
AcDbEntity
8
1
62
256
6
ByLayer
370
70
48
1
60
0
100
AcDbSpline
70
4
71
3
72
8
73
4
40
0
40
0
40
0
40
0
40
1
40
1
40
1
40
1
41
1
10
45.1647827530605
20
-22.0680534075613
30
0
41
1
10
45.1896780531217
20
-22.068075387577
30
0
41
1
10
45.2145738134619
20
-22.068075387577
30
0
41
1
10
45.2394699736926
20
-22.0680534075613
30
0
0
SPLINE
5
185
100
AcDbEntity
8
1
62
256
6
ByLayer
370
70
48
1
60
0
100
AcDbSpline
70
4
71
3
72
8
73
4
40
0
40
0
40
0
40
0
40
1
40
1
40
1
40
1
41
1
10
44.8867023259788
20
-21.4143312887907
30
0
41
1
10
44.9793957944908
20
-21.6322390287579
30
0
41
1
10
45.0720892676817
20
-21.8501465296042
30
0
41
1
10
45.1647827530605
20
-22.0680534075613
30
0
0
SPLINE
5
186
100
AcDbEntity
8
1
62
256
6
ByLayer
370
70
48
1
60
0
100
AcDbSpline
70
4
71
3
72
8
73
4
40
0
40
0
40
0
40
0
40
1
40
1
40
1
40
1
41
1
10
43.4971949682
20
-21.4143312887907
30
0
41
1
10
43.6441919701808
20
-21.5607478409849
30
0
41
1
10
43.7911889775858
20
-21.7071642757223
30
0
41
1
10
43.9381859947448
20
-21.8535804992499
30
0
0
SPLINE
5
187
100
AcDbEntity
8
1
62
256
6
ByLayer
370
70
48
1
60
0
100
AcDbSpline
70
4
71
3
72
8
73
4
40
0
40
0
40
0
40
0
40
1
40
1
40
1
40
1
41
1
10
43.9381859947448
20
-21.8535804992499
30
0
41
1
10
43.9137715238989
20
-21.8536002238944
30
0
41
1
10
43.8893579401216
20
-21.8536002238944
30
0
41
1
10
43.8649452911022
20
-21.8535804992499
30
0
0
SPLINE
5
188
100
AcDbEntity
8
1
62
256
6
ByLayer
370
70
48
1
60
0
100
AcDbSpline
70
4
71
3
72
8
73
4
40
0
40
0
40
0
40
0
40
1
40
1
40
1
40
1
41
1
10
43.4239542645574
20
-21.4143312887907
30
0
41
1
10
43.5709512665382
20
-21.5607478409849
30
0
41
1
10
43.7179482739432
20
-21.7071642757223
30
0
41
1
10
43.8649452911022
20
-21.8535804992499
30
0
0
SPLINE
5
189
100
AcDbEntity
8
1
62
256
6
ByLayer
370
70
48
1
60
0
100
AcDbSpline
70
4
71
3
72
8
73
4
40
0
40
0
40
0
40
0
40
1
40
1
40
1
40
1
41
1
10
42.0724711135839
20
-21.4143312887907
30
0
41
1
10
42.301864298645
20
-21.5607478409849
30
0
41
1
10
42.5312574921708
20
-21.7071642757223
30
0
41
1
10
42.760650700918
20
-21.8535804992499
30
0
0
SPLINE
5
18A
100
AcDbEntity
8
1
62
256
6
ByLayer
370
70
48
1
60
0
100
AcDbSpline
70
4
71
3
72
8
73
4
40
0
40
0
40
0
40
0
40
1
40
1
40
1
40
1
41
1
10
42.760650700918
20
-21.8535804992499
30
0
41
1
10
42.7371029080751
20
-21.8536002238944
30
0
41
1
10
42.7135565137417
20
-21.8536002238944
30
0
41
1
10
42.6900115639131
20
-21.8535804992499
30
0
0
SPLINE
5
18B
100
AcDbEntity
8
1
62
256
6
ByLayer
370
70
48
1
60
0
100
AcDbSpline
70
4
71
3
72
8
73
4
40
0
40
0
40
0
40
0
40
1
40
1
40
1
40
1
41
1
10
42.001831976579
20
-21.4143312887907
30
0
41
1
10
42.2312251616401
20
-21.5607478409849
30
0
41
1
10
42.460618355166
20
-21.7071642757223
30
0
41
1
10
42.6900115639131
20
-21.8535804992499
30
0
0
SPLINE
5
18C
100
AcDbEntity
8
1
62
256
6
ByLayer
370
70
48
1
60
0
100
AcDbSpline
70
4
71
3
72
8
73
4
40
0
40
0
40
0
40
0
40
1
40
1
40
1
40
1
41
1
10
40.7096867290384
20
-21.4143312887907
30
0
41
1
10
41.0178584296186
20
-21.5607478409849
30
0
41
1
10
41.3260301415705
20
-21.7071642757223
30
0
41
1
10
41.6342018739711
20
-21.8535804992499
30
0
0
SPLINE
5
18D
100
AcDbEntity
8
1
62
256
6
ByLayer
370
70
48
1
60
0
100
AcDbSpline
70
4
71
3
72
8
73
4
40
0
40
0
40
0
40
0
40
1
40
1
40
1
40
1
41
1
10
41.6342018739711
20
-21.8535804992499
30
0
41
1
10
41.6118921218911
20
-21.8536002238944
30
0
41
1
10
41.5895842577061
20
-21.8536002238944
30
0
41
1
10
41.5672783249923
20
-21.8535804992499
30
0
0
SPLINE
5
18E
100
AcDbEntity
8
1
62
256
6
ByLayer
370
70
48
1
60
0
100
AcDbSpline
70
4
71
3
72
8
73
4
40
0
40
0
40
0
40
0
40
1
40
1
40
1
40
1
41
1
10
40.6427631800596
20
-21.4143312887907
30
0
41
1
10
40.9509348806398
20
-21.5607478409849
30
0
41
1
10
41.2591065925918
20
-21.7071642757223
30
0
41
1
10
41.5672783249923
20
-21.8535804992499
30
0
0
SPLINE
5
18F
100
AcDbEntity
8
1
62
256
6
ByLayer
370
70
48
1
60
0
100
AcDbSpline
70
4
71
3
72
8
73
4
40
0
40
0
40
0
40
0
40
1
40
1
40
1
40
1
41
1
10
39.4303337383958
20
-21.4143312887907
30
0
41
1
10
39.8124239026841
20
-21.5607478409849
30
0
41
1
10
40.1945140810718
20
-21.7071642757223
30
0
41
1
10
40.5766042848129
20
-21.8535804992499
30
0
0
SPLINE
5
190
100
AcDbEntity
8
1
62
256
6
ByLayer
370
70
48
1
60
0
100
AcDbSpline
70
4
71
3
72
8
73
4
40
0
40
0
40
0
40
0
40
1
40
1
40
1
40
1
41
1
10
40.5766042848129
20
-21.8535804992499
30
0
41
1
10
40.5558844116134
20
-21.8536002238944
30
0
41
1
10
40.5351668859212
20
-21.8536002238944
30
0
41
1
10
40.5144517482058
20
-21.8535804992499
30
0
0
SPLINE
5
191
100
AcDbEntity
8
1
62
256
6
ByLayer
370
70
48
1
60
0
100
AcDbSpline
70
4
71
3
72
8
73
4
40
0
40
0
40
0
40
0
40
1
40
1
40
1
40
1
41
1
10
39.3681812017887
20
-21.4143312887907
30
0
41
1
10
39.750271366077
20
-21.5607478409849
30
0
41
1
10
40.1323615444648
20
-21.7071642757223
30
0
41
1
10
40.5144517482058
20
-21.8535804992499
30
0
0
SPLINE
5
192
100
AcDbEntity
8
1
62
256
6
ByLayer
370
70
48
1
60
0
100
AcDbSpline
70
4
71
3
72
8
73
4
40
0
40
0
40
0
40
0
40
1
40
1
40
1
40
1
41
1
10
38.2545883025671
20
-21.4143312887907
30
0
41
1
10
38.9242854218595
20
-21.6322390287579
30
0
41
1
10
39.5939825749563
20
-21.8501465296042
30
0
41
1
10
40.2636798161096
20
-22.0680534075613
30
0
0
SPLINE
5
193
100
AcDbEntity
8
1
62
256
6
ByLayer
370
70
48
1
60
0
100
AcDbSpline
70
4
71
3
72
8
73
4
40
0
40
0
40
0
40
0
40
1
40
1
40
1
40
1
41
1
10
40.2072784745047
20
-22.0680534075613
30
0
41
1
10
40.2260758068049
20
-22.068075387577
30
0
41
1
10
40.2448762692077
20
-22.068075387577
30
0
41
1
10
40.2636798161096
20
-22.0680534075613
30
0
0
SPLINE
5
194
100
AcDbEntity
8
1
62
256
6
ByLayer
370
70
48
1
60
0
100
AcDbSpline
70
4
71
3
72
8
73
4
40
0
40
0
40
0
40
0
40
1
40
1
40
1
40
1
41
1
10
38.1981869609621
20
-21.4143312887907
30
0
41
1
10
38.8678840802545
20
-21.6322390287579
30
0
41
1
10
39.5375812333513
20
-21.8501465296042
30
0
41
1
10
40.2072784745047
20
-22.0680534075613
30
0
0
SPLINE
5
195
100
AcDbEntity
8
1
62
256
6
ByLayer
370
70
48
1
60
0
100
AcDbSpline
70
4
71
3
72
8
73
4
40
0
40
0
40
0
40
0
40
1
40
1
40
1
40
1
41
1
10
37.2009926294314
20
-21.4143312887907
30
0
41
1
10
37.7117716426953
20
-21.5607478409849
30
0
41
1
10
38.2225506748074
20
-21.7071642757223
30
0
41
1
10
38.7333297408119
20
-21.8535804992499
30
0
0
SPLINE
5
196
100
AcDbEntity
8
1
62
256
6
ByLayer
370
70
48
1
60
0
100
AcDbSpline
70
4
71
3
72
8
73
4
40
0
40
0
40
0
40
0
40
1
40
1
40
1
40
1
41
1
10
38.7333297408119
20
-21.8535804992499
30
0
41
1
10
38.7167396930912
20
-21.8536002238944
30
0
41
1
10
38.7001527943731
20
-21.8536002238944
30
0
41
1
10
38.6835690770587
20
-21.8535804992499
30
0
0
SPLINE
5
197
100
AcDbEntity
8
1
62
256
6
ByLayer
370
70
48
1
60
0
100
AcDbSpline
70
4
71
3
72
8
73
4
40
0
40
0
40
0
40
0
40
1
40
1
40
1
40
1
41
1
10
37.1512319656782
20
-21.4143312887907
30
0
41
1
10
37.6620109789421
20
-21.5607478409849
30
0
41
1
10
38.1727900110541
20
-21.7071642757223
30
0
41
1
10
38.6835690770587
20
-21.8535804992499
30
0
0
SPLINE
5
198
100
AcDbEntity
8
1
62
256
6
ByLayer
370
70
48
1
60
0
100
AcDbSpline
70
4
71
3
72
8
73
4
40
0
40
0
40
0
40
0
40
1
40
1
40
1
40
1
41
1
10
36.2861625521417
20
-21.4143312887907
30
0
41
1
10
36.8496824506498
20
-21.5607478409849
30
0
41
1
10
37.4132023699523
20
-21.7071642757223
30
0
41
1
10
37.9767223266468
20
-21.8535804992499
30
0
0
SPLINE
5
199
100
AcDbEntity
8
1
62
256
6
ByLayer
370
70
48
1
60
0
100
AcDbSpline
70
4
71
3
72
8
73
4
40
0
40
0
40
0
40
0
40
1
40
1
40
1
40
1
41
1
10
37.9767223266468
20
-21.8535804992499
30
0
41
1
10
37.9626070957096
20
-21.8536002238944
30
0
41
1
10
37.9484953430181
20
-21.8536002238944
30
0
41
1
10
37.9343870961383
20
-21.8535804992499
30
0
0
SPLINE
5
19A
100
AcDbEntity
8
1
62
256
6
ByLayer
370
70
48
1
60
0
100
AcDbSpline
70
4
71
3
72
8
73
4
40
0
40
0
40
0
40
0
40
1
40
1
40
1
40
1
41
1
10
36.2438273216332
20
-21.4143312887907
30
0
41
1
10
36.8073472201413
20
-21.5607478409849
30
0
41
1
10
37.3708671394438
20
-21.7071642757223
30
0
41
1
10
37.9343870961383
20
-21.8535804992499
30
0
0
SPLINE
5
19B
100
AcDbEntity
8
1
62
256
6
ByLayer
370
70
48
1
60
0
100
AcDbSpline
70
4
71
3
72
8
73
4
40
0
40
0
40
0
40
0
40
1
40
1
40
1
40
1
41
1
10
35.5245254875099
20
-21.4143312887907
30
0
41
1
10
36.1318992258323
20
-21.5607478409849
30
0
41
1
10
36.7392729865672
20
-21.7071642757223
30
0
41
1
10
37.3466467876041
20
-21.8535804992499
30
0
0
SPLINE
5
19C
100
AcDbEntity
8
1
62
256
6
ByLayer
370
70
48
1
60
0
100
AcDbSpline
70
4
71
3
72
8
73
4
40
0
40
0
40
0
40
0
40
1
40
1
40
1
40
1
41
1
10
37.3466467876041
20
-21.8535804992499
30
0
41
1
10
37.3352289790744
20
-21.8536002238944
30
0
41
1
10
37.3238149231794
20
-21.8536002238944
30
0
41
1
10
37.3124046422152
20
-21.8535804992499
30
0
0
SPLINE
5
19D
100
AcDbEntity
8
1
62
256
6
ByLayer
370
70
48
1
60
0
100
AcDbSpline
70
4
71
3
72
8
73
4
40
0
40
0
40
0
40
0
40
1
40
1
40
1
40
1
41
1
10
35.4902833421211
20
-21.4143312887907
30
0
41
1
10
36.0976570804434
20
-21.5607478409849
30
0
41
1
10
36.7050308411784
20
-21.7071642757223
30
0
41
1
10
37.3124046422152
20
-21.8535804992499
30
0
0
SPLINE
5
19E
100
AcDbEntity
8
1
62
256
6
ByLayer
370
70
48
1
60
0
100
AcDbSpline
70
4
71
3
72
8
73
4
40
0
40
0
40
0
40
0
40
1
40
1
40
1
40
1
41
1
10
34.9280929070251
20
-21.4143312887907
30
0
41
1
10
35.5697418384809
20
-21.5607478409849
30
0
41
1
10
36.2113907936141
20
-21.7071642757223
30
0
41
1
10
36.8530397913235
20
-21.8535804992499
30
0
0
SPLINE
5
19F
100
AcDbEntity
8
1
62
256
6
ByLayer
370
70
48
1
60
0
100
AcDbSpline
70
4
71
3
72
8
73
4
40
0
40
0
40
0
40
0
40
1
40
1
40
1
40
1
41
1
10
36.8530397913235
20
-21.8535804992499
30
0
41
1
10
36.8444994708624
20
-21.8536002238944
30
0
41
1
10
36.8359631182437
20
-21.8536002238944
30
0
41
1
10
36.8274307501423
20
-21.8535804992499
30
0
0
SPLINE
5
1A0
100
AcDbEntity
8
1
62
256
6
ByLayer
370
70
48
1
60
0
100
AcDbSpline
70
4
71
3
72
8
73
4
40
0
40
0
40
0
40
0
40
1
40
1
40
1
40
1
41
1
10
34.902483865844
20
-21.4143312887907
30
0
41
1
10
35.5441327972997
20
-21.5607478409849
30
0
41
1
10
36.1857817524329
20
-21.7071642757223
30
0
41
1
10
36.8274307501423
20
-21.8535804992499
30
0
0
SPLINE
5
1A1
100
AcDbEntity
8
1
62
256
6
ByLayer
370
70
48
1
60
0
100
AcDbSpline
70
4
71
3
72
8
73
4
40
0
40
0
40
0
40
0
40
1
40
1
40
1
40
1
41
1
10
34.5062709087731
20
-21.4143312887907
30
0
41
1
10
35.4971701414442
20
-21.6322390287579
30
0
41
1
10
36.488069424133
20
-21.8501465296042
30
0
41
1
10
37.4789688371123
20
-22.0680534075613
30
0
0
SPLINE
5
1A2
100
AcDbEntity
8
1
62
256
6
ByLayer
370
70
48
1
60
0
100
AcDbSpline
70
4
71
3
72
8
73
4
40
0
40
0
40
0
40
0
40
1
40
1
40
1
40
1
41
1
10
37.4623967700164
20
-22.0680534075613
30
0
41
1
10
37.4679161925148
20
-22.068075387577
30
0
41
1
10
37.4734402193465
20
-22.068075387577
30
0
41
1
10
37.4789688371123
20
-22.0680534075613
30
0
0
SPLINE
5
1A3
100
AcDbEntity
8
1
62
256
6
ByLayer
370
70
48
1
60
0
100
AcDbSpline
70
4
71
3
72
8
73
4
40
0
40
0
40
0
40
0
40
1
40
1
40
1
40
1
41
1
10
34.4896988416772
20
-21.4143312887907
30
0
41
1
10
35.4805980743483
20
-21.6322390287579
30
0
41
1
10
36.4714973570371
20
-21.8501465296042
30
0
41
1
10
37.4623967700164
20
-22.0680534075613
30
0
0
SPLINE
5
1A4
100
AcDbEntity
8
1
62
256
6
ByLayer
370
70
48
1
60
0
100
AcDbSpline
70
4
71
3
72
8
73
4
40
0
40
0
40
0
40
0
40
1
40
1
40
1
40
1
41
1
10
34.2657118776506
20
-21.4143312887907
30
0
41
1
10
34.945172679871
20
-21.5607478409849
30
0
41
1
10
35.6246335071641
20
-21.7071642757223
30
0
41
1
10
36.3040943795424
20
-21.8535804992499
30
0
0
SPLINE
5
1A5
100
AcDbEntity
8
1
62
256
6
ByLayer
370
70
48
1
60
0
100
AcDbSpline
70
4
71
3
72
8
73
4
40
0
40
0
40
0
40
0
40
1
40
1
40
1
40
1
41
1
10
36.3040943795424
20
-21.8535804992499
30
0
41
1
10
36.3016655893011
20
-21.8536002238944
30
0
41
1
10
36.2992410071847
20
-21.8536002238944
30
0
41
1
10
36.2968206379295
20
-21.8535804992499
30
0
0
SPLINE
5
1A6
100
AcDbEntity
8
1
62
256
6
ByLayer
370
70
48
1
60
0
100
AcDbSpline
70
4
71
3
72
8
73
4
40
0
40
0
40
0
40
0
40
1
40
1
40
1
40
1
41
1
10
34.2584381360377
20
-21.4143312887907
30
0
41
1
10
34.9378989382582
20
-21.5607478409849
30
0
41
1
10
35.6173597655512
20
-21.7071642757223
30
0
41
1
10
36.2968206379295
20
-21.8535804992499
30
0
0
SPLINE
5
1A7
100
AcDbEntity
8
1
62
256
6
ByLayer
370
70
48
1
60
0
100
AcDbSpline
70
4
71
3
72
8
73
4
40
0
40
0
40
0
40
0
40
1
40
1
40
1
40
1
41
1
10
57.7897895820963
20
-21.4143312887907
30
0
41
1
10
57.1073884180344
20
-21.5607478409849
30
0
41
1
10
56.4249872287913
20
-21.7071642757223
30
0
41
1
10
55.7425859942679
20
-21.8535804992499
30
0
0
SPLINE
5
1A8
100
AcDbEntity
8
1
62
256
6
ByLayer
370
70
48
1
60
0
100
AcDbSpline
70
4
71
3
72
8
73
4
40
0
40
0
40
0
40
0
40
1
40
1
40
1
40
1
41
1
10
55.7425859942679
20
-21.8535804992499
30
0
41
1
10
55.7418771248405
20
-21.8536002238943
30
0
41
1
10
55.7411640260026
20
-21.8536002238943
30
0
41
1
10
55.7404466991474
20
-21.8535804992499
30
0
0
SPLINE
5
1A9
100
AcDbEntity
8
1
62
256
6
ByLayer
370
70
48
1
60
0
100
AcDbSpline
70
4
71
3
72
8
73
4
40
0
40
0
40
0
40
0
40
1
40
1
40
1
40
1
41
1
10
57.7876502869758
20
-21.4143312887907
30
0
41
1
10
57.1052491229139
20
-21.5607478409849
30
0
41
1
10
56.4228479336708
20
-21.7071642757223
30
0
41
1
10
55.7404466991474
20
-21.8535804992499
30
0
0
SPLINE
5
1AA
100
AcDbEntity
8
1
62
256
6
ByLayer
370
70
48
1
60
0
100
AcDbSpline
70
4
71
3
72
8
73
4
40
0
40
0
40
0
40
0
40
1
40
1
40
1
40
1
41
1
10
57.6593598552168
20
-21.4143312887907
30
0
41
1
10
56.9847802033173
20
-21.5607478409849
30
0
41
1
10
56.3102005265253
20
-21.7071642757223
30
0
41
1
10
55.635620804972
20
-21.8535804992499
30
0
0
SPLINE
5
1AB
100
AcDbEntity
8
1
62
256
6
ByLayer
370
70
48
1
60
0
100
AcDbSpline
70
4
71
3
72
8
73
4
40
0
40
0
40
0
40
0
40
1
40
1
40
1
40
1
41
1
10
55.635620804972
20
-21.8535804992499
30
0
41
1
10
55.6317854551701
20
-21.8536002238943
30
0
41
1
10
55.6279459213728
20
-21.8536002238943
30
0
41
1
10
55.6241022110801
20
-21.8535804992499
30
0
0
SPLINE
5
1AC
100
AcDbEntity
8
1
62
256
6
ByLayer
370
70
48
1
60
0
100
AcDbSpline
70
4
71
3
72
8
73
4
40
0
40
0
40
0
40
0
40
1
40
1
40
1
40
1
41
1
10
57.6478412613249
20
-21.4143312887907
30
0
41
1
10
56.9732616094254
20
-21.5607478409849
30
0
41
1
10
56.2986819326334
20
-21.7071642757223
30
0
41
1
10
55.6241022110801
20
-21.8535804992499
30
0
0
SPLINE
5
1AD
100
AcDbEntity
8
1
62
256
6
ByLayer
370
70
48
1
60
0
100
AcDbSpline
70
4
71
3
72
8
73
4
40
0
40
0
40
0
40
0
40
1
40
1
40
1
40
1
41
1
10
57.382855869644
20
-21.3750005149481
30
0
41
1
10
57.3702555971337
20
-21.3881107730054
30
0
41
1
10
57.3576553245181
20
-21.4012210309533
30
0
41
1
10
57.3450550517965
20
-21.4143312887907
30
0
0
SPLINE
5
1AE
100
AcDbEntity
8
1
62
256
6
ByLayer
370
70
48
1
60
0
100
AcDbSpline
70
4
71
3
72
8
73
4
40
0
40
0
40
0
40
0
40
1
40
1
40
1
40
1
41
1
10
57.6867054104559
20
-21.3750007184754
30
0
41
1
10
57.6737506941874
20
-21.3881109086903
30
0
41
1
10
57.6607959778107
20
-21.4012210987958
30
0
41
1
10
57.6478412613249
20
-21.4143312887907
30
0
0
SPLINE
5
1AF
100
AcDbEntity
8
1
62
256
6
ByLayer
370
70
48
1
60
0
100
AcDbSpline
70
4
71
3
72
8
73
4
40
0
40
0
40
0
40
0
40
1
40
1
40
1
40
1
41
1
10
57.6982240043477
20
-21.3750007184754
30
0
41
1
10
57.6852692880792
20
-21.3881109086903
30
0
41
1
10
57.6723145717026
20
-21.4012210987957
30
0
41
1
10
57.6593598552168
20
-21.4143312887907
30
0
0
SPLINE
5
1B0
100
AcDbEntity
8
1
62
256
6
ByLayer
370
70
48
1
60
0
100
AcDbSpline
70
4
71
3
72
8
73
4
40
0
40
0
40
0
40
0
40
1
40
1
40
1
40
1
41
1
10
57.8269645918066
20
-21.3750011790061
30
0
41
1
10
57.8138598236394
20
-21.3881112157108
30
0
41
1
10
57.8007550553628
20
-21.401221252306
30
0
41
1
10
57.7876502869758
20
-21.4143312887907
30
0
0
SPLINE
5
1B1
100
AcDbEntity
8
1
62
256
6
ByLayer
370
70
48
1
60
0
100
AcDbSpline
70
4
71
3
72
8
73
4
40
0
40
0
40
0
40
0
40
1
40
1
40
1
40
1
41
1
10
57.8291038869271
20
-21.3750011790061
30
0
41
1
10
57.8159991187599
20
-21.3881112157108
30
0
41
1
10
57.8028943504833
20
-21.401221252306
30
0
41
1
10
57.7897895820963
20
-21.4143312887907
30
0
0
SPLINE
5
1B2
100
AcDbEntity
8
1
62
256
6
ByLayer
370
70
48
1
60
0
100
AcDbSpline
70
4
71
3
72
8
73
4
40
0
40
0
40
0
40
0
40
1
40
1
40
1
40
1
41
1
10
34.2192927860963
20
-21.3750007324895
30
0
41
1
10
34.2323412359675
20
-21.388110918033
30
0
41
1
10
34.2453896859476
20
-21.4012211034671
30
0
41
1
10
34.2584381360377
20
-21.4143312887907
30
0
0
SPLINE
5
1B3
100
AcDbEntity
8
1
62
256
6
ByLayer
370
70
48
1
60
0
100
AcDbSpline
70
4
71
3
72
8
73
4
40
0
40
0
40
0
40
0
40
1
40
1
40
1
40
1
41
1
10
34.2265665277091
20
-21.3750007324896
30
0
41
1
10
34.2396149775804
20
-21.3881109180331
30
0
41
1
10
34.2526634275605
20
-21.4012211034671
30
0
41
1
10
34.2657118776506
20
-21.4143312887907
30
0
0
SPLINE
5
1B4
100
AcDbEntity
8
1
62
256
6
ByLayer
370
70
48
1
60
0
100
AcDbSpline
70
4
71
3
72
8
73
4
40
0
40
0
40
0
40
0
40
1
40
1
40
1
40
1
41
1
10
34.4513401201616
20
-21.3750006111372
30
0
41
1
10
34.4641263605598
20
-21.3881108371315
30
0
41
1
10
34.4769126010646
20
-21.4012210630163
30
0
41
1
10
34.4896988416772
20
-21.4143312887907
30
0
0
SPLINE
5
1B5
100
AcDbEntity
8
1
62
256
6
ByLayer
370
70
48
1
60
0
100
AcDbSpline
70
4
71
3
72
8
73
4
40
0
40
0
40
0
40
0
40
1
40
1
40
1
40
1
41
1
10
34.4679121872575
20
-21.3750006111372
30
0
41
1
10
34.4806984276556
20
-21.3881108371315
30
0
41
1
10
34.4934846681605
20
-21.4012210630163
30
0
41
1
10
34.5062709087731
20
-21.4143312887907
30
0
0
SPLINE
5
1B6
100
AcDbEntity
8
1
62
256
6
ByLayer
370
70
48
1
60
0
100
AcDbSpline
70
4
71
3
72
8
73
4
40
0
40
0
40
0
40
0
40
1
40
1
40
1
40
1
41
1
10
34.8655171831163
20
-21.3750009831205
30
0
41
1
10
34.877839410589
20
-21.3881110851204
30
0
41
1
10
34.8901616381646
20
-21.4012211870108
30
0
41
1
10
34.902483865844
20
-21.4143312887907
30
0
0
SPLINE
5
1B7
100
AcDbEntity
8
1
62
256
6
ByLayer
370
70
48
1
60
0
100
AcDbSpline
70
4
71
3
72
8
73
4
40
0
40
0
40
0
40
0
40
1
40
1
40
1
40
1
41
1
10
34.8911262242974
20
-21.3750009831205
30
0
41
1
10
34.9034484517701
20
-21.3881110851204
30
0
41
1
10
34.9157706793457
20
-21.4012211870108
30
0
41
1
10
34.9280929070251
20
-21.4143312887907
30
0
0
SPLINE
5
1B8
100
AcDbEntity
8
1
62
256
6
ByLayer
370
70
48
1
60
0
100
AcDbSpline
70
4
71
3
72
8
73
4
40
0
40
0
40
0
40
0
40
1
40
1
40
1
40
1
41
1
10
35.4552915049116
20
-21.375001188642
30
0
41
1
10
35.4669554505504
20
-21.3881112221347
30
0
41
1
10
35.4786193962866
20
-21.4012212555179
30
0
41
1
10
35.4902833421211
20
-21.4143312887907
30
0
0
SPLINE
5
1B9
100
AcDbEntity
8
1
62
256
6
ByLayer
370
70
48
1
60
0
100
AcDbSpline
70
4
71
3
72
8
73
4
40
0
40
0
40
0
40
0
40
1
40
1
40
1
40
1
41
1
10
35.4895336503005
20
-21.375001188642
30
0
41
1
10
35.5011975959393
20
-21.3881112221347
30
0
41
1
10
35.5128615416754
20
-21.4012212555179
30
0
41
1
10
35.5245254875099
20
-21.4143312887907
30
0
0
SPLINE
5
1BA
100
AcDbEntity
8
1
62
256
6
ByLayer
370
70
48
1
60
0
100
AcDbSpline
70
4
71
3
72
8
73
4
40
0
40
0
40
0
40
0
40
1
40
1
40
1
40
1
41
1
10
36.2113617121488
20
-21.375000865429
30
0
41
1
10
36.2221835818863
20
-21.3881110066593
30
0
41
1
10
36.2330054517142
20
-21.4012211477803
30
0
41
1
10
36.2438273216332
20
-21.4143312887907
30
0
0
SPLINE
5
1BB
100
AcDbEntity
8
1
62
256
6
ByLayer
370
70
48
1
60
0
100
AcDbSpline
70
4
71
3
72
8
73
4
40
0
40
0
40
0
40
0
40
1
40
1
40
1
40
1
41
1
10
36.2536969426574
20
-21.375000865429
30
0
41
1
10
36.2645188123949
20
-21.3881110066594
30
0
41
1
10
36.2753406822227
20
-21.4012211477803
30
0
41
1
10
36.2861625521417
20
-21.4143312887907
30
0
0
SPLINE
5
1BC
100
AcDbEntity
8
1
62
256
6
ByLayer
370
70
48
1
60
0
100
AcDbSpline
70
4
71
3
72
8
73
4
40
0
40
0
40
0
40
0
40
1
40
1
40
1
40
1
41
1
10
37.1218046498168
20
-21.3750005664201
30
0
41
1
10
37.1316137550218
20
-21.38811080732
30
0
41
1
10
37.1414228603086
20
-21.4012210481106
30
0
41
1
10
37.1512319656782
20
-21.4143312887907
30
0
0
SPLINE
5
1BD
100
AcDbEntity
8
1
62
256
6
ByLayer
370
70
48
1
60
0
100
AcDbSpline
70
4
71
3
72
8
73
4
40
0
40
0
40
0
40
0
40
1
40
1
40
1
40
1
41
1
10
37.1715653135701
20
-21.3750005664201
30
0
41
1
10
37.181374418775
20
-21.38811080732
30
0
41
1
10
37.1911835240619
20
-21.4012210481106
30
0
41
1
10
37.2009926294314
20
-21.4143312887907
30
0
0
SPLINE
5
1BE
100
AcDbEntity
8
1
62
256
6
ByLayer
370
70
48
1
60
0
100
AcDbSpline
70
4
71
3
72
8
73
4
40
0
40
0
40
0
40
0
40
1
40
1
40
1
40
1
41
1
10
38.172262388663
20
-21.3750007435732
30
0
41
1
10
38.1809039126903
20
-21.3881109254221
30
0
41
1
10
38.1895454367898
20
-21.4012211071617
30
0
41
1
10
38.1981869609621
20
-21.4143312887907
30
0
0
SPLINE
5
1BF
100
AcDbEntity
8
1
62
256
6
ByLayer
370
70
48
1
60
0
100
AcDbSpline
70
4
71
3
72
8
73
4
40
0
40
0
40
0
40
0
40
1
40
1
40
1
40
1
41
1
10
38.228663730268
20
-21.3750007435732
30
0
41
1
10
38.2373052542953
20
-21.3881109254221
30
0
41
1
10
38.2459467783948
20
-21.4012211071617
30
0
41
1
10
38.2545883025671
20
-21.4143312887907
30
0
0
SPLINE
5
1C0
100
AcDbEntity
8
1
62
256
6
ByLayer
370
70
48
1
60
0
100
AcDbSpline
70
4
71
3
72
8
73
4
40
0
40
0
40
0
40
0
40
1
40
1
40
1
40
1
41
1
10
39.3461679989852
20
-21.3750005872163
30
0
41
1
10
39.3535057331916
20
-21.3881108211843
30
0
41
1
10
39.3608434674592
20
-21.4012210550427
30
0
41
1
10
39.3681812017887
20
-21.4143312887907
30
0
0
SPLINE
5
1C1
100
AcDbEntity
8
1
62
256
6
ByLayer
370
70
48
1
60
0
100
AcDbSpline
70
4
71
3
72
8
73
4
40
0
40
0
40
0
40
0
40
1
40
1
40
1
40
1
41
1
10
39.4083205355923
20
-21.3750005872163
30
0
41
1
10
39.4156582697987
20
-21.3881108211843
30
0
41
1
10
39.4229960040663
20
-21.4012210550427
30
0
41
1
10
39.4303337383958
20
-21.4143312887907
30
0
0
SPLINE
5
1C2
100
AcDbEntity
8
1
62
256
6
ByLayer
370
70
48
1
60
0
100
AcDbSpline
70
4
71
3
72
8
73
4
40
0
40
0
40
0
40
0
40
1
40
1
40
1
40
1
41
1
10
40.6250087718237
20
-21.3750009430994
30
0
41
1
10
40.6309269078528
20
-21.3881110584396
30
0
41
1
10
40.6368450439313
20
-21.4012211736704
30
0
41
1
10
40.6427631800596
20
-21.4143312887907
30
0
0
SPLINE
5
1C3
100
AcDbEntity
8
1
62
256
6
ByLayer
370
70
48
1
60
0
100
AcDbSpline
70
4
71
3
72
8
73
4
40
0
40
0
40
0
40
0
40
1
40
1
40
1
40
1
41
1
10
40.6919323208025
20
-21.3750009430994
30
0
41
1
10
40.6978504568316
20
-21.3881110584396
30
0
41
1
10
40.70376859291
20
-21.4012211736704
30
0
41
1
10
40.7096867290384
20
-21.4143312887907
30
0
0
SPLINE
5
1C4
100
AcDbEntity
8
1
62
256
6
ByLayer
370
70
48
1
60
0
100
AcDbSpline
70
4
71
3
72
8
73
4
40
0
40
0
40
0
40
0
40
1
40
1
40
1
40
1
41
1
10
41.9886162795076
20
-21.3750012947414
30
0
41
1
10
41.9930215118279
20
-21.3881112928676
30
0
41
1
10
41.9974267441849
20
-21.4012212908844
30
0
41
1
10
42.001831976579
20
-21.4143312887907
30
0
0
SPLINE
5
1C5
100
AcDbEntity
8
1
62
256
6
ByLayer
370
70
48
1
60
0
100
AcDbSpline
70
4
71
3
72
8
73
4
40
0
40
0
40
0
40
0
40
1
40
1
40
1
40
1
41
1
10
42.0592554165125
20
-21.3750012947414
30
0
41
1
10
42.0636606488327
20
-21.3881112928676
30
0
41
1
10
42.0680658811897
20
-21.4012212908844
30
0
41
1
10
42.0724711135839
20
-21.4143312887907
30
0
0
SPLINE
5
1C6
100
AcDbEntity
8
1
62
256
6
ByLayer
370
70
48
1
60
0
100
AcDbSpline
70
4
71
3
72
8
73
4
40
0
40
0
40
0
40
0
40
1
40
1
40
1
40
1
41
1
10
43.4154854187866
20
-21.3750007348242
30
0
41
1
10
43.4183083673533
20
-21.3881109195895
30
0
41
1
10
43.4211313159435
20
-21.4012211042453
30
0
41
1
10
43.4239542645574
20
-21.4143312887907
30
0
0
SPLINE
5
1C7
100
AcDbEntity
8
1
62
256
6
ByLayer
370
70
48
1
60
0
100
AcDbSpline
70
4
71
3
72
8
73
4
40
0
40
0
40
0
40
0
40
1
40
1
40
1
40
1
41
1
10
43.4887261224292
20
-21.3750007348242
30
0
41
1
10
43.4915490709959
20
-21.3881109195895
30
0
41
1
10
43.4943720195861
20
-21.4012211042453
30
0
41
1
10
43.4971949682
20
-21.4143312887907
30
0
0
SPLINE
5
1C8
100
AcDbEntity
8
1
62
256
6
ByLayer
370
70
48
1
60
0
100
AcDbSpline
70
4
71
3
72
8
73
4
40
0
40
0
40
0
40
0
40
1
40
1
40
1
40
1
41
1
10
44.8831140691612
20
-21.3750006334566
30
0
41
1
10
44.884310154757
20
-21.3881108520111
30
0
41
1
10
44.8855062403629
20
-21.4012210704561
30
0
41
1
10
44.8867023259788
20
-21.4143312887907
30
0
0
SPLINE
5
1C9
100
AcDbEntity
8
1
62
256
6
ByLayer
370
70
48
1
60
0
100
AcDbSpline
70
4
71
3
72
8
73
4
40
0
40
0
40
0
40
0
40
1
40
1
40
1
40
1
41
1
10
44.9578012897932
20
-21.3750006334566
30
0
41
1
10
44.9589973753891
20
-21.3881108520111
30
0
41
1
10
44.9601934609949
20
-21.4012210704561
30
0
41
1
10
44.9613895466109
20
-21.4143312887907
30
0
0
SPLINE
5
1CA
100
AcDbEntity
8
1
62
256
6
ByLayer
370
70
48
1
60
0
100
AcDbSpline
70
4
71
3
72
8
73
4
40
0
40
0
40
0
40
0
40
1
40
1
40
1
40
1
41
1
10
46.3683567005266
20
-21.3750004148012
30
0
41
1
10
46.3679070503919
20
-21.3881107062408
30
0
41
1
10
46.3674574002535
20
-21.401220997571
30
0
41
1
10
46.3670077501113
20
-21.4143312887907
30
0
0
SPLINE
5
1CB
100
AcDbEntity
8
1
62
256
6
ByLayer
370
70
48
1
60
0
100
AcDbSpline
70
4
71
3
72
8
73
4
40
0
40
0
40
0
40
0
40
1
40
1
40
1
40
1
41
1
10
46.4433125760627
20
-21.3750004148012
30
0
41
1
10
46.442862925928
20
-21.3881107062408
30
0
41
1
10
46.4424132757896
20
-21.401220997571
30
0
41
1
10
46.4419636256474
20
-21.4143312887907
30
0
0
SPLINE
5
1CC
100
AcDbEntity
8
1
62
256
6
ByLayer
370
70
48
1
60
0
100
AcDbSpline
70
4
71
3
72
8
73
4
40
0
40
0
40
0
40
0
40
1
40
1
40
1
40
1
41
1
10
47.8477900285986
20
-21.3750011139722
30
0
41
1
10
47.845701764458
20
-21.3881111723548
30
0
41
1
10
47.8436135003001
20
-21.401221230628
30
0
41
1
10
47.8415252361245
20
-21.4143312887907
30
0
0
SPLINE
5
1CD
100
AcDbEntity
8
1
62
256
6
ByLayer
370
70
48
1
60
0
100
AcDbSpline
70
4
71
3
72
8
73
4
40
0
40
0
40
0
40
0
40
1
40
1
40
1
40
1
41
1
10
47.9218324601052
20
-21.3750011139722
30
0
41
1
10
47.9197441959646
20
-21.3881111723548
30
0
41
1
10
47.9176559318066
20
-21.401221230628
30
0
41
1
10
47.915567667631
20
-21.4143312887907
30
0
0
SPLINE
5
1CE
100
AcDbEntity
8
1
62
256
6
ByLayer
370
70
48
1
60
0
100
AcDbSpline
70
4
71
3
72
8
73
4
40
0
40
0
40
0
40
0
40
1
40
1
40
1
40
1
41
1
10
49.298082730252
20
-21.3750007277319
30
0
41
1
10
49.2943887410089
20
-21.3881109148613
30
0
41
1
10
49.2906947517351
20
-21.4012211018813
30
0
41
1
10
49.2870007624301
20
-21.4143312887907
30
0
0
SPLINE
5
1CF
100
AcDbEntity
8
1
62
256
6
ByLayer
370
70
48
1
60
0
100
AcDbSpline
70
4
71
3
72
8
73
4
40
0
40
0
40
0
40
0
40
1
40
1
40
1
40
1
41
1
10
49.3700440243533
20
-21.3750007277319
30
0
41
1
10
49.3663500351103
20
-21.3881109148613
30
0
41
1
10
49.3626560458364
20
-21.4012211018813
30
0
41
1
10
49.3589620565314
20
-21.4143312887907
30
0
0
SPLINE
5
1D0
100
AcDbEntity
8
1
62
256
6
ByLayer
370
70
48
1
60
0
100
AcDbSpline
70
4
71
3
72
8
73
4
40
0
40
0
40
0
40
0
40
1
40
1
40
1
40
1
41
1
10
50.6963624904797
20
-21.3750010739243
30
0
41
1
10
50.6911210991947
20
-21.3881111456562
30
0
41
1
10
50.6858797078659
20
-21.4012212172787
30
0
41
1
10
50.680638316493
20
-21.4143312887907
30
0
0
SPLINE
5
1D1
100
AcDbEntity
8
1
62
256
6
ByLayer
370
70
48
1
60
0
100
AcDbSpline
70
4
71
3
72
8
73
4
40
0
40
0
40
0
40
0
40
1
40
1
40
1
40
1
41
1
10
50.7651077745802
20
-21.3750010739243
30
0
41
1
10
50.7598663832952
20
-21.3881111456562
30
0
41
1
10
50.7546249919664
20
-21.4012212172787
30
0
41
1
10
50.7493836005935
20
-21.4143312887907
30
0
0
SPLINE
5
1D2
100
AcDbEntity
8
1
62
256
6
ByLayer
370
70
48
1
60
0
100
AcDbSpline
70
4
71
3
72
8
73
4
40
0
40
0
40
0
40
0
40
1
40
1
40
1
40
1
41
1
10
52.0205778355399
20
-21.3750011992475
30
0
41
1
10
52.0138716909384
20
-21.388111229205
30
0
41
1
10
52.0071655462809
20
-21.4012212590531
30
0
41
1
10
52.000459401567
20
-21.4143312887907
30
0
0
SPLINE
5
1D3
100
AcDbEntity
8
1
62
256
6
ByLayer
370
70
48
1
60
0
100
AcDbSpline
70
4
71
3
72
8
73
4
40
0
40
0
40
0
40
0
40
1
40
1
40
1
40
1
41
1
10
52.0850229554428
20
-21.3750011992475
30
0
41
1
10
52.0783168108413
20
-21.388111229205
30
0
41
1
10
52.0716106661839
20
-21.4012212590531
30
0
41
1
10
52.0649045214699
20
-21.4143312887907
30
0
0
SPLINE
5
1D4
100
AcDbEntity
8
1
62
256
6
ByLayer
370
70
48
1
60
0
100
AcDbSpline
70
4
71
3
72
8
73
4
40
0
40
0
40
0
40
0
40
1
40
1
40
1
40
1
41
1
10
53.2498453357097
20
-21.3750008405762
30
0
41
1
10
53.2417801074465
20
-21.3881109900908
30
0
41
1
10
53.2337148791159
20
-21.401221139496
30
0
41
1
10
53.2256496507174
20
-21.4143312887907
30
0
0
SPLINE
5
1D5
100
AcDbEntity
8
1
62
256
6
ByLayer
370
70
48
1
60
0
100
AcDbSpline
70
4
71
3
72
8
73
4
40
0
40
0
40
0
40
0
40
1
40
1
40
1
40
1
41
1
10
53.3089739533766
20
-21.3750008405762
30
0
41
1
10
53.3009087251133
20
-21.3881109900908
30
0
41
1
10
53.2928434967828
20
-21.401221139496
30
0
41
1
10
53.2847782683842
20
-21.4143312887907
30
0
0
SPLINE
5
1D6
100
AcDbEntity
8
1
62
256
6
ByLayer
370
70
48
1
60
0
100
AcDbSpline
70
4
71
3
72
8
73
4
40
0
40
0
40
0
40
0
40
1
40
1
40
1
40
1
41
1
10
54.3647781400803
20
-21.3750010011585
30
0
41
1
10
54.3554811207387
20
-21.3881110971456
30
0
41
1
10
54.3461841013195
20
-21.4012211930234
30
0
41
1
10
54.336887081822
20
-21.4143312887907
30
0
0
SPLINE
5
1D7
100
AcDbEntity
8
1
62
256
6
ByLayer
370
70
48
1
60
0
100
AcDbSpline
70
4
71
3
72
8
73
4
40
0
40
0
40
0
40
0
40
1
40
1
40
1
40
1
41
1
10
54.4176577618888
20
-21.3750010011585
30
0
41
1
10
54.4083607425472
20
-21.3881110971456
30
0
41
1
10
54.3990637231281
20
-21.4012211930234
30
0
41
1
10
54.3897667036305
20
-21.4143312887907
30
0
0
SPLINE
5
1D8
100
AcDbEntity
8
1
62
256
6
ByLayer
370
70
48
1
60
0
100
AcDbSpline
70
4
71
3
72
8
73
4
40
0
40
0
40
0
40
0
40
1
40
1
40
1
40
1
41
1
10
55.3477937496549
20
-21.3750006713033
30
0
41
1
10
55.3374114387806
20
-21.3881108772422
30
0
41
1
10
55.3270291278197
20
-21.4012210830717
30
0
41
1
10
55.3166468167713
20
-21.4143312887907
30
0
0
SPLINE
5
1D9
100
AcDbEntity
8
1
62
256
6
ByLayer
370
70
48
1
60
0
100
AcDbSpline
70
4
71
3
72
8
73
4
40
0
40
0
40
0
40
0
40
1
40
1
40
1
40
1
41
1
10
55.3935904323804
20
-21.3750006713033
30
0
41
1
10
55.3832081215061
20
-21.3881108772422
30
0
41
1
10
55.3728258105451
20
-21.4012210830717
30
0
41
1
10
55.3624434994967
20
-21.4143312887907
30
0
0
SPLINE
5
1DA
100
AcDbEntity
8
1
62
256
6
ByLayer
370
70
48
1
60
0
100
AcDbSpline
70
4
71
3
72
8
73
4
40
0
40
0
40
0
40
0
40
1
40
1
40
1
40
1
41
1
10
56.1833885153965
20
-21.3750010328414
30
0
41
1
10
56.172084830114
20
-21.3881111182676
30
0
41
1
10
56.1607811447371
20
-21.4012212035844
30
0
41
1
10
56.1494774592649
20
-21.4143312887907
30
0
0
SPLINE
5
1DB
100
AcDbEntity
8
1
62
256
6
ByLayer
370
70
48
1
60
0
100
AcDbSpline
70
4
71
3
72
8
73
4
40
0
40
0
40
0
40
0
40
1
40
1
40
1
40
1
41
1
10
56.2213800179947
20
-21.3750010328414
30
0
41
1
10
56.2100763327122
20
-21.3881111182676
30
0
41
1
10
56.1987726473353
20
-21.4012212035844
30
0
41
1
10
56.1874689618631
20
-21.4143312887907
30
0
0
SPLINE
5
1DC
100
AcDbEntity
8
1
62
256
6
ByLayer
370
70
48
1
60
0
100
AcDbSpline
70
4
71
3
72
8
73
4
40
0
40
0
40
0
40
0
40
1
40
1
40
1
40
1
41
1
10
56.8583856843234
20
-21.375000767652
30
0
41
1
10
56.8463387138371
20
-21.3881109414747
30
0
41
1
10
56.8342917432503
20
-21.401221115188
30
0
41
1
10
56.8222447725619
20
-21.4143312887907
30
0
0
SPLINE
5
1DD
100
AcDbEntity
8
1
62
256
6
ByLayer
370
70
48
1
60
0
100
AcDbSpline
70
4
71
3
72
8
73
4
40
0
40
0
40
0
40
0
40
1
40
1
40
1
40
1
41
1
10
56.8879728581034
20
-21.375000767652
30
0
41
1
10
56.8759258876171
20
-21.3881109414747
30
0
41
1
10
56.8638789170302
20
-21.4012211151879
30
0
41
1
10
56.8518319463418
20
-21.4143312887907
30
0
0
SPLINE
5
1DE
100
AcDbEntity
8
1
62
256
6
ByLayer
370
70
48
1
60
0
100
AcDbSpline
70
4
71
3
72
8
73
4
40
0
40
0
40
0
40
0
40
1
40
1
40
1
40
1
41
1
10
57.3621396320873
20
-21.3750005149481
30
0
41
1
10
57.349539359577
20
-21.3881107730054
30
0
41
1
10
57.3369390869615
20
-21.4012210309533
30
0
41
1
10
57.3243388142398
20
-21.4143312887907
30
0
0
SPLINE
5
1DF
100
AcDbEntity
8
1
62
256
6
ByLayer
370
70
48
1
60
0
100
AcDbSpline
70
4
71
3
72
8
73
4
40
0
40
0
40
0
40
0
40
1
40
1
40
1
40
1
41
1
10
21.3746119011022
20
30.4315723180713
30
0
41
1
10
20.8902930924838
20
29.5640826443994
30
0
41
1
10
20.4069876916825
20
28.6960191551286
30
0
41
1
10
19.9249995776889
20
27.8272318284485
30
0
0
SPLINE
5
1E0
100
AcDbEntity
8
1
62
256
6
ByLayer
370
70
48
1
60
0
100
AcDbSpline
70
4
71
3
72
10
73
6
40
0
40
0
40
0
40
0
40
0.5
40
0.5
40
1
40
1
40
1
40
1
41
1
10
21.3746119011022
20
24.4200409500067
30
0
41
1
10
21.1268948310864
20
23.8671150710965
30
0
41
1
10
20.8819499014066
20
23.3129206162953
30
0
41
1
10
20.3984294133883
20
22.2016169801836
30
0
41
1
10
20.1598198816569
20
21.6444281214335
30
0
41
1
10
19.9249995776889
20
21.0858397386544
30
0
0
SPLINE
5
1E1
100
AcDbEntity
8
1
62
256
6
ByLayer
370
70
48
1
60
0
100
AcDbSpline
70
4
71
3
72
8
73
4
40
0
40
0
40
0
40
0
40
1
40
1
40
1
40
1
41
1
10
25.4499995776888
20
30.4315723180713
30
0
41
1
10
25.6167145638657
20
30.2591684553938
30
0
41
1
10
25.783382050877
20
30.0867186469207
30
0
41
1
10
25.9499995776888
20
29.9142205940587
30
0
0
SPLINE
5
1E2
100
AcDbEntity
8
1
62
256
6
ByLayer
370
70
48
1
60
0
100
AcDbSpline
70
4
71
3
72
8
73
4
40
0
40
0
40
0
40
0
40
1
40
1
40
1
40
1
41
1
10
25.9499995776888
20
23.7722190802626
30
0
41
1
10
25.7839063116898
20
23.9886022639538
30
0
41
1
10
25.6172282494413
20
24.2045340918969
30
0
41
1
10
25.4499995776888
20
24.4200409500067
30
0
0
SPLINE
5
1E3
100
AcDbEntity
8
1
62
256
6
ByLayer
370
70
48
1
60
0
100
AcDbSpline
70
4
71
3
72
8
73
4
40
0
40
0
40
0
40
0
40
1
40
1
40
1
40
1
41
1
10
16.0749995776888
20
27.8272318284486
30
0
41
1
10
15.5930114636952
20
28.6960191551287
30
0
41
1
10
15.1097060628939
20
29.5640826443994
30
0
41
1
10
14.6253872542755
20
30.4315723180713
30
0
0
SPLINE
5
1E4
100
AcDbEntity
8
1
62
256
6
ByLayer
370
70
48
1
60
0
100
AcDbSpline
70
4
71
3
72
10
73
6
40
0
40
0
40
0
40
0
40
0.5
40
0.5
40
1
40
1
40
1
40
1
41
1
10
16.0749995776888
20
21.0858397386545
30
0
41
1
10
15.8401792737208
20
21.6444281214335
30
0
41
1
10
15.6015697419894
20
22.2016169801836
30
0
41
1
10
15.1180492539711
20
23.3129206162953
30
0
41
1
10
14.8731043242913
20
23.8671150710965
30
0
41
1
10
14.6253872542755
20
24.4200409500067
30
0
0
SPLINE
5
1E5
100
AcDbEntity
8
SK1
62
256
6
ByLayer
370
70
48
1
60
0
100
AcDbSpline
70
4
71
3
72
19
73
15
40
0
40
0
40
0
40
0
40
0.33314977495549
40
0.33314977495549
40
0.416506053086053
40
0.416506053086053
40
0.499862331216616
40
0.666574887477742
40
0.666574887477742
40
0.833287443738868
40
0.833287443738868
40
0.916643721869434
40
0.916643721869434
40
1
40
1
40
1
40
1
41
1
10
-31.8914511307284
20
-19.7035489955314
30
0
41
1
10
-31.8862242103621
20
-19.7088297158647
30
0
41
1
10
-31.8790642626904
20
-19.7087788128808
30
0
41
1
10
-31.8698068730767
20
-19.6997542686208
30
0
41
1
10
-31.8679385069143
20
-19.697490067328
30
0
41
1
10
-31.8642504442606
20
-19.6919886444815
30
0
41
1
10
-31.8588100482616
20
-19.6823079716442
30
0
41
1
10
-31.853940171614
20
-19.6681210992235
30
0
41
1
10
-31.848447333728
20
-19.6447492917014
30
0
41
1
10
-31.8462035488246
20
-19.6308338087904
30
0
41
1
10
-31.8438999958933
20
-19.6062530504706
30
0
41
1
10
-31.8433082940398
20
-19.5974414292981
30
0
41
1
10
-31.8425141891898
20
-19.5785229798456
30
0
41
1
10
-31.8423144576722
20
-19.5684379120393
30
0
41
1
10
-31.8423160874295
20
-19.5578384055689
30
0
0
SPLINE
5
1E6
100
AcDbEntity
8
SK1
62
256
6
ByLayer
370
70
48
1
60
0
100
AcDbSpline
70
4
71
3
72
80
73
76
40
0
40
0
40
0
40
0
40
0.0624999999999948
40
0.0624999999999948
40
0.12499999999999
40
0.12499999999999
40
0.187499999999984
40
0.187499999999984
40
0.249999999999979
40
0.249999999999979
40
0.312499999999974
40
0.312499999999974
40
0.343749999999971
40
0.343749999999971
40
0.374999999999969
40
0.374999999999969
40
0.406249999999966
40
0.406249999999966
40
0.421874999999965
40
0.421874999999965
40
0.437499999999964
40
0.437499999999964
40
0.453124999999964
40
0.453124999999964
40
0.460937499999963
40
0.460937499999963
40
0.468749999999962
40
0.468749999999962
40
0.472656249999962
40
0.472656249999962
40
0.476562499999961
40
0.476562499999961
40
0.484374999999961
40
0.484374999999961
40
0.488281249999961
40
0.488281249999961
40
0.492187499999962
40
0.492187499999962
40
0.496093749999962
40
0.496093749999962
40
0.499999999999962
40
0.499999999999962
40
0.503906249999963
40
0.503906249999963
40
0.507812499999963
40
0.507812499999963
40
0.515624999999962
40
0.515624999999962
40
0.523437499999962
40
0.523437499999962
40
0.531249999999961
40
0.531249999999961
40
0.546874999999962
40
0.546874999999962
40
0.562499999999962
40
0.562499999999962
40
0.578124999999962
40
0.578124999999962
40
0.593749999999963
40
0.593749999999963
40
0.624999999999966
40
0.624999999999966
40
0.656249999999969
40
0.656249999999969
40
0.687499999999972
40
0.687499999999972
40
0.749999999999978
40
0.749999999999978
40
0.781249999999981
40
0.781249999999981
40
0.812499999999984
40
0.812499999999984
40
0.874999999999989
40
0.874999999999989
40
1
40
1
40
1
40
1
41
1
10
-31.8423160874295
20
-19.5578384055689
30
0
41
1
10
-31.8423249396917
20
-19.5002656548855
30
0
41
1
10
-31.8418181088591
20
-19.4431718040734
30
0
41
1
10
-31.8397091199297
20
-19.3300013009786
30
0
41
1
10
-31.8381081012302
20
-19.2739235905708
30
0
41
1
10
-31.8335984642607
20
-19.1629824993934
30
0
41
1
10
-31.8306930045782
20
-19.1081161853354
30
0
41
1
10
-31.8231540055467
20
-18.9999883744765
30
0
41
1
10
-31.8185286201427
20
-18.9467193053442
30
0
41
1
10
-31.8067671538361
20
-18.8425127768667
30
0
41
1
10
-31.7996560713262
20
-18.7915521022422
30
0
41
1
10
-31.7859246284177
20
-18.717957298583
30
0
41
1
10
-31.780829402889
20
-18.6939068212133
30
0
41
1
10
-31.7692132952146
20
-18.6471298322528
30
0
41
1
10
-31.762700307109
20
-18.6243959896968
30
0
41
1
10
-31.7475768699985
20
-18.5808761554346
30
0
41
1
10
-31.7389665012769
20
-18.5600325845584
30
0
41
1
10
-31.7235842541058
20
-18.5314390724695
30
0
41
1
10
-31.7180386806247
20
-18.5223521602592
30
0
41
1
10
-31.7057942648051
20
-18.5054035898662
30
0
41
1
10
-31.6991029246432
20
-18.4975339612332
30
0
41
1
10
-31.684000748655
20
-18.4836215277604
30
0
41
1
10
-31.6756258501531
20
-18.4775833385399
30
0
41
1
10
-31.661094469229
20
-18.4709282368735
30
0
41
1
10
-31.6559144063999
20
-18.4691125383903
30
0
41
1
10
-31.6446063962733
20
-18.4666161947009
30
0
41
1
10
-31.6384582221263
20
-18.4659332894136
30
0
41
1
10
-31.6283366411664
20
-18.4662008077166
30
0
41
1
10
-31.6248077590752
20
-18.4665057546613
30
0
41
1
10
-31.6173598177838
20
-18.4676587344924
30
0
41
1
10
-31.6134199997484
20
-18.4685132062862
30
0
41
1
10
-31.6010562041673
20
-18.4720715280282
30
0
41
1
10
-31.5920966424238
20
-18.4757201147448
30
0
41
1
10
-31.5769066512342
20
-18.4843092870039
30
0
41
1
10
-31.5715424006341
20
-18.4877178586162
30
0
41
1
10
-31.5606366202992
20
-18.4954725579705
30
0
41
1
10
-31.5549981266553
20
-18.4998825164162
30
0
41
1
10
-31.5435678190322
20
-18.509659430294
30
0
41
1
10
-31.5379108283812
20
-18.514904985547
30
0
41
1
10
-31.5267007116349
20
-18.5260337824736
30
0
41
1
10
-31.5211134839166
20
-18.5319607965228
30
0
41
1
10
-31.5104323487424
20
-18.5439239597823
30
0
41
1
10
-31.5052852184053
20
-18.5500086012318
30
0
41
1
10
-31.4952961906788
20
-18.562340506648
30
0
41
1
10
-31.49042954235
20
-18.5686228606088
30
0
41
1
10
-31.4764535788106
20
-18.5873322264945
30
0
41
1
10
-31.4679090887109
20
-18.5996666218701
30
0
41
1
10
-31.451781657875
20
-18.6241630705473
30
0
41
1
10
-31.4441759499411
20
-18.6363789018841
30
0
41
1
10
-31.4298328258163
20
-18.6603899015695
30
0
41
1
10
-31.4231031904483
20
-18.672168450023
30
0
41
1
10
-31.4038594352564
20
-18.7070187132709
30
0
41
1
10
-31.3922734211374
20
-18.7296137995163
30
0
41
1
10
-31.3706204897819
20
-18.7740238400256
30
0
41
1
10
-31.3605715324537
20
-18.7958295709811
30
0
41
1
10
-31.3415743531846
20
-18.8388757503952
30
0
41
1
10
-31.3326317191063
20
-18.8601173689817
30
0
41
1
10
-31.3157391974998
20
-18.9018051411527
30
0
41
1
10
-31.3077666215408
20
-18.9223056111949
30
0
41
1
10
-31.2849701348825
20
-18.9829941343835
30
0
41
1
10
-31.2712524514781
20
-19.0223801855128
30
0
41
1
10
-31.2458971345139
20
-19.099644275649
30
0
41
1
10
-31.2342717719859
20
-19.1375134182996
30
0
41
1
10
-31.2126608135975
20
-19.2120628916987
30
0
41
1
10
-31.2026795393361
20
-19.2487400893376
30
0
41
1
10
-31.1747891277051
20
-19.3572829828762
30
0
41
1
10
-31.1589113311632
20
-19.4276759801282
30
0
41
1
10
-31.13825579401
20
-19.5309736732
30
0
41
1
10
-31.1319143335351
20
-19.56497350673
30
0
41
1
10
-31.1202372217073
20
-19.6320800666352
30
0
41
1
10
-31.1148982553634
20
-19.6652046781972
30
0
41
1
10
-31.1002655506534
20
-19.763390817247
30
0
41
1
10
-31.0923490876435
20
-19.8272705858556
30
0
41
1
10
-31.0735400424097
20
-20.0146708735928
30
0
41
1
10
-31.0675275228382
20
-20.1340040983327
30
0
41
1
10
-31.0675802264951
20
-20.2481331121841
30
0
0
SPLINE
5
1E7
100
AcDbEntity
8
SK1
62
256
6
ByLayer
370
70
48
1
60
0
100
AcDbSpline
70
4
71
3
72
20
73
16
40
0
40
0
40
0
40
0
40
0.124999999999996
40
0.124999999999996
40
0.249999999999992
40
0.249999999999992
40
0.312499999999993
40
0.312499999999993
40
0.374999999999995
40
0.374999999999995
40
0.499999999999996
40
0.499999999999996
40
0.749999999999998
40
0.749999999999998
40
1
40
1
40
1
40
1
41
1
10
-31.0675802264951
20
-20.2481331121841
30
0
41
1
10
-31.0675915073788
20
-20.272561704291
30
0
41
1
10
-31.0653703414675
20
-20.2973932093176
30
0
41
1
10
-31.0567047763084
20
-20.3477347640479
30
0
41
1
10
-31.0502648663049
20
-20.3732417435353
30
0
41
1
10
-31.0378124792452
20
-20.4117796121708
30
0
41
1
10
-31.0331977664724
20
-20.4246707364925
30
0
41
1
10
-31.0231135601555
20
-20.4504971567044
30
0
41
1
10
-31.0176376899475
20
-20.4634454473456
30
0
41
1
10
-31.000119144495
20
-20.5021199656535
30
0
41
1
10
-30.9869776764451
20
-20.527714374092
30
0
41
1
10
-30.9441061582654
20
-20.6035216054596
30
0
41
1
10
-30.910987715798
20
-20.6527323647566
30
0
41
1
10
-30.8392037662327
20
-20.7469186575473
30
0
41
1
10
-30.8005137661359
20
-20.7919060592046
30
0
41
1
10
-30.7600453527195
20
-20.834310484868
30
0
0
SPLINE
5
1E8
100
AcDbEntity
8
SK1
62
256
6
ByLayer
370
70
48
1
60
0
100
AcDbSpline
70
4
71
3
72
18
73
14
40
0
40
0
40
0
40
0
40
0.250000000000002
40
0.250000000000002
40
0.500000000000004
40
0.500000000000004
40
0.750000000000006
40
0.750000000000006
40
0.875000000000005
40
0.875000000000005
40
0.937500000000002
40
0.937500000000002
40
1
40
1
40
1
40
1
41
1
10
-30.7600453527294
20
20.8343104848559
30
0
41
1
10
-30.80053083704
20
20.7918881716243
30
0
41
1
10
-30.8391907741184
20
20.7469260622846
30
0
41
1
10
-30.9108221852953
20
20.652959171993
30
0
41
1
10
-30.943814634887
20
20.6039429159937
30
0
41
1
10
-31.0007055251191
20
20.5035329800827
30
0
41
1
10
-31.0245904256805
20
20.4521521286422
30
0
41
1
10
-31.0497396911053
20
20.3751260560867
30
0
41
1
10
-31.0563291413778
20
20.3494639188075
30
0
41
1
10
-31.0630305671928
20
20.3111943798817
30
0
41
1
10
-31.0647344996309
20
20.2984745535365
30
0
41
1
10
-31.0670153321494
20
20.2731305775176
30
0
41
1
10
-31.0675859669217
20
20.2605639288719
30
0
41
1
10
-31.0675802264928
20
20.2481331121863
30
0
0
SPLINE
5
1E9
100
AcDbEntity
8
SK1
62
256
6
ByLayer
370
70
48
1
60
0
100
AcDbSpline
70
4
71
3
72
78
73
74
40
0
40
0
40
0
40
0
40
0.124999999999991
40
0.124999999999991
40
0.187499999999987
40
0.187499999999987
40
0.249999999999982
40
0.249999999999982
40
0.312499999999977
40
0.312499999999977
40
0.343749999999974
40
0.343749999999974
40
0.374999999999971
40
0.374999999999971
40
0.406249999999968
40
0.406249999999968
40
0.421874999999967
40
0.421874999999967
40
0.437499999999966
40
0.437499999999966
40
0.453124999999964
40
0.453124999999964
40
0.468749999999963
40
0.468749999999963
40
0.476562499999963
40
0.476562499999963
40
0.484374999999962
40
0.484374999999962
40
0.488281249999963
40
0.488281249999963
40
0.492187499999963
40
0.492187499999963
40
0.499999999999961
40
0.499999999999961
40
0.503906249999961
40
0.503906249999961
40
0.50781249999996
40
0.50781249999996
40
0.51171874999996
40
0.51171874999996
40
0.51562499999996
40
0.51562499999996
40
0.51953124999996
40
0.51953124999996
40
0.52343749999996
40
0.52343749999996
40
0.531249999999962
40
0.531249999999962
40
0.539062499999963
40
0.539062499999963
40
0.546874999999965
40
0.546874999999965
40
0.562499999999966
40
0.562499999999966
40
0.578124999999967
40
0.578124999999967
40
0.593749999999968
40
0.593749999999968
40
0.624999999999971
40
0.624999999999971
40
0.656249999999974
40
0.656249999999974
40
0.687499999999977
40
0.687499999999977
40
0.749999999999982
40
0.749999999999982
40
0.812499999999986
40
0.812499999999986
40
0.874999999999991
40
0.874999999999991
40
0.937499999999995
40
0.937499999999995
40
1
40
1
40
1
40
1
41
1
10
-31.0675802264951
20
20.2481331121842
30
0
41
1
10
-31.0675274819408
20
20.1339155356785
30
0
41
1
10
-31.073550247443
20
20.0146004534607
30
0
41
1
10
-31.0923293565764
20
19.827451562909
30
0
41
1
10
-31.1002282319436
20
19.7636932925944
30
0
41
1
10
-31.1196725594398
20
19.6331171823654
30
0
41
1
10
-31.1312111089329
20
19.5663051339361
30
0
41
1
10
-31.158616831668
20
19.4290492129044
30
0
41
1
10
-31.1744635140302
20
19.3586225326657
30
0
41
1
10
-31.2025001505995
20
19.2494027166905
30
0
41
1
10
-31.2125797135852
20
19.2123396824285
30
0
41
1
10
-31.2343951372576
20
19.1370908344875
30
0
41
1
10
-31.2461270098211
20
19.0989002835243
30
0
41
1
10
-31.2716960784109
20
19.0210730068394
30
0
41
1
10
-31.2855214117175
20
18.981444429778
30
0
41
1
10
-31.3084668268566
20
18.9204852612661
30
0
41
1
10
-31.3164868679532
20
18.8999103024649
30
0
41
1
10
-31.3334647354798
20
18.8581162076125
30
0
41
1
10
-31.3424407311079
20
18.8368534202423
30
0
41
1
10
-31.3614995344141
20
18.7937918205051
30
0
41
1
10
-31.3715810309549
20
18.7719824134436
30
0
41
1
10
-31.3933052495079
20
18.7275757480736
30
0
41
1
10
-31.4049297714689
20
18.7049876741738
30
0
41
1
10
-31.4242416652934
20
18.6701593140635
30
0
41
1
10
-31.430995776626
20
18.6583899851149
30
0
41
1
10
-31.4453942494042
20
18.6344020745796
30
0
41
1
10
-31.4530841162079
20
18.6221119103172
30
0
41
1
10
-31.465359143604
20
18.6035866107672
30
0
41
1
10
-31.4695788716028
20
18.5973891869066
30
0
41
1
10
-31.4783371325231
20
18.5849387602536
30
0
41
1
10
-31.4828967351057
20
18.5786574748938
30
0
41
1
10
-31.4970309373393
20
18.559920411149
30
0
41
1
10
-31.5069677159252
20
18.5476602057743
30
0
41
1
10
-31.5231049218096
20
18.5298240289923
30
0
41
1
10
-31.5287509836008
20
18.5239224979404
30
0
41
1
10
-31.5400354663754
20
18.512906048943
30
0
41
1
10
-31.5457192302915
20
18.5077351048779
30
0
41
1
10
-31.5571787647887
20
18.4981405712263
30
0
41
1
10
-31.5627943498014
20
18.4938553270063
30
0
41
1
10
-31.5736538447111
20
18.4863399517304
30
0
41
1
10
-31.5789765471382
20
18.4830610805901
30
0
41
1
10
-31.5890295153284
20
18.4775715647139
30
0
41
1
10
-31.5937738441866
20
18.4753410562411
30
0
41
1
10
-31.6028216832573
20
18.4716834649396
30
0
41
1
10
-31.607144197703
20
18.4702528754552
30
0
41
1
10
-31.6194283529306
20
18.4669788331319
30
0
41
1
10
-31.6266572328366
20
18.4661281167603
30
0
41
1
10
-31.6399495524417
20
18.4660427686978
30
0
41
1
10
-31.6460209033422
20
18.4668320120487
30
0
41
1
10
-31.6572380605696
20
18.4695279584969
30
0
41
1
10
-31.662359361407
20
18.4714261882316
30
0
41
1
10
-31.6767021432907
20
18.478273973885
30
0
41
1
10
-31.6849219330403
20
18.484354685757
30
0
41
1
10
-31.699787660522
20
18.4982933756954
30
0
41
1
10
-31.7064127020092
20
18.5061749507642
30
0
41
1
10
-31.718566607839
20
18.5231759546267
30
0
41
1
10
-31.7240956907753
20
18.5323168588627
30
0
41
1
10
-31.7393711748331
20
18.560941336635
30
0
41
1
10
-31.7478709819928
20
18.5816413722695
30
0
41
1
10
-31.7628686190338
20
18.6249640022108
30
0
41
1
10
-31.7693425213822
20
18.6476095748432
30
0
41
1
10
-31.7809006882541
20
18.6942352308843
30
0
41
1
10
-31.7859776306269
20
18.7182223459732
30
0
41
1
10
-31.799669378119
20
18.7916617154489
30
0
41
1
10
-31.8067735440802
20
18.8425646818119
30
0
41
1
10
-31.8185288776636
20
18.9467263022276
30
0
41
1
10
-31.8231560530329
20
19.0000079967586
30
0
41
1
10
-31.8306991940336
20
19.1082147117248
30
0
41
1
10
-31.833604757091
20
19.16310988905
30
0
41
1
10
-31.8381128070885
20
19.2740668454285
30
0
41
1
10
-31.8397123729744
20
19.3301360972397
30
0
41
1
10
-31.8418190243017
20
19.4432607719102
30
0
41
1
10
-31.8423249317573
20
19.5003172581252
30
0
41
1
10
-31.8423160874295
20
19.557838405569
30
0
0
SPLINE
5
1EA
100
AcDbEntity
8
SK1
62
256
6
ByLayer
370
70
48
1
60
0
100
AcDbSpline
70
4
71
3
72
23
73
19
40
0
40
0
40
0
40
0
40
0.125000000000001
40
0.125000000000001
40
0.250000000000002
40
0.250000000000002
40
0.312500000000001
40
0.312500000000001
40
0.374999999999999
40
0.374999999999999
40
0.499999999999995
40
0.499999999999995
40
0.749999999999996
40
0.749999999999996
40
0.812499999999998
40
0.812499999999998
40
0.875000000000001
40
1
40
1
40
1
40
1
41
1
10
-31.8423160874295
20
19.557838405569
30
0
41
1
10
-31.8423128495887
20
19.5788964574041
30
0
41
1
10
-31.8431059624646
20
19.5975686520516
30
0
41
1
10
-31.8461336634729
20
19.6302929305892
30
0
41
1
10
-31.8483662551986
20
19.6443465600596
30
0
41
1
10
-31.852527397705
20
19.6621378505255
30
0
41
1
10
-31.8540415554298
20
19.6674888528559
30
0
41
1
10
-31.8572421726851
20
19.6770602932875
30
0
41
1
10
-31.8589309304815
20
19.6812910376212
30
0
41
1
10
-31.8641635046287
20
19.6924445617111
30
0
41
1
10
-31.8678722748012
20
19.6978331581021
30
0
41
1
10
-31.8789052879867
20
19.7086926317288
30
0
41
1
10
-31.8861184046492
20
19.7089022277163
30
0
41
1
10
-31.8927390837612
20
19.7022562346414
30
0
41
1
10
-31.8939436193381
20
19.7005773573115
30
0
41
1
10
-31.896054251243
20
19.6965873368686
30
0
41
1
10
-31.8987796010497
20
19.689647652967
30
0
41
1
10
-31.9000004223112
20
19.6800620890276
30
0
41
1
10
-31.9000004223112
20
19.6726615351915
30
0
0
SPLINE
5
1EB
100
AcDbEntity
8
1
62
256
6
ByLayer
370
70
48
1
60
0
100
AcDbSpline
70
4
71
3
72
52
73
48
40
0
40
0
40
0
40
0
40
0.0625000000000028
40
0.0625000000000028
40
0.125000000000006
40
0.125000000000006
40
0.156250000000007
40
0.156250000000007
40
0.171875000000006
40
0.171875000000006
40
0.187500000000006
40
0.187500000000006
40
0.250000000000007
40
0.312500000000009
40
0.312500000000009
40
0.328125000000009
40
0.328125000000009
40
0.34375000000001
40
0.375000000000007
40
0.375000000000007
40
0.437500000000006
40
0.437500000000006
40
0.468750000000005
40
0.468750000000005
40
0.484375000000005
40
0.484375000000005
40
0.500000000000005
40
0.500000000000005
40
0.562500000000006
40
0.625000000000008
40
0.625000000000008
40
0.656250000000008
40
0.656250000000008
40
0.687500000000007
40
0.687500000000007
40
0.750000000000006
40
0.750000000000006
40
0.781250000000006
40
0.781250000000006
40
0.812500000000006
40
0.812500000000006
40
0.875000000000005
40
0.937500000000004
40
0.937500000000004
40
0.968750000000002
40
0.968750000000002
40
1
40
1
40
1
40
1
41
1
10
19.5249995776889
20
-17.5834806976042
30
0
41
1
10
19.4868082544753
20
-17.6356400010525
30
0
41
1
10
19.4445444173208
20
-17.6851012200768
30
0
41
1
10
19.3521986137959
20
-17.7789189868855
30
0
41
1
10
19.3021156301471
20
-17.8232746435515
30
0
41
1
10
19.2210560537413
20
-17.8859940289633
30
0
41
1
10
19.1930438620935
20
-17.9062628011664
30
0
41
1
10
19.1494980187431
20
-17.9356923163669
30
0
41
1
10
19.1347507054052
20
-17.9453230710112
30
0
41
1
10
19.1049624096866
20
-17.964122146943
30
0
41
1
10
19.0898976531028
20
-17.9733067015477
30
0
41
1
10
19.0137313535927
20
-18.0181710676171
30
0
41
1
10
18.886494775724
20
-18.0832083177809
30
0
41
1
10
18.7486944453343
20
-18.1351304202462
30
0
41
1
10
18.6591467420778
20
-18.1633757378613
30
0
41
1
10
18.6410485515517
20
-18.1688174006424
30
0
41
1
10
18.604775459786
20
-18.1791975883318
30
0
41
1
10
18.5501568023728
20
-18.1940439799827
30
0
41
1
10
18.4949200586065
20
-18.206753793693
30
0
41
1
10
18.383635781184
20
-18.2293796390628
30
0
41
1
10
18.3083686742238
20
-18.2407510129894
30
0
41
1
10
18.1938406945013
20
-18.2522263132465
30
0
41
1
10
18.1553926214938
20
-18.2551180074906
30
0
41
1
10
18.0973028504143
20
-18.2580243290621
30
0
41
1
10
18.0778332692201
20
-18.2587548948533
30
0
41
1
10
18.0389887799346
20
-18.2597262135564
30
0
41
1
10
18.0196068275018
20
-18.2599684300751
30
0
41
1
10
17.922895715352
20
-18.2599793960361
30
0
41
1
10
17.7694241212017
20
-18.2523491052792
30
0
41
1
10
17.618427347949
20
-18.2297489735088
30
0
41
1
10
17.5061354491874
20
-18.2069930234636
30
0
41
1
10
17.4688096856988
20
-18.1984144688028
30
0
41
1
10
17.3955813027984
20
-18.1795541763809
30
0
41
1
10
17.3595423766766
20
-18.16924860732
30
0
41
1
10
17.2531179421331
20
-18.1357460199801
30
0
41
1
10
17.184417581173
20
-18.1099745989848
30
0
41
1
10
17.0847417052726
20
-18.0661113512754
30
0
41
1
10
17.0520806552343
20
-18.0506197251853
30
0
41
1
10
16.9879096528678
20
-18.0178507956549
30
0
41
1
10
16.9563153402679
20
-18.0005169079059
30
0
41
1
10
16.8645968965765
20
-17.946525242615
30
0
41
1
10
16.7496961146868
20
-17.8689160540891
30
0
41
1
10
16.6491672097249
20
-17.7802152843765
30
0
41
1
10
16.5792936797739
20
-17.7093648178741
30
0
41
1
10
16.5568784177262
20
-17.6849649636697
30
0
41
1
10
16.5142912382657
20
-17.6350705152685
30
0
41
1
10
16.494095163597
20
-17.6095602459439
30
0
41
1
10
16.4749995776888
20
-17.5834806976042
30
0
0
SPLINE
5
1EC
100
AcDbEntity
8
1
62
256
6
ByLayer
370
70
48
1
60
0
100
AcDbSpline
70
4
71
3
72
52
73
48
40
0
40
0
40
0
40
0
40
0.0625000000000014
40
0.0625000000000014
40
0.125000000000003
40
0.125000000000003
40
0.156250000000002
40
0.156250000000002
40
0.171875000000002
40
0.171875000000002
40
0.187500000000002
40
0.187500000000002
40
0.25
40
0.312499999999999
40
0.312499999999999
40
0.328124999999999
40
0.328124999999999
40
0.343749999999999
40
0.375000000000001
40
0.375000000000001
40
0.437500000000007
40
0.437500000000007
40
0.46875000000001
40
0.46875000000001
40
0.484375000000011
40
0.484375000000011
40
0.500000000000013
40
0.500000000000013
40
0.562500000000013
40
0.625000000000013
40
0.625000000000013
40
0.656250000000013
40
0.656250000000013
40
0.687500000000013
40
0.687500000000013
40
0.750000000000012
40
0.750000000000012
40
0.781250000000012
40
0.781250000000012
40
0.812500000000011
40
0.812500000000011
40
0.875000000000008
40
0.937500000000006
40
0.937500000000006
40
0.968750000000003
40
0.968750000000003
40
1
40
1
40
1
40
1
41
1
10
16.4749995776888
20
17.5834806976042
30
0
41
1
10
16.5131909009024
20
17.6356400010526
30
0
41
1
10
16.5554547380569
20
17.6851012200768
30
0
41
1
10
16.6478005415818
20
17.7789189868855
30
0
41
1
10
16.6978835252306
20
17.8232746435516
30
0
41
1
10
16.7789431016364
20
17.8859940289633
30
0
41
1
10
16.8069552932842
20
17.9062628011664
30
0
41
1
10
16.8505011366346
20
17.935692316367
30
0
41
1
10
16.8652484499725
20
17.9453230710113
30
0
41
1
10
16.8950367456911
20
17.9641221469431
30
0
41
1
10
16.9101015022749
20
17.9733067015478
30
0
41
1
10
16.986267801785
20
18.0181710676171
30
0
41
1
10
17.1135043796537
20
18.083208317781
30
0
41
1
10
17.2513047100434
20
18.1351304202462
30
0
41
1
10
17.3408524132999
20
18.1633757378613
30
0
41
1
10
17.358950603826
20
18.1688174006424
30
0
41
1
10
17.3952236955917
20
18.1791975883318
30
0
41
1
10
17.449842353005
20
18.1940439799827
30
0
41
1
10
17.5050790967711
20
18.2067537936931
30
0
41
1
10
17.6163633741937
20
18.2293796390629
30
0
41
1
10
17.6916304811539
20
18.2407510129894
30
0
41
1
10
17.8061584608764
20
18.2522263132465
30
0
41
1
10
17.8446065338839
20
18.2551180074906
30
0
41
1
10
17.9026963049634
20
18.2580243290622
30
0
41
1
10
17.9221658861576
20
18.2587548948534
30
0
41
1
10
17.9610103754431
20
18.2597262135564
30
0
41
1
10
17.9803923278759
20
18.2599684300752
30
0
41
1
10
18.0771034400256
20
18.2599793960361
30
0
41
1
10
18.230575034176
20
18.2523491052792
30
0
41
1
10
18.3815718074287
20
18.2297489735089
30
0
41
1
10
18.4938637061902
20
18.2069930234637
30
0
41
1
10
18.5311894696789
20
18.1984144688029
30
0
41
1
10
18.6044178525793
20
18.1795541763809
30
0
41
1
10
18.6404567787011
20
18.1692486073201
30
0
41
1
10
18.7468812132445
20
18.1357460199801
30
0
41
1
10
18.8155815742047
20
18.1099745989849
30
0
41
1
10
18.9152574501051
20
18.0661113512754
30
0
41
1
10
18.9479185001434
20
18.0506197251853
30
0
41
1
10
19.0120895025099
20
18.0178507956549
30
0
41
1
10
19.0436838151098
20
18.0005169079059
30
0
41
1
10
19.1354022588012
20
17.946525242615
30
0
41
1
10
19.2503030406909
20
17.8689160540892
30
0
41
1
10
19.3508319456528
20
17.7802152843766
30
0
41
1
10
19.4207054756038
20
17.7093648178742
30
0
41
1
10
19.4431207376514
20
17.6849649636698
30
0
41
1
10
19.485707917112
20
17.6350705152685
30
0
41
1
10
19.5059039917807
20
17.609560245944
30
0
41
1
10
19.5249995776889
20
17.5834806976042
30
0
0
SPLINE
5
1ED
100
AcDbEntity
8
SK1
62
256
6
ByLayer
370
70
48
1
60
0
100
AcDbSpline
70
4
71
3
72
99
73
95
40
0
40
0
40
0
40
0
40
0.0050184360157987
40
0.0050184360157987
40
0.0128291503708804
40
0.0128291503708804
40
0.0206398647259621
40
0.0206398647259621
40
0.051882722146289
40
0.051882722146289
40
0.0831255795666159
40
0.0831255795666159
40
0.0987470082767795
40
0.0987470082767795
40
0.106557722631861
40
0.106557722631861
40
0.114368436986943
40
0.114368436986943
40
0.145611294407269
40
0.145611294407269
40
0.176854151827596
40
0.176854151827596
40
0.192475580537759
40
0.192475580537759
40
0.200286294892841
40
0.200286294892841
40
0.208097009247923
40
0.208097009247923
40
0.23933986666825
40
0.23933986666825
40
0.270582724088576
40
0.270582724088576
40
0.28620415279874
40
0.294014867153822
40
0.294014867153822
40
0.301825581508904
40
0.301825581508904
40
0.333068438929231
40
0.333068438929231
40
0.364311296349558
40
0.395554153769885
40
0.395554153769885
40
0.411175582480049
40
0.411175582480049
40
0.426797011190212
40
0.426797011190212
40
0.45803986861054
40
0.489282726030867
40
0.489282726030867
40
0.50490415474103
40
0.512714869096112
40
0.512714869096112
40
0.520525583451194
40
0.520525583451194
40
0.551768440871519
40
0.583011298291845
40
0.614254155712171
40
0.614254155712171
40
0.629875584422333
40
0.629875584422333
40
0.645497013132497
40
0.645497013132497
40
0.676739870552822
40
0.707982727973148
40
0.707982727973148
40
0.739225585393474
40
0.739225585393474
40
0.754847014103636
40
0.754847014103636
40
0.762657728458718
40
0.762657728458718
40
0.770468442813799
40
0.801711300234125
40
0.83295415765445
40
0.83295415765445
40
0.864197015074775
40
0.864197015074775
40
0.872007729429856
40
0.872007729429856
40
0.879818443784937
40
0.879818443784937
40
0.8954398724951
40
0.8954398724951
40
0.926682729915425
40
0.926682729915425
40
0.95792558733575
40
0.95792558733575
40
0.973547016045913
40
0.973547016045913
40
0.981357730400994
40
0.981357730400994
40
0.989168444756075
40
0.989168444756075
40
1
40
1
40
1
40
1
41
1
10
-13.2469566094715
20
23.6569560861537
30
0
41
1
10
-13.2469466670068
20
23.6569550056942
30
0
41
1
10
-13.2467321315855
20
23.6569314827634
30
0
41
1
10
-13.2456544891891
20
23.6568132635898
30
0
41
1
10
-13.2444955713426
20
23.6566861382827
30
0
41
1
10
-13.2411920218187
20
23.6563241349774
30
0
41
1
10
-13.2390467004134
20
23.6560891816845
30
0
41
1
10
-13.2258825728757
20
23.6546496237063
30
0
41
1
10
-13.2075709821314
20
23.652650010589
30
0
41
1
10
-13.1558323104206
20
23.6470914945696
30
0
41
1
10
-13.1224042484684
20
23.6435323553273
30
0
41
1
10
-13.0608968616811
20
23.6371412446415
30
0
41
1
10
-13.0384965396012
20
23.6348356500771
30
0
41
1
10
-13.0020120072721
20
23.6311310092279
30
0
41
1
10
-12.9893616630105
20
23.6298543394849
30
0
41
1
10
-12.9632529602319
20
23.6272381249773
30
0
41
1
10
-12.9497773595775
20
23.6258968183621
30
0
41
1
10
-12.8803254552316
20
23.6190364934434
30
0
41
1
10
-12.8181449146298
20
23.6130561767701
30
0
41
1
10
-12.6810806346569
20
23.6004205005736
30
0
41
1
10
-12.6061952477084
20
23.5937646142667
30
0
41
1
10
-12.4844294870706
20
23.583510750746
30
0
41
1
10
-12.442264907285
20
23.5800478930239
30
0
41
1
10
-12.3766380889041
20
23.5748173442599
30
0
41
1
10
-12.3543400653707
20
23.573065871331
30
0
41
1
10
-12.3091731910907
20
23.5695736449997
30
0
41
1
10
-12.2862849349021
20
23.5678312872918
30
0
41
1
10
-12.1703436582453
20
23.5591513992519
30
0
41
1
10
-12.0728030120352
20
23.5523099507275
30
0
41
1
10
-11.8685551546404
20
23.5391595593435
30
0
41
1
10
-11.7618465615816
20
23.5328500955193
30
0
41
1
10
-11.5949971909206
20
23.5240296563647
30
0
41
1
10
-11.5098729798394
20
23.5197804222534
30
0
41
1
10
-11.4221872669694
20
23.5158200126691
30
0
41
1
10
-11.3631579722163
20
23.513249310012
30
0
41
1
10
-11.3333564257288
20
23.5119988741251
30
0
41
1
10
-11.1836719249596
20
23.5059634677947
30
0
41
1
10
-11.0611715437419
20
23.5018027233071
30
0
41
1
10
-10.8109080759349
20
23.4950437112965
30
0
41
1
10
-10.5553807251703
20
23.4898477623947
30
0
41
1
10
-10.2894986240822
20
23.4882203476023
30
0
41
1
10
-10.0861628896041
20
23.4885083162437
30
0
41
1
10
-10.017577543658
20
23.4888578818056
30
0
41
1
10
-9.88027885737782
20
23.490075881373
30
0
41
1
10
-9.81147517821969
20
23.4909432842218
30
0
41
1
10
-9.6046119245529
20
23.4943303512133
30
0
41
1
10
-9.32759076511411
20
23.5009400541719
30
0
41
1
10
-9.04822378789549
20
23.5118332255955
30
0
41
1
10
-8.837817282141
20
23.5216438844856
30
0
41
1
10
-8.7323933673332
20
23.526959389085
30
0
41
1
10
-8.62663454419342
20
23.532896559562
30
0
41
1
10
-8.55605359870461
20
23.5369935377144
30
0
41
1
10
-8.52068465584
20
23.5391140234276
30
0
41
1
10
-8.34418616000252
20
23.5500321262522
30
0
41
1
10
-8.06473010317592
20
23.5694685006915
30
0
41
1
10
-7.65408106511759
20
23.6041153549166
30
0
41
1
10
-7.38595512614091
20
23.630601915389
30
0
41
1
10
-7.18701176196612
20
23.6516309475906
30
0
41
1
10
-7.12105639653211
20
23.658834589012
30
0
41
1
10
-6.98987727962211
20
23.673611113849
30
0
41
1
10
-6.92455263013892
20
23.6811970351244
30
0
41
1
10
-6.73161520389232
20
23.7042456203121
30
0
41
1
10
-6.48127896158812
20
23.7358761789955
30
0
41
1
10
-6.24453282273521
20
23.768771013757
30
0
41
1
10
-6.01465768831622
20
23.8020226918597
30
0
41
1
10
-5.90315461590421
20
23.818827464424
30
0
41
1
10
-5.74126603735681
20
23.8440816632848
30
0
41
1
10
-5.68819923246301
20
23.8525073697638
30
0
41
1
10
-5.60998729505232
20
23.8651272766977
30
0
41
1
10
-5.58416607297161
20
23.8693280018018
30
0
41
1
10
-5.53328771570869
20
23.877669298563
30
0
41
1
10
-5.40782433685982
20
23.8984023118841
30
0
41
1
10
-5.1974288896823
20
23.93452529014
30
0
41
1
10
-5.0323542700514
20
23.9643089158699
30
0
41
1
10
-4.8785916251953
20
23.9925900830116
30
0
41
1
10
-4.8073634913915
20
24.0059802878703
30
0
41
1
10
-4.72585475998801
20
24.0215390032988
30
0
41
1
10
-4.7099304368268
20
24.024591643842
30
0
41
1
10
-4.6788528405761
20
24.0305720200135
30
0
41
1
10
-4.66376417821871
20
24.0334873250042
30
0
41
1
10
-4.61990939199302
20
24.0419907174421
30
0
41
1
10
-4.59252283054832
20
24.0473422339631
30
0
41
1
10
-4.51586414034691
20
24.0624097310933
30
0
41
1
10
-4.47207896984742
20
24.0711395346937
30
0
41
1
10
-4.3992314834473
20
24.0857655399706
30
0
41
1
10
-4.37016770942742
20
24.0916622047924
30
0
41
1
10
-4.3380252860251
20
24.0982050498271
30
0
41
1
10
-4.32922378620921
20
24.1000020034148
30
0
41
1
10
-4.3189797004157
20
24.1020958866227
30
0
41
1
10
-4.3160578271418
20
24.1026936636032
30
0
41
1
10
-4.31124586605412
20
24.1036785671448
30
0
41
1
10
-4.3093492330419
20
24.1040670309224
30
0
41
1
10
-4.30602466007412
20
24.1047480958763
30
0
41
1
10
-4.30505947770388
20
24.1049456382201
30
0
41
1
10
-4.30504965106087
20
24.1049474969014
30
0
0
SPLINE
5
1EE
100
AcDbEntity
8
SK1
62
256
6
ByLayer
370
70
48
1
60
0
100
AcDbSpline
70
4
71
3
72
8
73
4
40
0
40
0
40
0
40
0
40
1
40
1
40
1
40
1
41
1
10
-30.7500004223112
20
-20.8447435124634
30
0
41
1
10
-30.7533715275788
20
-20.8412726012271
30
0
41
1
10
-30.7567199994156
20
-20.8377949233473
30
0
41
1
10
-30.7600453527188
20
-20.8343104848669
30
0
0
SPLINE
5
1EF
100
AcDbEntity
8
SK1
62
256
6
ByLayer
370
70
48
1
60
0
100
AcDbSpline
70
4
71
3
72
42
73
38
40
0
40
0
40
0
40
0
40
0.250000000000002
40
0.250000000000002
40
0.375000000000002
40
0.375000000000002
40
0.500000000000001
40
0.500000000000001
40
0.625000000000001
40
0.625000000000001
40
0.687500000000002
40
0.687500000000002
40
0.750000000000003
40
0.750000000000003
40
0.812500000000004
40
0.812500000000004
40
0.843750000000003
40
0.843750000000003
40
0.875000000000003
40
0.875000000000003
40
0.906250000000003
40
0.906250000000003
40
0.921875000000002
40
0.921875000000002
40
0.937500000000001
40
0.937500000000001
40
0.953125
40
0.953125
40
0.968749999999999
40
0.968749999999999
40
0.976562499999999
40
0.976562499999999
40
0.984374999999999
40
0.984374999999999
40
0.9921875
40
0.9921875
40
1
40
1
40
1
40
1
41
1
10
-30.7500004223109
20
-20.8447435124645
30
0
41
1
10
-30.297169549898
20
-20.8439693671223
30
0
41
1
10
-29.8448376987326
20
-20.84144784383
30
0
41
1
10
-29.1674870267804
20
-20.8336149042077
30
0
41
1
10
-28.9418768062926
20
-20.8303201727145
30
0
41
1
10
-28.4913066134196
20
-20.8219298235282
30
0
41
1
10
-28.2663382689668
20
-20.8168414584499
30
0
41
1
10
-27.8172914749229
20
-20.8041470946947
30
0
41
1
10
-27.5931956542436
20
-20.7965606674487
30
0
41
1
10
-27.258389376217
20
-20.7822772079913
30
0
41
1
10
-27.1470031551609
20
-20.7770257805948
30
0
41
1
10
-26.9248050528617
20
-20.7652168892887
30
0
41
1
10
-26.814053362897
20
-20.7586681340641
30
0
41
1
10
-26.5935600493697
20
-20.7437379525012
30
0
41
1
10
-26.483748257581
20
-20.7353669713704
30
0
41
1
10
-26.3204968750093
20
-20.720684021038
30
0
41
1
10
-26.2663254192245
20
-20.7154308645876
30
0
41
1
10
-26.1586410654516
20
-20.7039622296855
30
0
41
1
10
-26.105110415239
20
-20.6977483617098
30
0
41
1
10
-25.9992602102687
20
-20.6839836468159
30
0
41
1
10
-25.9468524701766
20
-20.6764338748357
30
0
41
1
10
-25.8697749897475
20
-20.6635545105945
30
0
41
1
10
-25.8443800737596
20
-20.6590053951595
30
0
41
1
10
-25.7943798125411
20
-20.6492278331552
30
0
41
1
10
-25.7697712136062
20
-20.6440021870835
30
0
41
1
10
-25.7216653067612
20
-20.6325946471623
30
0
41
1
10
-25.6980914130428
20
-20.6263955513373
30
0
41
1
10
-25.6532689614571
20
-20.6127094099945
30
0
41
1
10
-25.6319437358697
20
-20.6052323739351
30
0
41
1
10
-25.6027789432872
20
-20.5923686841383
30
0
41
1
10
-25.5936537119046
20
-20.5878489350276
30
0
41
1
10
-25.5770112894875
20
-20.5782226388778
30
0
41
1
10
-25.5694822028594
20
-20.5731153898668
30
0
41
1
10
-25.5566274340465
20
-20.56208278488
30
0
41
1
10
-25.5514751061193
20
-20.556289491363
30
0
41
1
10
-25.5443980685165
20
-20.5441117723725
30
0
41
1
10
-25.5424876916505
20
-20.5376594141944
30
0
41
1
10
-25.542528122385
20
-20.5310987896625
30
0
0
SPLINE
5
1F0
100
AcDbEntity
8
SK1
62
256
6
ByLayer
370
70
48
1
60
0
100
AcDbSpline
70
4
71
3
72
39
73
35
40
0
40
0
40
0
40
0
40
0.125000000000002
40
0.125000000000002
40
0.250000000000003
40
0.250000000000003
40
0.312500000000004
40
0.312500000000004
40
0.375000000000005
40
0.375000000000005
40
0.500000000000006
40
0.500000000000006
40
0.562500000000006
40
0.562500000000006
40
0.625000000000007
40
0.625000000000007
40
0.687500000000007
40
0.687500000000007
40
0.750000000000007
40
0.750000000000007
40
0.765625000000008
40
0.765625000000008
40
0.781250000000008
40
0.812500000000006
40
0.812500000000006
40
0.875000000000003
40
0.875000000000003
40
0.890625000000002
40
0.890625000000002
40
0.906250000000002
40
0.906250000000002
40
0.937500000000001
40
0.937500000000001
40
1
40
1
40
1
40
1
41
1
10
-23.2000004223112
20
-19.4725065681033
30
0
41
1
10
-23.3288826983935
20
-19.5016611109115
30
0
41
1
10
-23.4566089551737
20
-19.5317405045091
30
0
41
1
10
-23.7092138526472
20
-19.5941774716455
30
0
41
1
10
-23.8340966717221
20
-19.6265317023515
30
0
41
1
10
-24.0187087060913
20
-19.6772328867359
30
0
41
1
10
-24.0797918092038
20
-19.6944966887619
30
0
41
1
10
-24.2009164015064
20
-19.7298576158013
30
0
41
1
10
-24.2609777919633
20
-19.7479623878936
30
0
41
1
10
-24.4384882308674
20
-19.8034487178425
30
0
41
1
10
-24.5535687860451
20
-19.8420607367674
30
0
41
1
10
-24.7196031798587
20
-19.9032543323202
30
0
41
1
10
-24.7738426249726
20
-19.924201911461
30
0
41
1
10
-24.8796921610254
20
-19.9674046998996
30
0
41
1
10
-24.9313043896259
20
-19.9896588460958
30
0
41
1
10
-25.0313351630177
20
-20.0357554210026
30
0
41
1
10
-25.0797575658961
20
-20.0595959310098
30
0
41
1
10
-25.1726102838781
20
-20.1092622957196
30
0
41
1
10
-25.2170482209734
20
-20.1350843598541
30
0
41
1
10
-25.2693539571038
20
-20.1689740946028
30
0
41
1
10
-25.2796688362119
20
-20.1758452837682
30
0
41
1
10
-25.299851120576
20
-20.1896964353786
30
0
41
1
10
-25.3294400237023
20
-20.2106251900731
30
0
41
1
10
-25.356884689916
20
-20.2320301629566
30
0
41
1
10
-25.4086345054044
20
-20.2755373707947
30
0
41
1
10
-25.4389695966883
20
-20.305467142238
30
0
41
1
10
-25.4704827161842
20
-20.3443020221434
30
0
41
1
10
-25.4764633944087
20
-20.352140499732
30
0
41
1
10
-25.4877434751724
20
-20.3679687608918
30
0
41
1
10
-25.4930451892677
20
-20.3759653754049
30
0
41
1
10
-25.5077503521715
20
-20.3999871517766
30
0
41
1
10
-25.5160028741129
20
-20.4161081023828
30
0
41
1
10
-25.5359149168378
20
-20.4648034817867
30
0
41
1
10
-25.5427338847109
20
-20.4977100970871
30
0
41
1
10
-25.5425281223849
20
-20.5310987896625
30
0
0
SPLINE
5
1F1
100
AcDbEntity
8
SK1
62
256
6
ByLayer
370
70
48
1
60
0
100
AcDbSpline
70
4
71
3
72
47
73
43
40
0
40
0
40
0
40
0
40
0.0156249999999977
40
0.0156249999999977
40
0.0234374999999966
40
0.0234374999999966
40
0.0312499999999956
40
0.0390624999999945
40
0.0390624999999945
40
0.0468749999999934
40
0.0468749999999934
40
0.0546874999999923
40
0.0546874999999923
40
0.0624999999999912
40
0.0624999999999912
40
0.0781249999999916
40
0.0781249999999916
40
0.0937499999999919
40
0.0937499999999919
40
0.124999999999992
40
0.124999999999992
40
0.156249999999992
40
0.156249999999992
40
0.187499999999993
40
0.187499999999993
40
0.249999999999993
40
0.249999999999993
40
0.312499999999993
40
0.312499999999993
40
0.374999999999994
40
0.374999999999994
40
0.437499999999994
40
0.437499999999994
40
0.499999999999995
40
0.499999999999995
40
0.624999999999996
40
0.624999999999996
40
0.749999999999997
40
0.749999999999997
40
0.874999999999999
40
0.874999999999999
40
1
40
1
40
1
40
1
41
1
10
-23.2000004223112
20
-19.4725065681033
30
0
41
1
10
-23.187650628166
20
-19.4697129132036
30
0
41
1
10
-23.1748851851816
20
-19.4677095952294
30
0
41
1
10
-23.1549753960479
20
-19.4661576393288
30
0
41
1
10
-23.1481918147334
20
-19.4658835478516
30
0
41
1
10
-23.134419523034
20
-19.465882670187
30
0
41
1
10
-23.1207364480585
20
-19.4664268355749
30
0
41
1
10
-23.1072254443109
20
-19.4680222298311
30
0
41
1
10
-23.0937978141646
20
-19.4701267885899
30
0
41
1
10
-23.0871218018222
20
-19.4714388483731
30
0
41
1
10
-23.074201540972
20
-19.4744591367794
30
0
41
1
10
-23.0679079546781
20
-19.4761738220353
30
0
41
1
10
-23.0556118319772
20
-19.4799600039436
30
0
41
1
10
-23.0495836826284
20
-19.482041732507
30
0
41
1
10
-23.0320853763446
20
-19.4886830221182
30
0
41
1
10
-23.0212473177383
20
-19.4936013220224
30
0
41
1
10
-23.0007376339404
20
-19.5041240369256
30
0
41
1
10
-22.9910712634405
20
-19.5097315965183
30
0
41
1
10
-22.9634134918495
20
-19.5273350722549
30
0
41
1
10
-22.9472406916906
20
-19.5397543365687
30
0
41
1
10
-22.9175879726078
20
-19.5652526444239
30
0
41
1
10
-22.9041219218857
20
-19.5783630327017
30
0
41
1
10
-22.879026730789
20
-19.6050439254085
30
0
41
1
10
-22.8673846648438
20
-19.6186491846308
30
0
41
1
10
-22.8347033502921
20
-19.6597296361819
30
0
41
1
10
-22.8159782755804
20
-19.6872751764781
30
0
41
1
10
-22.7821757862937
20
-19.7424251458118
30
0
41
1
10
-22.7671479077585
20
-19.7700345928218
30
0
41
1
10
-22.7397137871266
20
-19.8252022723898
30
0
41
1
10
-22.7273214441145
20
-19.8527619238738
30
0
41
1
10
-22.7045653484563
20
-19.9077647027789
30
0
41
1
10
-22.6942068132394
20
-19.9352083672445
30
0
41
1
10
-22.6751451358684
20
-19.989936744081
30
0
41
1
10
-22.6664379111702
20
-20.0172441643863
30
0
41
1
10
-22.6424727751062
20
-20.0987162767481
30
0
41
1
10
-22.6293623851718
20
-20.1523533009539
30
0
41
1
10
-22.6075157137815
20
-20.2582768256699
30
0
41
1
10
-22.5987951636362
20
-20.3105632252964
30
0
41
1
10
-22.585063247574
20
-20.4137845853806
30
0
41
1
10
-22.5800576425483
20
-20.4647195203596
30
0
41
1
10
-22.5734314089313
20
-20.5652333068998
30
0
41
1
10
-22.5718127259318
20
-20.6148121662062
30
0
41
1
10
-22.5718459250621
20
-20.6637088720743
30
0
0
SPLINE
5
1F2
100
AcDbEntity
8
SK1
62
256
6
ByLayer
370
70
48
1
60
0
100
AcDbSpline
70
4
71
3
72
32
73
28
40
0
40
0
40
0
40
0
40
0.0312499999999996
40
0.0312499999999996
40
0.0624999999999991
40
0.125
40
0.125
40
0.1875
40
0.1875
40
0.250000000000001
40
0.250000000000001
40
0.312500000000001
40
0.312500000000001
40
0.375000000000002
40
0.375000000000002
40
0.500000000000004
40
0.500000000000004
40
0.625000000000006
40
0.625000000000006
40
0.687500000000006
40
0.718750000000006
40
0.718750000000006
40
0.750000000000005
40
0.750000000000005
40
0.875000000000002
40
0.875000000000002
40
1
40
1
40
1
40
1
41
1
10
-22.5718459250619
20
-20.6637088720743
30
0
41
1
10
-22.5718565922253
20
-20.6794198001791
30
0
41
1
10
-22.5707074199425
20
-20.6952545580682
30
0
41
1
10
-22.5661853105257
20
-20.7266036490614
30
0
41
1
10
-22.5560985079183
20
-20.7732489028711
30
0
41
1
10
-22.5371372563059
20
-20.8188378574837
30
0
41
1
10
-22.506212522244
20
-20.8788303309107
30
0
41
1
10
-22.4879472251538
20
-20.9084310154557
30
0
41
1
10
-22.4478954496823
20
-20.9669643221895
30
0
41
1
10
-22.4260980699618
20
-20.9959133431427
30
0
41
1
10
-22.380691436233
20
-21.053139258797
30
0
41
1
10
-22.3570807991042
20
-21.081417168411
30
0
41
1
10
-22.3092026528081
20
-21.137418456526
30
0
41
1
10
-22.2849308325641
20
-21.1651413111397
30
0
41
1
10
-22.21237779973
20
-21.2475918157346
30
0
41
1
10
-22.1644145331291
20
-21.3016087266558
30
0
41
1
10
-22.0738168969334
20
-21.4080818281546
30
0
41
1
10
-22.0311371321174
20
-21.4605332412429
30
0
41
1
10
-21.9734287854046
20
-21.5381443266204
30
0
41
1
10
-21.9461430678578
20
-21.5766818028347
30
0
41
1
10
-21.921611536855
20
-21.6148274767514
30
0
41
1
10
-21.9059136877367
20
-21.6401715074985
30
0
41
1
10
-21.8983871035906
20
-21.6528109985588
30
0
41
1
10
-21.8625915674249
20
-21.7156478281074
30
0
41
1
10
-21.8398509945179
20
-21.7647068671357
30
0
41
1
10
-21.8085685955523
20
-21.860310758369
30
0
41
1
10
-21.8000004223112
20
-21.9068562324133
30
0
41
1
10
-21.8000004223112
20
-21.9520839046691
30
0
0
SPLINE
5
1F3
100
AcDbEntity
8
SK1
62
256
6
ByLayer
370
70
48
1
60
0
100
AcDbSpline
70
4
71
3
72
48
73
44
40
0
40
0
40
0
40
0
40
0.125000000000001
40
0.125000000000001
40
0.187500000000002
40
0.187500000000002
40
0.250000000000003
40
0.250000000000003
40
0.375000000000002
40
0.375000000000002
40
0.500000000000001
40
0.500000000000001
40
0.562500000000001
40
0.562500000000001
40
0.59375
40
0.625
40
0.625
40
0.687500000000001
40
0.687500000000001
40
0.750000000000001
40
0.750000000000001
40
0.812500000000002
40
0.812500000000002
40
0.843750000000003
40
0.843750000000003
40
0.875000000000003
40
0.875000000000003
40
0.906250000000003
40
0.906250000000003
40
0.921875000000004
40
0.921875000000004
40
0.937500000000004
40
0.937500000000004
40
0.945312500000003
40
0.945312500000003
40
0.953125000000003
40
0.953125000000003
40
0.968750000000001
40
0.984374999999999
40
0.984374999999999
40
0.992187499999999
40
0.992187499999999
40
1
40
1
40
1
40
1
41
1
10
-25.8000004223111
20
21.8338164768252
30
0
41
1
10
-25.8000004223111
20
21.7915616932459
30
0
41
1
10
-25.8090355249038
20
21.7478886231867
30
0
41
1
10
-25.8346253499312
20
21.6803274915863
30
0
41
1
10
-25.8451741119046
20
21.657459370377
30
0
41
1
10
-25.870133255412
20
21.611068883537
30
0
41
1
10
-25.88442837752
20
21.5877568927845
30
0
41
1
10
-25.9323197494433
20
21.5174811379227
30
0
41
1
10
-25.9708954681802
20
21.4701766351095
30
0
41
1
10
-26.0597613669821
20
21.3747376968519
30
0
41
1
10
-26.1100473734061
20
21.3266019341388
30
0
41
1
10
-26.193759866523
20
21.2538676785149
30
0
41
1
10
-26.2230515179918
20
21.2295349064356
30
0
41
1
10
-26.269102391648
20
21.1929233351458
30
0
41
1
10
-26.3005086072008
20
21.1684781899148
30
0
41
1
10
-26.3333655559892
20
21.1439679172571
30
0
41
1
10
-26.3836137927025
20
21.1072837145489
30
0
41
1
10
-26.4184367946815
20
21.0828939039857
30
0
41
1
10
-26.4910779664808
20
21.0343527408064
30
0
41
1
10
-26.5289293115117
20
21.0101707773759
30
0
41
1
10
-26.6081708220954
20
20.9624296091495
30
0
41
1
10
-26.6495212127812
20
20.9388574261359
30
0
41
1
10
-26.7155575675339
20
20.9043825860996
30
0
41
1
10
-26.7381854718746
20
20.8930763850154
30
0
41
1
10
-26.7849647630817
20
20.8710565078676
30
0
41
1
10
-26.8091244426228
20
20.8603320584473
30
0
41
1
10
-26.8596634152709
20
20.8397526331819
30
0
41
1
10
-26.886025268375
20
20.8298902068595
30
0
41
1
10
-26.9281906196189
20
20.8161652083246
30
0
41
1
10
-26.9425894340376
20
20.8118063042744
30
0
41
1
10
-26.9720530319149
20
20.8036833762742
30
0
41
1
10
-26.987141731113
20
20.7999110001802
30
0
41
1
10
-27.0104418230946
20
20.7947971843859
30
0
41
1
10
-27.0183200723209
20
20.7931836832861
30
0
41
1
10
-27.0343268947041
20
20.7901617507431
30
0
41
1
10
-27.0424364239188
20
20.7887581757635
30
0
41
1
10
-27.0667848748519
20
20.7849461963152
30
0
41
1
10
-27.0995301245418
20
20.7808835265938
30
0
41
1
10
-27.1328818496617
20
20.7790296636822
30
0
41
1
10
-27.1581352871374
20
20.7785122863741
30
0
41
1
10
-27.16660320173
20
20.7784864100352
30
0
41
1
10
-27.1833769825336
20
20.7787216300466
30
0
41
1
10
-27.1917128542203
20
20.778981589709
30
0
41
1
10
-27.2000004223113
20
20.779376124844
30
0
0
SPLINE
5
1F4
100
AcDbEntity
8
SK1
62
256
6
ByLayer
370
70
48
1
60
0
100
AcDbSpline
70
4
71
3
72
16
73
12
40
0
40
0
40
0
40
0
40
0.25
40
0.25
40
0.5
40
0.5
40
0.75
40
0.75
40
0.875
40
0.875
40
1
40
1
40
1
40
1
41
1
10
-30.7500004223112
20
20.8447435124635
30
0
41
1
10
-30.4525212703698
20
20.8442349515108
30
0
41
1
10
-30.1553004008198
20
20.8429579941979
30
0
41
1
10
-29.5615299207097
20
20.8383963493072
30
0
41
1
10
-29.2649779066591
20
20.8351189775666
30
0
41
1
10
-28.6727968712063
20
20.8257901832185
30
0
41
1
10
-28.3771610354527
20
20.8197595020289
30
0
41
1
10
-27.934753839427
20
20.8075544018738
30
0
41
1
10
-27.7874612801183
20
20.8029531915611
30
0
41
1
10
-27.4933396923025
20
20.7923486729088
30
0
41
1
10
-27.3465088921305
20
20.7863507570032
30
0
41
1
10
-27.2000004223111
20
20.7793761248444
30
0
0
SPLINE
5
1F5
100
AcDbEntity
8
SK1
62
256
6
ByLayer
370
70
48
1
60
0
100
AcDbSpline
70
4
71
3
72
8
73
4
40
0
40
0
40
0
40
0
40
1
40
1
40
1
40
1
41
1
10
-30.7600453527294
20
20.8343104848559
30
0
41
1
10
-30.7567199994227
20
20.83779492334
30
0
41
1
10
-30.7533715275825
20
20.8412726012235
30
0
41
1
10
-30.7500004223112
20
20.8447435124635
30
0
0
SPLINE
5
1F6
100
AcDbEntity
8
SK1
62
256
6
ByLayer
370
70
48
1
60
0
100
AcDbSpline
70
4
71
3
72
89
73
85
40
0
40
0
40
0
40
0
40
0.0094836450028368
40
0.0094836450028368
40
0.0407315162400063
40
0.0407315162400063
40
0.0563554518585911
40
0.0563554518585911
40
0.0719793874771757
40
0.0719793874771757
40
0.103227258714345
40
0.103227258714345
40
0.134475129951515
40
0.134475129951515
40
0.150099065570099
40
0.157911033379392
40
0.157911033379392
40
0.165723001188684
40
0.165723001188684
40
0.196970872425854
40
0.196970872425854
40
0.228218743663024
40
0.259466614900194
40
0.259466614900194
40
0.290714486137364
40
0.290714486137364
40
0.321962357374533
40
0.353210228611703
40
0.353210228611703
40
0.361022196420996
40
0.361022196420996
40
0.368834164230288
40
0.368834164230288
40
0.384458099848874
40
0.384458099848874
40
0.415705971086044
40
0.446953842323214
40
0.478201713560384
40
0.478201713560384
40
0.486013681369676
40
0.486013681369676
40
0.493825649178969
40
0.509449584797553
40
0.509449584797553
40
0.540697456034721
40
0.57194532727189
40
0.57194532727189
40
0.587569262890474
40
0.595381230699766
40
0.595381230699766
40
0.603193198509058
40
0.603193198509058
40
0.634441069746229
40
0.665688940983399
40
0.665688940983399
40
0.696936812220569
40
0.696936812220569
40
0.712560747839154
40
0.712560747839154
40
0.728184683457739
40
0.728184683457739
40
0.759432554694909
40
0.790680425932079
40
0.790680425932079
40
0.82192829716925
40
0.82192829716925
40
0.829740264978542
40
0.829740264978542
40
0.837552232787835
40
0.837552232787835
40
0.85317616840642
40
0.85317616840642
40
0.88442403964359
40
0.88442403964359
40
0.91567191088076
40
0.91567191088076
40
0.931295846499345
40
0.931295846499345
40
0.939107814308638
40
0.939107814308638
40
0.94691978211793
40
0.94691978211793
40
0.978167653355101
40
1
40
1
40
1
40
1
41
1
10
-4.30505292868378
20
-24.1049467915056
30
0
41
1
10
-4.30503616619313
20
-24.1049506600311
30
0
41
1
10
-4.3057750714691
20
-24.1047992754305
30
0
41
1
10
-4.31202077923712
20
-24.1035196355857
30
0
41
1
10
-4.3246856484964
20
-24.1009229739785
30
0
41
1
10
-4.35542222500902
20
-24.0946628015691
30
0
41
1
10
-4.36762805351722
20
-24.0921816557315
30
0
41
1
10
-4.39599416617972
20
-24.0864375041566
30
0
41
1
10
-4.41216590046452
20
-24.0831721830931
30
0
41
1
10
-4.46664027405572
20
-24.0722257401725
30
0
41
1
10
-4.51027312557662
20
-24.0635192942713
30
0
41
1
10
-4.6113663849174
20
-24.0436290636246
30
0
41
1
10
-4.66882965309941
20
-24.0324445317661
30
0
41
1
10
-4.76515194169562
20
-24.0140296476916
30
0
41
1
10
-4.8158496652126
20
-24.004412278745
30
0
41
1
10
-4.87035263751361
20
-23.9942183215761
30
0
41
1
10
-4.90753608975811
20
-23.9872983588997
30
0
41
1
10
-4.92657884395962
20
-23.9837714329844
30
0
41
1
10
-5.02350660744281
20
-23.9659135828304
30
0
41
1
10
-5.10653736221161
20
-23.9509105671758
30
0
41
1
10
-5.28295965492541
20
-23.9198504030216
30
0
41
1
10
-5.46974679877621
20
-23.8877351044933
30
0
41
1
10
-5.67674523514981
20
-23.8541846881569
30
0
41
1
10
-5.89390284937352
20
-23.8202360799469
30
0
41
1
10
-6.00601507185391
20
-23.8033062138692
30
0
41
1
10
-6.2368057003487
20
-23.7698576766959
30
0
41
1
10
-6.47421729773851
20
-23.7368114591555
30
0
41
1
10
-6.72460949246562
20
-23.7051150351896
30
0
41
1
10
-6.885195886932
20
-23.6858914483381
30
0
41
1
10
-6.91751817952141
20
-23.6820760584044
30
0
41
1
10
-6.9825754805168
20
-23.674508056329
30
0
41
1
10
-7.0153496553684
20
-23.6707510746809
30
0
41
1
10
-7.11392397009271
20
-23.6596222428688
30
0
41
1
10
-7.1799980964129
20
-23.6523892746697
30
0
41
1
10
-7.37927331503411
20
-23.6312768052234
30
0
41
1
10
-7.64777651388801
20
-23.6046912977838
30
0
41
1
10
-8.0587828767371
20
-23.5699254153042
30
0
41
1
10
-8.33832421493622
20
-23.5504249364506
30
0
41
1
10
-8.51482383172251
20
-23.5394697450072
30
0
41
1
10
-8.55023194239391
20
-23.5373394265481
30
0
41
1
10
-8.62088229456572
20
-23.5332237018914
30
0
41
1
10
-8.7267329226456
20
-23.5272595309775
30
0
41
1
10
-8.83221265684
20
-23.5219199268093
30
0
41
1
10
-9.0426839302383
20
-23.5120637936392
30
0
41
1
10
-9.3220125982142
20
-23.5011171475566
30
0
41
1
10
-9.59875498042422
20
-23.4944572966312
30
0
41
1
10
-9.80531983196312
20
-23.4910295853083
30
0
41
1
10
-9.90835388982751
20
-23.4897074919776
30
0
41
1
10
-10.0110070170773
20
-23.4889649961651
30
0
41
1
10
-10.0793566027258
20
-23.488597870644
30
0
41
1
10
-10.1135318980211
20
-23.4884782087449
30
0
41
1
10
-10.2836089445884
20
-23.4881977933955
30
0
41
1
10
-10.5500301750021
20
-23.4897766695989
30
0
41
1
10
-10.8052789376369
20
-23.4949195748162
30
0
41
1
10
-11.0549040637695
20
-23.5016071621067
30
0
41
1
10
-11.176905407585
20
-23.5057236259708
30
0
41
1
10
-11.3555422548733
20
-23.5128784262198
30
0
41
1
10
-11.4143590443227
20
-23.5154266725946
30
0
41
1
10
-11.5304929745313
20
-23.520819051076
30
0
41
1
10
-11.5879069831285
20
-23.5236691558131
30
0
41
1
10
-11.7559586751917
20
-23.5325126128968
30
0
41
1
10
-11.9700469195847
20
-23.5451330213159
30
0
41
1
10
-12.1643635750551
20
-23.5587262884644
30
0
41
1
10
-12.3485925332974
20
-23.5724748969697
30
0
41
1
10
-12.4356650687873
20
-23.5794274234335
30
0
41
1
10
-12.5378715231739
20
-23.5880065939794
30
0
41
1
10
-12.5579802069374
20
-23.5897168217585
30
0
41
1
10
-12.5975202668612
20
-23.5931206664414
30
0
41
1
10
-12.6169774048978
20
-23.5948165938098
30
0
41
1
10
-12.6739842436387
20
-23.5998420697189
30
0
41
1
10
-12.7102516320326
20
-23.6031160177485
30
0
41
1
10
-12.8139016608741
20
-23.6126536256572
30
0
41
1
10
-12.8761452858504
20
-23.6186324416688
30
0
41
1
10
-12.9869136120914
20
-23.6295568788405
30
0
41
1
10
-13.0354393753364
20
-23.6345029506771
30
0
41
1
10
-13.0976093573991
20
-23.6409530335778
30
0
41
1
10
-13.1165594385021
20
-23.642941626825
30
0
41
1
10
-13.142249079434
20
-23.6456582374221
30
0
41
1
10
-13.1503561252768
20
-23.6465193937801
30
0
41
1
10
-13.1656420261868
20
-23.6481488990407
30
0
41
1
10
-13.172804058007
20
-23.6489154580497
30
0
41
1
10
-13.2060665232873
20
-23.6524863703207
30
0
41
1
10
-13.2377328433395
20
-23.6559433108699
30
0
41
1
10
-13.2469709285426
20
-23.656956884494
30
0
41
1
10
-13.2469592206247
20
-23.6569559759711
30
0
0
SPLINE
5
1F7
100
AcDbEntity
8
1
62
256
6
ByLayer
370
70
48
1
60
0
100
AcDbSpline
70
4
71
3
72
52
73
48
40
0
40
0
40
0
40
0
40
0.0625000000000034
40
0.0625000000000034
40
0.125000000000007
40
0.125000000000007
40
0.15625000000001
40
0.15625000000001
40
0.171875000000009
40
0.171875000000009
40
0.187500000000008
40
0.187500000000008
40
0.250000000000005
40
0.312500000000002
40
0.312500000000002
40
0.328125000000002
40
0.328125000000002
40
0.343750000000001
40
0.375000000000002
40
0.375000000000002
40
0.437500000000007
40
0.437500000000007
40
0.468750000000009
40
0.468750000000009
40
0.48437500000001
40
0.48437500000001
40
0.500000000000011
40
0.500000000000011
40
0.56250000000001
40
0.625000000000009
40
0.625000000000009
40
0.656250000000009
40
0.656250000000009
40
0.687500000000008
40
0.687500000000008
40
0.750000000000006
40
0.750000000000006
40
0.781250000000005
40
0.781250000000005
40
0.812500000000004
40
0.812500000000004
40
0.875000000000003
40
0.937500000000001
40
0.937500000000001
40
0.968750000000001
40
0.968750000000001
40
1
40
1
40
1
40
1
41
1
10
16.4749995776888
20
-16.2306014000909
30
0
41
1
10
16.5131909009024
20
-16.1758306515719
30
0
41
1
10
16.5554547380569
20
-16.1235765324234
30
0
41
1
10
16.6478005415818
20
-16.0239672420608
30
0
41
1
10
16.6978835252306
20
-15.9766125032621
30
0
41
1
10
16.7789431016364
20
-15.9093546103711
30
0
41
1
10
16.8069552932842
20
-15.8875663672025
30
0
41
1
10
16.8505011366346
20
-15.8558626405861
30
0
41
1
10
16.8652484499725
20
-15.8454759050084
30
0
41
1
10
16.8950367456911
20
-15.8251800306267
30
0
41
1
10
16.9101015022749
20
-15.8152534092798
30
0
41
1
10
16.986267801785
20
-15.7667160545081
30
0
41
1
10
17.1135043796537
20
-15.6960418033308
30
0
41
1
10
17.2513047100434
20
-15.6392420148952
30
0
41
1
10
17.3408524132999
20
-15.6082748474797
30
0
41
1
10
17.358950603826
20
-15.6023047874346
30
0
41
1
10
17.3952236955917
20
-15.5909101826728
30
0
41
1
10
17.449842353005
20
-15.5746027417
30
0
41
1
10
17.5050790967711
20
-15.5606184533737
30
0
41
1
10
17.6163633741937
20
-15.535704953212
30
0
41
1
10
17.6916304811539
20
-15.5231568310926
30
0
41
1
10
17.8061584608764
20
-15.5104882763165
30
0
41
1
10
17.8446065338839
20
-15.5072941418847
30
0
41
1
10
17.9026963049634
20
-15.504083480313
30
0
41
1
10
17.9221658861576
20
-15.5032762999705
30
0
41
1
10
17.9610103754431
20
-15.5022030884861
30
0
41
1
10
17.9803923278759
20
-15.501935440669
30
0
41
1
10
18.0771034400256
20
-15.5019233236846
30
0
41
1
10
18.2305750712516
20
-15.5103577906518
30
0
41
1
10
18.3815718074287
20
-15.53529791192
30
0
41
1
10
18.4938637061902
20
-15.5603552125928
30
0
41
1
10
18.5311894696789
20
-15.5697940766894
30
0
41
1
10
18.6044178525793
20
-15.5905211866751
30
0
41
1
10
18.6404567787011
20
-15.6018357051643
30
0
41
1
10
18.7468812132445
20
-15.6385677492124
30
0
41
1
10
18.8155815742047
20
-15.6667623225412
30
0
41
1
10
18.9152574501051
20
-15.7145716614805
30
0
41
1
10
18.9479185001434
20
-15.7314305538861
30
0
41
1
10
19.0120895025099
20
-15.7670218060772
30
0
41
1
10
19.0436838151098
20
-15.7858151823979
30
0
41
1
10
19.1354022588012
20
-15.8442281361303
30
0
41
1
10
19.2503030406909
20
-15.9278758442662
30
0
41
1
10
19.3508319456528
20
-16.0225872482431
30
0
41
1
10
19.4207054756038
20
-16.0978168840038
30
0
41
1
10
19.4431207376514
20
-16.1236581486907
30
0
41
1
10
19.485707917112
20
-16.1763492687083
30
0
41
1
10
19.5059039917807
20
-16.203216134392
30
0
41
1
10
19.5249995776889
20
-16.2306014000909
30
0
0
SPLINE
5
1F8
100
AcDbEntity
8
1
62
256
6
ByLayer
370
70
48
1
60
0
100
AcDbSpline
70
4
71
3
72
52
73
48
40
0
40
0
40
0
40
0
40
0.0625000000000047
40
0.0625000000000047
40
0.125000000000009
40
0.125000000000009
40
0.15625000000001
40
0.15625000000001
40
0.17187500000001
40
0.17187500000001
40
0.187500000000009
40
0.187500000000009
40
0.250000000000008
40
0.312500000000007
40
0.312500000000007
40
0.328125000000006
40
0.328125000000006
40
0.343750000000006
40
0.375000000000006
40
0.375000000000006
40
0.43750000000001
40
0.43750000000001
40
0.468750000000012
40
0.468750000000012
40
0.484375000000013
40
0.484375000000013
40
0.500000000000014
40
0.500000000000014
40
0.562500000000013
40
0.625000000000012
40
0.625000000000012
40
0.656250000000011
40
0.656250000000011
40
0.68750000000001
40
0.68750000000001
40
0.750000000000007
40
0.750000000000007
40
0.781250000000006
40
0.781250000000006
40
0.812500000000004
40
0.812500000000004
40
0.875000000000001
40
0.937499999999999
40
0.937499999999999
40
0.968749999999999
40
0.968749999999999
40
1
40
1
40
1
40
1
41
1
10
19.5249995776889
20
16.230601400091
30
0
41
1
10
19.4868082544753
20
16.175830651572
30
0
41
1
10
19.4445444173208
20
16.1235765324235
30
0
41
1
10
19.3521986137959
20
16.0239672420608
30
0
41
1
10
19.3021156301471
20
15.9766125032621
30
0
41
1
10
19.2210560537413
20
15.9093546103711
30
0
41
1
10
19.1930438620935
20
15.8875663672026
30
0
41
1
10
19.1494980187431
20
15.8558626405861
30
0
41
1
10
19.1347507054052
20
15.8454759050084
30
0
41
1
10
19.1049624096866
20
15.8251800306268
30
0
41
1
10
19.0898976531028
20
15.8152534092799
30
0
41
1
10
19.0137313535927
20
15.7667160545081
30
0
41
1
10
18.886494775724
20
15.6960418033308
30
0
41
1
10
18.7486944453343
20
15.6392420148952
30
0
41
1
10
18.6591467420778
20
15.6082748474797
30
0
41
1
10
18.6410485515517
20
15.6023047874346
30
0
41
1
10
18.604775459786
20
15.5909101826728
30
0
41
1
10
18.5501568023727
20
15.5746027417
30
0
41
1
10
18.4949200586065
20
15.5606184533738
30
0
41
1
10
18.383635781184
20
15.5357049532121
30
0
41
1
10
18.3083686742238
20
15.5231568310926
30
0
41
1
10
18.1938406945013
20
15.5104882763165
30
0
41
1
10
18.1553926214938
20
15.5072941418848
30
0
41
1
10
18.0973028504143
20
15.5040834803131
30
0
41
1
10
18.0778332692201
20
15.5032762999705
30
0
41
1
10
18.0389887799346
20
15.5022030884861
30
0
41
1
10
18.0196068275018
20
15.501935440669
30
0
41
1
10
17.922895715352
20
15.5019233236847
30
0
41
1
10
17.7694241212017
20
15.5103579761503
30
0
41
1
10
17.618427347949
20
15.5352979119201
30
0
41
1
10
17.5061354491874
20
15.5603552125928
30
0
41
1
10
17.4688096856988
20
15.5697940766894
30
0
41
1
10
17.3955813027984
20
15.5905211866751
30
0
41
1
10
17.3595423766766
20
15.6018357051643
30
0
41
1
10
17.2531179421332
20
15.6385677492125
30
0
41
1
10
17.184417581173
20
15.6667623225412
30
0
41
1
10
17.0847417052726
20
15.7145716614805
30
0
41
1
10
17.0520806552343
20
15.7314305538862
30
0
41
1
10
16.9879096528678
20
15.7670218060772
30
0
41
1
10
16.9563153402679
20
15.785815182398
30
0
41
1
10
16.8645968965765
20
15.8442281361303
30
0
41
1
10
16.7496961146868
20
15.9278758442663
30
0
41
1
10
16.6491672097249
20
16.0225872482431
30
0
41
1
10
16.5792936797739
20
16.0978168840039
30
0
41
1
10
16.5568784177262
20
16.1236581486907
30
0
41
1
10
16.5142912382657
20
16.1763492687084
30
0
41
1
10
16.494095163597
20
16.203216134392
30
0
41
1
10
16.4749995776888
20
16.230601400091
30
0
0
SPLINE
5
1F9
100
AcDbEntity
8
1
62
256
6
ByLayer
370
70
48
1
60
0
100
AcDbSpline
70
4
71
3
72
8
73
4
40
0
40
0
40
0
40
0
40
1
40
1
40
1
40
1
41
1
10
62.9999995776888
20
-21.3749999999999
30
0
41
1
10
62.6843261169357
20
-21.3749999999999
30
0
41
1
10
62.3497994602104
20
-21.3749999999999
30
0
41
1
10
61.9999995776889
20
-21.3749999999999
30
0
0
SPLINE
5
1FA
100
AcDbEntity
8
1
62
256
6
ByLayer
370
70
48
1
60
0
100
AcDbSpline
70
4
71
3
72
8
73
4
40
0
40
0
40
0
40
0
40
1
40
1
40
1
40
1
41
1
10
62.6999995776889
20
24.2934284131018
30
0
41
1
10
62.7999995859647
20
24.193427081065
30
0
41
1
10
62.8999995860681
20
24.093425740856
30
0
41
1
10
62.9999995776888
20
23.9934243921643
30
0
0
SPLINE
5
1FB
100
AcDbEntity
8
1
62
256
6
ByLayer
370
70
48
1
60
0
100
AcDbSpline
70
2053
71
3
72
170
73
166
40
0
40
0
40
0
40
0
40
0.0156250000000012
40
0.0156250000000012
40
0.0312500000000023
40
0.0468750000000035
40
0.0468750000000035
40
0.0507812500000039
40
0.0507812500000039
40
0.0546875000000043
40
0.0546875000000043
40
0.0625000000000054
40
0.0625000000000054
40
0.0781250000000078
40
0.0937500000000103
40
0.0937500000000103
40
0.101562500000012
40
0.105468750000012
40
0.105468750000012
40
0.109375000000013
40
0.109375000000013
40
0.125000000000014
40
0.140625000000016
40
0.156250000000018
40
0.156250000000018
40
0.164062500000018
40
0.164062500000018
40
0.171875000000019
40
0.171875000000019
40
0.18750000000002
40
0.203125000000021
40
0.203125000000021
40
0.210937500000021
40
0.210937500000021
40
0.214843750000021
40
0.214843750000021
40
0.218750000000021
40
0.218750000000021
40
0.23437500000002
40
0.25000000000002
40
0.25000000000002
40
0.265625000000019
40
0.265625000000019
40
0.269531250000019
40
0.269531250000019
40
0.273437500000019
40
0.281250000000019
40
0.281250000000019
40
0.296875000000018
40
0.312500000000016
40
0.312500000000016
40
0.320312500000016
40
0.320312500000016
40
0.328125000000016
40
0.328125000000016
40
0.343750000000015
40
0.359375000000013
40
0.359375000000013
40
0.367187500000013
40
0.371093750000013
40
0.371093750000013
40
0.375000000000012
40
0.375000000000012
40
0.390625000000011
40
0.390625000000011
40
0.40625000000001
40
0.421875000000009
40
0.421875000000009
40
0.425781250000009
40
0.425781250000009
40
0.429687500000009
40
0.429687500000009
40
0.437500000000008
40
0.437500000000008
40
0.453125000000006
40
0.468750000000004
40
0.468750000000004
40
0.476562500000003
40
0.480468750000002
40
0.480468750000002
40
0.484375000000002
40
0.484375000000002
40
0.5
40
0.5
40
0.515624999999998
40
0.515624999999998
40
0.531249999999996
40
0.531249999999996
40
0.535156249999996
40
0.535156249999996
40
0.539062499999995
40
0.546874999999994
40
0.546874999999994
40
0.562499999999991
40
0.578124999999989
40
0.578124999999989
40
0.585937499999988
40
0.585937499999988
40
0.589843749999988
40
0.589843749999988
40
0.593749999999987
40
0.609374999999986
40
0.624999999999985
40
0.624999999999985
40
0.640624999999984
40
0.640624999999984
40
0.656249999999982
40
0.656249999999982
40
0.671874999999981
40
0.68749999999998
40
0.68749999999998
40
0.69140624999998
40
0.69140624999998
40
0.69531249999998
40
0.69531249999998
40
0.70312499999998
40
0.70312499999998
40
0.718749999999979
40
0.734374999999979
40
0.734374999999979
40
0.742187499999979
40
0.746093749999979
40
0.746093749999979
40
0.749999999999979
40
0.749999999999979
40
0.765624999999978
40
0.765624999999978
40
0.781249999999978
40
0.796874999999977
40
0.796874999999977
40
0.800781249999978
40
0.800781249999978
40
0.804687499999978
40
0.804687499999978
40
0.812499999999979
40
0.812499999999979
40
0.828124999999982
40
0.843749999999984
40
0.843749999999984
40
0.851562499999986
40
0.851562499999986
40
0.855468749999986
40
0.855468749999986
40
0.859374999999987
40
0.874999999999989
40
0.890624999999992
40
0.890624999999992
40
0.906249999999994
40
0.906249999999994
40
0.910156249999994
40
0.910156249999994
40
0.914062499999995
40
0.921874999999995
40
0.921874999999995
40
0.937499999999996
40
0.953124999999997
40
0.953124999999997
40
0.960937499999998
40
0.960937499999998
40
0.964843749999998
40
0.964843749999998
40
0.968749999999998
40
0.968749999999998
40
0.984374999999999
40
1
40
1
40
1
40
1
41
1
10
41.7499995776888
20
5.78E-14
30
0
41
1
10
41.7499995776888
20
-0.140661220119199
30
0
41
1
10
41.7569644728035
20
-0.280113311306707
30
0
41
1
10
41.7843247198226
20
-0.556686822985483
30
0
41
1
10
41.8251202741656
20
-0.830928855094299
30
0
41
1
10
41.8925919013326
20
-1.1005469506519
30
0
41
1
10
41.9432829637038
20
-1.2675839822144
30
0
41
1
10
41.9538482308195
20
-1.3009175076912
30
0
41
1
10
41.9758415819391
20
-1.3674353764745
30
0
41
1
10
41.9872865096206
20
-1.40066510487421
30
0
41
1
10
42.0227628703698
20
-1.4996678914292
30
0
41
1
10
42.0479479711913
20
-1.5648116140506
30
0
41
1
10
42.1280115498311
20
-1.7577245148928
30
0
41
1
10
42.2467618086162
20
-2.00823935557131
30
0
41
1
10
42.3890630234436
20
-2.24563991676359
30
0
41
1
10
42.5047141253174
20
-2.41873830024611
30
0
41
1
10
42.5647746432691
20
-2.50404747327329
30
0
41
1
10
42.628244636463
20
-2.58746866062049
30
0
41
1
10
42.6713242447831
20
-2.6426588848127
30
0
41
1
10
42.6932244568479
20
-2.67001091438018
30
0
41
1
10
42.8040505944154
20
-2.8049815284547
30
0
41
1
10
42.9906654880485
20
-3.010604506118
30
0
41
1
10
43.2977253505108
20
-3.28899862051901
30
0
41
1
10
43.5205558022885
20
-3.45461563128919
30
0
41
1
10
43.6946939314458
20
-3.57112636660051
30
0
41
1
10
43.7540287402185
20
-3.6087381678266
30
0
41
1
10
43.8737956813312
20
-3.6805751123716
30
0
41
1
10
43.9343587537723
20
-3.71489568333848
30
0
41
1
10
44.1180558308861
20
-3.81314509820189
30
0
41
1
10
44.368330187993
20
-3.93160064294051
30
0
41
1
10
44.6292018726152
20
-4.0252679589257
30
0
41
1
10
44.8289100422266
20
-4.08606062391121
30
0
41
1
10
44.8961563632922
20
-4.1047456930861
30
0
41
1
10
44.9980627604387
20
-4.13035705187309
30
0
41
1
10
45.0322492434097
20
-4.13850114195719
30
0
41
1
10
45.1007460681888
20
-4.15392290938701
30
0
41
1
10
45.1350211643188
20
-4.1611940198247
30
0
41
1
10
45.3065286479704
20
-4.19537498790899
30
0
41
1
10
45.581783479969
20
-4.23618045464639
30
0
41
1
10
45.8586835002533
20
-4.24991913613059
30
0
41
1
10
46.1364091992213
20
-4.2500794477921
30
0
41
1
10
46.2756848179759
20
-4.24337159407341
30
0
41
1
10
46.4503121079485
20
-4.22622173784211
30
0
41
1
10
46.4852939789908
20
-4.22234767636189
30
0
41
1
10
46.554925249511
20
-4.21376195239048
30
0
41
1
10
46.6590039664469
20
-4.1996152549539
30
0
41
1
10
46.7619917802628
20
-4.18171030420811
30
0
41
1
10
46.9665375384367
20
-4.14097084979019
30
0
41
1
10
47.2354584667937
20
-4.07352788087289
30
0
41
1
10
47.4968621485917
20
-3.9801171921365
30
0
41
1
10
47.6900509807258
20
-3.9001389539246
30
0
41
1
10
47.7539747782974
20
-3.87182049700991
30
0
41
1
10
47.880824963951
20
-3.8118130635969
30
0
41
1
10
47.9432316686179
20
-3.7803703053153
30
0
41
1
10
48.1274675251098
20
-3.68181783237608
30
0
41
1
10
48.3651720449616
20
-3.5391709836685
30
0
41
1
10
48.5873722867326
20
-3.37449563549529
30
0
41
1
10
48.7481801208344
20
-3.24265451206981
30
0
41
1
10
48.8271210552773
20
-3.1746468585977
30
0
41
1
10
48.9038367114245
20
-3.10345795788189
30
0
41
1
10
48.9544810909917
20
-3.05528401022801
30
0
41
1
10
48.979585763292
20
-3.0308066897756
30
0
41
1
10
49.1032660804011
20
-2.90719890354339
30
0
41
1
10
49.1965666488966
20
-2.80421411256009
30
0
41
1
10
49.372252510643
20
-2.59028468576841
30
0
41
1
10
49.5370186787792
20
-2.3683921068689
30
0
41
1
10
49.6800314378864
20
-2.13057344050338
30
0
41
1
10
49.7624374360691
20
-1.9768102379002
30
0
41
1
10
49.7785689518874
20
-1.94580066193819
30
0
41
1
10
49.8101246835563
20
-1.8832613757173
30
0
41
1
10
49.825552414391
20
-1.85172086371028
30
0
41
1
10
49.8705133459842
20
-1.75684997180639
30
0
41
1
10
49.8988152849491
20
-1.69309631312331
30
0
41
1
10
49.9787972097127
20
-1.50034182177501
30
0
41
1
10
50.0723329676993
20
-1.2393601044684
30
0
41
1
10
50.1400403571335
20
-0.970523854624389
30
0
41
1
10
50.1809959679317
20
-0.765903216301695
30
0
41
1
10
50.1990135454755
20
-0.662843345679505
30
0
41
1
10
50.2132713138982
20
-0.55863722118329
30
0
41
1
10
50.2219307342382
20
-0.488908557288511
30
0
41
1
10
50.2258288561341
20
-0.453976767016087
30
0
41
1
10
50.2431071998545
20
-0.27961694442871
30
0
41
1
10
50.249944764577
20
-0.1404747160353
30
0
41
1
10
50.2500537359618
20
0.13713821183859
30
0
41
1
10
50.2433241726017
20
0.275608864176405
30
0
41
1
10
50.2163004986975
20
0.551878978858696
30
0
41
1
10
50.1960073401519
20
0.689678486562514
30
0
41
1
10
50.1619163057257
20
0.861496660602512
30
0
41
1
10
50.1546513306537
20
0.895880346287697
30
0
41
1
10
50.1392829775369
20
0.964400063328412
30
0
41
1
10
50.1150050101751
20
1.06667576393181
30
0
41
1
10
50.0870978745579
20
1.16745986283252
30
0
41
1
10
50.0265294726862
20
1.36707610727049
30
0
41
1
10
49.9331165751635
20
1.62803502670062
30
0
41
1
10
49.814723399226
20
1.87876323264629
30
0
41
1
10
49.7164081949945
20
2.0629225067735
30
0
41
1
10
49.6820468721335
20
2.12365996928361
30
0
41
1
10
49.6280740170334
20
2.21377547382102
30
0
41
1
10
49.6096770933766
20
2.2436467247208
30
0
41
1
10
49.5722769866546
20
2.30272992286649
30
0
41
1
10
49.4771298895462
20
2.4489928897496
30
0
41
1
10
49.2912823082673
20
2.69948218381131
30
0
41
1
10
49.1057992279346
20
2.90442645709379
30
0
41
1
10
48.9100982050002
20
3.100485525116
30
0
41
1
10
48.8071300438979
20
3.1940813542119
30
0
41
1
10
48.5906287803505
20
3.37205834557472
30
0
41
1
10
48.4788815640577
20
3.45497284676679
30
0
41
1
10
48.2486104796277
20
3.6090777611353
30
0
41
1
10
48.0115611317288
20
3.75145569174481
30
0
41
1
10
47.7609828201988
20
3.87051507194931
30
0
41
1
10
47.6000272940227
20
3.9374645221736
30
0
41
1
10
47.567618476928
20
3.95048039552671
30
0
41
1
10
47.5023604104052
20
3.9757560660851
30
0
41
1
10
47.4694716132734
20
3.9880299133057
30
0
41
1
10
47.370423137627
20
4.02360061108311
30
0
41
1
10
47.3040674074356
20
4.0455857576477
30
0
41
1
10
47.1040481537702
20
4.1064589185697
30
0
41
1
10
46.8348214508101
20
4.17409492240671
30
0
41
1
10
46.5606064889769
20
4.2151579998575
30
0
41
1
10
46.3530517538058
20
4.23588106881272
30
0
41
1
10
46.2488002627411
20
4.2437199666312
30
0
41
1
10
46.1438252693729
20
4.24771057036949
30
0
41
1
10
46.0736793294378
20
4.249506114056
30
0
41
1
10
46.0384799741968
20
4.24997074785512
30
0
41
1
10
45.8629737235735
20
4.2501102917374
30
0
41
1
10
45.7236841536435
20
4.24328121324089
30
0
41
1
10
45.447262735756
20
4.21619113084051
30
0
41
1
10
45.1729995263298
20
4.17566603651881
30
0
41
1
10
44.9030310633064
20
4.10837272474191
30
0
41
1
10
44.7356746477017
20
4.05773401904901
30
0
41
1
10
44.7022722152061
20
4.04717625127282
30
0
41
1
10
44.6356064956481
20
4.02519110526219
30
0
41
1
10
44.6024203631627
20
4.01378832255989
30
0
41
1
10
44.5035730245915
20
3.9784551031722
30
0
41
1
10
44.4385073567375
20
3.95336282977252
30
0
41
1
10
44.2457579604281
20
3.87356151725271
30
0
41
1
10
43.995274043492
20
3.7551163173313
30
0
41
1
10
43.7575827327258
20
3.61294587777661
30
0
41
1
10
43.584162287155
20
3.4972929518766
30
0
41
1
10
43.5271649233506
20
3.45723506703101
30
0
41
1
10
43.4429031021189
20
3.394845946244
30
0
41
1
10
43.4149836340667
20
3.3736355769517
30
0
41
1
10
43.3597841444457
20
3.33061489252469
30
0
41
1
10
43.223398283669
20
3.2215714968836
30
0
41
1
10
42.9921651750383
20
3.01208952383522
30
0
41
1
10
42.8063534233826
20
2.80754108098321
30
0
41
1
10
42.6304241542398
20
2.5937664015888
30
0
41
1
10
42.5473998910981
20
2.48226681872401
30
0
41
1
10
42.4499938892624
20
2.33691766742839
30
0
41
1
10
42.430823845294
20
2.30753277398941
30
0
41
1
10
42.3933354801002
20
2.24848809648969
30
0
41
1
10
42.338301237682
20
2.15939140013509
30
0
41
1
10
42.2868205601999
20
2.06872246984679
30
0
41
1
10
42.1885264084975
20
1.885316040671
30
0
41
1
10
42.0698914493226
20
1.63526749234029
30
0
41
1
10
41.9759049152709
20
1.37425980701431
30
0
41
1
10
41.914857230455
20
1.17429509500641
30
0
41
1
10
41.8960845651494
20
1.1069374484801
30
0
41
1
10
41.8703428998385
20
1.00482235212749
30
0
41
1
10
41.8621749352909
20
0.970637258174008
30
0
41
1
10
41.8467232535578
20
0.902233469565317
30
0
41
1
10
41.8394300301099
20
0.86797769332199
30
0
41
1
10
41.8051132109457
20
0.696431009969416
30
0
41
1
10
41.7639308879078
20
0.420246511781414
30
0
41
1
10
41.7499995776888
20
0.140661220119313
30
0
41
1
10
41.7499995776888
20
5.73E-14
30
0
0
SPLINE
5
1FC
100
AcDbEntity
8
1
62
256
6
ByLayer
370
70
48
1
60
0
100
AcDbSpline
70
4
71
3
72
86
73
82
40
0
40
0
40
0
40
0
40
2.17393006922E-05
40
7.16543833161E-05
40
0.0211040945076196
40
0.0420090212548318
40
0.0628739056786666
40
0.0837867213135665
40
0.104834840721944
40
0.12610396909158
40
0.134553232740001
40
0.142970959119761
40
0.151361841339771
40
0.159730617673686
40
0.16808206402415
40
0.176420986072673
40
0.184752211176752
40
0.193080580080822
40
0.201410938511283
40
0.20974812872823
40
0.21809698110733
40
0.226462305824733
40
0.234848884715786
40
0.243261463374891
40
0.251704743559098
40
0.264592098706631
40
0.277339130486126
40
0.289962348611664
40
0.302478752889821
40
0.314905781618981
40
0.327261251656378
40
0.339563290892895
40
0.351830264209931
40
0.364080694298894
40
0.37633317897718
40
0.389089003802092
40
0.401692498206366
40
0.414167306042568
40
0.426537809230023
40
0.438829010573376
40
0.451066399088857
40
0.463275800930128
40
0.475483219963006
40
0.487714672762659
40
0.499996023209277
40
0.513618646670564
40
0.527193431670187
40
0.540756791223899
40
0.554345230107414
40
0.56799505174694
40
0.581742073093946
40
0.595621358394209
40
0.609666981090158
40
0.623911820738648
40
0.634193912074717
40
0.64446154913252
40
0.65472547636109
40
0.664996449821438
40
0.675285203443554
40
0.685602415628768
40
0.695958676711946
40
0.706364457767263
40
0.716830081194173
40
0.727365693459715
40
0.73798124030302
40
0.748686444631724
40
0.762842703782215
40
0.776893523272813
40
0.790860318087129
40
0.804764891401469
40
0.818629339900029
40
0.832475952319981
40
0.846327103456975
40
0.860205146107982
40
0.87413230354263
40
0.895381540508607
40
0.916408880521566
40
0.9372984187299
40
0.958135918731339
40
0.979007785593987
40
1
40
1
40
1
40
1
41
1
10
58.5019924214346
20
24.9937453843758
30
0
41
1
10
58.5020007949639
20
24.993750895179
30
0
41
1
10
58.5020071052469
20
24.9937586902725
30
0
41
1
10
58.5020149016292
20
24.9937675237177
30
0
41
1
10
58.4841091163318
20
24.9841163352918
30
0
41
1
10
58.4028240386468
20
24.9411749106336
30
0
41
1
10
58.2671878775828
20
24.8707295251983
30
0
41
1
10
58.0771909118054
20
24.7737279077813
30
0
41
1
10
57.8329180744923
20
24.6511404253812
30
0
41
1
10
57.5955173651413
20
24.5341816388168
30
0
41
1
10
57.3970706483122
20
24.437546809932
30
0
41
1
10
57.2583427831547
20
24.3703775212133
30
0
41
1
10
57.1127365772915
20
24.3004592637396
30
0
41
1
10
56.9602721664649
20
24.2279560898546
30
0
41
1
10
56.8009442438765
20
24.1530327018545
30
0
41
1
10
56.6347543313603
20
24.0758503282289
30
0
41
1
10
56.4617021666702
20
23.9965677717984
30
0
41
1
10
56.2817880068347
20
23.9153410804511
30
0
41
1
10
56.09501199428
20
23.832323599902
30
0
41
1
10
55.901374385018
20
23.7476658958439
30
0
41
1
10
55.7008752560169
20
23.6615158409998
30
0
41
1
10
55.4935154344672
20
23.5740181948988
30
0
41
1
10
55.2792930454365
20
23.4853160754668
30
0
41
1
10
55.0582164212947
20
23.3955453667204
30
0
41
1
10
54.7905858148294
20
23.2890737468613
30
0
41
1
10
54.4741321696307
20
23.1663180541173
30
0
41
1
10
54.1058142945938
20
23.0282982838101
30
0
41
1
10
53.7282935571274
20
22.8923114088433
30
0
41
1
10
53.3415857597699
20
22.7590252135936
30
0
41
1
10
52.9456875257991
20
22.6290742540526
30
0
41
1
10
52.5406013986613
20
22.5030538175181
30
0
41
1
10
52.1263280584381
20
22.3815231470855
30
0
41
1
10
51.7028726011902
20
22.2650017450155
30
0
41
1
10
51.2702270241262
20
22.1539842264841
30
0
41
1
10
50.8226349716486
20
22.0475086308283
30
0
41
1
10
50.3619010034443
20
21.9469330392863
30
0
41
1
10
49.8897128351833
20
21.8539275993668
30
0
41
1
10
49.4144195766682
20
21.7707384469915
30
0
41
1
10
48.9360153792425
20
21.6977846295328
30
0
41
1
10
48.4545071888969
20
21.6354172348485
30
0
41
1
10
47.969899765612
20
21.5839345545557
30
0
41
1
10
47.4821991834584
20
21.5435798527895
30
0
41
1
10
46.991412544341
20
21.5145388698378
30
0
41
1
10
46.4975442604477
20
21.4969550300693
30
0
41
1
10
45.9835486486648
20
21.4906646231734
30
0
41
1
10
45.451393298642
20
21.4972424052673
30
0
41
1
10
44.9033823853154
20
21.5185204695056
30
0
41
1
10
44.3587327091935
20
21.5541006586629
30
0
41
1
10
43.817457419941
20
21.603786693118
30
0
41
1
10
43.27956736599
20
21.6672842132121
30
0
41
1
10
42.7450717597771
20
21.7442152124941
30
0
41
1
10
42.213981184185
20
21.8341184221213
30
0
41
1
10
41.6862921414276
20
21.9364277709639
30
0
41
1
10
41.2134510775461
20
22.0393625722052
30
0
41
1
10
40.7949715131252
20
22.1383987159872
30
0
41
1
10
40.4305882344734
20
22.230266831884
30
0
41
1
10
40.0729916044857
20
22.3259546609287
30
0
41
1
10
39.7221701728858
20
22.425183946349
30
0
41
1
10
39.3781283786598
20
22.5276708916126
30
0
41
1
10
39.0408662666675
20
22.6331117291595
30
0
41
1
10
38.7103848175796
20
22.7411862814132
30
0
41
1
10
38.3866848249478
20
22.851556801203
30
0
41
1
10
38.0697659678877
20
22.9638677160439
30
0
41
1
10
37.7596316508511
20
23.0777465416155
30
0
41
1
10
37.4562703816504
20
23.1927992090572
30
0
41
1
10
37.1287849314611
20
23.3207122637532
30
0
41
1
10
36.7826193248901
20
23.4599508394351
30
0
41
1
10
36.4242472424454
20
23.6086493458617
30
0
41
1
10
36.0855436840266
20
23.7534283386952
30
0
41
1
10
35.7665001100327
20
23.893667091468
30
0
41
1
10
35.4671229532633
20
24.0287330299594
30
0
41
1
10
35.1874147441648
20
24.1579743224558
30
0
41
1
10
34.9273760941461
20
24.2807215078742
30
0
41
1
10
34.6870159080068
20
24.3962909519554
30
0
41
1
10
34.4280253024239
20
24.5226501708487
30
0
41
1
10
34.1664705482961
20
24.6520523832615
30
0
41
1
10
33.9233004077472
20
24.7743814898289
30
0
41
1
10
33.7339494170913
20
24.8711317329425
30
0
41
1
10
33.5984454868709
20
24.9413610525737
30
0
41
1
10
33.5168357121792
20
24.9841523916466
30
0
41
1
10
33.4983227751847
20
24.9937487283621
30
0
41
1
10
33.4979995776888
20
24.9937500000001
30
0
0
SPLINE
5
1FD
100
AcDbEntity
8
1
62
256
6
ByLayer
370
70
48
1
60
0
100
AcDbSpline
70
2053
71
3
72
157
73
153
40
0
40
0
40
0
40
0
40
0.0156249999999962
40
0.0156249999999962
40
0.0312499999999923
40
0.0468749999999885
40
0.0468749999999885
40
0.0507812499999877
40
0.0507812499999877
40
0.054687499999987
40
0.054687499999987
40
0.0624999999999867
40
0.0624999999999867
40
0.0781249999999871
40
0.0937499999999876
40
0.0937499999999876
40
0.101562499999987
40
0.105468749999987
40
0.105468749999987
40
0.109374999999987
40
0.109374999999987
40
0.124999999999985
40
0.140624999999982
40
0.15624999999998
40
0.15624999999998
40
0.164062499999978
40
0.164062499999978
40
0.171874999999977
40
0.171874999999977
40
0.187499999999973
40
0.20312499999997
40
0.20312499999997
40
0.210937499999969
40
0.210937499999969
40
0.218749999999967
40
0.218749999999967
40
0.234374999999964
40
0.249999999999961
40
0.265624999999958
40
0.265624999999958
40
0.269531249999957
40
0.269531249999957
40
0.273437499999956
40
0.281249999999955
40
0.281249999999955
40
0.296874999999951
40
0.312499999999948
40
0.312499999999948
40
0.320312499999947
40
0.320312499999947
40
0.324218749999946
40
0.324218749999946
40
0.328124999999945
40
0.343749999999941
40
0.359374999999938
40
0.359374999999938
40
0.367187499999937
40
0.367187499999937
40
0.374999999999935
40
0.374999999999935
40
0.390624999999933
40
0.406249999999931
40
0.421874999999929
40
0.421874999999929
40
0.425781249999929
40
0.425781249999929
40
0.429687499999929
40
0.429687499999929
40
0.437499999999928
40
0.437499999999928
40
0.453124999999929
40
0.46874999999993
40
0.46874999999993
40
0.47656249999993
40
0.48046874999993
40
0.48046874999993
40
0.484374999999929
40
0.484374999999929
40
0.499999999999927
40
0.515624999999924
40
0.531249999999922
40
0.531249999999922
40
0.539062499999921
40
0.539062499999921
40
0.54687499999992
40
0.54687499999992
40
0.562499999999919
40
0.578124999999917
40
0.578124999999917
40
0.585937499999917
40
0.585937499999917
40
0.589843749999916
40
0.589843749999916
40
0.593749999999916
40
0.609374999999917
40
0.624999999999918
40
0.640624999999919
40
0.640624999999919
40
0.64453124999992
40
0.64453124999992
40
0.648437499999921
40
0.656249999999922
40
0.656249999999922
40
0.671874999999926
40
0.687499999999929
40
0.687499999999929
40
0.695312499999931
40
0.695312499999931
40
0.699218749999932
40
0.699218749999932
40
0.703124999999933
40
0.718749999999936
40
0.73437499999994
40
0.73437499999994
40
0.749999999999944
40
0.749999999999944
40
0.765624999999947
40
0.765624999999947
40
0.781249999999951
40
0.796874999999955
40
0.796874999999955
40
0.800781249999956
40
0.800781249999956
40
0.804687499999957
40
0.804687499999957
40
0.812499999999959
40
0.812499999999959
40
0.828124999999963
40
0.843749999999966
40
0.843749999999966
40
0.851562499999968
40
0.855468749999969
40
0.855468749999969
40
0.85937499999997
40
0.85937499999997
40
0.874999999999972
40
0.890624999999975
40
0.906249999999977
40
0.906249999999977
40
0.914062499999978
40
0.914062499999978
40
0.92187499999998
40
0.92187499999998
40
0.937499999999983
40
0.953124999999987
40
0.953124999999987
40
0.960937499999989
40
0.960937499999989
40
0.968749999999991
40
0.968749999999991
40
0.984374999999996
40
1
40
1
40
1
40
1
41
1
10
35.8999995776888
20
-9.83909296483401
30
0
41
1
10
36.0033341674067
20
-9.83909296483401
30
0
41
1
10
36.1057888392431
20
-9.83435688438439
30
0
41
1
10
36.3090010597725
20
-9.81574300362999
30
0
41
1
10
36.5105155575228
20
-9.78798393107908
30
0
41
1
10
36.7086602079795
20
-9.74203091860329
30
0
41
1
10
36.8314250330959
20
-9.70748143511631
30
0
41
1
10
36.8559240962386
20
-9.7002793967589
30
0
41
1
10
36.9048133497798
20
-9.68528457073589
30
0
41
1
10
36.929237692464
20
-9.67748014628691
30
0
41
1
10
37.0020428997535
20
-9.65327148688201
30
0
41
1
10
37.0499508808287
20
-9.63607888660059
30
0
41
1
10
37.1918281993202
20
-9.58139850043409
30
0
41
1
10
37.3760830992511
20
-9.50023361559309
30
0
41
1
10
37.5507079066186
20
-9.40278226790738
30
0
41
1
10
37.6780352732513
20
-9.32348939722641
30
0
41
1
10
37.7407871745597
20
-9.28228930015851
30
0
41
1
10
37.8021499874344
20
-9.2387127665952
30
0
41
1
10
37.8427465525269
20
-9.2091269318112
30
0
41
1
10
37.8628901565406
20
-9.19406420663759
30
0
41
1
10
37.9622688562373
20
-9.1178290253261
30
0
41
1
10
38.1136415883474
20
-8.9893221103745
30
0
41
1
10
38.3185011571591
20
-8.77737607208928
30
0
41
1
10
38.4403125163672
20
-8.62319373803788
30
0
41
1
10
38.5259836477587
20
-8.50254523074619
30
0
41
1
10
38.5536515238048
20
-8.4613886791289
30
0
41
1
10
38.6065166297321
20
-8.37820902365681
30
0
41
1
10
38.6317681578853
20
-8.33612024204518
30
0
41
1
10
38.7040422329525
20
-8.20837407879299
30
0
41
1
10
38.791142650378
20
-8.03410575138739
30
0
41
1
10
38.8599612594237
20
-7.85197409086649
30
0
41
1
10
38.9046120179833
20
-7.71235244001039
30
0
41
1
10
38.9183329941941
20
-7.6653072354049
30
0
41
1
10
38.9434054285768
20
-7.5701844431652
30
0
41
1
10
38.9547651127205
20
-7.52203341463721
30
0
41
1
10
38.9848974267538
20
-7.37761184539158
30
0
41
1
10
39.0148651995141
20
-7.18415744871581
30
0
41
1
10
39.029981082673
20
-6.891324376901
30
0
41
1
10
39.0201303912863
20
-6.69432115659799
30
0
41
1
10
39.0075481951807
20
-6.57062301277028
30
0
41
1
10
39.004705032416
20
-6.54582180022561
30
0
41
1
10
38.9983993347116
20
-6.49640298108429
30
0
41
1
10
38.9880089638526
20
-6.42250432500021
30
0
41
1
10
38.9748571945727
20
-6.34928675188888
30
0
41
1
10
38.9449322454316
20
-6.2037475509332
30
0
41
1
10
38.8953913452907
20
-6.01208027935019
30
0
41
1
10
38.8267821370634
20
-5.82517081094448
30
0
41
1
10
38.7680452979907
20
-5.6868263094791
30
0
41
1
10
38.747250854874
20
-5.64101834641849
30
0
41
1
10
38.7141989304201
20
-5.572779216246
30
0
41
1
10
38.7028830867499
20
-5.5501378290117
30
0
41
1
10
38.679755650068
20
-5.5052572428551
30
0
41
1
10
38.6206237272722
20
-5.39392468637161
30
0
41
1
10
38.5025596629014
20
-5.20122942563859
30
0
41
1
10
38.381440696334
20
-5.0407258178428
30
0
41
1
10
38.2844946662845
20
-4.92444599488781
30
0
41
1
10
38.25115969812
20
-4.88637027376771
30
0
41
1
10
38.1824208200679
20
-4.811611943103
30
0
41
1
10
38.1469859612908
20
-4.77489881228328
30
0
41
1
10
38.0377027856868
20
-4.66709480287111
30
0
41
1
10
37.885999339228
20
-4.53144773970331
30
0
41
1
10
37.6410375078105
20
-4.3515782354288
30
0
41
1
10
37.4661678249458
20
-4.24740343034469
30
0
41
1
10
37.3531675013173
20
-4.187358371329
30
0
41
1
10
37.3303816645766
20
-4.17560315678071
30
0
41
1
10
37.2844343133227
20
-4.152606403135
30
0
41
1
10
37.261239737997
20
-4.1413496639916
30
0
41
1
10
37.1913886420741
20
-4.1085012995386
30
0
41
1
10
37.1444589368303
20
-4.08782279794639
30
0
41
1
10
37.002603342982
20
-4.02938379729591
30
0
41
1
10
36.8106238614116
20
-3.96103854878291
30
0
41
1
10
36.6130569672055
20
-3.91157392438899
30
0
41
1
10
36.4627600787272
20
-3.88165562190159
30
0
41
1
10
36.3870803585819
20
-3.86849432312059
30
0
41
1
10
36.310589636958
20
-3.8580789069299
30
0
41
1
10
36.2594135056294
20
-3.85175271030658
30
0
41
1
10
36.233715994114
20
-3.84889740443441
30
0
41
1
10
36.1054859150963
20
-3.83624808993449
30
0
41
1
10
35.9008936255355
20
-3.8262422517285
30
0
41
1
10
35.5956809990343
20
-3.84102209585188
30
0
41
1
10
35.3933201734594
20
-3.8706765672012
30
0
41
1
10
35.2419784674045
20
-3.9005331318817
30
0
41
1
10
35.1914780841308
20
-3.91179231191049
30
0
41
1
10
35.0916300325856
20
-3.93664626220371
30
0
41
1
10
35.0422003571642
20
-3.9502505009437
30
0
41
1
10
34.8953663245916
20
-3.99452525747691
30
0
41
1
10
34.7034606712345
20
-4.0627739606947
30
0
41
1
10
34.5191758920742
20
-4.1491180512848
30
0
41
1
10
34.3838558465279
20
-4.2207289435525
30
0
41
1
10
34.3392322758003
20
-4.2457433723601
30
0
41
1
10
34.273034164453
20
-4.28500849277509
30
0
41
1
10
34.2510621740018
20
-4.29840589508561
30
0
41
1
10
34.2075191243257
20
-4.32569128943041
30
0
41
1
10
34.0997397263772
20
-4.3950863102161
30
0
41
1
10
33.9152720171057
20
-4.53043503994348
30
0
41
1
10
33.6891022407009
20
-4.73246266085599
30
0
41
1
10
33.5515315960327
20
-4.8814747687058
30
0
41
1
10
33.4698072106903
20
-4.9792031043909
30
0
41
1
10
33.453664100661
20
-4.99899501508969
30
0
41
1
10
33.421980301492
20
-5.03882523446629
30
0
41
1
10
33.3752965187847
20
-5.09901292867559
30
0
41
1
10
33.3311088069116
20
-5.16050933360259
30
0
41
1
10
33.2460099440132
20
-5.28521304340168
30
0
41
1
10
33.1412669145222
20
-5.45603875013569
30
0
41
1
10
33.05380804792
20
-5.6358199644956
30
0
41
1
10
32.994826215123
20
-5.77405872955021
30
0
41
1
10
32.9762696471908
20
-5.8207065179266
30
0
41
1
10
32.9501263683611
20
-5.89154619611739
30
0
41
1
10
32.9417039955906
20
-5.9152798410756
30
0
41
1
10
32.9255141905044
20
-5.96277414375228
30
0
41
1
10
32.8866283533693
20
-6.0817294657293
30
0
41
1
10
32.8307021054386
20
-6.2977809209093
30
0
41
1
10
32.8005708171187
20
-6.49247246414211
30
0
41
1
10
32.7803002882844
20
-6.68848290037161
30
0
41
1
10
32.7750943451513
20
-6.7871685475528
30
0
41
1
10
32.7749073685887
20
-6.9858177109015
30
0
41
1
10
32.7799257483929
20
-7.08412942123078
30
0
41
1
10
32.7998270013757
20
-7.27880338745871
30
0
41
1
10
32.8295963339602
20
-7.4715273774502
30
0
41
1
10
32.8789713346168
20
-7.660407411482
30
0
41
1
10
32.9160969749846
20
-7.77724479617601
30
0
41
1
10
32.9238361428156
20
-7.80055152567869
30
0
41
1
10
32.9399490424661
20
-7.84704272965871
30
0
41
1
10
32.9483351669257
20
-7.87025908895069
30
0
41
1
10
32.9743365262165
20
-7.93940926464589
30
0
41
1
10
32.9928006446824
20
-7.98487610704299
30
0
41
1
10
33.0515143157157
20
-8.11942269680338
30
0
41
1
10
33.1386391569267
20
-8.29388380571311
30
0
41
1
10
33.2431226333597
20
-8.45874720999879
30
0
41
1
10
33.3280647727749
20
-8.57879698833258
30
0
41
1
10
33.372183403608
20
-8.63792102823581
30
0
41
1
10
33.4188153329998
20
-8.69567907500269
30
0
41
1
10
33.4504681253463
20
-8.73387839233209
30
0
41
1
10
33.4665687449017
20
-8.7528135030328
30
0
41
1
10
33.5480398140753
20
-8.84620619708969
30
0
41
1
10
33.6852438449583
20
-8.98827652932491
30
0
41
1
10
33.9110279471721
20
-9.18012055328541
30
0
41
1
10
34.0748716590662
20
-9.2939709235711
30
0
41
1
10
34.2029006365063
20
-9.3739816666421
30
0
41
1
10
34.2465340662367
20
-9.3998030237729
30
0
41
1
10
34.3346238376488
20
-9.44910656498379
30
0
41
1
10
34.3791660884302
20
-9.4726485757912
30
0
41
1
10
34.5142604144766
20
-9.54001146441919
30
0
41
1
10
34.6982930117115
20
-9.62114284362329
30
0
41
1
10
34.8900522482499
20
-9.68520445611588
30
0
41
1
10
35.036820534697
20
-9.72677027973279
30
0
41
1
10
35.086235644043
20
-9.73954349952851
30
0
41
1
10
35.1860702034908
20
-9.76288738756008
30
0
41
1
10
35.2365338415908
20
-9.773460011889
30
0
41
1
10
35.3880230873346
20
-9.80155789013321
30
0
41
1
10
35.5911832358827
20
-9.82961985980481
30
0
41
1
10
35.7966649879709
20
-9.83909296483401
30
0
41
1
10
35.8999995776888
20
-9.83909296483401
30
0
0
SPLINE
5
1FE
100
AcDbEntity
8
1
62
256
6
ByLayer
370
70
48
1
60
0
100
AcDbSpline
70
4
71
3
72
52
73
48
40
0
40
0
40
0
40
0
40
0.0624999999999883
40
0.0624999999999883
40
0.124999999999977
40
0.124999999999977
40
0.156249999999972
40
0.156249999999972
40
0.17187499999997
40
0.17187499999997
40
0.187499999999968
40
0.187499999999968
40
0.249999999999965
40
0.312499999999961
40
0.312499999999961
40
0.32812499999996
40
0.32812499999996
40
0.34374999999996
40
0.374999999999961
40
0.374999999999961
40
0.437499999999964
40
0.437499999999964
40
0.468749999999965
40
0.468749999999965
40
0.484374999999966
40
0.484374999999966
40
0.499999999999967
40
0.499999999999967
40
0.562499999999972
40
0.624999999999978
40
0.624999999999978
40
0.656249999999981
40
0.656249999999981
40
0.687499999999983
40
0.687499999999983
40
0.749999999999988
40
0.749999999999988
40
0.78124999999999
40
0.78124999999999
40
0.812499999999991
40
0.812499999999991
40
0.874999999999993
40
0.937499999999995
40
0.937499999999995
40
0.968749999999998
40
0.968749999999998
40
1
40
1
40
1
40
1
41
1
10
19.5249995776889
20
-12.169258190623
30
0
41
1
10
19.4868082544753
20
-12.2301178264301
30
0
41
1
10
19.4445444173208
20
-12.2879054858373
30
0
41
1
10
19.3521986137959
20
-12.3976356429975
30
0
41
1
10
19.3021156301471
20
-12.449577222085
30
0
41
1
10
19.2210560537413
20
-12.5230948267255
30
0
41
1
10
19.1930438620935
20
-12.546865914497
30
0
41
1
10
19.1494980187431
20
-12.5813970227831
30
0
41
1
10
19.1347507054052
20
-12.5927000911883
30
0
41
1
10
19.1049624096866
20
-12.6147685814487
30
0
41
1
10
19.0898976531028
20
-12.6255530494013
30
0
41
1
10
19.0137313535927
20
-12.6782442009625
30
0
41
1
10
18.886494775724
20
-12.7547026658694
30
0
41
1
10
18.7486944453343
20
-12.8158336314504
30
0
41
1
10
18.6591467420778
20
-12.8491049769813
30
0
41
1
10
18.6410485515517
20
-12.8555159056377
30
0
41
1
10
18.604775459786
20
-12.8677465650791
30
0
41
1
10
18.5501568023728
20
-12.8852420628533
30
0
41
1
10
18.4949200586065
20
-12.900225443004
30
0
41
1
10
18.383635781184
20
-12.9269031973855
30
0
41
1
10
18.3083686742238
20
-12.9403174920612
30
0
41
1
10
18.1938406945013
20
-12.9538557677286
30
0
41
1
10
18.1553926214938
20
-12.9572677378175
30
0
41
1
10
18.0973028504143
20
-12.960697056001
30
0
41
1
10
18.0778332692201
20
-12.9615591151209
30
0
41
1
10
18.0389887799346
20
-12.9627052671933
30
0
41
1
10
18.0196068275018
20
-12.9629910870838
30
0
41
1
10
17.922895715352
20
-12.9630040270357
30
0
41
1
10
17.7694241212017
20
-12.9539993691372
30
0
41
1
10
17.618427347949
20
-12.9273387610448
30
0
41
1
10
17.5061354491874
20
-12.9005074722149
30
0
41
1
10
17.4688096856988
20
-12.8903943389558
30
0
41
1
10
17.3955813027984
20
-12.8681661348698
30
0
41
1
10
17.3595423766767
20
-12.8560229573152
30
0
41
1
10
17.2531179421332
20
-12.816558614372
30
0
41
1
10
17.184417581173
20
-12.7862158835516
30
0
41
1
10
17.0847417052726
20
-12.7346150745763
30
0
41
1
10
17.0520806552343
20
-12.7163970509794
30
0
41
1
10
16.9879096528678
20
-12.6778778580253
30
0
41
1
10
16.9563153402679
20
-12.6575102811592
30
0
41
1
10
16.8645968965765
20
-12.5940992781154
30
0
41
1
10
16.7496961146868
20
-12.5030266718521
30
0
41
1
10
16.6491672097249
20
-12.3991526888183
30
0
41
1
10
16.5792936797739
20
-12.3162839933898
30
0
41
1
10
16.5568784177262
20
-12.2877612887183
30
0
41
1
10
16.5142912382657
20
-12.2294724470794
30
0
41
1
10
16.494095163597
20
-12.1996878878973
30
0
41
1
10
16.4749995776888
20
-12.169258190623
30
0
0
SPLINE
5
1FF
100
AcDbEntity
8
1
62
256
6
ByLayer
370
70
48
1
60
0
100
AcDbSpline
70
4
71
3
72
52
73
48
40
0
40
0
40
0
40
0
40
0.0624999999999913
40
0.0624999999999913
40
0.124999999999983
40
0.124999999999983
40
0.156249999999977
40
0.156249999999977
40
0.171874999999976
40
0.171874999999976
40
0.187499999999975
40
0.187499999999975
40
0.249999999999977
40
0.312499999999979
40
0.312499999999979
40
0.328124999999979
40
0.328124999999979
40
0.34374999999998
40
0.374999999999979
40
0.374999999999979
40
0.437499999999979
40
0.437499999999979
40
0.46874999999998
40
0.46874999999998
40
0.48437499999998
40
0.48437499999998
40
0.49999999999998
40
0.49999999999998
40
0.562499999999983
40
0.624999999999987
40
0.624999999999987
40
0.656249999999988
40
0.656249999999988
40
0.68749999999999
40
0.68749999999999
40
0.749999999999993
40
0.749999999999993
40
0.781249999999994
40
0.781249999999994
40
0.812499999999995
40
0.812499999999995
40
0.874999999999997
40
0.937499999999998
40
0.937499999999998
40
0.968749999999999
40
0.968749999999999
40
1
40
1
40
1
40
1
41
1
10
16.4749995776888
20
12.1692581906231
30
0
41
1
10
16.5131909009024
20
12.2301178264302
30
0
41
1
10
16.5554547380569
20
12.2879054858374
30
0
41
1
10
16.6478005415818
20
12.3976356429975
30
0
41
1
10
16.6978835252306
20
12.4495772220851
30
0
41
1
10
16.7789431016364
20
12.5230948267255
30
0
41
1
10
16.8069552932842
20
12.546865914497
30
0
41
1
10
16.8505011366346
20
12.5813970227831
30
0
41
1
10
16.8652484499725
20
12.5927000911883
30
0
41
1
10
16.8950367456911
20
12.6147685814487
30
0
41
1
10
16.9101015022749
20
12.6255530494013
30
0
41
1
10
16.986267801785
20
12.6782442009625
30
0
41
1
10
17.1135043796537
20
12.7547026658694
30
0
41
1
10
17.2513047100434
20
12.8158336314504
30
0
41
1
10
17.3408524132999
20
12.8491049769813
30
0
41
1
10
17.358950603826
20
12.8555159056377
30
0
41
1
10
17.3952236955917
20
12.8677465650791
30
0
41
1
10
17.4498423530049
20
12.8852420628534
30
0
41
1
10
17.5050790967711
20
12.900225443004
30
0
41
1
10
17.6163633741937
20
12.9269031973855
30
0
41
1
10
17.6916304811539
20
12.9403174920613
30
0
41
1
10
17.8061584608764
20
12.9538557677287
30
0
41
1
10
17.8446065338839
20
12.9572677378175
30
0
41
1
10
17.9026963049634
20
12.960697056001
30
0
41
1
10
17.9221658861576
20
12.961559115121
30
0
41
1
10
17.9610103754431
20
12.9627052671934
30
0
41
1
10
17.9803923278759
20
12.9629910870838
30
0
41
1
10
18.0771034400256
20
12.9630040270357
30
0
41
1
10
18.230575034176
20
12.9539993691372
30
0
41
1
10
18.3815718074287
20
12.9273387610448
30
0
41
1
10
18.4938637061902
20
12.900507472215
30
0
41
1
10
18.5311894696789
20
12.8903943389558
30
0
41
1
10
18.6044178525793
20
12.8681661348698
30
0
41
1
10
18.6404567787011
20
12.8560229573152
30
0
41
1
10
18.7468812132446
20
12.8165586143721
30
0
41
1
10
18.8155815742047
20
12.7862158835516
30
0
41
1
10
18.9152574501051
20
12.7346150745764
30
0
41
1
10
18.9479185001434
20
12.7163970509794
30
0
41
1
10
19.0120895025099
20
12.6778778580253
30
0
41
1
10
19.0436838151098
20
12.6575102811593
30
0
41
1
10
19.1354022588012
20
12.5940992781155
30
0
41
1
10
19.2503030406909
20
12.5030266718522
30
0
41
1
10
19.3508319456528
20
12.3991526888183
30
0
41
1
10
19.4207054756038
20
12.3162839933899
30
0
41
1
10
19.4431207376514
20
12.2877612887184
30
0
41
1
10
19.485707917112
20
12.2294724470794
30
0
41
1
10
19.5059039917807
20
12.1996878878973
30
0
41
1
10
19.5249995776889
20
12.1692581906231
30
0
0
SPLINE
5
200
100
AcDbEntity
8
1
62
256
6
ByLayer
370
70
48
1
60
0
100
AcDbSpline
70
4
71
3
72
52
73
48
40
0
40
0
40
0
40
0
40
0.0624999999999979
40
0.0624999999999979
40
0.124999999999996
40
0.124999999999996
40
0.156249999999996
40
0.156249999999996
40
0.171874999999997
40
0.171874999999997
40
0.187499999999998
40
0.187499999999998
40
0.250000000000008
40
0.312500000000017
40
0.312500000000017
40
0.32812500000002
40
0.32812500000002
40
0.343750000000022
40
0.375000000000024
40
0.375000000000024
40
0.437500000000027
40
0.437500000000027
40
0.468750000000028
40
0.468750000000028
40
0.484375000000029
40
0.484375000000029
40
0.50000000000003
40
0.50000000000003
40
0.562500000000028
40
0.625000000000026
40
0.625000000000026
40
0.656250000000025
40
0.656250000000025
40
0.687500000000024
40
0.687500000000024
40
0.750000000000021
40
0.750000000000021
40
0.781250000000018
40
0.781250000000018
40
0.812500000000016
40
0.812500000000016
40
0.87500000000001
40
0.937500000000005
40
0.937500000000005
40
0.968750000000003
40
0.968750000000003
40
1
40
1
40
1
40
1
41
1
10
16.4749995776888
20
-10.6070107729664
30
0
41
1
10
16.5131909009024
20
-10.5443921370143
30
0
41
1
10
16.5554547380569
20
-10.4847232541501
30
0
41
1
10
16.6478005415818
20
-10.3710920803132
30
0
41
1
10
16.6978835252306
20
-10.3171303990357
30
0
41
1
10
16.7789431016364
20
-10.2405557761169
30
0
41
1
10
16.8069552932842
20
-10.2157612129988
30
0
41
1
10
16.8505011366346
20
-10.1796982562142
30
0
41
1
10
16.8652484499725
20
-10.1678859791006
30
0
41
1
10
16.8950367456911
20
-10.1448092850989
30
0
41
1
10
16.9101015022749
20
-10.1335249806682
30
0
41
1
10
16.986267801785
20
-10.0783598013233
30
0
41
1
10
17.1135043796537
20
-9.99810440202509
30
0
41
1
10
17.2513047100434
20
-9.9336879565289
30
0
41
1
10
17.3408524132999
20
-9.89858324515501
30
0
41
1
10
17.358950603826
20
-9.89181640211439
30
0
41
1
10
17.3952236955917
20
-9.8789024582351
30
0
41
1
10
17.4498423530049
20
-9.86042283638409
30
0
41
1
10
17.5050790967711
20
-9.84458100393078
30
0
41
1
10
17.6163633741937
20
-9.81636234594919
30
0
41
1
10
17.6916304811539
20
-9.80215542489771
30
0
41
1
10
17.8061584608764
20
-9.78781340463101
30
0
41
1
10
17.8446065338839
20
-9.7841977188524
30
0
41
1
10
17.9026963049634
20
-9.7805634053158
30
0
41
1
10
17.9221658861576
20
-9.7796497406658
30
0
41
1
10
17.9610103754431
20
-9.77843495631799
30
0
41
1
10
17.9803923278759
20
-9.7781320065794
30
0
41
1
10
18.0771034400256
20
-9.77811829132881
30
0
41
1
10
18.230575034176
20
-9.78766474594289
30
0
41
1
10
18.3815718074287
20
-9.8159013839585
30
0
41
1
10
18.4938637061902
20
-9.84428280154009
30
0
41
1
10
18.5311894696789
20
-9.85497541641999
30
0
41
1
10
18.6044178525793
20
-9.8784610593097
30
0
41
1
10
18.640456778701
20
-9.89128383844221
30
0
41
1
10
18.7468812132445
20
-9.93292345777991
30
0
41
1
10
18.8155815742047
20
-9.96489835975109
30
0
41
1
10
18.9152574501051
20
-10.0191571511299
30
0
41
1
10
18.9479185001434
20
-10.0382961290575
30
0
41
1
10
19.0120895025099
20
-10.0787163637089
30
0
41
1
10
19.0436838151098
20
-10.1000670133717
30
0
41
1
10
19.1354022588012
20
-10.1664560790587
30
0
41
1
10
19.2503030406909
20
-10.261596071992
30
0
41
1
10
19.3508319456528
20
-10.3695186588664
30
0
41
1
10
19.4207054756038
20
-10.4553370465732
30
0
41
1
10
19.4431207376514
20
-10.48483064712
30
0
41
1
10
19.485707917112
20
-10.545003252593
30
0
41
1
10
19.5059039917807
20
-10.5757015791061
30
0
41
1
10
19.5249995776889
20
-10.6070107729664
30
0
0
SPLINE
5
201
100
AcDbEntity
8
1
62
256
6
ByLayer
370
70
48
1
60
0
100
AcDbSpline
70
4
71
3
72
52
73
48
40
0
40
0
40
0
40
0
40
0.0625000000000108
40
0.0625000000000108
40
0.125000000000022
40
0.125000000000022
40
0.156250000000027
40
0.156250000000027
40
0.171875000000027
40
0.171875000000027
40
0.187500000000028
40
0.187500000000028
40
0.250000000000032
40
0.312500000000037
40
0.312500000000037
40
0.328125000000037
40
0.328125000000037
40
0.343750000000038
40
0.375000000000037
40
0.375000000000037
40
0.437500000000038
40
0.437500000000038
40
0.468750000000039
40
0.468750000000039
40
0.484375000000039
40
0.484375000000039
40
0.500000000000039
40
0.500000000000039
40
0.562500000000034
40
0.625000000000028
40
0.625000000000028
40
0.656250000000026
40
0.656250000000026
40
0.687500000000023
40
0.687500000000023
40
0.75000000000002
40
0.75000000000002
40
0.781250000000018
40
0.781250000000018
40
0.812500000000015
40
0.812500000000015
40
0.87500000000001
40
0.937500000000005
40
0.937500000000005
40
0.968750000000002
40
0.968750000000002
40
1
40
1
40
1
40
1
41
1
10
19.5249995776889
20
10.6070107729664
30
0
41
1
10
19.4868082544753
20
10.5443921370143
30
0
41
1
10
19.4445444173208
20
10.4847232541501
30
0
41
1
10
19.3521986137959
20
10.3710920803132
30
0
41
1
10
19.3021156301471
20
10.3171303990357
30
0
41
1
10
19.2210560537413
20
10.2405557761169
30
0
41
1
10
19.1930438620935
20
10.2157612129988
30
0
41
1
10
19.1494980187431
20
10.1796982562142
30
0
41
1
10
19.1347507054052
20
10.1678859791006
30
0
41
1
10
19.1049624096866
20
10.1448092850989
30
0
41
1
10
19.0898976531028
20
10.1335249806682
30
0
41
1
10
19.0137313535927
20
10.0783598013234
30
0
41
1
10
18.886494775724
20
9.99810440202509
30
0
41
1
10
18.7486944453343
20
9.93368795652901
30
0
41
1
10
18.6591467420778
20
9.89858324515501
30
0
41
1
10
18.6410485515517
20
9.8918164021145
30
0
41
1
10
18.604775459786
20
9.8789024582351
30
0
41
1
10
18.5501568023728
20
9.86042283638412
30
0
41
1
10
18.4949200586065
20
9.84458100393081
30
0
41
1
10
18.383635781184
20
9.8163623459493
30
0
41
1
10
18.3083686742238
20
9.80215542489779
30
0
41
1
10
18.1938406945013
20
9.78781340463101
30
0
41
1
10
18.1553926214938
20
9.7841977188524
30
0
41
1
10
18.0973028504143
20
9.7805634053158
30
0
41
1
10
18.0778332692201
20
9.7796497406658
30
0
41
1
10
18.0389887799346
20
9.77843495631799
30
0
41
1
10
18.0196068275018
20
9.77813200657951
30
0
41
1
10
17.922895715352
20
9.77811829132881
30
0
41
1
10
17.7694241212017
20
9.78766474594289
30
0
41
1
10
17.618427347949
20
9.8159013839585
30
0
41
1
10
17.5061354491874
20
9.84428280154012
30
0
41
1
10
17.4688096856988
20
9.8549754164201
30
0
41
1
10
17.3955813027984
20
9.8784610593097
30
0
41
1
10
17.3595423766766
20
9.89128383844221
30
0
41
1
10
17.2531179421332
20
9.93292345777999
30
0
41
1
10
17.184417581173
20
9.96489835975112
30
0
41
1
10
17.0847417052726
20
10.0191571511299
30
0
41
1
10
17.0520806552343
20
10.0382961290576
30
0
41
1
10
16.9879096528678
20
10.0787163637089
30
0
41
1
10
16.9563153402679
20
10.1000670133717
30
0
41
1
10
16.8645968965765
20
10.1664560790587
30
0
41
1
10
16.7496961146868
20
10.261596071992
30
0
41
1
10
16.6491672097249
20
10.3695186588664
30
0
41
1
10
16.5792936797739
20
10.4553370465732
30
0
41
1
10
16.5568784177262
20
10.48483064712
30
0
41
1
10
16.5142912382657
20
10.5450032525931
30
0
41
1
10
16.494095163597
20
10.5757015791061
30
0
41
1
10
16.4749995776888
20
10.6070107729664
30
0
0
SPLINE
5
202
100
AcDbEntity
8
1
62
256
6
ByLayer
370
70
48
1
60
0
100
AcDbSpline
70
4
71
3
72
52
73
48
40
0
40
0
40
0
40
0
40
0.0624999999999956
40
0.0624999999999956
40
0.124999999999991
40
0.124999999999991
40
0.156249999999988
40
0.156249999999988
40
0.171874999999988
40
0.171874999999988
40
0.187499999999987
40
0.187499999999987
40
0.24999999999999
40
0.312499999999992
40
0.312499999999992
40
0.328124999999992
40
0.328124999999992
40
0.343749999999993
40
0.374999999999991
40
0.374999999999991
40
0.43749999999999
40
0.43749999999999
40
0.468749999999989
40
0.468749999999989
40
0.484374999999989
40
0.484374999999989
40
0.499999999999989
40
0.499999999999989
40
0.56249999999999
40
0.624999999999992
40
0.624999999999992
40
0.656249999999993
40
0.656249999999993
40
0.687499999999994
40
0.687499999999994
40
0.749999999999995
40
0.749999999999995
40
0.781249999999996
40
0.781249999999996
40
0.812499999999996
40
0.812499999999996
40
0.874999999999997
40
0.937499999999998
40
0.937499999999998
40
0.968749999999999
40
0.968749999999999
40
1
40
1
40
1
40
1
41
1
10
19.5249995776889
20
-6.0825605386255
30
0
41
1
10
19.4868082544753
20
-6.14875739362759
30
0
41
1
10
19.4445444173208
20
-6.21167813815879
30
0
41
1
10
19.3521986137959
20
-6.33125697971619
30
0
41
1
10
19.3021156301471
20
-6.38791418129549
30
0
41
1
10
19.2210560537413
20
-6.46816741062779
30
0
41
1
10
19.1930438620935
20
-6.49412721987301
30
0
41
1
10
19.1494980187431
20
-6.53185172670331
30
0
41
1
10
19.1347507054052
20
-6.54420249950991
30
0
41
1
10
19.1049624096866
20
-6.56832089581369
30
0
41
1
10
19.0898976531028
20
-6.58010932569809
30
0
41
1
10
19.0137313535927
20
-6.63771554132731
30
0
41
1
10
18.886494775724
20
-6.72137011403399
30
0
41
1
10
18.7486944453343
20
-6.78833183584041
30
0
41
1
10
18.6591467420778
20
-6.824790629436
30
0
41
1
10
18.6410485515517
20
-6.8318165550296
30
0
41
1
10
18.604775459786
20
-6.8452218180351
30
0
41
1
10
18.5501568023728
20
-6.86439961794031
30
0
41
1
10
18.4949200586065
20
-6.8808285805587
30
0
41
1
10
18.383635781184
20
-6.91008402699751
30
0
41
1
10
18.3083686742238
20
-6.924799966363
30
0
41
1
10
18.1938406945013
20
-6.93965309017199
30
0
41
1
10
18.1553926214938
20
-6.94339679009531
30
0
41
1
10
18.0973028504143
20
-6.94715960022191
30
0
41
1
10
18.0778332692201
20
-6.94810551514649
30
0
41
1
10
18.0389887799346
20
-6.9493631640423
30
0
41
1
10
18.0196068275018
20
-6.94967679285179
30
0
41
1
10
17.922895715352
20
-6.94969099173071
30
0
41
1
10
17.7694241212017
20
-6.9398095655196
30
0
41
1
10
17.618427347949
20
-6.910561750553
30
0
41
1
10
17.5061354491874
20
-6.88113782423079
30
0
41
1
10
17.4688096856988
20
-6.87004896572739
30
0
41
1
10
17.3955813027984
20
-6.8456811840739
30
0
41
1
10
17.3595423766766
20
-6.83237143195049
30
0
41
1
10
17.2531179421332
20
-6.7891261392781
30
0
41
1
10
17.184417581173
20
-6.7558888427682
30
0
41
1
10
17.0847417052726
20
-6.69940194144618
30
0
41
1
10
17.0520806552343
20
-6.67946425122679
30
0
41
1
10
16.9879096528678
20
-6.6373233715841
30
0
41
1
10
16.9563153402679
20
-6.6150476211412
30
0
41
1
10
16.8645968965765
20
-6.545721382468
30
0
41
1
10
16.7496961146868
20
-6.44621804518849
30
0
41
1
10
16.6491672097249
20
-6.33291094167311
30
0
41
1
10
16.5792936797739
20
-6.24260335462111
30
0
41
1
10
16.5568784177262
20
-6.2115339686836
30
0
41
1
10
16.5142912382657
20
-6.14807178447569
30
0
41
1
10
16.494095163597
20
-6.11565883491841
30
0
41
1
10
16.4749995776888
20
-6.0825605386255
30
0
0
SPLINE
5
203
100
AcDbEntity
8
1
62
256
6
ByLayer
370
70
48
1
60
0
100
AcDbSpline
70
4
71
3
72
52
73
48
40
0
40
0
40
0
40
0
40
0.0624999999999953
40
0.0624999999999953
40
0.12499999999999
40
0.12499999999999
40
0.156249999999989
40
0.156249999999989
40
0.171874999999989
40
0.171874999999989
40
0.187499999999989
40
0.187499999999989
40
0.249999999999996
40
0.312500000000002
40
0.312500000000002
40
0.328125000000004
40
0.328125000000004
40
0.343750000000006
40
0.375000000000007
40
0.375000000000007
40
0.437500000000011
40
0.437500000000011
40
0.468750000000013
40
0.468750000000013
40
0.484375000000014
40
0.484375000000014
40
0.500000000000015
40
0.500000000000015
40
0.562500000000013
40
0.625000000000012
40
0.625000000000012
40
0.656250000000011
40
0.656250000000011
40
0.68750000000001
40
0.68750000000001
40
0.750000000000009
40
0.750000000000009
40
0.781250000000008
40
0.781250000000008
40
0.812500000000007
40
0.812500000000007
40
0.875000000000006
40
0.937500000000004
40
0.937500000000004
40
0.968750000000002
40
0.968750000000002
40
1
40
1
40
1
40
1
41
1
10
16.4749995776888
20
6.08256053862561
30
0
41
1
10
16.5131909009024
20
6.1487573936277
30
0
41
1
10
16.5554547380569
20
6.21167813815902
30
0
41
1
10
16.6478005415818
20
6.3312569797163
30
0
41
1
10
16.6978835252306
20
6.3879141812956
30
0
41
1
10
16.7789431016364
20
6.4681674106279
30
0
41
1
10
16.8069552932842
20
6.49412721987309
30
0
41
1
10
16.8505011366346
20
6.53185172670339
30
0
41
1
10
16.8652484499725
20
6.54420249950999
30
0
41
1
10
16.8950367456911
20
6.5683208958138
30
0
41
1
10
16.9101015022749
20
6.5801093256982
30
0
41
1
10
16.986267801785
20
6.6377155413274
30
0
41
1
10
17.1135043796537
20
6.7213701140341
30
0
41
1
10
17.2513047100434
20
6.78833183584049
30
0
41
1
10
17.3408524132999
20
6.82479062943611
30
0
41
1
10
17.358950603826
20
6.83181655502969
30
0
41
1
10
17.3952236955917
20
6.84522181803521
30
0
41
1
10
17.4498423530049
20
6.86439961794039
30
0
41
1
10
17.5050790967711
20
6.88082858055881
30
0
41
1
10
17.6163633741937
20
6.91008402699759
30
0
41
1
10
17.6916304811539
20
6.92479996636311
30
0
41
1
10
17.8061584608764
20
6.93965309017221
30
0
41
1
10
17.8446065338839
20
6.94339679009539
30
0
41
1
10
17.9026963049634
20
6.94715960022199
30
0
41
1
10
17.9221658861576
20
6.94810551514661
30
0
41
1
10
17.9610103754431
20
6.94936316404241
30
0
41
1
10
17.9803923278759
20
6.9496767928519
30
0
41
1
10
18.0771034400256
20
6.94969099173079
30
0
41
1
10
18.230575034176
20
6.93980956551971
30
0
41
1
10
18.3815718074287
20
6.91056175055311
30
0
41
1
10
18.4938637061902
20
6.8811378242309
30
0
41
1
10
18.5311894696789
20
6.87004896572739
30
0
41
1
10
18.6044178525793
20
6.84568118407401
30
0
41
1
10
18.640456778701
20
6.83237143195061
30
0
41
1
10
18.7468812132445
20
6.78912613927821
30
0
41
1
10
18.8155815742047
20
6.75588884276831
30
0
41
1
10
18.9152574501051
20
6.69940194144641
30
0
41
1
10
18.9479185001434
20
6.6794642512269
30
0
41
1
10
19.0120895025099
20
6.63732337158422
30
0
41
1
10
19.0436838151098
20
6.61504762114131
30
0
41
1
10
19.1354022588012
20
6.54572138246812
30
0
41
1
10
19.2503030406909
20
6.4462180451886
30
0
41
1
10
19.3508319456528
20
6.33291094167319
30
0
41
1
10
19.4207054756038
20
6.2426033546212
30
0
41
1
10
19.4431207376514
20
6.21153396868371
30
0
41
1
10
19.485707917112
20
6.14807178447592
30
0
41
1
10
19.5059039917807
20
6.11565883491849
30
0
41
1
10
19.5249995776889
20
6.08256053862561
30
0
0
SPLINE
5
204
100
AcDbEntity
8
1
62
256
6
ByLayer
370
70
48
1
60
0
100
AcDbSpline
70
4
71
3
72
52
73
48
40
0
40
0
40
0
40
0
40
0.0624999999999951
40
0.0624999999999951
40
0.12499999999999
40
0.12499999999999
40
0.156249999999987
40
0.156249999999987
40
0.171874999999986
40
0.171874999999986
40
0.187499999999985
40
0.187499999999985
40
0.249999999999988
40
0.31249999999999
40
0.31249999999999
40
0.328124999999991
40
0.328124999999991
40
0.343749999999992
40
0.37499999999999
40
0.37499999999999
40
0.437499999999988
40
0.437499999999988
40
0.468749999999986
40
0.468749999999986
40
0.484374999999986
40
0.484374999999986
40
0.499999999999985
40
0.499999999999985
40
0.562499999999985
40
0.624999999999985
40
0.624999999999985
40
0.656249999999985
40
0.656249999999985
40
0.687499999999985
40
0.687499999999985
40
0.749999999999988
40
0.749999999999988
40
0.781249999999989
40
0.781249999999989
40
0.812499999999991
40
0.812499999999991
40
0.874999999999994
40
0.937499999999996
40
0.937499999999996
40
0.968749999999998
40
0.968749999999998
40
1
40
1
40
1
40
1
41
1
10
19.5249995776889
20
4.39727504184239
30
0
41
1
10
19.4868082544753
20
4.33026883424901
30
0
41
1
10
19.4445444173208
20
4.2664824996358
30
0
41
1
10
19.3521986137959
20
4.14510871908149
30
0
41
1
10
19.3021156301471
20
4.0875220264235
30
0
41
1
10
19.2210560537413
20
4.00586219933041
30
0
41
1
10
19.1930438620935
20
3.97943146776819
30
0
41
1
10
19.1494980187431
20
3.94100212554869
30
0
41
1
10
19.1347507054052
20
3.92841705521312
30
0
41
1
10
19.1049624096866
20
3.90383476337581
30
0
41
1
10
19.0898976531028
20
3.89181634832062
30
0
41
1
10
19.0137313535927
20
3.8330717809958
30
0
41
1
10
18.886494775724
20
3.74767015971881
30
0
41
1
10
18.7486944453343
20
3.67919672019559
30
0
41
1
10
18.6591467420778
20
3.6418943568026
30
0
41
1
10
18.6410485515517
20
3.63470466759031
30
0
41
1
10
18.604775459786
20
3.62098501118811
30
0
41
1
10
18.5501568023728
20
3.6013543953045
30
0
41
1
10
18.4949200586065
20
3.5845304409076
30
0
41
1
10
18.383635781184
20
3.55456599263891
30
0
41
1
10
18.3083686742238
20
3.53948534937442
30
0
41
1
10
18.1938406945013
20
3.52426240594019
30
0
41
1
10
18.1553926214938
20
3.5204249721865
30
0
41
1
10
18.0973028504143
20
3.51656783942971
30
0
41
1
10
18.0778332692201
20
3.51559817972631
30
0
41
1
10
18.0389887799346
20
3.51430895169159
30
0
41
1
10
18.0196068275018
20
3.51398744108229
30
0
41
1
10
17.922895715352
20
3.51397288547221
30
0
41
1
10
17.7694241212017
20
3.52410360363299
30
0
41
1
10
17.618427347949
20
3.55407658278222
30
0
41
1
10
17.5061354491874
20
3.58421375561869
30
0
41
1
10
17.4688096856988
20
3.5955692456815
30
0
41
1
10
17.3955813027984
20
3.6205156011099
30
0
41
1
10
17.3595423766766
20
3.63413805206952
30
0
41
1
10
17.2531179421332
20
3.678384234703
30
0
41
1
10
17.184417581173
20
3.71237252714312
30
0
41
1
10
17.0847417052726
20
3.77008242151149
30
0
41
1
10
17.0520806552343
20
3.79044386199391
30
0
41
1
10
16.9879096528678
20
3.83345945050351
30
0
41
1
10
16.9563153402679
20
3.85618753320901
30
0
41
1
10
16.8645968965765
20
3.9268840405114
30
0
41
1
10
16.7496961146868
20
4.02825886708581
30
0
41
1
10
16.6491672097249
20
4.14342881752521
30
0
41
1
10
16.5792936797739
20
4.2350936194108
30
0
41
1
10
16.5568784177262
20
4.26660973475569
30
0
41
1
10
16.5142912382657
20
4.33093867792601
30
0
41
1
10
16.494095163597
20
4.36377207085809
30
0
41
1
10
16.4749995776888
20
4.39727504184239
30
0
0
SPLINE
5
205
100
AcDbEntity
8
1
62
256
6
ByLayer
370
70
48
1
60
0
100
AcDbSpline
70
4
71
3
72
52
73
48
40
0
40
0
40
0
40
0
40
0.0624999999999965
40
0.0624999999999965
40
0.124999999999993
40
0.124999999999993
40
0.156249999999992
40
0.156249999999992
40
0.171874999999993
40
0.171874999999993
40
0.187499999999994
40
0.187499999999994
40
0.250000000000002
40
0.312500000000009
40
0.312500000000009
40
0.328125000000011
40
0.328125000000011
40
0.343750000000012
40
0.375000000000013
40
0.375000000000013
40
0.437500000000018
40
0.437500000000018
40
0.46875000000002
40
0.46875000000002
40
0.484375000000021
40
0.484375000000021
40
0.500000000000022
40
0.500000000000022
40
0.562500000000021
40
0.625000000000019
40
0.625000000000019
40
0.656250000000019
40
0.656250000000019
40
0.687500000000018
40
0.687500000000018
40
0.750000000000017
40
0.750000000000017
40
0.781250000000015
40
0.781250000000015
40
0.812500000000013
40
0.812500000000013
40
0.87500000000001
40
0.937500000000006
40
0.937500000000006
40
0.968750000000003
40
0.968750000000003
40
1
40
1
40
1
40
1
41
1
10
16.4749995776888
20
-4.39727504184231
30
0
41
1
10
16.5131909009024
20
-4.3302688342489
30
0
41
1
10
16.5554547380569
20
-4.26648249963569
30
0
41
1
10
16.6478005415818
20
-4.14510871908141
30
0
41
1
10
16.6978835252306
20
-4.08752202642339
30
0
41
1
10
16.7789431016364
20
-4.0058621993303
30
0
41
1
10
16.8069552932842
20
-3.97943146776811
30
0
41
1
10
16.8505011366346
20
-3.94100212554861
30
0
41
1
10
16.8652484499725
20
-3.928417055213
30
0
41
1
10
16.8950367456911
20
-3.9038347633757
30
0
41
1
10
16.9101015022749
20
-3.89181634832059
30
0
41
1
10
16.986267801785
20
-3.83307178099571
30
0
41
1
10
17.1135043796537
20
-3.7476701597187
30
0
41
1
10
17.2513047100434
20
-3.67919672019559
30
0
41
1
10
17.3408524132999
20
-3.64189435680251
30
0
41
1
10
17.358950603826
20
-3.63470466759029
30
0
41
1
10
17.3952236955917
20
-3.620985011188
30
0
41
1
10
17.4498423530049
20
-3.60135439530438
30
0
41
1
10
17.5050790967711
20
-3.58453044090749
30
0
41
1
10
17.6163633741937
20
-3.55456599263869
30
0
41
1
10
17.6916304811539
20
-3.5394853493743
30
0
41
1
10
17.8061584608764
20
-3.52426240594019
30
0
41
1
10
17.8446065338839
20
-3.52042497218639
30
0
41
1
10
17.9026963049634
20
-3.51656783942948
30
0
41
1
10
17.9221658861576
20
-3.5155981797262
30
0
41
1
10
17.9610103754431
20
-3.5143089516915
30
0
41
1
10
17.9803923278759
20
-3.51398744108221
30
0
41
1
10
18.0771034400256
20
-3.5139728854721
30
0
41
1
10
18.230575034176
20
-3.52410360363291
30
0
41
1
10
18.3815718074287
20
-3.5540765827821
30
0
41
1
10
18.4938637061902
20
-3.58421375561861
30
0
41
1
10
18.5311894696789
20
-3.59556924568139
30
0
41
1
10
18.6044178525793
20
-3.62051560110979
30
0
41
1
10
18.640456778701
20
-3.63413805206929
30
0
41
1
10
18.7468812132445
20
-3.67838423470289
30
0
41
1
10
18.8155815742047
20
-3.712372527143
30
0
41
1
10
18.9152574501051
20
-3.7700824215114
30
0
41
1
10
18.9479185001434
20
-3.79044386199379
30
0
41
1
10
19.0120895025099
20
-3.8334594505034
30
0
41
1
10
19.0436838151098
20
-3.8561875332089
30
0
41
1
10
19.1354022588012
20
-3.92688404051128
30
0
41
1
10
19.2503030406909
20
-4.0282588670857
30
0
41
1
10
19.3508319456528
20
-4.14342881752509
30
0
41
1
10
19.4207054756038
20
-4.23509361941069
30
0
41
1
10
19.4431207376514
20
-4.2666097347556
30
0
41
1
10
19.485707917112
20
-4.33093867792579
30
0
41
1
10
19.5059039917807
20
-4.363772070858
30
0
41
1
10
19.5249995776889
20
-4.39727504184231
30
0
0
SPLINE
5
206
100
AcDbEntity
8
1
62
256
6
ByLayer
370
70
48
1
60
0
100
AcDbSpline
70
4
71
3
72
37
73
33
40
0
40
0
40
0
40
0
40
0.0312500000000078
40
0.0312500000000078
40
0.0625000000000156
40
0.125000000000024
40
0.125000000000024
40
0.250000000000041
40
0.250000000000041
40
0.281250000000045
40
0.281250000000045
40
0.312500000000049
40
0.312500000000049
40
0.375000000000051
40
0.375000000000051
40
0.500000000000047
40
0.500000000000047
40
0.562500000000042
40
0.562500000000042
40
0.593750000000038
40
0.593750000000038
40
0.625000000000034
40
0.625000000000034
40
0.750000000000023
40
0.750000000000023
40
0.875000000000011
40
0.875000000000011
40
0.906250000000009
40
0.906250000000009
40
0.937500000000007
40
0.937500000000007
40
1
40
1
40
1
40
1
41
1
10
16.4749995776888
20
16.230601400091
30
0
41
1
10
16.4657133235326
20
16.2439189562341
30
0
41
1
10
16.4566715715193
20
16.2575850463854
30
0
41
1
10
16.4392349336196
20
16.2852965958268
30
0
41
1
10
16.4139865819349
20
16.3275234270372
30
0
41
1
10
16.3913798633646
20
16.3714562303112
30
0
41
1
10
16.3495610990323
20
16.4610119483162
30
0
41
1
10
16.3261870662709
20
16.5229582253962
30
0
41
1
10
16.302533775535
20
16.6016403965223
30
0
41
1
10
16.2980830476444
20
16.617440428746
30
0
41
1
10
16.2897466890472
20
16.6491326861977
30
0
41
1
10
16.2858548353684
20
16.6650539014156
30
0
41
1
10
16.2750951049584
20
16.7126488104866
30
0
41
1
10
16.2691380559164
20
16.7441442325254
30
0
41
1
10
16.2548380398876
20
16.8375359900439
30
0
41
1
10
16.2500512164255
20
16.8982817912597
30
0
41
1
10
16.2499743789974
20
16.9863654408247
30
0
41
1
10
16.2511365012489
20
17.0152341551385
30
0
41
1
10
16.2546930111759
20
17.0578350445853
30
0
41
1
10
16.2561809665333
20
17.0719192808945
30
0
41
1
10
16.2597698997694
20
17.0998728889427
30
0
41
1
10
16.2618756562344
20
17.1137683265725
30
0
41
1
10
16.2739022403521
20
17.1824387461336
30
0
41
1
10
16.2882082357169
20
17.234466377327
30
0
41
1
10
16.3258843232724
20
17.3357189511873
30
0
41
1
10
16.3492531585728
20
17.3849398971822
30
0
41
1
10
16.3844021521979
20
17.4467853539303
30
0
41
1
10
16.3917432117072
20
17.4591913051951
30
0
41
1
10
16.4069562556961
20
17.4839665723018
30
0
41
1
10
16.4148301157533
20
17.4963409670434
30
0
41
1
10
16.4392497465293
20
17.5335081233534
30
0
41
1
10
16.4565925904457
20
17.5583415939441
30
0
41
1
10
16.4749995776888
20
17.5834806976042
30
0
0
SPLINE
5
207
100
AcDbEntity
8
1
62
256
6
ByLayer
370
70
48
1
60
0
100
AcDbSpline
70
4
71
3
72
28
73
24
40
0
40
0
40
0
40
0
40
0.249999999999991
40
0.249999999999991
40
0.374999999999991
40
0.374999999999991
40
0.499999999999991
40
0.499999999999991
40
0.624999999999995
40
0.624999999999995
40
0.687499999999999
40
0.687499999999999
40
0.750000000000003
40
0.750000000000003
40
0.812500000000008
40
0.812500000000008
40
0.875000000000012
40
0.875000000000012
40
0.906250000000014
40
0.906250000000014
40
0.937500000000016
40
0.937500000000016
40
1
40
1
40
1
40
1
41
1
10
16.1937393051515
20
26.4000000000001
30
0
41
1
10
16.2059849316765
20
26.4000000000001
30
0
41
1
10
16.2195370471791
20
26.4000000000001
30
0
41
1
10
16.2427001315105
20
26.4000000000001
30
0
41
1
10
16.2508989387656
20
26.4000000000001
30
0
41
1
10
16.2685314926349
20
26.4000000000001
30
0
41
1
10
16.2779689303304
20
26.4000000000001
30
0
41
1
10
16.2985186876175
20
26.4000000000001
30
0
41
1
10
16.309560837449
20
26.4000000000001
30
0
41
1
10
16.3278462957058
20
26.4000000000001
30
0
41
1
10
16.3342511540531
20
26.4000000000001
30
0
41
1
10
16.3476873617132
20
26.4000000000001
30
0
41
1
10
16.3547194164656
20
26.4000000000001
30
0
41
1
10
16.3695987848456
20
26.4000000000001
30
0
41
1
10
16.3774430310047
20
26.4000000000001
30
0
41
1
10
16.3942553544682
20
26.4000000000001
30
0
41
1
10
16.4032638189102
20
26.4000000000001
30
0
41
1
10
16.4174492386543
20
26.4000000000001
30
0
41
1
10
16.422306093343
20
26.4000000000001
30
0
41
1
10
16.4323209749099
20
26.4000000000001
30
0
41
1
10
16.437514296448
20
26.4000000000001
30
0
41
1
10
16.4532413557819
20
26.4000000000001
30
0
41
1
10
16.4639762332622
20
26.4
30
0
41
1
10
16.4749995776888
20
26.4000000000001
30
0
0
SPLINE
5
208
100
AcDbEntity
8
1
62
256
6
ByLayer
370
70
48
1
60
0
100
AcDbSpline
70
4
71
3
72
18
73
14
40
0
40
0
40
0
40
0
40
0.249999999999966
40
0.249999999999966
40
0.374999999999962
40
0.374999999999962
40
0.499999999999958
40
0.499999999999958
40
0.749999999999979
40
0.749999999999979
40
0.874999999999989
40
0.874999999999989
40
1
40
1
40
1
40
1
41
1
10
16.0749995776888
20
26.697103190234
30
0
41
1
10
16.0749995776889
20
26.6695414117567
30
0
41
1
10
16.0775870495864
20
26.6424171734538
30
0
41
1
10
16.085205960844
20
26.6023628597346
30
0
41
1
10
16.0883731386203
20
26.589117538638
30
0
41
1
10
16.0959938899333
20
26.5628444253099
30
0
41
1
10
16.1004764612317
20
26.5497544771122
30
0
41
1
10
16.1156399456595
20
26.5115709614516
30
0
41
1
10
16.1280401537842
20
26.4873887623807
30
0
41
1
10
16.1500820032614
20
26.4530282984244
30
0
41
1
10
16.1580068968084
20
26.4418958510297
30
0
41
1
10
16.1750657497059
20
26.4203029649293
30
0
41
1
10
16.1841515768188
20
26.4099089244694
30
0
41
1
10
16.1937393051515
20
26.4000000000001
30
0
0
SPLINE
5
209
100
AcDbEntity
8
1
62
256
6
ByLayer
370
70
48
1
60
0
100
AcDbSpline
70
4
71
3
72
36
73
32
40
0
40
0
40
0
40
0
40
0.0156464144997232
40
0.0156464144997232
40
0.0312928289994465
40
0.0312928289994465
40
0.0625856579988929
40
0.0625856579988929
40
0.0782320724986162
40
0.0782320724986162
40
0.0938784869983394
40
0.0938784869983394
40
0.125171315997786
40
0.125171315997786
40
0.156464144997232
40
0.156464144997232
40
0.187756973996679
40
0.187756973996679
40
0.250342631995577
40
0.250342631995577
40
0.312928289994471
40
0.312928289994471
40
0.375513947993366
40
0.375513947993366
40
0.500685263991158
40
0.500685263991158
40
0.62585657998895
40
0.62585657998895
40
0.751027895986743
40
0.751027895986743
40
1
40
1
40
1
40
1
41
1
10
16.4749995776888
20
-26.4
30
0
41
1
10
16.4671671080575
20
-26.4
30
0
41
1
10
16.4594981338852
20
-26.4
30
0
41
1
10
16.4444511442228
20
-26.4
30
0
41
1
10
16.4370448985777
20
-26.4
30
0
41
1
10
16.4154010995031
20
-26.4
30
0
41
1
10
16.40233858786
20
-26.4
30
0
41
1
10
16.3840289161788
20
-26.4
30
0
41
1
10
16.3781533990449
20
-26.4
30
0
41
1
10
16.3669753130378
20
-26.4
30
0
41
1
10
16.3616388249471
20
-26.4
30
0
41
1
10
16.3462345830006
20
-26.4
30
0
41
1
10
16.3367642639105
20
-26.4
30
0
41
1
10
16.318939083418
20
-26.4
30
0
41
1
10
16.3106001828202
20
-26.4
30
0
41
1
10
16.2950003787529
20
-26.4
30
0
41
1
10
16.2876992152068
20
-26.4
30
0
41
1
10
16.2669323147042
20
-26.4
30
0
41
1
10
16.2545853507911
20
-26.4
30
0
41
1
10
16.2318784161341
20
-26.4
30
0
41
1
10
16.2215339918387
20
-26.4
30
0
41
1
10
16.2023552760044
20
-26.4
30
0
41
1
10
16.1935118209342
20
-26.4
30
0
41
1
10
16.1689917964661
20
-26.4
30
0
41
1
10
16.1552340834665
20
-26.4
30
0
41
1
10
16.1313988246257
20
-26.4
30
0
41
1
10
16.1213472637816
20
-26.4
30
0
41
1
10
16.1043153567693
20
-26.4
30
0
41
1
10
16.097343010974
20
-26.4
30
0
41
1
10
16.0806864753959
20
-26.4
30
0
41
1
10
16.0750504611464
20
-26.4
30
0
41
1
10
16.0750045776902
20
-26.4
30
0
0
SPLINE
5
20A
100
AcDbEntity
8
1
62
256
6
ByLayer
370
70
48
1
60
0
100
AcDbSpline
70
4
71
3
72
37
73
33
40
0
40
0
40
0
40
0
40
0.0312500000000008
40
0.0312500000000008
40
0.0625000000000017
40
0.125000000000007
40
0.125000000000007
40
0.250000000000014
40
0.250000000000014
40
0.281250000000015
40
0.281250000000015
40
0.312500000000016
40
0.312500000000016
40
0.375000000000017
40
0.375000000000017
40
0.500000000000009
40
0.500000000000009
40
0.562500000000005
40
0.562500000000005
40
0.593750000000004
40
0.593750000000004
40
0.625000000000003
40
0.625000000000003
40
0.750000000000002
40
0.750000000000002
40
0.875000000000001
40
0.875000000000001
40
0.90625
40
0.90625
40
0.937499999999998
40
0.937499999999998
40
1
40
1
40
1
40
1
41
1
10
16.4749995776888
20
-17.5834806976042
30
0
41
1
10
16.4657133235326
20
-17.5707981166492
30
0
41
1
10
16.4566715715193
20
-17.5581559465865
30
0
41
1
10
16.4392349336196
20
-17.5331133978457
30
0
41
1
10
16.4139865819349
20
-17.4958270882354
30
0
41
1
10
16.3913798633646
20
-17.4590562868812
30
0
41
1
10
16.3495610990323
20
-17.3854946962862
30
0
41
1
10
16.3261870662709
20
-17.3364264052106
30
0
41
1
10
16.302533775535
20
-17.2729913156553
30
0
41
1
10
16.2980830476444
20
-17.2601996771628
30
0
41
1
10
16.2897466890472
20
-17.2343560163972
30
0
41
1
10
16.2858548353684
20
-17.2212797788787
30
0
41
1
10
16.2750951049584
20
-17.1817972910926
30
0
41
1
10
16.2691380559164
20
-17.1551428148137
30
0
41
1
10
16.2548380398876
20
-17.0737676839107
30
0
41
1
10
16.2500512164255
20
-17.0175763711753
30
0
41
1
10
16.2499743789974
20
-16.9295631002431
30
0
41
1
10
16.2511365012489
20
-16.8996183125951
30
0
41
1
10
16.2546930111759
20
-16.8538275931424
30
0
41
1
10
16.2561809665333
20
-16.8384194531583
30
0
41
1
10
16.2597698997694
20
-16.8073319622328
30
0
41
1
10
16.2618756562344
20
-16.7916225987612
30
0
41
1
10
16.2739022403521
20
-16.7128404748933
30
0
41
1
10
16.2882082357169
20
-16.6494168701625
30
0
41
1
10
16.3258843232723
20
-16.5238438384574
30
0
41
1
10
16.3492531585728
20
-16.4616910619079
30
0
41
1
10
16.3844021521979
20
-16.3863942543558
30
0
41
1
10
16.3917432117072
20
-16.3714332361339
30
0
41
1
10
16.4069562556961
20
-16.3419575673319
30
0
41
1
10
16.4148301157533
20
-16.3274361080637
30
0
41
1
10
16.4392497465293
20
-16.2845964776066
30
0
41
1
10
16.4565925904457
20
-16.256999136133
30
0
41
1
10
16.4749995776888
20
-16.2306014000909
30
0
0
SPLINE
5
20B
100
AcDbEntity
8
1
62
256
6
ByLayer
370
70
48
1
60
0
100
AcDbSpline
70
4
71
3
72
38
73
34
40
0
40
0
40
0
40
0
40
0.0312499999999994
40
0.0312499999999994
40
0.0624999999999987
40
0.0624999999999987
40
0.125
40
0.125
40
0.250000000000003
40
0.250000000000003
40
0.281250000000004
40
0.281250000000004
40
0.312500000000004
40
0.312500000000004
40
0.375000000000002
40
0.375000000000002
40
0.499999999999998
40
0.499999999999998
40
0.562499999999998
40
0.562499999999998
40
0.593749999999997
40
0.593749999999997
40
0.624999999999996
40
0.624999999999996
40
0.749999999999998
40
0.749999999999998
40
0.874999999999999
40
0.874999999999999
40
0.906249999999999
40
0.906249999999999
40
0.9375
40
0.9375
40
1
40
1
40
1
40
1
41
1
10
16.4749995776888
20
-12.169258190623
30
0
41
1
10
16.4657133235326
20
-12.1544601161284
30
0
41
1
10
16.4566715715193
20
-12.1396151293906
30
0
41
1
10
16.4392349336196
20
-12.1100549200759
30
0
41
1
10
16.4308185475209
20
-12.0953062622888
30
0
41
1
10
16.4064510090781
20
-12.0510814685351
30
0
41
1
10
16.3913798633646
20
-12.0216251510913
30
0
41
1
10
16.3495610990323
20
-11.9328312992733
30
0
41
1
10
16.3261870662709
20
-11.8730709856166
30
0
41
1
10
16.302533775535
20
-11.7961505193241
30
0
41
1
10
16.2980830476444
20
-11.7806554843763
30
0
41
1
10
16.2897466890472
20
-11.7494051997268
30
0
41
1
10
16.2858548353684
20
-11.7336208385254
30
0
41
1
10
16.2750951049584
20
-11.6860763590398
30
0
41
1
10
16.2691380559164
20
-11.654132211879
30
0
41
1
10
16.2548380398876
20
-11.5572725711198
30
0
41
1
10
16.2500512164255
20
-11.4912894619907
30
0
41
1
10
16.2499743789974
20
-11.3896385511068
30
0
41
1
10
16.2511365012489
20
-11.3553184797551
30
0
41
1
10
16.2546930111759
20
-11.3032087538418
30
0
41
1
10
16.2561809665333
20
-11.2857346103455
30
0
41
1
10
16.2597698997694
20
-11.2505900863557
30
0
41
1
10
16.2618756562344
20
-11.2328859982001
30
0
41
1
10
16.2739022403521
20
-11.1443445503861
30
0
41
1
10
16.2882082357169
20
-11.073847451494
30
0
41
1
10
16.3258843232724
20
-10.9346923673612
30
0
41
1
10
16.3492531585728
20
-10.8660322816219
30
0
41
1
10
16.3844021521979
20
-10.7823190208538
30
0
41
1
10
16.3917432117072
20
-10.7656574025375
30
0
41
1
10
16.4069562556961
20
-10.7327510339714
30
0
41
1
10
16.4148301157533
20
-10.7164988375118
30
0
41
1
10
16.4392497465293
20
-10.66839420779
30
0
41
1
10
16.4565925904457
20
-10.6371909378879
30
0
41
1
10
16.4749995776888
20
-10.6070107729664
30
0
0
SPLINE
5
20C
100
AcDbEntity
8
1
62
256
6
ByLayer
370
70
48
1
60
0
100
AcDbSpline
70
4
71
3
72
38
73
34
40
0
40
0
40
0
40
0
40
0.0312500000000011
40
0.0312500000000011
40
0.0625000000000022
40
0.0625000000000022
40
0.125000000000002
40
0.125000000000002
40
0.250000000000003
40
0.250000000000003
40
0.281250000000004
40
0.281250000000004
40
0.312500000000005
40
0.312500000000005
40
0.375000000000006
40
0.375000000000006
40
0.500000000000007
40
0.500000000000007
40
0.562500000000007
40
0.562500000000007
40
0.593750000000006
40
0.593750000000006
40
0.625000000000006
40
0.625000000000006
40
0.750000000000005
40
0.750000000000005
40
0.875000000000004
40
0.875000000000004
40
0.906250000000003
40
0.906250000000003
40
0.937500000000001
40
0.937500000000001
40
1
40
1
40
1
40
1
41
1
10
16.4749995776888
20
-6.0825605386255
30
0
41
1
10
16.4657133235326
20
-6.0664647145438
30
0
41
1
10
16.4566715715193
20
-6.0502372474613
30
0
41
1
10
16.4392349336196
20
-6.01779287944561
30
0
41
1
10
16.4308185475209
20
-6.00153969873588
30
0
41
1
10
16.4064510090781
20
-5.9526481020801
30
0
41
1
10
16.3913798633646
20
-5.91987709555349
30
0
41
1
10
16.3495610990323
20
-5.82075774490031
30
0
41
1
10
16.3261870662709
20
-5.75360777310911
30
0
41
1
10
16.302533775535
20
-5.667452567293
30
0
41
1
10
16.2980830476444
20
-5.650110393988
30
0
41
1
10
16.2897466890472
20
-5.6151803811596
30
0
41
1
10
16.2858548353684
20
-5.59756014258821
30
0
41
1
10
16.2750951049584
20
-5.5445809869089
30
0
41
1
10
16.2691380559164
20
-5.5091124075239
30
0
41
1
10
16.2548380398876
20
-5.40212073607719
30
0
41
1
10
16.2500512164255
20
-5.32999206766979
30
0
41
1
10
16.2499743789974
20
-5.2203207623528
30
0
41
1
10
16.251136501249
20
-5.1835219399043
30
0
41
1
10
16.2546930111759
20
-5.12797279928049
30
0
41
1
10
16.2561809665333
20
-5.10939827622349
30
0
41
1
10
16.2597698997694
20
-5.0721388111605
30
0
41
1
10
16.2618756562344
20
-5.05341832905088
30
0
41
1
10
16.2739022403521
20
-4.96001037179309
30
0
41
1
10
16.2882082357169
20
-4.88633545964791
30
0
41
1
10
16.3258843232724
20
-4.74128805519069
30
0
41
1
10
16.3492531585728
20
-4.6699148275305
30
0
41
1
10
16.3844021521979
20
-4.58241112166411
30
0
41
1
10
16.3917432117072
20
-4.5649696269341
30
0
41
1
10
16.4069562556961
20
-4.53045096976979
30
0
41
1
10
16.4148301157532
20
-4.51336613508249
30
0
41
1
10
16.4392497465293
20
-4.46265477559299
30
0
41
1
10
16.4565925904457
20
-4.42956987492491
30
0
41
1
10
16.4749995776888
20
-4.39727504184231
30
0
0
SPLINE
5
20D
100
AcDbEntity
8
1
62
256
6
ByLayer
370
70
48
1
60
0
100
AcDbSpline
70
4
71
3
72
38
73
34
40
0
40
0
40
0
40
0
40
0.0312499999999998
40
0.0312499999999998
40
0.0624999999999995
40
0.0624999999999995
40
0.124999999999999
40
0.124999999999999
40
0.249999999999998
40
0.249999999999998
40
0.281249999999998
40
0.281249999999998
40
0.312499999999998
40
0.312499999999998
40
0.374999999999997
40
0.374999999999997
40
0.499999999999994
40
0.499999999999994
40
0.562499999999994
40
0.562499999999994
40
0.593749999999993
40
0.593749999999993
40
0.624999999999993
40
0.624999999999993
40
0.749999999999994
40
0.749999999999994
40
0.874999999999995
40
0.874999999999995
40
0.906249999999996
40
0.906249999999996
40
0.937499999999998
40
0.937499999999998
40
1
40
1
40
1
40
1
41
1
10
16.4749995776888
20
4.39727504184239
30
0
41
1
10
16.4657133235326
20
4.41356766072551
30
0
41
1
10
16.4566715715193
20
4.4301124664288
30
0
41
1
10
16.4392349336196
20
4.46338402497491
30
0
41
1
10
16.4308185475209
20
4.4801473719188
30
0
41
1
10
16.4064510090781
20
4.53079988931961
30
0
41
1
10
16.3913798633646
20
4.56505068568299
30
0
41
1
10
16.3495610990323
20
4.6691270192
30
0
41
1
10
16.3261870662709
20
4.74026820315962
30
0
41
1
10
16.302533775535
20
4.83114886352101
30
0
41
1
10
16.2980830476444
20
4.84942341380349
30
0
41
1
10
16.2897466890472
20
4.8861660540299
30
0
41
1
10
16.2858548353684
20
4.90466802283529
30
0
41
1
10
16.2750951049584
20
4.96016142216561
30
0
41
1
10
16.2691380559164
20
4.9971303325508
30
0
41
1
10
16.2548380398876
20
5.1078462591997
30
0
41
1
10
16.2500512164255
20
5.18138647828269
30
0
41
1
10
16.2499743789974
20
5.29107959571041
30
0
41
1
10
16.251136501249
20
5.32754491593391
30
0
41
1
10
16.2546930111759
20
5.38210544790951
30
0
41
1
10
16.2561809665333
20
5.40026965987789
30
0
41
1
10
16.2597698997694
20
5.43655785571681
30
0
41
1
10
16.2618756562344
20
5.45471615652809
30
0
41
1
10
16.2739022403521
20
5.5449902419785
30
0
41
1
10
16.2882082357169
20
5.6151332549403
30
0
41
1
10
16.3258843232724
20
5.75264313705051
30
0
41
1
10
16.3492531585728
20
5.82000846476009
30
0
41
1
10
16.3844021521979
20
5.90334325826771
30
0
41
1
10
16.3917432117072
20
5.91999287340352
30
0
41
1
10
16.4069562556961
20
5.95305475771249
30
0
41
1
10
16.4148301157533
20
5.96947416303359
30
0
41
1
10
16.4392497465293
20
6.01842747993521
30
0
41
1
10
16.4565925904457
20
6.05065578741431
30
0
41
1
10
16.4749995776888
20
6.08256053862561
30
0
0
SPLINE
5
20E
100
AcDbEntity
8
1
62
256
6
ByLayer
370
70
48
1
60
0
100
AcDbSpline
70
4
71
3
72
37
73
33
40
0
40
0
40
0
40
0
40
0.0312500000000037
40
0.0312500000000037
40
0.0625000000000074
40
0.125000000000012
40
0.125000000000012
40
0.25000000000002
40
0.25000000000002
40
0.281250000000021
40
0.281250000000021
40
0.312500000000022
40
0.312500000000022
40
0.375000000000023
40
0.375000000000023
40
0.500000000000026
40
0.500000000000026
40
0.562500000000025
40
0.562500000000025
40
0.593750000000023
40
0.593750000000023
40
0.625000000000021
40
0.625000000000021
40
0.750000000000013
40
0.750000000000013
40
0.875000000000005
40
0.875000000000005
40
0.906250000000005
40
0.906250000000005
40
0.937500000000004
40
0.937500000000004
40
1
40
1
40
1
40
1
41
1
10
16.4749995776888
20
10.6070107729664
30
0
41
1
10
16.4657133235326
20
10.6222365499084
30
0
41
1
10
16.4566715715193
20
10.637771222064
30
0
41
1
10
16.4392349336196
20
10.6691291994696
30
0
41
1
10
16.4139865819348
20
10.7167022966175
30
0
41
1
10
16.3913798633646
20
10.7657109073426
30
0
41
1
10
16.3495610990323
20
10.8652779792255
30
0
41
1
10
16.3261870662709
20
10.9337125627352
30
0
41
1
10
16.302533775535
20
11.0209030588265
30
0
41
1
10
16.2980830476444
20
11.0384244680101
30
0
41
1
10
16.2897466890472
20
11.0736142122846
30
0
41
1
10
16.2858548353684
20
11.0913148750166
30
0
41
1
10
16.2750951049584
20
11.1443236663411
30
0
41
1
10
16.2691380559164
20
11.1795285461856
30
0
41
1
10
16.2548380398876
20
11.2844822679564
30
0
41
1
10
16.2500512164255
20
11.3535331597425
30
0
41
1
10
16.2499743789974
20
11.4552314758071
30
0
41
1
10
16.2511365012489
20
11.488826732698
30
0
41
1
10
16.2546930111759
20
11.5387878737124
30
0
41
1
10
16.2561809665333
20
11.5553702708028
30
0
41
1
10
16.2597698997694
20
11.5884038943958
30
0
41
1
10
16.2618756562344
20
11.6048861702091
30
0
41
1
10
16.2739022403521
20
11.6866166421608
30
0
41
1
10
16.2882082357169
20
11.7494377154953
30
0
41
1
10
16.3258843232724
20
11.8722111841937
30
0
41
1
10
16.3492531585728
20
11.932160731819
30
0
41
1
10
16.3844021521979
20
12.0068135194105
30
0
41
1
10
16.3917432117072
20
12.0217541123841
30
0
41
1
10
16.4069562556961
20
12.0514944150211
30
0
41
1
10
16.4148301157533
20
12.0663004057551
30
0
41
1
10
16.4392497465293
20
12.1105842073233
30
0
41
1
10
16.4565925904457
20
12.1399258070955
30
0
41
1
10
16.4749995776888
20
12.1692581906231
30
0
0
SPLINE
5
20F
100
AcDbEntity
8
1
62
256
6
ByLayer
370
70
48
1
60
0
100
AcDbSpline
70
4
71
3
72
28
73
24
40
0
40
0
40
0
40
0
40
0.0625000000000069
40
0.0625000000000069
40
0.125000000000014
40
0.125000000000014
40
0.250000000000027
40
0.250000000000027
40
0.375000000000041
40
0.375000000000041
40
0.406250000000042
40
0.406250000000042
40
0.437500000000043
40
0.437500000000043
40
0.50000000000004
40
0.50000000000004
40
0.62500000000003
40
0.62500000000003
40
0.75000000000002
40
0.75000000000002
40
0.87500000000001
40
0.87500000000001
40
1
40
1
40
1
40
1
41
1
10
19.5249995776889
20
17.5834806976043
30
0
41
1
10
19.5434395715561
20
17.5582965155761
30
0
41
1
10
19.5608182141557
20
17.5334100645183
30
0
41
1
10
19.593448721868
20
17.4837324215843
30
0
41
1
10
19.6087335841958
20
17.4588757904947
30
0
41
1
10
19.6508540154522
20
17.3847214252446
30
0
41
1
10
19.6741680083121
20
17.3355773656892
30
0
41
1
10
19.711743234989
20
17.2345932044102
30
0
41
1
10
19.7260025994018
20
17.1827568371786
30
0
41
1
10
19.7380135309793
20
17.1144498160361
30
0
41
1
10
19.7401233012316
20
17.1006139284744
30
0
41
1
10
19.7437470137923
20
17.072553843773
30
0
41
1
10
19.7452624753319
20
17.0582992390522
30
0
41
1
10
19.7488675796883
20
17.0152909226427
30
0
41
1
10
19.7500332696869
20
16.9862043802004
30
0
41
1
10
19.749929973738
20
16.8976439031026
30
0
41
1
10
19.7450771696413
20
16.8368195467775
30
0
41
1
10
19.7260149099074
20
16.71266397998
30
0
41
1
10
19.7117954547653
20
16.6493173145159
30
0
41
1
10
19.6737031114693
20
16.5225874928883
30
0
41
1
10
19.6502011134027
20
16.4604267390876
30
0
41
1
10
19.5943707891413
20
16.3410213330248
30
0
41
1
10
19.5620480174935
20
16.2837331223987
30
0
41
1
10
19.5249995776889
20
16.2306014000906
30
0
0
SPLINE
5
210
100
AcDbEntity
8
1
62
256
6
ByLayer
370
70
48
1
60
0
100
AcDbSpline
70
4
71
3
72
28
73
24
40
0
40
0
40
0
40
0
40
0.0624999999999963
40
0.0624999999999963
40
0.124999999999993
40
0.124999999999993
40
0.249999999999985
40
0.249999999999985
40
0.374999999999978
40
0.374999999999978
40
0.406249999999977
40
0.406249999999977
40
0.437499999999976
40
0.437499999999976
40
0.499999999999976
40
0.499999999999976
40
0.624999999999982
40
0.624999999999982
40
0.749999999999988
40
0.749999999999988
40
0.874999999999994
40
0.874999999999994
40
1
40
1
40
1
40
1
41
1
10
19.5249995776889
20
12.1692581906231
30
0
41
1
10
19.5434395715561
20
12.139873209517
30
0
41
1
10
19.5608182141557
20
12.110468435216
30
0
41
1
10
19.593448721868
20
12.0512765478135
30
0
41
1
10
19.6087335841958
20
12.0214086676579
30
0
41
1
10
19.6508540154522
20
11.9318951003217
30
0
41
1
10
19.6741680083121
20
11.8720394803575
30
0
41
1
10
19.711743234989
20
11.7495915240687
30
0
41
1
10
19.7260025994018
20
11.6870017839604
30
0
41
1
10
19.7380135309793
20
11.6056956751452
30
0
41
1
10
19.7401233012316
20
11.5892816679336
30
0
41
1
10
19.7437470137923
20
11.5561181870226
30
0
41
1
10
19.7452624753319
20
11.5393332857288
30
0
41
1
10
19.7488675796883
20
11.488891307368
30
0
41
1
10
19.7500332696869
20
11.4550436182139
30
0
41
1
10
19.749929973738
20
11.3528005125893
30
0
41
1
10
19.7450771696413
20
11.2836728639797
30
0
41
1
10
19.7260149099074
20
11.1441553179029
30
0
41
1
10
19.7117954547653
20
11.0737356436242
30
0
41
1
10
19.6737031114693
20
10.9333016349409
30
0
41
1
10
19.6502011134027
20
10.8646302426799
30
0
41
1
10
19.5943707891413
20
10.731870798908
30
0
41
1
10
19.5620480174935
20
10.6677555330194
30
0
41
1
10
19.5249995776889
20
10.6070107729662
30
0
0
SPLINE
5
211
100
AcDbEntity
8
1
62
256
6
ByLayer
370
70
48
1
60
0
100
AcDbSpline
70
4
71
3
72
28
73
24
40
0
40
0
40
0
40
0
40
0.0625000000000008
40
0.0625000000000008
40
0.125000000000002
40
0.125000000000002
40
0.250000000000003
40
0.250000000000003
40
0.375000000000005
40
0.375000000000005
40
0.406250000000004
40
0.406250000000004
40
0.437500000000004
40
0.437500000000004
40
0.500000000000003
40
0.500000000000003
40
0.625000000000002
40
0.625000000000002
40
0.750000000000002
40
0.750000000000002
40
0.875000000000001
40
0.875000000000001
40
1
40
1
40
1
40
1
41
1
10
19.5249995776889
20
6.08256053862561
30
0
41
1
10
19.5434395715561
20
6.0505985771758
30
0
41
1
10
19.5608182141557
20
6.0183003921409
30
0
41
1
10
19.593448721868
20
5.95286521339119
30
0
41
1
10
19.6087335841958
20
5.9196365879823
30
0
41
1
10
19.6508540154522
20
5.8197103525419
30
0
41
1
10
19.6741680083121
20
5.7524508032574
30
0
41
1
10
19.711743234989
20
5.6153055455176
30
0
41
1
10
19.7260025994018
20
5.54542115153569
30
0
41
1
10
19.7380135309793
20
5.4556089435651
30
0
41
1
10
19.7401233012316
20
5.43752385735542
30
0
41
1
10
19.7437470137923
20
5.40108959946971
30
0
41
1
10
19.7452624753318
20
5.38270193792061
30
0
41
1
10
19.7488675796883
20
5.32761372936329
30
0
41
1
10
19.7500332696869
20
5.2908753221889
30
0
41
1
10
19.749929973738
20
5.18059955833161
30
0
41
1
10
19.7450771696413
20
5.10698862230521
30
0
41
1
10
19.7260149099074
20
4.9598188587571
30
0
41
1
10
19.7117954547653
20
4.88621757807582
30
0
41
1
10
19.6737031114693
20
4.73983978801431
30
0
41
1
10
19.6502011134027
20
4.6684525493622
30
0
41
1
10
19.5943707891413
20
4.52967537588
30
0
41
1
10
19.5620480174935
20
4.4622760745292
30
0
41
1
10
19.5249995776889
20
4.39727504184239
30
0
0
SPLINE
5
212
100
AcDbEntity
8
1
62
256
6
ByLayer
370
70
48
1
60
0
100
AcDbSpline
70
4
71
3
72
28
73
24
40
0
40
0
40
0
40
0
40
0.0625000000000014
40
0.0625000000000014
40
0.125000000000003
40
0.125000000000003
40
0.250000000000006
40
0.250000000000006
40
0.375000000000009
40
0.375000000000009
40
0.40625000000001
40
0.40625000000001
40
0.43750000000001
40
0.43750000000001
40
0.50000000000001
40
0.50000000000001
40
0.625000000000007
40
0.625000000000007
40
0.750000000000005
40
0.750000000000005
40
0.875000000000003
40
0.875000000000003
40
1
40
1
40
1
40
1
41
1
10
19.5249995776889
20
-4.39727504184231
30
0
41
1
10
19.5434395715561
20
-4.4296277846415
30
0
41
1
10
19.5608182141557
20
-4.4627851327036
30
0
41
1
10
19.593448721868
20
-4.5305728589118
30
0
41
1
10
19.6087335841958
20
-4.56530156809521
30
0
41
1
10
19.6508540154522
20
-4.6702301361523
30
0
41
1
10
19.6741680083121
20
-4.7414909609677
30
0
41
1
10
19.711743234989
20
-4.8861536957393
30
0
41
1
10
19.7260025994018
20
-4.95955650201319
30
0
41
1
10
19.7380135309793
20
-5.0524964937178
30
0
41
1
10
19.7401233012316
20
-5.071144401813
30
0
41
1
10
19.7437470137923
20
-5.1085588207126
30
0
41
1
10
19.7452624753319
20
-5.1273642261539
30
0
41
1
10
19.7488675796883
20
-5.18345438634739
30
0
41
1
10
19.7500332696869
20
-5.22052744688008
30
0
41
1
10
19.749929973738
20
-5.33077388781069
30
0
41
1
10
19.7450771696413
20
-5.40295529629259
30
0
41
1
10
19.7260149099074
20
-5.54516297811469
30
0
41
1
10
19.7117954547653
20
-5.61524707263069
30
0
41
1
10
19.6737031114693
20
-5.7540140595242
30
0
41
1
10
19.6502011134027
20
-5.82139609661201
30
0
41
1
10
19.5943707891413
20
-5.9535715715989
30
0
41
1
10
19.5620480174935
20
-6.01834463848269
30
0
41
1
10
19.5249995776889
20
-6.08256053862539
30
0
0
SPLINE
5
213
100
AcDbEntity
8
1
62
256
6
ByLayer
370
70
48
1
60
0
100
AcDbSpline
70
4
71
3
72
28
73
24
40
0
40
0
40
0
40
0
40
0.0624999999999997
40
0.0624999999999997
40
0.124999999999999
40
0.124999999999999
40
0.249999999999998
40
0.249999999999998
40
0.374999999999996
40
0.374999999999996
40
0.406249999999997
40
0.406249999999997
40
0.437499999999998
40
0.437499999999998
40
0.499999999999999
40
0.499999999999999
40
0.624999999999999
40
0.624999999999999
40
0.749999999999999
40
0.749999999999999
40
0.875
40
0.875
40
1
40
1
40
1
40
1
41
1
10
19.5249995776889
20
-10.6070107729664
30
0
41
1
10
19.5434395715561
20
-10.6372450556719
30
0
41
1
10
19.5608182141557
20
-10.6685170852402
30
0
41
1
10
19.593448721868
20
-10.7328218633227
30
0
41
1
10
19.6087335841958
20
-10.7659499388556
30
0
41
1
10
19.6508540154522
20
-10.8663352867888
30
0
41
1
10
19.6741680083121
20
-10.9348870477363
30
0
41
1
10
19.711743234989
20
-11.0736730541299
30
0
41
1
10
19.7260025994018
20
-11.1439095081652
30
0
41
1
10
19.7380135309793
20
-11.2320133613764
30
0
41
1
10
19.7401233012316
20
-11.2496505731452
30
0
41
1
10
19.7437470137923
20
-11.284944279355
30
0
41
1
10
19.7452624753319
20
-11.3026370810803
30
0
41
1
10
19.7488675796883
20
-11.3552566432191
30
0
41
1
10
19.750033269687
20
-11.3898316486406
30
0
41
1
10
19.749929973738
20
-11.4920110255112
30
0
41
1
10
19.7450771696413
20
-11.5580318215758
30
0
41
1
10
19.7260149099074
20
-11.6867650660152
30
0
41
1
10
19.7117954547653
20
-11.7495406911595
30
0
41
1
10
19.6737031114693
20
-11.8734338201074
30
0
41
1
10
19.6502011134027
20
-11.9334005387711
30
0
41
1
10
19.5943707891413
20
-12.0518122325815
30
0
41
1
10
19.5620480174935
20
-12.110219792264
30
0
41
1
10
19.5249995776889
20
-12.1692581906227
30
0
0
SPLINE
5
214
100
AcDbEntity
8
1
62
256
6
ByLayer
370
70
48
1
60
0
100
AcDbSpline
70
4
71
3
72
28
73
24
40
0
40
0
40
0
40
0
40
0.0624999999999895
40
0.0624999999999895
40
0.124999999999979
40
0.124999999999979
40
0.249999999999961
40
0.249999999999961
40
0.374999999999943
40
0.374999999999943
40
0.40624999999994
40
0.40624999999994
40
0.437499999999938
40
0.437499999999938
40
0.499999999999941
40
0.499999999999941
40
0.624999999999956
40
0.624999999999956
40
0.749999999999971
40
0.749999999999971
40
0.874999999999985
40
0.874999999999985
40
1
40
1
40
1
40
1
41
1
10
19.5249995776889
20
-16.2306014000909
30
0
41
1
10
19.5434395715561
20
-16.2570464714268
30
0
41
1
10
19.5608182141557
20
-16.2847050851689
30
0
41
1
10
19.593448721868
20
-16.3419734228513
30
0
41
1
10
19.6087335841958
20
-16.3716702020055
30
0
41
1
10
19.6508540154522
20
-16.4619650195063
30
0
41
1
10
19.6741680083121
20
-16.5240195353622
30
0
41
1
10
19.711743234989
20
-16.6492594765691
30
0
41
1
10
19.7260025994018
20
-16.7124483007338
30
0
41
1
10
19.7380135309793
20
-16.7908473824965
30
0
41
1
10
19.7401233012316
20
-16.8064992628088
30
0
41
1
10
19.7437470137923
20
-16.8377219205046
30
0
41
1
10
19.7452624753318
20
-16.8533244114738
30
0
41
1
10
19.7488675796883
20
-16.8995656101769
30
0
41
1
10
19.7500332696869
20
-16.929731940183
30
0
41
1
10
19.749929973738
20
-17.0181978043604
30
0
41
1
10
19.7450771696413
20
-17.0744096683063
30
0
41
1
10
19.7260149099074
20
-17.1825546557803
30
0
41
1
10
19.7117954547653
20
-17.2345528205133
30
0
41
1
10
19.6737031114693
20
-17.3367257374856
30
0
41
1
10
19.6502011134027
20
-17.3859633673047
30
0
41
1
10
19.5943707891413
20
-17.4840678308871
30
0
41
1
10
19.5620480174935
20
-17.5328822723215
30
0
41
1
10
19.5249995776889
20
-17.5834806976038
30
0
0
SPLINE
5
215
100
AcDbEntity
8
1
62
256
6
ByLayer
370
70
48
1
60
0
100
AcDbSpline
70
4
71
3
72
30
73
26
40
0
40
0
40
0
40
0
40
0.114213759872294
40
0.114213759872294
40
0.335660319904228
40
0.335660319904228
40
0.446383599920196
40
0.446383599920196
40
0.557106879936163
40
0.557106879936163
40
0.66783015995213
40
0.66783015995213
40
0.778553439968097
40
0.778553439968097
40
0.833915079976076
40
0.833915079976076
40
0.861595899980065
40
0.861595899980065
40
0.889276719984054
40
0.889276719984054
40
0.944638359992033
40
0.944638359992033
40
0.972319179996016
40
0.972319179996016
40
1
40
1
40
1
40
1
41
1
10
19.8734905776876
20
-26.4
30
0
41
1
10
19.8682610466181
20
-26.4
30
0
41
1
10
19.8625747222433
20
-26.4
30
0
41
1
10
19.8443821815613
20
-26.4
30
0
41
1
10
19.8304816894115
20
-26.4
30
0
41
1
10
19.8059051833016
20
-26.4
30
0
41
1
10
19.7970813854774
20
-26.4
30
0
41
1
10
19.7778362926467
20
-26.4
30
0
41
1
10
19.767440895899
20
-26.4
30
0
41
1
10
19.7445865229355
20
-26.4
30
0
41
1
10
19.7320988349883
20
-26.4
30
0
41
1
10
19.7042902400084
20
-26.4
30
0
41
1
10
19.6890196954363
20
-26.4
30
0
41
1
10
19.6624564214355
20
-26.4
30
0
41
1
10
19.6529248415288
20
-26.4
30
0
41
1
10
19.637502685705
20
-26.4
30
0
41
1
10
19.6321717226759
20
-26.4
30
0
41
1
10
19.6210410714364
20
-26.4
30
0
41
1
10
19.6152202913542
20
-26.4
30
0
41
1
10
19.5970090795936
20
-26.4
30
0
41
1
10
19.5840819616713
20
-26.4
30
0
41
1
10
19.5628996827807
20
-26.4
30
0
41
1
10
19.5554511507587
20
-26.4
30
0
41
1
10
19.5403953328878
20
-26.4
30
0
41
1
10
19.5327574140651
20
-26.4
30
0
41
1
10
19.5249995776889
20
-26.4
30
0
0
SPLINE
5
216
100
AcDbEntity
8
1
62
256
6
ByLayer
370
70
48
1
60
0
100
AcDbSpline
70
4
71
3
72
16
73
12
40
0
40
0
40
0
40
0
40
0.250000000000027
40
0.250000000000027
40
0.375000000000019
40
0.375000000000019
40
0.50000000000001
40
0.50000000000001
40
0.750000000000005
40
0.750000000000005
40
1
40
1
40
1
40
1
41
1
10
19.8062598502262
20
26.4000000000001
30
0
41
1
10
19.8254280135731
20
26.4198103112886
30
0
41
1
10
19.8422852007179
20
26.4411937101347
30
0
41
1
10
19.8643341460901
20
26.4754721307066
30
0
41
1
10
19.871139903598
20
26.4872684988921
30
0
41
1
10
19.8836520550324
20
26.5116095749341
30
0
41
1
10
19.8893718016603
20
26.5242036090152
30
0
41
1
10
19.9045292901933
20
26.5623411835958
30
0
41
1
10
19.9121134873716
20
26.5884468032939
30
0
41
1
10
19.9223622106704
20
26.6419862665983
30
0
41
1
10
19.9249995776889
20
26.6695539934751
30
0
41
1
10
19.9249995776889
20
26.697103190234
30
0
0
SPLINE
5
217
100
AcDbEntity
8
1
62
256
6
ByLayer
370
70
48
1
60
0
100
AcDbSpline
70
4
71
3
72
26
73
22
40
0
40
0
40
0
40
0
40
0.0625000000000243
40
0.0625000000000243
40
0.0937500000000262
40
0.0937500000000262
40
0.125000000000028
40
0.125000000000028
40
0.187500000000032
40
0.187500000000032
40
0.250000000000036
40
0.250000000000036
40
0.37500000000003
40
0.37500000000003
40
0.500000000000024
40
0.500000000000024
40
0.625000000000018
40
0.625000000000018
40
0.750000000000012
40
0.750000000000012
40
1
40
1
40
1
40
1
41
1
10
19.5249995776889
20
26.4000000000001
30
0
41
1
10
19.5360990372005
20
26.4000000000001
30
0
41
1
10
19.5468709097597
20
26.4000000000001
30
0
41
1
10
19.5626103089356
20
26.4000000000001
30
0
41
1
10
19.5678218123681
20
26.4000000000001
30
0
41
1
10
19.5779226139937
20
26.4000000000001
30
0
41
1
10
19.5828032489503
20
26.4000000000001
30
0
41
1
10
19.5970192018699
20
26.4000000000001
30
0
41
1
10
19.6059327101275
20
26.4000000000001
30
0
41
1
10
19.6229219468382
20
26.4000000000001
30
0
41
1
10
19.6308445760149
20
26.4000000000001
30
0
41
1
10
19.6532676299274
20
26.4000000000001
30
0
41
1
10
19.6665226459157
20
26.4000000000001
30
0
41
1
10
19.6910016551238
20
26.4
30
0
41
1
10
19.7020194656236
20
26.4000000000001
30
0
41
1
10
19.722385097997
20
26.4000000000001
30
0
41
1
10
19.7317421014369
20
26.4000000000001
30
0
41
1
10
19.7492633251092
20
26.4000000000001
30
0
41
1
10
19.7574227024163
20
26.4000000000001
30
0
41
1
10
19.7804955601649
20
26.4000000000001
30
0
41
1
10
19.7940240748294
20
26.4000000000001
30
0
41
1
10
19.8062598502262
20
26.4000000000001
30
0
0
SPLINE
5
218
100
AcDbEntity
8
1
62
256
6
ByLayer
370
70
48
1
60
0
100
AcDbSpline
70
4
71
3
72
8
73
4
40
0
40
0
40
0
40
0
40
1
40
1
40
1
40
1
41
1
10
25.4499995776888
20
19.85
30
0
41
1
10
25.6172282494412
20
19.85
30
0
41
1
10
25.7839063116898
20
19.85
30
0
41
1
10
25.9499995776888
20
19.85
30
0
0
SPLINE
5
219
100
AcDbEntity
8
1
62
256
6
ByLayer
370
70
48
1
60
0
100
AcDbSpline
70
4
71
3
72
8
73
4
40
0
40
0
40
0
40
0
40
1
40
1
40
1
40
1
41
1
10
25.9499995776889
20
-29.6281216709733
30
0
41
1
10
25.783396832783
20
-29.8022699705865
30
0
41
1
10
25.6167291066729
20
-29.9763560588094
30
0
41
1
10
25.4499995776889
20
-30.1503829784963
30
0
0
SPLINE
5
21A
100
AcDbEntity
8
1
62
256
6
ByLayer
370
70
48
1
60
0
100
AcDbSpline
70
4
71
3
72
53
73
49
40
0
40
0
40
0
40
0
40
0.0624999999999999
40
0.0624999999999999
40
0.125
40
0.125
40
0.1875
40
0.1875
40
0.203125
40
0.203125
40
0.21875
40
0.21875
40
0.25
40
0.25
40
0.3125
40
0.3125
40
0.375
40
0.375
40
0.40625
40
0.40625
40
0.421875
40
0.421875
40
0.4375
40
0.4375
40
0.499999999999999
40
0.499999999999999
40
0.562499999999999
40
0.562499999999999
40
0.624999999999998
40
0.624999999999998
40
0.640624999999998
40
0.640624999999998
40
0.656249999999998
40
0.687499999999998
40
0.687499999999998
40
0.749999999999998
40
0.749999999999998
40
0.812499999999998
40
0.812499999999998
40
0.843749999999998
40
0.843749999999998
40
0.859374999999999
40
0.859374999999999
40
0.874999999999999
40
0.874999999999999
40
0.937499999999999
40
0.937499999999999
40
1
40
1
40
1
40
1
41
1
10
12.9499995776888
20
-30.1503829784963
30
0
41
1
10
12.6841309370755
20
-30.1503829784963
30
0
41
1
10
12.4206470760939
20
-30.1543453879131
30
0
41
1
10
11.8982634482324
20
-30.1697869707438
30
0
41
1
10
11.6393641802961
20
-30.1812667142531
30
0
41
1
10
11.1260955434754
20
-30.2113619657956
30
0
41
1
10
10.8717260494996
20
-30.2299778939183
30
0
41
1
10
10.5566387030013
20
-30.2574763990118
30
0
41
1
10
10.4937652743472
20
-30.2631875405794
30
0
41
1
10
10.3683088810269
20
-30.2750269307959
30
0
41
1
10
10.3057215151308
20
-30.2811564366935
30
0
41
1
10
10.1194614045593
20
-30.3000493570683
30
0
41
1
10
9.99692909226079
20
-30.3133501209501
30
0
41
1
10
9.63413269974589
20
-30.3551895350745
30
0
41
1
10
9.3986575111314
20
-30.3856634558138
30
0
41
1
10
8.94013087737179
20
-30.4508771444522
30
0
41
1
10
8.71707985515698
20
-30.4856182415107
30
0
41
1
10
8.3918339345351
20
-30.5402922027967
30
0
41
1
10
8.28497656677769
20
-30.5589441303184
30
0
41
1
10
8.12705552534359
20
-30.5874838229591
30
0
41
1
10
8.07474010252409
20
-30.5971038147968
30
0
41
1
10
7.97132434487298
20
-30.6164388274919
30
0
41
1
10
7.92022124257079
20
-30.6261537581164
30
0
41
1
10
7.66769063857109
20
-30.6749252282769
30
0
41
1
10
7.4751940142051
20
-30.7145691260908
30
0
41
1
10
7.10865441703058
20
-30.7941358726583
30
0
41
1
10
6.934612731383
20
-30.8340604486316
30
0
41
1
10
6.60496274630628
20
-30.9132664965989
30
0
41
1
10
6.44935287451358
20
-30.9525496389802
30
0
41
1
10
6.26670976458649
20
-31.0006744484451
30
0
41
1
10
6.2307791945878
20
-31.0102499429786
30
0
41
1
10
6.16050367345099
20
-31.0291838688348
30
0
41
1
10
6.0573158170273
20
-31.0572994179036
30
0
41
1
10
5.9607326518524
20
-31.08450869516
30
0
41
1
10
5.77624802150768
20
-31.1375890198019
30
0
41
1
10
5.66481245892439
20
-31.1711913504447
30
0
41
1
10
5.46492121574059
20
-31.2341535567075
30
0
41
1
10
5.37646458478631
20
-31.2635146855691
30
0
41
1
10
5.26144245037349
20
-31.3038663020076
30
0
41
1
10
5.2260510629944
20
-31.3167016610253
30
0
41
1
10
5.17749516264678
20
-31.3349653649219
30
0
41
1
10
5.1620699997618
20
-31.3408870230159
30
0
41
1
10
5.13288997442129
20
-31.3523337498621
30
0
41
1
10
5.1191141979703
20
-31.3578665960224
30
0
41
1
10
5.0542833681196
20
-31.384569404397
30
0
41
1
10
5.015342590703
20
-31.4028553327579
30
0
41
1
10
4.9632012891465
20
-31.4330463350859
30
0
41
1
10
4.9499995776888
20
-31.4449518407132
30
0
41
1
10
4.9499995776888
20
-31.4535466005027
30
0
0
SPLINE
5
21B
100
AcDbEntity
8
1
62
256
6
ByLayer
370
70
48
1
60
0
100
AcDbSpline
70
4
71
3
72
45
73
41
40
0
40
0
40
0
40
0
40
0.0625
40
0.0625
40
0.125
40
0.125
40
0.1875
40
0.1875
40
0.203125
40
0.203125
40
0.21875
40
0.21875
40
0.25
40
0.25
40
0.3125
40
0.3125
40
0.375000000000001
40
0.375000000000001
40
0.406250000000001
40
0.421875000000001
40
0.421875000000001
40
0.437500000000001
40
0.437500000000001
40
0.500000000000002
40
0.500000000000002
40
0.562500000000002
40
0.562500000000002
40
0.625000000000003
40
0.625000000000003
40
0.640625000000003
40
0.640625000000003
40
0.656250000000003
40
0.656250000000003
40
0.687500000000003
40
0.687500000000003
40
0.750000000000002
40
0.750000000000002
40
0.875000000000001
40
0.875000000000001
40
1
40
1
40
1
40
1
41
1
10
12.1956199233781
20
24.4200409500067
30
0
41
1
10
11.9759335061761
20
24.4200409500067
30
0
41
1
10
11.758324383754
20
24.4127074179386
30
0
41
1
10
11.3270844770826
20
24.3839386530956
30
0
41
1
10
11.1134542832987
20
24.3625011198198
30
0
41
1
10
10.6901031017342
20
24.3056038437389
30
0
41
1
10
10.4803823326176
20
24.2701435456968
30
0
41
1
10
10.2206897104929
20
24.2168315972935
30
0
41
1
10
10.1688743259584
20
24.2057188174182
30
0
41
1
10
10.0654910994516
20
24.1825826465596
30
0
41
1
10
10.0138578332055
20
24.1705425488762
30
0
41
1
10
9.8601165915135
20
24.1332343953867
30
0
41
1
10
9.75899867038351
20
24.1067468964488
30
0
41
1
10
9.4596360951779
20
24.0225304764548
30
0
41
1
10
9.26537522391078
20
23.9600575830853
30
0
41
1
10
8.88695585984769
20
23.8226742810018
30
0
41
1
10
8.70279931271759
20
23.7477618111635
30
0
41
1
10
8.4339115964965
20
23.6260043199279
30
0
41
1
10
8.30130676404488
20
23.5627752021059
30
0
41
1
10
8.171435348839
20
23.4959827654601
30
0
41
1
10
8.085460184211
20
23.450656686642
30
0
41
1
10
8.04288915027968
20
23.4276543776727
30
0
41
1
10
7.8323131783369
20
23.311091922816
30
0
41
1
10
7.6708794596251
20
23.2127529633731
30
0
41
1
10
7.3610169021961
20
23.006176053876
30
0
41
1
10
7.21259112778378
20
22.8979363634043
30
0
41
1
10
6.9279621457101
20
22.6716713696083
30
0
41
1
10
6.79176094191948
20
22.5536449583076
30
0
41
1
10
6.62877443824749
20
22.3999925415235
30
0
41
1
10
6.5965407641406
20
22.3689558373227
30
0
41
1
10
6.53279266900509
20
22.3062689833205
30
0
41
1
10
6.50131275935829
20
22.2746516436256
30
0
41
1
10
6.408273466054
20
22.1792342756981
30
0
41
1
10
6.34801347059349
20
22.1147708752696
30
0
41
1
10
6.1722627932958
20
21.9188742079098
30
0
41
1
10
6.0617936853734
20
21.7849365427041
30
0
41
1
10
5.74865663492298
20
21.3734069993164
30
0
41
1
10
5.56418666833068
20
21.0861176330193
30
0
41
1
10
5.23652448500479
20
20.4866364512197
30
0
41
1
10
5.09336996825908
20
20.1744346090999
30
0
41
1
10
4.9682150699492
20
19.85
30
0
0
SPLINE
5
21C
100
AcDbEntity
8
1
62
256
6
ByLayer
370
70
48
1
60
0
100
AcDbSpline
70
4
71
3
72
53
73
49
40
0
40
0
40
0
40
0
40
0.0625000000000007
40
0.0625000000000007
40
0.125000000000001
40
0.125000000000001
40
0.187500000000002
40
0.187500000000002
40
0.203125000000002
40
0.203125000000002
40
0.218750000000002
40
0.218750000000002
40
0.250000000000003
40
0.250000000000003
40
0.312500000000003
40
0.312500000000003
40
0.375000000000004
40
0.375000000000004
40
0.406250000000004
40
0.406250000000004
40
0.421875000000004
40
0.421875000000004
40
0.437500000000004
40
0.437500000000004
40
0.500000000000004
40
0.500000000000004
40
0.562500000000004
40
0.562500000000004
40
0.625000000000004
40
0.625000000000004
40
0.640625000000003
40
0.640625000000003
40
0.656250000000003
40
0.687500000000003
40
0.687500000000003
40
0.750000000000003
40
0.750000000000003
40
0.812500000000002
40
0.812500000000002
40
0.843750000000002
40
0.843750000000002
40
0.859375000000002
40
0.859375000000002
40
0.875000000000002
40
0.875000000000002
40
0.937500000000001
40
0.937500000000001
40
1
40
1
40
1
40
1
41
1
10
4.9499995776888
20
31.4699984111853
30
0
41
1
10
4.9499995776888
20
31.4699140324166
30
0
41
1
10
4.96317326646368
20
31.4664710033411
30
0
41
1
10
5.01489333119238
20
31.4532049303393
30
0
41
1
10
5.05344247497999
20
31.4433812818471
30
0
41
1
10
5.15571410206559
20
31.4176655060856
30
0
41
1
10
5.21943568284308
20
31.4017728091576
30
0
41
1
10
5.31515582167188
20
31.3783044255918
30
0
41
1
10
5.3351051358234
20
31.3734306296908
30
0
41
1
10
5.3766304784464
20
31.3633276377672
30
0
41
1
10
5.39822782807928
20
31.3580933535021
30
0
41
1
10
5.46510962071039
20
31.3419559785114
30
0
41
1
10
5.51257858563238
20
31.3305949262852
30
0
41
1
10
5.6634482347865
20
31.2948572621708
30
0
41
1
10
5.7752906668631
20
31.2688269343103
30
0
41
1
10
6.02107535573759
20
31.2131416711641
30
0
41
1
10
6.15501801102459
20
31.1834853000087
30
0
41
1
10
6.3726926359557
20
31.1368630165869
30
0
41
1
10
6.4480494651026
20
31.1209660315192
30
0
41
1
10
6.5653546891663
20
31.0966610654822
30
0
41
1
10
6.6051966895678
20
31.0884771091289
30
0
41
1
10
6.6861982132109
20
31.0719938638512
30
0
41
1
10
6.72725245820249
20
31.0637159133677
30
0
41
1
10
6.93526171001199
20
31.0221827684181
30
0
41
1
10
7.11040925008641
20
30.9884987967217
30
0
41
1
10
7.47778885764268
20
30.9211654232425
30
0
41
1
10
7.6700218484001
20
30.8875143654232
30
0
41
1
10
8.07170592816979
20
30.8211858112186
30
0
41
1
10
8.28115533057129
20
30.7885066227175
30
0
41
1
10
8.5541453162906
20
30.7488794290826
30
0
41
1
10
8.60937927189019
20
30.7410048721665
30
0
41
1
10
8.7204601278531
20
30.7254670082919
30
0
41
1
10
8.88807684500659
20
30.7024647610271
30
0
41
1
10
9.0586526831384
20
30.6804304907461
30
0
41
1
10
9.40370588222609
20
30.6377948969771
30
0
41
1
10
9.6389341665396
20
30.6112816361138
30
0
41
1
10
10.1197722525122
20
30.5628267498569
30
0
41
1
10
10.3653816395184
20
30.5408840370386
30
0
41
1
10
10.7418044028294
20
30.5119727078944
30
0
41
1
10
10.8686158152744
20
30.5030029512015
30
0
41
1
10
11.0608896010952
20
30.4906245247103
30
0
41
1
10
11.1253908724599
20
30.4866742357489
30
0
41
1
10
11.2544911467834
20
30.4791787455616
30
0
41
1
10
11.31914364569
20
30.4756296799737
30
0
41
1
10
11.6429152091307
20
30.4588886829752
30
0
41
1
10
11.9035579761591
20
30.4487102825072
30
0
41
1
10
12.4280813283887
20
30.4350522651213
30
0
41
1
10
12.6919617994932
20
30.4315723180713
30
0
41
1
10
12.9574995776889
20
30.4315723180713
30
0
0
SPLINE
5
21D
100
AcDbEntity
8
1
62
256
6
ByLayer
370
70
48
1
60
0
100
AcDbSpline
70
4
71
3
72
10
73
6
40
0
40
0
40
0
40
0
40
0.5
40
0.5
40
1
40
1
40
1
40
1
41
1
10
16.0749995776888
20
19.85
30
0
41
1
10
15.8401792737208
20
19.85
30
0
41
1
10
15.6015697419894
20
19.85
30
0
41
1
10
15.1180492539711
20
19.85
30
0
41
1
10
14.8731043242913
20
19.85
30
0
41
1
10
14.6253872542755
20
19.85
30
0
0
SPLINE
5
21E
100
AcDbEntity
8
1
62
256
6
ByLayer
370
70
48
1
60
0
100
AcDbSpline
70
4
71
3
72
8
73
4
40
0
40
0
40
0
40
0
40
1
40
1
40
1
40
1
41
1
10
14.6253872542755
20
-30.1503829784963
30
0
41
1
10
15.1100399920017
20
-29.2741992018061
30
0
41
1
10
15.5933767279674
20
-28.3972829993793
30
0
41
1
10
16.0749995776888
20
-27.5194446025754
30
0
0
SPLINE
5
21F
100
AcDbEntity
8
1
62
256
6
ByLayer
370
70
48
1
60
0
100
AcDbSpline
70
4
71
3
72
10
73
6
40
0
40
0
40
0
40
0
40
0.5
40
0.5
40
1
40
1
40
1
40
1
41
1
10
21.3746119011022
20
19.85
30
0
41
1
10
21.1268948310864
20
19.85
30
0
41
1
10
20.8819499014066
20
19.85
30
0
41
1
10
20.3984294133883
20
19.85
30
0
41
1
10
20.1598198816569
20
19.85
30
0
41
1
10
19.9249995776889
20
19.85
30
0
0
SPLINE
5
220
100
AcDbEntity
8
1
62
256
6
ByLayer
370
70
48
1
60
0
100
AcDbSpline
70
4
71
3
72
8
73
4
40
0
40
0
40
0
40
0
40
1
40
1
40
1
40
1
41
1
10
19.9249995776889
20
-27.5194446025754
30
0
41
1
10
20.4066224274103
20
-28.3972829993793
30
0
41
1
10
20.889959163376
20
-29.2741992018061
30
0
41
1
10
21.3746119011022
20
-30.1503829784963
30
0
0
LINE
5
74
100
AcDbEntity
8
80
62
256
6
ByLayer
370
13
48
0.05
60
0
100
AcDbLine
10
0
20
0
30
0
11
-35
21
0
31
0
39
0
210
0
220
0
230
1
0
LINE
5
75
100
AcDbEntity
8
81
62
256
6
ByLayer
370
13
48
0.05
60
0
100
AcDbLine
10
63
20
0
30
0
11
90
21
0
31
0
39
0
210
0
220
0
230
1
0
LINE
5
76
100
AcDbEntity
8
SK4
62
256
6
ByLayer
370
13
48
0.05
60
0
100
AcDbLine
10
-35
20
0
30
0
11
66
21
0
31
0
39
0
210
0
220
0
230
1
0
LINE
5
78
100
AcDbEntity
8
SK4
62
256
6
ByLayer
370
13
48
0.05
60
0
100
AcDbLine
10
46
20
-27.99375
30
0
11
46
21
28.00625
31
0
39
0
210
0
220
0
230
1
0
LINE
5
79
100
AcDbEntity
8
SK3
62
256
6
ByLayer
370
13
48
0.05
60
0
100
AcDbLine
10
39
20
6
30
0
11
63
21
6
31
0
39
0
210
0
220
0
230
1
0
LINE
5
7B
100
AcDbEntity
8
SK3
62
256
6
ByLayer
370
13
48
0.05
60
0
100
AcDbLine
10
39
20
-6
30
0
11
63
21
-6
31
0
39
0
210
0
220
0
230
1
0
LINE
5
7C
100
AcDbEntity
8
SK3
62
256
6
ByLayer
370
13
48
0.05
60
0
100
AcDbLine
10
39
20
6
30
0
11
39
21
-6
31
0
39
0
210
0
220
0
230
1
0
LINE
5
7D
100
AcDbEntity
8
SK2
62
256
6
ByLayer
370
13
48
1
60
0
100
AcDbLine
10
134.4
20
11.066445
30
0
11
134.817997
21
7.891445
31
0
39
0
210
0
220
0
230
1
0
LINE
5
7F
100
AcDbEntity
8
SK2
62
256
6
ByLayer
370
13
48
1
60
0
100
AcDbLine
10
134.477346
20
9.891445
30
0
11
134.608998
21
7.891445
31
0
39
0
210
0
220
0
230
1
0
LINE
5
80
100
AcDbEntity
8
SK2
62
256
6
ByLayer
370
13
48
1
60
0
100
AcDbLine
10
134.322654
20
9.891445
30
0
11
134.191002
21
7.891445
31
0
39
0
210
0
220
0
230
1
0
LINE
5
81
100
AcDbEntity
8
SK2
62
256
6
ByLayer
370
13
48
1
60
0
100
AcDbLine
10
134.4
20
11.066445
30
0
11
134.4
21
-35
31
0
39
0
210
0
220
0
230
1
0
LINE
5
82
100
AcDbEntity
8
SK2
62
256
6
ByLayer
370
13
48
1
60
0
100
AcDbLine
10
133.982003
20
7.891445
30
0
11
134.817997
21
7.891445
31
0
39
0
210
0
220
0
230
1
0
LINE
5
83
100
AcDbEntity
8
SK2
62
256
6
ByLayer
370
13
48
0.05
60
0
100
AcDbLine
10
114
20
10.720035
30
0
11
114
21
5.231165
31
0
39
0
210
0
220
0
230
1
0
LINE
5
84
100
AcDbEntity
8
SK2
62
256
6
ByLayer
370
13
48
1
60
0
100
AcDbLine
10
134.322654
20
9.891445
30
0
11
134.191002
21
7.891445
31
0
39
0
210
0
220
0
230
1
0
LINE
5
85
100
AcDbEntity
8
SK2
62
256
6
ByLayer
370
13
48
1
60
0
100
AcDbLine
10
134.4
20
11.066445
30
0
11
133.982003
21
7.891445
31
0
39
0
210
0
220
0
230
1
0
LINE
5
86
100
AcDbEntity
8
SK2
62
256
6
ByLayer
370
13
48
1
60
0
100
AcDbLine
10
133.982003
20
7.891445
30
0
11
134.817997
21
7.891445
31
0
39
0
210
0
220
0
230
1
0
LINE
5
87
100
AcDbEntity
8
SK2
62
256
6
ByLayer
370
13
48
1
60
0
100
AcDbLine
10
134.4
20
11.066445
30
0
11
134.817997
21
7.891445
31
0
39
0
210
0
220
0
230
1
0
LINE
5
88
100
AcDbEntity
8
SK2
62
256
6
ByLayer
370
13
48
0.05
60
0
100
AcDbLine
10
113.4
20
4.884755
30
0
11
108.6465
21
7.62919
31
0
39
0
210
0
220
0
230
1
0
LINE
5
89
100
AcDbEntity
8
SK2
62
256
6
ByLayer
370
13
48
1
60
0
100
AcDbLine
10
134.4
20
11.066445
30
0
11
133.982003
21
7.891445
31
0
39
0
210
0
220
0
230
1
0
LINE
5
8A
100
AcDbEntity
8
SK2
62
256
6
ByLayer
370
18
48
1
60
0
100
AcDbLine
10
116
20
11.066445
30
0
11
136.4
21
11.066445
31
0
39
0
210
0
220
0
230
1
0
LINE
5
8B
100
AcDbEntity
8
SK2
62
256
6
ByLayer
370
13
48
0.05
60
0
100
AcDbLine
10
108.6465
20
8.32201
30
0
11
113.4
21
11.066445
31
0
39
0
210
0
220
0
230
1
0
LINE
5
8C
100
AcDbEntity
8
SK2
62
256
6
ByLayer
370
13
48
1
60
0
100
AcDbLine
10
134.477346
20
9.891445
30
0
11
134.608998
21
7.891445
31
0
39
0
210
0
220
0
230
1
0
LINE
5
8D
100
AcDbEntity
8
4
62
256
6
ByLayer
370
13
48
0.05
60
0
100
AcDbLine
10
0
20
0
30
0
11
63
21
0
31
0
39
0
210
0
220
0
230
1
0
LINE
5
8F
100
AcDbEntity
8
1
62
256
6
ByLayer
370
70
48
1
60
0
100
AcDbLine
10
38.9
20
-6.744846
30
0
11
38.9
21
-6.358954
31
0
39
0
210
0
220
0
230
1
0
LINE
5
91
100
AcDbEntity
8
1
62
256
6
ByLayer
370
70
48
1
60
0
100
AcDbLine
10
32.9
20
-6.358954
30
0
11
32.9
21
-6.744846
31
0
39
0
210
0
220
0
230
1
0
LINE
5
92
100
AcDbEntity
8
1
62
256
6
ByLayer
370
70
48
1
60
0
100
AcDbLine
10
44.845299
20
-2
30
0
11
47.1547
21
-2
31
0
39
0
210
0
220
0
230
1
0
LINE
5
93
100
AcDbEntity
8
1
62
256
6
ByLayer
370
70
48
1
60
0
100
AcDbLine
10
43.690599
20
0
30
0
11
44.845299
21
-2
31
0
39
0
210
0
220
0
230
1
0
LINE
5
94
100
AcDbEntity
8
1
62
256
6
ByLayer
370
70
48
1
60
0
100
AcDbLine
10
44.845299
20
2
30
0
11
43.690599
21
0
31
0
39
0
210
0
220
0
230
1
0
LINE
5
95
100
AcDbEntity
8
1
62
256
6
ByLayer
370
70
48
1
60
0
100
AcDbLine
10
47.1547
20
2
30
0
11
44.845299
21
2
31
0
39
0
210
0
220
0
230
1
0
LINE
5
96
100
AcDbEntity
8
1
62
256
6
ByLayer
370
70
48
1
60
0
100
AcDbLine
10
48.309401
20
0
30
0
11
47.1547
21
2
31
0
39
0
210
0
220
0
230
1
0
LINE
5
97
100
AcDbEntity
8
1
62
256
6
ByLayer
370
70
48
1
60
0
100
AcDbLine
10
47.1547
20
-2
30
0
11
48.309401
21
0
31
0
39
0
210
0
220
0
230
1
0
LINE
5
98
100
AcDbEntity
8
1
62
256
6
ByLayer
370
70
48
1
60
0
100
AcDbLine
10
55.742492
20
-21.853141
30
0
11
55.742586
21
-21.85358
31
0
39
0
210
0
220
0
230
1
0
LINE
5
99
100
AcDbEntity
8
1
62
256
6
ByLayer
370
70
48
1
60
0
100
AcDbLine
10
36.297141
20
-21.852081
30
0
11
36.296821
21
-21.85358
31
0
39
0
210
0
220
0
230
1
0
LINE
5
9A
100
AcDbEntity
8
1
62
256
6
ByLayer
370
70
48
1
60
0
100
AcDbLine
10
55.635114
20
-21.85119
30
0
11
55.635621
21
-21.85358
31
0
39
0
210
0
220
0
230
1
0
LINE
5
9B
100
AcDbEntity
8
1
62
256
6
ByLayer
370
70
48
1
60
0
100
AcDbLine
10
55.375785
20
-21.849161
30
0
11
55.376696
21
-21.85358
31
0
39
0
210
0
220
0
230
1
0
LINE
5
9C
100
AcDbEntity
8
1
62
256
6
ByLayer
370
70
48
1
60
0
100
AcDbLine
10
37.462397
20
-22.068053
30
0
11
37.463126
21
-22.064569
31
0
39
0
210
0
220
0
230
1
0
LINE
5
9D
100
AcDbEntity
8
1
62
256
6
ByLayer
370
70
48
1
60
0
100
AcDbLine
10
36.828557
20
-21.847994
30
0
11
36.827431
21
-21.85358
31
0
39
0
210
0
220
0
230
1
0
LINE
5
9E
100
AcDbEntity
8
1
62
256
6
ByLayer
370
70
48
1
60
0
100
AcDbLine
10
54.050997
20
-22.068053
30
0
11
54.049696
21
-22.061451
31
0
39
0
210
0
220
0
230
1
0
LINE
5
9F
100
AcDbEntity
8
1
62
256
6
ByLayer
370
70
48
1
60
0
100
AcDbLine
10
37.313911
20
-21.845688
30
0
11
37.312405
21
-21.85358
31
0
39
0
210
0
220
0
230
1
0
LINE
5
A0
100
AcDbEntity
8
1
62
256
6
ByLayer
370
70
48
1
60
0
100
AcDbLine
10
54.419963
20
-21.844545
30
0
11
54.421634
21
-21.85358
31
0
39
0
210
0
220
0
230
1
0
LINE
5
A1
100
AcDbEntity
8
1
62
256
6
ByLayer
370
70
48
1
60
0
100
AcDbLine
10
37.936249
20
-21.843064
30
0
11
37.934387
21
-21.85358
31
0
39
0
210
0
220
0
230
1
0
LINE
5
A2
100
AcDbEntity
8
1
62
256
6
ByLayer
370
70
48
1
60
0
100
AcDbLine
10
53.738544
20
-21.841723
30
0
11
53.740558
21
-21.85358
31
0
39
0
210
0
220
0
230
1
0
LINE
5
A3
100
AcDbEntity
8
1
62
256
6
ByLayer
370
70
48
1
60
0
100
AcDbLine
10
38.685757
20
-21.839943
30
0
11
38.683569
21
-21.85358
31
0
39
0
210
0
220
0
230
1
0
LINE
5
A4
100
AcDbEntity
8
1
62
256
6
ByLayer
370
70
48
1
60
0
100
AcDbLine
10
52.935084
20
-21.838291
30
0
11
52.937409
21
-21.85358
31
0
39
0
210
0
220
0
230
1
0
LINE
5
A5
100
AcDbEntity
8
1
62
256
6
ByLayer
370
70
48
1
60
0
100
AcDbLine
10
40.207278
20
-22.068053
30
0
11
40.209759
21
-22.050508
31
0
39
0
210
0
220
0
230
1
0
LINE
5
A6
100
AcDbEntity
8
1
62
256
6
ByLayer
370
70
48
1
60
0
100
AcDbLine
10
52.022253
20
-21.833872
30
0
11
52.024853
21
-21.85358
31
0
39
0
210
0
220
0
230
1
0
LINE
5
A7
100
AcDbEntity
8
1
62
256
6
ByLayer
370
70
48
1
60
0
100
AcDbLine
10
53.250943
20
-21.375003
30
0
11
53.249535
21
-21.375494
31
0
39
0
210
0
220
0
230
1
0
LINE
5
A8
100
AcDbEntity
8
1
62
256
6
ByLayer
370
70
48
1
60
0
100
AcDbLine
10
40.517185
20
-21.830811
30
0
11
40.514452
21
-21.85358
31
0
39
0
210
0
220
0
230
1
0
LINE
5
A9
100
AcDbEntity
8
1
62
256
6
ByLayer
370
70
48
1
60
0
100
AcDbLine
10
39.398964
20
-21.375003
30
0
11
39.410887
21
-21.379572
31
0
39
0
210
0
220
0
230
1
0
LINE
5
AA
100
AcDbEntity
8
1
62
256
6
ByLayer
370
70
48
1
60
0
100
AcDbLine
10
50.505757
20
-22.068053
30
0
11
50.502923
21
-22.042222
31
0
39
0
210
0
220
0
230
1
0
LINE
5
AB
100
AcDbEntity
8
1
62
256
6
ByLayer
370
70
48
1
60
0
100
AcDbLine
10
52.016134
20
-21.383656
30
0
11
52.036756
21
-21.375009
31
0
39
0
210
0
220
0
230
1
0
LINE
5
AC
100
AcDbEntity
8
1
62
256
6
ByLayer
370
70
48
1
60
0
100
AcDbLine
10
41.570221
20
-21.823183
30
0
11
41.567278
21
-21.85358
31
0
39
0
210
0
220
0
230
1
0
LINE
5
AD
100
AcDbEntity
8
1
62
256
6
ByLayer
370
70
48
1
60
0
100
AcDbLine
10
40.667591
20
-21.375003
30
0
11
40.698582
21
-21.389727
31
0
39
0
210
0
220
0
230
1
0
LINE
5
AE
100
AcDbEntity
8
1
62
256
6
ByLayer
370
70
48
1
60
0
100
AcDbLine
10
49.927562
20
-21.818324
30
0
11
49.930585
21
-21.85358
31
0
39
0
210
0
220
0
230
1
0
LINE
5
AF
100
AcDbEntity
8
1
62
256
6
ByLayer
370
70
48
1
60
0
100
AcDbLine
10
50.727395
20
-21.375003
30
0
11
50.687876
21
-21.396203
31
0
39
0
210
0
220
0
230
1
0
LINE
5
B0
100
AcDbEntity
8
1
62
256
6
ByLayer
370
70
48
1
60
0
100
AcDbLine
10
42.693118
20
-21.810476
30
0
11
42.690012
21
-21.85358
31
0
39
0
210
0
220
0
230
1
0
LINE
5
B1
100
AcDbEntity
8
1
62
256
6
ByLayer
370
70
48
1
60
0
100
AcDbLine
10
42.020313
20
-21.375003
30
0
11
42.069895
21
-21.40665
31
0
39
0
210
0
220
0
230
1
0
LINE
5
B2
100
AcDbEntity
8
1
62
256
6
ByLayer
370
70
48
1
60
0
100
AcDbLine
10
48.778947
20
-21.804707
30
0
11
48.7819
21
-21.85358
31
0
39
0
210
0
220
0
230
1
0
LINE
5
B3
100
AcDbEntity
8
1
62
256
6
ByLayer
370
70
48
1
60
0
100
AcDbLine
10
48.778947
20
-21.804707
30
0
11
48.774146
21
-21.804707
31
0
39
0
210
0
220
0
230
1
0
LINE
5
B4
100
AcDbEntity
8
1
62
256
6
ByLayer
370
70
48
1
60
0
100
AcDbLine
10
49.343465
20
-21.375003
30
0
11
48.778947
21
-21.804707
31
0
39
0
210
0
220
0
230
1
0
LINE
5
B5
100
AcDbEntity
8
1
62
256
6
ByLayer
370
70
48
1
60
0
100
AcDbLine
10
43.867202
20
-21.804707
30
0
11
43.864945
21
-21.85358
31
0
39
0
210
0
220
0
230
1
0
LINE
5
B6
100
AcDbEntity
8
1
62
256
6
ByLayer
370
70
48
1
60
0
100
AcDbLine
10
43.435797
20
-21.375003
30
0
11
43.867202
21
-21.804707
31
0
39
0
210
0
220
0
230
1
0
LINE
5
B7
100
AcDbEntity
8
1
62
256
6
ByLayer
370
70
48
1
60
0
100
AcDbLine
10
43.88912
20
-21.804707
30
0
11
43.867202
21
-21.804707
31
0
39
0
210
0
220
0
230
1
0
LINE
5
B8
100
AcDbEntity
8
1
62
256
6
ByLayer
370
70
48
1
60
0
100
AcDbLine
10
47.587674
20
-21.804707
30
0
11
47.589343
21
-21.85358
31
0
39
0
210
0
220
0
230
1
0
LINE
5
B9
100
AcDbEntity
8
1
62
256
6
ByLayer
370
70
48
1
60
0
100
AcDbLine
10
47.587674
20
-21.804707
30
0
11
47.551598
21
-21.804707
31
0
39
0
210
0
220
0
230
1
0
LINE
5
BA
100
AcDbEntity
8
1
62
256
6
ByLayer
370
70
48
1
60
0
100
AcDbLine
10
47.906807
20
-21.375003
30
0
11
47.587674
21
-21.804707
31
0
39
0
210
0
220
0
230
1
0
LINE
5
BB
100
AcDbEntity
8
1
62
256
6
ByLayer
370
70
48
1
60
0
100
AcDbLine
10
45.164783
20
-22.068053
30
0
11
45.165739
21
-22.019182
31
0
39
0
210
0
220
0
230
1
0
LINE
5
BC
100
AcDbEntity
8
1
62
256
6
ByLayer
370
70
48
1
60
0
100
AcDbLine
10
45.165739
20
-22.019182
30
0
11
44.891723
21
-21.375009
31
0
39
0
210
0
220
0
230
1
0
LINE
5
BD
100
AcDbEntity
8
1
62
256
6
ByLayer
370
70
48
1
60
0
100
AcDbLine
10
45.218681
20
-22.019182
30
0
11
45.165739
21
-22.019182
31
0
39
0
210
0
220
0
230
1
0
LINE
5
BE
100
AcDbEntity
8
1
62
256
6
ByLayer
370
70
48
1
60
0
100
AcDbLine
10
46.371362
20
-21.804707
30
0
11
46.371721
21
-21.85358
31
0
39
0
210
0
220
0
230
1
0
LINE
5
BF
100
AcDbEntity
8
1
62
256
6
ByLayer
370
70
48
1
60
0
100
AcDbLine
10
46.371362
20
-21.804707
30
0
11
46.304582
21
-21.804707
31
0
39
0
210
0
220
0
230
1
0
LINE
5
C0
100
AcDbEntity
8
1
62
256
6
ByLayer
370
70
48
1
60
0
100
AcDbLine
10
46.440077
20
-21.375003
30
0
11
46.371362
21
-21.804707
31
0
39
0
210
0
220
0
230
1
0
LINE
5
C1
100
AcDbEntity
8
1
62
256
6
ByLayer
370
70
48
1
60
0
100
AcDbLine
10
50.75
20
-22.925
30
0
11
44.126145
21
-22.925
31
0
39
0
210
0
220
0
230
1
0
LINE
5
C2
100
AcDbEntity
8
1
62
256
6
ByLayer
370
70
48
1
60
0
100
AcDbLine
10
44.126145
20
-22.925
30
0
11
41.25
21
-22.925
31
0
39
0
210
0
220
0
230
1
0
LINE
5
C3
100
AcDbEntity
8
1
62
256
6
ByLayer
370
70
48
1
60
0
100
AcDbLine
10
50.75
20
-22.925
30
0
11
57.793578
21
-21.414331
31
0
39
0
210
0
220
0
230
1
0
LINE
5
C4
100
AcDbEntity
8
1
62
256
6
ByLayer
370
70
48
1
60
0
100
AcDbLine
10
34.206421
20
-21.414331
30
0
11
41.25
21
-22.925
31
0
39
0
210
0
220
0
230
1
0
LINE
5
C5
100
AcDbEntity
8
1
62
256
6
ByLayer
370
70
48
1
60
0
100
AcDbLine
10
57.345055
20
-21.414331
30
0
11
57.647841
21
-21.414331
31
0
39
0
210
0
220
0
230
1
0
LINE
5
C6
100
AcDbEntity
8
1
62
256
6
ByLayer
370
70
48
1
60
0
100
AcDbLine
10
57.65936
20
-21.414331
30
0
11
57.78765
21
-21.414331
31
0
39
0
210
0
220
0
230
1
0
LINE
5
C7
100
AcDbEntity
8
1
62
256
6
ByLayer
370
70
48
1
60
0
100
AcDbLine
10
57.793578
20
-21.414331
30
0
11
57.78979
21
-21.414331
31
0
39
0
210
0
220
0
230
1
0
LINE
5
C8
100
AcDbEntity
8
1
62
256
6
ByLayer
370
70
48
1
60
0
100
AcDbLine
10
34.206421
20
-21.414331
30
0
11
34.258438
21
-21.414331
31
0
39
0
210
0
220
0
230
1
0
LINE
5
C9
100
AcDbEntity
8
1
62
256
6
ByLayer
370
70
48
1
60
0
100
AcDbLine
10
34.265712
20
-21.414331
30
0
11
34.489699
21
-21.414331
31
0
39
0
210
0
220
0
230
1
0
LINE
5
CA
100
AcDbEntity
8
1
62
256
6
ByLayer
370
70
48
1
60
0
100
AcDbLine
10
34.506271
20
-21.414331
30
0
11
34.902484
21
-21.414331
31
0
39
0
210
0
220
0
230
1
0
LINE
5
CB
100
AcDbEntity
8
1
62
256
6
ByLayer
370
70
48
1
60
0
100
AcDbLine
10
34.928093
20
-21.414331
30
0
11
35.490283
21
-21.414331
31
0
39
0
210
0
220
0
230
1
0
LINE
5
CC
100
AcDbEntity
8
1
62
256
6
ByLayer
370
70
48
1
60
0
100
AcDbLine
10
35.524525
20
-21.414331
30
0
11
36.243827
21
-21.414331
31
0
39
0
210
0
220
0
230
1
0
LINE
5
CD
100
AcDbEntity
8
1
62
256
6
ByLayer
370
70
48
1
60
0
100
AcDbLine
10
36.286163
20
-21.414331
30
0
11
37.151232
21
-21.414331
31
0
39
0
210
0
220
0
230
1
0
LINE
5
CE
100
AcDbEntity
8
1
62
256
6
ByLayer
370
70
48
1
60
0
100
AcDbLine
10
37.200993
20
-21.414331
30
0
11
38.198187
21
-21.414331
31
0
39
0
210
0
220
0
230
1
0
LINE
5
CF
100
AcDbEntity
8
1
62
256
6
ByLayer
370
70
48
1
60
0
100
AcDbLine
10
38.254588
20
-21.414331
30
0
11
39.368181
21
-21.414331
31
0
39
0
210
0
220
0
230
1
0
LINE
5
D0
100
AcDbEntity
8
1
62
256
6
ByLayer
370
70
48
1
60
0
100
AcDbLine
10
39.430334
20
-21.414331
30
0
11
40.642763
21
-21.414331
31
0
39
0
210
0
220
0
230
1
0
LINE
5
D1
100
AcDbEntity
8
1
62
256
6
ByLayer
370
70
48
1
60
0
100
AcDbLine
10
40.709687
20
-21.414331
30
0
11
42.001832
21
-21.414331
31
0
39
0
210
0
220
0
230
1
0
LINE
5
D2
100
AcDbEntity
8
1
62
256
6
ByLayer
370
70
48
1
60
0
100
AcDbLine
10
42.072471
20
-21.414331
30
0
11
43.423954
21
-21.414331
31
0
39
0
210
0
220
0
230
1
0
LINE
5
D3
100
AcDbEntity
8
1
62
256
6
ByLayer
370
70
48
1
60
0
100
AcDbLine
10
43.497195
20
-21.414331
30
0
11
44.886702
21
-21.414331
31
0
39
0
210
0
220
0
230
1
0
LINE
5
D4
100
AcDbEntity
8
1
62
256
6
ByLayer
370
70
48
1
60
0
100
AcDbLine
10
44.96139
20
-21.414331
30
0
11
46.367008
21
-21.414331
31
0
39
0
210
0
220
0
230
1
0
LINE
5
D5
100
AcDbEntity
8
1
62
256
6
ByLayer
370
70
48
1
60
0
100
AcDbLine
10
46.441964
20
-21.414331
30
0
11
47.841525
21
-21.414331
31
0
39
0
210
0
220
0
230
1
0
LINE
5
D6
100
AcDbEntity
8
1
62
256
6
ByLayer
370
70
48
1
60
0
100
AcDbLine
10
47.915568
20
-21.414331
30
0
11
49.287001
21
-21.414331
31
0
39
0
210
0
220
0
230
1
0
LINE
5
D7
100
AcDbEntity
8
1
62
256
6
ByLayer
370
70
48
1
60
0
100
AcDbLine
10
49.358962
20
-21.414331
30
0
11
50.680638
21
-21.414331
31
0
39
0
210
0
220
0
230
1
0
LINE
5
D8
100
AcDbEntity
8
1
62
256
6
ByLayer
370
70
48
1
60
0
100
AcDbLine
10
50.749384
20
-21.414331
30
0
11
52.000459
21
-21.414331
31
0
39
0
210
0
220
0
230
1
0
LINE
5
D9
100
AcDbEntity
8
1
62
256
6
ByLayer
370
70
48
1
60
0
100
AcDbLine
10
52.064905
20
-21.414331
30
0
11
53.22565
21
-21.414331
31
0
39
0
210
0
220
0
230
1
0
LINE
5
DA
100
AcDbEntity
8
1
62
256
6
ByLayer
370
70
48
1
60
0
100
AcDbLine
10
53.284778
20
-21.414331
30
0
11
54.336887
21
-21.414331
31
0
39
0
210
0
220
0
230
1
0
LINE
5
DB
100
AcDbEntity
8
1
62
256
6
ByLayer
370
70
48
1
60
0
100
AcDbLine
10
54.389767
20
-21.414331
30
0
11
55.316647
21
-21.414331
31
0
39
0
210
0
220
0
230
1
0
LINE
5
DC
100
AcDbEntity
8
1
62
256
6
ByLayer
370
70
48
1
60
0
100
AcDbLine
10
55.362443
20
-21.414331
30
0
11
56.149477
21
-21.414331
31
0
39
0
210
0
220
0
230
1
0
LINE
5
DD
100
AcDbEntity
8
1
62
256
6
ByLayer
370
70
48
1
60
0
100
AcDbLine
10
56.187469
20
-21.414331
30
0
11
56.822245
21
-21.414331
31
0
39
0
210
0
220
0
230
1
0
LINE
5
DE
100
AcDbEntity
8
1
62
256
6
ByLayer
370
70
48
1
60
0
100
AcDbLine
10
56.851832
20
-21.414331
30
0
11
57.324339
21
-21.414331
31
0
39
0
210
0
220
0
230
1
0
LINE
5
DF
100
AcDbEntity
8
1
62
256
6
ByLayer
370
70
48
1
60
0
100
AcDbLine
10
57.793578
20
-21.414331
30
0
11
57.832911
21
-21.374998
31
0
39
0
210
0
220
0
230
1
0
LINE
5
E0
100
AcDbEntity
8
1
62
256
6
ByLayer
370
70
48
1
60
0
100
AcDbLine
10
34.167088
20
-21.374998
30
0
11
34.206421
21
-21.414331
31
0
39
0
210
0
220
0
230
1
0
LINE
5
E1
100
AcDbEntity
8
1
62
256
6
ByLayer
370
70
48
1
60
0
100
AcDbLine
10
41.25
20
-22.955
30
0
11
46
21
-22.955
31
0
39
0
210
0
220
0
230
1
0
LINE
5
E2
100
AcDbEntity
8
1
62
256
6
ByLayer
370
70
48
1
60
0
100
AcDbLine
10
46
20
-22.955
30
0
11
50.75
21
-22.955
31
0
39
0
210
0
220
0
230
1
0
LINE
5
E3
100
AcDbEntity
8
1
62
256
6
ByLayer
370
70
48
1
60
0
100
AcDbLine
10
41.25
20
-22.924991
30
0
11
41.25
21
-22.955
31
0
39
0
210
0
220
0
230
1
0
LINE
5
E4
100
AcDbEntity
8
1
62
256
6
ByLayer
370
70
48
1
60
0
100
AcDbLine
10
50.75
20
-22.955
30
0
11
50.75
21
-22.924991
31
0
39
0
210
0
220
0
230
1
0
LINE
5
E5
100
AcDbEntity
8
SK1
62
256
6
ByLayer
370
70
48
1
60
0
100
AcDbLine
10
-27.2
20
20.845
30
0
11
-30.75
21
20.845
31
0
39
0
210
0
220
0
230
1
0
LINE
5
E7
100
AcDbEntity
8
SK1
62
256
6
ByLayer
370
70
48
1
60
0
100
AcDbLine
10
-27.2
20
20.845
30
0
11
-27.2
21
20.779376
31
0
39
0
210
0
220
0
230
1
0
LINE
5
E8
100
AcDbEntity
8
SK1
62
256
6
ByLayer
370
70
48
1
60
0
100
AcDbLine
10
-31.898454
20
-19.696546
30
0
11
-30.75
21
-20.845
31
0
39
0
210
0
220
0
230
1
0
LINE
5
E9
100
AcDbEntity
8
SK1
62
256
6
ByLayer
370
70
48
1
60
0
100
AcDbLine
10
-30.75
20
20.845
30
0
11
-30.75
21
20.844744
31
0
39
0
210
0
220
0
230
1
0
LINE
5
EA
100
AcDbEntity
8
SK1
62
256
6
ByLayer
370
70
48
1
60
0
100
AcDbLine
10
-30.75
20
20.845
30
0
11
-31.891886
21
19.703114
31
0
39
0
210
0
220
0
230
1
0
LINE
5
EB
100
AcDbEntity
8
SK1
62
256
6
ByLayer
370
70
48
1
60
0
100
AcDbLine
10
-30.75
20
-20.844744
30
0
11
-30.75
21
-20.845
31
0
39
0
210
0
220
0
230
1
0
LINE
5
EC
100
AcDbEntity
8
SK1
62
256
6
ByLayer
370
70
48
1
60
0
100
AcDbLine
10
-30.75
20
-20.845
30
0
11
-23.2
21
-20.845
31
0
39
0
210
0
220
0
230
1
0
LINE
5
ED
100
AcDbEntity
8
SK1
62
256
6
ByLayer
370
70
48
1
60
0
100
AcDbLine
10
-23.2
20
-20.845
30
0
11
-23.2
21
-20.531099
31
0
39
0
210
0
220
0
230
1
0
LINE
5
EE
100
AcDbEntity
8
SK1
62
256
6
ByLayer
370
70
48
1
60
0
100
AcDbLine
10
-23.2
20
-20.531099
30
0
11
-25.542528
21
-20.531099
31
0
39
0
210
0
220
0
230
1
0
LINE
5
EF
100
AcDbEntity
8
SK1
62
256
6
ByLayer
370
70
48
1
60
0
100
AcDbLine
10
-23.2
20
-19.472507
30
0
11
-23.2
21
-20.531099
31
0
39
0
210
0
220
0
230
1
0
LINE
5
F0
100
AcDbEntity
8
SK1
62
256
6
ByLayer
370
70
48
1
60
0
100
AcDbLine
10
-31.06758
20
20.248133
30
0
11
-31.842316
21
19.557838
31
0
39
0
210
0
220
0
230
1
0
LINE
5
F1
100
AcDbEntity
8
SK1
62
256
6
ByLayer
370
70
48
1
60
0
100
AcDbLine
10
-31.06758
20
-20.248133
30
0
11
-31.842316
21
-19.557838
31
0
39
0
210
0
220
0
230
1
0
LINE
5
F2
100
AcDbEntity
8
1
62
256
6
ByLayer
370
70
48
1
60
0
100
AcDbLine
10
25.95
20
23.772219
30
0
11
25.95
21
19.85
31
0
39
0
210
0
220
0
230
1
0
LINE
5
F3
100
AcDbEntity
8
1
62
256
6
ByLayer
370
70
48
1
60
0
100
AcDbLine
10
19.925
20
21.08584
30
0
11
19.925
21
19.85
31
0
39
0
210
0
220
0
230
1
0
LINE
5
F4
100
AcDbEntity
8
1
62
256
6
ByLayer
370
70
48
1
60
0
100
AcDbLine
10
16.075
20
19.85
30
0
11
16.075
21
21.08584
31
0
39
0
210
0
220
0
230
1
0
LINE
5
F5
100
AcDbEntity
8
1
62
256
6
ByLayer
370
70
48
1
60
0
100
AcDbLine
10
19.925
20
21.08584
30
0
11
19.925
21
27.827232
31
0
39
0
210
0
220
0
230
1
0
LINE
5
F6
100
AcDbEntity
8
1
62
256
6
ByLayer
370
70
48
1
60
0
100
AcDbLine
10
25.95
20
29.914221
30
0
11
25.95
21
23.772219
31
0
39
0
210
0
220
0
230
1
0
LINE
5
F7
100
AcDbEntity
8
1
62
256
6
ByLayer
370
70
48
1
60
0
100
AcDbLine
10
16.075
20
21.08584
30
0
11
16.075
21
27.827232
31
0
39
0
210
0
220
0
230
1
0
LINE
5
F8
100
AcDbEntity
8
1
62
256
6
ByLayer
370
70
48
1
60
0
100
AcDbLine
10
21.374612
20
24.420041
30
0
11
25.45
21
24.420041
31
0
39
0
210
0
220
0
230
1
0
LINE
5
F9
100
AcDbEntity
8
1
62
256
6
ByLayer
370
70
48
1
60
0
100
AcDbLine
10
25.45
20
24.420041
30
0
11
25.45
21
30.431572
31
0
39
0
210
0
220
0
230
1
0
LINE
5
FA
100
AcDbEntity
8
1
62
256
6
ByLayer
370
70
48
1
60
0
100
AcDbLine
10
21.374612
20
30.431572
30
0
11
25.45
21
30.431572
31
0
39
0
210
0
220
0
230
1
0
LINE
5
FB
100
AcDbEntity
8
1
62
256
6
ByLayer
370
70
48
1
60
0
100
AcDbLine
10
21.374612
20
24.420041
30
0
11
21.374612
21
30.431572
31
0
39
0
210
0
220
0
230
1
0
LINE
5
FC
100
AcDbEntity
8
1
62
256
6
ByLayer
370
70
48
1
60
0
100
AcDbLine
10
19.525
20
-26.4
30
0
11
16.475
21
-26.4
31
0
39
0
210
0
220
0
230
1
0
LINE
5
FD
100
AcDbEntity
8
1
62
256
6
ByLayer
370
70
48
1
60
0
100
AcDbLine
10
16.475
20
26.4
30
0
11
19.525
21
26.4
31
0
39
0
210
0
220
0
230
1
0
LINE
5
FE
100
AcDbEntity
8
SK1
62
256
6
ByLayer
370
70
48
1
60
0
100
AcDbLine
10
-31.9
20
19.672662
30
0
11
-31.9
21
-19.672662
31
0
39
0
210
0
220
0
230
1
0
LINE
5
FF
100
AcDbEntity
8
SK1
62
256
6
ByLayer
370
70
48
1
60
0
100
AcDbLine
10
-1.566988
20
-23.970431
30
0
11
-0.45
21
-23.970431
31
0
39
0
210
0
220
0
230
1
0
LINE
5
100
100
AcDbEntity
8
SK1
62
256
6
ByLayer
370
70
48
1
60
0
100
AcDbLine
10
-0.45
20
23.970431
30
0
11
-1.566988
21
23.970431
31
0
39
0
210
0
220
0
230
1
0
LINE
5
101
100
AcDbEntity
8
SK1
62
256
6
ByLayer
370
70
48
1
60
0
100
AcDbLine
10
-21.8
20
-21.952084
30
0
11
-21.8
21
-23.228447
31
0
39
0
210
0
220
0
230
1
0
LINE
5
102
100
AcDbEntity
8
SK1
62
256
6
ByLayer
370
70
48
1
60
0
100
AcDbLine
10
-25.8
20
23.028046
30
0
11
-25.8
21
21.833816
31
0
39
0
210
0
220
0
230
1
0
LINE
5
103
100
AcDbEntity
8
SK1
62
256
6
ByLayer
370
70
48
1
60
0
100
AcDbLine
10
-30.760045
20
-20.83431
30
0
11
-30.760045
21
20.83431
31
0
39
0
210
0
220
0
230
1
0
LINE
5
104
100
AcDbEntity
8
SK1
62
256
6
ByLayer
370
70
48
1
60
0
100
AcDbLine
10
-21.8
20
-23.228447
30
0
11
-13.236596
21
-23.657475
31
0
39
0
210
0
220
0
230
1
0
LINE
5
105
100
AcDbEntity
8
SK1
62
256
6
ByLayer
370
70
48
1
60
0
100
AcDbLine
10
-4.318307
20
-24.104283
30
0
11
-2
21
-24.220431
31
0
39
0
210
0
220
0
230
1
0
LINE
5
106
100
AcDbEntity
8
SK1
62
256
6
ByLayer
370
70
48
1
60
0
100
AcDbLine
10
-2
20
24.220431
30
0
11
-4.318316
21
24.104283
31
0
39
0
210
0
220
0
230
1
0
LINE
5
107
100
AcDbEntity
8
SK1
62
256
6
ByLayer
370
70
48
1
60
0
100
AcDbLine
10
-13.239275
20
23.657341
30
0
11
-25.8
21
23.028046
31
0
39
0
210
0
220
0
230
1
0
LINE
5
108
100
AcDbEntity
8
SK1
62
256
6
ByLayer
370
70
48
1
60
0
100
AcDbLine
10
-1.566988
20
23.970431
30
0
11
-1.566988
21
-23.970431
31
0
39
0
210
0
220
0
230
1
0
LINE
5
109
100
AcDbEntity
8
SK1
62
256
6
ByLayer
370
70
48
1
60
0
100
AcDbLine
10
-2
20
24.220431
30
0
11
-2
21
-24.220431
31
0
39
0
210
0
220
0
230
1
0
LINE
5
10A
100
AcDbEntity
8
SK1
62
256
6
ByLayer
370
70
48
1
60
0
100
AcDbLine
10
-1.566988
20
23.970431
30
0
11
-2
21
24.220431
31
0
39
0
210
0
220
0
230
1
0
LINE
5
10B
100
AcDbEntity
8
SK1
62
256
6
ByLayer
370
70
48
1
60
0
100
AcDbLine
10
-2
20
-24.220431
30
0
11
-1.566988
21
-23.970431
31
0
39
0
210
0
220
0
230
1
0
LINE
5
10C
100
AcDbEntity
8
SK1
62
256
6
ByLayer
370
70
48
1
60
0
100
AcDbLine
10
-0.45
20
-23.970431
30
0
11
-0.45
21
23.970431
31
0
39
0
210
0
220
0
230
1
0
LINE
5
10D
100
AcDbEntity
8
1
62
256
6
ByLayer
370
70
48
1
60
0
100
AcDbLine
10
27.188108
20
24.65
30
0
11
26.55
21
24.65
31
0
39
0
210
0
220
0
230
1
0
LINE
5
10E
100
AcDbEntity
8
1
62
256
6
ByLayer
370
70
48
1
60
0
100
AcDbLine
10
26.55
20
-24.65
30
0
11
27.188108
21
-24.65
31
0
39
0
210
0
220
0
230
1
0
LINE
5
10F
100
AcDbEntity
8
1
62
256
6
ByLayer
370
70
48
1
60
0
100
AcDbLine
10
27.188108
20
-24.65
30
0
11
27.188108
21
24.65
31
0
39
0
210
0
220
0
230
1
0
LINE
5
110
100
AcDbEntity
8
1
62
256
6
ByLayer
370
70
48
1
60
0
100
AcDbLine
10
27.3434
20
-24.670445
30
0
11
27.3434
21
24.670445
31
0
39
0
210
0
220
0
230
1
0
LINE
5
111
100
AcDbEntity
8
1
62
256
6
ByLayer
370
70
48
1
60
0
100
AcDbLine
10
28.549992
20
-23.825008
30
0
11
27.628234
21
-24.746766
31
0
39
0
210
0
220
0
230
1
0
LINE
5
112
100
AcDbEntity
8
1
62
256
6
ByLayer
370
70
48
1
60
0
100
AcDbLine
10
27.3434
20
-24.670445
30
0
11
27.628234
21
-24.746766
31
0
39
0
210
0
220
0
230
1
0
LINE
5
113
100
AcDbEntity
8
1
62
256
6
ByLayer
370
70
48
1
60
0
100
AcDbLine
10
28.549992
20
24.99375
30
0
11
27.3434
21
24.670445
31
0
39
0
210
0
220
0
230
1
0
LINE
5
114
100
AcDbEntity
8
1
62
256
6
ByLayer
370
70
48
1
60
0
100
AcDbLine
10
63
20
23.993424
30
0
11
63
21
-21.375
31
0
39
0
210
0
220
0
230
1
0
LINE
5
115
100
AcDbEntity
8
1
62
256
6
ByLayer
370
70
48
1
60
0
100
AcDbLine
10
62.7
20
24.293428
30
0
11
62.7
21
24.29375
31
0
39
0
210
0
220
0
230
1
0
LINE
5
116
100
AcDbEntity
8
1
62
256
6
ByLayer
370
70
48
1
60
0
100
AcDbLine
10
62.7
20
24.29375
30
0
11
62
21
24.99375
31
0
39
0
210
0
220
0
230
1
0
LINE
5
117
100
AcDbEntity
8
1
62
256
6
ByLayer
370
70
48
1
60
0
100
AcDbLine
10
31
20
-21.375
30
0
11
28.549992
21
-23.825008
31
0
39
0
210
0
220
0
230
1
0
LINE
5
118
100
AcDbEntity
8
1
62
256
6
ByLayer
370
70
48
1
60
0
100
AcDbLine
10
62
20
-21.375
30
0
11
31
21
-21.375
31
0
39
0
210
0
220
0
230
1
0
LINE
5
119
100
AcDbEntity
8
1
62
256
6
ByLayer
370
70
48
1
60
0
100
AcDbLine
10
62
20
-21.375
30
0
11
62
21
24.99375
31
0
39
0
210
0
220
0
230
1
0
LINE
5
11A
100
AcDbEntity
8
1
62
256
6
ByLayer
370
70
48
1
60
0
100
AcDbLine
10
28.549992
20
24.99375
30
0
11
28.549992
21
-23.825008
31
0
39
0
210
0
220
0
230
1
0
LINE
5
11B
100
AcDbEntity
8
1
62
256
6
ByLayer
370
70
48
1
60
0
100
AcDbLine
10
62
20
24.99375
30
0
11
58.501968
21
24.99375
31
0
39
0
210
0
220
0
230
1
0
LINE
5
11C
100
AcDbEntity
8
1
62
256
6
ByLayer
370
70
48
1
60
0
100
AcDbLine
10
33.498
20
24.99375
30
0
11
28.549992
21
24.99375
31
0
39
0
210
0
220
0
230
1
0
LINE
5
11D
100
AcDbEntity
8
1
62
256
6
ByLayer
370
70
48
1
60
0
100
AcDbLine
10
12.19562
20
24.420041
30
0
11
12.19562
21
19.85
31
0
39
0
210
0
220
0
230
1
0
LINE
5
11E
100
AcDbEntity
8
1
62
256
6
ByLayer
370
70
48
1
60
0
100
AcDbLine
10
26.55
20
-24.65
30
0
11
26.55
21
24.65
31
0
39
0
210
0
220
0
230
1
0
LINE
5
11F
100
AcDbEntity
8
1
62
256
6
ByLayer
370
70
48
1
60
0
100
AcDbLine
10
16.475
20
16.230601
30
0
11
16.475
21
12.169258
31
0
39
0
210
0
220
0
230
1
0
LINE
5
120
100
AcDbEntity
8
1
62
256
6
ByLayer
370
70
48
1
60
0
100
AcDbLine
10
16.475
20
26.4
30
0
11
16.475
21
17.583481
31
0
39
0
210
0
220
0
230
1
0
LINE
5
121
100
AcDbEntity
8
1
62
256
6
ByLayer
370
70
48
1
60
0
100
AcDbLine
10
16.475
20
-17.583481
30
0
11
16.475
21
-26.4
31
0
39
0
210
0
220
0
230
1
0
LINE
5
122
100
AcDbEntity
8
1
62
256
6
ByLayer
370
70
48
1
60
0
100
AcDbLine
10
16.475
20
-12.169258
30
0
11
16.475
21
-16.230601
31
0
39
0
210
0
220
0
230
1
0
LINE
5
123
100
AcDbEntity
8
1
62
256
6
ByLayer
370
70
48
1
60
0
100
AcDbLine
10
16.475
20
-6.082561
30
0
11
16.475
21
-10.607011
31
0
39
0
210
0
220
0
230
1
0
LINE
5
124
100
AcDbEntity
8
1
62
256
6
ByLayer
370
70
48
1
60
0
100
AcDbLine
10
16.475
20
4.397275
30
0
11
16.475
21
-4.397275
31
0
39
0
210
0
220
0
230
1
0
LINE
5
125
100
AcDbEntity
8
1
62
256
6
ByLayer
370
70
48
1
60
0
100
AcDbLine
10
16.475
20
10.607011
30
0
11
16.475
21
6.082561
31
0
39
0
210
0
220
0
230
1
0
LINE
5
126
100
AcDbEntity
8
1
62
256
6
ByLayer
370
70
48
1
60
0
100
AcDbLine
10
19.525
20
17.583481
30
0
11
19.525
21
26.4
31
0
39
0
210
0
220
0
230
1
0
LINE
5
127
100
AcDbEntity
8
1
62
256
6
ByLayer
370
70
48
1
60
0
100
AcDbLine
10
19.525
20
12.169258
30
0
11
19.525
21
16.230601
31
0
39
0
210
0
220
0
230
1
0
LINE
5
128
100
AcDbEntity
8
1
62
256
6
ByLayer
370
70
48
1
60
0
100
AcDbLine
10
19.525
20
6.082561
30
0
11
19.525
21
10.607011
31
0
39
0
210
0
220
0
230
1
0
LINE
5
129
100
AcDbEntity
8
1
62
256
6
ByLayer
370
70
48
1
60
0
100
AcDbLine
10
19.525
20
-4.397275
30
0
11
19.525
21
4.397275
31
0
39
0
210
0
220
0
230
1
0
LINE
5
12A
100
AcDbEntity
8
1
62
256
6
ByLayer
370
70
48
1
60
0
100
AcDbLine
10
19.525
20
-10.607011
30
0
11
19.525
21
-6.082561
31
0
39
0
210
0
220
0
230
1
0
LINE
5
12B
100
AcDbEntity
8
1
62
256
6
ByLayer
370
70
48
1
60
0
100
AcDbLine
10
19.525
20
-16.230601
30
0
11
19.525
21
-12.169258
31
0
39
0
210
0
220
0
230
1
0
LINE
5
12C
100
AcDbEntity
8
1
62
256
6
ByLayer
370
70
48
1
60
0
100
AcDbLine
10
19.525
20
-26.4
30
0
11
19.525
21
-17.583481
31
0
39
0
210
0
220
0
230
1
0
LINE
5
12D
100
AcDbEntity
8
1
62
256
6
ByLayer
370
70
48
1
60
0
100
AcDbLine
10
25.95
20
19.85
30
0
11
25.95
21
-29.628122
31
0
39
0
210
0
220
0
230
1
0
LINE
5
12E
100
AcDbEntity
8
1
62
256
6
ByLayer
370
70
48
1
60
0
100
AcDbLine
10
25.45
20
-30.150383
30
0
11
21.374612
21
-30.150383
31
0
39
0
210
0
220
0
230
1
0
LINE
5
12F
100
AcDbEntity
8
1
62
256
6
ByLayer
370
70
48
1
60
0
100
AcDbLine
10
25.45
20
-30.150383
30
0
11
25.45
21
19.85
31
0
39
0
210
0
220
0
230
1
0
LINE
5
130
100
AcDbEntity
8
1
62
256
6
ByLayer
370
70
48
1
60
0
100
AcDbLine
10
21.374612
20
19.85
30
0
11
25.45
21
19.85
31
0
39
0
210
0
220
0
230
1
0
LINE
5
131
100
AcDbEntity
8
1
62
256
6
ByLayer
370
70
48
1
60
0
100
AcDbLine
10
0
20
30.97
30
0
11
0
21
-30.97
31
0
39
0
210
0
220
0
230
1
0
LINE
5
132
100
AcDbEntity
8
1
62
256
6
ByLayer
370
70
48
1
60
0
100
AcDbLine
10
0
20
-30.97
30
0
11
0.5
21
-31.47
31
0
39
0
210
0
220
0
230
1
0
LINE
5
133
100
AcDbEntity
8
1
62
256
6
ByLayer
370
70
48
1
60
0
100
AcDbLine
10
0.5
20
31.47
30
0
11
0
21
30.97
31
0
39
0
210
0
220
0
230
1
0
LINE
5
134
100
AcDbEntity
8
1
62
256
6
ByLayer
370
70
48
1
60
0
100
AcDbLine
10
0.5
20
31.47
30
0
11
0.5
21
-31.47
31
0
39
0
210
0
220
0
230
1
0
LINE
5
135
100
AcDbEntity
8
1
62
256
6
ByLayer
370
70
48
1
60
0
100
AcDbLine
10
4.95
20
-31.47
30
0
11
4.95
21
-31.453547
31
0
39
0
210
0
220
0
230
1
0
LINE
5
136
100
AcDbEntity
8
1
62
256
6
ByLayer
370
70
48
1
60
0
100
AcDbLine
10
14.625387
20
-30.150383
30
0
11
12.95
21
-30.150383
31
0
39
0
210
0
220
0
230
1
0
LINE
5
137
100
AcDbEntity
8
1
62
256
6
ByLayer
370
70
48
1
60
0
100
AcDbLine
10
4.968215
20
19.85
30
0
11
14.625387
21
19.85
31
0
39
0
210
0
220
0
230
1
0
LINE
5
138
100
AcDbEntity
8
1
62
256
6
ByLayer
370
70
48
1
60
0
100
AcDbLine
10
12.19562
20
24.420041
30
0
11
14.625387
21
24.420041
31
0
39
0
210
0
220
0
230
1
0
LINE
5
139
100
AcDbEntity
8
1
62
256
6
ByLayer
370
70
48
1
60
0
100
AcDbLine
10
14.625387
20
24.420041
30
0
11
14.625387
21
30.431572
31
0
39
0
210
0
220
0
230
1
0
LINE
5
13A
100
AcDbEntity
8
1
62
256
6
ByLayer
370
70
48
1
60
0
100
AcDbLine
10
12.9575
20
30.431572
30
0
11
14.625387
21
30.431572
31
0
39
0
210
0
220
0
230
1
0
LINE
5
13B
100
AcDbEntity
8
1
62
256
6
ByLayer
370
70
48
1
60
0
100
AcDbLine
10
0.5
20
-31.47
30
0
11
4.95
21
-31.47
31
0
39
0
210
0
220
0
230
1
0
LINE
5
13C
100
AcDbEntity
8
1
62
256
6
ByLayer
370
70
48
1
60
0
100
AcDbLine
10
4.949408
20
31.47
30
0
11
4.949182
21
31.47
31
0
39
0
210
0
220
0
230
1
0
LINE
5
13D
100
AcDbEntity
8
1
62
256
6
ByLayer
370
70
48
1
60
0
100
AcDbLine
10
4.949182
20
31.47
30
0
11
0.5
21
31.47
31
0
39
0
210
0
220
0
230
1
0
LINE
5
13E
100
AcDbEntity
8
1
62
256
6
ByLayer
370
70
48
1
60
0
100
AcDbLine
10
16.075
20
-27.519445
30
0
11
16.075
21
19.85
31
0
39
0
210
0
220
0
230
1
0
LINE
5
13F
100
AcDbEntity
8
1
62
256
6
ByLayer
370
70
48
1
60
0
100
AcDbLine
10
14.625387
20
-30.150383
30
0
11
14.625387
21
19.85
31
0
39
0
210
0
220
0
230
1
0
LINE
5
140
100
AcDbEntity
8
1
62
256
6
ByLayer
370
70
48
1
60
0
100
AcDbLine
10
21.374612
20
-30.150383
30
0
11
21.374612
21
19.85
31
0
39
0
210
0
220
0
230
1
0
LINE
5
141
100
AcDbEntity
8
1
62
256
6
ByLayer
370
70
48
1
60
0
100
AcDbLine
10
19.925
20
-27.519445
30
0
11
19.925
21
19.85
31
0
39
0
210
0
220
0
230
1
0
MTEXT
5
221
100
AcDbEntity
8
SK6
62
256
6
ByLayer
370
18
48
1
60
0
100
AcDbMText
10
5.304015
20
-23.033406
30
0
210
0
220
0
230
1
1
\W0.7332;392.410 37A-63 12 063C
40
3
41
0
44
1.084337
50
89.9999999999999
71
7
72
5
7
iso_b_vert
0
MTEXT
5
225
100
AcDbEntity
8
SK2
62
256
6
ByLayer
370
18
48
1
60
0
100
AcDbMText
10
133.691702
20
-33.013433
30
0
210
0
220
0
230
1
1
\W0.7563;Dc = 3.0 - 26.0
40
3
41
0
44
1.084337
50
89.9999999999994
71
7
72
5
7
iso_b_vert
0
DIMENSION
5
227
100
AcDbEntity
8
SK2
62
256
6
ByLayer
370
18
48
1
60
0
100
AcDbDimension
2
_U0
10
63
20
45.335133
30
0
11
51
21
45.335133
31
0
70
32
71
1
72
1
41
1
210
0
220
0
230
1
3
Standard
100
AcDbAlignedDimension
13
39
23
6
33
0
14
63
24
23.993424
34
0
50
0
100
AcDbRotatedDimension
1001
ACAD
1000
DSTYLE
1002
{
1070
   371
1070
    13
1070
   372
1070
    13
1070
   170
1070
     0
1070
   144
1040
1.0
1070
   277
1070
     2
1070
   278
1070
    46
1070
   146
1040
1.166667
1070
   345
1005
16
1070
   347
1005
16
1070
   346
1005
16
1070
   344
1005
0
1070
   343
1005
0
1070
   172
1070
     1
1070
    76
1070
     0
1070
    75
1070
     0
1070
   282
1070
     0
1070
   281
1070
     0
1070
    71
1070
     0
1070
   272
1070
     4
1070
    74
1070
     0
1070
   279
1070
     0
1070
   173
1070
     1
1070
   340
1005
222
1070
   271
1070
     1
1070
    77
1070
     1
1070
    73
1070
     1
1070
   171
1070
     4
1070
   274
1070
     4
1070
   177
1070
     7
1070
   176
1070
     7
1070
   178
1070
     7
1070
    41
1040
3.175
1070
   147
1040
1.5
1070
    42
1040
2.0
1070
    44
1040
2.0
1070
   140
1040
3.0
1002
}
1001
ACAD_DSTYLE_DIM_LINETYPE
1070
   380
1005
16
1001
ACAD_DSTYLE_DIM_EXT1_LINETYPE
1070
   381
1005
16
1001
ACAD_DSTYLE_DIM_EXT2_LINETYPE
1070
   382
1005
16
0
DIMENSION
5
240
100
AcDbEntity
8
SK2
62
256
6
ByLayer
370
18
48
1
60
0
100
AcDbDimension
2
_U1
10
63
20
-59.227649
30
0
11
15.55
21
-59.227649
31
0
70
32
71
1
72
1
41
1
210
0
220
0
230
1
3
Standard
100
AcDbAlignedDimension
13
-31.9
23
-19.672662
33
0
14
63
24
-21.375
34
0
50
0
100
AcDbRotatedDimension
1001
ACAD
1000
DSTYLE
1002
{
1070
   371
1070
    13
1070
   372
1070
    13
1070
   170
1070
     0
1070
   144
1040
1.0
1070
   277
1070
     2
1070
   278
1070
    46
1070
   146
1040
1.166667
1070
   345
1005
16
1070
   347
1005
16
1070
   346
1005
16
1070
   344
1005
0
1070
   343
1005
0
1070
   172
1070
     1
1070
    76
1070
     0
1070
    75
1070
     0
1070
   282
1070
     0
1070
   281
1070
     0
1070
    71
1070
     0
1070
   272
1070
     4
1070
    74
1070
     0
1070
   279
1070
     0
1070
   173
1070
     1
1070
   340
1005
222
1070
   271
1070
     1
1070
    77
1070
     1
1070
    73
1070
     1
1070
   171
1070
     4
1070
   274
1070
     4
1070
   177
1070
     7
1070
   176
1070
     7
1070
   178
1070
     7
1070
    41
1040
3.175
1070
   147
1040
1.5
1070
    42
1040
2.0
1070
    44
1040
2.0
1070
   140
1040
3.0
1002
}
1001
ACAD_DSTYLE_DIM_LINETYPE
1070
   380
1005
16
1001
ACAD_DSTYLE_DIM_EXT1_LINETYPE
1070
   381
1005
16
1001
ACAD_DSTYLE_DIM_EXT2_LINETYPE
1070
   382
1005
16
0
DIMENSION
5
258
100
AcDbEntity
8
2
62
256
6
ByLayer
370
18
48
1
60
0
100
AcDbDimension
2
_U2
10
63
20
58.5
30
0
11
31.5
21
58.5
31
0
70
32
71
1
72
1
41
1
210
0
220
0
230
1
3
Standard
100
AcDbAlignedDimension
13
0
23
30.97
33
0
14
63
24
23.993424
34
0
50
0
100
AcDbRotatedDimension
1001
ACAD
1000
DSTYLE
1002
{
1070
   371
1070
    13
1070
   372
1070
    13
1070
   170
1070
     0
1070
   144
1040
1.0
1070
   277
1070
     2
1070
   278
1070
    46
1070
   146
1040
1.166667
1070
   345
1005
16
1070
   347
1005
16
1070
   346
1005
16
1070
   344
1005
0
1070
   343
1005
0
1070
   172
1070
     1
1070
    76
1070
     0
1070
    75
1070
     0
1070
   282
1070
     0
1070
   281
1070
     0
1070
    71
1070
     0
1070
   272
1070
     4
1070
    74
1070
     0
1070
   279
1070
     0
1070
   173
1070
     1
1070
   340
1005
222
1070
   271
1070
     1
1070
    77
1070
     1
1070
    73
1070
     1
1070
   171
1070
     4
1070
   274
1070
     4
1070
   177
1070
     7
1070
   176
1070
     7
1070
   178
1070
     7
1070
    41
1040
3.175
1070
   147
1040
1.5
1070
    42
1040
2.0
1070
    44
1040
2.0
1070
   140
1040
3.0
1002
}
1001
ACAD_DSTYLE_DIM_LINETYPE
1070
   380
1005
16
1001
ACAD_DSTYLE_DIM_EXT1_LINETYPE
1070
   381
1005
16
1001
ACAD_DSTYLE_DIM_EXT2_LINETYPE
1070
   382
1005
16
0
DIMENSION
5
271
100
AcDbEntity
8
SK2
62
256
6
ByLayer
370
18
48
1
60
0
100
AcDbDimension
2
_U3
10
91.5
20
-6
30
0
11
91.5
21
0
31
0
70
32
71
1
72
1
41
1
210
0
220
0
230
1
3
Standard
100
AcDbAlignedDimension
13
63
23
6
33
0
14
63
24
-6
34
0
50
90
100
AcDbRotatedDimension
1001
ACAD
1000
DSTYLE
1002
{
1070
   371
1070
    13
1070
   372
1070
    13
1070
     3
1000

1070
   170
1070
     0
1070
   144
1040
1.0
1070
   277
1070
     2
1070
   278
1070
    46
1070
   146
1040
1.166667
1070
   345
1005
16
1070
   347
1005
16
1070
   346
1005
16
1070
   344
1005
0
1070
   343
1005
0
1070
   172
1070
     1
1070
    76
1070
     0
1070
    75
1070
     0
1070
   282
1070
     0
1070
   281
1070
     0
1070
    71
1070
     0
1070
   272
1070
     4
1070
    74
1070
     0
1070
   279
1070
     0
1070
   173
1070
     1
1070
   340
1005
222
1070
   271
1070
     0
1070
    77
1070
     1
1070
    73
1070
     0
1070
   171
1070
     4
1070
   274
1070
     4
1070
   177
1070
     7
1070
   176
1070
     7
1070
   178
1070
     7
1070
    41
1040
3.175
1070
   147
1040
1.5
1070
    42
1040
2.0
1070
    44
1040
2.0
1070
   140
1040
3.0
1002
}
1001
ACAD_DSTYLE_DIM_LINETYPE
1070
   380
1005
16
1001
ACAD_DSTYLE_DIM_EXT1_LINETYPE
1070
   381
1005
16
1001
ACAD_DSTYLE_DIM_EXT2_LINETYPE
1070
   382
1005
16
0
DIMENSION
5
28A
100
AcDbEntity
8
SK2
62
256
6
ByLayer
370
18
48
1
60
0
100
AcDbDimension
2
_U4
10
106.5
20
-24.746766
30
0
11
106.5
21
0.123492
31
0
70
32
71
1
72
1
41
1
210
0
220
0
230
1
3
Standard
100
AcDbAlignedDimension
13
62
23
24.99375
33
0
14
27.628234
24
-24.746766
34
0
50
90
100
AcDbRotatedDimension
1001
ACAD
1000
DSTYLE
1002
{
1070
   371
1070
    13
1070
   372
1070
    13
1070
     3
1000

1070
   170
1070
     0
1070
   144
1040
1.0
1070
   277
1070
     2
1070
   278
1070
    46
1070
   146
1040
1.166667
1070
   345
1005
16
1070
   347
1005
16
1070
   346
1005
16
1070
   344
1005
0
1070
   343
1005
0
1070
   172
1070
     1
1070
    76
1070
     0
1070
    75
1070
     0
1070
   282
1070
     0
1070
   281
1070
     0
1070
    71
1070
     0
1070
   272
1070
     4
1070
    74
1070
     0
1070
   279
1070
     0
1070
   173
1070
     1
1070
   340
1005
222
1070
   271
1070
     0
1070
    77
1070
     1
1070
    73
1070
     0
1070
   171
1070
     4
1070
   274
1070
     4
1070
   177
1070
     7
1070
   176
1070
     7
1070
   178
1070
     7
1070
    41
1040
3.175
1070
   147
1040
1.5
1070
    42
1040
2.0
1070
    44
1040
2.0
1070
   140
1040
3.0
1002
}
1001
ACAD_DSTYLE_DIM_LINETYPE
1070
   380
1005
16
1001
ACAD_DSTYLE_DIM_EXT1_LINETYPE
1070
   381
1005
16
1001
ACAD_DSTYLE_DIM_EXT2_LINETYPE
1070
   382
1005
16
0
DIMENSION
5
2A2
100
AcDbEntity
8
SK2
62
256
6
ByLayer
370
18
48
1
60
0
100
AcDbDimension
2
_U5
10
-58.5
20
-31.47
30
0
11
-58.5
21
0
31
0
70
32
71
1
72
1
41
1
210
0
220
0
230
1
3
Standard
100
AcDbAlignedDimension
13
0.5
23
31.47
33
0
14
0.5
24
-31.47
34
0
50
90
100
AcDbRotatedDimension
1001
ACAD
1000
DSTYLE
1002
{
1070
   371
1070
    13
1070
   372
1070
    13
1070
     3
1000

1070
   170
1070
     0
1070
   144
1040
1.0
1070
   277
1070
     2
1070
   278
1070
    46
1070
   146
1040
1.166667
1070
   345
1005
16
1070
   347
1005
16
1070
   346
1005
16
1070
   344
1005
0
1070
   343
1005
0
1070
   172
1070
     1
1070
    76
1070
     0
1070
    75
1070
     0
1070
   282
1070
     0
1070
   281
1070
     0
1070
    71
1070
     0
1070
   272
1070
     4
1070
    74
1070
     0
1070
   279
1070
     0
1070
   173
1070
     1
1070
   340
1005
222
1070
   271
1070
     0
1070
    77
1070
     1
1070
    73
1070
     0
1070
   171
1070
     4
1070
   274
1070
     4
1070
   177
1070
     7
1070
   176
1070
     7
1070
   178
1070
     7
1070
    41
1040
3.175
1070
   147
1040
1.5
1070
    42
1040
2.0
1070
    44
1040
2.0
1070
   140
1040
3.0
1002
}
1001
ACAD_DSTYLE_DIM_LINETYPE
1070
   380
1005
16
1001
ACAD_DSTYLE_DIM_EXT1_LINETYPE
1070
   381
1005
16
1001
ACAD_DSTYLE_DIM_EXT2_LINETYPE
1070
   382
1005
16
0
ENDSEC
0
SECTION
2
OBJECTS
0
DICTIONARY
5
32b
330
0
100
AcDbDictionary
280
0
281
1
3
ACAD_GROUP
350
32c
3
ACAD_MLINESTYLE
350
32d
0
DICTIONARY
5
32c
330
0
100
AcDbDictionary
280
0
281
1
0
DICTIONARY
5
32d
330
0
100
AcDbDictionary
280
0
281
1
3
Standard
350
18
0
MLINESTYLE
5
18
330
32d
100
AcDbMlineStyle
2
Standard
70
0
3

62
256
51
90
52
90
71
2
49
-0.5
62
256
6
ByLayer
49
0.5
62
256
6
ByLayer
0
RASTERVARIABLES
5
318
330

100
AcDbRasterVariables
90
0
70
1
71
1
72
1
0
ENDSEC
0
EOF
