0
SECTION
2
HEADER
9
$ACADVER
1
AC1015
9
$DWGCODEPAGE
3
ANSI_1252
9
$HANDSEED
5
2ba
9
$ANGBASE
50
0
9
$ANGDIR
70
0
9
$ATTMODE
70
1
9
$AUNITS
70
0
9
$AUPREC
70
0
9
$CECOLOR
62
256
9
$CELTSCALE
40
1
9
$CELTYPE
6
ByLayer
9
$CELWEIGHT
370
18
9
$CLAYER
8
0
9
$CMLJUST
70
0
9
$CMLSCALE
40
1
9
$CMLSTYLE
2
Standard
9
$DIMSTYLE
2
Standard
9
$TEXTSIZE
40
0.2
9
$TEXTSTYLE
7
Standard
9
$LUNITS
70
2
9
$LUPREC
70
4
9
$EXTNAMES
290
1
9
$INSUNITS
70
4
9
$LTSCALE
40
1
9
$LWDISPLAY
290
1
9
$PDMODE
70
0
9
$PDSIZE
40
0
9
$PLINEGEN
70
0
0
ENDSEC
0
SECTION
2
CLASSES
0
CLASS
1
RASTERVARIABLES
2
AcDbRasterVariables
3
ISM
90
0
280
0
281
0
0
ENDSEC
0
SECTION
2
TABLES
0
TABLE
2
VPORT
5
2b0
100
AcDbSymbolTable
0
VPORT
5
1
100
AcDbSymbolTableRecord
100
AcDbViewportTableRecord
2
*Active
70
0
10
0
20
0
11
1
21
1
12
-1
22
1
13
0
23
0
14
0.5
24
0.5
15
10
25
10
16
0
26
0
36
1
17
0
27
0
37
0
0
ENDTAB
0
TABLE
2
LTYPE
5
2b1
100
AcDbSymbolTable
0
LTYPE
5
14
100
AcDbSymbolTableRecord
100
AcDbLinetypeTableRecord
70
0
2
ByBlock
3

72
65
73
0
40
0
0
LTYPE
5
15
100
AcDbSymbolTableRecord
100
AcDbLinetypeTableRecord
70
0
2
ByLayer
3

72
65
73
0
40
0
0
LTYPE
5
16
100
AcDbSymbolTableRecord
100
AcDbLinetypeTableRecord
70
0
2
Continuous
3
Solid line
72
65
73
0
40
0
0
LTYPE
5
6E
100
AcDbSymbolTableRecord
100
AcDbLinetypeTableRecord
70
0
2
CENTER
3
____ _ ____ _ ____ _ ____
72
65
73
4
40
47.5
49
22
74
0
49
-8.5
74
0
49
8.5
74
0
49
-8.5
74
0
0
LTYPE
5
6F
100
AcDbSymbolTableRecord
100
AcDbLinetypeTableRecord
70
0
2
DASHED
3
__ __ __ __ __ __ __ __ __
72
65
73
2
40
25.72
49
12.86
74
0
49
-12.86
74
0
0
ENDTAB
0
TABLE
2
LAYER
5
2b2
100
AcDbSymbolTable
0
LAYER
5
10
100
AcDbSymbolTableRecord
100
AcDbLayerTableRecord
2
0
70
0
62
7
6
Continuous
290
1
370
-3
390
0
0
LAYER
5
71
100
AcDbSymbolTableRecord
100
AcDbLayerTableRecord
2
81
70
0
62
-3
6
Continuous
290
1
370
-3
390
0
0
LAYER
5
73
100
AcDbSymbolTableRecord
100
AcDbLayerTableRecord
2
80
70
0
62
-6
6
Continuous
290
1
370
-3
390
0
0
LAYER
5
75
100
AcDbSymbolTableRecord
100
AcDbLayerTableRecord
2
1
70
0
62
4
6
Continuous
290
1
370
-3
390
0
0
LAYER
5
F4
100
AcDbSymbolTableRecord
100
AcDbLayerTableRecord
2
4
70
0
62
-2
6
CENTER
290
1
370
-3
390
0
0
LAYER
5
1DA
100
AcDbSymbolTableRecord
100
AcDbLayerTableRecord
2
Defpoints
70
0
62
7
6
Continuous
290
0
370
-3
390
0
0
LAYER
5
201
100
AcDbSymbolTableRecord
100
AcDbLayerTableRecord
2
2
70
0
62
7
6
Continuous
290
1
370
-3
390
0
0
LAYER
5
29c
100
AcDbSymbolTableRecord
100
AcDbLayerTableRecord
2
SK1
70
0
62
4
6
Continuous
290
1
370
-3
390
0
0
LAYER
5
29d
100
AcDbSymbolTableRecord
100
AcDbLayerTableRecord
2
SK4
70
0
62
2
6
CENTER
290
1
370
-3
390
0
0
LAYER
5
29e
100
AcDbSymbolTableRecord
100
AcDbLayerTableRecord
2
SK6
70
0
62
5
6
Continuous
290
1
370
-3
390
0
0
LAYER
5
29f
100
AcDbSymbolTableRecord
100
AcDbLayerTableRecord
2
SK2
70
0
62
7
6
Continuous
290
1
370
-3
390
0
0
ENDTAB
0
TABLE
2
STYLE
5
2b3
100
AcDbSymbolTable
0
STYLE
5
11
100
AcDbSymbolTableRecord
100
AcDbTextStyleTableRecord
2
Standard
3
txt
70
0
71
0
40
0
41
1
42
0
50
0
0
STYLE
5
1D3
100
AcDbSymbolTableRecord
100
AcDbTextStyleTableRecord
2
iso_b_vert
3
simplex.shx
70
0
71
0
40
0
41
1
42
0
50
0
0
STYLE
5
1D4
100
AcDbSymbolTableRecord
100
AcDbTextStyleTableRecord
2
DWGDirectTextStyle
3
simplex
70
0
71
0
40
0
41
1
42
0
50
0
0
ENDTAB
0
TABLE
2
DIMSTYLE
5
2b4
100
AcDbSymbolTable
100
AcDbDimStyleTable
0
DIMSTYLE
105
27
100
AcDbSymbolTableRecord
100
AcDbDimStyleTableRecord
2
Standard
70
0
3
<>
41
0.18
42
0.0625
44
0.18
140
0.18
147
0.09
73
0
74
0
77
1
271
2
275
0
278
52
280
0
340
11
0
ENDTAB
0
TABLE
2
VIEW
5
2b5
100
AcDbSymbolTable
0
ENDTAB
0
TABLE
2
UCS
5
2b6
100
AcDbSymbolTable
0
ENDTAB
0
TABLE
2
APPID
5
2b7
100
AcDbSymbolTable
0
APPID
5
12
100
AcDbSymbolTableRecord
100
AcDbRegAppTableRecord
2
ACAD
70
0
0
APPID
5
1D6
100
AcDbSymbolTableRecord
100
AcDbRegAppTableRecord
2
ACAD_DSTYLE_DIMBREAK
70
0
0
APPID
5
25B
100
AcDbSymbolTableRecord
100
AcDbRegAppTableRecord
2
ACAD_DSTYLE_DIM_LINETYPE
70
0
0
APPID
5
25C
100
AcDbSymbolTableRecord
100
AcDbRegAppTableRecord
2
ACAD_DSTYLE_DIM_EXT1_LINETYPE
70
0
0
APPID
5
25D
100
AcDbSymbolTableRecord
100
AcDbRegAppTableRecord
2
ACAD_DSTYLE_DIM_EXT2_LINETYPE
70
0
0
APPID
5
298
100
AcDbSymbolTableRecord
100
AcDbRegAppTableRecord
2
ACAD_MLEADERVER
70
0
0
ENDTAB
0
TABLE
2
BLOCK_RECORD
5
2b8
100
AcDbSymbolTable
0
BLOCK_RECORD
5
1F
100
AcDbSymbolTableRecord
100
AcDbBlockTableRecord
2
*Model_Space
340
0
70
0
0
BLOCK_RECORD
5
1B
100
AcDbSymbolTableRecord
100
AcDbBlockTableRecord
2
*Paper_Space
340
0
70
0
0
BLOCK_RECORD
5
23
100
AcDbSymbolTableRecord
100
AcDbBlockTableRecord
2
*Paper_Space0
340
0
70
0
0
BLOCK_RECORD
5
1DB
100
AcDbSymbolTableRecord
100
AcDbBlockTableRecord
2
*D1
340
0
70
0
0
BLOCK_RECORD
5
1E8
100
AcDbSymbolTableRecord
100
AcDbBlockTableRecord
2
_U0
340
0
70
0
0
BLOCK_RECORD
5
1F5
100
AcDbSymbolTableRecord
100
AcDbBlockTableRecord
2
*D3
340
0
70
0
0
BLOCK_RECORD
5
202
100
AcDbSymbolTableRecord
100
AcDbBlockTableRecord
2
_U1
340
0
70
0
0
BLOCK_RECORD
5
20F
100
AcDbSymbolTableRecord
100
AcDbBlockTableRecord
2
*D5
340
0
70
0
0
BLOCK_RECORD
5
21B
100
AcDbSymbolTableRecord
100
AcDbBlockTableRecord
2
_U2
340
0
70
0
0
BLOCK_RECORD
5
227
100
AcDbSymbolTableRecord
100
AcDbBlockTableRecord
2
*D7
340
0
70
0
0
BLOCK_RECORD
5
234
100
AcDbSymbolTableRecord
100
AcDbBlockTableRecord
2
_U3
340
0
70
0
0
ENDTAB
0
ENDSEC
0
SECTION
2
BLOCKS
0
BLOCK
5
20
100
AcDbEntity
8
0
100
AcDbBlockBegin
2
*Model_Space
70
0
10
0
20
0
30
0
3
*Model_Space
0
ENDBLK
5
21
100
AcDbEntity
8
0
100
AcDbBlockEnd
0
BLOCK
5
1C
100
AcDbEntity
8
0
100
AcDbBlockBegin
2
*Paper_Space
70
0
10
0
20
0
30
0
3
*Paper_Space
0
ENDBLK
5
1D
100
AcDbEntity
8
0
100
AcDbBlockEnd
0
BLOCK
5
24
100
AcDbEntity
8
0
100
AcDbBlockBegin
2
*Paper_Space0
70
0
10
0
20
0
30
0
3
*Paper_Space0
0
ENDBLK
5
25
100
AcDbEntity
8
0
100
AcDbBlockEnd
0
BLOCK
5
1DC
100
AcDbEntity
8
0
100
AcDbBlockBegin
2
*D1
70
1
10
0
20
0
30
0
3
*D1
0
LINE
5
1DE
100
AcDbEntity
8
0
62
256
6
ByLayer
370
-2
48
1
60
0
100
AcDbLine
10
-1.1875
20
21.05
30
0
11
-15.059796
21
21.05
31
0
39
0
210
0
220
0
230
1
0
LINE
5
1DF
100
AcDbEntity
8
0
62
256
6
ByLayer
370
-2
48
1
60
0
100
AcDbLine
10
-1.1875
20
-21.05
30
0
11
-15.059796
21
-21.05
31
0
39
0
210
0
220
0
230
1
0
LINE
5
1E0
100
AcDbEntity
8
0
62
256
6
ByLayer
370
-2
48
1
60
0
100
AcDbLine
10
-13.059796
20
17.875
30
0
11
-13.059796
21
-17.875
31
0
39
0
210
0
220
0
230
1
0
SOLID
5
1E1
100
AcDbEntity
8
0
62
256
6
ByLayer
370
-1
48
1
60
0
100
AcDbTrace
10
-12.530629
20
17.875
30
0
11
-13.588963
21
17.875
31
0
12
-13.059796
22
21.05
32
0
13
-13.059796
23
21.05
33
0
39
0
210
0
220
0
230
1
0
SOLID
5
1E2
100
AcDbEntity
8
0
62
256
6
ByLayer
370
-1
48
1
60
0
100
AcDbTrace
10
-13.588963
20
-17.875
30
0
11
-12.530629
21
-17.875
31
0
12
-13.059796
22
-21.05
32
0
13
-13.059796
23
-21.05
33
0
39
0
210
0
220
0
230
1
0
MTEXT
5
1E3
100
AcDbEntity
8
0
62
256
6
ByLayer
370
18
48
1
60
0
100
AcDbMText
10
-19.059796
20
0
30
0
210
0
220
0
230
1
1
\A1;42
40
3
41
0
44
1
50
90
71
5
72
5
7
iso_b_vert
0
POINT
5
1E4
100
AcDbEntity
8
Defpoints
62
0
6
ByLayer
370
-1
48
1
60
0
100
AcDbPoint
10
0.4
20
21.05
30
0
39
0
210
0
220
0
230
1
50
360
0
POINT
5
1E5
100
AcDbEntity
8
Defpoints
62
0
6
ByLayer
370
-1
48
1
60
0
100
AcDbPoint
10
0.4
20
-21.05
30
0
39
0
210
0
220
0
230
1
50
360
0
POINT
5
1E6
100
AcDbEntity
8
Defpoints
62
0
6
ByLayer
370
-1
48
1
60
0
100
AcDbPoint
10
-13.059796
20
-21.05
30
0
39
0
210
0
220
0
230
1
50
360
0
ENDBLK
5
1DD
100
AcDbEntity
8
0
100
AcDbBlockEnd
0
BLOCK
5
1F0
100
AcDbEntity
8
0
100
AcDbBlockBegin
2
_U0
70
0
10
0
20
0
30
0
3
_U0
0
MTEXT
5
1E9
100
AcDbEntity
8
SK2
62
256
6
ByLayer
370
18
48
1
60
0
100
AcDbMText
10
-14.40091
20
-6.314771
30
0
210
0
220
0
230
1
1
%%c
40
3
41
0
44
1.084337
50
90
71
7
72
5
7
iso_b_vert
0
MTEXT
5
1EA
100
AcDbEntity
8
SK2
62
256
6
ByLayer
370
18
48
1
60
0
100
AcDbMText
10
-14.40091
20
2.685229
30
0
210
0
220
0
230
1
1
\W0.7361;42
40
3
41
0
44
1.084337
50
90
71
7
72
5
7
iso_b_vert
0
LINE
5
1EB
100
AcDbEntity
8
SK2
62
256
6
ByLayer
370
13
48
1
60
0
100
AcDbLine
10
-1.1875
20
21.05
30
0
11
-15.059796
21
21.05
31
0
39
0
210
0
220
0
230
1
0
LINE
5
1EC
100
AcDbEntity
8
SK2
62
256
6
ByLayer
370
13
48
1
60
0
100
AcDbLine
10
-1.1875
20
-21.05
30
0
11
-15.059796
21
-21.05
31
0
39
0
210
0
220
0
230
1
0
LINE
5
1ED
100
AcDbEntity
8
SK2
62
256
6
ByLayer
370
13
48
1
60
0
100
AcDbLine
10
-13.059796
20
21.05
30
0
11
-13.059796
21
-21.05
31
0
39
0
210
0
220
0
230
1
0
SOLID
5
1EE
100
AcDbEntity
8
SK2
62
256
6
ByLayer
370
18
48
1
60
0
100
AcDbTrace
10
-13.059796
20
21.05
30
0
11
-12.641799
21
17.875002
31
0
12
-13.477793
22
17.874998
32
0
13
-13.477793
23
17.874998
33
0
39
0
210
0
220
0
230
1
0
SOLID
5
1EF
100
AcDbEntity
8
SK2
62
256
6
ByLayer
370
18
48
1
60
0
100
AcDbTrace
10
-13.059796
20
-21.05
30
0
11
-13.477793
21
-17.875002
31
0
12
-12.641799
22
-17.874998
32
0
13
-12.641799
23
-17.874998
33
0
39
0
210
0
220
0
230
1
0
ENDBLK
5
1F1
100
AcDbEntity
8
0
100
AcDbBlockEnd
0
BLOCK
5
1F6
100
AcDbEntity
8
0
100
AcDbBlockBegin
2
*D3
70
1
10
0
20
0
30
0
3
*D3
0
LINE
5
1F8
100
AcDbEntity
8
0
62
256
6
ByLayer
370
-2
48
1
60
0
100
AcDbLine
10
41.5875
20
25.4
30
0
11
61.128621
21
25.4
31
0
39
0
210
0
220
0
230
1
0
LINE
5
1F9
100
AcDbEntity
8
0
62
256
6
ByLayer
370
-2
48
1
60
0
100
AcDbLine
10
35.479367
20
-25.39446
30
0
11
61.128621
21
-25.39446
31
0
39
0
210
0
220
0
230
1
0
LINE
5
1FA
100
AcDbEntity
8
0
62
256
6
ByLayer
370
-2
48
1
60
0
100
AcDbLine
10
59.128621
20
22.225
30
0
11
59.128621
21
-22.21946
31
0
39
0
210
0
220
0
230
1
0
SOLID
5
1FB
100
AcDbEntity
8
0
62
256
6
ByLayer
370
-1
48
1
60
0
100
AcDbTrace
10
59.657788
20
22.225
30
0
11
58.599455
21
22.225
31
0
12
59.128621
22
25.4
32
0
13
59.128621
23
25.4
33
0
39
0
210
0
220
0
230
1
0
SOLID
5
1FC
100
AcDbEntity
8
0
62
256
6
ByLayer
370
-1
48
1
60
0
100
AcDbTrace
10
58.599455
20
-22.21946
30
0
11
59.657788
21
-22.21946
31
0
12
59.128621
22
-25.39446
32
0
13
59.128621
23
-25.39446
33
0
39
0
210
0
220
0
230
1
0
MTEXT
5
1FD
100
AcDbEntity
8
0
62
256
6
ByLayer
370
18
48
1
60
0
100
AcDbMText
10
53.128621
20
0.00277
30
0
210
0
220
0
230
1
1
\A1;50.8
40
3
41
0
44
1
50
90
71
5
72
5
7
iso_b_vert
0
POINT
5
1FE
100
AcDbEntity
8
Defpoints
62
0
6
ByLayer
370
-1
48
1
60
0
100
AcDbPoint
10
40
20
25.4
30
0
39
0
210
0
220
0
230
1
50
360
0
POINT
5
1FF
100
AcDbEntity
8
Defpoints
62
0
6
ByLayer
370
-1
48
1
60
0
100
AcDbPoint
10
33.891867
20
-25.39446
30
0
39
0
210
0
220
0
230
1
50
360
0
POINT
5
200
100
AcDbEntity
8
Defpoints
62
0
6
ByLayer
370
-1
48
1
60
0
100
AcDbPoint
10
59.128621
20
-25.39446
30
0
39
0
210
0
220
0
230
1
50
360
0
ENDBLK
5
1F7
100
AcDbEntity
8
0
100
AcDbBlockEnd
0
BLOCK
5
20A
100
AcDbEntity
8
0
100
AcDbBlockBegin
2
_U1
70
0
10
0
20
0
30
0
3
_U1
0
MTEXT
5
203
100
AcDbEntity
8
2
62
256
6
ByLayer
370
18
48
1
60
0
100
AcDbMText
10
57.787507
20
-7.882686
30
0
210
0
220
0
230
1
1
%%c
40
3
41
0
44
1.084337
50
90
71
7
72
5
7
iso_b_vert
0
MTEXT
5
204
100
AcDbEntity
8
2
62
256
6
ByLayer
370
18
48
1
60
0
100
AcDbMText
10
57.787507
20
1.117314
30
0
210
0
220
0
230
1
1
\W0.7346;50.8
40
3
41
0
44
1.084337
50
90
71
7
72
5
7
iso_b_vert
0
LINE
5
205
100
AcDbEntity
8
2
62
256
6
ByLayer
370
13
48
1
60
0
100
AcDbLine
10
41.5875
20
25.4
30
0
11
61.128621
21
25.4
31
0
39
0
210
0
220
0
230
1
0
LINE
5
206
100
AcDbEntity
8
2
62
256
6
ByLayer
370
13
48
1
60
0
100
AcDbLine
10
35.479367
20
-25.39446
30
0
11
61.128621
21
-25.39446
31
0
39
0
210
0
220
0
230
1
0
LINE
5
207
100
AcDbEntity
8
2
62
256
6
ByLayer
370
13
48
1
60
0
100
AcDbLine
10
59.128621
20
25.4
30
0
11
59.128621
21
-25.39446
31
0
39
0
210
0
220
0
230
1
0
SOLID
5
208
100
AcDbEntity
8
2
62
256
6
ByLayer
370
18
48
1
60
0
100
AcDbTrace
10
59.128621
20
25.4
30
0
11
59.546618
21
22.225002
31
0
12
58.710625
22
22.224998
32
0
13
58.710625
23
22.224998
33
0
39
0
210
0
220
0
230
1
0
SOLID
5
209
100
AcDbEntity
8
2
62
256
6
ByLayer
370
18
48
1
60
0
100
AcDbTrace
10
59.128621
20
-25.39446
30
0
11
58.710625
21
-22.219462
31
0
12
59.546618
22
-22.219459
32
0
13
59.546618
23
-22.219459
33
0
39
0
210
0
220
0
230
1
0
ENDBLK
5
20B
100
AcDbEntity
8
0
100
AcDbBlockEnd
0
BLOCK
5
210
100
AcDbEntity
8
0
100
AcDbBlockBegin
2
*D5
70
1
10
0
20
0
30
0
3
*D5
0
LINE
5
212
100
AcDbEntity
8
0
62
256
6
ByLayer
370
-2
48
1
60
0
100
AcDbLine
10
0
20
22.0875
30
0
11
0
21
45.016646
31
0
39
0
210
0
220
0
230
1
0
LINE
5
213
100
AcDbEntity
8
0
62
256
6
ByLayer
370
-2
48
1
60
0
100
AcDbLine
10
40
20
26.9875
30
0
11
40
21
45.016646
31
0
39
0
210
0
220
0
230
1
0
LINE
5
214
100
AcDbEntity
8
0
62
256
6
ByLayer
370
-2
48
1
60
0
100
AcDbLine
10
3.175
20
43.016646
30
0
11
36.825
21
43.016646
31
0
39
0
210
0
220
0
230
1
0
SOLID
5
215
100
AcDbEntity
8
0
62
256
6
ByLayer
370
-1
48
1
60
0
100
AcDbTrace
10
3.175
20
43.545813
30
0
11
3.175
21
42.48748
31
0
12
0
22
43.016646
32
0
13
0
23
43.016646
33
0
39
0
210
0
220
0
230
1
0
SOLID
5
216
100
AcDbEntity
8
0
62
256
6
ByLayer
370
-1
48
1
60
0
100
AcDbTrace
10
36.825
20
42.48748
30
0
11
36.825
21
43.545813
31
0
12
40
22
43.016646
32
0
13
40
23
43.016646
33
0
39
0
210
0
220
0
230
1
0
MTEXT
5
217
100
AcDbEntity
8
0
62
256
6
ByLayer
370
18
48
1
60
0
100
AcDbMText
10
20
20
49.016646
30
0
210
0
220
0
230
1
1
\A1;40
40
3
41
0
44
1
50
0
71
5
72
5
7
iso_b_vert
0
POINT
5
218
100
AcDbEntity
8
Defpoints
62
0
6
ByLayer
370
-1
48
1
60
0
100
AcDbPoint
10
0
20
20.5
30
0
39
0
210
0
220
0
230
1
50
360
0
POINT
5
219
100
AcDbEntity
8
Defpoints
62
0
6
ByLayer
370
-1
48
1
60
0
100
AcDbPoint
10
40
20
25.4
30
0
39
0
210
0
220
0
230
1
50
360
0
POINT
5
21A
100
AcDbEntity
8
Defpoints
62
0
6
ByLayer
370
-1
48
1
60
0
100
AcDbPoint
10
40
20
43.016646
30
0
39
0
210
0
220
0
230
1
50
360
0
ENDBLK
5
211
100
AcDbEntity
8
0
100
AcDbBlockEnd
0
BLOCK
5
222
100
AcDbEntity
8
0
100
AcDbBlockBegin
2
_U2
70
0
10
0
20
0
30
0
3
_U2
0
MTEXT
5
21C
100
AcDbEntity
8
2
62
256
6
ByLayer
370
18
48
1
60
0
100
AcDbMText
10
18.209229
20
43.901761
30
0
210
0
220
0
230
1
1
\W0.7361;40
40
3
41
0
44
1.084337
50
0
71
7
72
5
7
iso_b_vert
0
LINE
5
21D
100
AcDbEntity
8
2
62
256
6
ByLayer
370
13
48
1
60
0
100
AcDbLine
10
0
20
22.0875
30
0
11
0
21
45.016646
31
0
39
0
210
0
220
0
230
1
0
LINE
5
21E
100
AcDbEntity
8
2
62
256
6
ByLayer
370
13
48
1
60
0
100
AcDbLine
10
40
20
26.9875
30
0
11
40
21
45.016646
31
0
39
0
210
0
220
0
230
1
0
LINE
5
21F
100
AcDbEntity
8
2
62
256
6
ByLayer
370
13
48
1
60
0
100
AcDbLine
10
0
20
43.016646
30
0
11
40
21
43.016646
31
0
39
0
210
0
220
0
230
1
0
SOLID
5
220
100
AcDbEntity
8
2
62
256
6
ByLayer
370
18
48
1
60
0
100
AcDbTrace
10
0
20
43.016646
30
0
11
3.174998
21
43.434643
31
0
12
3.175002
22
42.59865
32
0
13
3.175002
23
42.59865
33
0
39
0
210
0
220
0
230
1
0
SOLID
5
221
100
AcDbEntity
8
2
62
256
6
ByLayer
370
18
48
1
60
0
100
AcDbTrace
10
40
20
43.016646
30
0
11
36.825002
21
42.59865
31
0
12
36.824998
22
43.434643
32
0
13
36.824998
23
43.434643
33
0
39
0
210
0
220
0
230
1
0
ENDBLK
5
223
100
AcDbEntity
8
0
100
AcDbBlockEnd
0
BLOCK
5
228
100
AcDbEntity
8
0
100
AcDbBlockBegin
2
*D7
70
1
10
0
20
0
30
0
3
*D7
0
LINE
5
22A
100
AcDbEntity
8
0
62
256
6
ByLayer
370
-2
48
1
60
0
100
AcDbLine
10
33.89458
20
26.267084
30
0
11
33.89458
21
35.974506
31
0
39
0
210
0
220
0
230
1
0
LINE
5
22B
100
AcDbEntity
8
0
62
256
6
ByLayer
370
-2
48
1
60
0
100
AcDbLine
10
40
20
32.4
30
0
11
40
21
35.974506
31
0
39
0
210
0
220
0
230
1
0
LINE
5
22C
100
AcDbEntity
8
0
62
256
6
ByLayer
370
-2
48
1
60
0
100
AcDbLine
10
30.71958
20
33.974506
30
0
11
27.54458
21
33.974506
31
0
39
0
210
0
220
0
230
1
0
LINE
5
22D
100
AcDbEntity
8
0
62
256
6
ByLayer
370
-2
48
1
60
0
100
AcDbLine
10
43.175
20
33.974506
30
0
11
46.35
21
33.974506
31
0
39
0
210
0
220
0
230
1
0
SOLID
5
22E
100
AcDbEntity
8
0
62
256
6
ByLayer
370
-1
48
1
60
0
100
AcDbTrace
10
30.71958
20
33.445339
30
0
11
30.71958
21
34.503672
31
0
12
33.89458
22
33.974506
32
0
13
33.89458
23
33.974506
33
0
39
0
210
0
220
0
230
1
0
SOLID
5
22F
100
AcDbEntity
8
0
62
256
6
ByLayer
370
-1
48
1
60
0
100
AcDbTrace
10
43.175
20
34.503672
30
0
11
43.175
21
33.445339
31
0
12
40
22
33.974506
32
0
13
40
23
33.974506
33
0
39
0
210
0
220
0
230
1
0
MTEXT
5
230
100
AcDbEntity
8
0
62
256
6
ByLayer
370
18
48
1
60
0
100
AcDbMText
10
36.94729
20
39.974506
30
0
210
0
220
0
230
1
1
\A1;6
40
3
41
0
44
1
50
0
71
5
72
5
7
iso_b_vert
0
POINT
5
231
100
AcDbEntity
8
Defpoints
62
0
6
ByLayer
370
-1
48
1
60
0
100
AcDbPoint
10
33.89458
20
19.267084
30
0
39
0
210
0
220
0
230
1
50
360
0
POINT
5
232
100
AcDbEntity
8
Defpoints
62
0
6
ByLayer
370
-1
48
1
60
0
100
AcDbPoint
10
40
20
25.4
30
0
39
0
210
0
220
0
230
1
50
360
0
POINT
5
233
100
AcDbEntity
8
Defpoints
62
0
6
ByLayer
370
-1
48
1
60
0
100
AcDbPoint
10
40
20
33.974506
30
0
39
0
210
0
220
0
230
1
50
360
0
ENDBLK
5
229
100
AcDbEntity
8
0
100
AcDbBlockEnd
0
BLOCK
5
23B
100
AcDbEntity
8
0
100
AcDbBlockBegin
2
_U3
70
0
10
0
20
0
30
0
3
_U3
0
MTEXT
5
235
100
AcDbEntity
8
SK2
62
256
6
ByLayer
370
18
48
1
60
0
100
AcDbMText
10
36.435376
20
34.85962
30
0
210
0
220
0
230
1
1
\W0.5404;6
40
3
41
0
44
1.084337
50
0
71
7
72
5
7
iso_b_vert
0
LINE
5
236
100
AcDbEntity
8
SK2
62
256
6
ByLayer
370
13
48
1
60
0
100
AcDbLine
10
33.89458
20
26.267084
30
0
11
33.89458
21
35.974506
31
0
39
0
210
0
220
0
230
1
0
LINE
5
237
100
AcDbEntity
8
SK2
62
256
6
ByLayer
370
13
48
1
60
0
100
AcDbLine
10
40
20
26.9875
30
0
11
40
21
35.974506
31
0
39
0
210
0
220
0
230
1
0
LINE
5
238
100
AcDbEntity
8
SK2
62
256
6
ByLayer
370
13
48
1
60
0
100
AcDbLine
10
26.39458
20
33.974506
30
0
11
47.5
21
33.974506
31
0
39
0
210
0
220
0
230
1
0
SOLID
5
239
100
AcDbEntity
8
SK2
62
256
6
ByLayer
370
18
48
1
60
0
100
AcDbTrace
10
33.89458
20
33.974506
30
0
11
30.719582
21
33.556509
31
0
12
30.719579
22
34.392502
32
0
13
30.719579
23
34.392502
33
0
39
0
210
0
220
0
230
1
0
SOLID
5
23A
100
AcDbEntity
8
SK2
62
256
6
ByLayer
370
18
48
1
60
0
100
AcDbTrace
10
40
20
33.974506
30
0
11
43.174998
21
34.392502
31
0
12
43.175002
22
33.556509
32
0
13
43.175002
23
33.556509
33
0
39
0
210
0
220
0
230
1
0
ENDBLK
5
23C
100
AcDbEntity
8
0
100
AcDbBlockEnd
0
ENDSEC
0
SECTION
2
ENTITIES
0
ARC
5
F5
100
AcDbEntity
8
1
62
256
6
ByLayer
370
18
48
1
60
0
100
AcDbCircle
39
0
10
10
20
-20.05
30
0
40
1
210
0
220
0
230
1
100
AcDbArc
50
270
51
0
0
ARC
5
F6
100
AcDbEntity
8
1
62
256
6
ByLayer
370
18
48
1
60
0
100
AcDbCircle
39
0
10
10
20
20.05
30
0
40
1
210
0
220
0
230
1
100
AcDbArc
50
0
51
90
0
ARC
5
F7
100
AcDbEntity
8
1
62
256
6
ByLayer
370
18
48
1
60
0
100
AcDbCircle
39
0
10
17.870957
20
-20.9
30
0
40
3
210
0
220
0
230
1
100
AcDbArc
50
48.752586
51
90
0
ARC
5
F8
100
AcDbEntity
8
1
62
256
6
ByLayer
370
18
48
1
60
0
100
AcDbCircle
39
0
10
12
20
-18.9
30
0
40
1
210
0
220
0
230
1
100
AcDbArc
50
90
51
180
0
ARC
5
F9
100
AcDbEntity
8
1
62
256
6
ByLayer
370
18
48
1
60
0
100
AcDbCircle
39
0
10
12
20
18.9
30
0
40
1
210
0
220
0
230
1
100
AcDbArc
50
180
51
270
0
ARC
5
FA
100
AcDbEntity
8
1
62
256
6
ByLayer
370
18
48
1
60
0
100
AcDbCircle
39
0
10
24.528472
20
18.757845
30
0
40
3
210
0
220
0
230
1
100
AcDbArc
50
108.708573
51
131.247414
0
ARC
5
FB
100
AcDbEntity
8
1
62
256
6
ByLayer
370
18
48
1
60
0
100
AcDbCircle
39
0
10
17.870957
20
20.9
30
0
40
3
210
0
220
0
230
1
100
AcDbArc
50
270
51
311.247414
0
ARC
5
FC
100
AcDbEntity
8
1
62
256
6
ByLayer
370
18
48
1
60
0
100
AcDbCircle
39
0
10
24.528472
20
-18.757845
30
0
40
3
210
0
220
0
230
1
100
AcDbArc
50
228.752586
51
251.291427
0
ELLIPSE
5
FD
100
AcDbEntity
8
1
62
256
6
ByLayer
370
18
48
1
60
0
100
AcDbEllipse
10
33.745525
20
19.009048
30
0
11
-0.861061668520009
21
0.497397389423727
31
0
210
0
220
0
230
1
40
0.971168
41
-3.12584733381605
42
-2.10674368555801
0
ELLIPSE
5
FE
100
AcDbEntity
8
1
62
256
6
ByLayer
370
18
48
1
60
0
100
AcDbEllipse
10
33.745525
20
19.009048
30
0
11
-0.861061668520009
21
0.497397389423727
31
0
210
0
220
0
230
1
40
0.971168
41
-2.106743685558
42
-1.05954613436142
0
ELLIPSE
5
FF
100
AcDbEntity
8
1
62
256
6
ByLayer
370
18
48
1
60
0
100
AcDbEllipse
10
33.745525
20
19.009048
30
0
11
-0.861061668520009
21
0.497397389423727
31
0
210
0
220
0
230
1
40
0.971168
41
-1.05954613436141
42
-0.0123485831648028
0
ELLIPSE
5
100
100
AcDbEntity
8
1
62
256
6
ByLayer
370
18
48
1
60
0
100
AcDbEllipse
10
33.745525
20
19.009048
30
0
11
-0.861061668520009
21
0.497397389423727
31
0
210
0
220
0
230
1
40
0.971168
41
-0.0123485831648028
42
0.56130343496439
0
ELLIPSE
5
101
100
AcDbEntity
8
1
62
256
6
ByLayer
370
18
48
1
60
0
100
AcDbEllipse
10
33.745525
20
19.009048
30
0
11
0.861061668520008
21
-0.497397389423727
31
0
210
0
220
0
230
1
40
0.971168
41
-0.587309142808607
42
-0.0123485831648102
0
ELLIPSE
5
102
100
AcDbEntity
8
1
62
256
6
ByLayer
370
18
48
1
60
0
100
AcDbEllipse
10
33.745525
20
20.125799
30
0
11
0.300206051247692
21
-0.00973672349926922
31
0
210
0
220
0
230
1
40
0.479494
41
-2.84213057212891
42
-1.55524591156966
0
ELLIPSE
5
103
100
AcDbEntity
8
1
62
256
6
ByLayer
370
18
48
1
60
0
100
AcDbEllipse
10
33.745525
20
20.125799
30
0
11
0.300206051247094
21
-0.00973672349934165
31
0
210
0
220
0
230
1
40
0.479494
41
-1.55524591156894
42
-0.26836125100755
0
ELLIPSE
5
104
100
AcDbEntity
8
1
62
256
6
ByLayer
370
18
48
1
60
0
100
AcDbEllipse
10
34.727211
20
19.542911
30
0
11
0.152132312056095
21
-0.258774251287558
31
0
210
0
220
0
230
1
40
0.48008
41
-1.58682813690515
42
-0.299943476346279
0
ELLIPSE
5
105
100
AcDbEntity
8
1
62
256
6
ByLayer
370
18
48
1
60
0
100
AcDbEllipse
10
34.727211
20
19.542911
30
0
11
0.15213231205537
21
-0.258774251286516
31
0
210
0
220
0
230
1
40
0.48008
41
-2.87371279746761
42
-1.58682813690458
0
ELLIPSE
5
106
100
AcDbEntity
8
1
62
256
6
ByLayer
370
18
48
1
60
0
100
AcDbEllipse
10
34.312326
20
19.962072
30
0
11
0.260049680265298
21
-0.154334523409704
31
0
210
0
220
0
230
1
40
0.473063
41
0.172468077227755
42
2.99227608316038
0
ELLIPSE
5
107
100
AcDbEntity
8
1
62
256
6
ByLayer
370
18
48
1
60
0
100
AcDbEllipse
10
33.178723
20
19.990379
30
0
11
0.261207595704332
21
0.139259447438253
31
0
210
0
220
0
230
1
40
0.4937
41
-0.144097055693777
42
1.75965600826678
0
ELLIPSE
5
108
100
AcDbEntity
8
1
62
256
6
ByLayer
370
18
48
1
60
0
100
AcDbEllipse
10
34.879128
20
18.980742
30
0
11
0.00238937750570633
21
-0.295812019140144
31
0
210
0
220
0
230
1
40
0.494332
41
1.39644337180384
42
-2.99705805405617
0
ELLIPSE
5
109
100
AcDbEntity
8
1
62
256
6
ByLayer
370
18
48
1
60
0
100
AcDbEllipse
10
32.763838
20
19.591937
30
0
11
0.150182486672975
21
0.252378199552933
31
0
210
0
220
0
230
1
40
0.501559
41
-2.85719677402974
42
-1.57031211347283
0
ELLIPSE
5
10A
100
AcDbEntity
8
1
62
256
6
ByLayer
370
13
48
1
60
0
100
AcDbEllipse
10
26.263467
20
19.652964
30
0
11
0.379931984478628
21
-0.925014425384878
31
0
210
0
220
0
230
1
40
0.872707
41
0.0697418538866521
42
3.03009524599009
0
ELLIPSE
5
10B
100
AcDbEntity
8
1
62
256
6
ByLayer
370
18
48
1
60
0
100
AcDbEllipse
10
34.727211
20
18.42616
30
0
11
0.150182486672118
21
0.252378199551256
31
0
210
0
220
0
230
1
40
0.501559
41
1.57128054011788
42
2.85816520068135
0
ELLIPSE
5
10C
100
AcDbEntity
8
1
62
256
6
ByLayer
370
18
48
1
60
0
100
AcDbEllipse
10
32.611921
20
19.037355
30
0
11
0.00238937750570269
21
-0.29581201914015
31
0
210
0
220
0
230
1
40
0.494332
41
2.96438112952853
42
3.09739733973362
0
ELLIPSE
5
10D
100
AcDbEntity
8
1
62
256
6
ByLayer
370
18
48
1
60
0
100
AcDbEllipse
10
33.89458
20
19.267084
30
0
11
1.11620227655442
21
-0.644780877752067
31
0
210
0
220
0
230
1
40
0.971168
41
-0.535947358763113
42
0.511250192433489
0
ELLIPSE
5
10E
100
AcDbEntity
8
1
62
256
6
ByLayer
370
18
48
1
60
0
100
AcDbEllipse
10
33.89458
20
19.267084
30
0
11
1.11620227655442
21
-0.644780877752067
31
0
210
0
220
0
230
1
40
0.971168
41
-1.58314490995971
42
-0.535947358763113
0
ELLIPSE
5
10F
100
AcDbEntity
8
1
62
256
6
ByLayer
370
18
48
1
60
0
100
AcDbEllipse
10
33.89458
20
19.267084
30
0
11
1.11620227655442
21
-0.644780877752067
31
0
210
0
220
0
230
1
40
0.971168
41
-2.63034246115631
42
-1.58314490995971
0
ELLIPSE
5
110
100
AcDbEntity
8
1
62
256
6
ByLayer
370
18
48
1
60
0
100
AcDbEllipse
10
33.89458
20
19.267084
30
0
11
1.11620227655442
21
-0.644780877752067
31
0
210
0
220
0
230
1
40
0.971168
41
2.60564529482669
42
-2.63034246115631
0
ELLIPSE
5
111
100
AcDbEntity
8
1
62
256
6
ByLayer
370
18
48
1
60
0
100
AcDbEllipse
10
33.89458
20
19.267084
30
0
11
1.11620227655442
21
-0.644780877752067
31
0
210
0
220
0
230
1
40
0.971168
41
1.55844774363008
42
2.60564529482669
0
ELLIPSE
5
112
100
AcDbEntity
8
1
62
256
6
ByLayer
370
18
48
1
60
0
100
AcDbEllipse
10
33.89458
20
19.267084
30
0
11
1.11620227655442
21
-0.644780877752067
31
0
210
0
220
0
230
1
40
0.971168
41
0.511250192433489
42
1.55844774363008
0
ELLIPSE
5
113
100
AcDbEntity
8
1
62
256
6
ByLayer
370
18
48
1
60
0
100
AcDbEllipse
10
33.89458
20
19.267084
30
0
11
-1.29886615323815
21
0.750297751544239
31
0
210
0
220
0
230
1
40
0.971168
41
0
42
6.28318530717959
0
ELLIPSE
5
114
100
AcDbEntity
8
1
62
256
6
ByLayer
370
18
48
1
60
0
100
AcDbEllipse
10
33.863376
20
19.213065
30
0
11
-2.07818584518103
21
1.20047640247078
31
0
210
0
220
0
230
1
40
0.971168
41
2.70653606081913
42
0
0
ELLIPSE
5
115
100
AcDbEntity
8
1
62
256
6
ByLayer
370
18
48
1
60
0
100
AcDbEllipse
10
33.863376
20
19.213065
30
0
11
-2.07818584518103
21
1.20047640247078
31
0
210
0
220
0
230
1
40
0.971168
41
0
42
0.435066581468621
0
ELLIPSE
5
116
100
AcDbEntity
8
1
62
256
6
ByLayer
370
13
48
1
60
0
100
AcDbEllipse
10
33.860282
20
19.207709
30
0
11
2.09896041480031
21
-1.21247695605807
31
0
210
0
220
0
230
1
40
0.971168
41
-0.351313260823455
42
0
0
ELLIPSE
5
117
100
AcDbEntity
8
1
62
256
6
ByLayer
370
13
48
1
60
0
100
AcDbEllipse
10
33.860282
20
19.207709
30
0
11
2.09896041480031
21
-1.21247695605807
31
0
210
0
220
0
230
1
40
0.971168
41
0
42
-2.79026907118925
0
ELLIPSE
5
118
100
AcDbEntity
8
1
62
256
6
ByLayer
370
70
48
1
60
0
100
AcDbEllipse
10
33.878248
20
19.23881
30
0
11
2.16931289276691
21
-1.25311648300417
31
0
210
0
220
0
230
1
40
0.971168
41
3.01529589944437
42
-2.99211654045711
0
ELLIPSE
5
119
100
AcDbEntity
8
1
62
256
6
ByLayer
370
13
48
1
60
0
100
AcDbEllipse
10
33.878248
20
19.23881
30
0
11
2.16931289276691
21
-1.25311648300417
31
0
210
0
220
0
230
1
40
0.971168
41
0.11315145127409
42
3.01529589944437
0
ELLIPSE
5
11A
100
AcDbEntity
8
1
62
256
6
ByLayer
370
70
48
1
60
0
100
AcDbEllipse
10
33.878248
20
19.23881
30
0
11
2.16931289276691
21
-1.25311648300417
31
0
210
0
220
0
230
1
40
0.971168
41
-0.149465897963441
42
0
0
ELLIPSE
5
11B
100
AcDbEntity
8
1
62
256
6
ByLayer
370
70
48
1
60
0
100
AcDbEllipse
10
33.878248
20
19.23881
30
0
11
2.16931289276691
21
-1.25311648300417
31
0
210
0
220
0
230
1
40
0.971168
41
0
42
0.113151557938436
0
ELLIPSE
5
11C
100
AcDbEntity
8
1
62
256
6
ByLayer
370
70
48
1
60
0
100
AcDbEllipse
10
34.04281
20
19.52369
30
0
11
-2.23194000353167
21
1.28929340568043
31
0
210
0
220
0
230
1
40
0.971168
41
0
42
6.28318530717959
0
ELLIPSE
5
11D
100
AcDbEntity
8
1
62
256
6
ByLayer
370
18
48
1
60
0
100
AcDbEllipse
10
32.607107
20
-17.038294
30
0
11
1.60193492232704
21
0.925367226904569
31
0
210
0
220
0
230
1
40
0.971168
41
-0.591164313845902
42
0
0
ELLIPSE
5
11E
100
AcDbEntity
8
1
62
256
6
ByLayer
370
18
48
1
60
0
100
AcDbEllipse
10
32.607107
20
-17.038294
30
0
11
1.60193492232704
21
0.925367226904569
31
0
210
0
220
0
230
1
40
0.971168
41
0
42
1.0595458677819
0
ELLIPSE
5
11F
100
AcDbEntity
8
1
62
256
6
ByLayer
370
18
48
1
60
0
100
AcDbEllipse
10
32.607107
20
-17.038294
30
0
11
1.60193492232704
21
0.925367226904569
31
0
210
0
220
0
230
1
40
0.971168
41
1.05954591360745
42
-2.84466844861235
0
ELLIPSE
5
120
100
AcDbEntity
8
1
62
256
6
ByLayer
370
18
48
1
60
0
100
AcDbEllipse
10
32.607107
20
-17.038294
30
0
11
-1.90500369141594
21
-1.10043670226489
31
0
210
0
220
0
230
1
40
0.971168
41
-2.08204650313687
42
-0.00113406035075805
0
ELLIPSE
5
121
100
AcDbEntity
8
1
62
256
6
ByLayer
370
18
48
1
60
0
100
AcDbEllipse
10
32.607107
20
-17.038294
30
0
11
-1.90500369141594
21
-1.10043670226489
31
0
210
0
220
0
230
1
40
0.971168
41
2.95736268695096
42
-2.08204650313687
0
ELLIPSE
5
122
100
AcDbEntity
8
1
62
256
6
ByLayer
370
18
48
1
60
0
100
AcDbEllipse
10
32.64288
20
-17.100223
30
0
11
2.16477692206357
21
1.25049625257374
31
0
210
0
220
0
230
1
40
0.971168
41
0.132678126448784
42
1.05954606599896
0
ELLIPSE
5
123
100
AcDbEntity
8
1
62
256
6
ByLayer
370
18
48
1
60
0
100
AcDbEllipse
10
32.64288
20
-17.100223
30
0
11
2.16477692206357
21
1.25049625257374
31
0
210
0
220
0
230
1
40
0.971168
41
1.05954606599896
42
2.90474088128472
0
ELLIPSE
5
124
100
AcDbEntity
8
1
62
256
6
ByLayer
370
70
48
1
60
0
100
AcDbEllipse
10
34.04281
20
-0.699832
30
0
11
2.55835074577561
21
0.314125972955677
31
0
210
0
220
0
230
1
40
0.206428
41
0
42
6.28318530717959
0
ELLIPSE
5
125
100
AcDbEntity
8
1
62
256
6
ByLayer
370
18
48
1
60
0
100
AcDbEllipse
10
32.582891
20
-16.996373
30
0
11
-1.16897953791433
21
-0.67526797638982
31
0
210
0
220
0
230
1
40
0.971168
41
0
42
6.28318530717959
0
ELLIPSE
5
126
100
AcDbEntity
8
1
62
256
6
ByLayer
370
70
48
1
60
0
100
AcDbEllipse
10
33.327344
20
-5.127178
30
0
11
5.95527690984793
21
-0.731216060430883
31
0
210
0
220
0
230
1
40
0.206428
41
-0.411144432248617
42
-1.43420211034053E-15
0
ELLIPSE
5
127
100
AcDbEntity
8
1
62
256
6
ByLayer
370
70
48
1
60
0
100
AcDbEllipse
10
33.327344
20
-5.127178
30
0
11
5.95527690984793
21
-0.731216060430883
31
0
210
0
220
0
230
1
40
0.206428
41
0
42
1.04449298540483
0
ELLIPSE
5
128
100
AcDbEntity
8
1
62
256
6
ByLayer
370
70
48
1
60
0
100
AcDbEllipse
10
34.04281
20
0.699832
30
0
11
-5.95527690984793
21
0.731216060430885
31
0
210
0
220
0
230
1
40
0.206428
41
-3.11625183068203
42
-3.08581728271625
0
ELLIPSE
5
129
100
AcDbEntity
8
1
62
256
6
ByLayer
370
18
48
1
60
0
100
AcDbEllipse
10
63.100154
20
20.975021
30
0
11
41.027804156702
21
18.9420616249544
31
0
210
0
220
0
230
1
40
0.006816
41
2.50269246127224
42
2.52170048510253
0
ELLIPSE
5
12A
100
AcDbEntity
8
1
62
256
6
ByLayer
370
18
48
1
60
0
100
AcDbEllipse
10
26.316483
20
-1.410462
30
0
11
1.05628831205963
21
0.129014428276249
31
0
210
0
220
0
230
1
40
0.193994
41
-1.92287374527112
42
1.87549409049519
0
ELLIPSE
5
12B
100
AcDbEntity
8
1
62
256
6
ByLayer
370
18
48
1
60
0
100
AcDbEllipse
10
26.276621
20
-1.415145
30
0
11
0.986489159514992
21
0.121125638286524
31
0
210
0
220
0
230
1
40
0.206428
41
1.85531822332383
42
-1.90599976987509
0
ELLIPSE
5
12C
100
AcDbEntity
8
1
62
256
6
ByLayer
370
18
48
1
60
0
100
AcDbEllipse
10
34.018962
20
-0.505599
30
0
11
-6.2551787504403
21
-0.768039376241999
31
0
210
0
220
0
230
1
40
0.206428
41
-0.374406623674494
42
0.396613159574117
0
ELLIPSE
5
12D
100
AcDbEntity
8
1
62
256
6
ByLayer
370
18
48
1
60
0
100
AcDbEllipse
10
24.61545
20
-3.683533
30
0
11
15.6738780654451
21
-19.9607660246496
31
0
210
0
220
0
230
1
40
0.48653
41
-0.824949918725906
42
-0.783437009225965
0
ELLIPSE
5
12E
100
AcDbEntity
8
1
62
256
6
ByLayer
370
18
48
1
60
0
100
AcDbEllipse
10
18.851606
20
-4.022148
30
0
11
11.8769259088404
21
-20.0026244554802
31
0
210
0
220
0
230
1
40
0.00248
41
0.308111900695184
42
0.345735760039489
0
ELLIPSE
5
12F
100
AcDbEntity
8
1
62
256
6
ByLayer
370
18
48
1
60
0
100
AcDbEllipse
10
31.978868
20
-15.957393
30
0
11
2.56936414851079
21
-0.923149929059311
31
0
210
0
220
0
230
1
40
0.916694
41
-1.56612432030508
42
-1.94875661165548
0
ELLIPSE
5
130
100
AcDbEntity
8
1
62
256
6
ByLayer
370
70
48
1
60
0
100
AcDbEllipse
10
34.04281
20
-19.52369
30
0
11
5.19546461295257
21
3.00119100617698
31
0
210
0
220
0
230
1
40
0.971168
41
-3.10463501356115
42
-5.42302081533332E-05
0
ELLIPSE
5
131
100
AcDbEntity
8
1
62
256
6
ByLayer
370
70
48
1
60
0
100
AcDbEllipse
10
33.327344
20
-18.285121
30
0
11
-5.19546461295257
21
-3.00119100617698
31
0
210
0
220
0
230
1
40
0.971168
41
0.364566890057167
42
3.11444214301527
0
ELLIPSE
5
132
100
AcDbEntity
8
1
62
256
6
ByLayer
370
18
48
1
60
0
100
AcDbEllipse
10
33.158016
20
6.506238
30
0
11
5.45900383402727
21
0.670281388728311
31
0
210
0
220
0
230
1
40
0.206428
41
3.47194978258714E-05
42
0.262729128814528
0
ELLIPSE
5
133
100
AcDbEntity
8
1
62
256
6
ByLayer
370
18
48
1
60
0
100
AcDbEllipse
10
33.158016
20
6.506238
30
0
11
5.45900383402727
21
0.670281388728311
31
0
210
0
220
0
230
1
40
0.206428
41
1.35345196480165
42
2.2010222910473
0
ELLIPSE
5
134
100
AcDbEntity
8
1
62
256
6
ByLayer
370
70
48
1
60
0
100
AcDbEllipse
10
34.04281
20
19.52369
30
0
11
-5.19546461295259
21
3.00119100617695
31
0
210
0
220
0
230
1
40
0.971168
41
2.55917586858743
42
0
0
ELLIPSE
5
135
100
AcDbEntity
8
1
62
256
6
ByLayer
370
70
48
1
60
0
100
AcDbEllipse
10
34.04281
20
19.52369
30
0
11
-5.19546461295259
21
3.00119100617695
31
0
210
0
220
0
230
1
40
0.971168
41
0
42
1.18129295751044
0
ELLIPSE
5
136
100
AcDbEntity
8
1
62
256
6
ByLayer
370
70
48
1
60
0
100
AcDbEllipse
10
33.327344
20
18.285121
30
0
11
5.19546461295259
21
-3.00119100617696
31
0
210
0
220
0
230
1
40
0.971168
41
-0.301342467921702
42
0
0
ELLIPSE
5
137
100
AcDbEntity
8
1
62
256
6
ByLayer
370
70
48
1
60
0
100
AcDbEllipse
10
34.04281
20
-0.699832
30
0
11
5.95527690984793
21
0.731216060430885
31
0
210
0
220
0
230
1
40
0.206428
41
0
42
6.28318530717959
0
ELLIPSE
5
138
100
AcDbEntity
8
1
62
256
6
ByLayer
370
70
48
1
60
0
100
AcDbEllipse
10
33.327344
20
5.127178
30
0
11
-5.95527690984793
21
-0.731216060430894
31
0
210
0
220
0
230
1
40
0.206428
41
-3.14150653369951
42
-0.488529517344011
0
ELLIPSE
5
139
100
AcDbEntity
8
1
62
256
6
ByLayer
370
18
48
1
60
0
100
AcDbEllipse
10
33.158016
20
-6.506238
30
0
11
-5.45900383402727
21
0.670281388728311
31
0
210
0
220
0
230
1
40
0.206428
41
-2.40755304654363
42
-2.23881213407451
0
ELLIPSE
5
13A
100
AcDbEntity
8
1
62
256
6
ByLayer
370
18
48
1
60
0
100
AcDbEllipse
10
33.158016
20
-6.506238
30
0
11
-5.45900383402727
21
0.670281388728311
31
0
210
0
220
0
230
1
40
0.206428
41
-2.91892982077517
42
-2.45989878800626
0
ELLIPSE
5
13B
100
AcDbEntity
8
1
62
256
6
ByLayer
370
18
48
1
60
0
100
AcDbEllipse
10
33.158016
20
-6.506238
30
0
11
-5.45900383402727
21
0.670281388728311
31
0
210
0
220
0
230
1
40
0.206428
41
3.08395125208729
42
-3.03333833655865
0
ELLIPSE
5
13C
100
AcDbEntity
8
1
62
256
6
ByLayer
370
13
48
1
60
0
100
AcDbEllipse
10
26.263467
20
-1.308018
30
0
11
-0.888120954312762
21
-0.459609802452662
31
0
210
0
220
0
230
1
40
0.1855
41
1.14670445393165
42
2.20520330680023
0
ELLIPSE
5
13D
100
AcDbEntity
8
1
62
256
6
ByLayer
370
18
48
1
60
0
100
AcDbEllipse
10
33.983607
20
-0.217657
30
0
11
5.9620418478273
21
0.732046690370217
31
0
210
0
220
0
230
1
40
0.206428
41
3.04309613327611
42
-3.09395883556072
0
ELLIPSE
5
13E
100
AcDbEntity
8
1
62
256
6
ByLayer
370
18
48
1
60
0
100
AcDbEllipse
10
72.24039
20
0
30
0
11
67.3078087315006
21
-4.58237521511923
31
0
210
0
220
0
230
1
40
0.25708
41
-2.52312689357415
42
-2.49345056537618
0
ELLIPSE
5
13F
100
AcDbEntity
8
1
62
256
6
ByLayer
370
18
48
1
60
0
100
AcDbEllipse
10
72.240385
20
3E-06
30
0
11
67.3100885763526
21
-17.4450463750348
31
0
210
0
220
0
230
1
40
0.059575
41
2.52639018418283
42
2.55606651383196
0
ELLIPSE
5
140
100
AcDbEntity
8
1
62
256
6
ByLayer
370
18
48
1
60
0
100
AcDbEllipse
10
26.316483
20
19.674739
30
0
11
1.04379451131168
21
-0.177800099367387
31
0
210
0
220
0
230
1
40
0.921842
41
-1.74342901066431
42
2.05493882510199
0
ELLIPSE
5
141
100
AcDbEntity
8
1
62
256
6
ByLayer
370
18
48
1
60
0
100
AcDbEllipse
10
26.276621
20
19.675734
30
0
11
-0.860626566473524
21
0.49714605014111
31
0
210
0
220
0
230
1
40
0.971168
41
-0.749683464556844
42
1.77218384942381
0
ELLIPSE
5
142
100
AcDbEntity
8
1
62
256
6
ByLayer
370
18
48
1
60
0
100
AcDbEllipse
10
33.983607
20
19.4212
30
0
11
-5.2013664369001
21
3.00460022985007
31
0
210
0
220
0
230
1
40
0.971168
41
0.162184342034618
42
0.763274544802777
0
ELLIPSE
5
143
100
AcDbEntity
8
1
62
256
6
ByLayer
370
13
48
1
60
0
100
AcDbEllipse
10
29.366034
20
21.493962
30
0
11
-1.40546791829548
21
0.524080080371473
31
0
210
0
220
0
230
1
40
0.235266
41
0.603884489800137
42
0.883788171405955
0
ELLIPSE
5
144
100
AcDbEntity
8
1
62
256
6
ByLayer
370
18
48
1
60
0
100
AcDbEllipse
10
34.018962
20
19.482404
30
0
11
5.45710305961833
21
-3.15232800960216
31
0
210
0
220
0
230
1
40
0.971168
41
-2.97940831155517
42
-2.01541039933678
0
ELLIPSE
5
145
100
AcDbEntity
8
1
62
256
6
ByLayer
370
18
48
1
60
0
100
AcDbEllipse
10
18.305374
20
9.407886
30
0
11
12.7403585990701
21
-37.803153687514
31
0
210
0
220
0
230
1
40
0.02
41
-0.56647973921261
42
-0.536867229116701
0
ELLIPSE
5
146
100
AcDbEntity
8
1
62
256
6
ByLayer
370
18
48
1
60
0
100
AcDbEllipse
10
32.501689
20
-16.862467
30
0
11
-2.16477692206357
21
-1.25049625257374
31
0
210
0
220
0
230
1
40
0.971168
41
-3.10070799905796
42
-0.172547418062458
0
ELLIPSE
5
147
100
AcDbEntity
8
1
62
256
6
ByLayer
370
18
48
1
60
0
100
AcDbEllipse
10
32.501689
20
-16.862467
30
0
11
-2.25136799894612
21
-1.30051610267669
31
0
210
0
220
0
230
1
40
0.971168
41
-0.511250229042923
42
-0.247749265568429
0
ELLIPSE
5
148
100
AcDbEntity
8
1
62
256
6
ByLayer
370
18
48
1
60
0
100
AcDbEllipse
10
32.501689
20
-16.862467
30
0
11
-2.25136799894612
21
-1.30051610267669
31
0
210
0
220
0
230
1
40
0.971168
41
-2.98132752510782
42
-0.511250229042935
0
ELLIPSE
5
149
100
AcDbEntity
8
1
62
256
6
ByLayer
370
18
48
1
60
0
100
AcDbEllipse
10
24.61545
20
-5.042003
30
0
11
17.2507327110444
21
-20.9701720466707
31
0
210
0
220
0
230
1
40
0.310499
41
1.69905599399836
42
1.74056890334587
0
ELLIPSE
5
14A
100
AcDbEntity
8
1
62
256
6
ByLayer
370
18
48
1
60
0
100
AcDbEllipse
10
18.851567
20
0.023191
30
0
11
0.110509778383431
21
19.5940669824018
31
0
210
0
220
0
230
1
40
0.60613
41
-1.25755617073166
42
-1.21993237770143
0
ELLIPSE
5
14B
100
AcDbEntity
8
1
62
256
6
ByLayer
370
18
48
1
60
0
100
AcDbEllipse
10
33.158016
20
-17.991992
30
0
11
4.76250922853986
21
2.75109175566223
31
0
210
0
220
0
230
1
40
0.971168
41
-0.898106056797331
42
-0.428337250031084
0
ELLIPSE
5
14C
100
AcDbEntity
8
1
62
256
6
ByLayer
370
18
48
1
60
0
100
AcDbEllipse
10
33.158016
20
-17.991992
30
0
11
4.76250922853986
21
2.75109175566223
31
0
210
0
220
0
230
1
40
0.971168
41
-2.66100057564047
42
-2.21404913355397
0
POINT
5
70
100
AcDbEntity
8
81
62
256
6
ByLayer
370
18
48
1
60
0
100
AcDbPoint
10
40
20
25.4
30
0
39
0
210
0
220
0
230
1
50
360
0
POINT
5
72
100
AcDbEntity
8
80
62
256
6
ByLayer
370
18
48
1
60
0
100
AcDbPoint
10
0
20
0
30
0
39
0
210
0
220
0
230
1
50
360
0
SPLINE
5
14D
100
AcDbEntity
8
1
62
256
6
ByLayer
370
18
48
1
60
0
100
AcDbSpline
70
4
71
3
72
38
73
34
40
0
40
0
40
0
40
0
40
0.0624999999999973
40
0.0624999999999973
40
0.0937499999999966
40
0.0937499999999966
40
0.124999999999996
40
0.124999999999996
40
0.187499999999996
40
0.187499999999996
40
0.249999999999997
40
0.249999999999997
40
0.374999999999997
40
0.374999999999997
40
0.499999999999997
40
0.499999999999997
40
0.562499999999998
40
0.562499999999998
40
0.624999999999998
40
0.624999999999998
40
0.687499999999998
40
0.687499999999998
40
0.749999999999998
40
0.749999999999998
40
0.812499999999998
40
0.812499999999998
40
0.874999999999999
40
0.874999999999999
40
0.906249999999999
40
0.906249999999999
40
0.937499999999999
40
0.937499999999999
40
1
40
1
40
1
40
1
41
1
10
34.172409724303
20
20.3182863952051
30
0
41
1
10
34.165331248366
20
20.3067313673779
30
0
41
1
10
34.156544287187
20
20.2965593387827
30
0
41
1
10
34.1416632469808
20
20.2826605809912
30
0
41
1
10
34.1363948622145
20
20.2782533070049
30
0
41
1
10
34.1255066840723
20
20.2699673519061
30
0
41
1
10
34.11986983783
20
20.2660711742218
30
0
41
1
10
34.1024580953997
20
20.2550185773386
30
0
41
1
10
34.0902291326981
20
20.2485252443676
30
0
41
1
10
34.0650785215689
20
20.2370555271311
30
0
41
1
10
34.0520733877205
20
20.2320465051328
30
0
41
1
10
34.0124611069544
20
20.2190467446114
30
0
41
1
10
33.9851023587387
20
20.2129937734223
30
0
41
1
10
33.9298082007716
20
20.2054334506966
30
0
41
1
10
33.9020404804153
20
20.2039447572542
30
0
41
1
10
33.8604462458386
20
20.2049820961705
30
0
41
1
10
33.8466847253799
20
20.2058762740776
30
0
41
1
10
33.8193677049301
20
20.208766117918
30
0
41
1
10
33.8057782063086
20
20.2107686580952
30
0
41
1
10
33.7789989826642
20
20.2159028199487
30
0
41
1
10
33.7658183677713
20
20.2190283805461
30
0
41
1
10
33.7398937410136
20
20.2264835190561
30
0
41
1
10
33.7271380848665
20
20.2308207985504
30
0
41
1
10
33.7024006718725
20
20.2407547144583
30
0
41
1
10
33.6903505846088
20
20.2463743884889
30
0
41
1
10
33.6672087436972
20
20.259071257346
30
0
41
1
10
33.6561478652682
20
20.2661222351589
30
0
41
1
10
33.6405593743275
20
20.2780171939592
30
0
41
1
10
33.6355597535713
20
20.2821825611817
30
0
41
1
10
33.6260085678333
20
20.2909776867318
30
0
41
1
10
33.6214398689085
20
20.2956273184824
30
0
41
1
10
33.6086899681247
20
20.3102366510983
30
0
41
1
10
33.6014154011292
20
20.3208188440888
30
0
41
1
10
33.5959641777314
20
20.3326805229968
30
0
0
SPLINE
5
14E
100
AcDbEntity
8
1
62
256
6
ByLayer
370
18
48
1
60
0
100
AcDbSpline
70
4
71
3
72
8
73
4
40
0
40
0
40
0
40
0
40
1
40
1
40
1
40
1
41
1
10
34.1839392184373
20
20.3371074337688
30
0
41
1
10
34.1800963708451
20
20.3308342421503
30
0
41
1
10
34.1762532112642
20
20.3245605704914
30
0
41
1
10
34.172409724303
20
20.3182863952051
30
0
0
SPLINE
5
14F
100
AcDbEntity
8
1
62
256
6
ByLayer
370
18
48
1
60
0
100
AcDbSpline
70
4
71
3
72
30
73
26
40
0
40
0
40
0
40
0
40
0.25
40
0.25
40
0.375
40
0.375
40
0.499999999999999
40
0.499999999999999
40
0.624999999999999
40
0.624999999999999
40
0.687499999999999
40
0.687499999999999
40
0.749999999999998
40
0.749999999999998
40
0.781249999999998
40
0.781249999999998
40
0.812499999999998
40
0.812499999999998
40
0.874999999999998
40
0.874999999999998
40
0.906249999999999
40
0.906249999999999
40
0.9375
40
0.9375
40
1
40
1
40
1
40
1
41
1
10
34.5345065267037
20
20.3430593897366
30
0
41
1
10
34.5057650076393
20
20.3601250301922
30
0
41
1
10
34.4756429250488
20
20.3748125839146
30
0
41
1
10
34.428720565604
20
20.3924598801565
30
0
41
1
10
34.4128148597897
20
20.397590743673
30
0
41
1
10
34.3804999929094
20
20.4060184362819
30
0
41
1
10
34.3640955309723
20
20.4093178695029
30
0
41
1
10
34.3309623995596
20
20.4134557205294
30
0
41
1
10
34.3143129897032
20
20.4142923256171
30
0
41
1
10
34.2895628691659
20
20.4129008071548
30
0
41
1
10
34.2813351016923
20
20.4119930498408
30
0
41
1
10
34.2649396414213
20
20.4090258947877
30
0
41
1
10
34.2568480103878
20
20.4069720756229
30
0
41
1
10
34.2451685595581
20
20.4028844849458
30
0
41
1
10
34.2413409045112
20
20.4013513594086
30
0
41
1
10
34.2338357425305
20
20.3978958332241
30
0
41
1
10
34.2301407241513
20
20.3959611819806
30
0
41
1
10
34.2195462522482
20
20.3896221793951
30
0
41
1
10
34.2130776224037
20
20.3846712102013
30
0
41
1
10
34.2044237461088
20
20.3759738208023
30
0
41
1
10
34.2017336876557
20
20.3728732835335
30
0
41
1
10
34.1968806301495
20
20.3664309550852
30
0
41
1
10
34.1946956656415
20
20.3630681310705
30
0
41
1
10
34.1888504313777
20
20.3525644788691
30
0
41
1
10
34.1858986920483
20
20.3449490085218
30
0
41
1
10
34.1839392184373
20
20.3371074337688
30
0
0
SPLINE
5
150
100
AcDbEntity
8
1
62
256
6
ByLayer
370
18
48
1
60
0
100
AcDbSpline
70
4
71
3
72
8
73
4
40
0
40
0
40
0
40
0
40
1
40
1
40
1
40
1
41
1
10
33.5959641777314
20
20.3326805229968
30
0
41
1
10
33.5930026895044
20
20.3391246218485
30
0
41
1
10
33.5900420058271
20
20.3455681888078
30
0
41
1
10
33.5870820872514
20
20.3520112488313
30
0
0
SPLINE
5
151
100
AcDbEntity
8
1
62
256
6
ByLayer
370
18
48
1
60
0
100
AcDbSpline
70
4
71
3
72
42
73
38
40
0
40
0
40
0
40
0
40
0.0625000000000001
40
0.0625000000000001
40
0.0937500000000001
40
0.0937500000000001
40
0.125
40
0.125
40
0.187500000000001
40
0.187500000000001
40
0.218750000000001
40
0.218750000000001
40
0.25
40
0.25
40
0.375000000000001
40
0.375000000000001
40
0.437500000000001
40
0.437500000000001
40
0.500000000000001
40
0.500000000000001
40
0.5625
40
0.5625
40
0.625
40
0.625
40
0.6875
40
0.6875
40
0.75
40
0.75
40
0.812499999999999
40
0.812499999999999
40
0.874999999999999
40
0.874999999999999
40
0.906249999999999
40
0.906249999999999
40
0.937499999999999
40
0.937499999999999
40
1
40
1
40
1
40
1
41
1
10
34.6862842294349
20
20.0131669085069
30
0
41
1
10
34.6795070068566
20
20.0013416259632
30
0
41
1
10
34.6747828738471
20
19.9886700367891
30
0
41
1
10
34.669720992992
20
19.9688134268114
30
0
41
1
10
34.6683826466245
20
19.962027096792
30
0
41
1
10
34.6663500629473
20
19.9484681735522
30
0
41
1
10
34.6656458815057
20
19.9416626181809
30
0
41
1
10
34.6643241237609
20
19.9211768099296
30
0
41
1
10
34.6644886676749
20
19.9074280846806
30
0
41
1
10
34.6659921093247
20
19.8866837459271
30
0
41
1
10
34.6667081700917
20
19.8797366862462
30
0
41
1
10
34.668510240468
20
19.865974568763
30
0
41
1
10
34.6695971488298
20
19.8591384661802
30
0
41
1
10
34.6758752961572
20
19.8251610652276
30
0
41
1
10
34.6835339166911
20
19.7986133744789
30
0
41
1
10
34.6983276445783
20
19.759574626279
30
0
41
1
10
34.7038256736746
20
19.7467009462731
30
0
41
1
10
34.7157553622857
20
19.7215887969047
30
0
41
1
10
34.7222046939215
20
19.7093010377498
30
0
41
1
10
34.73606693105
20
19.6852602516144
30
0
41
1
10
34.7434312588761
20
19.6735917673723
30
0
41
1
10
34.7590250641007
20
19.65096931242
30
0
41
1
10
34.7672775550558
20
19.6399873687666
30
0
41
1
10
34.7845829425448
20
19.6189158883098
30
0
41
1
10
34.7936251506086
20
19.608832767472
30
0
41
1
10
34.8125560281924
20
19.5896295627417
30
0
41
1
10
34.8224577098858
20
19.580502279793
30
0
41
1
10
34.8429952846063
20
19.5635334414781
30
0
41
1
10
34.8536835190513
20
19.5556432067125
30
0
41
1
10
34.8758820619732
20
19.5414040795617
30
0
41
1
10
34.8873528788776
20
19.5350708091131
30
0
41
1
10
34.9052380685764
20
19.5270848522933
30
0
41
1
10
34.9112815906628
20
19.5246919081097
30
0
41
1
10
34.9235618377736
20
19.5205229375657
30
0
41
1
10
34.9298242074117
20
19.518741378857
30
0
41
1
10
34.9487347374708
20
19.5145542764771
30
0
41
1
10
34.961495224252
20
19.5132448034989
30
0
41
1
10
34.9745070027208
20
19.5141532854094
30
0
0
SPLINE
5
152
100
AcDbEntity
8
1
62
256
6
ByLayer
370
18
48
1
60
0
100
AcDbSpline
70
4
71
3
72
8
73
4
40
0
40
0
40
0
40
0
40
1
40
1
40
1
40
1
41
1
10
34.9745070027208
20
19.5141532854094
30
0
41
1
10
34.98156818497
20
19.5146462969031
30
0
41
1
10
34.9886285046121
20
19.5151397664
30
0
41
1
10
34.9956880029693
20
19.5156336708981
30
0
0
SPLINE
5
153
100
AcDbEntity
8
1
62
256
6
ByLayer
370
18
48
1
60
0
100
AcDbSpline
70
4
71
3
72
28
73
24
40
0
40
0
40
0
40
0
40
0.0625000000000004
40
0.0625000000000004
40
0.125000000000001
40
0.125000000000001
40
0.156250000000001
40
0.156250000000001
40
0.187500000000002
40
0.187500000000002
40
0.250000000000002
40
0.250000000000002
40
0.312500000000001
40
0.312500000000001
40
0.375000000000001
40
0.375000000000001
40
0.5
40
0.5
40
0.625000000000001
40
0.625000000000001
40
0.750000000000001
40
0.750000000000001
40
1
40
1
40
1
40
1
41
1
10
34.6972594373761
20
20.0323170615082
30
0
41
1
10
34.7031911831494
20
20.0377958901067
30
0
41
1
10
34.7083368536895
20
20.0438891465372
30
0
41
1
10
34.7169046801964
20
20.0574211411574
30
0
41
1
10
34.7203253784112
20
20.064962134198
30
0
41
1
10
34.7237906979617
20
20.0766200096729
30
0
41
1
10
34.7246878975909
20
20.0805860786408
30
0
41
1
10
34.7259890624881
20
20.0886705361595
30
0
41
1
10
34.7263920259346
20
20.0928136531778
30
0
41
1
10
34.7268825418693
20
20.1051639344347
30
0
41
1
10
34.7262821886
20
20.1133581981787
30
0
41
1
10
34.7236179772931
20
20.129679892568
30
0
41
1
10
34.7215336894871
20
20.1378226255056
30
0
41
1
10
34.7163331796112
20
20.1535391971841
30
0
41
1
10
34.7132059970022
20
20.1611896196331
30
0
41
1
10
34.7025737128461
20
20.1836442539499
30
0
41
1
10
34.6937897275054
20
20.1979954114802
30
0
41
1
10
34.674330948792
20
20.2250652803604
30
0
41
1
10
34.6635624677295
20
20.2379185728552
30
0
41
1
10
34.640698585104
20
20.2622591155716
30
0
41
1
10
34.6285574466255
20
20.2737921779379
30
0
41
1
10
34.5906078480558
20
20.3065430575144
30
0
41
1
10
34.5632617008139
20
20.325985641425
30
0
41
1
10
34.5345065267037
20
20.3430593897366
30
0
0
SPLINE
5
154
100
AcDbEntity
8
1
62
256
6
ByLayer
370
18
48
1
60
0
100
AcDbSpline
70
4
71
3
72
8
73
4
40
0
40
0
40
0
40
0
40
1
40
1
40
1
40
1
41
1
10
34.6862842294349
20
20.0131669085069
30
0
41
1
10
34.68994292409
20
20.0195508065622
30
0
41
1
10
34.693601322103
20
20.0259341827388
30
0
41
1
10
34.6972594373761
20
20.0323170615082
30
0
0
SPLINE
5
155
100
AcDbEntity
8
1
62
256
6
ByLayer
370
18
48
1
60
0
100
AcDbSpline
70
4
71
3
72
28
73
24
40
0
40
0
40
0
40
0
40
0.0625000000000006
40
0.0625000000000006
40
0.125000000000001
40
0.125000000000001
40
0.156250000000001
40
0.156250000000001
40
0.1875
40
0.1875
40
0.25
40
0.25
40
0.3125
40
0.3125
40
0.375
40
0.375
40
0.5
40
0.5
40
0.625
40
0.625
40
0.75
40
0.75
40
1
40
1
40
1
40
1
41
1
10
33.5870820872514
20
20.3520112488313
30
0
41
1
10
33.5861281723412
20
20.3599219277945
30
0
41
1
10
33.5842422561224
20
20.3674824128187
30
0
41
1
10
33.5784294747632
20
20.3818346694451
30
0
41
1
10
33.5744211281037
20
20.3886784519183
30
0
41
1
10
33.5671929155781
20
20.3977043007777
30
0
41
1
10
33.5645744527443
20
20.4005347427586
30
0
41
1
10
33.5589393343188
20
20.405854402879
30
0
41
1
10
33.5559026395005
20
20.4083556448813
30
0
41
1
10
33.5464511995339
20
20.4152056616014
30
0
41
1
10
33.5396601928508
20
20.4189611649882
30
0
41
1
10
33.5253162403232
20
20.4251893910871
30
0
41
1
10
33.5177398848514
20
20.4276526616551
30
0
41
1
10
33.5024678599057
20
20.4314028828889
30
0
41
1
10
33.4947056811235
20
20.4327203715569
30
0
41
1
10
33.4711308351838
20
20.435347446344
30
0
41
1
10
33.4549807146774
20
20.4353303231012
30
0
41
1
10
33.4229762721907
20
20.432832782068
30
0
41
1
10
33.4069639516568
20
20.4303425591668
30
0
41
1
10
33.375344877826
20
20.4235183272714
30
0
41
1
10
33.3596768927018
20
20.4191691711029
30
0
41
1
10
33.3133846237583
20
20.40385636907
30
0
41
1
10
33.283409174315
20
20.3906556212629
30
0
41
1
10
33.2546540002047
20
20.3750179345299
30
0
0
SPLINE
5
156
100
AcDbEntity
8
1
62
256
6
ByLayer
370
18
48
1
60
0
100
AcDbSpline
70
4
71
3
72
28
73
24
40
0
40
0
40
0
40
0
40
0.0624999999999994
40
0.0624999999999994
40
0.124999999999999
40
0.124999999999999
40
0.156249999999998
40
0.156249999999998
40
0.187499999999998
40
0.187499999999998
40
0.249999999999999
40
0.249999999999999
40
0.312499999999999
40
0.312499999999999
40
0.375
40
0.375
40
0.5
40
0.5
40
0.625
40
0.625
40
0.75
40
0.75
40
1
40
1
40
1
40
1
41
1
10
34.9956880029693
20
19.5156336708981
30
0
41
1
10
35.0030759904744
20
19.5185912397971
30
0
41
1
10
35.0106020252134
20
19.5205632599016
30
0
41
1
10
35.0259547604891
20
19.5223482233333
30
0
41
1
10
35.0338659389728
20
19.5221146369993
30
0
41
1
10
35.045226450479
20
19.5201031958621
30
0
41
1
10
35.0489569311197
20
19.5191638723563
30
0
41
1
10
35.0563089032033
20
19.5167722832313
30
0
41
1
10
35.0599504974617
20
19.5153082066301
30
0
41
1
10
35.0704652607809
20
19.5103030376249
30
0
41
1
10
35.0769980395452
20
19.5061473748884
30
0
41
1
10
35.0893027954924
20
19.4965525932884
30
0
41
1
10
35.0950776587744
20
19.4910884088605
30
0
41
1
10
35.1056530695579
20
19.4794913882222
30
0
41
1
10
35.1105121269665
20
19.4733148582736
30
0
41
1
10
35.1240647484183
20
19.453897029724
30
0
41
1
10
35.131756040069
20
19.4397237664763
30
0
41
1
10
35.1448368770666
20
19.410456270529
30
0
41
1
10
35.1502932253726
20
19.3952187539773
30
0
41
1
10
35.159394692164
20
19.3642161860705
30
0
41
1
10
35.1630557479481
20
19.3483901673968
30
0
41
1
10
35.1717112642312
20
19.3004514229284
30
0
41
1
10
35.1744327899531
20
19.2678364325788
30
0
41
1
10
35.1744327899531
20
19.2351249975341
30
0
0
SPLINE
5
157
100
AcDbEntity
8
1
62
256
6
ByLayer
370
18
48
1
60
0
100
AcDbSpline
70
4
71
3
72
8
73
4
40
0
40
0
40
0
40
0
40
1
40
1
40
1
40
1
41
1
10
36.6015239853731
20
-5.40244318211415
30
0
41
1
10
36.5955488617358
20
-5.33492206330737
30
0
41
1
10
36.5898032160741
20
-5.26738594566342
30
0
41
1
10
36.584289167781
20
-5.19983469065727
30
0
0
SPLINE
5
158
100
AcDbEntity
8
1
62
256
6
ByLayer
370
18
48
1
60
0
100
AcDbSpline
70
4
71
3
72
10
73
6
40
0
40
0
40
0
40
0
40
0.5
40
0.5
40
1
40
1
40
1
40
1
41
1
10
36.584289167781
20
-5.53889356496609
30
0
41
1
10
36.585591669669
20
-5.51443437160708
30
0
41
1
10
36.5876702337733
20
-5.49078576053285
30
0
41
1
10
36.5934178322049
20
-5.44515576638815
30
0
41
1
10
36.5971210356263
20
-5.42306644875976
30
0
41
1
10
36.6015239853731
20
-5.40244318211415
30
0
0
SPLINE
5
159
100
AcDbEntity
8
1
62
256
6
ByLayer
370
18
48
1
60
0
100
AcDbSpline
70
4
71
3
72
8
73
4
40
0
40
0
40
0
40
0
40
1
40
1
40
1
40
1
41
1
10
37.3735908302668
20
-6.25721262211209
30
0
41
1
10
37.7503634202926
20
-6.46987144670908
30
0
41
1
10
38.127638377002
20
-6.68253997126027
30
0
41
1
10
38.5052369440731
20
-6.89521474424669
30
0
0
SPLINE
5
15A
100
AcDbEntity
8
1
62
256
6
ByLayer
370
18
48
1
60
0
100
AcDbSpline
70
4
71
3
72
8
73
4
40
0
40
0
40
0
40
0
40
1
40
1
40
1
40
1
41
1
10
37.3735908302668
20
-6.25721262211209
30
0
41
1
10
37.333110979559
20
-6.36372397281161
30
0
41
1
10
37.2936684110937
20
-6.47045163162841
30
0
41
1
10
37.2553259855149
20
-6.57740870711382
30
0
0
SPLINE
5
15B
100
AcDbEntity
8
1
62
256
6
ByLayer
370
18
48
1
60
0
100
AcDbSpline
70
4
71
3
72
49
73
45
40
0
40
0
40
0
40
0
40
0.0625000000000045
40
0.0625000000000045
40
0.093750000000007
40
0.093750000000007
40
0.125000000000009
40
0.125000000000009
40
0.187500000000011
40
0.187500000000011
40
0.218750000000011
40
0.218750000000011
40
0.250000000000012
40
0.250000000000012
40
0.281250000000012
40
0.281250000000012
40
0.312500000000013
40
0.312500000000013
40
0.375000000000014
40
0.375000000000014
40
0.406250000000016
40
0.406250000000016
40
0.437500000000017
40
0.437500000000017
40
0.500000000000017
40
0.562500000000018
40
0.562500000000018
40
0.59375000000002
40
0.59375000000002
40
0.625000000000021
40
0.625000000000021
40
0.687500000000022
40
0.687500000000022
40
0.718750000000021
40
0.718750000000021
40
0.75000000000002
40
0.75000000000002
40
0.812500000000015
40
0.812500000000015
40
0.87500000000001
40
0.87500000000001
40
0.937500000000005
40
0.937500000000005
40
1
40
1
40
1
40
1
41
1
10
37.2553259855149
20
-6.57740870711382
30
0
41
1
10
37.246101554136
20
-6.60314046999531
30
0
41
1
10
37.2355487651451
20
-6.62526465708004
30
0
41
1
10
37.2178365985476
20
-6.6534045493708
30
0
41
1
10
37.2116167978805
20
-6.66193826447898
30
0
41
1
10
37.1985427185195
20
-6.67731705941054
30
0
41
1
10
37.1916775170891
20
-6.68415916122274
30
0
41
1
10
37.1705202493189
20
-6.70183084176205
30
0
41
1
10
37.155552394808
20
-6.70998265165116
30
0
41
1
10
37.1318651538572
20
-6.71711071409584
30
0
41
1
10
37.1237623982063
20
-6.71863198291129
30
0
41
1
10
37.1071404221583
20
-6.71996922259524
30
0
41
1
10
37.0986813204811
20
-6.71977921435092
30
0
41
1
10
37.0815096263173
20
-6.7177378779333
30
0
41
1
10
37.0727617859247
20
-6.71587563463208
30
0
41
1
10
37.0552033333828
20
-6.7105861332908
30
0
41
1
10
37.046373519563
20
-6.70716076020307
30
0
41
1
10
37.0197368417594
20
-6.69465635522511
30
0
41
1
10
37.0017833458082
20
-6.68336187389014
30
0
41
1
10
36.974565052825
20
-6.66216816240416
30
0
41
1
10
36.965444122315
20
-6.65439156135653
30
0
41
1
10
36.9471050124679
20
-6.6374063031073
30
0
41
1
10
36.9378676249027
20
-6.62817228980447
30
0
41
1
10
36.9104186904569
20
-6.59874200877925
30
0
41
1
10
36.8742647907537
20
-6.55470183444174
30
0
41
1
10
36.8389826365399
20
-6.50140074316863
30
0
41
1
10
36.8128707159525
20
-6.45782855931787
30
0
41
1
10
36.8042676740473
20
-6.44276858678734
30
0
41
1
10
36.7874238754831
20
-6.41187055501291
30
0
41
1
10
36.779158287915
20
-6.39599144587157
30
0
41
1
10
36.7548319787293
20
-6.34707058841167
30
0
41
1
10
36.7392385116345
20
-6.3127534876412
30
0
41
1
10
36.7168451000152
20
-6.25860883268484
30
0
41
1
10
36.7095475182587
20
-6.24011383417729
30
0
41
1
10
36.6953069679817
20
-6.20218397520341
30
0
41
1
10
36.6884116512831
20
-6.18286944160275
30
0
41
1
10
36.6686113666798
20
-6.12444730977739
30
0
41
1
10
36.6564996572232
20
-6.08463580911149
30
0
41
1
10
36.6345632860071
20
-6.00321699694581
30
0
41
1
10
36.6247361381292
20
-5.96161157671969
30
0
41
1
10
36.6076782226543
20
-5.87637927657022
30
0
41
1
10
36.6007248730334
20
-5.83411892404496
30
0
41
1
10
36.5900287035255
20
-5.75040708168677
30
0
41
1
10
36.5862805139641
20
-5.70893900049731
30
0
41
1
10
36.5842891677809
20
-5.66789456102265
30
0
0
SPLINE
5
15C
100
AcDbEntity
8
1
62
256
6
ByLayer
370
18
48
1
60
0
100
AcDbSpline
70
4
71
3
72
8
73
4
40
0
40
0
40
0
40
0
40
1
40
1
40
1
40
1
41
1
10
36.5842891677809
20
-5.53889356496609
30
0
41
1
10
36.5844098282999
20
-5.58003134423683
30
0
41
1
10
36.5843782086636
20
-5.62327781601505
30
0
41
1
10
36.584289167781
20
-5.66789456102265
30
0
0
SPLINE
5
15D
100
AcDbEntity
8
1
62
256
6
ByLayer
370
18
48
1
60
0
100
AcDbSpline
70
4
71
3
72
8
73
4
40
0
40
0
40
0
40
0
40
1
40
1
40
1
40
1
41
1
10
36.5455074332741
20
-4.63852996217292
30
0
41
1
10
36.5562396045591
20
-4.82576733215427
30
0
41
1
10
36.5690282952784
20
-5.01287747968809
30
0
41
1
10
36.584289167781
20
-5.19983469065727
30
0
0
SPLINE
5
15E
100
AcDbEntity
8
1
62
256
6
ByLayer
370
18
48
1
60
0
100
AcDbSpline
70
4
71
3
72
22
73
18
40
0
40
0
40
0
40
0
40
0.124999999999991
40
0.124999999999991
40
0.18749999999999
40
0.18749999999999
40
0.249999999999989
40
0.249999999999989
40
0.499999999999996
40
0.499999999999996
40
0.624999999999994
40
0.624999999999994
40
0.687499999999994
40
0.687499999999994
40
0.749999999999993
40
0.749999999999993
40
1
40
1
40
1
40
1
41
1
10
36.3864156877908
20
-4.1485232145107
30
0
41
1
10
36.3896593944918
20
-4.17383609745951
30
0
41
1
10
36.39326971046
20
-4.19878563311113
30
0
41
1
10
36.3993031183338
20
-4.23566268974719
30
0
41
1
10
36.4014174661884
20
-4.24786367231587
30
0
41
1
10
36.4058667716495
20
-4.27208058598421
30
0
41
1
10
36.4082070274701
20
-4.28412196368794
30
0
41
1
10
36.4204382340162
20
-4.34355760180574
30
0
41
1
10
36.4317733326361
20
-4.38804951354297
30
0
41
1
10
36.4515151462565
20
-4.45046949437113
30
0
41
1
10
36.4585540730268
20
-4.47055159506999
30
0
41
1
10
36.4698701248931
20
-4.49958064301438
30
0
41
1
10
36.4737746827356
20
-4.50908615211381
30
0
41
1
10
36.4817675060135
20
-4.52754585383298
30
0
41
1
10
36.4858642240142
20
-4.53652325254893
30
0
41
1
10
36.5068591819306
20
-4.58018228974709
30
0
41
1
10
36.5252868315038
20
-4.6112082162262
30
0
41
1
10
36.5455074332741
20
-4.63852996217292
30
0
0
SPLINE
5
15F
100
AcDbEntity
8
1
62
256
6
ByLayer
370
18
48
1
60
0
100
AcDbSpline
70
4
71
3
72
32
73
28
40
0
40
0
40
0
40
0
40
0.125000000000007
40
0.125000000000007
40
0.187500000000009
40
0.187500000000009
40
0.250000000000011
40
0.250000000000011
40
0.375000000000011
40
0.375000000000011
40
0.500000000000011
40
0.500000000000011
40
0.625000000000011
40
0.625000000000011
40
0.687500000000015
40
0.687500000000015
40
0.718750000000016
40
0.718750000000016
40
0.750000000000018
40
0.750000000000018
40
0.875000000000005
40
0.875000000000005
40
0.937500000000003
40
0.937500000000003
40
0.968750000000001
40
0.968750000000001
40
1
40
1
40
1
40
1
41
1
10
36.3864156877908
20
-4.1485232145107
30
0
41
1
10
36.3726651180124
20
-4.09583299362231
30
0
41
1
10
36.3613862167585
20
-4.04046217533306
30
0
41
1
10
36.3474089053005
20
-3.95311285199938
30
0
41
1
10
36.3432406636447
20
-3.92327976126887
30
0
41
1
10
36.3357662848189
20
-3.86211344189081
30
0
41
1
10
36.3324567928934
20
-3.83074368712818
30
0
41
1
10
36.3236709986978
20
-3.73447711220985
30
0
41
1
10
36.3194704330713
20
-3.66913582998859
30
0
41
1
10
36.313161800026
20
-3.53617286851966
30
0
41
1
10
36.3110537986444
20
-3.46850763597115
30
0
41
1
10
36.3081561557334
20
-3.33094056183688
30
0
41
1
10
36.3074024008084
20
-3.26325358774847
30
0
41
1
10
36.3069531791451
20
-3.1633328221414
30
0
41
1
10
36.3069222053199
20
-3.13029584762256
30
0
41
1
10
36.3070553271876
20
-3.08115689195682
30
0
41
1
10
36.3071299555995
20
-3.06484677450737
30
0
41
1
10
36.3073441074167
20
-3.03236907228973
30
0
41
1
10
36.3074840708681
20
-3.01617895117698
30
0
41
1
10
36.3083529392607
20
-2.93649368493703
30
0
41
1
10
36.3095665227449
20
-2.87607383794034
30
0
41
1
10
36.3126598104626
20
-2.79040109686974
30
0
41
1
10
36.3139079363482
20
-2.76267522335331
30
0
41
1
10
36.3162170805944
20
-2.72237975808002
30
0
41
1
10
36.3170617606752
20
-2.70914160154837
30
0
41
1
10
36.3189092389804
20
-2.68326603258299
30
0
41
1
10
36.3199122477281
20
-2.67061898859288
30
0
41
1
10
36.3210049200901
20
-2.65826309353184
30
0
0
SPLINE
5
160
100
AcDbEntity
8
1
62
256
6
ByLayer
370
18
48
1
60
0
100
AcDbSpline
70
4
71
3
72
12
73
8
40
0
40
0
40
0
40
0
40
0.5
40
0.5
40
0.75
40
0.75
40
1
40
1
40
1
40
1
41
1
10
36.3210049200902
20
-2.6582630935319
30
0
41
1
10
36.3317972342039
20
-2.53622404020757
30
0
41
1
10
36.3472767917851
20
-2.41620009280149
30
0
41
1
10
36.3800318951901
20
-2.24125294149292
30
0
41
1
10
36.3925472711013
20
-2.18379900541817
30
0
41
1
10
36.4213232440144
20
-2.07115306381593
30
0
41
1
10
36.4375860410372
20
-2.01595284463343
30
0
41
1
10
36.4560366578012
20
-1.96232063550417
30
0
0
SPLINE
5
161
100
AcDbEntity
8
1
62
256
6
ByLayer
370
18
48
1
60
0
100
AcDbSpline
70
4
71
3
72
8
73
4
40
0
40
0
40
0
40
0
40
1
40
1
40
1
40
1
41
1
10
36.4573240377857
20
-1.92138306362926
30
0
41
1
10
36.456797505009
20
-1.93499921953094
30
0
41
1
10
36.4563694993105
20
-1.94864530179586
30
0
41
1
10
36.456036657799
20
-1.96232063550406
30
0
0
SPLINE
5
162
100
AcDbEntity
8
1
62
256
6
ByLayer
370
18
48
1
60
0
100
AcDbSpline
70
4
71
3
72
8
73
4
40
0
40
0
40
0
40
0
40
1
40
1
40
1
40
1
41
1
10
36.4592055902081
20
-1.70248724533269
30
0
41
1
10
36.4559104866416
20
-1.77458604232265
30
0
41
1
10
36.4553656567226
20
-1.84757420300502
30
0
41
1
10
36.4573240377858
20
-1.92138306362932
30
0
0
SPLINE
5
163
100
AcDbEntity
8
1
62
256
6
ByLayer
370
18
48
1
60
0
100
AcDbSpline
70
4
71
3
72
8
73
4
40
0
40
0
40
0
40
0
40
1
40
1
40
1
40
1
41
1
10
36.4597182247896
20
-1.55391863920301
30
0
41
1
10
36.4583349128969
20
-1.60304459381052
30
0
41
1
10
36.4581941958114
20
-1.65257490470287
30
0
41
1
10
36.4592055902081
20
-1.70248724533269
30
0
0
SPLINE
5
164
100
AcDbEntity
8
1
62
256
6
ByLayer
370
18
48
1
60
0
100
AcDbSpline
70
4
71
3
72
14
73
10
40
0
40
0
40
0
40
0
40
0.124999999999998
40
0.124999999999998
40
0.249999999999995
40
0.249999999999995
40
0.499999999999991
40
0.499999999999991
40
1
40
1
40
1
40
1
41
1
10
38.5052369440731
20
-12.4676154891042
30
0
41
1
10
38.5128932816398
20
-12.4704057389531
30
0
41
1
10
38.5201331261497
20
-12.473356313117
30
0
41
1
10
38.5337599426092
20
-12.4795857651388
30
0
41
1
10
38.5401488951836
20
-12.4828682201991
30
0
41
1
10
38.5578262521526
20
-12.4931126751204
30
0
41
1
10
38.5677023256919
20
-12.5005005905641
30
0
41
1
10
38.5916096860726
20
-12.5243375258674
30
0
41
1
10
38.6
20
-12.5424363699284
30
0
41
1
10
38.6
20
-12.5629891422719
30
0
0
SPLINE
5
165
100
AcDbEntity
8
1
62
256
6
ByLayer
370
18
48
1
60
0
100
AcDbSpline
70
4
71
3
72
8
73
4
40
0
40
0
40
0
40
0
40
1
40
1
40
1
40
1
41
1
10
38.2159176145549
20
-12.3606290744
30
0
41
1
10
38.3116133084617
20
-12.3965549072366
30
0
41
1
10
38.4080833395117
20
-12.4322091570185
30
0
41
1
10
38.5052369440731
20
-12.4676154891042
30
0
0
SPLINE
5
166
100
AcDbEntity
8
1
62
256
6
ByLayer
370
18
48
1
60
0
100
AcDbSpline
70
4
71
3
72
38
73
34
40
0
40
0
40
0
40
0
40
0.0624999999999975
40
0.0624999999999975
40
0.093749999999997
40
0.093749999999997
40
0.124999999999997
40
0.124999999999997
40
0.187499999999997
40
0.187499999999997
40
0.249999999999998
40
0.249999999999998
40
0.374999999999998
40
0.374999999999998
40
0.499999999999998
40
0.499999999999998
40
0.562499999999998
40
0.562499999999998
40
0.624999999999998
40
0.624999999999998
40
0.687499999999999
40
0.687499999999999
40
0.749999999999999
40
0.749999999999999
40
0.812499999999999
40
0.812499999999999
40
0.874999999999999
40
0.874999999999999
40
0.906249999999999
40
0.906249999999999
40
0.937499999999999
40
0.937499999999999
40
1
40
1
40
1
40
1
41
1
10
33.0820896725994
20
20.0532244327452
30
0
41
1
10
33.0872034600168
20
20.0411713819839
30
0
41
1
10
33.0903960788631
20
20.0283801671513
30
0
41
1
10
33.0932997666337
20
20.008449391642
30
0
41
1
10
33.0939416114538
20
20.0016603417291
30
0
41
1
10
33.0946524322676
20
19.9880573653887
30
0
41
1
10
33.0947259083547
20
19.9812197828991
30
0
41
1
10
33.094222315278
20
19.96061011155
30
0
41
1
10
33.0929248835567
20
19.9467954486178
30
0
41
1
10
33.0888781840379
20
19.9193637992698
30
0
41
1
10
33.0861113975403
20
19.9056585836896
30
0
41
1
10
33.0760640468103
20
19.8650874091801
30
0
41
1
10
33.0670276842785
20
19.8385872696626
30
0
41
1
10
33.0455299988388
20
19.7874564222415
30
0
41
1
10
33.0331359649544
20
19.7629785703136
30
0
41
1
10
33.0123397302979
20
19.7280095030406
30
0
41
1
10
33.0050823639323
20
19.7167261347564
30
0
41
1
10
32.9899109033621
20
19.6949074795152
30
0
41
1
10
32.9819756890225
20
19.6843467396517
30
0
41
1
10
32.965514853606
20
19.6641531839699
30
0
41
1
10
32.956997845671
20
19.6545249959182
30
0
41
1
10
32.9393254148803
20
19.6362670959583
30
0
41
1
10
32.930159030801
20
19.6276314451357
30
0
41
1
10
32.9112913268186
20
19.6116755830119
30
0
41
1
10
32.9015411254942
20
19.6043090083759
30
0
41
1
10
32.8814267584778
20
19.5911520990019
30
0
41
1
10
32.8710963280235
20
19.5853744917031
30
0
41
1
10
32.8550868591482
20
19.5782502948924
30
0
41
1
10
32.8496926006458
20
19.5761476346822
30
0
41
1
10
32.8387630393413
20
19.5725665464279
30
0
41
1
10
32.833205075985
20
19.571083825041
30
0
41
1
10
32.8164710710876
20
19.5677959047432
30
0
41
1
10
32.8052409474864
20
19.5670888785114
30
0
41
1
10
32.7938668993136
20
19.5686049374394
30
0
0
SPLINE
5
167
100
AcDbEntity
8
1
62
256
6
ByLayer
370
18
48
1
60
0
100
AcDbSpline
70
4
71
3
72
8
73
4
40
0
40
0
40
0
40
0
40
1
40
1
40
1
40
1
41
1
10
33.0737618683125
20
20.0728565914215
30
0
41
1
10
33.0765370545691
20
20.0663130699601
30
0
41
1
10
33.0793129766785
20
20.0597690256569
30
0
41
1
10
33.0820896725994
20
20.0532244327452
30
0
0
SPLINE
5
168
100
AcDbEntity
8
1
62
256
6
ByLayer
370
18
48
1
60
0
100
AcDbSpline
70
4
71
3
72
30
73
26
40
0
40
0
40
0
40
0
40
0.250000000000001
40
0.250000000000001
40
0.375000000000001
40
0.375000000000001
40
0.500000000000001
40
0.500000000000001
40
0.625000000000001
40
0.625000000000001
40
0.687500000000001
40
0.687500000000001
40
0.750000000000001
40
0.750000000000001
40
0.78125
40
0.78125
40
0.8125
40
0.8125
40
0.874999999999998
40
0.874999999999998
40
0.90625
40
0.90625
40
0.937500000000001
40
0.937500000000001
40
1
40
1
40
1
40
1
41
1
10
33.2546540002047
20
20.3750179345299
30
0
41
1
10
33.2259124811403
20
20.3593876737066
30
0
41
1
10
33.1984134378337
20
20.3413399396073
30
0
41
1
10
33.1598302007986
20
20.3104998128154
30
0
41
1
10
33.1474425888597
20
20.2996020931531
30
0
41
1
10
33.1238787865952
20
20.2764216109161
30
0
41
1
10
33.1127032788235
20
20.2641442100974
30
0
41
1
10
33.0921316292767
20
20.2380310249932
30
0
41
1
10
33.0827788246564
20
20.2242619120333
30
0
41
1
10
33.0709282650396
20
20.2024214337319
30
0
41
1
10
33.0673353986278
20
20.1949291439094
30
0
41
1
10
33.0610704543213
20
20.179396293144
30
0
41
1
10
33.0584337580776
20
20.1714235303858
30
0
41
1
10
33.055488867768
20
20.1593310638531
30
0
41
1
10
33.0546720718547
20
20.1552673255187
30
0
41
1
10
33.0534138494245
20
20.1470653477222
30
0
41
1
10
33.0529726819746
20
20.1429057912814
30
0
41
1
10
33.0523110045545
20
20.1305672327527
30
0
41
1
10
33.0527301434881
20
20.1224713324842
30
0
41
1
10
33.0548641422234
20
20.1105611970719
30
0
41
1
10
33.055828623752
20
20.1066523526694
30
0
41
1
10
33.0582116914179
20
20.0991588382113
30
0
41
1
10
33.0596349039342
20
20.0955444803999
30
0
41
1
10
33.0645836196552
20
20.08509088731
30
0
41
1
10
33.0688324993664
20
20.0786092275975
30
0
41
1
10
33.0737618683125
20
20.0728565914215
30
0
0
SPLINE
5
169
100
AcDbEntity
8
1
62
256
6
ByLayer
370
18
48
1
60
0
100
AcDbSpline
70
4
71
3
72
8
73
4
40
0
40
0
40
0
40
0
40
1
40
1
40
1
40
1
41
1
10
32.7938668993136
20
19.5686049374394
30
0
41
1
10
32.7876877157986
20
19.5694285673549
30
0
41
1
10
32.7815098720602
20
19.5702526002789
30
0
41
1
10
32.7753333027195
20
19.5710770158739
30
0
0
SPLINE
5
16A
100
AcDbEntity
8
1
62
256
6
ByLayer
370
18
48
1
60
0
100
AcDbSpline
70
4
71
3
72
8
73
4
40
0
40
0
40
0
40
0
40
1
40
1
40
1
40
1
41
1
10
34.6972594373761
20
18.42990906568
30
0
41
1
10
34.693601322103
20
18.4349241184595
30
0
41
1
10
34.68994292409
20
18.4399404784802
30
0
41
1
10
34.6862842294349
20
18.4449582131537
30
0
0
SPLINE
5
16B
100
AcDbEntity
8
1
62
256
6
ByLayer
370
18
48
1
60
0
100
AcDbSpline
70
4
71
3
72
24
73
20
40
0
40
0
40
0
40
0
40
0.250000000000001
40
0.250000000000001
40
0.375000000000001
40
0.375000000000001
40
0.500000000000002
40
0.500000000000002
40
0.625000000000002
40
0.625000000000002
40
0.750000000000002
40
0.750000000000002
40
0.812500000000002
40
0.812500000000002
40
0.875000000000001
40
0.875000000000001
40
0.937500000000001
40
0.937500000000001
40
1
40
1
40
1
40
1
41
1
10
35.1744327899531
20
19.2351249975341
30
0
41
1
10
35.1744327899531
20
19.2024175150676
30
0
41
1
10
35.1717158872295
20
19.1696423781299
30
0
41
1
10
35.1630576686769
20
19.1210131885787
30
0
41
1
10
35.1594030152402
20
19.1049232345801
30
0
41
1
10
35.1502987809504
20
19.0731425171747
30
0
41
1
10
35.1448537184131
20
19.0574553589427
30
0
41
1
10
35.1317453788731
20
19.0268954742533
30
0
41
1
10
35.1240615182954
20
19.0119748158464
30
0
41
1
10
35.1059077566081
20
18.9840218046716
30
0
41
1
10
35.0955694084164
20
18.971073238888
30
0
41
1
10
35.0769694992085
20
18.9541746890142
30
0
41
1
10
35.0704185066004
20
18.9491416193976
30
0
41
1
10
35.0564714474907
20
18.9405326236617
30
0
41
1
10
35.0489939942246
20
18.9369535755707
30
0
41
1
10
35.0339185742271
20
18.9319255839113
30
0
41
1
10
35.0261854080165
20
18.9304030991297
30
0
41
1
10
35.0106401272378
20
18.9295050613303
30
0
41
1
10
35.0030732837641
20
18.9301269583985
30
0
41
1
10
34.9956880029693
20
18.9316886412276
30
0
0
SPLINE
5
16C
100
AcDbEntity
8
1
62
256
6
ByLayer
370
18
48
1
60
0
100
AcDbSpline
70
4
71
3
72
8
73
4
40
0
40
0
40
0
40
0
40
1
40
1
40
1
40
1
41
1
10
34.9956880029693
20
18.9316886412276
30
0
41
1
10
34.9886285046121
20
18.9309845881409
30
0
41
1
10
34.98156818497
20
18.9302809367823
30
0
41
1
10
34.9745070027208
20
18.9295777084595
30
0
0
SPLINE
5
16D
100
AcDbEntity
8
1
62
256
6
ByLayer
370
18
48
1
60
0
100
AcDbSpline
70
4
71
3
72
38
73
34
40
0
40
0
40
0
40
0
40
0.0624999999999965
40
0.0624999999999965
40
0.0937499999999956
40
0.0937499999999956
40
0.124999999999995
40
0.124999999999995
40
0.187499999999995
40
0.187499999999995
40
0.249999999999996
40
0.249999999999996
40
0.374999999999996
40
0.374999999999996
40
0.499999999999997
40
0.499999999999997
40
0.624999999999998
40
0.624999999999998
40
0.687499999999999
40
0.687499999999999
40
0.749999999999999
40
0.749999999999999
40
0.812499999999999
40
0.812499999999999
40
0.84375
40
0.84375
40
0.875
40
0.875
40
0.9375
40
0.9375
40
0.96875
40
0.96875
40
1
40
1
40
1
40
1
41
1
10
34.9745070027208
20
18.9295777084595
30
0
41
1
10
34.9614890671717
20
18.9282812427039
30
0
41
1
10
34.9487388179211
20
18.9249431532242
30
0
41
1
10
34.9298584709007
20
18.9179240127605
30
0
41
1
10
34.9235928836282
20
18.9152283257918
30
0
41
1
10
34.9113131160539
20
18.9093224513219
30
0
41
1
10
34.905275852271
20
18.9061047719307
30
0
41
1
10
34.8874237567345
20
18.8957699000391
30
0
41
1
10
34.8759093164595
20
18.8879978748249
30
0
41
1
10
34.8537058520407
20
18.8712388719394
30
0
41
1
10
34.8430089120986
20
18.862243749855
30
0
41
1
10
34.8121280832065
20
18.8339010177661
30
0
41
1
10
34.7932179454249
20
18.8132994260262
30
0
41
1
10
34.7585668669327
20
18.7698957101512
30
0
41
1
10
34.7429091812495
20
18.747168063687
30
0
41
1
10
34.7151963545004
20
18.7004747743676
30
0
41
1
10
34.7033502467247
20
18.6768957482488
30
0
41
1
10
34.6886504667009
20
18.6411208510715
30
0
41
1
10
34.684268230727
20
18.6291264718523
30
0
41
1
10
34.6766454824534
20
18.604963055488
30
0
41
1
10
34.6733990218449
20
18.5927464565979
30
0
41
1
10
34.66834740782
20
18.5686004512313
30
0
41
1
10
34.6665185758412
20
18.5566188219383
30
0
41
1
10
34.6650071336835
20
18.5387700503208
30
0
41
1
10
34.6647099325455
20
18.5328411205365
30
0
41
1
10
34.6645839937877
20
18.5210231735008
30
0
41
1
10
34.6647574148247
20
18.5151120088826
30
0
41
1
10
34.6660816506852
20
18.4976603666859
30
0
41
1
10
34.6680056628572
20
18.4863719095559
30
0
41
1
10
34.6730343907341
20
18.4700929002913
30
0
41
1
10
34.675087072211
20
18.4647487623101
30
0
41
1
10
34.6800242858999
20
18.4545013281864
30
0
41
1
10
34.6829020816859
20
18.4495966762207
30
0
41
1
10
34.6862842294349
20
18.4449582131537
30
0
0
SPLINE
5
16E
100
AcDbEntity
8
1
62
256
6
ByLayer
370
18
48
1
60
0
100
AcDbSpline
70
4
71
3
72
30
73
26
40
0
40
0
40
0
40
0
40
0.25
40
0.25
40
0.375
40
0.375
40
0.5
40
0.5
40
0.625000000000001
40
0.625000000000001
40
0.687500000000001
40
0.687500000000001
40
0.750000000000002
40
0.750000000000002
40
0.781250000000002
40
0.781250000000002
40
0.812500000000001
40
0.812500000000001
40
0.875000000000002
40
0.875000000000002
40
0.906250000000001
40
0.906250000000001
40
0.937499999999999
40
0.937499999999999
40
1
40
1
40
1
40
1
41
1
10
34.5345065267037
20
18.1591491501247
30
0
41
1
10
34.5632480457681
20
18.174779410948
30
0
41
1
10
34.5905630934416
20
18.1925086239005
30
0
41
1
10
34.6285209321874
20
18.2222661022792
30
0
41
1
10
34.6406408143486
20
18.232700345747
30
0
41
1
10
34.66351246166
20
18.2546826148222
30
0
41
1
10
34.6742642540543
20
18.2662265074284
30
0
41
1
10
34.6937643549677
20
18.2904846979672
30
0
41
1
10
34.7024730975542
20
18.3031388530661
30
0
41
1
10
34.7131082248879
20
18.3228752548849
30
0
41
1
10
34.7162533230066
20
18.3295923976687
30
0
41
1
10
34.7215050173263
20
18.3433711766539
30
0
41
1
10
34.723580072176
20
18.3503716627454
30
0
41
1
10
34.7255906300705
20
18.3608466744111
30
0
41
1
10
34.7260798948979
20
18.3643434124572
30
0
41
1
10
34.7266452775076
20
18.371345991494
30
0
41
1
10
34.7267190434142
20
18.3748695265309
30
0
41
1
10
34.7262364007986
20
18.3852271134259
30
0
41
1
10
34.7249945309817
20
18.3918987560642
30
0
41
1
10
34.7215154227423
20
18.4014803263118
30
0
41
1
10
34.7200860206993
20
18.4045843308772
30
0
41
1
10
34.7167633929055
20
18.4104513405957
30
0
41
1
10
34.7148622506093
20
18.4132383377846
30
0
41
1
10
34.7084551426836
20
18.4211672581442
30
0
41
1
10
34.7031939242177
20
18.4258964235418
30
0
41
1
10
34.6972594373761
20
18.42990906568
30
0
0
SPLINE
5
16F
100
AcDbEntity
8
1
62
256
6
ByLayer
370
18
48
1
60
0
100
AcDbSpline
70
4
71
3
72
28
73
24
40
0
40
0
40
0
40
0
40
0.0625000000000036
40
0.0625000000000036
40
0.125000000000007
40
0.125000000000007
40
0.156250000000009
40
0.156250000000009
40
0.187500000000011
40
0.187500000000011
40
0.250000000000011
40
0.250000000000011
40
0.312500000000011
40
0.312500000000011
40
0.375000000000011
40
0.375000000000011
40
0.500000000000009
40
0.500000000000009
40
0.625000000000007
40
0.625000000000007
40
0.750000000000004
40
0.750000000000004
40
1
40
1
40
1
40
1
41
1
10
32.7753333027195
20
19.5710770158739
30
0
41
1
10
32.7689499688579
20
19.5743784614162
30
0
41
1
10
32.7624128300793
20
19.5767016458552
30
0
41
1
10
32.7490043496227
20
19.5792047909386
30
0
41
1
10
32.7420574383578
20
19.579342218387
30
0
41
1
10
32.7320308857117
20
19.5778648227226
30
0
41
1
10
32.7287300414266
20
19.577101074846
30
0
41
1
10
32.7222094468645
20
19.5750558905086
30
0
41
1
10
32.7189717245934
20
19.5737635938124
30
0
41
1
10
32.7096025761102
20
19.5692549358292
30
0
41
1
10
32.7037540480468
20
19.5654084403919
30
0
41
1
10
32.6926993215525
20
19.556396956516
30
0
41
1
10
32.687490049503
20
19.5512070513303
30
0
41
1
10
32.6779224301467
20
19.5401130120259
30
0
41
1
10
32.6735114952091
20
19.534167958329
30
0
41
1
10
32.6611789930938
20
19.5153964940001
30
0
41
1
10
32.654138014413
20
19.5015911027624
30
0
41
1
10
32.6421275238641
20
19.4729501495602
30
0
41
1
10
32.6370961932273
20
19.4579745154912
30
0
41
1
10
32.6286872776079
20
19.4274091904144
30
0
41
1
10
32.6252946401007
20
19.411759305919
30
0
41
1
10
32.6172648156363
20
19.3642372025859
30
0
41
1
10
32.6147277369553
20
19.3317535221653
30
0
41
1
10
32.6147277369553
20
19.2990420871205
30
0
0
SPLINE
5
170
100
AcDbEntity
8
1
62
256
6
ByLayer
370
18
48
1
60
0
100
AcDbSpline
70
4
71
3
72
38
73
34
40
0
40
0
40
0
40
0
40
0.0624999999999975
40
0.0624999999999975
40
0.093749999999997
40
0.093749999999997
40
0.124999999999997
40
0.124999999999997
40
0.187499999999997
40
0.187499999999997
40
0.249999999999997
40
0.249999999999997
40
0.374999999999998
40
0.374999999999998
40
0.499999999999998
40
0.499999999999998
40
0.562499999999999
40
0.562499999999999
40
0.624999999999999
40
0.624999999999999
40
0.687499999999999
40
0.687499999999999
40
0.749999999999999
40
0.749999999999999
40
0.8125
40
0.8125
40
0.875
40
0.875
40
0.90625
40
0.90625
40
0.9375
40
0.9375
40
1
40
1
40
1
40
1
41
1
10
33.5959641777314
20
18.1798962506938
30
0
41
1
10
33.601418293581
20
18.1886392931006
30
0
41
1
10
33.6086898193226
20
18.1961878994707
30
0
41
1
10
33.6214177008178
20
18.2063592504206
30
0
41
1
10
33.6259875087222
20
18.2095571940586
30
0
41
1
10
33.6355370388729
20
18.2155257697386
30
0
41
1
10
33.6405311440883
20
18.218309276402
30
0
41
1
10
33.6560876699311
20
18.2261502442653
30
0
41
1
10
33.6671820480865
20
18.230679459042
30
0
41
1
10
33.6902717232381
20
18.2385814193717
30
0
41
1
10
33.7023443414674
20
18.2419761316209
30
0
41
1
10
33.7394726819651
20
18.2506758580098
30
0
41
1
10
33.765580350718
20
18.2545630426614
30
0
41
1
10
33.8192008075526
20
18.2592259639927
30
0
41
1
10
33.846549357494
20
18.2599890171633
30
0
41
1
10
33.888143346523
20
18.2589512531706
30
0
41
1
10
33.9020099251995
20
18.2582389451454
30
0
41
1
10
33.9297455585057
20
18.2560737763681
30
0
41
1
10
33.9436497623556
20
18.2546160331977
30
0
41
1
10
33.9712648903513
20
18.2509289340167
30
0
41
1
10
33.9849656572761
20
18.2487038264291
30
0
41
1
10
34.0121373347499
20
18.2434075001548
30
0
41
1
10
34.0256212356012
20
18.2403309100276
30
0
41
1
10
34.0520129610612
20
18.2332608311293
30
0
41
1
10
34.0649930650272
20
18.2292511408873
30
0
41
1
10
34.0901996124837
20
18.2201285562952
30
0
41
1
10
34.102391196966
20
18.2150349824848
30
0
41
1
10
34.1198380044901
20
18.2063570192136
30
0
41
1
10
34.1254809616869
20
18.203305353753
30
0
41
1
10
34.1363706754083
20
18.1968273998715
30
0
41
1
10
34.1416375018697
20
18.1933863206269
30
0
41
1
10
34.1565437678648
20
18.1825099457351
30
0
41
1
10
34.1653350022557
20
18.1745533076548
30
0
41
1
10
34.172409724303
20
18.1655021229021
30
0
0
SPLINE
5
171
100
AcDbEntity
8
1
62
256
6
ByLayer
370
18
48
1
60
0
100
AcDbSpline
70
4
71
3
72
8
73
4
40
0
40
0
40
0
40
0
40
1
40
1
40
1
40
1
41
1
10
33.5870820872514
20
18.1656582233326
30
0
41
1
10
33.5900420058271
20
18.1704029462695
30
0
41
1
10
33.5930026895044
20
18.1751489336456
30
0
41
1
10
33.5959641777314
20
18.1798962506938
30
0
0
SPLINE
5
172
100
AcDbEntity
8
1
62
256
6
ByLayer
370
18
48
1
60
0
100
AcDbSpline
70
4
71
3
72
28
73
24
40
0
40
0
40
0
40
0
40
0.062500000000004
40
0.062500000000004
40
0.125000000000008
40
0.125000000000008
40
0.156250000000008
40
0.156250000000008
40
0.187500000000009
40
0.187500000000009
40
0.250000000000008
40
0.250000000000008
40
0.312500000000008
40
0.312500000000008
40
0.375000000000007
40
0.375000000000007
40
0.500000000000006
40
0.500000000000006
40
0.625000000000004
40
0.625000000000004
40
0.750000000000003
40
0.750000000000003
40
1
40
1
40
1
40
1
41
1
10
34.1839392184373
20
18.1507544082701
30
0
41
1
10
34.1858977869911
20
18.1445829196625
30
0
41
1
10
34.1887725991703
20
18.1387343463288
30
0
41
1
10
34.1965296353485
20
18.1277478558566
30
0
41
1
10
34.2015022492269
20
18.1225733494151
30
0
41
1
10
34.2100644206126
20
18.1158567624581
30
0
41
1
10
34.2131125198021
20
18.1137700786976
30
0
41
1
10
34.2195790157491
20
18.1098896446994
30
0
41
1
10
34.2230195825547
20
18.1080875593364
30
0
41
1
10
34.2336166373574
20
18.1032207557236
30
0
41
1
10
34.2410918947412
20
18.1006497821766
30
0
41
1
10
34.2566858767216
20
18.0965855249068
30
0
41
1
10
34.264827823426
20
18.0951013687065
30
0
41
1
10
34.281107639799
20
18.0930957697531
30
0
41
1
10
34.2893179410521
20
18.0925540412537
30
0
41
1
10
34.3141129063283
20
18.0920391568681
30
0
41
1
10
34.3309133398046
20
18.0931820591817
30
0
41
1
10
34.3639881287401
20
18.0975325136373
30
0
41
1
10
34.3804254669431
20
18.1007584991924
30
0
41
1
10
34.4127370919459
20
18.108781630158
30
0
41
1
10
34.4286734953469
20
18.1135954544052
30
0
41
1
10
34.4755914561092
20
18.1299914129904
30
0
41
1
10
34.5057513525935
20
18.1435114633918
30
0
41
1
10
34.5345065267037
20
18.1591491501247
30
0
0
SPLINE
5
173
100
AcDbEntity
8
1
62
256
6
ByLayer
370
18
48
1
60
0
100
AcDbSpline
70
4
71
3
72
8
73
4
40
0
40
0
40
0
40
0
40
1
40
1
40
1
40
1
41
1
10
34.172409724303
20
18.1655021229021
30
0
41
1
10
34.1762532112642
20
18.1605848822886
30
0
41
1
10
34.1800963708451
20
18.155668999612
30
0
41
1
10
34.1839392184373
20
18.1507544082701
30
0
0
SPLINE
5
174
100
AcDbEntity
8
1
62
256
6
ByLayer
370
18
48
1
60
0
100
AcDbSpline
70
4
71
3
72
30
73
26
40
0
40
0
40
0
40
0
40
0.250000000000002
40
0.250000000000002
40
0.375000000000003
40
0.375000000000003
40
0.500000000000004
40
0.500000000000004
40
0.625000000000005
40
0.625000000000005
40
0.687500000000006
40
0.687500000000006
40
0.750000000000007
40
0.750000000000007
40
0.781250000000007
40
0.781250000000007
40
0.812500000000008
40
0.812500000000008
40
0.875000000000009
40
0.875000000000009
40
0.906250000000008
40
0.906250000000008
40
0.937500000000006
40
0.937500000000006
40
1
40
1
40
1
40
1
41
1
10
33.2546540002047
20
18.191107694918
30
0
41
1
10
33.2833955192692
20
18.1740420544624
30
0
41
1
10
33.3133336062265
20
18.1590359795932
30
0
41
1
10
33.3596305673821
20
18.140306034938
30
0
41
1
10
33.3752685434185
20
18.1347116952271
30
0
41
1
10
33.4068912553458
20
18.1250857894564
30
0
41
1
10
33.4228720019054
20
18.1210528480229
30
0
41
1
10
33.4549335846847
20
18.115060002431
30
0
41
1
10
33.4709389325074
20
18.1131084394824
30
0
41
1
10
33.4944736207615
20
18.112395881462
30
0
41
1
10
33.5022536199422
20
18.1125284917373
30
0
41
1
10
33.5176358302262
20
18.1137415750102
30
0
41
1
10
33.5251658198658
20
18.1148231175083
30
0
41
1
10
33.5359109382804
20
18.1172932533185
30
0
41
1
10
33.5394110622415
20
18.1182593785674
30
0
41
1
10
33.5462233844016
20
18.120515505992
30
0
41
1
10
33.5495510012373
20
18.1218141358315
30
0
41
1
10
33.5590011531051
20
18.1261721667835
30
0
41
1
10
33.5646470520661
20
18.129698878347
30
0
41
1
10
33.571955818857
20
18.1360677025814
30
0
41
1
10
33.5741809567955
20
18.1383634000131
30
0
41
1
10
33.5780944541739
20
18.1431792237219
30
0
41
1
10
33.579801488902
20
18.145714687114
30
0
41
1
10
33.5841883309611
20
18.1536936665852
30
0
41
1
10
33.5861277315357
20
18.1595566426175
30
0
41
1
10
33.5870820872514
20
18.1656582233326
30
0
0
SPLINE
5
175
100
AcDbEntity
8
1
62
256
6
ByLayer
370
18
48
1
60
0
100
AcDbSpline
70
4
71
3
72
38
73
34
40
0
40
0
40
0
40
0
40
0.0624999999999965
40
0.0624999999999965
40
0.0937499999999955
40
0.0937499999999955
40
0.124999999999995
40
0.124999999999995
40
0.187499999999995
40
0.187499999999995
40
0.249999999999995
40
0.249999999999995
40
0.374999999999996
40
0.374999999999996
40
0.499999999999996
40
0.499999999999996
40
0.562499999999996
40
0.562499999999996
40
0.624999999999996
40
0.624999999999996
40
0.687499999999996
40
0.687499999999996
40
0.749999999999997
40
0.749999999999997
40
0.812499999999997
40
0.812499999999997
40
0.874999999999997
40
0.874999999999997
40
0.906249999999998
40
0.906249999999998
40
0.937499999999998
40
0.937499999999998
40
1
40
1
40
1
40
1
41
1
10
32.7938668993136
20
18.9840293604896
30
0
41
1
10
32.8052469826243
20
18.9821253448453
30
0
41
1
10
32.816468844931
20
18.9781944474954
30
0
41
1
10
32.8331769935522
20
18.9702987263566
30
0
41
1
10
32.8387379347078
20
18.967312285256
30
0
41
1
10
32.8496676096679
20
18.9608365743049
30
0
41
1
10
32.8550565614838
20
18.9573388339892
30
0
41
1
10
32.8710371025437
20
18.9461759450134
30
0
41
1
10
32.8814013412509
20
18.937872555955
30
0
41
1
10
32.9014747848724
20
18.9201267453901
30
0
41
1
10
32.9112468744138
20
18.9106233969337
30
0
41
1
10
32.9395698343156
20
18.8809019658793
30
0
41
1
10
32.9572666802682
20
18.8593719042821
30
0
41
1
10
32.9902263022293
20
18.8143526788895
30
0
41
1
10
33.0053904034938
20
18.7910007002682
30
0
41
1
10
33.02618828064
20
18.7549940815406
30
0
41
1
10
33.0327449638421
20
18.7429074702903
30
0
41
1
10
33.0450998301499
20
18.7185613087403
30
0
41
1
10
33.050911467046
20
18.7062704272029
30
0
41
1
10
33.0616478074495
20
18.6816662410039
30
0
41
1
10
33.0665714904235
20
18.6693627188596
30
0
41
1
10
33.0754472117485
20
18.6447290865076
30
0
41
1
10
33.0794006061683
20
18.6323865008744
30
0
41
1
10
33.086097471413
20
18.6079286413474
30
0
41
1
10
33.0888623657034
20
18.5957473845751
30
0
41
1
10
33.0929221928711
20
18.5716807484765
30
0
41
1
10
33.0942179938725
20
18.559830865366
30
0
41
1
10
33.0947261742296
20
18.5424202075197
30
0
41
1
10
33.0946532047035
20
18.5367090309679
30
0
41
1
10
33.0939440931288
20
18.5254914029978
30
0
41
1
10
33.0933038924657
20
18.5199633261133
30
0
41
1
10
33.0903979709575
20
18.5039325520615
30
0
41
1
10
33.0872007480497
20
18.4939561102945
30
0
41
1
10
33.0820896725994
20
18.4850157373921
30
0
0
SPLINE
5
176
100
AcDbEntity
8
1
62
256
6
ByLayer
370
18
48
1
60
0
100
AcDbSpline
70
4
71
3
72
8
73
4
40
0
40
0
40
0
40
0
40
1
40
1
40
1
40
1
41
1
10
32.7753333027195
20
18.9871319862034
30
0
41
1
10
32.7815098720602
20
18.9860974220197
30
0
41
1
10
32.7876877157986
20
18.985063207234
30
0
41
1
10
32.7938668993136
20
18.9840293604896
30
0
0
SPLINE
5
177
100
AcDbEntity
8
1
62
256
6
ByLayer
370
18
48
1
60
0
100
AcDbSpline
70
4
71
3
72
30
73
26
40
0
40
0
40
0
40
0
40
0.250000000000002
40
0.250000000000002
40
0.375000000000003
40
0.375000000000003
40
0.500000000000004
40
0.500000000000004
40
0.625000000000005
40
0.625000000000005
40
0.687500000000005
40
0.687500000000005
40
0.750000000000006
40
0.750000000000006
40
0.781250000000006
40
0.781250000000006
40
0.812500000000006
40
0.812500000000006
40
0.875000000000007
40
0.875000000000007
40
0.906250000000006
40
0.906250000000006
40
0.937500000000006
40
0.937500000000006
40
1
40
1
40
1
40
1
41
1
10
32.6147277369553
20
19.2990420871205
30
0
41
1
10
32.6147277369553
20
19.2663461858417
30
0
41
1
10
32.6172587784225
20
19.2334516374466
30
0
41
1
10
32.6252852016876
20
19.1844228902061
30
0
41
1
10
32.6286694306741
20
19.1681625689301
30
0
41
1
10
32.6370744178134
20
19.1359552875034
30
0
41
1
10
32.64209151429
20
19.1200116993575
30
0
41
1
10
32.6541172218392
20
19.088833165944
30
0
41
1
10
32.6610917960585
20
19.073669968966
30
0
41
1
10
32.6733836408373
20
19.0521689708855
30
0
41
1
10
32.6777946577529
20
19.0451968648576
30
0
41
1
10
32.6874185487238
20
19.0317541332553
30
0
41
1
10
32.6925926628167
20
19.0253490513285
30
0
41
1
10
32.700860057129
20
19.0165354480395
30
0
41
1
10
32.70370715072
20
19.013721335098
30
0
41
1
10
32.7096076703601
20
19.0083751841062
30
0
41
1
10
32.7126778205176
20
19.0058322682067
30
0
41
1
10
32.722038454983
20
18.9988422264469
30
0
41
1
10
32.7285148583194
20
18.994985166557
30
0
41
1
10
32.7386301785975
20
18.9906081379614
30
0
41
1
10
32.7420522583218
20
18.9893974109092
30
0
41
1
10
32.7488186034302
20
18.9875329725297
30
0
41
1
10
32.7521878155645
20
18.9868677584217
30
0
41
1
10
32.7622525694469
20
18.9856554811681
30
0
41
1
10
32.7689470191101
20
18.9859130446454
30
0
41
1
10
32.7753333027195
20
18.9871319862034
30
0
0
SPLINE
5
178
100
AcDbEntity
8
1
62
256
6
ByLayer
370
18
48
1
60
0
100
AcDbSpline
70
4
71
3
72
28
73
24
40
0
40
0
40
0
40
0
40
0.0624999999999994
40
0.0624999999999994
40
0.124999999999999
40
0.124999999999999
40
0.156249999999997
40
0.156249999999997
40
0.187499999999996
40
0.187499999999996
40
0.249999999999996
40
0.249999999999996
40
0.312499999999997
40
0.312499999999997
40
0.374999999999997
40
0.374999999999997
40
0.499999999999997
40
0.499999999999997
40
0.624999999999998
40
0.624999999999998
40
0.749999999999999
40
0.749999999999999
40
1
40
1
40
1
40
1
41
1
10
33.0737618683125
20
18.4704485955933
30
0
41
1
10
33.0688347761827
20
18.4667089573503
30
0
41
1
10
33.0646780016033
20
18.4623276126103
30
0
41
1
10
33.0580544299154
20
18.4521613841442
30
0
41
1
10
33.0555979989194
20
18.4462896671354
30
0
41
1
10
33.0534666382289
20
18.4369410535629
30
0
41
1
10
33.0529990749554
20
18.4337187428155
30
0
41
1
10
33.0525292875798
20
18.4270735114188
30
0
41
1
10
33.0525301961205
20
18.4236295510399
30
0
41
1
10
33.053185295022
20
18.4132624828903
30
0
41
1
10
33.054469898992
20
18.4062527489861
30
0
41
1
10
33.0583841397516
20
18.3920950234258
30
0
41
1
10
33.0610340187903
20
18.384931404856
30
0
41
1
10
33.0672423200933
20
18.370959455458
30
0
41
1
10
33.0708176251734
20
18.3640847931774
30
0
41
1
10
33.082670028666
20
18.3437423492621
30
0
41
1
10
33.0921043269766
20
18.3305169708026
30
0
41
1
10
33.1126334521389
20
18.3053000153449
30
0
41
1
10
33.1238269508705
20
18.293182485504
30
0
41
1
10
33.1473833846678
20
18.2700408418577
30
0
41
1
10
33.1597929414232
20
18.2589724475702
30
0
41
1
10
33.1983682318117
20
18.227304724546
30
0
41
1
10
33.2258988260945
20
18.2081814432297
30
0
41
1
10
33.2546540002047
20
18.191107694918
30
0
0
SPLINE
5
179
100
AcDbEntity
8
1
62
256
6
ByLayer
370
18
48
1
60
0
100
AcDbSpline
70
4
71
3
72
8
73
4
40
0
40
0
40
0
40
0
40
1
40
1
40
1
40
1
41
1
10
33.0820896725994
20
18.4850157373921
30
0
41
1
10
33.0793129766785
20
18.480158697575
30
0
41
1
10
33.0765370545691
20
18.475303005681
30
0
41
1
10
33.0737618683125
20
18.4704485955933
30
0
0
SPLINE
5
17A
100
AcDbEntity
8
1
62
256
6
ByLayer
370
18
48
1
60
0
100
AcDbSpline
70
4
71
3
72
14
73
10
40
0
40
0
40
0
40
0
40
0.250000000000005
40
0.250000000000005
40
0.374999999999997
40
0.374999999999997
40
0.499999999999989
40
0.499999999999989
40
1
40
1
40
1
40
1
41
1
10
38.5052369440731
20
-6.89521474424669
30
0
41
1
10
38.5207895939776
20
-6.90397446045392
30
0
41
1
10
38.5345074683629
20
-6.9126971641607
30
0
41
1
10
38.552304866155
20
-6.92572515125215
30
0
41
1
10
38.5577730621187
20
-6.93005844800569
30
0
41
1
10
38.5677633153501
20
-6.9387059552767
30
0
41
1
10
38.5722501855734
20
-6.94299066879506
30
0
41
1
10
38.5921210699523
20
-6.96414612189403
30
0
41
1
10
38.6
20
-6.98030288554321
30
0
41
1
10
38.6
20
-6.99570534321168
30
0
0
SPLINE
5
17B
100
AcDbEntity
8
1
62
256
6
ByLayer
370
18
48
1
60
0
100
AcDbSpline
70
4
71
3
72
12
73
8
40
0
40
0
40
0
40
0
40
0.277777705843564
40
0.277777705843564
40
0.555555411687128
40
0.555555411687128
40
1
40
1
40
1
40
1
41
1
10
38.6000000000001
20
-12.7738088896864
30
0
41
1
10
38.6000000000001
20
-12.7998431329893
30
0
41
1
10
38.5973636971436
20
-12.8266502318631
30
0
41
1
10
38.5865401175404
20
-12.8818045929104
30
0
41
1
10
38.5783957440773
20
-12.9099429349755
30
0
41
1
10
38.5500396916258
20
-12.9845772689266
30
0
41
1
10
38.5255345447845
20
-13.0319549644809
30
0
41
1
10
38.4937236747124
20
-13.0808329584403
30
0
0
SPLINE
5
17C
100
AcDbEntity
8
1
62
256
6
ByLayer
370
18
48
1
60
0
100
AcDbSpline
70
4
71
3
72
14
73
10
40
0
40
0
40
0
40
0
40
0.249999999999973
40
0.249999999999973
40
0.374999999999978
40
0.374999999999978
40
0.499999999999983
40
0.499999999999983
40
1
40
1
40
1
40
1
41
1
10
38.5052369440732
20
-13.1186994742765
30
0
41
1
10
38.5205006658745
20
-13.1582741244055
30
0
41
1
10
38.5340847690213
20
-13.1985207934023
30
0
41
1
10
38.5518259971039
20
-13.2599450364485
30
0
41
1
10
38.5572983590866
20
-13.2806044279155
30
0
41
1
10
38.567235639039
20
-13.3218419260274
30
0
41
1
10
38.5717171908312
20
-13.342474177195
30
0
41
1
10
38.5916962514218
20
-13.4457027566872
30
0
41
1
10
38.6000000000003
20
-13.5284984964466
30
0
41
1
10
38.6000000000003
20
-13.61152441658
30
0
0
SPLINE
5
17D
100
AcDbEntity
8
1
62
256
6
ByLayer
370
18
48
1
60
0
100
AcDbSpline
70
4
71
3
72
10
73
6
40
0
40
0
40
0
40
0
40
0.5
40
0.5
40
1
40
1
40
1
40
1
41
1
10
29.0871539301947
20
23.4689528869213
30
0
41
1
10
29.0219657365557
20
23.4469752804416
30
0
41
1
10
28.960351783221
20
23.4260177037938
30
0
41
1
10
28.8444985302189
20
23.3860660515874
30
0
41
1
10
28.7902549388432
20
23.367071184348
30
0
41
1
10
28.7400316240196
20
23.3490787227125
30
0
0
SPLINE
5
17E
100
AcDbEntity
8
1
62
256
6
ByLayer
370
18
48
1
60
0
100
AcDbSpline
70
4
71
3
72
10
73
6
40
0
40
0
40
0
40
0
40
0.816458396788473
40
0.816458396788473
40
1
40
1
40
1
40
1
41
1
10
28.9643238729498
20
22.7027481377825
30
0
41
1
10
28.9140105000945
20
22.6886579746877
30
0
41
1
10
28.8641644931239
20
22.6753087838543
30
0
41
1
10
28.803707236685
20
22.6598830635152
30
0
41
1
10
28.792643218603
20
22.6570921419628
30
0
41
1
10
28.7816176830019
20
22.654343090413
30
0
0
SPLINE
5
17F
100
AcDbEntity
8
1
62
256
6
ByLayer
370
18
48
1
60
0
100
AcDbSpline
70
4
71
3
72
14
73
10
40
0
40
0
40
0
40
0
40
0.25
40
0.25
40
0.5
40
0.5
40
0.75
40
0.75
40
1
40
1
40
1
40
1
41
1
10
36.5842891677809
20
-7.74344713939786
30
0
41
1
10
36.729698251805
20
-8.195899217717
30
0
41
1
10
36.8797959759297
20
-8.64690845562768
30
0
41
1
10
37.1876480587422
20
-9.54657074681916
30
0
41
1
10
37.3454049647507
20
-9.99522301621005
30
0
41
1
10
37.6672095291217
20
-10.8905916948062
30
0
41
1
10
37.8312593666195
20
-11.3373074334237
30
0
41
1
10
38.1645617408993
20
-12.2291378782485
30
0
41
1
10
38.3338160477713
20
-12.6742520397442
30
0
41
1
10
38.5052369440731
20
-13.1186994742761
30
0
0
SPLINE
5
180
100
AcDbEntity
8
1
62
256
6
ByLayer
370
18
48
1
60
0
100
AcDbSpline
70
4
71
3
72
61
73
57
40
0
40
0
40
0
40
0
40
0.0624999999999984
40
0.0624999999999984
40
0.124999999999997
40
0.124999999999997
40
0.140624999999997
40
0.140624999999997
40
0.156249999999997
40
0.156249999999997
40
0.187499999999997
40
0.187499999999997
40
0.249999999999998
40
0.249999999999998
40
0.3125
40
0.3125
40
0.34375
40
0.34375
40
0.375000000000001
40
0.375000000000001
40
0.437500000000002
40
0.437500000000002
40
0.500000000000003
40
0.500000000000003
40
0.507812500000002
40
0.507812500000002
40
0.515625000000002
40
0.515625000000002
40
0.531250000000002
40
0.562500000000001
40
0.562500000000001
40
0.625
40
0.625
40
0.65625
40
0.65625
40
0.6640625
40
0.671875
40
0.671875
40
0.6875
40
0.6875
40
0.750000000000001
40
0.750000000000001
40
0.812500000000001
40
0.812500000000001
40
0.828125000000001
40
0.828125000000001
40
0.843750000000001
40
0.875000000000001
40
0.875000000000001
40
0.9375
40
0.9375
40
0.96875
40
0.96875
40
0.984375
40
0.984375
40
1
40
1
40
1
40
1
41
1
10
38.6
20
12.7738088896864
30
0
41
1
10
38.6
20
12.8257297979249
30
0
41
1
10
38.5895437023754
20
12.8801403279445
30
0
41
1
10
38.5465468397817
20
12.9942196041301
30
0
41
1
10
38.51401570312
20
13.0538861054366
30
0
41
1
10
38.4583224923019
20
13.1320476734128
30
0
41
1
10
38.4464299657162
20
13.1478594852535
30
0
41
1
10
38.4210955607946
20
13.1798520062256
30
0
41
1
10
38.4076500800161
20
13.1960334242797
30
0
41
1
10
38.3652462008468
20
13.2447927401036
30
0
41
1
10
38.3341352192485
20
13.2776986678308
30
0
41
1
10
38.2322645395031
20
13.377617367616
30
0
41
1
10
38.1529939577689
20
13.4458272793685
30
0
41
1
10
37.9710675583661
20
13.5855364668878
30
0
41
1
10
37.8684208220338
20
13.6570344652751
30
0
41
1
10
37.695692345553
20
13.7669200128344
30
0
41
1
10
37.63497247258
20
13.8039947449057
30
0
41
1
10
37.5069725903958
20
13.8790508039923
30
0
41
1
10
37.4405170538222
20
13.9165486692548
30
0
41
1
10
37.2339038265086
20
14.0289532483417
30
0
41
1
10
37.0865261102492
20
14.1037712721198
30
0
41
1
10
36.7724928549737
20
14.2531705128962
30
0
41
1
10
36.6058417362007
20
14.3277517841923
30
0
41
1
10
36.4070044176685
20
14.4115162330905
30
0
41
1
10
36.3847530243451
20
14.4208214488268
30
0
41
1
10
36.3399305635784
20
14.4394279534555
30
0
41
1
10
36.3173352820879
20
14.4487391023712
30
0
41
1
10
36.2492788900074
20
14.4765793959164
30
0
41
1
10
36.1121038068156
20
14.531881263518
30
0
41
1
10
35.9717949857475
20
14.5860659244083
30
0
41
1
10
35.6870894737531
20
14.6929778825484
30
0
41
1
10
35.491851287529
20
14.7623150673708
30
0
41
1
10
35.190900320626
20
14.863435369678
30
0
41
1
10
35.0892303608603
20
14.8966597904352
30
0
41
1
10
34.9604269435509
20
14.9375785579652
30
0
41
1
10
34.9087342267594
20
14.9538848486692
30
0
41
1
10
34.8566948316456
20
14.970067930783
30
0
41
1
10
34.7786753636297
20
14.9941577427848
30
0
41
1
10
34.7266157138048
20
15.0100025690627
30
0
41
1
10
34.4660885837711
20
15.0881720773401
30
0
41
1
10
34.2569372977184
20
15.1473459616147
30
0
41
1
10
33.8372418588177
20
15.2592757658153
30
0
41
1
10
33.6266974148418
20
15.3120303442997
30
0
41
1
10
33.3626461368574
20
15.3739615044535
30
0
41
1
10
33.3097656179152
20
15.3861516429718
30
0
41
1
10
33.2046255433073
20
15.4099691150217
30
0
41
1
10
33.0475835274633
20
15.4449135478279
30
0
41
1
10
32.892502816235
20
15.4775629522434
30
0
41
1
10
32.5848729424845
20
15.5398994592952
30
0
41
1
10
32.3831533334437
20
15.5775172532882
30
0
41
1
10
32.0854620621285
20
15.6282240652023
30
0
41
1
10
31.9870485251174
20
15.644170452551
30
0
41
1
10
31.8406519518065
20
15.6666580784699
30
0
41
1
10
31.7920113950949
20
15.6739215601047
30
0
41
1
10
31.6954805782755
20
15.6879209550075
30
0
41
1
10
31.6475667589892
20
15.6946609151095
30
0
41
1
10
31.6
20
15.701144483544
30
0
0
SPLINE
5
181
100
AcDbEntity
8
1
62
256
6
ByLayer
370
18
48
1
60
0
100
AcDbSpline
70
4
71
3
72
8
73
4
40
0
40
0
40
0
40
0
40
1
40
1
40
1
40
1
41
1
10
29.0871539301947
20
-23.4689528869213
30
0
41
1
10
29.0717108542443
20
-23.4637463943475
30
0
41
1
10
29.0564189970561
20
-23.4585804798407
30
0
41
1
10
29.0412821457668
20
-23.4534551896462
30
0
0
SPLINE
5
182
100
AcDbEntity
8
1
62
256
6
ByLayer
370
18
48
1
60
0
100
AcDbSpline
70
4
71
3
72
64
73
60
40
0
40
0
40
0
40
0
40
0.0624999999999953
40
0.0624999999999953
40
0.0937499999999943
40
0.0937499999999943
40
0.124999999999993
40
0.156249999999992
40
0.156249999999992
40
0.187499999999991
40
0.187499999999991
40
0.249999999999992
40
0.249999999999992
40
0.281249999999992
40
0.281249999999992
40
0.312499999999992
40
0.312499999999992
40
0.343749999999992
40
0.343749999999992
40
0.374999999999993
40
0.406249999999993
40
0.406249999999993
40
0.437499999999993
40
0.437499999999993
40
0.468749999999993
40
0.468749999999993
40
0.499999999999993
40
0.499999999999993
40
0.531249999999994
40
0.531249999999994
40
0.562499999999994
40
0.562499999999994
40
0.593749999999994
40
0.593749999999994
40
0.624999999999995
40
0.624999999999995
40
0.656249999999995
40
0.656249999999995
40
0.687499999999995
40
0.687499999999995
40
0.718749999999995
40
0.718749999999995
40
0.734374999999996
40
0.734374999999996
40
0.749999999999996
40
0.749999999999996
40
0.812499999999995
40
0.812499999999995
40
0.828124999999995
40
0.828124999999995
40
0.843749999999995
40
0.843749999999995
40
0.874999999999996
40
0.874999999999996
40
0.937499999999998
40
0.937499999999998
40
0.968749999999999
40
0.968749999999999
40
1
40
1
40
1
40
1
41
1
10
29.5987434171911
20
-22.9114078701311
30
0
41
1
10
29.5338824934993
20
-22.8869125514527
30
0
41
1
10
29.4685388586631
20
-22.8632388734541
30
0
41
1
10
29.3698069921128
20
-22.8289548758986
30
0
41
1
10
29.3367398707553
20
-22.8177203076392
30
0
41
1
10
29.2707558259993
20
-22.7957954878967
30
0
41
1
10
29.2048403543731
20
-22.7743855637454
30
0
41
1
10
29.1390620240137
20
-22.7540033597703
30
0
41
1
10
29.0733537102146
20
-22.7341400161
30
0
41
1
10
29.040528339869
20
-22.7244669848365
30
0
41
1
10
28.9427865891604
20
-22.6964163713734
30
0
41
1
10
28.878392533515
20
-22.6789390804469
30
0
41
1
10
28.7830092209289
20
-22.654601947212
30
0
41
1
10
28.7514808135486
20
-22.6468207547908
30
0
41
1
10
28.6892420496687
20
-22.6319927282763
30
0
41
1
10
28.6584905919127
20
-22.6249353144466
30
0
41
1
10
28.5977458748839
20
-22.6115443264144
30
0
41
1
10
28.567711574751
20
-22.6052025455674
30
0
41
1
10
28.5086293319785
20
-22.5933022365924
30
0
41
1
10
28.4506575576182
20
-22.5822084451889
30
0
41
1
10
28.3949687222237
20
-22.5727462110646
30
0
41
1
10
28.3404724345247
20
-22.5641216436696
30
0
41
1
10
28.3138408686757
20
-22.5602329517917
30
0
41
1
10
28.2622381748057
20
-22.5533735352752
30
0
41
1
10
28.2372146386729
20
-22.550394171354
30
0
41
1
10
28.1887892900165
20
-22.5453585506564
30
0
41
1
10
28.1653484721231
20
-22.5433006111012
30
0
41
1
10
28.1205278203844
20
-22.5401670168709
30
0
41
1
10
28.0991130106521
20
-22.5390862759687
30
0
41
1
10
28.0583531995579
20
-22.5379194633083
30
0
41
1
10
28.0389687978263
20
-22.5378352807085
30
0
41
1
10
28.0026604728845
20
-22.538694163986
30
0
41
1
10
27.9857180619027
20
-22.5396341654317
30
0
41
1
10
27.9543438140932
20
-22.5425577438436
30
0
41
1
10
27.9398871621326
20
-22.5445482905825
30
0
41
1
10
27.9138440507434
20
-22.5495678680019
30
0
41
1
10
27.9022292108399
20
-22.5525965942289
30
0
41
1
10
27.8819017591849
20
-22.5597142051575
30
0
41
1
10
27.8731945923227
20
-22.5638087572056
30
0
41
1
10
27.8589496291376
20
-22.5729960467741
30
0
41
1
10
27.8533823432643
20
-22.5780967870199
30
0
41
1
10
27.8474259264181
20
-22.5865250898855
30
0
41
1
10
27.8458451289134
20
-22.5894600422056
30
0
41
1
10
27.8435063342901
20
-22.5955421333985
30
0
41
1
10
27.8427445139339
20
-22.5986942916601
30
0
41
1
10
27.8409520936907
20
-22.6150046993391
30
0
41
1
10
27.8459294272214
20
-22.6297982571562
30
0
41
1
10
27.8602516084127
20
-22.6505132207212
30
0
41
1
10
27.8635237200391
20
-22.6547682171807
30
0
41
1
10
27.8708964025443
20
-22.6635067844352
30
0
41
1
10
27.874985877413
20
-22.6679755156897
30
0
41
1
10
27.8883577439099
20
-22.6815860296917
30
0
41
1
10
27.8987710737032
20
-22.6909673580666
30
0
41
1
10
27.9343332693833
20
-22.7200143601415
30
0
41
1
10
27.9637771582157
20
-22.7405763857277
30
0
41
1
10
28.0163965008481
20
-22.773265596609
30
0
41
1
10
28.0351897573751
20
-22.7843695858001
30
0
41
1
10
28.0750701275151
20
-22.8069277629555
30
0
41
1
10
28.0961739846168
20
-22.8183922266109
30
0
41
1
10
28.1184101349371
20
-22.8300448790525
30
0
0
SPLINE
5
183
100
AcDbEntity
8
1
62
256
6
ByLayer
370
18
48
1
60
0
100
AcDbSpline
70
4
71
3
72
17
73
13
40
0
40
0
40
0
40
0
40
0.125000000000001
40
0.125000000000001
40
0.250000000000001
40
0.250000000000001
40
0.500000000000002
40
0.750000000000002
40
0.750000000000002
40
0.875000000000001
40
0.875000000000001
40
1
40
1
40
1
40
1
41
1
10
38.5052369440731
20
13.118699474276
30
0
41
1
10
38.512936962641
20
13.1386635135045
30
0
41
1
10
38.5202075099204
20
13.1588031736863
30
0
41
1
10
38.5337800440195
20
13.1991178221447
30
0
41
1
10
38.5400996466891
20
13.219337545599
30
0
41
1
10
38.5576665670973
20
13.2801828298195
30
0
41
1
10
38.5773848645346
20
13.3618051846191
30
0
41
1
10
38.5895899245292
20
13.4444321590453
30
0
41
1
10
38.5957819185014
20
13.5067984219965
30
0
41
1
10
38.597351149788
20
13.5276533331926
30
0
41
1
10
38.5994604387772
20
13.5695007697613
30
0
41
1
10
38.6
20
13.5905511944412
30
0
41
1
10
38.6
20
13.61152441658
30
0
0
SPLINE
5
184
100
AcDbEntity
8
1
62
256
6
ByLayer
370
18
48
1
60
0
100
AcDbSpline
70
4
71
3
72
8
73
4
40
0
40
0
40
0
40
0
40
1
40
1
40
1
40
1
41
1
10
38.4913202045936
20
13.0826033394955
30
0
41
1
10
38.4959575166147
20
13.0946358550918
30
0
41
1
10
38.500596432668
20
13.1066678991681
30
0
41
1
10
38.5052369440731
20
13.118699474276
30
0
0
SPLINE
5
185
100
AcDbEntity
8
1
62
256
6
ByLayer
370
18
48
1
60
0
100
AcDbSpline
70
4
71
3
72
18
73
14
40
0
40
0
40
0
40
0
40
0.249999999999998
40
0.249999999999998
40
0.499999999999997
40
0.499999999999997
40
0.562499999999998
40
0.562499999999998
40
0.625
40
0.625
40
0.749999999999999
40
0.749999999999999
40
1
40
1
40
1
40
1
41
1
10
23.5662081750007
20
16.7009176986538
30
0
41
1
10
23.4674533800416
20
16.7117318252342
30
0
41
1
10
23.3723641247807
20
16.7203679470023
30
0
41
1
10
23.1889185280389
20
16.7336396013155
30
0
41
1
10
23.1005650043581
20
16.738273459569
30
0
41
1
10
22.9941163018627
20
16.7416930858341
30
0
41
1
10
22.9730267254589
20
16.7422580767968
30
0
41
1
10
22.9312443545744
20
16.7431522972767
30
0
41
1
10
22.9105663798978
20
16.7434809185706
30
0
41
1
10
22.8493994617605
20
16.7441155505692
30
0
41
1
10
22.8096839885466
20
16.7440728044309
30
0
41
1
10
22.6935678945749
20
16.7426159391304
30
0
41
1
10
22.6201899517666
20
16.739876546177
30
0
41
1
10
22.5505366937277
20
16.7355040890374
30
0
0
SPLINE
5
186
100
AcDbEntity
8
1
62
256
6
ByLayer
370
18
48
1
60
0
100
AcDbSpline
70
4
71
3
72
8
73
4
40
0
40
0
40
0
40
0
40
1
40
1
40
1
40
1
41
1
10
29.3580099226799
20
5.58888139025049
30
0
41
1
10
29.4508475539242
20
5.63403261929102
30
0
41
1
10
29.5415734692881
20
5.67745516888016
30
0
41
1
10
29.6309345042515
20
5.7197519356983
30
0
0
SPLINE
5
187
100
AcDbEntity
8
1
62
256
6
ByLayer
370
18
48
1
60
0
100
AcDbSpline
70
4
71
3
72
8
73
4
40
0
40
0
40
0
40
0
40
1
40
1
40
1
40
1
41
1
10
28.008481717678
20
5.07275812689505
30
0
41
1
10
28.0167989092715
20
5.07463699603846
30
0
41
1
10
28.0251298027124
20
5.076411021882
30
0
41
1
10
28.033474690959
20
5.07808023812709
30
0
0
SPLINE
5
188
100
AcDbEntity
8
1
62
256
6
ByLayer
370
18
48
1
60
0
100
AcDbSpline
70
4
71
3
72
8
73
4
40
0
40
0
40
0
40
0
40
1
40
1
40
1
40
1
41
1
10
29.5987434171911
20
5.8329089091626
30
0
41
1
10
29.464908176494
20
5.73574878938763
30
0
41
1
10
29.3313248597283
20
5.63844807670137
30
0
41
1
10
29.1980779636833
20
5.54099762220676
30
0
0
SPLINE
5
189
100
AcDbEntity
8
1
62
256
6
ByLayer
370
18
48
1
60
0
100
AcDbSpline
70
4
71
3
72
10
73
6
40
0
40
0
40
0
40
0
40
0.5
40
0.5
40
1
40
1
40
1
40
1
41
1
10
32.1454661983995
20
7.50854807402402
30
0
41
1
10
32.0550753601084
20
7.56103270294966
30
0
41
1
10
31.9643057960296
20
7.61184646668096
30
0
41
1
10
31.7819671620309
20
7.70994672843938
30
0
41
1
10
31.690920326991
20
7.75695179285617
30
0
41
1
10
31.6
20
7.80184884227651
30
0
0
SPLINE
5
18A
100
AcDbEntity
8
1
62
256
6
ByLayer
370
18
48
1
60
0
100
AcDbSpline
70
4
71
3
72
47
73
43
40
0
40
0
40
0
40
0
40
0.0360553939583508
40
0.110204979038481
40
0.110204979038481
40
0.147279771578545
40
0.147279771578545
40
0.165817167848577
40
0.165817167848577
40
0.184354564118609
40
0.184354564118609
40
0.258504149198735
40
0.332653734278861
40
0.332653734278861
40
0.369728526818924
40
0.369728526818924
40
0.388265923088956
40
0.388265923088956
40
0.406803319358987
40
0.406803319358987
40
0.480952904439114
40
0.555102489519241
40
0.555102489519241
40
0.592177282059304
40
0.592177282059304
40
0.610714678329336
40
0.610714678329336
40
0.629252074599367
40
0.629252074599367
40
0.703401659679494
40
0.703401659679494
40
0.777551244759621
40
0.777551244759621
40
0.814626037299684
40
0.814626037299684
40
0.833163433569716
40
0.833163433569716
40
0.851700829839747
40
0.851700829839747
40
0.925850414919874
40
0.925850414919874
40
1
40
1
40
1
40
1
41
1
10
38.3922016604442
20
7.4458565565468
30
0
41
1
10
38.3656974781724
20
7.46218103636414
30
0
41
1
10
38.2772317421269
20
7.51064368133405
30
0
41
1
10
38.1662415386209
20
7.55477370319022
30
0
41
1
10
38.0387185987242
20
7.59632930656272
30
0
41
1
10
37.9936207307964
20
7.60968294048081
30
0
41
1
10
37.922006249824
20
7.62895020092407
30
0
41
1
10
37.8974406865068
20
7.63525261141245
30
0
41
1
10
37.8472661977867
20
7.64752874666613
30
0
41
1
10
37.8216319710293
20
7.65351003415577
30
0
41
1
10
37.6907576325252
20
7.68264165908982
30
0
41
1
10
37.4641094842601
20
7.72430816389118
30
0
41
1
10
37.2037429824265
20
7.75631006499651
30
0
41
1
10
36.9956446959981
20
7.77663595026428
30
0
41
1
10
36.9241365342937
20
7.78279727050023
30
0
41
1
10
36.8135926608244
20
7.79109864554903
30
0
41
1
10
36.7761417018614
20
7.79371240001706
30
0
41
1
10
36.7004144822571
20
7.79860371029594
30
0
41
1
10
36.6621787488857
20
7.80087932213883
30
0
41
1
10
36.469161547245
20
7.81141725581023
30
0
41
1
10
36.1486025232737
20
7.82291719500995
30
0
41
1
10
35.8051338684804
20
7.82394849026582
30
0
41
1
10
35.5388267308186
20
7.82074388301589
30
0
41
1
10
35.4486034468506
20
7.81901116091336
30
0
41
1
10
35.3110413757953
20
7.81539437523622
30
0
41
1
10
35.2648159323237
20
7.81401905831007
30
0
41
1
10
35.1716116774508
20
7.81092417008392
30
0
41
1
10
35.1248578084336
20
7.80921206570019
30
0
41
1
10
34.8903423318845
20
7.79983852880304
30
0
41
1
10
34.700346065108
20
7.78974573967577
30
0
41
1
10
34.3157063502001
20
7.76450345859581
30
0
41
1
10
34.1210627168223
20
7.74935376507227
30
0
41
1
10
33.8255693997959
20
7.72279047319495
30
0
41
1
10
33.7264822972371
20
7.71329477907125
30
0
41
1
10
33.576949482127
20
7.69806957586184
30
0
41
1
10
33.5269547566181
20
7.69283079594686
30
0
41
1
10
33.4266601867414
20
7.68202122940613
30
0
41
1
10
33.3764743769029
20
7.67646232370731
30
0
41
1
10
33.1263749664313
20
7.64801749381479
30
0
41
1
10
32.927949876727
20
7.62308076015722
30
0
41
1
10
32.5343017875662
20
7.56898631937747
30
0
41
1
10
32.339079060088
20
7.53982825373527
30
0
41
1
10
32.1454661983979
20
7.50854807402158
30
0
0
SPLINE
5
18B
100
AcDbEntity
8
1
62
256
6
ByLayer
370
18
48
1
60
0
100
AcDbSpline
70
4
71
3
72
16
73
12
40
0
40
0
40
0
40
0
40
0.125000000000005
40
0.187500000000006
40
0.187500000000006
40
0.250000000000007
40
0.250000000000007
40
0.500000000000005
40
0.750000000000002
40
0.750000000000002
40
1
40
1
40
1
40
1
41
1
10
22.5505366937279
20
-1.60129693775394
30
0
41
1
10
22.5871165148332
20
-1.58978041676204
30
0
41
1
10
22.6433286477392
20
-1.5725988621312
30
0
41
1
10
22.7015988301953
20
-1.55556023458081
30
0
41
1
10
22.7409096040875
20
-1.54423337234061
30
0
41
1
10
22.7608258603997
20
-1.53857802834375
30
0
41
1
10
22.8611441241024
20
-1.5105056464086
30
0
41
1
10
23.0263813059532
20
-1.46687828814788
30
0
41
1
10
23.2008668015391
20
-1.42577125921355
30
0
41
1
10
23.3800059562981
20
-1.38593243484331
30
0
41
1
10
23.4719018611155
20
-1.36664698809585
30
0
41
1
10
23.5662081750007
20
-1.34801842051968
30
0
0
SPLINE
5
18C
100
AcDbEntity
8
1
62
256
6
ByLayer
370
18
48
1
60
0
100
AcDbSpline
70
4
71
3
72
8
73
4
40
0
40
0
40
0
40
0
40
1
40
1
40
1
40
1
41
1
10
19.8488928840721
20
-2.45818536826158
30
0
41
1
10
20.743716186139
20
-2.17196803027474
30
0
41
1
10
21.6449408628173
20
-1.88640804769756
30
0
41
1
10
22.5505366937279
20
-1.60129693775394
30
0
0
SPLINE
5
18D
100
AcDbEntity
8
1
62
256
6
ByLayer
370
18
48
1
60
0
100
AcDbSpline
70
4
71
3
72
8
73
4
40
0
40
0
40
0
40
0
40
1
40
1
40
1
40
1
41
1
10
19.8488928840721
20
-2.45818536826158
30
0
41
1
10
19.7584129602038
20
-2.48712619142862
30
0
41
1
10
19.6637046636284
20
-2.51533025985987
30
0
41
1
10
19.5648122418705
20
-2.54280528327615
30
0
0
SPLINE
5
18E
100
AcDbEntity
8
1
62
256
6
ByLayer
370
18
48
1
60
0
100
AcDbSpline
70
4
71
3
72
12
73
8
40
0
40
0
40
0
40
0
40
0.500000000000002
40
0.500000000000002
40
0.750000000000001
40
0.750000000000001
40
1
40
1
40
1
40
1
41
1
10
29.0871539301947
20
0.0415102147890707
30
0
41
1
10
29.0229499258384
20
-0.0132197476390274
30
0
41
1
10
28.9617190616212
20
-0.0715299209008435
30
0
41
1
10
28.8746986207538
20
-0.1647668556609
30
0
41
1
10
28.8464989127551
20
-0.196811107173687
30
0
41
1
10
28.7918163405711
20
-0.262946413510178
30
0
41
1
10
28.7652958545555
20
-0.297104015033199
30
0
41
1
10
28.7400316240196
20
-0.331882660318911
30
0
0
SPLINE
5
18F
100
AcDbEntity
8
1
62
256
6
ByLayer
370
18
48
1
60
0
100
AcDbSpline
70
4
71
3
72
8
73
4
40
0
40
0
40
0
40
0
40
1
40
1
40
1
40
1
41
1
10
29.0871539301946
20
0.0415102147890707
30
0
41
1
10
29.0840843059812
20
0.0871868002884071
30
0
41
1
10
29.0834508741378
20
0.132833807885959
30
0
41
1
10
29.0851255043904
20
0.178452780210307
30
0
0
SPLINE
5
190
100
AcDbEntity
8
1
62
256
6
ByLayer
370
18
48
1
60
0
100
AcDbSpline
70
4
71
3
72
8
73
4
40
0
40
0
40
0
40
0
40
1
40
1
40
1
40
1
41
1
10
29.0851255043901
20
0.178452780210307
30
0
41
1
10
29.0746227041337
20
0.252782478730978
30
0
41
1
10
29.0708526232332
20
0.327335109938133
30
0
41
1
10
29.0733011493943
20
0.402092903686935
30
0
0
SPLINE
5
191
100
AcDbEntity
8
1
62
256
6
ByLayer
370
18
48
1
60
0
100
AcDbSpline
70
4
71
3
72
8
73
4
40
0
40
0
40
0
40
0
40
1
40
1
40
1
40
1
41
1
10
29.0605731995397
20
0.625107003384926
30
0
41
1
10
29.0584242696643
20
0.550502742892661
30
0
41
1
10
29.0625054453083
20
0.476157600192778
30
0
41
1
10
29.0733011493942
20
0.402092903686935
30
0
0
SPLINE
5
192
100
AcDbEntity
8
1
62
256
6
ByLayer
370
18
48
1
60
0
100
AcDbSpline
70
4
71
3
72
8
73
4
40
0
40
0
40
0
40
0
40
1
40
1
40
1
40
1
41
1
10
29.0469480677782
20
0.847499522291287
30
0
41
1
10
29.045097021309
20
0.773047978098646
30
0
41
1
10
29.0494870702162
20
0.698909030663344
30
0
41
1
10
29.0605731995396
20
0.625107003384926
30
0
0
SPLINE
5
193
100
AcDbEntity
8
1
62
256
6
ByLayer
370
18
48
1
60
0
100
AcDbSpline
70
4
71
3
72
8
73
4
40
0
40
0
40
0
40
0
40
1
40
1
40
1
40
1
41
1
10
29.0324317799735
20
1.06927463521276
30
0
41
1
10
29.0308770243413
20
0.994975108374263
30
0
41
1
10
29.0355738464054
20
0.921041146898801
30
0
41
1
10
29.0469480677781
20
0.847499522291287
30
0
0
SPLINE
5
194
100
AcDbEntity
8
1
62
256
6
ByLayer
370
18
48
1
60
0
100
AcDbSpline
70
4
71
3
72
8
73
4
40
0
40
0
40
0
40
0
40
1
40
1
40
1
40
1
41
1
10
29.0170299865328
20
1.29043625683442
30
0
41
1
10
29.0157700454761
20
1.2162881622362
30
0
41
1
10
29.0207716584888
20
1.14255805837473
30
0
41
1
10
29.0324317799734
20
1.06927463521276
30
0
0
SPLINE
5
195
100
AcDbEntity
8
1
62
256
6
ByLayer
370
18
48
1
60
0
100
AcDbSpline
70
4
71
3
72
8
73
4
40
0
40
0
40
0
40
0
40
1
40
1
40
1
40
1
41
1
10
29.0007479731621
20
1.51098804917098
30
0
41
1
10
28.9997814830294
20
1.43699091157498
30
0
41
1
10
29.0050860194915
20
1.36346361519776
30
0
41
1
10
29.0170299865326
20
1.29043625683437
30
0
0
SPLINE
5
196
100
AcDbEntity
8
1
62
256
6
ByLayer
370
18
48
1
60
0
100
AcDbSpline
70
4
71
3
72
8
73
4
40
0
40
0
40
0
40
0
40
1
40
1
40
1
40
1
41
1
10
28.9835906707946
20
1.73093342844521
30
0
41
1
10
28.9829163771361
20
1.65708687874741
30
0
41
1
10
28.9885220813398
20
1.58376141542209
30
0
41
1
10
29.0007479731621
20
1.51098804917098
30
0
0
SPLINE
5
197
100
AcDbEntity
8
1
62
256
6
ByLayer
370
18
48
1
60
0
100
AcDbSpline
70
4
71
3
72
8
73
4
40
0
40
0
40
0
40
0
40
1
40
1
40
1
40
1
41
1
10
29.0871539301946
20
-23.4689528869213
30
0
41
1
10
29.0840926809674
20
-23.4678356299724
30
0
41
1
10
29.0834463634121
20
-23.467403364305
30
0
41
1
10
29.0851255043904
20
-23.4676241879506
30
0
0
SPLINE
5
198
100
AcDbEntity
8
1
62
256
6
ByLayer
370
18
48
1
60
0
100
AcDbSpline
70
4
71
3
72
8
73
4
40
0
40
0
40
0
40
0
40
1
40
1
40
1
40
1
41
1
10
29.0851255043904
20
-23.4676241879506
30
0
41
1
10
29.0747107628575
20
-23.4635366736996
30
0
41
1
10
29.070832303186
20
-23.4613086252495
30
0
41
1
10
29.0733011493943
20
-23.4608529196793
30
0
0
SPLINE
5
199
100
AcDbEntity
8
1
62
256
6
ByLayer
370
18
48
1
60
0
100
AcDbSpline
70
4
71
3
72
8
73
4
40
0
40
0
40
0
40
0
40
1
40
1
40
1
40
1
41
1
10
29.0622185270821
20
-23.4549757957112
30
0
41
1
10
29.0643541736823
20
-23.4564979713116
30
0
41
1
10
29.0680468122106
20
-23.4584554686425
30
0
41
1
10
29.0733011493943
20
-23.4608529196793
30
0
0
SPLINE
5
19A
100
AcDbEntity
8
1
62
256
6
ByLayer
370
18
48
1
60
0
100
AcDbSpline
70
4
71
3
72
8
73
4
40
0
40
0
40
0
40
0
40
1
40
1
40
1
40
1
41
1
10
29.0491672491386
20
-23.4446995540706
30
0
41
1
10
29.0514635805487
20
-23.4465994423709
30
0
41
1
10
29.0552662388263
20
-23.4489188721691
30
0
41
1
10
29.0605731995397
20
-23.4516584080291
30
0
0
SPLINE
5
19B
100
AcDbEntity
8
1
62
256
6
ByLayer
370
18
48
1
60
0
100
AcDbSpline
70
4
71
3
72
8
73
4
40
0
40
0
40
0
40
0
40
1
40
1
40
1
40
1
41
1
10
29.0352333535247
20
-23.4320600679961
30
0
41
1
10
29.0376824476273
20
-23.4343224607845
30
0
41
1
10
29.0415900627812
20
-23.4369896362136
30
0
41
1
10
29.0469480677782
20
-23.4400578511309
30
0
0
SPLINE
5
19C
100
AcDbEntity
8
1
62
256
6
ByLayer
370
18
48
1
60
0
100
AcDbSpline
70
4
71
3
72
8
73
4
40
0
40
0
40
0
40
0
40
1
40
1
40
1
40
1
41
1
10
29.0204217249358
20
-23.4170703900896
30
0
41
1
10
29.0230163248614
20
-23.4196812277102
30
0
41
1
10
29.0270242274883
20
-23.4226829538958
30
0
41
1
10
29.0324317799735
20
-23.4260674090301
30
0
0
SPLINE
5
19D
100
AcDbEntity
8
1
62
256
6
ByLayer
370
18
48
1
60
0
100
AcDbSpline
70
4
71
3
72
10
73
6
40
0
40
0
40
0
40
0
40
0.456278998566638
40
0.456278998566638
40
1
40
1
40
1
40
1
41
1
10
29.0047355126518
20
-23.3997412811297
30
0
41
1
10
29.0059833182472
20
-23.4010864321161
30
0
41
1
10
29.0075177750267
20
-23.4025115548523
30
0
41
1
10
29.0114974854655
20
-23.4057993067297
30
0
41
1
10
29.0140630149936
20
-23.407695970814
30
0
41
1
10
29.0170299865328
20
-23.4097022348807
30
0
0
SPLINE
5
19E
100
AcDbEntity
8
1
62
256
6
ByLayer
370
18
48
1
60
0
100
AcDbSpline
70
4
71
3
72
10
73
6
40
0
40
0
40
0
40
0
40
0.448430700502556
40
0.448430700502556
40
1
40
1
40
1
40
1
41
1
10
28.9881769463943
20
-23.3800816821304
30
0
41
1
10
28.9894630242675
20
-23.3815496236239
30
0
41
1
10
28.9910181264485
20
-23.3830925131767
30
0
41
1
10
28.995073164936
20
-23.3866873153283
30
0
41
1
10
28.997710555576
20
-23.388777834974
30
0
41
1
10
29.0007479731621
20
-23.3909765037882
30
0
0
SPLINE
5
19F
100
AcDbEntity
8
1
62
256
6
ByLayer
370
18
48
1
60
0
100
AcDbSpline
70
4
71
3
72
10
73
6
40
0
40
0
40
0
40
0
40
0.5
40
0.5
40
1
40
1
40
1
40
1
41
1
10
28.9835906707946
20
-23.3699034394341
30
0
41
1
10
28.9773990870467
20
-23.3651415996526
30
0
41
1
10
28.9728018739309
20
-23.3608130026409
30
0
41
1
10
28.9667868461694
20
-23.3530110272566
30
0
41
1
10
28.9653694875147
20
-23.3495328098801
30
0
41
1
10
28.9655626647359
20
-23.3464953386036
30
0
0
SPLINE
5
1A0
100
AcDbEntity
8
1
62
256
6
ByLayer
370
18
48
1
60
0
100
AcDbSpline
70
4
71
3
72
10
73
6
40
0
40
0
40
0
40
0
40
0.433715815695383
40
0.433715815695383
40
1
40
1
40
1
40
1
41
1
10
28.9524570380681
20
-23.3338094875398
30
0
41
1
10
28.9538098697817
20
-23.3354994482772
30
0
41
1
10
28.9554012212838
20
-23.3372555467762
30
0
41
1
10
28.9596057921967
20
-23.3414405472027
30
0
41
1
10
28.9623856341385
20
-23.3439153956047
30
0
41
1
10
28.9655626647359
20
-23.3464953386036
30
0
0
SPLINE
5
1A1
100
AcDbEntity
8
1
62
256
6
ByLayer
370
18
48
1
60
0
100
AcDbSpline
70
4
71
3
72
10
73
6
40
0
40
0
40
0
40
0
40
0.42703203729425
40
0.42703203729425
40
1
40
1
40
1
40
1
41
1
10
28.9332992958982
20
-23.3072106478555
30
0
41
1
10
28.9346822854891
20
-23.3090030010508
30
0
41
1
10
28.9362909557395
20
-23.3108577179375
30
0
41
1
10
28.9405714689483
20
-23.3153291609268
30
0
41
1
10
28.9434219525149
20
-23.3179946286222
30
0
41
1
10
28.9466682030704
20
-23.3207635937279
30
0
0
SPLINE
5
1A2
100
AcDbEntity
8
1
62
256
6
ByLayer
370
18
48
1
60
0
100
AcDbSpline
70
4
71
3
72
10
73
6
40
0
40
0
40
0
40
0
40
0.420811591979262
40
0.420811591979262
40
1
40
1
40
1
40
1
41
1
10
28.9132799820261
20
-23.2783131104683
30
0
41
1
10
28.9146917221984
20
-23.2802035783101
30
0
41
1
10
28.9163177222182
20
-23.2821530060353
30
0
41
1
10
28.9206753222717
20
-23.2869065549347
30
0
41
1
10
28.9235960909909
20
-23.2897617052587
30
0
41
1
10
28.9269112043625
20
-23.2927187135375
30
0
0
SPLINE
5
1A3
100
AcDbEntity
8
1
62
256
6
ByLayer
370
18
48
1
60
0
100
AcDbSpline
70
4
71
3
72
10
73
6
40
0
40
0
40
0
40
0
40
0.415210128671612
40
0.415210128671612
40
1
40
1
40
1
40
1
41
1
10
28.8923989143562
20
-23.2471197956019
30
0
41
1
10
28.8938391155675
20
-23.2491062438668
30
0
41
1
10
28.8954837017138
20
-23.2511486592252
30
0
41
1
10
28.8999209000136
20
-23.256182235192
30
0
41
1
10
28.9029116211544
20
-23.2592261988365
30
0
41
1
10
28.9062952646883
20
-23.2623703419212
30
0
0
SPLINE
5
1A4
100
AcDbEntity
8
1
62
256
6
ByLayer
370
18
48
1
60
0
100
AcDbSpline
70
4
71
3
72
10
73
6
40
0
40
0
40
0
40
0
40
0.5
40
0.5
40
1
40
1
40
1
40
1
41
1
10
28.8666782350164
20
-23.2072540634046
30
0
41
1
10
28.8685173466538
20
-23.2106787508014
30
0
41
1
10
28.8709624589129
20
-23.2142865704679
30
0
41
1
10
28.8770219810959
20
-23.2217888109351
30
0
41
1
10
28.8806345789154
20
-23.2256855500013
30
0
41
1
10
28.8848236640281
20
-23.2297272750666
30
0
0
SPLINE
5
1A5
100
AcDbEntity
8
1
62
256
6
ByLayer
370
18
48
1
60
0
100
AcDbSpline
70
4
71
3
72
12
73
8
40
0
40
0
40
0
40
0
40
0.249999999999999
40
0.249999999999999
40
0.499999999999999
40
0.499999999999999
40
1
40
1
40
1
40
1
41
1
10
29.9048205719288
20
-22.9988063258544
30
0
41
1
10
29.8789564384815
20
-22.99072390326
30
0
41
1
10
29.8530703832648
20
-22.9828059301167
30
0
41
1
10
29.8012536584578
20
-22.9673063920912
30
0
41
1
10
29.7754371883491
20
-22.9597596734299
30
0
41
1
10
29.6987097986231
20
-22.9378535231659
30
0
41
1
10
29.6483326566989
20
-22.9241698314613
30
0
41
1
10
29.5987434171911
20
-22.9114078701311
30
0
0
SPLINE
5
1A6
100
AcDbEntity
8
1
62
256
6
ByLayer
370
18
48
1
60
0
100
AcDbSpline
70
4
71
3
72
8
73
4
40
0
40
0
40
0
40
0
40
1
40
1
40
1
40
1
41
1
10
29.9048205719288
20
-22.9988063258546
30
0
41
1
10
29.965884172238
20
-23.0178884197449
30
0
41
1
10
30.0269480478897
20
-23.0369697094368
30
0
41
1
10
30.0880121967216
20
-23.0560502011409
30
0
0
SPLINE
5
1A7
100
AcDbEntity
8
1
62
256
6
ByLayer
370
18
48
1
60
0
100
AcDbSpline
70
4
71
3
72
8
73
4
40
0
40
0
40
0
40
0
40
1
40
1
40
1
40
1
41
1
10
30.1842628515857
20
-23.0738750444193
30
0
41
1
10
30.1512874973368
20
-23.0672741546376
30
0
41
1
10
30.1191738225484
20
-23.0613135508071
30
0
41
1
10
30.0880121967214
20
-23.0560502011396
30
0
0
SPLINE
5
1A8
100
AcDbEntity
8
1
62
256
6
ByLayer
370
18
48
1
60
0
100
AcDbSpline
70
4
71
3
72
72
73
68
40
0
40
0
40
0
40
0
40
0.0625000000000002
40
0.0625000000000002
40
0.0781249999999997
40
0.0781249999999997
40
0.0937499999999991
40
0.0937499999999991
40
0.124999999999998
40
0.124999999999998
40
0.187499999999997
40
0.187499999999997
40
0.249999999999996
40
0.249999999999996
40
0.281249999999997
40
0.281249999999997
40
0.312499999999997
40
0.312499999999997
40
0.374999999999999
40
0.374999999999999
40
0.437500000000001
40
0.437500000000001
40
0.468750000000002
40
0.468750000000002
40
0.484375000000001
40
0.484375000000001
40
0.500000000000001
40
0.500000000000001
40
0.562499999999999
40
0.562499999999999
40
0.593749999999999
40
0.593749999999999
40
0.624999999999998
40
0.624999999999998
40
0.656249999999998
40
0.656249999999998
40
0.671874999999998
40
0.671874999999998
40
0.687499999999997
40
0.687499999999997
40
0.718749999999997
40
0.718749999999997
40
0.749999999999996
40
0.749999999999996
40
0.765624999999996
40
0.765624999999996
40
0.781249999999996
40
0.781249999999996
40
0.812499999999996
40
0.812499999999996
40
0.828124999999996
40
0.828124999999996
40
0.843749999999996
40
0.843749999999996
40
0.874999999999997
40
0.874999999999997
40
0.890624999999997
40
0.890624999999997
40
0.906249999999998
40
0.906249999999998
40
0.937499999999999
40
0.937499999999999
40
0.953125
40
0.953125
40
0.968750000000001
40
0.968750000000001
40
1
40
1
40
1
40
1
41
1
10
31.5872997534212
20
-23.0279082045487
30
0
41
1
10
31.5399893927598
20
-23.003071582052
30
0
41
1
10
31.4907161342394
20
-22.9787599317066
30
0
41
1
10
31.427008892897
20
-22.9489606352954
30
0
41
1
10
31.4141605772314
20
-22.9430305493301
30
0
41
1
10
31.3882547747817
20
-22.9312292129255
30
0
41
1
10
31.3751807482569
20
-22.9253507971559
30
0
41
1
10
31.3358872886538
20
-22.9079075279698
30
0
41
1
10
31.3095354417613
20
-22.8965055905491
30
0
41
1
10
31.230042552116
20
-22.8629379439173
30
0
41
1
10
31.1764668489017
20
-22.8414066376674
30
0
41
1
10
31.0682385023213
20
-22.7999269750631
30
0
41
1
10
31.0135852525599
20
-22.7799794471563
30
0
41
1
10
30.9307984111391
20
-22.751249111117
30
0
41
1
10
30.9030462717269
20
-22.7418645798467
30
0
41
1
10
30.8473541504077
20
-22.7235339098667
30
0
41
1
10
30.8196097140863
20
-22.7146517592589
30
0
41
1
10
30.7366784885455
20
-22.6888471350352
30
0
41
1
10
30.6817917663076
20
-22.6727616464925
30
0
41
1
10
30.572852376946
20
-22.6428989272571
30
0
41
1
10
30.5187988601549
20
-22.6291196982814
30
0
41
1
10
30.4384237836837
20
-22.6103692532097
30
0
41
1
10
30.4117502654295
20
-22.6044403694977
30
0
41
1
10
30.3719351915648
20
-22.5960713889526
30
0
41
1
10
30.3586781188684
20
-22.5933659527058
30
0
41
1
10
30.3324124755781
20
-22.5881740301054
30
0
41
1
10
30.3193860772226
20
-22.5856835743518
30
0
41
1
10
30.2548022234404
20
-22.5737723946732
30
0
41
1
10
30.2048684189649
20
-22.5659559848849
30
0
41
1
10
30.1330945985428
20
-22.5572615423267
30
0
41
1
10
30.1096948340075
20
-22.5548718018044
30
0
41
1
10
30.0641032914299
20
-22.5512503688828
30
0
41
1
10
30.042218447798
20
-22.5500442989519
30
0
41
1
10
30.0005180887879
20
-22.5489468969909
30
0
41
1
10
29.9806887763539
20
-22.54905373077
30
0
41
1
10
29.9526783368713
20
-22.5503172731199
30
0
41
1
10
29.9436313142106
20
-22.550922874985
30
0
41
1
10
29.9261640228984
20
-22.5525312701732
30
0
41
1
10
29.9177151171999
20
-22.5535387938568
30
0
41
1
10
29.8936372914382
20
-22.5571721167539
30
0
41
1
10
29.8792925557738
20
-22.56039427424
30
0
41
1
10
29.8543084633191
20
-22.5685625924517
30
0
41
1
10
29.8436660926417
20
-22.5735073584253
30
0
41
1
10
29.8308514932023
20
-22.5823816169003
30
0
41
1
10
29.8271491620722
20
-22.5855580650398
30
0
41
1
10
29.8209474654536
20
-22.592293053393
30
0
41
1
10
29.8184364202828
20
-22.5958594790887
30
0
41
1
10
29.8126761141983
20
-22.6071556748603
30
0
41
1
10
29.8111930848694
20
-22.6154800107034
30
0
41
1
10
29.8126312307531
20
-22.629197800272
30
0
41
1
10
29.8137342456888
20
-22.6339994308826
30
0
41
1
10
29.8171272688654
20
-22.6438395792641
30
0
41
1
10
29.8194132044858
20
-22.6488910440072
30
0
41
1
10
29.8279580523268
20
-22.664422081016
30
0
41
1
10
29.8358980707635
20
-22.6752768768513
30
0
41
1
10
29.8509745575957
20
-22.6922701315214
30
0
41
1
10
29.8565473164842
20
-22.6980684571682
30
0
41
1
10
29.8685505001163
20
-22.7097301988673
30
0
41
1
10
29.8749945969532
20
-22.7156113722223
30
0
41
1
10
29.895564121389
20
-22.7333971105975
30
0
41
1
10
29.9109219727001
20
-22.7454433354407
30
0
41
1
10
29.9361750437988
20
-22.7637742201374
30
0
41
1
10
29.9449902816426
20
-22.7699458565019
30
0
41
1
10
29.9631448469263
20
-22.7822488120227
30
0
41
1
10
29.972492889476
20
-22.7883878608019
30
0
41
1
10
30.0012856462399
20
-22.8067723350119
30
0
41
1
10
30.0214759502661
20
-22.8189852638666
30
0
41
1
10
30.042539002761
20
-22.8311643695634
30
0
0
SPLINE
5
1A9
100
AcDbEntity
8
1
62
256
6
ByLayer
370
18
48
1
60
0
100
AcDbSpline
70
4
71
2
72
6
73
3
40
0
40
0
40
0
40
1
40
1
40
1
41
0.500000004241247
10
31.6
20
-23.0345743782593
30
0
41
0.499999995758753
10
31.5936497280721
20
-23.0312417644934
30
0
41
0.500000004241247
10
31.5872997534213
20
-23.0279082045487
30
0
0
SPLINE
5
1AA
100
AcDbEntity
8
1
62
256
6
ByLayer
370
18
48
1
60
0
100
AcDbSpline
70
4
71
3
72
20
73
16
40
0
40
0
40
0
40
0
40
0.0624999999999933
40
0.0624999999999933
40
0.124999999999986
40
0.24999999999998
40
0.374999999999971
40
0.374999999999971
40
0.437499999999971
40
0.437499999999971
40
0.499999999999971
40
0.499999999999971
40
0.749999999999985
40
0.749999999999985
40
1
40
1
40
1
40
1
41
1
10
31.1446351446121
20
-18.3170005265138
30
0
41
1
10
31.1235982285167
20
-18.3108822316517
30
0
41
1
10
31.1024650102988
20
-18.3043536563237
30
0
41
1
10
31.0603622696597
20
-18.2905782719241
30
0
41
1
10
30.9976376340627
20
-18.268904110627
30
0
41
1
10
30.8951771315432
20
-18.2278826896575
30
0
41
1
10
30.8153115460175
20
-18.1901164065378
30
0
41
1
10
30.7561664754751
20
-18.1600173876556
30
0
41
1
10
30.7365772171538
20
-18.1496884795138
30
0
41
1
10
30.6976454531939
20
-18.1284502151147
30
0
41
1
10
30.6782797870031
20
-18.1175257570272
30
0
41
1
10
30.5829442214294
20
-18.0620094942969
30
0
41
1
10
30.5107182263489
20
-18.0143918992593
30
0
41
1
10
30.372791196436
20
-17.9138890566035
30
0
41
1
10
30.3071007586402
20
-17.8609954814441
30
0
41
1
10
30.2441896488332
20
-17.8058072335737
30
0
0
SPLINE
5
1AB
100
AcDbEntity
8
1
62
256
6
ByLayer
370
18
48
1
60
0
100
AcDbSpline
70
4
71
3
72
14
73
10
40
0
40
0
40
0
40
0
40
0.25
40
0.25
40
0.5
40
0.5
40
0.75
40
0.75
40
1
40
1
40
1
40
1
41
1
10
30.2441896488332
20
-17.8058072335737
30
0
41
1
10
29.677846814743
20
-17.4816390762799
30
0
41
1
10
29.1136087529327
20
-17.1535744780594
30
0
41
1
10
27.9898211926577
20
-16.4887656205065
30
0
41
1
10
27.4302709334201
20
-16.1520227695481
30
0
41
1
10
26.316429365606
20
-15.4688014820842
30
0
41
1
10
25.7621370018172
20
-15.1223249990313
30
0
41
1
10
24.6595009268981
20
-14.4183596427025
30
0
41
1
10
24.1111557142544
20
-14.0608735490894
30
0
41
1
10
23.5662081750007
20
-13.6970975428913
30
0
0
SPLINE
5
1AC
100
AcDbEntity
8
1
62
256
6
ByLayer
370
18
48
1
60
0
100
AcDbSpline
70
4
71
3
72
8
73
4
40
0
40
0
40
0
40
0
40
1
40
1
40
1
40
1
41
1
10
31.6
20
-18.5724129841054
30
0
41
1
10
31.4480721601319
20
-18.4875338477081
30
0
41
1
10
31.2962826252306
20
-18.4023986754736
30
0
41
1
10
31.1446351446121
20
-18.3170005265138
30
0
0
SPLINE
5
1AD
100
AcDbEntity
8
1
62
256
6
ByLayer
370
18
48
1
60
0
100
AcDbSpline
70
4
71
3
72
61
73
57
40
0
40
0
40
0
40
0
40
0.0625000000000049
40
0.0625000000000049
40
0.12500000000001
40
0.12500000000001
40
0.156250000000013
40
0.156250000000013
40
0.171875000000014
40
0.171875000000014
40
0.187500000000015
40
0.187500000000015
40
0.250000000000016
40
0.250000000000016
40
0.312500000000017
40
0.312500000000017
40
0.343750000000017
40
0.343750000000017
40
0.359375000000017
40
0.359375000000017
40
0.375000000000017
40
0.375000000000017
40
0.437500000000017
40
0.437500000000017
40
0.500000000000016
40
0.500000000000016
40
0.531250000000016
40
0.531250000000016
40
0.562500000000015
40
0.562500000000015
40
0.625000000000014
40
0.625000000000014
40
0.656250000000013
40
0.656250000000013
40
0.671875000000012
40
0.679687500000012
40
0.679687500000012
40
0.687500000000012
40
0.687500000000012
40
0.750000000000009
40
0.750000000000009
40
0.812500000000007
40
0.812500000000007
40
0.828125000000006
40
0.828125000000006
40
0.843750000000006
40
0.843750000000006
40
0.875000000000004
40
0.875000000000004
40
0.937500000000002
40
0.937500000000002
40
0.968750000000001
40
0.968750000000001
40
0.984375000000001
40
0.984375000000001
40
1
40
1
40
1
40
1
41
1
10
38.6
20
-14.467888804168
30
0
41
1
10
38.6
20
-14.6799765465119
30
0
41
1
10
38.5894242089329
20
-14.88998743903
30
0
41
1
10
38.5462786640848
20
-15.3056900996299
30
0
41
1
10
38.5137160958092
20
-15.511383278785
30
0
41
1
10
38.4472062021975
20
-15.8164538304771
30
0
41
1
10
38.4220855992259
20
-15.9175645747014
30
0
41
1
10
38.3797623879461
20
-16.0683190453695
30
0
41
1
10
38.3648803904987
20
-16.1184184881026
30
0
41
1
10
38.3335245650621
20
-16.2183047735032
30
0
41
1
10
38.3171159368123
20
-16.2678803839449
30
0
41
1
10
38.2315710395308
20
-16.5134722943401
30
0
41
1
10
38.1518145155237
20
-16.7031187895712
30
0
41
1
10
37.9694060638765
20
-17.0686044206401
30
0
41
1
10
37.8667601550609
20
-17.2444471862054
30
0
41
1
10
37.6947640981466
20
-17.4973398100269
30
0
41
1
10
37.6344200766446
20
-17.5798209255194
30
0
41
1
10
37.5391988367498
20
-17.7007050644667
30
0
41
1
10
37.5066736075556
20
-17.7405264844114
30
0
41
1
10
37.4400141653402
20
-17.819199006489
30
0
41
1
10
37.4058576080306
20
-17.8580675130645
30
0
41
1
10
37.2325003106467
20
-18.048273497505
30
0
41
1
10
37.0844794846352
20
-18.1886191689775
30
0
41
1
10
36.7701004548403
20
-18.4460933857666
30
0
41
1
10
36.6037438259524
20
-18.563223925073
30
0
41
1
10
36.3400693234079
20
-18.7210175053653
30
0
41
1
10
36.2498145216084
20
-18.7706231679408
30
0
41
1
10
36.0644236088751
20
-18.8636542217686
30
0
41
1
10
35.9703791428975
20
-18.9065283055073
30
0
41
1
10
35.6846499492536
20
-19.0243893463471
30
0
41
1
10
35.4892357267499
20
-19.0887314668947
30
0
41
1
10
35.1888970608763
20
-19.1644016180334
30
0
41
1
10
35.0875775646101
20
-19.1861404234456
30
0
41
1
10
34.9337773539578
20
-19.213489838835
30
0
41
1
10
34.8564216677566
20
-19.2258488684446
30
0
41
1
10
34.7783774017661
20
-19.2362193392967
30
0
41
1
10
34.7261940708656
20
-19.2426887670086
30
0
41
1
10
34.7000011613626
20
-19.2457037982081
30
0
41
1
10
34.46429614855
20
-19.2707550190505
30
0
41
1
10
34.2545995979473
20
-19.2783493355913
30
0
41
1
10
33.8348662899039
20
-19.2659553511182
30
0
41
1
10
33.6248294195422
20
-19.2459578949129
30
0
41
1
10
33.3620737443266
20
-19.2039685727792
30
0
41
1
10
33.3095120928854
20
-19.1947180806099
30
0
41
1
10
33.2043676899525
20
-19.174506388094
30
0
41
1
10
33.1517061851717
20
-19.1635258439304
30
0
41
1
10
32.9946171990811
20
-19.1282211353379
30
0
41
1
10
32.8908943863208
20
-19.1015107911213
30
0
41
1
10
32.5826191972001
20
-19.0122260466824
30
0
41
1
10
32.380950193296
20
-18.9405291827568
30
0
41
1
10
32.0839593971008
20
-18.8155426805917
30
0
41
1
10
31.9858838589544
20
-18.7709653911696
30
0
41
1
10
31.8401419030757
20
-18.6997607519189
30
0
41
1
10
31.7917899504849
20
-18.6753023091459
30
0
41
1
10
31.6955433139568
20
-18.6249387091165
30
0
41
1
10
31.6475950372779
20
-18.5990034079834
30
0
41
1
10
31.6
20
-18.5724129841054
30
0
0
SPLINE
5
1AE
100
AcDbEntity
8
1
62
256
6
ByLayer
370
18
48
1
60
0
100
AcDbSpline
70
4
71
3
72
18
73
14
40
0
40
0
40
0
40
0
40
0.249999999999999
40
0.249999999999999
40
0.374999999999995
40
0.374999999999995
40
0.437499999999994
40
0.437499999999994
40
0.499999999999992
40
0.499999999999992
40
0.749999999999996
40
0.749999999999996
40
1
40
1
40
1
40
1
41
1
10
36.5842891677809
20
-7.74344713939786
30
0
41
1
10
36.5359110487162
20
-7.5929147248454
30
0
41
1
10
36.4939673729428
20
-7.44055210586708
30
0
41
1
10
36.4402704691295
20
-7.20938604837045
30
0
41
1
10
36.4239108339122
20
-7.13189285013567
30
0
41
1
10
36.4016502675889
20
-7.01500484936105
30
0
41
1
10
36.3946046808677
20
-6.97590203974096
30
0
41
1
10
36.3812959530622
20
-6.89763423544849
30
0
41
1
10
36.3750393657563
20
-6.85851221835901
30
0
41
1
10
36.3457043905896
20
-6.66296033550952
30
0
41
1
10
36.3284547893452
20
-6.50670462645019
30
0
41
1
10
36.3056015348867
20
-6.19454117438647
30
0
41
1
10
36.2999999999999
20
-6.03863349467503
30
0
41
1
10
36.2999999999999
20
-5.88289318167279
30
0
0
SPLINE
5
1AF
100
AcDbEntity
8
1
62
256
6
ByLayer
370
18
48
1
60
0
100
AcDbSpline
70
4
71
3
72
28
73
24
40
0
40
0
40
0
40
0
40
0.124999999999997
40
0.124999999999997
40
0.187499999999997
40
0.187499999999997
40
0.218749999999996
40
0.218749999999996
40
0.249999999999994
40
0.249999999999994
40
0.374999999999994
40
0.374999999999994
40
0.499999999999993
40
0.499999999999993
40
0.624999999999992
40
0.624999999999992
40
0.687499999999994
40
0.687499999999994
40
0.749999999999997
40
0.749999999999997
40
0.874999999999998
40
0.874999999999998
40
1
40
1
40
1
40
1
41
1
10
17.8709572518559
20
-6.79314405836772
30
0
41
1
10
17.9767795007887
20
-6.83729346217513
30
0
41
1
10
18.0796154758612
20
-6.88904679269149
30
0
41
1
10
18.2301261711804
20
-6.97620824186009
30
0
41
1
10
18.279669047972
20
-7.00685948752869
30
0
41
1
10
18.3531085726124
20
-7.05506382863337
30
0
41
1
10
18.3774697935379
20
-7.07152368614044
30
0
41
1
10
18.4256194052305
20
-7.10495660640225
30
0
41
1
10
18.4494398754196
20
-7.12194964255201
30
0
41
1
10
18.5673420266763
20
-7.20821997435775
30
0
41
1
10
18.6578490458866
20
-7.28138451789812
30
0
41
1
10
18.8325904637967
20
-7.4345347343002
30
0
41
1
10
18.9168163055582
20
-7.51452971236085
30
0
41
1
10
19.0798373024322
20
-7.68042524110143
30
0
41
1
10
19.1586281126794
20
-7.76633051658308
30
0
41
1
10
19.2731461221151
20
-7.89917740172189
30
0
41
1
10
19.3107264936893
20
-7.94415276461842
30
0
41
1
10
19.3846193137509
20
-8.03527591864849
30
0
41
1
10
19.4207960061923
20
-8.08125432968319
30
0
41
1
10
19.5271511160985
20
-8.22036739791008
30
0
41
1
10
19.5951615278635
20
-8.31467612016581
30
0
41
1
10
19.7259081180894
20
-8.50614978090374
30
0
41
1
10
19.7886420659966
20
-8.60331592732348
30
0
41
1
10
19.8488928840723
20
-8.70182679160234
30
0
0
SPLINE
5
1B0
100
AcDbEntity
8
1
62
256
6
ByLayer
370
18
48
1
60
0
100
AcDbSpline
70
4
71
3
72
10
73
6
40
0
40
0
40
0
40
0
40
0.5
40
0.5
40
1
40
1
40
1
40
1
41
1
10
22.5505366937277
20
-12.7077981953154
30
0
41
1
10
22.0751934362116
20
-12.0578355942257
30
0
41
1
10
21.6105167588897
20
-11.400342225271
30
0
41
1
10
20.7078765553148
20
-10.0664955963767
30
0
41
1
10
20.2698883305897
20
-9.39015977393427
30
0
41
1
10
19.8488928840721
20
-8.70182679160234
30
0
0
SPLINE
5
1B1
100
AcDbEntity
8
1
62
256
6
ByLayer
370
18
48
1
60
0
100
AcDbSpline
70
4
71
3
72
18
73
14
40
0
40
0
40
0
40
0
40
0.249999999999974
40
0.249999999999974
40
0.312499999999974
40
0.312499999999974
40
0.374999999999973
40
0.374999999999973
40
0.499999999999978
40
0.499999999999978
40
0.749999999999989
40
0.749999999999989
40
1
40
1
40
1
40
1
41
1
10
23.5662081750007
20
-13.6970975428913
30
0
41
1
10
23.467728140194
20
-13.6313578685709
30
0
41
1
10
23.3724448559929
20
-13.5605719304688
30
0
41
1
10
23.2571090072037
20
-13.4661410875695
30
0
41
1
10
23.2342307816983
20
-13.4469566590828
30
0
41
1
10
23.1888485363671
20
-13.4079970958577
30
0
41
1
10
23.1663167630905
20
-13.3881965887887
30
0
41
1
10
23.0995353911098
20
-13.3281496887511
30
0
41
1
10
23.0560865871767
20
-13.2872538288086
30
0
41
1
10
22.9287851677254
20
-13.1621106445536
30
0
41
1
10
22.8479690660874
20
-13.0754145531915
30
0
41
1
10
22.6937753449847
20
-12.8960236789529
30
0
41
1
10
22.6204004513093
20
-12.8033266978903
30
0
41
1
10
22.5505366937277
20
-12.7077981953154
30
0
0
SPLINE
5
1B2
100
AcDbEntity
8
1
62
256
6
ByLayer
370
18
48
1
60
0
100
AcDbSpline
70
2053
71
3
72
153
73
149
40
0
40
0
40
0
40
0
40
0.0312500000000045
40
0.0312500000000045
40
0.062500000000009
40
0.062500000000009
40
0.0703125000000099
40
0.0703125000000099
40
0.0781250000000107
40
0.0781250000000107
40
0.0937500000000119
40
0.0937500000000119
40
0.109375000000013
40
0.109375000000013
40
0.125000000000014
40
0.125000000000014
40
0.132812500000014
40
0.132812500000014
40
0.140625000000015
40
0.140625000000015
40
0.156250000000015
40
0.156250000000015
40
0.164062500000015
40
0.164062500000015
40
0.171875000000015
40
0.171875000000015
40
0.187500000000016
40
0.187500000000016
40
0.191406250000016
40
0.191406250000016
40
0.195312500000015
40
0.203125000000015
40
0.207031250000015
40
0.207031250000015
40
0.210937500000015
40
0.210937500000015
40
0.218750000000015
40
0.226562500000015
40
0.226562500000015
40
0.230468750000015
40
0.230468750000015
40
0.234375000000014
40
0.234375000000014
40
0.250000000000015
40
0.250000000000015
40
0.257812500000015
40
0.257812500000015
40
0.265625000000015
40
0.265625000000015
40
0.281250000000015
40
0.281250000000015
40
0.296875000000016
40
0.296875000000016
40
0.312500000000016
40
0.312500000000016
40
0.328125000000016
40
0.328125000000016
40
0.343750000000017
40
0.343750000000017
40
0.375000000000018
40
0.375000000000018
40
0.406250000000019
40
0.406250000000019
40
0.43750000000002
40
0.43750000000002
40
0.45312500000002
40
0.45312500000002
40
0.46875000000002
40
0.46875000000002
40
0.500000000000021
40
0.500000000000021
40
0.507812500000022
40
0.507812500000022
40
0.515625000000022
40
0.515625000000022
40
0.531250000000022
40
0.531250000000022
40
0.546875000000022
40
0.546875000000022
40
0.554687500000023
40
0.554687500000023
40
0.558593750000023
40
0.558593750000023
40
0.562500000000023
40
0.562500000000023
40
0.578125000000026
40
0.578125000000026
40
0.585937500000027
40
0.585937500000027
40
0.589843750000028
40
0.589843750000028
40
0.593750000000028
40
0.593750000000028
40
0.60937500000003
40
0.60937500000003
40
0.61718750000003
40
0.62109375000003
40
0.62109375000003
40
0.62500000000003
40
0.62500000000003
40
0.640625000000029
40
0.640625000000029
40
0.648437500000028
40
0.648437500000028
40
0.656250000000027
40
0.656250000000027
40
0.671875000000025
40
0.671875000000025
40
0.687500000000024
40
0.687500000000024
40
0.695312500000023
40
0.695312500000023
40
0.703125000000023
40
0.703125000000023
40
0.718750000000021
40
0.718750000000021
40
0.73437500000002
40
0.73437500000002
40
0.742187500000019
40
0.742187500000019
40
0.750000000000019
40
0.750000000000019
40
0.781250000000016
40
0.781250000000016
40
0.789062500000016
40
0.789062500000016
40
0.796875000000015
40
0.796875000000015
40
0.812500000000014
40
0.812500000000014
40
0.843750000000012
40
0.843750000000012
40
0.851562500000012
40
0.851562500000012
40
0.859375000000012
40
0.859375000000012
40
0.875000000000011
40
0.875000000000011
40
0.906250000000008
40
0.906250000000008
40
0.914062500000007
40
0.914062500000007
40
0.921875000000007
40
0.937500000000005
40
0.937500000000005
40
0.968750000000003
40
0.968750000000003
40
1
40
1
40
1
40
1
41
1
10
31.3779731110165
20
-3.78573739998781
30
0
41
1
10
31.4088977517372
20
-3.69152702168617
30
0
41
1
10
31.4340071410462
20
-3.59862734903464
30
0
41
1
10
31.474494250551
20
-3.41577544113755
30
0
41
1
10
31.489871466062
20
-3.32582097587243
30
0
41
1
10
31.5032521495771
20
-3.21540295094843
30
0
41
1
10
31.5056342737345
20
-3.19338801192316
30
0
41
1
10
31.5097627243438
20
-3.14995854825565
30
0
41
1
10
31.5115153383559
20
-3.12849954035965
30
0
41
1
10
31.5158477706782
20
-3.06487719912161
30
0
41
1
10
31.5175072077759
20
-3.02346733102462
30
0
41
1
10
31.5183063651467
20
-2.94262040967681
30
0
41
1
10
31.5174480948253
20
-2.90318318187377
30
0
41
1
10
31.5129679435115
20
-2.8262851877534
30
0
41
1
10
31.5093507087168
20
-2.78882387039647
30
0
41
1
10
31.5014618101671
20
-2.73415512903807
30
0
41
1
10
31.4984101781799
20
-2.71614812463162
30
0
41
1
10
31.4914354070434
20
-2.6809475240363
30
0
41
1
10
31.4875115507973
20
-2.66373261211675
30
0
41
1
10
31.4742830233805
20
-2.61325834436229
30
0
41
1
10
31.4635485733837
20
-2.58116195903114
30
0
41
1
10
31.4436043561755
20
-2.53551362725705
30
0
41
1
10
31.4363101399208
20
-2.52071516937684
30
0
41
1
10
31.4201646271186
20
-2.49200922283245
30
0
41
1
10
31.4113350451024
20
-2.47815369094167
30
0
41
1
10
31.3824372925967
20
-2.43857496065607
30
0
41
1
10
31.3599333034998
20
-2.41465592202633
30
0
41
1
10
31.3258622954153
20
-2.38841891023913
30
0
41
1
10
31.318724651155
20
-2.38334273308641
30
0
41
1
10
31.3038840194885
20
-2.37365232979352
30
0
41
1
10
31.2808395356101
20
-2.35984616424827
30
0
41
1
10
31.246807381508
20
-2.34439455083492
30
0
41
1
10
31.2185206955688
20
-2.33510985251724
30
0
41
1
10
31.1990161756601
20
-2.32944372592897
30
0
41
1
10
31.1888948859574
20
-2.32686354654447
30
0
41
1
10
31.1579419644363
20
-2.32001609488515
30
0
41
1
10
31.1150714282415
20
-2.31322662828546
30
0
41
1
10
31.0691884371846
20
-2.31066933127568
30
0
41
1
10
31.0337257471045
20
-2.31019128649785
30
0
41
1
10
31.0216966749059
20
-2.31027407450659
30
0
41
1
10
30.997612484475
20
-2.31088584336743
30
0
41
1
10
30.9855275470744
20
-2.31141308657828
30
0
41
1
10
30.9249088674835
20
-2.31504791836306
30
0
41
1
10
30.875799575522
20
-2.321102877518
30
0
41
1
10
30.8015170587558
20
-2.33352004453633
30
0
41
1
10
30.7765697535215
20
-2.33824331924819
30
0
41
1
10
30.7271014499418
20
-2.34854591795755
30
0
41
1
10
30.7025352283372
20
-2.35412935370476
30
0
41
1
10
30.6292597759131
20
-2.37197995058062
30
0
41
1
10
30.5809692720117
20
-2.38533621616369
30
0
41
1
10
30.4852464857341
20
-2.41433788374229
30
0
41
1
10
30.4378169479248
20
-2.429990210742
30
0
41
1
10
30.3436804985363
20
-2.46327512843658
30
0
41
1
10
30.2969747806027
20
-2.48091068277932
30
0
41
1
10
30.2042113641763
20
-2.51800421349765
30
0
41
1
10
30.1581123812437
20
-2.53748658268427
30
0
41
1
10
30.0672894316097
20
-2.57785173122198
30
0
41
1
10
30.02246376109
20
-2.59877389024746
30
0
41
1
10
29.8896162471465
20
-2.66370161359043
30
0
41
1
10
29.8032087008198
20
-2.70985257550848
30
0
41
1
10
29.6345335780453
20
-2.80806742949989
30
0
41
1
10
29.5522693467625
20
-2.86013169279374
30
0
41
1
10
29.3921881140533
20
-2.9708840093831
30
0
41
1
10
29.3143664014167
20
-3.02956303397445
30
0
41
1
10
29.2015604666769
20
-3.12355994492833
30
0
41
1
10
29.1646107072751
20
-3.15590022558172
30
0
41
1
10
29.0922212220004
20
-3.22282810695782
30
0
41
1
10
29.0570471013627
20
-3.25717061835047
30
0
41
1
10
28.954902323955
20
-3.36311337099255
30
0
41
1
10
28.8912477471871
20
-3.43757901118749
30
0
41
1
10
28.8189760758059
20
-3.53694515632048
30
0
41
1
10
28.804868599137
20
-3.55717128830798
30
0
41
1
10
28.7775715247759
20
-3.59814795020395
30
0
41
1
10
28.7644074400183
20
-3.61885701668541
30
0
41
1
10
28.7264558955694
20
-3.68168368529291
30
0
41
1
10
28.7032022286811
20
-3.72449796833143
30
0
41
1
10
28.6613950583134
20
-3.81224118762049
30
0
41
1
10
28.642837108852
20
-3.85716834685451
30
0
41
1
10
28.6191794026991
20
-3.92641681825756
30
0
41
1
10
28.6119925364085
20
-3.94981026951234
30
0
41
1
10
28.6023733742112
20
-3.9854127111015
30
0
41
1
10
28.5993607587189
20
-3.99736566876078
30
0
41
1
10
28.5937453100015
20
-4.02145164721986
30
0
41
1
10
28.5911397594846
20
-4.03360277980568
30
0
41
1
10
28.5792895098291
20
-4.09432811354316
30
0
41
1
10
28.5734773650428
20
-4.1431413372768
30
0
41
1
10
28.5708542091319
20
-4.21670739470983
30
0
41
1
10
28.5709980713077
20
-4.24128712253849
30
0
41
1
10
28.572842671358
20
-4.27824286448322
30
0
41
1
10
28.5737292264889
20
-4.29057580311286
30
0
41
1
10
28.5760656231341
20
-4.315270319256
30
0
41
1
10
28.5775203122714
20
-4.32765956266803
30
0
41
1
10
28.5861655915993
20
-4.38909161637685
30
0
41
1
10
28.597470014137
20
-4.43691589941318
30
0
41
1
10
28.6209244371365
20
-4.50663318007571
30
0
41
1
10
28.6342791282969
20
-4.54098601916752
30
0
41
1
10
28.6500920286559
20
-4.57456170574295
30
0
41
1
10
28.6611840451228
20
-4.59677004414147
30
0
41
1
10
28.6670210974271
20
-4.60781415599297
30
0
41
1
10
28.6973550654922
20
-4.66216961091277
30
0
41
1
10
28.7252575560425
20
-4.70292215332165
30
0
41
1
10
28.7719580651999
20
-4.76032516028562
30
0
41
1
10
28.7883361575728
20
-4.77883602597285
30
0
41
1
10
28.8226501489446
20
-4.81464612194532
30
0
41
1
10
28.8406554606905
20
-4.83200133688774
30
0
41
1
10
28.8961300877244
20
-4.88158938991569
30
0
41
1
10
28.935188309526
20
-4.91154809688965
30
0
41
1
10
29.0168352430378
20
-4.96604600275532
30
0
41
1
10
29.0594277436763
20
-4.99058021416096
30
0
41
1
10
29.1257068572372
20
-5.0236125434534
30
0
41
1
10
29.14826990389
20
-5.03402024406233
30
0
41
1
10
29.1936924407873
20
-5.05340313528057
30
0
41
1
10
29.2165742355643
20
-5.06239511782502
30
0
41
1
10
29.2856880445188
20
-5.08739712250167
30
0
41
1
10
29.3323858880908
20
-5.10144179128167
30
0
41
1
10
29.4268727750482
20
-5.12469460917066
30
0
41
1
10
29.474662581028
20
-5.13390040204013
30
0
41
1
10
29.5471090365841
20
-5.14419660272398
30
0
41
1
10
29.5713853297956
20
-5.14704151443379
30
0
41
1
10
29.6201890384881
20
-5.15155704177391
30
0
41
1
10
29.6446119555604
20
-5.15321622611691
30
0
41
1
10
29.766272548901
20
-5.15856620181989
30
0
41
1
10
29.8627064453755
20
-5.15357904212067
30
0
41
1
10
29.982161279946
20
-5.13618172448804
30
0
41
1
10
30.0059979395883
20
-5.13213776386692
30
0
41
1
10
30.0535638182484
20
-5.1229071907448
30
0
41
1
10
30.0773489673634
20
-5.11770622829448
30
0
41
1
10
30.1480796558919
20
-5.10047292325709
30
0
41
1
10
30.194343267521
20
-5.0868421694056
30
0
41
1
10
30.3305952799977
20
-5.03968466822215
30
0
41
1
10
30.41805456729
20
-4.99993771195227
30
0
41
1
10
30.5233984110708
20
-4.93962650137468
30
0
41
1
10
30.5442673507963
20
-4.92702920502165
30
0
41
1
10
30.5856085348837
20
-4.90074371598888
30
0
41
1
10
30.6059829699951
20
-4.88711571789889
30
0
41
1
10
30.6659783001887
20
-4.84498245828291
30
0
41
1
10
30.7045891951082
20
-4.81515625073388
30
0
41
1
10
30.8165220453415
20
-4.72062823540614
30
0
41
1
10
30.8859604597258
20
-4.65090317483021
30
0
41
1
10
30.9668424669605
20
-4.55547307508215
30
0
41
1
10
30.9827583575375
20
-4.53592232566359
30
0
41
1
10
31.0137336909033
20
-4.49633915368429
30
0
41
1
10
31.0589697768288
20
-4.43618051395725
30
0
41
1
10
31.1007051901192
20
-4.37377660758852
30
0
41
1
10
31.1798801198719
20
-4.24619101593169
30
0
41
1
10
31.2269611293659
20
-4.15744665993998
30
0
41
1
10
31.3110075601235
20
-3.97329659301931
30
0
41
1
10
31.3470484702958
20
-3.87994777828942
30
0
41
1
10
31.3779731110165
20
-3.78573739998781
30
0
0
SPLINE
5
1B3
100
AcDbEntity
8
1
62
256
6
ByLayer
370
18
48
1
60
0
100
AcDbSpline
70
4
71
3
72
10
73
6
40
0
40
0
40
0
40
0
40
0.703174552292253
40
0.703174552292253
40
1
40
1
40
1
40
1
41
1
10
36.2999999999999
20
-1.80791044125158
30
0
41
1
10
36.2999999999999
20
-1.7422475881076
30
0
41
1
10
36.3065086481749
20
-1.68440449219616
30
0
41
1
10
36.3276167916158
20
-1.61345076737643
30
0
41
1
10
36.3353700065378
20
-1.59381333526278
30
0
41
1
10
36.3447773067321
20
-1.57564656439911
30
0
0
SPLINE
5
1B4
100
AcDbEntity
8
1
62
256
6
ByLayer
370
18
48
1
60
0
100
AcDbSpline
70
4
71
3
72
26
73
22
40
0
40
0
40
0
40
0
40
0.124999999999998
40
0.124999999999998
40
0.249999999999996
40
0.249999999999996
40
0.374999999999994
40
0.374999999999994
40
0.499999999999992
40
0.499999999999992
40
0.531249999999992
40
0.531249999999992
40
0.562499999999992
40
0.562499999999992
40
0.624999999999993
40
0.624999999999993
40
0.749999999999995
40
0.749999999999995
40
0.874999999999998
40
0.874999999999998
40
1
40
1
40
1
40
1
41
1
10
17.8709572518559
20
16.560893508572
30
0
41
1
10
17.9772947282829
20
16.542695608921
30
0
41
1
10
18.0809587617615
20
16.527156692583
30
0
41
1
10
18.2837430903714
20
16.5005980229031
30
0
41
1
10
18.3808853564008
20
16.4898319811782
30
0
41
1
10
18.5683192445219
20
16.4723061837681
30
0
41
1
10
18.6586169329681
20
16.4655514663282
30
0
41
1
10
18.8334684192702
20
16.4554155064889
30
0
41
1
10
18.918016061181
20
16.4520378795704
30
0
41
1
10
19.0205403465148
20
16.449671919234
30
0
41
1
10
19.0408864515191
20
16.449291964688
30
0
41
1
10
19.081269363616
20
16.4487137110031
30
0
41
1
10
19.1013073333378
20
16.4485156105441
30
0
41
1
10
19.1607535818237
20
16.4481873313327
30
0
41
1
10
19.1995706184922
20
16.448321513722
30
0
41
1
10
19.3137506490716
20
16.4497092848427
30
0
41
1
10
19.3868511017042
20
16.4519443935668
30
0
41
1
10
19.5276650822418
20
16.4587515294036
30
0
41
1
10
19.595375573084
20
16.463324874034
30
0
41
1
10
19.7258140892875
20
16.4746330219735
30
0
41
1
10
19.788540433002
20
16.4813685548031
30
0
41
1
10
19.8488928840723
20
16.4891339133038
30
0
0
SPLINE
5
1B5
100
AcDbEntity
8
1
62
256
6
ByLayer
370
18
48
1
60
0
100
AcDbSpline
70
4
71
3
72
20
73
16
40
0
40
0
40
0
40
0
40
0.249999999999986
40
0.249999999999986
40
0.374999999999978
40
0.374999999999978
40
0.437499999999978
40
0.437499999999978
40
0.499999999999978
40
0.499999999999978
40
0.74999999999999
40
0.74999999999999
40
0.874999999999995
40
0.874999999999995
40
1
40
1
40
1
40
1
41
1
10
19.5648122418714
20
-2.5428052832745
30
0
41
1
10
19.4375538066237
20
-2.57816116218021
30
0
41
1
10
19.3066445209564
20
-2.62003280356112
30
0
41
1
10
19.1045418483301
20
-2.68914020752857
30
0
41
1
10
19.0362107571628
20
-2.71323595883013
30
0
41
1
10
18.9321625127025
20
-2.75057655966674
30
0
41
1
10
18.8972205975291
20
-2.76322295553882
30
0
41
1
10
18.8267930393869
20
-2.78884780294658
30
0
41
1
10
18.7912633812175
20
-2.80184245372601
30
0
41
1
10
18.612685549419
20
-2.867284931136
30
0
41
1
10
18.4681895381962
20
-2.92069235468006
30
0
41
1
10
18.2476301928147
20
-2.99838878644732
30
0
41
1
10
18.1734682549239
20
-3.02387845743061
30
0
41
1
10
18.0235297587208
20
-3.07322887037498
30
0
41
1
10
17.9477541218332
20
-3.09709127969126
30
0
41
1
10
17.8709572518559
20
-3.11965546956969
30
0
0
SPLINE
5
1B6
100
AcDbEntity
8
1
62
256
6
ByLayer
370
18
48
1
60
0
100
AcDbSpline
70
4
71
3
72
27
73
23
40
0
40
0
40
0
40
0
40
0.123895759318464
40
0.123895759318464
40
0.187677372584347
40
0.187677372584347
40
0.251458985850231
40
0.251458985850231
40
0.379022212381997
40
0.379022212381997
40
0.506585438913763
40
0.506585438913763
40
0.63414866544553
40
0.63414866544553
40
0.666039472078471
40
0.666039472078471
40
0.697930278711413
40
0.761711891977297
40
0.761711891977297
40
0.889275118509065
40
0.889275118509065
40
1
40
1
40
1
40
1
41
1
10
33.9674209599366
20
-1.95661811076508
30
0
41
1
10
33.8309871569661
20
-1.98584705396803
30
0
41
1
10
33.6937519531047
20
-2.01376862525763
30
0
41
1
10
33.4843344895664
20
-2.05286110560866
30
0
41
1
10
33.4127459328711
20
-2.0656096345615
30
0
41
1
10
33.2703399610423
20
-2.08955931086916
30
0
41
1
10
33.1993995443866
20
-2.10078598180729
30
0
41
1
10
32.9873402541484
20
-2.13203415563851
30
0
41
1
10
32.84698079938
20
-2.14960986931203
30
0
41
1
10
32.5682033377776
20
-2.17759108345621
30
0
41
1
10
32.4297848337754
20
-2.18799676866576
30
0
41
1
10
32.1548895979045
20
-2.20142474578995
30
0
41
1
10
32.018412853707
20
-2.20444604541012
30
0
41
1
10
31.8490903384887
20
-2.2037579030997
30
0
41
1
10
31.815248818598
20
-2.20339727439619
30
0
41
1
10
31.7479635761357
20
-2.20224588962594
30
0
41
1
10
31.6476030777286
20
-2.19987575776725
30
0
41
1
10
31.5489208694887
20
-2.19566268665466
30
0
41
1
10
31.3537359619071
20
-2.18503574000437
30
0
41
1
10
31.2265190627488
20
-2.17500892698632
30
0
41
1
10
30.9940317801221
20
-2.15225302940479
30
0
41
1
10
30.8880824701779
20
-2.14005732010207
30
0
41
1
10
30.7841059446666
20
-2.12682552976349
30
0
0
SPLINE
5
1B7
100
AcDbEntity
8
1
62
256
6
ByLayer
370
18
48
1
60
0
100
AcDbSpline
70
4
71
3
72
66
73
62
40
0
40
0
40
0
40
0
40
0.0625000000000103
40
0.0625000000000103
40
0.125000000000021
40
0.125000000000021
40
0.187500000000031
40
0.187500000000031
40
0.203125000000032
40
0.203125000000032
40
0.218750000000034
40
0.218750000000034
40
0.250000000000034
40
0.250000000000034
40
0.281250000000034
40
0.281250000000034
40
0.312500000000033
40
0.312500000000033
40
0.320312500000032
40
0.320312500000032
40
0.328125000000031
40
0.343750000000029
40
0.359375000000028
40
0.359375000000028
40
0.367187500000028
40
0.367187500000028
40
0.375000000000028
40
0.406250000000026
40
0.406250000000026
40
0.421875000000025
40
0.421875000000025
40
0.437500000000025
40
0.453125000000024
40
0.453125000000024
40
0.460937500000023
40
0.460937500000023
40
0.468750000000022
40
0.468750000000022
40
0.50000000000002
40
0.50000000000002
40
0.515625000000019
40
0.515625000000019
40
0.531250000000017
40
0.531250000000017
40
0.562500000000016
40
0.562500000000016
40
0.593750000000014
40
0.593750000000014
40
0.625000000000013
40
0.625000000000013
40
0.656250000000011
40
0.656250000000011
40
0.68750000000001
40
0.68750000000001
40
0.750000000000008
40
0.750000000000008
40
0.812500000000006
40
0.812500000000006
40
0.875000000000004
40
0.875000000000004
40
1
40
1
40
1
40
1
41
1
10
16.717067465589
20
-6.29875860912978
30
0
41
1
10
16.6115463885989
20
-6.25231025402934
30
0
41
1
10
16.5074248195228
20
-6.20364434788513
30
0
41
1
10
16.3027359122283
20
-6.10067012385173
30
0
41
1
10
16.2021581418707
20
-6.04637844999854
30
0
41
1
10
16.0057580420339
20
-5.93023362876966
30
0
41
1
10
15.9099079350068
20
-5.86842479245911
30
0
41
1
10
15.7944219584441
20
-5.78427508023174
30
0
41
1
10
15.7715449448739
20
-5.76709456386487
30
0
41
1
10
15.7262853875112
20
-5.73194601924428
30
0
41
1
10
15.703877636676
20
-5.71395519163815
30
0
41
1
10
15.637953563011
20
-5.6590361754856
30
0
41
1
10
15.5955951571966
20
-5.6210719769291
30
0
41
1
10
15.514818674199
20
-5.54179458480434
30
0
41
1
10
15.4763932898254
20
-5.50048760567825
30
0
41
1
10
15.4046097386699
20
-5.41356519503722
30
0
41
1
10
15.3712350420531
20
-5.36796381948312
30
0
41
1
10
15.3338284349053
20
-5.30729502560285
30
0
41
1
10
15.3265556650047
20
-5.29495605498153
30
0
41
1
10
15.3126115658378
20
-5.2701023452592
30
0
41
1
10
15.2925531736655
20
-5.23248925510671
30
0
41
1
10
15.2636252373114
20
-5.16805510352037
30
0
41
1
10
15.2458341140768
20
-5.11443302291309
30
0
41
1
10
15.2347515442775
20
-5.07333992739439
30
0
41
1
10
15.2314259658367
20
-5.05945045515847
30
0
41
1
10
15.2256292832899
20
-5.03161253110255
30
0
41
1
10
15.2132719992013
20
-4.96193458234575
30
0
41
1
10
15.2116398945897
20
-4.89183888563673
30
0
41
1
10
15.2203065897002
20
-4.80731148932267
30
0
41
1
10
15.2250179344747
20
-4.77892087343059
30
0
41
1
10
15.2376648269719
20
-4.72340506714147
30
0
41
1
10
15.2535275018397
20
-4.66886400408407
30
0
41
1
10
15.2752354437877
20
-4.61609542092623
30
0
41
1
10
15.2935244974324
20
-4.57712819427843
30
0
41
1
10
15.2999721796247
20
-4.56421069565744
30
0
41
1
10
15.3134175287669
20
-4.53874270677619
30
0
41
1
10
15.3204109652913
20
-4.52619552916747
30
0
41
1
10
15.3566272064842
20
-4.46432156820435
30
0
41
1
10
15.3895581723003
20
-4.41755367973963
30
0
41
1
10
15.4434302240791
20
-4.35049229549856
30
0
41
1
10
15.462141263348
20
-4.32865891961347
30
0
41
1
10
15.5008990453937
20
-4.28591479692386
30
0
41
1
10
15.5209777177602
20
-4.26497309587211
30
0
41
1
10
15.5827971609219
20
-4.20359650209036
30
0
41
1
10
15.6257598022673
20
-4.16492323013608
30
0
41
1
10
15.7143455700918
20
-4.09099146873552
30
0
41
1
10
15.7599746601519
20
-4.05574061715481
30
0
41
1
10
15.8533615281276
20
-3.98797283325211
30
0
41
1
10
15.9011221890308
20
-3.95545959322783
30
0
41
1
10
15.9984019162076
20
-3.89269301158549
30
0
41
1
10
16.0479225268983
20
-3.86244164788252
30
0
41
1
10
16.1484524144926
20
-3.80385355426802
30
0
41
1
10
16.1994767354632
20
-3.77551508151328
30
0
41
1
10
16.3534686770803
20
-3.69349018772073
30
0
41
1
10
16.4576996191432
20
-3.64255142958575
30
0
41
1
10
16.6684927430385
20
-3.54624231851238
30
0
41
1
10
16.7750618670203
20
-3.50088846980327
30
0
41
1
10
16.9900468003588
20
-3.41459766571944
30
0
41
1
10
17.0984657215242
20
-3.37366810829081
30
0
41
1
10
17.4260031390978
20
-3.25634204270676
30
0
41
1
10
17.647376636367
20
-3.18534715026425
30
0
41
1
10
17.870957251855
20
-3.11965546956821
30
0
0
SPLINE
5
1B8
100
AcDbEntity
8
1
62
256
6
ByLayer
370
18
48
1
60
0
100
AcDbSpline
70
4
71
3
72
66
73
62
40
0
40
0
40
0
40
0
40
0.0625000000000015
40
0.0625000000000015
40
0.125000000000003
40
0.125000000000003
40
0.187500000000005
40
0.187500000000005
40
0.203125000000004
40
0.203125000000004
40
0.218750000000003
40
0.218750000000003
40
0.250000000000004
40
0.250000000000004
40
0.281250000000004
40
0.281250000000004
40
0.312500000000005
40
0.312500000000005
40
0.320312500000005
40
0.320312500000005
40
0.328125000000004
40
0.343750000000004
40
0.359375000000004
40
0.359375000000004
40
0.367187500000004
40
0.367187500000004
40
0.375000000000004
40
0.406250000000004
40
0.406250000000004
40
0.421875000000003
40
0.421875000000003
40
0.437500000000003
40
0.453125000000003
40
0.453125000000003
40
0.460937500000003
40
0.460937500000003
40
0.468750000000002
40
0.468750000000002
40
0.500000000000001
40
0.500000000000001
40
0.515625
40
0.515625
40
0.53125
40
0.53125
40
0.5625
40
0.5625
40
0.59375
40
0.59375
40
0.625
40
0.625
40
0.65625
40
0.65625
40
0.6875
40
0.6875
40
0.75
40
0.75
40
0.8125
40
0.8125
40
0.875
40
0.875
40
1
40
1
40
1
40
1
41
1
10
16.7170674655894
20
16.7551675606038
30
0
41
1
10
16.6115463885992
20
16.7726288587681
30
0
41
1
10
16.5074248195229
20
16.7907058463524
30
0
41
1
10
16.3027359122283
20
16.828393567234
30
0
41
1
10
16.2021581418707
20
16.8480000309871
30
0
41
1
10
16.005758042034
20
16.889231081164
30
0
41
1
10
15.9099079350069
20
16.910844279947
30
0
41
1
10
15.7944219584442
20
16.9396717289339
30
0
41
1
10
15.771544944874
20
16.9455293418959
30
0
41
1
10
15.7262853875113
20
16.9574508466952
30
0
41
1
10
15.703877636676
20
16.9635223035263
30
0
41
1
10
15.637953563011
20
16.9819551601597
30
0
41
1
10
15.5955951571966
20
16.9945664926752
30
0
41
1
10
15.5148186741991
20
17.0205832221934
30
0
41
1
10
15.4763932898255
20
17.0339871585475
30
0
41
1
10
15.4046097386699
20
17.0618109911247
30
0
41
1
10
15.3712350420531
20
17.076227577198
30
0
41
1
10
15.3338284349053
20
17.0951098563577
30
0
41
1
10
15.3265556650047
20
17.0989359182062
30
0
41
1
10
15.3126115658379
20
17.1066124767472
30
0
41
1
10
15.2925531736655
20
17.1181854876576
30
0
41
1
10
15.2636246238905
20
17.1377788240825
30
0
41
1
10
15.245834114077
20
17.1538156484923
30
0
41
1
10
15.2347515442775
20
17.165996216159
30
0
41
1
10
15.2314259658367
20
17.1700952691242
30
0
41
1
10
15.2256292832899
20
17.1782736558671
30
0
41
1
10
15.2132719992013
20
17.1986521326717
30
0
41
1
10
15.2116398945898
20
17.218691523861
30
0
41
1
10
15.2203065897002
20
17.2424073903227
30
0
41
1
10
15.2250179344747
20
17.2502969303232
30
0
41
1
10
15.237664826972
20
17.265580600447
30
0
41
1
10
15.2535275018396
20
17.2804520333459
30
0
41
1
10
15.2752354437877
20
17.2945767635328
30
0
41
1
10
15.2935244974324
20
17.3049148534267
30
0
41
1
10
15.2999721796247
20
17.3083261492548
30
0
41
1
10
15.3134175287669
20
17.3150220330502
30
0
41
1
10
15.3204109652913
20
17.3183058515039
30
0
41
1
10
15.3566272064841
20
17.3344295979851
30
0
41
1
10
15.3895581723003
20
17.3463928558797
30
0
41
1
10
15.4434302240791
20
17.3632873671083
30
0
41
1
10
15.462141263348
20
17.3687419462752
30
0
41
1
10
15.5008990453937
20
17.3793388594664
30
0
41
1
10
15.5209777177602
20
17.3844887182141
30
0
41
1
10
15.5827971609219
20
17.3994698326279
30
0
41
1
10
15.6257598022673
20
17.4087580750959
30
0
41
1
10
15.7143455700918
20
17.4262799252415
30
0
41
1
10
15.7599746601519
20
17.4345110974417
30
0
41
1
10
15.8533615281275
20
17.4501370149836
30
0
41
1
10
15.9011221890308
20
17.4575305825329
30
0
41
1
10
15.9984019162076
20
17.4716334597336
30
0
41
1
10
16.0479225268982
20
17.4783421382259
30
0
41
1
10
16.1484524144926
20
17.4911862811492
30
0
41
1
10
16.1994767354632
20
17.4973217297717
30
0
41
1
10
16.3534686770803
20
17.5148867429029
30
0
41
1
10
16.4576996191432
20
17.525530958423
30
0
41
1
10
16.6684927430384
20
17.5452723464246
30
0
41
1
10
16.7750618670203
20
17.5543645171883
30
0
41
1
10
16.9900468003586
20
17.5713532905575
30
0
41
1
10
17.0984657215242
20
17.579247650886
30
0
41
1
10
17.4260031390978
20
17.6014935276871
30
0
41
1
10
17.647376636367
20
17.6144263066608
30
0
41
1
10
17.870957251855
20
17.6260531529666
30
0
0
SPLINE
5
1B9
100
AcDbEntity
8
1
62
256
6
ByLayer
370
18
48
1
60
0
100
AcDbSpline
70
4
71
3
72
10
73
6
40
0
40
0
40
0
40
0
40
0.5
40
0.5
40
1
40
1
40
1
40
1
41
1
10
22.5505366937277
20
16.7355040890374
30
0
41
1
10
22.0749460432776
20
16.7056490643963
30
0
41
1
10
21.6101395122772
20
16.6710203462175
30
0
41
1
10
20.7074949067016
20
16.5898250648874
30
0
41
1
10
20.2696327224122
20
16.5432691741314
30
0
41
1
10
19.8488928840721
20
16.4891339133038
30
0
0
SPLINE
5
1BA
100
AcDbEntity
8
1
62
256
6
ByLayer
370
18
48
1
60
0
100
AcDbSpline
70
4
71
3
72
8
73
4
40
0
40
0
40
0
40
0
40
1
40
1
40
1
40
1
41
1
10
23.5662081750007
20
21.5572256891889
30
0
41
1
10
25.2876866329284
20
22.162603705587
30
0
41
1
10
27.0125544010853
20
22.7592157190805
30
0
41
1
10
28.7400316240196
20
23.3490787227125
30
0
0
SPLINE
5
1BB
100
AcDbEntity
8
1
62
256
6
ByLayer
370
18
48
1
60
0
100
AcDbSpline
70
4
71
3
72
16
73
12
40
0
40
0
40
0
40
0
40
0.249999999999996
40
0.249999999999996
40
0.312499999999996
40
0.312499999999996
40
0.374999999999996
40
0.499999999999995
40
0.499999999999995
40
0.749999999999998
40
1
40
1
40
1
40
1
41
1
10
22.5505366937277
20
20.9523526174077
30
0
41
1
10
22.6236170478782
20
21.0183818202263
30
0
41
1
10
22.700215837952
20
21.0811451811844
30
0
41
1
10
22.8005742976014
20
21.1553203674882
30
0
41
1
10
22.8208626112882
20
21.1699289715509
30
0
41
1
10
22.8616726071936
20
21.1985515228952
30
0
41
1
10
22.9233194075138
20
21.2406540926578
30
0
41
1
10
22.9862509767219
20
21.2802833936034
30
0
41
1
10
23.1138105606184
20
21.356276220813
30
0
41
1
10
23.288406238857
20
21.4489059299914
30
0
41
1
10
23.4720515760324
20
21.5241144208767
30
0
41
1
10
23.5662081750007
20
21.557225689189
30
0
0
SPLINE
5
1BC
100
AcDbEntity
8
1
62
256
6
ByLayer
370
18
48
1
60
0
100
AcDbSpline
70
4
71
3
72
23
73
19
40
0
40
0
40
0
40
0
40
0.0830316829997875
40
0.0830316829997875
40
0.128880098849798
40
0.128880098849798
40
0.174728514699808
40
0.26642534639983
40
0.26642534639983
40
0.449819009799872
40
0.633212673199915
40
0.633212673199915
40
0.724909504899937
40
0.770757920749947
40
0.770757920749947
40
0.816606336599958
40
0.816606336599958
40
1
40
1
40
1
40
1
41
1
10
28.937931691444
20
16.0504772291716
30
0
41
1
10
28.9042194448282
20
16.1024898229076
30
0
41
1
10
28.8714641321392
20
16.1551621868587
30
0
41
1
10
28.8221271989085
20
16.2379630028536
30
0
41
1
10
28.8048534469211
20
16.2676576448419
30
0
41
1
10
28.7709977641247
20
16.3273003198443
30
0
41
1
10
28.7213045388471
20
16.41704675387
30
0
41
1
10
28.6748458408355
20
16.5076425516285
30
0
41
1
10
28.5861723144253
20
16.6899792700568
30
0
41
1
10
28.4792402540836
20
16.9361444441014
30
0
41
1
10
28.3946196847145
20
17.1886515122454
30
0
41
1
10
28.3396218072153
20
17.3805522056742
30
0
41
1
10
28.314242968195
20
17.4771334490582
30
0
41
1
10
28.2920932837027
20
17.5746955625158
30
0
41
1
10
28.2780520661722
20
17.6399593867296
30
0
41
1
10
28.2713952503409
20
17.67270026144
30
0
41
1
10
28.2400351173021
20
17.8364570255645
30
0
41
1
10
28.2210013817376
20
17.9680366759879
30
0
41
1
10
28.2080539461486
20
18.100262502164
30
0
0
SPLINE
5
1BD
100
AcDbEntity
8
1
62
256
6
ByLayer
370
18
48
1
60
0
100
AcDbSpline
70
4
71
3
72
8
73
4
40
0
40
0
40
0
40
0
40
1
40
1
40
1
40
1
41
1
10
19.8488928840723
20
18.481630107141
30
0
41
1
10
20.7438006390839
20
19.311355117241
30
0
41
1
10
21.6450162152535
20
20.1342012000433
30
0
41
1
10
22.5505366937279
20
20.9523526174077
30
0
0
SPLINE
5
1BE
100
AcDbEntity
8
1
62
256
6
ByLayer
370
18
48
1
60
0
100
AcDbSpline
70
4
71
3
72
9
73
5
40
0
40
0
40
0
40
0
40
0.5
40
1
40
1
40
1
40
1
41
1
10
19.8488928840723
20
18.481630107141
30
0
41
1
10
19.804053255755
20
18.4400564803062
30
0
41
1
10
19.7118954133747
20
18.3594527902895
30
0
41
1
10
19.6147023182347
20
18.2840163558025
30
0
41
1
10
19.5648122418737
20
18.2476255781369
30
0
0
SPLINE
5
1BF
100
AcDbEntity
8
1
62
256
6
ByLayer
370
18
48
1
60
0
100
AcDbSpline
70
4
71
3
72
22
73
18
40
0
40
0
40
0
40
0
40
0.249999999999996
40
0.249999999999996
40
0.374999999999993
40
0.374999999999993
40
0.437499999999992
40
0.437499999999992
40
0.499999999999991
40
0.499999999999991
40
0.624999999999992
40
0.624999999999992
40
0.749999999999994
40
0.749999999999994
40
0.874999999999997
40
0.874999999999997
40
1
40
1
40
1
40
1
41
1
10
19.5648122418745
20
18.2476255781376
30
0
41
1
10
19.438652130331
20
18.1556019753627
30
0
41
1
10
19.3084159069521
20
18.0738276686429
30
0
41
1
10
19.1066624604251
20
17.9652792896061
30
0
41
1
10
19.0383372350143
20
17.9314655888966
30
0
41
1
10
18.9341227797553
20
17.8842893242672
30
0
41
1
10
18.899096237418
20
17.8691556323564
30
0
41
1
10
18.8284386286183
20
17.8400830589995
30
0
41
1
10
18.7929523164011
20
17.826204566476
30
0
41
1
10
18.6861751160874
20
17.7865896199181
30
0
41
1
10
18.6144873277084
20
17.7628350287876
30
0
41
1
10
18.4698943932426
20
17.7206089979339
30
0
41
1
10
18.3969899337686
20
17.7021370244031
30
0
41
1
10
18.2496877514746
20
17.6706298532627
30
0
41
1
10
18.1752909580814
20
17.6575932883028
30
0
41
1
10
18.0246386919483
20
17.6373193894298
30
0
41
1
10
17.9483844701051
20
17.6300795949029
30
0
41
1
10
17.8709572518559
20
17.6260531529661
30
0
0
SPLINE
5
1C0
100
AcDbEntity
8
1
62
256
6
ByLayer
370
18
48
1
60
0
100
AcDbSpline
70
4
71
3
72
51
73
47
40
0
40
0
40
0
40
0
40
0.062500000000003
40
0.062500000000003
40
0.0781250000000032
40
0.0781250000000032
40
0.0937500000000035
40
0.0937500000000035
40
0.125000000000002
40
0.125000000000002
40
0.187499999999996
40
0.249999999999991
40
0.249999999999991
40
0.281249999999989
40
0.281249999999989
40
0.312499999999987
40
0.312499999999987
40
0.374999999999984
40
0.43749999999998
40
0.43749999999998
40
0.468749999999979
40
0.468749999999979
40
0.484374999999979
40
0.484374999999979
40
0.499999999999978
40
0.499999999999978
40
0.562499999999982
40
0.624999999999985
40
0.624999999999985
40
0.656249999999987
40
0.656249999999987
40
0.671874999999988
40
0.671874999999988
40
0.687499999999989
40
0.687499999999989
40
0.749999999999991
40
0.812499999999993
40
0.812499999999993
40
0.843749999999994
40
0.843749999999994
40
0.859374999999995
40
0.859374999999995
40
0.874999999999995
40
0.874999999999995
40
0.937499999999998
40
1
40
1
40
1
40
1
41
1
10
38.6
20
-17.9228417558278
30
0
41
1
10
38.6
20
-18.1179927173201
30
0
41
1
10
38.5890940583727
20
-18.3134476550115
30
0
41
1
10
38.5616123401489
20
-18.5581523419275
30
0
41
1
10
38.5554214756723
20
-18.6071126373644
30
0
41
1
10
38.5416368477397
20
-18.7050723305836
30
0
41
1
10
38.5340364205329
20
-18.7541107135557
30
0
41
1
10
38.5091480763341
20
-18.9010307566784
30
0
41
1
10
38.4898777357932
20
-18.9981385326145
30
0
41
1
10
38.4242232206364
20
-19.2870048826031
30
0
41
1
10
38.3158158120974
20
-19.6656230884615
30
0
41
1
10
38.1664723319585
20
-20.0314180517808
30
0
41
1
10
38.0388374165121
20
-20.3008690139581
30
0
41
1
10
37.9936819603724
20
-20.3898682659811
30
0
41
1
10
37.8980278547127
20
-20.5661930123368
30
0
41
1
10
37.8479312914421
20
-20.6527718389308
30
0
41
1
10
37.6911932964891
20
-20.9074958868161
30
0
41
1
10
37.4648735014201
20
-21.2341228098141
30
0
41
1
10
37.2045249252935
20
-21.5352216899953
30
0
41
1
10
36.996268054425
20
-21.7512968051425
30
0
41
1
10
36.9246782850037
20
-21.8216933222605
30
0
41
1
10
36.8139607425293
20
-21.9247877992589
30
0
41
1
10
36.7765082602236
20
-21.9587233041512
30
0
41
1
10
36.7009643019488
20
-22.0253325389453
30
0
41
1
10
36.6628149815648
20
-22.0580609434071
30
0
41
1
10
36.4702019973435
20
-22.2188529363756
30
0
41
1
10
36.150111379951
20
-22.4579333897847
30
0
41
1
10
35.8066653438504
20
-22.6613493233746
30
0
41
1
10
35.5401686219273
20
-22.8003020484981
30
0
41
1
10
35.4498476351024
20
-22.844346257412
30
0
41
1
10
35.31208120339
20
-22.9069233720583
30
0
41
1
10
35.2657118235371
20
-22.9272269338696
30
0
41
1
10
35.172739585458
20
-22.9664305352818
30
0
41
1
10
35.126094209234
20
-22.9853520873723
30
0
41
1
10
34.8920800072237
20
-23.0765968978375
30
0
41
1
10
34.5126334479228
20
-23.2011298606702
30
0
41
1
10
34.1233510231367
20
-23.2836500633972
30
0
41
1
10
33.8276403363664
20
-23.3295273592493
30
0
41
1
10
33.7284438576962
20
-23.3421448379467
30
0
41
1
10
33.578688372539
20
-23.3569672503921
30
0
41
1
10
33.5285293832114
20
-23.361228780145
30
0
41
1
10
33.4283278929516
20
-23.3683332593465
30
0
41
1
10
33.3783102962869
20
-23.3711772521006
30
0
41
1
10
33.1286331727649
20
-23.3818975702919
30
0
41
1
10
32.7317712832645
20
-23.3767204445086
30
0
41
1
10
32.3400340008783
20
-23.3278926413572
30
0
41
1
10
32.1454661984024
20
-23.2923983798863
30
0
0
SPLINE
5
1C1
100
AcDbEntity
8
1
62
256
6
ByLayer
370
18
48
1
60
0
100
AcDbSpline
70
4
71
3
72
8
73
4
40
0
40
0
40
0
40
0
40
1
40
1
40
1
40
1
41
1
10
32.1454661984024
20
-23.2923983798863
30
0
41
1
10
31.9643113059794
20
-23.2160085168833
30
0
41
1
10
31.7825093457783
20
-23.1303550259342
30
0
41
1
10
31.6
20
-23.0345743782594
30
0
0
SPLINE
5
1C2
100
AcDbEntity
8
1
62
256
6
ByLayer
370
18
48
1
60
0
100
AcDbSpline
70
4
71
3
72
8
73
4
40
0
40
0
40
0
40
0
40
1
40
1
40
1
40
1
41
1
10
28.9835906707945
20
1.73093342844521
30
0
41
1
10
28.9710846445369
20
1.80345481180274
30
0
41
1
10
28.9651794191708
20
1.87657934311704
30
0
41
1
10
28.9655626647359
20
1.9502755714243
30
0
0
SPLINE
5
1C3
100
AcDbEntity
8
1
62
256
6
ByLayer
370
18
48
1
60
0
100
AcDbSpline
70
4
71
3
72
8
73
4
40
0
40
0
40
0
40
0
40
1
40
1
40
1
40
1
41
1
10
28.9466682030704
20
2.16901742124332
30
0
41
1
10
28.946574960413
20
2.09547134707412
30
0
41
1
10
28.9527781670675
20
2.0225469180171
30
0
41
1
10
28.9655626647359
20
1.9502755714243
30
0
0
SPLINE
5
1C4
100
AcDbEntity
8
1
62
256
6
ByLayer
370
18
48
1
60
0
100
AcDbSpline
70
4
71
3
72
8
73
4
40
0
40
0
40
0
40
0
40
1
40
1
40
1
40
1
41
1
10
28.9269112043625
20
2.38716169274119
30
0
41
1
10
28.927107019998
20
2.31376570155953
30
0
41
1
10
28.9336067725774
20
2.24104061438129
30
0
41
1
10
28.9466682030704
20
2.16901742124332
30
0
0
SPLINE
5
1C5
100
AcDbEntity
8
1
62
256
6
ByLayer
370
18
48
1
60
0
100
AcDbSpline
70
4
71
3
72
8
73
4
40
0
40
0
40
0
40
0
40
1
40
1
40
1
40
1
41
1
10
28.9062952646883
20
2.60471087733237
30
0
41
1
10
28.906779292184
20
2.53146499111858
30
0
41
1
10
28.9135742578553
20
2.45893855308685
30
0
41
1
10
28.9269112043625
20
2.38716169274119
30
0
0
SPLINE
5
1C6
100
AcDbEntity
8
1
62
256
6
ByLayer
370
18
48
1
60
0
100
AcDbSpline
70
4
71
3
72
8
73
4
40
0
40
0
40
0
40
0
40
1
40
1
40
1
40
1
41
1
10
28.8848236640281
20
2.82166724743507
30
0
41
1
10
28.8855951529712
20
2.74857157850511
30
0
41
1
10
28.8926840996581
20
2.67624316297963
30
0
41
1
10
28.9062952646883
20
2.60471087733237
30
0
0
SPLINE
5
1C7
100
AcDbEntity
8
1
62
256
6
ByLayer
370
18
48
1
60
0
100
AcDbSpline
70
4
71
3
72
8
73
4
40
0
40
0
40
0
40
0
40
1
40
1
40
1
40
1
41
1
10
28.866678235016
20
2.95259955115978
30
0
41
1
10
28.8703551327839
20
2.90864916796426
30
0
41
1
10
28.8763838330359
20
2.86500214657434
30
0
41
1
10
28.884823664028
20
2.82166724743507
30
0
0
SPLINE
5
1C8
100
AcDbEntity
8
1
62
256
6
ByLayer
370
18
48
1
60
0
100
AcDbSpline
70
4
71
3
72
64
73
60
40
0
40
0
40
0
40
0
40
0.0624999999999988
40
0.0624999999999988
40
0.0937499999999982
40
0.0937499999999982
40
0.124999999999998
40
0.156249999999997
40
0.156249999999997
40
0.187499999999996
40
0.187499999999996
40
0.249999999999996
40
0.249999999999996
40
0.281249999999997
40
0.281249999999997
40
0.312499999999998
40
0.312499999999998
40
0.343749999999999
40
0.343749999999999
40
0.375
40
0.406250000000001
40
0.406250000000001
40
0.437500000000002
40
0.437500000000002
40
0.468750000000003
40
0.468750000000003
40
0.500000000000005
40
0.500000000000005
40
0.531250000000006
40
0.531250000000006
40
0.562500000000007
40
0.562500000000007
40
0.593750000000009
40
0.593750000000009
40
0.62500000000001
40
0.62500000000001
40
0.656250000000012
40
0.656250000000012
40
0.687500000000013
40
0.687500000000013
40
0.718750000000014
40
0.718750000000014
40
0.734375000000013
40
0.734375000000013
40
0.750000000000012
40
0.750000000000012
40
0.812500000000015
40
0.812500000000015
40
0.828125000000014
40
0.828125000000014
40
0.843750000000013
40
0.843750000000013
40
0.87500000000001
40
0.87500000000001
40
0.937500000000005
40
0.937500000000005
40
0.968750000000002
40
0.968750000000002
40
1
40
1
40
1
40
1
41
1
10
29.598743417191
20
5.83290890916265
30
0
41
1
10
29.5338824934993
20
5.84009568106126
30
0
41
1
10
29.468538858663
20
5.84335314027754
30
0
41
1
10
29.3698069921127
20
5.84246185803431
30
0
41
1
10
29.3367398707553
20
5.84119334482006
30
0
41
1
10
29.2707558259993
20
5.83673566137202
30
0
41
1
10
29.2048403543731
20
5.83036078327694
30
0
41
1
10
29.1390620240137
20
5.82015699477995
30
0
41
1
10
29.0733537102146
20
5.80801370325105
30
0
41
1
10
29.040528339869
20
5.80096686935906
30
0
41
1
10
28.9427865891604
20
5.77701303622149
30
0
41
1
10
28.878392533515
20
5.7572731955936
30
0
41
1
10
28.7830092209288
20
5.72177092014181
30
0
41
1
10
28.7514808135486
20
5.70897178846974
30
0
41
1
10
28.6892420496687
20
5.68152064115452
30
0
41
1
10
28.6584905919127
20
5.66685374610051
30
0
41
1
10
28.5977458748839
20
5.63558542374687
30
0
41
1
10
28.567711574751
20
5.6189593810285
30
0
41
1
10
28.5086293319783
20
5.58380523481543
30
0
41
1
10
28.4506574524299
20
5.54683021757324
30
0
41
1
10
28.3949687222237
20
5.50611801815097
30
0
41
1
10
28.3404724345247
20
5.46345776405758
30
0
41
1
10
28.3138408686757
20
5.44116246527977
30
0
41
1
10
28.2622381748057
20
5.39489682512453
30
0
41
1
10
28.2372146386729
20
5.37088706654515
30
0
41
1
10
28.1887892900165
20
5.32104117470499
30
0
41
1
10
28.1653484721231
20
5.29515381125941
30
0
41
1
10
28.1205278203843
20
5.24186886683304
30
0
41
1
10
28.0991130106521
20
5.21444207116633
30
0
41
1
10
28.0583531995579
20
5.15795834433158
30
0
41
1
10
28.0389687978262
20
5.12883221201514
30
0
41
1
10
28.0026604728845
20
5.06931427934694
30
0
41
1
10
27.9857180619027
20
5.0389091105871
30
0
41
1
10
27.9543438140932
20
4.97675945404427
30
0
41
1
10
27.9398871621326
20
4.94494266664827
30
0
41
1
10
27.9138440507434
20
4.88047827941296
30
0
41
1
10
27.9022292108399
20
4.84778906881445
30
0
41
1
10
27.8819017591849
20
4.78146680630113
30
0
41
1
10
27.8731945923227
20
4.74781339366706
30
0
41
1
10
27.8589496291376
20
4.68023573677181
30
0
41
1
10
27.8533823432643
20
4.6462269340285
30
0
41
1
10
27.8474259264181
20
4.59487452850078
30
0
41
1
10
27.8458451289134
20
4.5777292130382
30
0
41
1
10
27.8435063342901
20
4.54359722524833
30
0
41
1
10
27.8427445139339
20
4.52657956015594
30
0
41
1
10
27.8409520936907
20
4.44173032849903
30
0
41
1
10
27.8459294272214
20
4.37461060450215
30
0
41
1
10
27.8602516084127
20
4.29167464762708
30
0
41
1
10
27.8635237200391
20
4.27513598357814
30
0
41
1
10
27.8708964025442
20
4.24215747922199
30
0
41
1
10
27.874985877413
20
4.22577581695128
30
0
41
1
10
27.8883577439099
20
4.17727710903603
30
0
41
1
10
27.8987710737032
20
4.14566971733222
30
0
41
1
10
27.9343332693833
20
4.05294369103177
30
0
41
1
10
27.9637771582157
20
3.99390770290654
30
0
41
1
10
28.0163965008481
20
3.90947934542197
30
0
41
1
10
28.035189757375
20
3.88229336645435
30
0
41
1
10
28.0750701275151
20
3.82991146981948
30
0
41
1
10
28.0961739846168
20
3.80468926975351
30
0
41
1
10
28.118410134937
20
3.78041306649442
30
0
0
SPLINE
5
1C9
100
AcDbEntity
8
1
62
256
6
ByLayer
370
18
48
1
60
0
100
AcDbSpline
70
4
71
3
72
10
73
6
40
0
40
0
40
0
40
0
40
0.5
40
0.5
40
1
40
1
40
1
40
1
41
1
10
29.9048205719288
20
5.90950422278877
30
0
41
1
10
29.8531944260598
20
5.90203938271821
30
0
41
1
10
29.801868586909
20
5.89196772563264
30
0
41
1
10
29.699832166085
20
5.86651373493845
30
0
41
1
10
29.6491213388449
20
5.85113325057637
30
0
41
1
10
29.598743417191
20
5.8329089091626
30
0
0
SPLINE
5
1CA
100
AcDbEntity
8
1
62
256
6
ByLayer
370
18
48
1
60
0
100
AcDbSpline
70
4
71
3
72
8
73
4
40
0
40
0
40
0
40
0
40
1
40
1
40
1
40
1
41
1
10
29.9048205719288
20
5.90950422278877
30
0
41
1
10
29.9658841722369
20
5.91833366381633
30
0
41
1
10
30.0269480478876
20
5.92716293866698
30
0
41
1
10
30.0880121967183
20
5.93599204862147
30
0
0
SPLINE
5
1CB
100
AcDbEntity
8
1
62
256
6
ByLayer
370
18
48
1
60
0
100
AcDbSpline
70
4
71
3
72
8
73
4
40
0
40
0
40
0
40
0
40
1
40
1
40
1
40
1
41
1
10
30.1842628515858
20
5.99723678528096
30
0
41
1
10
30.1512451054291
20
5.97821695022054
30
0
41
1
10
30.1191325571057
20
5.95784464813522
30
0
41
1
10
30.0880121967182
20
5.93599204862443
30
0
0
SPLINE
5
1CC
100
AcDbEntity
8
1
62
256
6
ByLayer
370
18
48
1
60
0
100
AcDbSpline
70
4
71
3
72
61
73
57
40
0
40
0
40
0
40
0
40
0.0624999999999927
40
0.0624999999999927
40
0.0781249999999911
40
0.0781249999999911
40
0.0937499999999895
40
0.124999999999989
40
0.124999999999989
40
0.187499999999987
40
0.187499999999987
40
0.249999999999986
40
0.249999999999986
40
0.281249999999986
40
0.281249999999986
40
0.312499999999986
40
0.312499999999986
40
0.374999999999987
40
0.374999999999987
40
0.437499999999988
40
0.437499999999988
40
0.468749999999989
40
0.468749999999989
40
0.499999999999989
40
0.499999999999989
40
0.562499999999992
40
0.562499999999992
40
0.593749999999992
40
0.593749999999992
40
0.624999999999992
40
0.624999999999992
40
0.656249999999993
40
0.656249999999993
40
0.687499999999993
40
0.687499999999993
40
0.718749999999993
40
0.718749999999993
40
0.734374999999993
40
0.734374999999993
40
0.749999999999994
40
0.749999999999994
40
0.781249999999994
40
0.781249999999994
40
0.812499999999995
40
0.812499999999995
40
0.843749999999996
40
0.843749999999996
40
0.874999999999997
40
0.874999999999997
40
0.906249999999998
40
0.906249999999998
40
0.937499999999998
40
0.937499999999998
40
0.968749999999999
40
0.968749999999999
40
1
40
1
40
1
40
1
41
1
10
31.5872997534212
20
7.8081193785651
30
0
41
1
10
31.5400065525928
20
7.83146615632171
30
0
41
1
10
31.4906366233272
20
7.8510821700018
30
0
41
1
10
31.4266562635753
20
7.87155473471279
30
0
41
1
10
31.4137331188817
20
7.87544772151966
30
0
41
1
10
31.3878309752105
20
7.88278800063659
30
0
41
1
10
31.3488365549569
20
7.89314895777278
30
0
41
1
10
31.3094364406134
20
7.90164926117905
30
0
41
1
10
31.2301288220453
20
7.91633462750548
30
0
41
1
10
31.1765836354622
20
7.92305257397709
30
0
41
1
10
31.0682320035834
20
7.93078122392109
30
0
41
1
10
31.0134250061677
20
7.93178919414498
30
0
41
1
10
30.9302606862417
20
7.92900543404483
30
0
41
1
10
30.9024060674617
20
7.92735431635555
30
0
41
1
10
30.8469905962619
20
7.92264887303458
30
0
41
1
10
30.8193540858263
20
7.91959290061271
30
0
41
1
10
30.7366576458695
20
7.90832093689551
30
0
41
1
10
30.6818092936862
20
7.89801458358153
30
0
41
1
10
30.5727093203756
20
7.8715354830627
30
0
41
1
10
30.5184569387471
20
7.85536956875353
30
0
41
1
10
30.4375919050002
20
7.82612615009356
30
0
41
1
10
30.4106679346854
20
7.81551204054449
30
0
41
1
10
30.3577075312469
20
7.79275540468672
30
0
41
1
10
30.331594362121
20
7.78058911972329
30
0
41
1
10
30.254428235135
20
7.74157453036088
30
0
41
1
10
30.2045307422745
20
7.71224844816936
30
0
41
1
10
30.1325400097799
20
7.66215509829675
30
0
41
1
10
30.108941502472
20
7.64435435837595
30
0
41
1
10
30.0636523839914
20
7.60705629330948
30
0
41
1
10
30.0418804738189
20
7.58751354141356
30
0
41
1
10
30.0002699747772
20
7.54644833508064
30
0
41
1
10
29.9804298075354
20
7.52492749587611
30
0
41
1
10
29.9429711031124
20
7.47961121735409
30
0
41
1
10
29.9252915578977
20
7.45568873812238
30
0
41
1
10
29.8934314789603
20
7.40653005325788
30
0
41
1
10
29.8791322241303
20
7.38117562092128
30
0
41
1
10
29.8603968977561
20
7.34185300692496
30
0
41
1
10
29.8546053906193
20
7.3285296697054
30
0
41
1
10
29.843994595093
20
7.3014202802529
30
0
41
1
10
29.8391664824326
20
7.2875892411393
30
0
41
1
10
29.8264831393908
20
7.24615292394469
30
0
41
1
10
29.8203211791397
20
7.21838238964671
30
0
41
1
10
29.8126686966382
20
7.16254159392486
30
0
41
1
10
29.8111768328816
20
7.13447141636203
30
0
41
1
10
29.813154083403
20
7.0780121255778
30
0
41
1
10
29.8165997499154
20
7.05045107056549
30
0
41
1
10
29.8279951658625
20
6.99677421636352
30
0
41
1
10
29.8359483167367
20
6.97062124660039
30
0
41
1
10
29.8561801712648
20
6.91963213159232
30
0
41
1
10
29.8682207937799
20
6.89538630800934
30
0
41
1
10
29.8956379751069
20
6.84910795756093
30
0
41
1
10
29.9110201663609
20
6.82707092566523
30
0
41
1
10
29.9448306747281
20
6.78500758783019
30
0
41
1
10
29.9629824195633
20
6.76532687260146
30
0
41
1
10
30.0012849239608
20
6.72840899290355
30
0
41
1
10
30.0214590465635
20
6.71114797476179
30
0
41
1
10
30.042539002761
20
6.69495085887627
30
0
0
SPLINE
5
1CD
100
AcDbEntity
8
1
62
256
6
ByLayer
370
18
48
1
60
0
100
AcDbSpline
70
4
71
2
72
6
73
3
40
0
40
0
40
0
40
1
40
1
40
1
41
0.500000009798409
10
31.6
20
7.80184884227651
30
0
41
0.499999990201592
10
31.5936497281036
20
7.80498464788349
30
0
41
0.500000009798409
10
31.5872997534212
20
7.80811937856511
30
0
0
SPLINE
5
1CE
100
AcDbEntity
8
1
62
256
6
ByLayer
370
18
48
1
60
0
100
AcDbSpline
70
4
71
3
72
8
73
4
40
0
40
0
40
0
40
0
40
1
40
1
40
1
40
1
41
1
10
31.6
20
15.701144483544
30
0
41
1
10
31.4480731944675
20
15.7218528072059
30
0
41
1
10
31.2962836669175
20
15.7424603675905
30
0
41
1
10
31.1446351446121
20
15.7629644288538
30
0
0
SPLINE
5
1CF
100
AcDbEntity
8
1
62
256
6
ByLayer
370
18
48
1
60
0
100
AcDbSpline
70
4
71
3
72
17
73
13
40
0
40
0
40
0
40
0
40
0.0624999999999987
40
0.0624999999999987
40
0.124999999999997
40
0.249999999999995
40
0.249999999999995
40
0.499999999999997
40
0.499999999999997
40
0.749999999999998
40
0.749999999999998
40
1
40
1
40
1
40
1
41
1
10
31.1446351446121
20
15.7629644288538
30
0
41
1
10
31.1235214995393
20
15.7591383795993
30
0
41
1
10
31.1022930255831
20
15.7557408825078
30
0
41
1
10
31.0602456161632
20
15.7498999979528
30
0
41
1
10
30.9976127703472
20
15.7425321591869
30
0
41
1
10
30.9362526305026
20
15.7392034607879
30
0
41
1
10
30.8151373541363
20
15.7376059838512
30
0
41
1
10
30.7365287829159
20
15.7432749008765
30
0
41
1
10
30.5832352326286
20
15.766706002431
30
0
41
1
10
30.5107437658751
20
15.784101534006
30
0
41
1
10
30.3726360257692
20
15.8276818092561
30
0
41
1
10
30.3069832597191
20
15.8538909125045
30
0
41
1
10
30.2441896488332
20
15.883697396926
30
0
0
SPLINE
5
1D0
100
AcDbEntity
8
1
62
256
6
ByLayer
370
18
48
1
60
0
100
AcDbSpline
70
4
71
3
72
14
73
10
40
0
40
0
40
0
40
0
40
0.25
40
0.25
40
0.5
40
0.5
40
0.75
40
0.75
40
1
40
1
40
1
40
1
41
1
10
30.2441896488332
20
15.8836973969259
30
0
41
1
10
29.6779193685161
20
15.9589716958033
30
0
41
1
10
29.1137378022237
20
16.0327128597489
30
0
41
1
10
27.9900282203711
20
16.1767794394331
30
0
41
1
10
27.4304994458696
20
16.2471054122415
30
0
41
1
10
26.316662555237
20
16.3839253475306
30
0
41
1
10
25.7623533857943
20
16.4504200831515
30
0
41
1
10
24.6596416841475
20
16.5790740293892
30
0
41
1
10
24.1112376520745
20
16.6412343409234
30
0
41
1
10
23.5662081750007
20
16.7009176986538
30
0
0
SPLINE
5
1D1
100
AcDbEntity
8
1
62
256
6
ByLayer
370
18
48
1
60
0
100
AcDbSpline
70
4
71
3
72
8
73
4
40
0
40
0
40
0
40
0
40
1
40
1
40
1
40
1
41
1
10
23.5662081750007
20
-1.34801842051968
30
0
41
1
10
25.2877656644851
20
-1.00795476297731
30
0
41
1
10
27.0126271137132
20
-0.669355239088418
30
0
41
1
10
28.7400316240196
20
-0.331882660318968
30
0
0
LINE
5
74
100
AcDbEntity
8
1
62
256
6
ByLayer
370
18
48
1
60
0
100
AcDbLine
10
34.033747
20
20.078243
30
0
11
34.043953
21
20.094773
31
0
39
0
210
0
220
0
230
1
0
LINE
5
76
100
AcDbEntity
8
1
62
256
6
ByLayer
370
18
48
1
60
0
100
AcDbLine
10
34.557273
20
19.789982
30
0
11
34.547622
21
19.773124
31
0
39
0
210
0
220
0
230
1
0
LINE
5
77
100
AcDbEntity
8
1
62
256
6
ByLayer
370
18
48
1
60
0
100
AcDbLine
10
33.447096
20
20.109677
30
0
11
33.457302
21
20.092637
31
0
39
0
210
0
220
0
230
1
0
LINE
5
78
100
AcDbEntity
8
1
62
256
6
ByLayer
370
18
48
1
60
0
100
AcDbLine
10
34.835845
20
19.27411
30
0
11
34.855702
21
19.273299
31
0
39
0
210
0
220
0
230
1
0
LINE
5
79
100
AcDbEntity
8
1
62
256
6
ByLayer
370
13
48
1
60
0
100
AcDbLine
10
33.457302
20
20.092637
30
0
11
33.595964
21
20.332681
31
0
39
0
210
0
220
0
230
1
0
LINE
5
7A
100
AcDbEntity
8
1
62
256
6
ByLayer
370
13
48
1
60
0
100
AcDbLine
10
34.033747
20
20.078243
30
0
11
34.17241
21
20.318286
31
0
39
0
210
0
220
0
230
1
0
LINE
5
7B
100
AcDbEntity
8
1
62
256
6
ByLayer
370
13
48
1
60
0
100
AcDbLine
10
34.835845
20
19.27411
30
0
11
34.974507
21
19.514153
31
0
39
0
210
0
220
0
230
1
0
LINE
5
7C
100
AcDbEntity
8
1
62
256
6
ByLayer
370
18
48
1
60
0
100
AcDbLine
10
34.547622
20
19.773124
30
0
11
34.686284
21
20.013167
31
0
39
0
210
0
220
0
230
1
0
LINE
5
7D
100
AcDbEntity
8
1
62
256
6
ByLayer
370
18
48
1
60
0
100
AcDbLine
10
34.043953
20
20.094773
30
0
11
34.183939
21
20.337107
31
0
39
0
210
0
220
0
230
1
0
LINE
5
7E
100
AcDbEntity
8
1
62
256
6
ByLayer
370
18
48
1
60
0
100
AcDbLine
10
33.447096
20
20.109677
30
0
11
33.587082
21
20.352011
31
0
39
0
210
0
220
0
230
1
0
LINE
5
7F
100
AcDbEntity
8
1
62
256
6
ByLayer
370
18
48
1
60
0
100
AcDbLine
10
34.855702
20
19.273299
30
0
11
34.995688
21
19.515634
31
0
39
0
210
0
220
0
230
1
0
LINE
5
80
100
AcDbEntity
8
1
62
256
6
ByLayer
370
18
48
1
60
0
100
AcDbLine
10
32.894258
20
19.523155
30
0
11
33.023082
21
19.746167
31
0
39
0
210
0
220
0
230
1
0
LINE
5
81
100
AcDbEntity
8
1
62
256
6
ByLayer
370
13
48
1
60
0
100
AcDbLine
10
37.255326
20
-6.577409
30
0
11
36.860934
21
-6.531077
31
0
39
0
210
0
220
0
230
1
0
LINE
5
82
100
AcDbEntity
8
1
62
256
6
ByLayer
370
13
48
1
60
0
100
AcDbLine
10
38.505237
20
-12.467615
30
0
11
38.505237
21
-6.895215
31
0
39
0
210
0
220
0
230
1
0
LINE
5
83
100
AcDbEntity
8
1
62
256
6
ByLayer
370
18
48
1
60
0
100
AcDbLine
10
38.6
20
15.417596
30
0
11
38.6
21
13.611524
31
0
39
0
210
0
220
0
230
1
0
LINE
5
84
100
AcDbEntity
8
1
62
256
6
ByLayer
370
13
48
1
60
0
100
AcDbLine
10
36.584289
20
-5.199835
30
0
11
36.584289
21
-5.538894
31
0
39
0
210
0
220
0
230
1
0
LINE
5
85
100
AcDbEntity
8
1
62
256
6
ByLayer
370
13
48
1
60
0
100
AcDbLine
10
36.584289
20
-5.667895
30
0
11
36.584289
21
-7.748204
31
0
39
0
210
0
220
0
230
1
0
LINE
5
86
100
AcDbEntity
8
1
62
256
6
ByLayer
370
13
48
1
60
0
100
AcDbLine
10
38.505237
20
13.118699
30
0
11
38.505237
21
15.253721
31
0
39
0
210
0
220
0
230
1
0
LINE
5
87
100
AcDbEntity
8
1
62
256
6
ByLayer
370
18
48
1
60
0
100
AcDbLine
10
38.6
20
-12.562989
30
0
11
38.6
21
-12.773809
31
0
39
0
210
0
220
0
230
1
0
LINE
5
88
100
AcDbEntity
8
1
62
256
6
ByLayer
370
18
48
1
60
0
100
AcDbLine
10
29.085126
20
-23.467624
30
0
11
28.78203
21
-22.654789
31
0
39
0
210
0
220
0
230
1
0
LINE
5
89
100
AcDbEntity
8
1
62
256
6
ByLayer
370
18
48
1
60
0
100
AcDbLine
10
28.771862
20
-22.652458
30
0
11
29.073301
21
-23.460853
31
0
39
0
210
0
220
0
230
1
0
LINE
5
8A
100
AcDbEntity
8
1
62
256
6
ByLayer
370
18
48
1
60
0
100
AcDbLine
10
29.060573
20
-23.451658
30
0
11
28.761689
21
-22.650117
31
0
39
0
210
0
220
0
230
1
0
LINE
5
8B
100
AcDbEntity
8
1
62
256
6
ByLayer
370
18
48
1
60
0
100
AcDbLine
10
29.046948
20
-23.440058
30
0
11
28.751524
21
-22.647795
31
0
39
0
210
0
220
0
230
1
0
LINE
5
8C
100
AcDbEntity
8
1
62
256
6
ByLayer
370
18
48
1
60
0
100
AcDbLine
10
29.032432
20
-23.426067
30
0
11
28.741352
21
-22.645456
31
0
39
0
210
0
220
0
230
1
0
LINE
5
8D
100
AcDbEntity
8
1
62
256
6
ByLayer
370
18
48
1
60
0
100
AcDbLine
10
28.731183
20
-22.643124
30
0
11
29.01703
21
-23.409702
31
0
39
0
210
0
220
0
230
1
0
LINE
5
8E
100
AcDbEntity
8
1
62
256
6
ByLayer
370
18
48
1
60
0
100
AcDbLine
10
28.721013
20
-22.640789
30
0
11
29.000748
21
-23.390977
31
0
39
0
210
0
220
0
230
1
0
LINE
5
8F
100
AcDbEntity
8
1
62
256
6
ByLayer
370
18
48
1
60
0
100
AcDbLine
10
28.983591
20
-23.369903
30
0
11
28.710837
21
-22.638438
31
0
39
0
210
0
220
0
230
1
0
LINE
5
90
100
AcDbEntity
8
1
62
256
6
ByLayer
370
18
48
1
60
0
100
AcDbLine
10
32.635347
20
19.328742
30
0
11
32.655205
21
19.328562
31
0
39
0
210
0
220
0
230
1
0
LINE
5
91
100
AcDbEntity
8
1
62
256
6
ByLayer
370
13
48
1
60
0
100
AcDbLine
10
32.655205
20
19.328562
30
0
11
32.793867
21
19.568605
31
0
39
0
210
0
220
0
230
1
0
LINE
5
92
100
AcDbEntity
8
1
62
256
6
ByLayer
370
18
48
1
60
0
100
AcDbLine
10
34.547622
20
18.204915
30
0
11
34.557273
21
18.187574
31
0
39
0
210
0
220
0
230
1
0
LINE
5
93
100
AcDbEntity
8
1
62
256
6
ByLayer
370
13
48
1
60
0
100
AcDbLine
10
34.547622
20
18.204915
30
0
11
34.686284
21
18.444958
31
0
39
0
210
0
220
0
230
1
0
LINE
5
94
100
AcDbEntity
8
1
62
256
6
ByLayer
370
18
48
1
60
0
100
AcDbLine
10
34.725662
20
18.718033
30
0
11
34.596792
21
18.494941
31
0
39
0
210
0
220
0
230
1
0
LINE
5
95
100
AcDbEntity
8
1
62
256
6
ByLayer
370
18
48
1
60
0
100
AcDbLine
10
34.557273
20
18.187574
30
0
11
34.697259
21
18.429909
31
0
39
0
210
0
220
0
230
1
0
LINE
5
96
100
AcDbEntity
8
1
62
256
6
ByLayer
370
18
48
1
60
0
100
AcDbLine
10
32.635347
20
19.328742
30
0
11
32.775333
21
19.571077
31
0
39
0
210
0
220
0
230
1
0
LINE
5
97
100
AcDbEntity
8
1
62
256
6
ByLayer
370
18
48
1
60
0
100
AcDbLine
10
33.568792
20
18.133996
30
0
11
33.587082
21
18.165658
31
0
39
0
210
0
220
0
230
1
0
LINE
5
98
100
AcDbEntity
8
1
62
256
6
ByLayer
370
18
48
1
60
0
100
AcDbLine
10
33.055126
20
18.438188
30
0
11
33.073762
21
18.470449
31
0
39
0
210
0
220
0
230
1
0
LINE
5
99
100
AcDbEntity
8
1
62
256
6
ByLayer
370
13
48
1
60
0
100
AcDbLine
10
29.794749
20
5.71667
30
0
11
29.785395
21
5.792854
31
0
39
0
210
0
220
0
230
1
0
LINE
5
9A
100
AcDbEntity
8
1
62
256
6
ByLayer
370
13
48
1
60
0
100
AcDbLine
10
29.905134
20
5.849511
30
0
11
29.917414
21
5.749496
31
0
39
0
210
0
220
0
230
1
0
LINE
5
9B
100
AcDbEntity
8
1
62
256
6
ByLayer
370
18
48
1
60
0
100
AcDbLine
10
38.72602
20
6.288787
30
0
11
38.61702
21
7.176519
31
0
39
0
210
0
220
0
230
1
0
LINE
5
9C
100
AcDbEntity
8
1
62
256
6
ByLayer
370
70
48
1
60
0
100
AcDbLine
10
38.522808
20
15.28393
30
0
11
39.238275
21
16.522499
31
0
39
0
210
0
220
0
230
1
0
LINE
5
9D
100
AcDbEntity
8
1
62
256
6
ByLayer
370
70
48
1
60
0
100
AcDbLine
10
39.998087
20
0.031384
30
0
11
39.28262
21
5.858394
31
0
39
0
210
0
220
0
230
1
0
LINE
5
9E
100
AcDbEntity
8
1
62
256
6
ByLayer
370
18
48
1
60
0
100
AcDbLine
10
38.61702
20
-7.176519
30
0
11
38.795887
21
-5.719766
31
0
39
0
210
0
220
0
230
1
0
LINE
5
9F
100
AcDbEntity
8
1
62
256
6
ByLayer
370
18
48
1
60
0
100
AcDbLine
10
37.373591
20
-6.257213
30
0
11
36.68746
21
-6.176608
31
0
39
0
210
0
220
0
230
1
0
LINE
5
A0
100
AcDbEntity
8
1
62
256
6
ByLayer
370
18
48
1
60
0
100
AcDbLine
10
38.6
20
-6.995705
30
0
11
38.6
21
-12.562989
31
0
39
0
210
0
220
0
230
1
0
LINE
5
A1
100
AcDbEntity
8
1
62
256
6
ByLayer
370
18
48
1
60
0
100
AcDbLine
10
11
20
20.05
30
0
11
11
21
-20.05
31
0
39
0
210
0
220
0
230
1
0
LINE
5
A2
100
AcDbEntity
8
1
62
256
6
ByLayer
370
18
48
1
60
0
100
AcDbLine
10
0.4
20
-21.05
30
0
11
0.4
21
-4.5975
31
0
39
0
210
0
220
0
230
1
0
LINE
5
A3
100
AcDbEntity
8
1
62
256
6
ByLayer
370
18
48
1
60
0
100
AcDbLine
10
0.4
20
4.5975
30
0
11
0.4
21
21.05
31
0
39
0
210
0
220
0
230
1
0
LINE
5
A4
100
AcDbEntity
8
1
62
256
6
ByLayer
370
13
48
1
60
0
100
AcDbLine
10
10
20
-21.05
30
0
11
10
21
21.05
31
0
39
0
210
0
220
0
230
1
0
LINE
5
A5
100
AcDbEntity
8
1
62
256
6
ByLayer
370
18
48
1
60
0
100
AcDbLine
10
0.4
20
-21.05
30
0
11
10
21
-21.05
31
0
39
0
210
0
220
0
230
1
0
LINE
5
A6
100
AcDbEntity
8
1
62
256
6
ByLayer
370
18
48
1
60
0
100
AcDbLine
10
10
20
21.05
30
0
11
0.4
21
21.05
31
0
39
0
210
0
220
0
230
1
0
LINE
5
A7
100
AcDbEntity
8
1
62
256
6
ByLayer
370
70
48
1
60
0
100
AcDbLine
10
39.28262
20
-5.858394
30
0
11
39.997227
21
-0.038394
31
0
39
0
210
0
220
0
230
1
0
LINE
5
A8
100
AcDbEntity
8
1
62
256
6
ByLayer
370
13
48
1
60
0
100
AcDbLine
10
22.550537
20
21.013454
30
0
11
22.550537
21
20.952353
31
0
39
0
210
0
220
0
230
1
0
LINE
5
A9
100
AcDbEntity
8
1
62
256
6
ByLayer
370
13
48
1
60
0
100
AcDbLine
10
19.848893
20
18.48163
30
0
11
19.848893
21
18.644391
31
0
39
0
210
0
220
0
230
1
0
LINE
5
AA
100
AcDbEntity
8
1
62
256
6
ByLayer
370
13
48
1
60
0
100
AcDbLine
10
23.566208
20
21.557226
30
0
11
23.566208
21
21.599332
31
0
39
0
210
0
220
0
230
1
0
LINE
5
AB
100
AcDbEntity
8
1
62
256
6
ByLayer
370
18
48
1
60
0
100
AcDbLine
10
29.087154
20
23.468953
30
0
11
28.379321
21
21.5707
31
0
39
0
210
0
220
0
230
1
0
LINE
5
AC
100
AcDbEntity
8
1
62
256
6
ByLayer
370
18
48
1
60
0
100
AcDbLine
10
29.087154
20
-23.468953
30
0
11
28.783704
21
-22.655166
31
0
39
0
210
0
220
0
230
1
0
LINE
5
AD
100
AcDbEntity
8
1
62
256
6
ByLayer
370
13
48
1
60
0
100
AcDbLine
10
17.870957
20
-17.9
30
0
11
17.870957
21
-6.793144
31
0
39
0
210
0
220
0
230
1
0
LINE
5
AE
100
AcDbEntity
8
1
62
256
6
ByLayer
370
13
48
1
60
0
100
AcDbLine
10
17.870957
20
17.9
30
0
11
17.870957
21
17.626053
31
0
39
0
210
0
220
0
230
1
0
LINE
5
AF
100
AcDbEntity
8
1
62
256
6
ByLayer
370
18
48
1
60
0
100
AcDbLine
10
12
20
-17.9
30
0
11
17.870957
21
-17.9
31
0
39
0
210
0
220
0
230
1
0
LINE
5
B0
100
AcDbEntity
8
1
62
256
6
ByLayer
370
18
48
1
60
0
100
AcDbLine
10
17.870957
20
17.9
30
0
11
12
21
17.9
31
0
39
0
210
0
220
0
230
1
0
LINE
5
B1
100
AcDbEntity
8
SK1
62
256
6
ByLayer
370
18
48
1
60
0
100
AcDbLine
10
0
20
4.9975
30
0
11
0
21
20.5
31
0
39
0
210
0
220
0
230
1
0
LINE
5
B3
100
AcDbEntity
8
1
62
256
6
ByLayer
370
13
48
1
60
0
100
AcDbLine
10
12
20
17.9
30
0
11
12
21
-17.9
31
0
39
0
210
0
220
0
230
1
0
LINE
5
B4
100
AcDbEntity
8
1
62
256
6
ByLayer
370
13
48
1
60
0
100
AcDbLine
10
23.566208
20
-13.697098
30
0
11
23.566208
21
-21.599332
31
0
39
0
210
0
220
0
230
1
0
LINE
5
B5
100
AcDbEntity
8
1
62
256
6
ByLayer
370
13
48
1
60
0
100
AcDbLine
10
22.550537
20
-21.013454
30
0
11
22.550537
21
-12.707798
31
0
39
0
210
0
220
0
230
1
0
LINE
5
B6
100
AcDbEntity
8
1
62
256
6
ByLayer
370
13
48
1
60
0
100
AcDbLine
10
19.848893
20
-8.701827
30
0
11
19.848893
21
-18.644391
31
0
39
0
210
0
220
0
230
1
0
LINE
5
B7
100
AcDbEntity
8
SK1
62
256
6
ByLayer
370
18
48
1
60
0
100
AcDbLine
10
0
20
-4.9975
30
0
11
0
21
-20.5
31
0
39
0
210
0
220
0
230
1
0
LINE
5
B8
100
AcDbEntity
8
1
62
256
6
ByLayer
370
13
48
1
60
0
100
AcDbLine
10
22.550537
20
-1.601297
30
0
11
22.550537
21
16.735504
31
0
39
0
210
0
220
0
230
1
0
LINE
5
B9
100
AcDbEntity
8
1
62
256
6
ByLayer
370
13
48
1
60
0
100
AcDbLine
10
29.630935
20
5.719752
30
0
11
29.904821
21
5.909504
31
0
39
0
210
0
220
0
230
1
0
LINE
5
BA
100
AcDbEntity
8
1
62
256
6
ByLayer
370
13
48
1
60
0
100
AcDbLine
10
31.5873
20
7.808119
30
0
11
30.101957
21
7.09489
31
0
39
0
210
0
220
0
230
1
0
LINE
5
BB
100
AcDbEntity
8
1
62
256
6
ByLayer
370
18
48
1
60
0
100
AcDbLine
10
38.6
20
12.773809
30
0
11
38.6
21
7.240304
31
0
39
0
210
0
220
0
230
1
0
LINE
5
BC
100
AcDbEntity
8
1
62
256
6
ByLayer
370
13
48
1
60
0
100
AcDbLine
10
29.027117
20
-1.962134
30
0
11
19.564812
21
-2.542805
31
0
39
0
210
0
220
0
230
1
0
LINE
5
BD
100
AcDbEntity
8
1
62
256
6
ByLayer
370
18
48
1
60
0
100
AcDbLine
10
28.740032
20
-0.331883
30
0
11
28.139128
21
-0.748197
31
0
39
0
210
0
220
0
230
1
0
LINE
5
BE
100
AcDbEntity
8
1
62
256
6
ByLayer
370
18
48
1
60
0
100
AcDbLine
10
29.060573
20
-23.451658
30
0
11
29.060091
21
-23.452817
31
0
39
0
210
0
220
0
230
1
0
LINE
5
BF
100
AcDbEntity
8
1
62
256
6
ByLayer
370
18
48
1
60
0
100
AcDbLine
10
29.046948
20
-23.440058
30
0
11
29.046674
21
-23.441774
31
0
39
0
210
0
220
0
230
1
0
LINE
5
C0
100
AcDbEntity
8
1
62
256
6
ByLayer
370
18
48
1
60
0
100
AcDbLine
10
29.032432
20
-23.426067
30
0
11
29.032364
21
-23.428337
31
0
39
0
210
0
220
0
230
1
0
LINE
5
C1
100
AcDbEntity
8
1
62
256
6
ByLayer
370
18
48
1
60
0
100
AcDbLine
10
29.01703
20
-23.409702
30
0
11
29.017167
21
-23.412522
31
0
39
0
210
0
220
0
230
1
0
LINE
5
C2
100
AcDbEntity
8
1
62
256
6
ByLayer
370
18
48
1
60
0
100
AcDbLine
10
29.000748
20
-23.390977
30
0
11
29.001089
21
-23.394343
31
0
39
0
210
0
220
0
230
1
0
LINE
5
C3
100
AcDbEntity
8
1
62
256
6
ByLayer
370
18
48
1
60
0
100
AcDbLine
10
28.983591
20
-23.369903
30
0
11
28.984135
21
-23.373814
31
0
39
0
210
0
220
0
230
1
0
LINE
5
C4
100
AcDbEntity
8
1
62
256
6
ByLayer
370
18
48
1
60
0
100
AcDbLine
10
28.946668
20
-23.320764
30
0
11
28.947615
21
-23.325754
31
0
39
0
210
0
220
0
230
1
0
LINE
5
C5
100
AcDbEntity
8
1
62
256
6
ByLayer
370
18
48
1
60
0
100
AcDbLine
10
28.926911
20
-23.292719
30
0
11
28.928058
21
-23.298245
31
0
39
0
210
0
220
0
230
1
0
LINE
5
C6
100
AcDbEntity
8
1
62
256
6
ByLayer
370
18
48
1
60
0
100
AcDbLine
10
28.906295
20
-23.26237
30
0
11
28.907642
21
-23.268432
31
0
39
0
210
0
220
0
230
1
0
LINE
5
C7
100
AcDbEntity
8
1
62
256
6
ByLayer
370
18
48
1
60
0
100
AcDbLine
10
28.884824
20
-23.229727
30
0
11
28.886369
21
-23.236321
31
0
39
0
210
0
220
0
230
1
0
LINE
5
C8
100
AcDbEntity
8
1
62
256
6
ByLayer
370
13
48
1
60
0
100
AcDbLine
10
31.6
20
-18.572413
30
0
11
31.6
21
-23.034574
31
0
39
0
210
0
220
0
230
1
0
LINE
5
C9
100
AcDbEntity
8
1
62
256
6
ByLayer
370
18
48
1
60
0
100
AcDbLine
10
23.566208
20
-21.599332
30
0
11
29.042364
21
-23.453822
31
0
39
0
210
0
220
0
230
1
0
LINE
5
CA
100
AcDbEntity
8
1
62
256
6
ByLayer
370
18
48
1
60
0
100
AcDbLine
10
19.848893
20
-18.644391
30
0
11
22.550537
21
-21.013454
31
0
39
0
210
0
220
0
230
1
0
LINE
5
CB
100
AcDbEntity
8
1
62
256
6
ByLayer
370
70
48
1
60
0
100
AcDbLine
10
39.238275
20
-16.522499
30
0
11
38.6
21
-15.41756
31
0
39
0
210
0
220
0
230
1
0
LINE
5
CC
100
AcDbEntity
8
1
62
256
6
ByLayer
370
70
48
1
60
0
100
AcDbLine
10
28.847346
20
22.524881
30
0
11
28.530752
21
21.976814
31
0
39
0
210
0
220
0
230
1
0
LINE
5
CD
100
AcDbEntity
8
1
62
256
6
ByLayer
370
70
48
1
60
0
100
AcDbLine
10
38.522808
20
15.28393
30
0
11
38.522966
21
15.284203
31
0
39
0
210
0
220
0
230
1
0
LINE
5
CE
100
AcDbEntity
8
1
62
256
6
ByLayer
370
70
48
1
60
0
100
AcDbLine
10
28.021129
20
-0.890229
30
0
11
28.087534
21
-1.431048
31
0
39
0
210
0
220
0
230
1
0
LINE
5
CF
100
AcDbEntity
8
1
62
256
6
ByLayer
370
18
48
1
60
0
100
AcDbLine
10
38.6
20
-13.611524
30
0
11
38.6
21
-14.467889
31
0
39
0
210
0
220
0
230
1
0
LINE
5
D0
100
AcDbEntity
8
1
62
256
6
ByLayer
370
18
48
1
60
0
100
AcDbLine
10
36.3
20
-5.097017
30
0
11
36.3
21
-5.882893
31
0
39
0
210
0
220
0
230
1
0
LINE
5
D1
100
AcDbEntity
8
1
62
256
6
ByLayer
370
13
48
1
60
0
100
AcDbLine
10
36.3
20
-5.097017
30
0
11
16.717067
21
-6.298759
31
0
39
0
210
0
220
0
230
1
0
LINE
5
D2
100
AcDbEntity
8
1
62
256
6
ByLayer
370
18
48
1
60
0
100
AcDbLine
10
36.3
20
-1.80791
30
0
11
36.3
21
-5.097017
31
0
39
0
210
0
220
0
230
1
0
LINE
5
D3
100
AcDbEntity
8
1
62
256
6
ByLayer
370
18
48
1
60
0
100
AcDbLine
10
0.4
20
4.5975
30
0
11
0
21
4.9975
31
0
39
0
210
0
220
0
230
1
0
LINE
5
D4
100
AcDbEntity
8
1
62
256
6
ByLayer
370
18
48
1
60
0
100
AcDbLine
10
0.4
20
20.5
30
0
11
0
21
20.5
31
0
39
0
210
0
220
0
230
1
0
LINE
5
D5
100
AcDbEntity
8
1
62
256
6
ByLayer
370
13
48
1
60
0
100
AcDbLine
10
17.870957
20
-3.119655
30
0
11
17.870957
21
16.560894
31
0
39
0
210
0
220
0
230
1
0
LINE
5
D6
100
AcDbEntity
8
1
62
256
6
ByLayer
370
13
48
1
60
0
100
AcDbLine
10
19.848893
20
16.489134
30
0
11
19.848893
21
-2.458185
31
0
39
0
210
0
220
0
230
1
0
LINE
5
D7
100
AcDbEntity
8
1
62
256
6
ByLayer
370
18
48
1
60
0
100
AcDbLine
10
0
20
-4.9975
30
0
11
0.4
21
-4.5975
31
0
39
0
210
0
220
0
230
1
0
LINE
5
D8
100
AcDbEntity
8
1
62
256
6
ByLayer
370
18
48
1
60
0
100
AcDbLine
10
0
20
-20.5
30
0
11
0.4
21
-20.5
31
0
39
0
210
0
220
0
230
1
0
LINE
5
D9
100
AcDbEntity
8
1
62
256
6
ByLayer
370
18
48
1
60
0
100
AcDbLine
10
29.04364
20
23.454254
30
0
11
23.566208
21
21.599332
31
0
39
0
210
0
220
0
230
1
0
LINE
5
DA
100
AcDbEntity
8
1
62
256
6
ByLayer
370
18
48
1
60
0
100
AcDbLine
10
28.965563
20
-23.346495
30
0
11
28.700673
21
-22.63612
31
0
39
0
210
0
220
0
230
1
0
LINE
5
DB
100
AcDbEntity
8
1
62
256
6
ByLayer
370
18
48
1
60
0
100
AcDbLine
10
28.690502
20
-22.633782
30
0
11
28.946668
21
-23.320764
31
0
39
0
210
0
220
0
230
1
0
LINE
5
DC
100
AcDbEntity
8
1
62
256
6
ByLayer
370
18
48
1
60
0
100
AcDbLine
10
28.680325
20
-22.63143
30
0
11
28.926911
21
-23.292719
31
0
39
0
210
0
220
0
230
1
0
LINE
5
DD
100
AcDbEntity
8
1
62
256
6
ByLayer
370
18
48
1
60
0
100
AcDbLine
10
28.670158
20
-22.629102
30
0
11
28.906295
21
-23.26237
31
0
39
0
210
0
220
0
230
1
0
LINE
5
DE
100
AcDbEntity
8
1
62
256
6
ByLayer
370
18
48
1
60
0
100
AcDbLine
10
28.659987
20
-22.626764
30
0
11
28.884824
21
-23.229727
31
0
39
0
210
0
220
0
230
1
0
LINE
5
DF
100
AcDbEntity
8
1
62
256
6
ByLayer
370
18
48
1
60
0
100
AcDbLine
10
28.740032
20
23.349079
30
0
11
28.139128
21
21.737588
31
0
39
0
210
0
220
0
230
1
0
LINE
5
E0
100
AcDbEntity
8
1
62
256
6
ByLayer
370
18
48
1
60
0
100
AcDbLine
10
22.550537
20
21.013454
30
0
11
19.848893
21
18.644391
31
0
39
0
210
0
220
0
230
1
0
LINE
5
E1
100
AcDbEntity
8
1
62
256
6
ByLayer
370
13
48
1
60
0
100
AcDbLine
10
28.024059
20
-22.539097
30
0
11
28.11841
21
-22.830045
31
0
39
0
210
0
220
0
230
1
0
LINE
5
E2
100
AcDbEntity
8
1
62
256
6
ByLayer
370
13
48
1
60
0
100
AcDbLine
10
25.810668
20
16.442899
30
0
11
19.564812
21
18.247626
31
0
39
0
210
0
220
0
230
1
0
LINE
5
E3
100
AcDbEntity
8
1
62
256
6
ByLayer
370
18
48
1
60
0
100
AcDbLine
10
29.881908
20
-22.561078
30
0
11
30.042539
21
-22.831164
31
0
39
0
210
0
220
0
230
1
0
LINE
5
E4
100
AcDbEntity
8
1
62
256
6
ByLayer
370
18
48
1
60
0
100
AcDbLine
10
38.6
20
-14.467889
30
0
11
38.6
21
-17.922842
31
0
39
0
210
0
220
0
230
1
0
LINE
5
E5
100
AcDbEntity
8
1
62
256
6
ByLayer
370
13
48
1
60
0
100
AcDbLine
10
31.6
20
15.701144
30
0
11
31.6
21
7.801849
31
0
39
0
210
0
220
0
230
1
0
LINE
5
E6
100
AcDbEntity
8
1
62
256
6
ByLayer
370
13
48
1
60
0
100
AcDbLine
10
23.566208
20
16.700918
30
0
11
23.566208
21
-1.348018
31
0
39
0
210
0
220
0
230
1
0
LINE
5
E7
100
AcDbEntity
8
1
62
256
6
ByLayer
370
18
48
1
60
0
100
AcDbLine
10
5
20
3.2975
30
0
11
4.2
21
4.0975
31
0
39
0
210
0
220
0
230
1
0
LINE
5
E8
100
AcDbEntity
8
1
62
256
6
ByLayer
370
18
48
1
60
0
100
AcDbLine
10
5
20
3.2975
30
0
11
5
21
-3.2975
31
0
39
0
210
0
220
0
230
1
0
LINE
5
E9
100
AcDbEntity
8
1
62
256
6
ByLayer
370
18
48
1
60
0
100
AcDbLine
10
4.2
20
-4.0975
30
0
11
5
21
-3.2975
31
0
39
0
210
0
220
0
230
1
0
LINE
5
EA
100
AcDbEntity
8
1
62
256
6
ByLayer
370
18
48
1
60
0
100
AcDbLine
10
0.9
20
-4.0975
30
0
11
4.2
21
-4.0975
31
0
39
0
210
0
220
0
230
1
0
LINE
5
EB
100
AcDbEntity
8
1
62
256
6
ByLayer
370
18
48
1
60
0
100
AcDbLine
10
0.9
20
-4.0975
30
0
11
0.4
21
-4.5975
31
0
39
0
210
0
220
0
230
1
0
LINE
5
EC
100
AcDbEntity
8
1
62
256
6
ByLayer
370
18
48
1
60
0
100
AcDbLine
10
0.4
20
4.5975
30
0
11
0.9
21
4.0975
31
0
39
0
210
0
220
0
230
1
0
LINE
5
ED
100
AcDbEntity
8
1
62
256
6
ByLayer
370
18
48
1
60
0
100
AcDbLine
10
4.2
20
4.0975
30
0
11
0.9
21
4.0975
31
0
39
0
210
0
220
0
230
1
0
LINE
5
EE
100
AcDbEntity
8
1
62
256
6
ByLayer
370
18
48
1
60
0
100
AcDbLine
10
34.686284
20
20.013167
30
0
11
34.697259
21
20.032317
31
0
39
0
210
0
220
0
230
1
0
LINE
5
EF
100
AcDbEntity
8
81
62
256
6
ByLayer
370
18
48
1
60
0
100
AcDbLine
10
40
20
25.4
30
0
11
43
21
25.4
31
0
39
0
210
0
220
0
230
1
0
LINE
5
F0
100
AcDbEntity
8
80
62
256
6
ByLayer
370
18
48
1
60
0
100
AcDbLine
10
0
20
0
30
0
11
-3
21
0
31
0
39
0
210
0
220
0
230
1
0
LINE
5
F1
100
AcDbEntity
8
SK4
62
256
6
ByLayer
370
18
48
0.05
60
0
100
AcDbLine
10
-5.5
20
0
30
0
11
43.5
21
0
31
0
39
0
210
0
220
0
230
1
0
LINE
5
F3
100
AcDbEntity
8
4
62
256
6
ByLayer
370
18
48
0.05
60
0
100
AcDbLine
10
0
20
0
30
0
11
40.5
21
0
31
0
39
0
210
0
220
0
230
1
0
MTEXT
5
1D2
100
AcDbEntity
8
SK6
62
256
6
ByLayer
370
18
48
1
60
0
100
AcDbMText
10
-1.947496
20
-36.416636
30
0
210
0
220
0
230
1
1
\W0.7436;MR80-AR051R19-12M
40
3.5
41
0
44
1.084337
50
0
71
7
72
5
7
iso_b_vert
0
DIMENSION
5
1D7
100
AcDbEntity
8
SK2
62
256
6
ByLayer
370
18
48
1
60
0
100
AcDbDimension
2
_U0
10
-13.059796
20
-21.05
30
0
11
-13.059796
21
0
31
0
70
32
71
1
72
1
41
1
210
0
220
0
230
1
3
Standard
100
AcDbAlignedDimension
13
0.4
23
21.05
33
0
14
0.4
24
-21.05
34
0
50
90
100
AcDbRotatedDimension
1001
ACAD
1000
DSTYLE
1002
{
1070
   371
1070
    13
1070
   372
1070
    13
1070
   170
1070
     0
1070
   144
1040
1.0
1070
   277
1070
     2
1070
   284
1070
     8
1070
   278
1070
    46
1070
   146
1040
1.166667
1070
   345
1005
16
1070
   347
1005
16
1070
   346
1005
16
1070
   344
1005
0
1070
   343
1005
0
1070
   172
1070
     1
1070
    76
1070
     0
1070
    75
1070
     0
1070
   282
1070
     0
1070
   281
1070
     0
1070
    71
1070
     0
1070
    74
1070
     0
1070
   279
1070
     0
1070
   173
1070
     1
1070
   340
1005
1D3
1070
   271
1070
     0
1070
   272
1070
     2
1070
    77
1070
     1
1070
    73
1070
     0
1070
   171
1070
     3
1070
   274
1070
     4
1070
   177
1070
     7
1070
   176
1070
     7
1070
   178
1070
     7
1070
    78
1070
     8
1070
    48
1040
-0.1
1070
    41
1040
3.175
1070
   147
1040
1.5
1070
    42
1040
1.5875
1070
    44
1040
2.0
1070
   140
1040
3.0
1002
}
1001
ACAD_DSTYLE_DIM_LINETYPE
1070
   380
1005
16
1001
ACAD_DSTYLE_DIM_EXT1_LINETYPE
1070
   381
1005
16
1001
ACAD_DSTYLE_DIM_EXT2_LINETYPE
1070
   382
1005
16
0
DIMENSION
5
1F2
100
AcDbEntity
8
2
62
256
6
ByLayer
370
18
48
1
60
0
100
AcDbDimension
2
_U1
10
59.128621
20
-25.39446
30
0
11
59.128621
21
0.00277
31
0
70
32
71
1
72
1
41
1
210
0
220
0
230
1
3
Standard
100
AcDbAlignedDimension
13
40
23
25.4
33
0
14
33.891867
24
-25.39446
34
0
50
90
100
AcDbRotatedDimension
1001
ACAD
1000
DSTYLE
1002
{
1070
   371
1070
    13
1070
   372
1070
    13
1070
   170
1070
     0
1070
   144
1040
1.0
1070
   277
1070
     2
1070
   284
1070
     8
1070
   278
1070
    46
1070
   146
1040
1.166667
1070
   345
1005
16
1070
   347
1005
16
1070
   346
1005
16
1070
   344
1005
0
1070
   343
1005
0
1070
   172
1070
     1
1070
    76
1070
     0
1070
    75
1070
     0
1070
   282
1070
     0
1070
   281
1070
     0
1070
    71
1070
     0
1070
    74
1070
     0
1070
   279
1070
     0
1070
   173
1070
     1
1070
   340
1005
1D3
1070
   271
1070
     1
1070
   272
1070
     2
1070
    77
1070
     1
1070
    73
1070
     0
1070
   171
1070
     3
1070
   274
1070
     4
1070
   177
1070
     7
1070
   176
1070
     7
1070
   178
1070
     7
1070
    78
1070
     8
1070
    48
1040
-0.1
1070
    41
1040
3.175
1070
   147
1040
1.5
1070
    42
1040
1.5875
1070
    44
1040
2.0
1070
   140
1040
3.0
1002
}
1001
ACAD_DSTYLE_DIM_LINETYPE
1070
   380
1005
16
1001
ACAD_DSTYLE_DIM_EXT1_LINETYPE
1070
   381
1005
16
1001
ACAD_DSTYLE_DIM_EXT2_LINETYPE
1070
   382
1005
16
0
DIMENSION
5
20C
100
AcDbEntity
8
2
62
256
6
ByLayer
370
18
48
1
60
0
100
AcDbDimension
2
_U2
10
40
20
43.016646
30
0
11
20
21
43.016646
31
0
70
32
71
1
72
1
41
1
210
0
220
0
230
1
3
Standard
100
AcDbAlignedDimension
13
0
23
20.5
33
0
14
40
24
25.4
34
0
50
0
100
AcDbRotatedDimension
1001
ACAD
1000
DSTYLE
1002
{
1070
   371
1070
    13
1070
   372
1070
    13
1070
   170
1070
     0
1070
   144
1040
1.0
1070
   277
1070
     2
1070
   284
1070
     8
1070
   278
1070
    46
1070
   146
1040
1.166667
1070
   345
1005
16
1070
   347
1005
16
1070
   346
1005
16
1070
   344
1005
0
1070
   343
1005
0
1070
   172
1070
     1
1070
    76
1070
     0
1070
    75
1070
     0
1070
   282
1070
     0
1070
   281
1070
     0
1070
    71
1070
     0
1070
    74
1070
     0
1070
   279
1070
     0
1070
   173
1070
     1
1070
   340
1005
1D3
1070
   271
1070
     2
1070
   272
1070
     2
1070
    77
1070
     1
1070
    73
1070
     1
1070
   171
1070
     3
1070
   274
1070
     4
1070
   177
1070
     7
1070
   176
1070
     7
1070
   178
1070
     7
1070
    78
1070
     8
1070
    48
1040
-0.1
1070
    41
1040
3.175
1070
   147
1040
1.5
1070
    42
1040
1.5875
1070
    44
1040
2.0
1070
   140
1040
3.0
1002
}
1001
ACAD_DSTYLE_DIM_LINETYPE
1070
   380
1005
16
1001
ACAD_DSTYLE_DIM_EXT1_LINETYPE
1070
   381
1005
16
1001
ACAD_DSTYLE_DIM_EXT2_LINETYPE
1070
   382
1005
16
0
DIMENSION
5
224
100
AcDbEntity
8
SK2
62
256
6
ByLayer
370
18
48
1
60
0
100
AcDbDimension
2
_U3
10
40
20
33.974506
30
0
11
36.94729
21
33.974506
31
0
70
32
71
1
72
1
41
1
210
0
220
0
230
1
3
Standard
100
AcDbAlignedDimension
13
33.89458
23
19.267084
33
0
14
40
24
25.4
34
0
50
0
100
AcDbRotatedDimension
1001
ACAD
1000
DSTYLE
1002
{
1070
   371
1070
    13
1070
   372
1070
    13
1070
   170
1070
     0
1070
   144
1040
1.0
1070
   277
1070
     2
1070
   284
1070
     8
1070
   278
1070
    46
1070
   146
1040
1.166667
1070
   345
1005
16
1070
   347
1005
16
1070
   346
1005
16
1070
   344
1005
0
1070
   343
1005
0
1070
   172
1070
     1
1070
    76
1070
     0
1070
    75
1070
     0
1070
   282
1070
     0
1070
   281
1070
     0
1070
    71
1070
     0
1070
    74
1070
     0
1070
   279
1070
     0
1070
   173
1070
     1
1070
   340
1005
1D3
1070
   271
1070
     0
1070
   272
1070
     2
1070
    77
1070
     1
1070
    73
1070
     1
1070
   171
1070
     3
1070
   274
1070
     4
1070
   177
1070
     7
1070
   176
1070
     7
1070
   178
1070
     7
1070
    78
1070
     8
1070
    48
1040
-0.1
1070
    41
1040
3.175
1070
   147
1040
1.5
1070
    42
1040
7.0
1070
    44
1040
2.0
1070
   140
1040
3.0
1002
}
1001
ACAD_DSTYLE_DIM_LINETYPE
1070
   380
1005
16
1001
ACAD_DSTYLE_DIM_EXT1_LINETYPE
1070
   381
1005
16
1001
ACAD_DSTYLE_DIM_EXT2_LINETYPE
1070
   382
1005
16
0
ENDSEC
0
SECTION
2
OBJECTS
0
DICTIONARY
5
2ad
330
0
100
AcDbDictionary
280
0
281
1
3
ACAD_GROUP
350
2ae
3
ACAD_MLINESTYLE
350
2af
0
DICTIONARY
5
2ae
330
0
100
AcDbDictionary
280
0
281
1
0
DICTIONARY
5
2af
330
0
100
AcDbDictionary
280
0
281
1
3
Standard
350
18
0
MLINESTYLE
5
18
330
2af
100
AcDbMlineStyle
2
Standard
70
0
3

62
256
51
90
52
90
71
2
49
-0.5
62
256
6
ByLayer
49
0.5
62
256
6
ByLayer
0
RASTERVARIABLES
5
29b
330

100
AcDbRasterVariables
90
0
70
1
71
1
72
1
0
ENDSEC
0
EOF
