0
SECTION
2
HEADER
9
$ACADVER
1
AC1015
9
$DWGCODEPAGE
3
ANSI_1252
9
$HANDSEED
5
224
9
$ANGBASE
50
0
9
$ANGDIR
70
0
9
$ATTMODE
70
1
9
$AUNITS
70
0
9
$AUPREC
70
0
9
$CECOLOR
62
256
9
$CELTSCALE
40
1
9
$CELTYPE
6
ByLayer
9
$CELWEIGHT
370
18
9
$CLAYER
8
0
9
$CMLJUST
70
0
9
$CMLSCALE
40
1
9
$CMLSTYLE
2
Standard
9
$DIMSTYLE
2
Standard
9
$TEXTSIZE
40
0.2
9
$TEXTSTYLE
7
Standard
9
$LUNITS
70
2
9
$LUPREC
70
4
9
$EXTNAMES
290
1
9
$INSUNITS
70
4
9
$LTSCALE
40
1
9
$LWDISPLAY
290
1
9
$PDMODE
70
0
9
$PDSIZE
40
0
9
$PLINEGEN
70
0
0
ENDSEC
0
SECTION
2
CLASSES
0
CLASS
1
RASTERVARIABLES
2
AcDbRasterVariables
3
ISM
90
0
280
0
281
0
0
ENDSEC
0
SECTION
2
TABLES
0
TABLE
2
VPORT
5
21a
100
AcDbSymbolTable
0
VPORT
5
1
100
AcDbSymbolTableRecord
100
AcDbViewportTableRecord
2
*Active
70
0
10
0
20
0
11
1
21
1
12
-1
22
1
13
0
23
0
14
0.5
24
0.5
15
10
25
10
16
0
26
0
36
1
17
0
27
0
37
0
0
ENDTAB
0
TABLE
2
LTYPE
5
21b
100
AcDbSymbolTable
0
LTYPE
5
14
100
AcDbSymbolTableRecord
100
AcDbLinetypeTableRecord
70
0
2
ByBlock
3

72
65
73
0
40
0
0
LTYPE
5
15
100
AcDbSymbolTableRecord
100
AcDbLinetypeTableRecord
70
0
2
ByLayer
3

72
65
73
0
40
0
0
LTYPE
5
16
100
AcDbSymbolTableRecord
100
AcDbLinetypeTableRecord
70
0
2
Continuous
3
Solid line
72
65
73
0
40
0
0
LTYPE
5
6E
100
AcDbSymbolTableRecord
100
AcDbLinetypeTableRecord
70
0
2
CENTER
3
____ _ ____ _ ____ _ ____
72
65
73
4
40
47.5
49
22
74
0
49
-8.5
74
0
49
8.5
74
0
49
-8.5
74
0
0
LTYPE
5
6F
100
AcDbSymbolTableRecord
100
AcDbLinetypeTableRecord
70
0
2
DASHED
3
__ __ __ __ __ __ __ __ __
72
65
73
2
40
25.72
49
12.86
74
0
49
-12.86
74
0
0
ENDTAB
0
TABLE
2
LAYER
5
21c
100
AcDbSymbolTable
0
LAYER
5
10
100
AcDbSymbolTableRecord
100
AcDbLayerTableRecord
2
0
70
0
62
7
6
Continuous
290
1
370
-3
390
0
0
LAYER
5
71
100
AcDbSymbolTableRecord
100
AcDbLayerTableRecord
2
80
70
0
62
-6
6
Continuous
290
1
370
-3
390
0
0
LAYER
5
73
100
AcDbSymbolTableRecord
100
AcDbLayerTableRecord
2
81
70
0
62
-3
6
Continuous
290
1
370
-3
390
0
0
LAYER
5
75
100
AcDbSymbolTableRecord
100
AcDbLayerTableRecord
2
1
70
0
62
4
6
Continuous
290
1
370
-3
390
0
0
LAYER
5
83
100
AcDbSymbolTableRecord
100
AcDbLayerTableRecord
2
4
70
0
62
-2
6
CENTER
290
1
370
-3
390
0
0
LAYER
5
A4
100
AcDbSymbolTableRecord
100
AcDbLayerTableRecord
2
2
70
0
62
7
6
Continuous
290
1
370
-3
390
0
0
LAYER
5
12F
100
AcDbSymbolTableRecord
100
AcDbLayerTableRecord
2
Defpoints
70
0
62
7
6
Continuous
290
0
370
-3
390
0
0
LAYER
5
206
100
AcDbSymbolTableRecord
100
AcDbLayerTableRecord
2
SK4
70
0
62
2
6
CENTER
290
1
370
-3
390
0
0
LAYER
5
207
100
AcDbSymbolTableRecord
100
AcDbLayerTableRecord
2
SK1
70
0
62
4
6
Continuous
290
1
370
-3
390
0
0
LAYER
5
208
100
AcDbSymbolTableRecord
100
AcDbLayerTableRecord
2
SK2
70
0
62
7
6
Continuous
290
1
370
-3
390
0
0
LAYER
5
209
100
AcDbSymbolTableRecord
100
AcDbLayerTableRecord
2
SK6
70
0
62
5
6
Continuous
290
1
370
-3
390
0
0
ENDTAB
0
TABLE
2
STYLE
5
21d
100
AcDbSymbolTable
0
STYLE
5
11
100
AcDbSymbolTableRecord
100
AcDbTextStyleTableRecord
2
Standard
3
txt
70
0
71
0
40
0
41
1
42
0
50
0
0
STYLE
5
10B
100
AcDbSymbolTableRecord
100
AcDbTextStyleTableRecord
2
iso_b_vert
3
simplex.shx
70
0
71
0
40
0
41
1
42
0
50
0
0
STYLE
5
10C
100
AcDbSymbolTableRecord
100
AcDbTextStyleTableRecord
2
DWGDirectTextStyle
3
simplex
70
0
71
0
40
0
41
1
42
0
50
0
0
ENDTAB
0
TABLE
2
DIMSTYLE
5
21e
100
AcDbSymbolTable
100
AcDbDimStyleTable
0
DIMSTYLE
105
27
100
AcDbSymbolTableRecord
100
AcDbDimStyleTableRecord
2
Standard
70
0
3
<>
41
0.18
42
0.0625
44
0.18
140
0.18
147
0.09
73
0
74
0
77
1
271
2
275
0
278
52
280
0
340
11
0
ENDTAB
0
TABLE
2
VIEW
5
21f
100
AcDbSymbolTable
0
ENDTAB
0
TABLE
2
UCS
5
220
100
AcDbSymbolTable
0
ENDTAB
0
TABLE
2
APPID
5
221
100
AcDbSymbolTable
0
APPID
5
12
100
AcDbSymbolTableRecord
100
AcDbRegAppTableRecord
2
ACAD
70
0
0
APPID
5
12B
100
AcDbSymbolTableRecord
100
AcDbRegAppTableRecord
2
ACAD_DSTYLE_DIMBREAK
70
0
0
APPID
5
1C5
100
AcDbSymbolTableRecord
100
AcDbRegAppTableRecord
2
ACAD_DSTYLE_DIM_LINETYPE
70
0
0
APPID
5
1C6
100
AcDbSymbolTableRecord
100
AcDbRegAppTableRecord
2
ACAD_DSTYLE_DIM_EXT1_LINETYPE
70
0
0
APPID
5
1C7
100
AcDbSymbolTableRecord
100
AcDbRegAppTableRecord
2
ACAD_DSTYLE_DIM_EXT2_LINETYPE
70
0
0
APPID
5
202
100
AcDbSymbolTableRecord
100
AcDbRegAppTableRecord
2
ACAD_MLEADERVER
70
0
0
ENDTAB
0
TABLE
2
BLOCK_RECORD
5
222
100
AcDbSymbolTable
0
BLOCK_RECORD
5
1F
100
AcDbSymbolTableRecord
100
AcDbBlockTableRecord
2
*Model_Space
340
0
70
0
0
BLOCK_RECORD
5
1B
100
AcDbSymbolTableRecord
100
AcDbBlockTableRecord
2
*Paper_Space
340
0
70
0
0
BLOCK_RECORD
5
23
100
AcDbSymbolTableRecord
100
AcDbBlockTableRecord
2
*Paper_Space0
340
0
70
0
0
BLOCK_RECORD
5
130
100
AcDbSymbolTableRecord
100
AcDbBlockTableRecord
2
*D1
340
0
70
0
0
BLOCK_RECORD
5
13C
100
AcDbSymbolTableRecord
100
AcDbBlockTableRecord
2
_U0
340
0
70
0
0
BLOCK_RECORD
5
148
100
AcDbSymbolTableRecord
100
AcDbBlockTableRecord
2
*D3
340
0
70
0
0
BLOCK_RECORD
5
154
100
AcDbSymbolTableRecord
100
AcDbBlockTableRecord
2
_U1
340
0
70
0
0
BLOCK_RECORD
5
160
100
AcDbSymbolTableRecord
100
AcDbBlockTableRecord
2
*D5
340
0
70
0
0
BLOCK_RECORD
5
16C
100
AcDbSymbolTableRecord
100
AcDbBlockTableRecord
2
_U2
340
0
70
0
0
BLOCK_RECORD
5
17A
100
AcDbSymbolTableRecord
100
AcDbBlockTableRecord
2
*D7
340
0
70
0
0
BLOCK_RECORD
5
186
100
AcDbSymbolTableRecord
100
AcDbBlockTableRecord
2
_U3
340
0
70
0
0
BLOCK_RECORD
5
192
100
AcDbSymbolTableRecord
100
AcDbBlockTableRecord
2
*D9
340
0
70
0
0
BLOCK_RECORD
5
19E
100
AcDbSymbolTableRecord
100
AcDbBlockTableRecord
2
_U4
340
0
70
0
0
ENDTAB
0
ENDSEC
0
SECTION
2
BLOCKS
0
BLOCK
5
20
100
AcDbEntity
8
0
100
AcDbBlockBegin
2
*Model_Space
70
0
10
0
20
0
30
0
3
*Model_Space
0
ENDBLK
5
21
100
AcDbEntity
8
0
100
AcDbBlockEnd
0
BLOCK
5
1C
100
AcDbEntity
8
0
100
AcDbBlockBegin
2
*Paper_Space
70
0
10
0
20
0
30
0
3
*Paper_Space
0
ENDBLK
5
1D
100
AcDbEntity
8
0
100
AcDbBlockEnd
0
BLOCK
5
24
100
AcDbEntity
8
0
100
AcDbBlockBegin
2
*Paper_Space0
70
0
10
0
20
0
30
0
3
*Paper_Space0
0
ENDBLK
5
25
100
AcDbEntity
8
0
100
AcDbBlockEnd
0
BLOCK
5
131
100
AcDbEntity
8
0
100
AcDbBlockBegin
2
*D1
70
1
10
0
20
0
30
0
3
*D1
0
LINE
5
133
100
AcDbEntity
8
0
62
256
6
ByLayer
370
-2
48
1
60
0
100
AcDbLine
10
-50
20
-11.5875
30
0
11
-50
21
-66.995826
31
0
39
0
210
0
220
0
230
1
0
LINE
5
134
100
AcDbEntity
8
0
62
256
6
ByLayer
370
-2
48
1
60
0
100
AcDbLine
10
103
20
-11.0875
30
0
11
103
21
-66.995826
31
0
39
0
210
0
220
0
230
1
0
LINE
5
135
100
AcDbEntity
8
0
62
256
6
ByLayer
370
-2
48
1
60
0
100
AcDbLine
10
-46.5
20
-64.995826
30
0
11
99.5
21
-64.995826
31
0
39
0
210
0
220
0
230
1
0
SOLID
5
136
100
AcDbEntity
8
0
62
256
6
ByLayer
370
-1
48
1
60
0
100
AcDbTrace
10
-46.5
20
-64.412493
30
0
11
-46.5
21
-65.579159
31
0
12
-50
22
-64.995826
32
0
13
-50
23
-64.995826
33
0
39
0
210
0
220
0
230
1
0
SOLID
5
137
100
AcDbEntity
8
0
62
256
6
ByLayer
370
-1
48
1
60
0
100
AcDbTrace
10
99.5
20
-65.579159
30
0
11
99.5
21
-64.412493
31
0
12
103
22
-64.995826
32
0
13
103
23
-64.995826
33
0
39
0
210
0
220
0
230
1
0
MTEXT
5
138
100
AcDbEntity
8
0
62
256
6
ByLayer
370
18
48
1
60
0
100
AcDbMText
10
26.5
20
-57.995826
30
0
210
0
220
0
230
1
1
\A1;153
40
3.5
41
0
44
1
50
0
71
5
72
5
7
iso_b_vert
0
POINT
5
139
100
AcDbEntity
8
Defpoints
62
0
6
ByLayer
370
-1
48
1
60
0
100
AcDbPoint
10
-50
20
-10
30
0
39
0
210
0
220
0
230
1
50
360
0
POINT
5
13A
100
AcDbEntity
8
Defpoints
62
0
6
ByLayer
370
-1
48
1
60
0
100
AcDbPoint
10
103
20
-9.5
30
0
39
0
210
0
220
0
230
1
50
360
0
POINT
5
13B
100
AcDbEntity
8
Defpoints
62
0
6
ByLayer
370
-1
48
1
60
0
100
AcDbPoint
10
103
20
-64.995826
30
0
39
0
210
0
220
0
230
1
50
360
0
ENDBLK
5
132
100
AcDbEntity
8
0
100
AcDbBlockEnd
0
BLOCK
5
143
100
AcDbEntity
8
0
100
AcDbBlockBegin
2
_U0
70
0
10
0
20
0
30
0
3
_U0
0
MTEXT
5
13D
100
AcDbEntity
8
2
62
256
6
ByLayer
370
18
48
1
60
0
100
AcDbMText
10
23.724734
20
-63.963192
30
0
210
0
220
0
230
1
1
\W0.6217;153
40
3.5
41
0
44
1.084337
50
0
71
7
72
5
7
iso_b_vert
0
LINE
5
13E
100
AcDbEntity
8
2
62
256
6
ByLayer
370
13
48
1
60
0
100
AcDbLine
10
-50
20
-11.5875
30
0
11
-50
21
-66.995826
31
0
39
0
210
0
220
0
230
1
0
LINE
5
13F
100
AcDbEntity
8
2
62
256
6
ByLayer
370
13
48
1
60
0
100
AcDbLine
10
103
20
-11.0875
30
0
11
103
21
-66.995826
31
0
39
0
210
0
220
0
230
1
0
LINE
5
140
100
AcDbEntity
8
2
62
256
6
ByLayer
370
13
48
1
60
0
100
AcDbLine
10
-50
20
-64.995826
30
0
11
103
21
-64.995826
31
0
39
0
210
0
220
0
230
1
0
SOLID
5
141
100
AcDbEntity
8
2
62
256
6
ByLayer
370
18
48
1
60
0
100
AcDbTrace
10
-50
20
-64.995826
30
0
11
-46.500002
21
-64.535042
31
0
12
-46.499998
22
-65.45661
32
0
13
-46.499998
23
-65.45661
33
0
39
0
210
0
220
0
230
1
0
SOLID
5
142
100
AcDbEntity
8
2
62
256
6
ByLayer
370
18
48
1
60
0
100
AcDbTrace
10
103
20
-64.995826
30
0
11
99.500002
21
-65.45661
31
0
12
99.499998
22
-64.535042
32
0
13
99.499998
23
-64.535042
33
0
39
0
210
0
220
0
230
1
0
ENDBLK
5
144
100
AcDbEntity
8
0
100
AcDbBlockEnd
0
BLOCK
5
149
100
AcDbEntity
8
0
100
AcDbBlockBegin
2
*D3
70
1
10
0
20
0
30
0
3
*D3
0
LINE
5
14B
100
AcDbEntity
8
0
62
256
6
ByLayer
370
-2
48
1
60
0
100
AcDbLine
10
103
20
-11.0875
30
0
11
103
21
-46.995826
31
0
39
0
210
0
220
0
230
1
0
LINE
5
14C
100
AcDbEntity
8
0
62
256
6
ByLayer
370
-2
48
1
60
0
100
AcDbLine
10
2
20
-11.0875
30
0
11
2
21
-46.995826
31
0
39
0
210
0
220
0
230
1
0
LINE
5
14D
100
AcDbEntity
8
0
62
256
6
ByLayer
370
-2
48
1
60
0
100
AcDbLine
10
99.5
20
-44.995826
30
0
11
5.5
21
-44.995826
31
0
39
0
210
0
220
0
230
1
0
SOLID
5
14E
100
AcDbEntity
8
0
62
256
6
ByLayer
370
-1
48
1
60
0
100
AcDbTrace
10
99.5
20
-45.579159
30
0
11
99.5
21
-44.412493
31
0
12
103
22
-44.995826
32
0
13
103
23
-44.995826
33
0
39
0
210
0
220
0
230
1
0
SOLID
5
14F
100
AcDbEntity
8
0
62
256
6
ByLayer
370
-1
48
1
60
0
100
AcDbTrace
10
5.5
20
-44.412493
30
0
11
5.5
21
-45.579159
31
0
12
2
22
-44.995826
32
0
13
2
23
-44.995826
33
0
39
0
210
0
220
0
230
1
0
MTEXT
5
150
100
AcDbEntity
8
0
62
256
6
ByLayer
370
18
48
1
60
0
100
AcDbMText
10
52.5
20
-37.995826
30
0
210
0
220
0
230
1
1
\A1;101
40
3.5
41
0
44
1
50
0
71
5
72
5
7
iso_b_vert
0
POINT
5
151
100
AcDbEntity
8
Defpoints
62
0
6
ByLayer
370
-1
48
1
60
0
100
AcDbPoint
10
103
20
-9.5
30
0
39
0
210
0
220
0
230
1
50
360
0
POINT
5
152
100
AcDbEntity
8
Defpoints
62
0
6
ByLayer
370
-1
48
1
60
0
100
AcDbPoint
10
2
20
-9.5
30
0
39
0
210
0
220
0
230
1
50
360
0
POINT
5
153
100
AcDbEntity
8
Defpoints
62
0
6
ByLayer
370
-1
48
1
60
0
100
AcDbPoint
10
2
20
-44.995826
30
0
39
0
210
0
220
0
230
1
50
360
0
ENDBLK
5
14A
100
AcDbEntity
8
0
100
AcDbBlockEnd
0
BLOCK
5
15B
100
AcDbEntity
8
0
100
AcDbBlockBegin
2
_U1
70
0
10
0
20
0
30
0
3
_U1
0
MTEXT
5
155
100
AcDbEntity
8
SK2
62
256
6
ByLayer
370
18
48
1
60
0
100
AcDbMText
10
50.162167
20
-43.963192
30
0
210
0
220
0
230
1
1
\W0.5919;101
40
3.5
41
0
44
1.084337
50
0
71
7
72
5
7
iso_b_vert
0
LINE
5
156
100
AcDbEntity
8
SK2
62
256
6
ByLayer
370
13
48
1
60
0
100
AcDbLine
10
103
20
-11.0875
30
0
11
103
21
-46.995826
31
0
39
0
210
0
220
0
230
1
0
LINE
5
157
100
AcDbEntity
8
SK2
62
256
6
ByLayer
370
13
48
1
60
0
100
AcDbLine
10
2
20
-11.0875
30
0
11
2
21
-46.995826
31
0
39
0
210
0
220
0
230
1
0
LINE
5
158
100
AcDbEntity
8
SK2
62
256
6
ByLayer
370
13
48
1
60
0
100
AcDbLine
10
103
20
-44.995826
30
0
11
2
21
-44.995826
31
0
39
0
210
0
220
0
230
1
0
SOLID
5
159
100
AcDbEntity
8
SK2
62
256
6
ByLayer
370
18
48
1
60
0
100
AcDbTrace
10
103
20
-44.995826
30
0
11
99.500002
21
-45.45661
31
0
12
99.499998
22
-44.535042
32
0
13
99.499998
23
-44.535042
33
0
39
0
210
0
220
0
230
1
0
SOLID
5
15A
100
AcDbEntity
8
SK2
62
256
6
ByLayer
370
18
48
1
60
0
100
AcDbTrace
10
2
20
-44.995826
30
0
11
5.499998
21
-44.535042
31
0
12
5.500002
22
-45.45661
32
0
13
5.500002
23
-45.45661
33
0
39
0
210
0
220
0
230
1
0
ENDBLK
5
15C
100
AcDbEntity
8
0
100
AcDbBlockEnd
0
BLOCK
5
161
100
AcDbEntity
8
0
100
AcDbBlockBegin
2
*D5
70
1
10
0
20
0
30
0
3
*D5
0
LINE
5
163
100
AcDbEntity
8
0
62
256
6
ByLayer
370
-2
48
1
60
0
100
AcDbLine
10
103
20
-11.0875
30
0
11
103
21
-36.995826
31
0
39
0
210
0
220
0
230
1
0
LINE
5
164
100
AcDbEntity
8
0
62
256
6
ByLayer
370
-2
48
1
60
0
100
AcDbLine
10
26
20
-11.0875
30
0
11
26
21
-36.995826
31
0
39
0
210
0
220
0
230
1
0
LINE
5
165
100
AcDbEntity
8
0
62
256
6
ByLayer
370
-2
48
1
60
0
100
AcDbLine
10
99.5
20
-34.995826
30
0
11
29.5
21
-34.995826
31
0
39
0
210
0
220
0
230
1
0
SOLID
5
166
100
AcDbEntity
8
0
62
256
6
ByLayer
370
-1
48
1
60
0
100
AcDbTrace
10
99.5
20
-35.579159
30
0
11
99.5
21
-34.412493
31
0
12
103
22
-34.995826
32
0
13
103
23
-34.995826
33
0
39
0
210
0
220
0
230
1
0
SOLID
5
167
100
AcDbEntity
8
0
62
256
6
ByLayer
370
-1
48
1
60
0
100
AcDbTrace
10
29.5
20
-34.412493
30
0
11
29.5
21
-35.579159
31
0
12
26
22
-34.995826
32
0
13
26
23
-34.995826
33
0
39
0
210
0
220
0
230
1
0
MTEXT
5
168
100
AcDbEntity
8
0
62
256
6
ByLayer
370
18
48
1
60
0
100
AcDbMText
10
64.5
20
-27.995826
30
0
210
0
220
0
230
1
1
\A1;77
40
3.5
41
0
44
1
50
0
71
5
72
5
7
iso_b_vert
0
POINT
5
169
100
AcDbEntity
8
Defpoints
62
0
6
ByLayer
370
-1
48
1
60
0
100
AcDbPoint
10
103
20
-9.5
30
0
39
0
210
0
220
0
230
1
50
360
0
POINT
5
16A
100
AcDbEntity
8
Defpoints
62
0
6
ByLayer
370
-1
48
1
60
0
100
AcDbPoint
10
26
20
-9.5
30
0
39
0
210
0
220
0
230
1
50
360
0
POINT
5
16B
100
AcDbEntity
8
Defpoints
62
0
6
ByLayer
370
-1
48
1
60
0
100
AcDbPoint
10
26
20
-34.995826
30
0
39
0
210
0
220
0
230
1
50
360
0
ENDBLK
5
162
100
AcDbEntity
8
0
100
AcDbBlockEnd
0
BLOCK
5
175
100
AcDbEntity
8
0
100
AcDbBlockBegin
2
_U2
70
0
10
0
20
0
30
0
3
_U2
0
MTEXT
5
16D
100
AcDbEntity
8
SK2
62
256
6
ByLayer
370
18
48
1
60
0
100
AcDbMText
10
62.595034
20
-33.963192
30
0
210
0
220
0
230
1
1
\W0.6740;77
40
3.5
41
0
44
1.084337
50
0
71
7
72
5
7
iso_b_vert
0
MTEXT
5
16E
100
AcDbEntity
8
SK2
62
256
6
ByLayer
370
18
48
1
60
0
100
AcDbMText
10
58.727034
20
-33.963192
30
0
210
0
220
0
230
1
1
\W0.1790;(
40
3.5
41
0
44
1.084337
50
0
71
7
72
5
7
iso_b_vert
0
MTEXT
5
16F
100
AcDbEntity
8
SK2
62
256
6
ByLayer
370
18
48
1
60
0
100
AcDbMText
10
70.275966
20
-33.963192
30
0
210
0
220
0
230
1
1
\W0.1969;)
40
3.5
41
0
44
1.084337
50
0
71
7
72
5
7
iso_b_vert
0
LINE
5
170
100
AcDbEntity
8
SK2
62
256
6
ByLayer
370
13
48
1
60
0
100
AcDbLine
10
103
20
-11.0875
30
0
11
103
21
-36.995826
31
0
39
0
210
0
220
0
230
1
0
LINE
5
171
100
AcDbEntity
8
SK2
62
256
6
ByLayer
370
13
48
1
60
0
100
AcDbLine
10
26
20
-11.0875
30
0
11
26
21
-36.995826
31
0
39
0
210
0
220
0
230
1
0
LINE
5
172
100
AcDbEntity
8
SK2
62
256
6
ByLayer
370
13
48
1
60
0
100
AcDbLine
10
103
20
-34.995826
30
0
11
26
21
-34.995826
31
0
39
0
210
0
220
0
230
1
0
SOLID
5
173
100
AcDbEntity
8
SK2
62
256
6
ByLayer
370
18
48
1
60
0
100
AcDbTrace
10
103
20
-34.995826
30
0
11
99.500002
21
-35.45661
31
0
12
99.499998
22
-34.535042
32
0
13
99.499998
23
-34.535042
33
0
39
0
210
0
220
0
230
1
0
SOLID
5
174
100
AcDbEntity
8
SK2
62
256
6
ByLayer
370
18
48
1
60
0
100
AcDbTrace
10
26
20
-34.995826
30
0
11
29.499998
21
-34.535042
31
0
12
29.500002
22
-35.45661
32
0
13
29.500002
23
-35.45661
33
0
39
0
210
0
220
0
230
1
0
ENDBLK
5
176
100
AcDbEntity
8
0
100
AcDbBlockEnd
0
BLOCK
5
17B
100
AcDbEntity
8
0
100
AcDbBlockBegin
2
*D7
70
1
10
0
20
0
30
0
3
*D7
0
LINE
5
17D
100
AcDbEntity
8
0
62
256
6
ByLayer
370
-2
48
1
60
0
100
AcDbLine
10
-50
20
-11.5875
30
0
11
-50
21
-46.995826
31
0
39
0
210
0
220
0
230
1
0
LINE
5
17E
100
AcDbEntity
8
0
62
256
6
ByLayer
370
-2
48
1
60
0
100
AcDbLine
10
0
20
-11.5875
30
0
11
0
21
-46.995826
31
0
39
0
210
0
220
0
230
1
0
LINE
5
17F
100
AcDbEntity
8
0
62
256
6
ByLayer
370
-2
48
1
60
0
100
AcDbLine
10
-46.5
20
-44.995826
30
0
11
-3.5
21
-44.995826
31
0
39
0
210
0
220
0
230
1
0
SOLID
5
180
100
AcDbEntity
8
0
62
256
6
ByLayer
370
-1
48
1
60
0
100
AcDbTrace
10
-46.5
20
-44.412493
30
0
11
-46.5
21
-45.579159
31
0
12
-50
22
-44.995826
32
0
13
-50
23
-44.995826
33
0
39
0
210
0
220
0
230
1
0
SOLID
5
181
100
AcDbEntity
8
0
62
256
6
ByLayer
370
-1
48
1
60
0
100
AcDbTrace
10
-3.5
20
-45.579159
30
0
11
-3.5
21
-44.412493
31
0
12
0
22
-44.995826
32
0
13
0
23
-44.995826
33
0
39
0
210
0
220
0
230
1
0
MTEXT
5
182
100
AcDbEntity
8
0
62
256
6
ByLayer
370
18
48
1
60
0
100
AcDbMText
10
-25
20
-37.995826
30
0
210
0
220
0
230
1
1
\A1;50
40
3.5
41
0
44
1
50
0
71
5
72
5
7
iso_b_vert
0
POINT
5
183
100
AcDbEntity
8
Defpoints
62
0
6
ByLayer
370
-1
48
1
60
0
100
AcDbPoint
10
-50
20
-10
30
0
39
0
210
0
220
0
230
1
50
360
0
POINT
5
184
100
AcDbEntity
8
Defpoints
62
0
6
ByLayer
370
-1
48
1
60
0
100
AcDbPoint
10
0
20
-10
30
0
39
0
210
0
220
0
230
1
50
360
0
POINT
5
185
100
AcDbEntity
8
Defpoints
62
0
6
ByLayer
370
-1
48
1
60
0
100
AcDbPoint
10
0
20
-44.995826
30
0
39
0
210
0
220
0
230
1
50
360
0
ENDBLK
5
17C
100
AcDbEntity
8
0
100
AcDbBlockEnd
0
BLOCK
5
18D
100
AcDbEntity
8
0
100
AcDbBlockBegin
2
_U3
70
0
10
0
20
0
30
0
3
_U3
0
MTEXT
5
187
100
AcDbEntity
8
SK2
62
256
6
ByLayer
370
18
48
1
60
0
100
AcDbMText
10
-26.904966
20
-43.963192
30
0
210
0
220
0
230
1
1
\W0.6740;50
40
3.5
41
0
44
1.084337
50
0
71
7
72
5
7
iso_b_vert
0
LINE
5
188
100
AcDbEntity
8
SK2
62
256
6
ByLayer
370
13
48
1
60
0
100
AcDbLine
10
-50
20
-11.5875
30
0
11
-50
21
-46.995826
31
0
39
0
210
0
220
0
230
1
0
LINE
5
189
100
AcDbEntity
8
SK2
62
256
6
ByLayer
370
13
48
1
60
0
100
AcDbLine
10
0
20
-11.5875
30
0
11
0
21
-46.995826
31
0
39
0
210
0
220
0
230
1
0
LINE
5
18A
100
AcDbEntity
8
SK2
62
256
6
ByLayer
370
13
48
1
60
0
100
AcDbLine
10
-50
20
-44.995826
30
0
11
0
21
-44.995826
31
0
39
0
210
0
220
0
230
1
0
SOLID
5
18B
100
AcDbEntity
8
SK2
62
256
6
ByLayer
370
18
48
1
60
0
100
AcDbTrace
10
-50
20
-44.995826
30
0
11
-46.500002
21
-44.535042
31
0
12
-46.499998
22
-45.45661
32
0
13
-46.499998
23
-45.45661
33
0
39
0
210
0
220
0
230
1
0
SOLID
5
18C
100
AcDbEntity
8
SK2
62
256
6
ByLayer
370
18
48
1
60
0
100
AcDbTrace
10
0
20
-44.995826
30
0
11
-3.499998
21
-45.45661
31
0
12
-3.500002
22
-44.535042
32
0
13
-3.500002
23
-44.535042
33
0
39
0
210
0
220
0
230
1
0
ENDBLK
5
18E
100
AcDbEntity
8
0
100
AcDbBlockEnd
0
BLOCK
5
193
100
AcDbEntity
8
0
100
AcDbBlockBegin
2
*D9
70
1
10
0
20
0
30
0
3
*D9
0
LINE
5
195
100
AcDbEntity
8
0
62
256
6
ByLayer
370
-2
48
1
60
0
100
AcDbLine
10
0
20
-11.5875
30
0
11
0
21
-56.995826
31
0
39
0
210
0
220
0
230
1
0
LINE
5
196
100
AcDbEntity
8
0
62
256
6
ByLayer
370
-2
48
1
60
0
100
AcDbLine
10
103
20
-11.0875
30
0
11
103
21
-56.995826
31
0
39
0
210
0
220
0
230
1
0
LINE
5
197
100
AcDbEntity
8
0
62
256
6
ByLayer
370
-2
48
1
60
0
100
AcDbLine
10
3.5
20
-54.995826
30
0
11
99.5
21
-54.995826
31
0
39
0
210
0
220
0
230
1
0
SOLID
5
198
100
AcDbEntity
8
0
62
256
6
ByLayer
370
-1
48
1
60
0
100
AcDbTrace
10
3.5
20
-54.412493
30
0
11
3.5
21
-55.579159
31
0
12
0
22
-54.995826
32
0
13
0
23
-54.995826
33
0
39
0
210
0
220
0
230
1
0
SOLID
5
199
100
AcDbEntity
8
0
62
256
6
ByLayer
370
-1
48
1
60
0
100
AcDbTrace
10
99.5
20
-55.579159
30
0
11
99.5
21
-54.412493
31
0
12
103
22
-54.995826
32
0
13
103
23
-54.995826
33
0
39
0
210
0
220
0
230
1
0
MTEXT
5
19A
100
AcDbEntity
8
0
62
256
6
ByLayer
370
18
48
1
60
0
100
AcDbMText
10
51.5
20
-47.995826
30
0
210
0
220
0
230
1
1
\A1;103
40
3.5
41
0
44
1
50
0
71
5
72
5
7
iso_b_vert
0
POINT
5
19B
100
AcDbEntity
8
Defpoints
62
0
6
ByLayer
370
-1
48
1
60
0
100
AcDbPoint
10
0
20
-10
30
0
39
0
210
0
220
0
230
1
50
360
0
POINT
5
19C
100
AcDbEntity
8
Defpoints
62
0
6
ByLayer
370
-1
48
1
60
0
100
AcDbPoint
10
103
20
-9.5
30
0
39
0
210
0
220
0
230
1
50
360
0
POINT
5
19D
100
AcDbEntity
8
Defpoints
62
0
6
ByLayer
370
-1
48
1
60
0
100
AcDbPoint
10
103
20
-54.995826
30
0
39
0
210
0
220
0
230
1
50
360
0
ENDBLK
5
194
100
AcDbEntity
8
0
100
AcDbBlockEnd
0
BLOCK
5
1A5
100
AcDbEntity
8
0
100
AcDbBlockBegin
2
_U4
70
0
10
0
20
0
30
0
3
_U4
0
MTEXT
5
19F
100
AcDbEntity
8
SK2
62
256
6
ByLayer
370
18
48
1
60
0
100
AcDbMText
10
48.724734
20
-53.963192
30
0
210
0
220
0
230
1
1
\W0.6217;103
40
3.5
41
0
44
1.084337
50
0
71
7
72
5
7
iso_b_vert
0
LINE
5
1A0
100
AcDbEntity
8
SK2
62
256
6
ByLayer
370
13
48
1
60
0
100
AcDbLine
10
0
20
-11.5875
30
0
11
0
21
-56.995826
31
0
39
0
210
0
220
0
230
1
0
LINE
5
1A1
100
AcDbEntity
8
SK2
62
256
6
ByLayer
370
13
48
1
60
0
100
AcDbLine
10
103
20
-11.0875
30
0
11
103
21
-56.995826
31
0
39
0
210
0
220
0
230
1
0
LINE
5
1A2
100
AcDbEntity
8
SK2
62
256
6
ByLayer
370
13
48
1
60
0
100
AcDbLine
10
0
20
-54.995826
30
0
11
103
21
-54.995826
31
0
39
0
210
0
220
0
230
1
0
SOLID
5
1A3
100
AcDbEntity
8
SK2
62
256
6
ByLayer
370
18
48
1
60
0
100
AcDbTrace
10
0
20
-54.995826
30
0
11
3.499998
21
-54.535042
31
0
12
3.500002
22
-55.45661
32
0
13
3.500002
23
-55.45661
33
0
39
0
210
0
220
0
230
1
0
SOLID
5
1A4
100
AcDbEntity
8
SK2
62
256
6
ByLayer
370
18
48
1
60
0
100
AcDbTrace
10
103
20
-54.995826
30
0
11
99.500002
21
-55.45661
31
0
12
99.499998
22
-54.535042
32
0
13
99.499998
23
-54.535042
33
0
39
0
210
0
220
0
230
1
0
ENDBLK
5
1A6
100
AcDbEntity
8
0
100
AcDbBlockEnd
0
ENDSEC
0
SECTION
2
ENTITIES
0
ARC
5
BF
100
AcDbEntity
8
1
62
256
6
ByLayer
370
18
48
1
60
0
100
AcDbCircle
39
0
10
1.217178
20
10.238546
30
0
40
0.800000000000008
210
0
220
0
230
1
100
AcDbArc
50
220.830257
51
270.03581
0
ARC
5
C0
100
AcDbEntity
8
1
62
256
6
ByLayer
370
18
48
1
60
0
100
AcDbCircle
39
0
10
1.217178
20
-10.238546
30
0
40
0.800000000000008
210
0
220
0
230
1
100
AcDbArc
50
89.96419
51
139.169743
0
ARC
5
C1
100
AcDbEntity
8
1
62
256
6
ByLayer
370
18
48
1
60
0
100
AcDbCircle
39
0
10
0
20
9.2
30
0
40
0.799999999999999
210
0
220
0
230
1
100
AcDbArc
50
40.830257
51
90
0
ARC
5
C2
100
AcDbEntity
8
1
62
256
6
ByLayer
370
18
48
1
60
0
100
AcDbCircle
39
0
10
0
20
-9.2
30
0
40
0.799999999999999
210
0
220
0
230
1
100
AcDbArc
50
270
51
319.169743
0
ARC
5
C3
100
AcDbEntity
8
SK2
62
256
6
ByLayer
370
13
48
1
60
0
100
AcDbCircle
39
0
10
103
20
0
30
0
40
37.7938011439879
210
0
220
0
230
1
100
AcDbArc
50
4.933125
51
69.998494
0
ARC
5
C4
100
AcDbEntity
8
SK2
62
256
6
ByLayer
370
13
48
1
60
0
100
AcDbCircle
39
0
10
103
20
0
30
0
40
37.7938011439879
210
0
220
0
230
1
100
AcDbArc
50
290.001506
51
355.066875
0
ELLIPSE
5
C5
100
AcDbEntity
8
1
62
256
6
ByLayer
370
18
48
1
60
0
100
AcDbEllipse
10
3.75
20
9.215624
30
0
11
0.25
21
0
31
0
210
0
220
0
230
1
40
0.999998
41
-3.11447402063417
42
-1.56354139058185
0
ELLIPSE
5
C6
100
AcDbEntity
8
1
62
256
6
ByLayer
370
18
48
1
60
0
100
AcDbEllipse
10
3.75
20
-9.215624
30
0
11
0.25
21
0
31
0
210
0
220
0
230
1
40
0.999998
41
1.57305958193632
42
3.11447402063425
0
POINT
5
70
100
AcDbEntity
8
80
62
256
6
ByLayer
370
18
48
1
60
0
100
AcDbPoint
10
0
20
0
30
0
39
0
210
0
220
0
230
1
50
360
0
POINT
5
72
100
AcDbEntity
8
81
62
256
6
ByLayer
370
18
48
1
60
0
100
AcDbPoint
10
103
20
0
30
0
39
0
210
0
220
0
230
1
50
360
0
POINT
5
74
100
AcDbEntity
8
1
62
256
6
ByLayer
370
18
48
1
60
0
100
AcDbPoint
10
-189.278099
20
-200
30
0
39
0
210
0
220
0
230
1
50
360
0
POINT
5
76
100
AcDbEntity
8
1
62
256
6
ByLayer
370
13
48
1
60
1
100
AcDbPoint
10
-51.5
20
0
30
0
39
0
210
0
220
0
230
1
50
360
0
POINT
5
77
100
AcDbEntity
8
1
62
256
6
ByLayer
370
13
48
1
60
1
100
AcDbPoint
10
101.08429
20
0
30
0
39
0
210
0
220
0
230
1
50
360
0
POINT
5
78
100
AcDbEntity
8
1
62
256
6
ByLayer
370
18
48
1
60
1
100
AcDbPoint
10
-50
20
-10
30
0
39
0
210
0
220
0
230
1
50
360
0
POINT
5
79
100
AcDbEntity
8
1
62
256
6
ByLayer
370
18
48
1
60
1
100
AcDbPoint
10
103
20
-9.5
30
0
39
0
210
0
220
0
230
1
50
360
0
POINT
5
7A
100
AcDbEntity
8
1
62
256
6
ByLayer
370
18
48
1
60
1
100
AcDbPoint
10
103
20
-9.5
30
0
39
0
210
0
220
0
230
1
50
360
0
POINT
5
7B
100
AcDbEntity
8
1
62
256
6
ByLayer
370
18
48
1
60
1
100
AcDbPoint
10
2
20
-9.5
30
0
39
0
210
0
220
0
230
1
50
360
0
POINT
5
7C
100
AcDbEntity
8
1
62
256
6
ByLayer
370
18
48
1
60
1
100
AcDbPoint
10
103
20
-9.5
30
0
39
0
210
0
220
0
230
1
50
360
0
POINT
5
7D
100
AcDbEntity
8
1
62
256
6
ByLayer
370
18
48
1
60
1
100
AcDbPoint
10
26
20
-9.5
30
0
39
0
210
0
220
0
230
1
50
360
0
POINT
5
7E
100
AcDbEntity
8
1
62
256
6
ByLayer
370
18
48
1
60
1
100
AcDbPoint
10
-50
20
-10
30
0
39
0
210
0
220
0
230
1
50
360
0
POINT
5
7F
100
AcDbEntity
8
1
62
256
6
ByLayer
370
18
48
1
60
1
100
AcDbPoint
10
0
20
-10
30
0
39
0
210
0
220
0
230
1
50
360
0
POINT
5
80
100
AcDbEntity
8
1
62
256
6
ByLayer
370
18
48
1
60
1
100
AcDbPoint
10
0
20
-10
30
0
39
0
210
0
220
0
230
1
50
360
0
POINT
5
81
100
AcDbEntity
8
1
62
256
6
ByLayer
370
18
48
1
60
1
100
AcDbPoint
10
103
20
-9.5
30
0
39
0
210
0
220
0
230
1
50
360
0
SPLINE
5
C7
100
AcDbEntity
8
1
62
256
6
ByLayer
370
18
48
1
60
0
100
AcDbSpline
70
4
71
3
72
8
73
4
40
0
40
0
40
0
40
0
40
1
40
1
40
1
40
1
41
1
10
102.167961926757
20
2.92540252065251
30
0
41
1
10
102.449911621742
20
2.12780269391825
30
0
41
1
10
102.724374875418
20
1.32751159686694
30
0
41
1
10
102.991239423061
20
0.524488871910137
30
0
0
SPLINE
5
C8
100
AcDbEntity
8
1
62
256
6
ByLayer
370
18
48
1
60
0
100
AcDbSpline
70
4
71
3
72
12
73
8
40
0
40
0
40
0
40
0
40
0.585651254281278
40
0.585651254281278
40
0.878476881421921
40
0.878476881421921
40
1
40
1
40
1
40
1
41
1
10
99.5439551300568
20
9.49997920870436
30
0
41
1
10
99.5783682173949
20
9.42146444199045
30
0
41
1
10
99.6134550972956
20
9.34295738905266
30
0
41
1
10
99.6670892925949
20
9.22517652814682
30
0
41
1
10
99.6851341751649
20
9.18591395747944
30
0
41
1
10
99.7109016772895
20
9.13035297602593
30
0
41
1
10
99.7184889053811
20
9.11405126715877
30
0
41
1
10
99.7261008811999
20
9.0977637083912
30
0
0
SPLINE
5
C9
100
AcDbEntity
8
1
62
256
6
ByLayer
370
18
48
1
60
0
100
AcDbSpline
70
2053
71
3
72
127
73
123
40
0
40
0
40
0
40
0
40
0.0312500000000029
40
0.0312500000000029
40
0.0625000000000058
40
0.0625000000000058
40
0.0937500000000086
40
0.0937500000000086
40
0.125000000000011
40
0.125000000000011
40
0.156250000000014
40
0.156250000000014
40
0.187500000000017
40
0.187500000000017
40
0.195312500000019
40
0.195312500000019
40
0.203125000000021
40
0.218750000000024
40
0.218750000000024
40
0.250000000000029
40
0.250000000000029
40
0.265625000000031
40
0.265625000000031
40
0.281250000000033
40
0.281250000000033
40
0.296875000000035
40
0.296875000000035
40
0.304687500000036
40
0.304687500000036
40
0.312500000000037
40
0.312500000000037
40
0.34375000000004
40
0.34375000000004
40
0.351562500000042
40
0.351562500000042
40
0.359375000000043
40
0.359375000000043
40
0.375000000000046
40
0.390625000000049
40
0.390625000000049
40
0.398437500000051
40
0.398437500000051
40
0.406250000000052
40
0.406250000000052
40
0.437500000000058
40
0.437500000000058
40
0.445312500000059
40
0.445312500000059
40
0.453125000000061
40
0.453125000000061
40
0.46875000000006
40
0.484375000000059
40
0.484375000000059
40
0.492187500000061
40
0.492187500000061
40
0.500000000000063
40
0.500000000000063
40
0.531250000000069
40
0.531250000000069
40
0.539062500000069
40
0.539062500000069
40
0.546875000000068
40
0.546875000000068
40
0.562500000000067
40
0.562500000000067
40
0.593750000000065
40
0.593750000000065
40
0.601562500000063
40
0.601562500000063
40
0.60937500000006
40
0.60937500000006
40
0.625000000000055
40
0.625000000000055
40
0.656250000000049
40
0.656250000000049
40
0.671875000000047
40
0.671875000000047
40
0.687500000000045
40
0.687500000000045
40
0.718750000000042
40
0.718750000000042
40
0.726562500000041
40
0.726562500000041
40
0.73437500000004
40
0.73437500000004
40
0.750000000000038
40
0.765625000000036
40
0.765625000000036
40
0.773437500000035
40
0.773437500000035
40
0.781250000000034
40
0.781250000000034
40
0.812500000000032
40
0.812500000000032
40
0.82031250000003
40
0.82031250000003
40
0.828125000000029
40
0.828125000000029
40
0.843750000000024
40
0.85937500000002
40
0.85937500000002
40
0.867187500000017
40
0.867187500000017
40
0.875000000000015
40
0.875000000000015
40
0.906250000000006
40
0.906250000000006
40
0.914062500000005
40
0.914062500000005
40
0.921875000000005
40
0.921875000000005
40
0.937500000000004
40
0.953125000000003
40
0.953125000000003
40
0.968750000000002
40
0.968750000000002
40
0.984375000000001
40
0.984375000000001
40
0.992187500000001
40
0.99609375
40
0.99609375
40
1
40
1
40
1
40
1
41
1
10
100.472396405059
20
-3.85794091864991
30
0
41
1
10
100.440710136457
20
-3.89586762675515
30
0
41
1
10
100.410046724111
20
-3.92664768307245
30
0
41
1
10
100.350369160224
20
-3.9749278654229
30
0
41
1
10
100.321357413445
20
-3.9924203576353
30
0
41
1
10
100.26468331063
20
-4.01369803876938
30
0
41
1
10
100.237791071674
20
-4.01718768236762
30
0
41
1
10
100.186445132389
20
-4.01038727172099
30
0
41
1
10
100.161984179255
20
-4.00010178928397
30
0
41
1
10
100.115217551957
20
-3.96494777685731
30
0
41
1
10
100.093557557834
20
-3.94055734336081
30
0
41
1
10
100.053346032815
20
-3.87843956722173
30
0
41
1
10
100.034781706764
20
-3.84071196971735
30
0
41
1
10
100.013506845769
20
-3.78449212653319
30
0
41
1
10
100.009361412861
20
-3.7728187869283
30
0
41
1
10
100.001350785023
20
-3.74879616138227
30
0
41
1
10
99.989727706076
20
-3.71166818203903
30
0
41
1
10
99.9792626357626
20
-3.67128533850647
30
0
41
1
10
99.9598851385198
20
-3.58612340165311
30
0
41
1
10
99.9490104460647
20
-3.52354275833912
30
0
41
1
10
99.9362077231099
20
-3.41988961631844
30
0
41
1
10
99.9326046116294
20
-3.38426133254637
30
0
41
1
10
99.9267821488742
20
-3.31115485304989
30
0
41
1
10
99.9245568060059
20
-3.27362981966635
30
0
41
1
10
99.9215541976158
20
-3.19659043107529
30
0
41
1
10
99.9207764312188
20
-3.15707655366842
30
0
41
1
10
99.9208023786641
20
-3.09622645833434
30
0
41
1
10
99.9210103549786
20
-3.07567928356983
30
0
41
1
10
99.921850754304
20
-3.0340343138123
30
0
41
1
10
99.9224844504442
20
-3.0129683782271
30
0
41
1
10
99.9267040477084
20
-2.90780517979994
30
0
41
1
10
99.933421636793
20
-2.82301349314102
30
0
41
1
10
99.94649702844
20
-2.71621322733193
30
0
41
1
10
99.9493486390028
20
-2.69481221330409
30
0
41
1
10
99.955548816172
20
-2.65192686958994
30
0
41
1
10
99.9589112982002
20
-2.63036564682699
30
0
41
1
10
99.9696382398389
20
-2.5664128464573
30
0
41
1
10
99.985672309389
20
-2.48277661811929
30
0
41
1
10
100.005190491719
20
-2.40232365926835
30
0
41
1
10
100.02117947225
20
-2.34318386199652
30
0
41
1
10
100.026734557176
20
-2.32367096879361
30
0
41
1
10
100.038307481079
20
-2.28505167243259
30
0
41
1
10
100.044307221979
20
-2.2660119330713
30
0
41
1
10
100.075070642675
20
-2.17303197278721
30
0
41
1
10
100.10237246908
20
-2.10480092647276
30
0
41
1
10
100.13972926133
20
-2.02661010665187
30
0
41
1
10
100.147384731958
20
-2.01129055611437
30
0
41
1
10
100.162885407758
20
-1.98162185703759
30
0
41
1
10
100.170733100084
20
-1.96726273532886
30
0
41
1
10
100.194556883237
20
-1.92555096230316
30
0
41
1
10
100.22706893973
20
-1.8735652166024
30
0
41
1
10
100.260978106395
20
-1.82839646270335
30
0
41
1
10
100.286906397274
20
-1.79698658861074
30
0
41
1
10
100.295645241776
20
-1.78691577249904
30
0
41
1
10
100.313135876633
20
-1.76774769016933
30
0
41
1
10
100.321903470472
20
-1.75862975129033
30
0
41
1
10
100.365841500717
20
-1.71527926030407
30
0
41
1
10
100.401312130163
20
-1.68770073517987
30
0
41
1
10
100.44587321621
20
-1.66134920404758
30
0
41
1
10
100.454796558323
20
-1.65648877063734
30
0
41
1
10
100.472660901804
20
-1.64758319270825
30
0
41
1
10
100.481586031342
20
-1.64354746924559
30
0
41
1
10
100.508184056334
20
-1.63272687189729
30
0
41
1
10
100.525739251174
20
-1.62719521748471
30
0
41
1
10
100.577840052821
20
-1.61542125178883
30
0
41
1
10
100.611826610273
20
-1.61395955186117
30
0
41
1
10
100.653180794933
20
-1.62002816547823
30
0
41
1
10
100.661394724133
20
-1.6216399456813
30
0
41
1
10
100.677701901205
20
-1.62567077152573
30
0
41
1
10
100.685771994272
20
-1.62808539131117
30
0
41
1
10
100.709615198042
20
-1.6364817446597
30
0
41
1
10
100.725067941574
20
-1.64362435501928
30
0
41
1
10
100.770051612137
20
-1.66963844435835
30
0
41
1
10
100.798220613756
20
-1.69305229644721
30
0
41
1
10
100.837355127188
20
-1.73783864873397
30
0
41
1
10
100.849877273978
20
-1.75438861405607
30
0
41
1
10
100.873766380286
20
-1.79097603123935
30
0
41
1
10
100.884991460825
20
-1.81080513424175
30
0
41
1
10
100.916293050261
20
-1.87475508829587
30
0
41
1
10
100.934081066705
20
-1.92337797510066
30
0
41
1
10
100.951920096435
20
-1.99258774129598
30
0
41
1
10
100.955266219746
20
-2.00685555463457
30
0
41
1
10
100.961492767457
20
-2.03628617454439
30
0
41
1
10
100.964365060676
20
-2.05142040489019
30
0
41
1
10
100.972169300601
20
-2.09768816888516
30
0
41
1
10
100.98047470501
20
-2.16198512427786
30
0
41
1
10
100.984471248952
20
-2.23167334585315
30
0
41
1
10
100.985766952123
20
-2.28609954814053
30
0
41
1
10
100.98591474888
20
-2.30460239194773
30
0
41
1
10
100.985620993745
20
-2.3423635024958
30
0
41
1
10
100.985177625346
20
-2.36157030071195
30
0
41
1
10
100.981512463988
20
-2.4581815711382
30
0
41
1
10
100.973982089636
20
-2.53824694801264
30
0
41
1
10
100.958916884186
20
-2.64197582335109
30
0
41
1
10
100.955618766322
20
-2.6629058379327
30
0
41
1
10
100.948444319187
20
-2.70514691769441
30
0
41
1
10
100.944573115143
20
-2.72641484335642
30
0
41
1
10
100.932281459644
20
-2.78983715093847
30
0
41
1
10
100.91398919002
20
-2.87399804420795
30
0
41
1
10
100.892161501058
20
-2.95741598973629
30
0
41
1
10
100.87451951917
20
-3.01971391552479
30
0
41
1
10
100.868405741128
20
-3.04050235048109
30
0
41
1
10
100.855874389529
20
-3.08161140599199
30
0
41
1
10
100.849461935628
20
-3.10192153784092
30
0
41
1
10
100.816712228598
20
-3.20230015357294
30
0
41
1
10
100.788342588958
20
-3.2788948315318
30
0
41
1
10
100.750577027222
20
-3.37033657763527
30
0
41
1
10
100.742940668539
20
-3.38832399456766
30
0
41
1
10
100.727593961587
20
-3.42352693739039
30
0
41
1
10
100.71987074055
20
-3.44077369367597
30
0
41
1
10
100.696562203443
20
-3.4914859524664
30
0
41
1
10
100.665115986725
20
-3.55636912470652
30
0
41
1
10
100.633006953044
20
-3.61601377260925
30
0
41
1
10
100.600580771251
20
-3.67306546771562
30
0
41
1
10
100.584413850882
20
-3.69993344884662
30
0
41
1
10
100.55221850859
20
-3.75045396868765
30
0
41
1
10
100.536181228075
20
-3.77412129473356
30
0
41
1
10
100.512205529573
20
-3.80729808904948
30
0
41
1
10
100.500237670047
20
-3.82330437859292
30
0
41
1
10
100.488297158169
20
-3.83843955353299
30
0
41
1
10
100.480342561974
20
-3.84833579400873
30
0
41
1
10
100.476357188634
20
-3.85320008013676
30
0
41
1
10
100.472396405059
20
-3.85794091864991
30
0
0
SPLINE
5
CA
100
AcDbEntity
8
1
62
256
6
ByLayer
370
18
48
1
60
0
100
AcDbSpline
70
4
71
3
72
8
73
4
40
0
40
0
40
0
40
0
40
1
40
1
40
1
40
1
41
1
10
102.167961926757
20
-2.92540252065251
30
0
41
1
10
102.449911621741
20
-2.12780269392252
30
0
41
1
10
102.724374875415
20
-1.32751159687544
30
0
41
1
10
102.991239423057
20
-0.524488871922927
30
0
0
SPLINE
5
CB
100
AcDbEntity
8
1
62
256
6
ByLayer
370
18
48
1
60
0
100
AcDbSpline
70
4
71
3
72
8
73
4
40
0
40
0
40
0
40
0
40
1
40
1
40
1
40
1
41
1
10
102.991239423057
20
0.524488871913888
30
0
41
1
10
103.002913577295
20
0.175027641732356
30
0
41
1
10
103.002926814818
20
-0.1746313816775
30
0
41
1
10
102.991239423057
20
-0.524488871922898
30
0
0
SPLINE
5
CC
100
AcDbEntity
8
1
62
256
6
ByLayer
370
18
48
1
60
0
100
AcDbSpline
70
4
71
3
72
8
73
4
40
0
40
0
40
0
40
0
40
1
40
1
40
1
40
1
41
1
10
102.991239423054
20
0.524488871912325
30
0
41
1
10
102.950205240631
20
0.387718763671415
30
0
41
1
10
102.908965807231
20
0.251010599322257
30
0
41
1
10
102.867521872485
20
0.114364152629491
30
0
0
SPLINE
5
CD
100
AcDbEntity
8
1
62
256
6
ByLayer
370
18
48
1
60
0
100
AcDbSpline
70
4
71
3
72
58
73
54
40
0
40
0
40
0
40
0
40
0.0625000000000152
40
0.0625000000000152
40
0.125000000000031
40
0.125000000000031
40
0.156250000000034
40
0.156250000000034
40
0.171875000000031
40
0.171875000000031
40
0.187500000000029
40
0.187500000000029
40
0.249999999999999
40
0.249999999999999
40
0.31249999999997
40
0.31249999999997
40
0.328124999999965
40
0.328124999999965
40
0.343749999999961
40
0.343749999999961
40
0.374999999999951
40
0.374999999999951
40
0.437499999999942
40
0.437499999999942
40
0.468749999999938
40
0.468749999999938
40
0.484374999999931
40
0.484374999999931
40
0.499999999999924
40
0.499999999999924
40
0.562499999999925
40
0.562499999999925
40
0.593749999999921
40
0.593749999999921
40
0.609374999999924
40
0.609374999999924
40
0.624999999999927
40
0.624999999999927
40
0.687499999999937
40
0.687499999999937
40
0.718749999999946
40
0.718749999999946
40
0.749999999999955
40
0.749999999999955
40
0.812499999999967
40
0.812499999999967
40
0.874999999999978
40
0.874999999999978
40
0.906249999999983
40
0.906249999999983
40
0.937499999999989
40
0.937499999999989
40
1
40
1
40
1
40
1
41
1
10
102.867521872485
20
0.114364152629491
30
0
41
1
10
102.84452884316
20
0.0385529205360626
30
0
41
1
10
102.819796970054
20
-0.0363824332357012
30
0
41
1
10
102.766861050302
20
-0.184475770971801
30
0
41
1
10
102.738658484069
20
-0.257634574926158
30
0
41
1
10
102.69364806477
20
-0.365964911530199
30
0
41
1
10
102.678192252849
20
-0.401839724666985
30
0
41
1
10
102.654302966049
20
-0.455282090832355
30
0
41
1
10
102.646208323395
20
-0.473063452966926
30
0
41
1
10
102.629902135961
20
-0.508234130941844
30
0
41
1
10
102.621679861313
20
-0.525648532113223
30
0
41
1
10
102.580227938603
20
-0.611865912241285
30
0
41
1
10
102.545982185056
20
-0.678116075422793
30
0
41
1
10
102.475372380814
20
-0.804999706460336
30
0
41
1
10
102.439009784396
20
-0.86563686187651
30
0
41
1
10
102.392164673339
20
-0.937612037893444
30
0
41
1
10
102.382725589383
20
-0.951815009243433
30
0
41
1
10
102.36370349567
20
-0.979824504535003
30
0
41
1
10
102.354154107153
20
-0.993580228537354
30
0
41
1
10
102.325568814162
20
-1.0338488348421
30
0
41
1
10
102.306524399707
20
-1.05947003949964
30
0
41
1
10
102.249428864556
20
-1.13270271289375
30
0
41
1
10
102.211417696541
20
-1.17670109032522
30
0
41
1
10
102.154441786473
20
-1.23531345190509
30
0
41
1
10
102.135456079842
20
-1.25361566331298
30
0
41
1
10
102.106976727905
20
-1.27915469746892
30
0
41
1
10
102.097481996494
20
-1.28734746448268
30
0
41
1
10
102.078677121334
20
-1.30293318461418
30
0
41
1
10
102.069343237024
20
-1.31034799091572
30
0
41
1
10
102.023003800678
20
-1.34556725727083
30
0
41
1
10
101.986985389107
20
-1.36783349577854
30
0
41
1
10
101.934330280059
20
-1.39271617206899
30
0
41
1
10
101.917007891947
20
-1.39958577440416
30
0
41
1
10
101.891346447937
20
-1.40775360942868
30
0
41
1
10
101.882830620073
20
-1.41012285424625
30
0
41
1
10
101.86601956354
20
-1.41412052557206
30
0
41
1
10
101.857716153147
20
-1.4157529533054
30
0
41
1
10
101.816685401565
20
-1.42213425035479
30
0
41
1
10
101.785409757251
20
-1.42156458738779
30
0
41
1
10
101.740450352318
20
-1.41286185647078
30
0
41
1
10
101.72579099882
20
-1.40864812517526
30
0
41
1
10
101.697079232489
20
-1.39765675423186
30
0
41
1
10
101.682994485931
20
-1.39085271336674
30
0
41
1
10
101.642106138046
20
-1.36699291360847
30
0
41
1
10
101.616498496957
20
-1.34647026219062
30
0
41
1
10
101.567999563123
20
-1.29720885758493
30
0
41
1
10
101.545111083027
20
-1.26846425054924
30
0
41
1
10
101.51251950944
20
-1.21964353871624
30
0
41
1
10
101.501947025137
20
-1.20241682057602
30
0
41
1
10
101.48134692624
20
-1.16610882781299
30
0
41
1
10
101.47131963224
20
-1.14702150272103
30
0
41
1
10
101.442208738686
20
-1.08748361422667
30
0
41
1
10
101.424015261745
20
-1.04463517804075
30
0
41
1
10
101.406873742362
20
-0.998877848382335
30
0
0
SPLINE
5
CE
100
AcDbEntity
8
1
62
256
6
ByLayer
370
18
48
1
60
0
100
AcDbSpline
70
4
71
3
72
9
73
5
40
0
40
0
40
0
40
0
40
0.5
40
1
40
1
40
1
40
1
41
1
10
101.406873742362
20
-0.998877848381994
30
0
41
1
10
101.253554231359
20
-0.589608911862996
30
0
41
1
10
100.908726361129
20
0.2537673662614
30
0
41
1
10
100.488013606672
20
1.14649992461312
30
0
41
1
10
100.259013289543
20
1.60499240694048
30
0
0
SPLINE
5
CF
100
AcDbEntity
8
1
62
256
6
ByLayer
370
18
48
1
60
0
100
AcDbSpline
70
4
71
3
72
24
73
20
40
0
40
0
40
0
40
0
40
0.499999999999999
40
0.499999999999999
40
0.749999999999978
40
0.749999999999978
40
0.874999999999947
40
0.874999999999947
40
0.937499999999949
40
0.937499999999949
40
0.968749999999953
40
0.984374999999979
40
0.992187500000017
40
0.992187500000017
40
0.996093750000032
40
0.996093750000032
40
0.998046875000016
40
0.998046875000016
40
1
40
1
40
1
40
1
41
1
10
99.5439551300568
20
-9.49997920870422
30
0
41
1
10
99.5783682173948
20
-9.42146444199048
30
0
41
1
10
99.6134550972955
20
-9.34295738905283
30
0
41
1
10
99.6670892925948
20
-9.22517652814722
30
0
41
1
10
99.6851341751646
20
-9.1859139574799
30
0
41
1
10
99.7124495165798
20
-9.12701545927007
30
0
41
1
10
99.7215981103365
20
-9.10737334675972
30
0
41
1
10
99.7353725642729
20
-9.07795014922695
30
0
41
1
10
99.7399700569387
20
-9.06815949135992
30
0
41
1
10
99.7468875283971
20
-9.05344990860732
30
0
41
1
10
99.7503521223617
20
-9.04608703762818
30
0
41
1
10
99.7544084654929
20
-9.03746620262535
30
0
41
1
10
99.7561503542719
20
-9.03376331194295
30
0
41
1
10
99.7570219072932
20
-9.03191035631792
30
0
41
1
10
99.7573129444618
20
-9.03129075076276
30
0
41
1
10
99.7577482994961
20
-9.03036647388794
30
0
41
1
10
99.7578930597454
20
-9.03006032385312
30
0
41
1
10
99.7581707360025
20
-9.02949247727653
30
0
41
1
10
99.7583100229496
20
-9.02921443077156
30
0
41
1
10
99.7584084662594
20
-9.02906297729902
30
0
0
SPLINE
5
D0
100
AcDbEntity
8
1
62
256
6
ByLayer
370
18
48
1
60
0
100
AcDbSpline
70
4
71
3
72
37
73
33
40
0
40
0
40
0
40
0
40
0.0312499999999922
40
0.0468749999999883
40
0.0468749999999883
40
0.0624999999999844
40
0.0624999999999844
40
0.124999999999969
40
0.124999999999969
40
0.187499999999953
40
0.187499999999953
40
0.218749999999948
40
0.218749999999948
40
0.249999999999942
40
0.249999999999942
40
0.312499999999932
40
0.312499999999932
40
0.343749999999929
40
0.343749999999929
40
0.35937499999993
40
0.35937499999993
40
0.374999999999931
40
0.374999999999931
40
0.499999999999945
40
0.499999999999945
40
0.624999999999959
40
0.624999999999959
40
0.749999999999972
40
0.749999999999972
40
0.874999999999986
40
0.874999999999986
40
1
40
1
40
1
40
1
41
1
10
102.167961926757
20
-2.92540252065234
30
0
41
1
10
102.135988916024
20
-2.97862041709644
30
0
41
1
10
102.088382470602
20
-3.05979950049661
30
0
41
1
10
102.041291053062
20
-3.14306503260755
30
0
41
1
10
102.010009250631
20
-3.19904615236638
30
0
41
1
10
101.994413300143
20
-3.22729320203302
30
0
41
1
10
101.916971257372
20
-3.36923910702782
30
0
41
1
10
101.856578441352
20
-3.48534551958264
30
0
41
1
10
101.738651260577
20
-3.72261498173901
30
0
41
1
10
101.681117552186
20
-3.84377926820389
30
0
41
1
10
101.596737550074
20
-4.02929655057423
30
0
41
1
10
101.569008246542
20
-4.09159436837373
30
0
41
1
10
101.514371359555
20
-4.21689648410248
30
0
41
1
10
101.487450284303
20
-4.27993043469772
30
0
41
1
10
101.40779363904
20
-4.47014374694012
30
0
41
1
10
101.356162351646
20
-4.598431259118
30
0
41
1
10
101.280591047681
20
-4.79295066242727
30
0
41
1
10
101.255788719059
20
-4.85795127403395
30
0
41
1
10
101.219119509094
20
-4.95565850746343
30
0
41
1
10
101.206984403557
20
-4.98826248985958
30
0
41
1
10
101.182881226099
20
-5.05353693998461
30
0
41
1
10
101.170933783863
20
-5.08621563798343
30
0
41
1
10
101.063502956194
20
-5.38036264640706
30
0
41
1
10
100.968721324418
20
-5.64216535323382
30
0
41
1
10
100.780380671877
20
-6.16572241718669
30
0
41
1
10
100.686804604207
20
-6.42752359971661
30
0
41
1
10
100.500386991632
20
-6.95093965792981
30
0
41
1
10
100.407509243157
20
-7.21263633296388
30
0
41
1
10
100.22224912965
20
-7.73442068389781
30
0
41
1
10
100.129820491701
20
-7.99462737542893
30
0
41
1
10
99.9445869233611
20
-8.51328198792461
30
0
41
1
10
99.8517917899567
20
-8.77172581605379
30
0
41
1
10
99.758408466267
20
-9.02906297727631
30
0
0
SPLINE
5
D1
100
AcDbEntity
8
1
62
256
6
ByLayer
370
18
48
1
60
0
100
AcDbSpline
70
4
71
3
72
82
73
78
40
0
40
0
40
0
40
0
40
0.009482250113147
40
0.009482250113147
40
0.0206116630332228
40
0.0206116630332228
40
0.0651293147135287
40
0.0651293147135287
40
0.109646966393835
40
0.109646966393835
40
0.131905792233988
40
0.131905792233988
40
0.143035205154064
40
0.143035205154064
40
0.154164618074141
40
0.154164618074141
40
0.19868226975445
40
0.19868226975445
40
0.243199921434759
40
0.243199921434759
40
0.254329334354836
40
0.254329334354836
40
0.265458747274913
40
0.265458747274913
40
0.287717573115067
40
0.287717573115067
40
0.332235224795376
40
0.332235224795376
40
0.354494050635531
40
0.354494050635531
40
0.365623463555608
40
0.365623463555608
40
0.376752876475685
40
0.376752876475685
40
0.399011702315838
40
0.399011702315838
40
0.421270528155992
40
0.421270528155992
40
0.4657881798363
40
0.4657881798363
40
0.510305831516607
40
0.510305831516607
40
0.554823483196914
40
0.554823483196914
40
0.565952896116991
40
0.565952896116991
40
0.577082309037068
40
0.577082309037068
40
0.599341134877222
40
0.599341134877222
40
0.621599960717377
40
0.621599960717377
40
0.643858786557531
40
0.643858786557531
40
0.666117612397686
40
0.666117612397686
40
0.68837643823784
40
0.68837643823784
40
0.732894089918149
40
0.732894089918149
40
0.777411741598458
40
0.777411741598458
40
0.821929393278767
40
0.821929393278767
40
0.833058806198844
40
0.833058806198844
40
0.844188219118921
40
0.844188219118921
40
0.866447044959075
40
0.866447044959075
40
0.910964696639384
40
0.910964696639384
40
0.955482348319692
40
0.955482348319692
40
0.977741174159846
40
0.977741174159846
40
1
40
1
40
1
40
1
41
1
10
81.9491084309556
20
-5.02799563642356
30
0
41
1
10
81.8164863593896
20
-4.97042119069059
30
0
41
1
10
81.6838320418002
20
-4.9123919842132
30
0
41
1
10
81.3953920068925
20
-4.78529251237515
30
0
41
1
10
81.239553861436
20
-4.7160384080689
30
0
41
1
10
80.4604851671436
20
-4.36702769003685
30
0
41
1
10
79.8381636182672
20
-4.07931324724026
30
0
41
1
10
78.5939149794589
20
-3.48942749608361
30
0
41
1
10
77.9720339940629
20
-3.18717703754206
30
0
41
1
10
77.0383160002193
20
-2.72509746840947
30
0
41
1
10
76.7269256229064
20
-2.56962145284652
30
0
41
1
10
76.2594740592569
20
-2.33448417875718
30
0
41
1
10
76.1036122991726
20
-2.25579281523523
30
0
41
1
10
75.7920769486929
20
-2.09798328288124
30
0
41
1
10
75.6363625349575
20
-2.01884464185667
30
0
41
1
10
74.8580016511439
20
-1.6220871108558
30
0
41
1
10
74.2360247824346
20
-1.30120584339363
30
0
41
1
10
72.9918941282103
20
-0.65553200065213
30
0
41
1
10
72.3697124756755
20
-0.330795028327202
30
0
41
1
10
71.5908886033055
20
0.0756772474373122
30
0
41
1
10
71.4350306093282
20
0.157019984696149
30
0
41
1
10
71.1233802071302
20
0.319617704148101
30
0
41
1
10
70.9676165298464
20
0.400857483419344
30
0
41
1
10
70.5004824848401
20
0.644346005406845
30
0
41
1
10
70.1892734908822
20
0.806372243428797
30
0
41
1
10
69.2559390704535
20
1.29087684840402
30
0
41
1
10
68.6341125197828
20
1.611781873295
30
0
41
1
10
67.7007645796228
20
2.08775064631578
30
0
41
1
10
67.389546633062
20
2.24550842317044
30
0
41
1
10
66.9224339017521
20
2.48055258786462
30
0
41
1
10
66.7666827128604
20
2.55863657601248
30
0
41
1
10
66.4550652242909
20
2.71423713450363
30
0
41
1
10
66.2992116603339
20
2.79174595501038
30
0
41
1
10
65.8317408432677
20
3.0231763079629
30
0
41
1
10
65.5201053389349
20
3.17605710303292
30
0
41
1
10
64.8967143217546
20
3.47861683412091
30
0
41
1
10
64.5849526495046
20
3.62830101493301
30
0
41
1
10
63.6500160711095
20
4.07168643460818
30
0
41
1
10
63.0278630967276
20
4.35939158670169
30
0
41
1
10
61.784515341559
20
4.91667404755262
30
0
41
1
10
61.1632704909642
20
5.18610965187548
30
0
41
1
10
59.9200211655321
20
5.70396837223433
30
0
41
1
10
59.2979971386533
20
5.95240202286874
30
0
41
1
10
58.5190745591791
20
6.24861681406188
30
0
41
1
10
58.3632145153891
20
6.30714386086333
30
0
41
1
10
58.0516249230822
20
6.42260456710326
30
0
41
1
10
57.895858199534
20
6.47955322381873
30
0
41
1
10
57.4286037940473
20
6.64800706603594
30
0
41
1
10
57.117160649126
20
6.75711813756959
30
0
41
1
10
56.4942062439476
20
6.96873795441897
30
0
41
1
10
56.1826954935643
20
7.07124804819907
30
0
41
1
10
55.5594223236943
20
7.26943061157252
30
0
41
1
10
55.2476687014403
20
7.36510009587874
30
0
41
1
10
54.6242567932954
20
7.54921963787723
30
0
41
1
10
54.3125562528443
20
7.63768291453482
30
0
41
1
10
53.6891606056293
20
7.80706107383386
30
0
41
1
10
53.3774185322805
20
7.88799092196788
30
0
41
1
10
52.4424850385834
20
8.11894352177373
30
0
41
1
10
51.8204283708782
20
8.25685698573935
30
0
41
1
10
50.5771698008639
20
8.50005123303995
30
0
41
1
10
49.9559962604068
20
8.6053992234134
30
0
41
1
10
48.71282379668
20
8.78265741011714
30
0
41
1
10
48.0908411527458
20
8.85460589437719
30
0
41
1
10
47.3119596864689
20
8.9232278309585
30
0
41
1
10
47.1560797371408
20
8.9358880647994
30
0
41
1
10
46.8445471004712
20
8.95903472565774
30
0
41
1
10
46.6888537672776
20
8.96952516538133
30
0
41
1
10
46.2219481699657
20
8.99773031763291
30
0
41
1
10
45.910908963316
20
9.01217874194293
30
0
41
1
10
44.9781909169677
20
9.0423622869823
30
0
41
1
10
44.3569232523985
20
9.04486776122505
30
0
41
1
10
43.1139441993571
20
9.01475263678375
30
0
41
1
10
42.4922740899401
20
8.98217353104477
30
0
41
1
10
41.5582303381633
20
8.90721260362841
30
0
41
1
10
41.2465089185965
20
8.87786264891869
30
0
41
1
10
40.6232596437963
20
8.81059728515561
30
0
41
1
10
40.3116627772666
20
8.77267975312824
30
0
41
1
10
40
20
8.73051908416767
30
0
0
SPLINE
5
D2
100
AcDbEntity
8
1
62
256
6
ByLayer
370
18
48
1
60
0
100
AcDbSpline
70
4
71
3
72
8
73
4
40
0
40
0
40
0
40
0
40
1
40
1
40
1
40
1
41
1
10
39.9999999999999
20
9.17736734987881
30
0
41
1
10
39.9999999999999
20
9.02878490714315
30
0
41
1
10
40.0000000000001
20
8.87983165515911
30
0
41
1
10
40.0000000000001
20
8.73051908416767
30
0
0
SPLINE
5
D3
100
AcDbEntity
8
1
62
256
6
ByLayer
370
18
48
1
60
0
100
AcDbSpline
70
4
71
3
72
20
73
16
40
0
40
0
40
0
40
0
40
0.25
40
0.25
40
0.375
40
0.375
40
0.500000000000001
40
0.500000000000001
40
0.75
40
0.75
40
0.875000000000006
40
0.875000000000006
40
0.937500000000003
40
0.937500000000003
40
1
40
1
40
1
40
1
41
1
10
98.525496800789
20
0.995235829103478
30
0
41
1
10
98.6599422575671
20
1.08781640481465
30
0
41
1
10
98.7980045374035
20
1.16927984980973
30
0
41
1
10
99.0092130069906
20
1.27578764492333
30
0
41
1
10
99.0803030808664
20
1.30865655282582
30
0
41
1
10
99.2236050997095
20
1.36998146491817
30
0
41
1
10
99.2958282062835
20
1.39832838112446
30
0
41
1
10
99.5139899870715
20
1.47574638091678
30
0
41
1
10
99.6614254354159
20
1.51720776879753
30
0
41
1
10
99.8844470839147
20
1.56271862067146
30
0
41
1
10
99.9590992158386
20
1.57505999774145
30
0
41
1
10
100.071384728182
20
1.58920118472503
30
0
41
1
10
100.108863889376
20
1.59319651841634
30
0
41
1
10
100.183893445838
20
1.59990496138792
30
0
41
1
10
100.22144178011
20
1.60272137834059
30
0
41
1
10
100.259013289542
20
1.60499240693994
30
0
0
SPLINE
5
D4
100
AcDbEntity
8
1
62
256
6
ByLayer
370
18
48
1
60
0
100
AcDbSpline
70
4
71
3
72
21
73
17
40
0
40
0
40
0
40
0
40
0.0160829776517675
40
0.0160829776517675
40
0.0917689024477963
40
0.0917689024477963
40
0.243140752039825
40
0.243140752039825
40
0.394512601631853
40
0.394512601631853
40
0.697256300815908
40
0.697256300815908
40
0.772942225611921
40
0.772942225611921
40
0.848628150407935
40
1
40
1
40
1
40
1
41
1
10
99.4895998672436
20
1.94747643156507
30
0
41
1
10
99.4931685794356
20
1.94648366347062
30
0
41
1
10
99.496742875492
20
1.94548257642055
30
0
41
1
10
99.5171652332681
20
1.93972936344485
30
0
41
1
10
99.534144732605
20
1.93478141906388
30
0
41
1
10
99.5857543761738
20
1.91893769951829
30
0
41
1
10
99.6210218014326
20
1.90709249002217
30
0
41
1
10
99.6934717570061
20
1.88054890827851
30
0
41
1
10
99.7306451230322
20
1.86586418917599
30
0
41
1
10
99.8447406259968
20
1.81797314090159
30
0
41
1
10
99.9242329905547
20
1.78093763396066
30
0
41
1
10
100.027224340631
20
1.72924131854714
30
0
41
1
10
100.047988258781
20
1.71863824098662
30
0
41
1
10
100.089681498781
20
1.69700570865842
30
0
41
1
10
100.152536986839
20
1.66388056881465
30
0
41
1
10
100.216238076544
20
1.6289434374624
30
0
41
1
10
100.259013289547
20
1.60499240693795
30
0
0
SPLINE
5
D5
100
AcDbEntity
8
1
62
256
6
ByLayer
370
18
48
1
60
0
100
AcDbSpline
70
4
71
3
72
26
73
22
40
0
40
0
40
0
40
0
40
0.131406000486087
40
0.131406000486087
40
0.262812000972175
40
0.262812000972175
40
0.328515001215219
40
0.328515001215219
40
0.394218001458263
40
0.394218001458263
40
0.52562400194435
40
0.52562400194435
40
0.657030002430438
40
0.657030002430438
40
0.722733002673463
40
0.722733002673463
40
0.788436002916488
40
0.788436002916488
40
0.919842003402505
40
0.919842003402505
40
1
40
1
40
1
40
1
41
1
10
100.618384291222
20
2.59702177488464
30
0
41
1
10
100.543265672854
20
2.5855438645504
30
0
41
1
10
100.469349387224
20
2.57106179833914
30
0
41
1
10
100.323886022537
20
2.53657730892488
30
0
41
1
10
100.252338681686
20
2.51657525290852
30
0
41
1
10
100.146754571524
20
2.48290528020456
30
0
41
1
10
100.111849237171
20
2.47107188827843
30
0
41
1
10
100.042609965865
20
2.44627591522007
30
0
41
1
10
100.008173165244
20
2.43326981699116
30
0
41
1
10
99.9070265686066
20
2.39324346723598
30
0
41
1
10
99.8421540098794
20
2.36512061057263
30
0
41
1
10
99.717086054433
20
2.30715879383331
30
0
41
1
10
99.6568899261672
20
2.27731897757749
30
0
41
1
10
99.5698830903807
20
2.23205136576286
30
0
41
1
10
99.541430057095
20
2.21687637822734
30
0
41
1
10
99.4855997301822
20
2.18648041911192
30
0
41
1
10
99.4584199132847
20
2.17136654798602
30
0
41
1
10
99.37936167996
20
2.12667935188358
30
0
41
1
10
99.3297900359041
20
2.09764669171497
30
0
41
1
10
99.2544734226273
20
2.05295994576446
30
0
41
1
10
99.2269721011095
20
2.03650835005095
30
0
41
1
10
99.2004802554423
20
2.0206167423253
30
0
0
SPLINE
5
D6
100
AcDbEntity
8
1
62
256
6
ByLayer
370
18
48
1
60
0
100
AcDbSpline
70
4
71
3
72
16
73
12
40
0
40
0
40
0
40
0
40
0.124999999999981
40
0.124999999999981
40
0.249999999999962
40
0.249999999999962
40
0.499999999999975
40
0.499999999999975
40
0.749999999999987
40
0.749999999999987
40
1
40
1
40
1
40
1
41
1
10
102.167961926758
20
2.92540252065274
30
0
41
1
10
102.104443997762
20
2.90668142483807
30
0
41
1
10
102.040591591764
20
2.88880824585033
30
0
41
1
10
101.912308158962
20
2.85452872210109
30
0
41
1
10
101.84789383887
20
2.83812899793293
30
0
41
1
10
101.654655408931
20
2.79102604412597
30
0
41
1
10
101.525562404849
20
2.76232386593628
30
0
41
1
10
101.266975757493
20
2.70896478375931
30
0
41
1
10
101.137483800016
20
2.6842908581896
30
0
41
1
10
100.878175871863
20
2.63821458470997
30
0
41
1
10
100.748353126448
20
2.61688064169266
30
0
41
1
10
100.618384291222
20
2.59702177488467
30
0
0
SPLINE
5
D7
100
AcDbEntity
8
1
62
256
6
ByLayer
370
18
48
1
60
0
100
AcDbSpline
70
4
71
3
72
37
73
33
40
0
40
0
40
0
40
0
40
0.0312499999999962
40
0.0468749999999943
40
0.0468749999999943
40
0.0624999999999923
40
0.0624999999999923
40
0.124999999999984
40
0.124999999999984
40
0.187499999999976
40
0.187499999999976
40
0.218749999999974
40
0.218749999999974
40
0.249999999999973
40
0.249999999999973
40
0.312499999999974
40
0.312499999999974
40
0.343749999999974
40
0.343749999999974
40
0.359374999999972
40
0.359374999999972
40
0.37499999999997
40
0.37499999999997
40
0.499999999999977
40
0.499999999999977
40
0.624999999999983
40
0.624999999999983
40
0.749999999999989
40
0.749999999999989
40
0.874999999999994
40
0.874999999999994
40
1
40
1
40
1
40
1
41
1
10
102.167961926758
20
2.92540252065234
30
0
41
1
10
102.135988916024
20
2.97862041709661
30
0
41
1
10
102.088382470601
20
3.05979950049715
30
0
41
1
10
102.041291053061
20
3.14306503260835
30
0
41
1
10
102.010009250631
20
3.1990461523674
30
0
41
1
10
101.994413300142
20
3.22729320203419
30
0
41
1
10
101.916971257371
20
3.3692391070295
30
0
41
1
10
101.85657844135
20
3.48534551958474
30
0
41
1
10
101.738651260575
20
3.72261498174205
30
0
41
1
10
101.681117552184
20
3.8437792682075
30
0
41
1
10
101.596737550072
20
4.02929655057861
30
0
41
1
10
101.56900824654
20
4.09159436837831
30
0
41
1
10
101.514371359553
20
4.21689648410754
30
0
41
1
10
101.487450284301
20
4.27993043470309
30
0
41
1
10
101.407793639038
20
4.47014374694626
30
0
41
1
10
101.356162351643
20
4.5984312591246
30
0
41
1
10
101.280591047678
20
4.79295066243466
30
0
41
1
10
101.255788719056
20
4.85795127404162
30
0
41
1
10
101.219119509091
20
4.95565850747144
30
0
41
1
10
101.206984403554
20
4.98826248986774
30
0
41
1
10
101.182881226096
20
5.05353693999302
30
0
41
1
10
101.17093378386
20
5.08621563799196
30
0
41
1
10
101.063502956191
20
5.38036264641667
30
0
41
1
10
100.968721324415
20
5.64216535324445
30
0
41
1
10
100.780380671873
20
6.16572241719925
30
0
41
1
10
100.686804604203
20
6.42752359973011
30
0
41
1
10
100.500386991626
20
6.95093965794521
30
0
41
1
10
100.407509243151
20
7.21263633298025
30
0
41
1
10
100.222249129644
20
7.73442068391606
30
0
41
1
10
100.129820491694
20
7.99462737544812
30
0
41
1
10
99.9445869233535
20
8.51328198794559
30
0
41
1
10
99.8517917899488
20
8.77172581607567
30
0
41
1
10
99.7584084662586
20
9.02906297729908
30
0
0
SPLINE
5
D8
100
AcDbEntity
8
1
62
256
6
ByLayer
370
18
48
1
60
0
100
AcDbSpline
70
4
71
3
72
32
73
28
40
0
40
0
40
0
40
0
40
0.136369837430985
40
0.136369837430985
40
0.27273967486197
40
0.27273967486197
40
0.306832134219716
40
0.306832134219716
40
0.340924593577463
40
0.340924593577463
40
0.40910951229296
40
0.40910951229296
40
0.545479349723955
40
0.545479349723955
40
0.613664268439452
40
0.613664268439452
40
0.647756727797201
40
0.647756727797201
40
0.68184918715495
40
0.68184918715495
40
0.818219024585944
40
0.818219024585944
40
0.954588862016939
40
0.954588862016939
40
0.988681321374689
40
0.988681321374689
40
1
40
1
40
1
40
1
41
1
10
99.7584084662652
20
9.02906297728947
30
0
41
1
10
99.1358632581914
20
9.04466941358294
30
0
41
1
10
98.5139132900943
20
9.04266124339813
30
0
41
1
10
97.2697723381713
20
9.0035547373688
30
0
41
1
10
96.6475225398219
20
8.96643599754202
30
0
41
1
10
95.8684891916882
20
8.89813575461466
30
0
41
1
10
95.7126289288914
20
8.88338367224438
30
0
41
1
10
95.4011005108438
20
8.85174395397638
30
0
41
1
10
95.2453901790451
20
8.83485282360527
30
0
41
1
10
94.7783859062504
20
8.78099620760375
30
0
41
1
10
94.4672184908439
20
8.74084849688825
30
0
41
1
10
93.5339687451973
20
8.60789109446662
30
0
41
1
10
92.9120906364102
20
8.50256453992554
30
0
41
1
10
91.9785148424352
20
8.32019101359754
30
0
41
1
10
91.6672003694033
20
8.25533487881762
30
0
41
1
10
91.1999058939108
20
8.15200661148114
30
0
41
1
10
91.0440517059868
20
8.11654721215271
30
0
41
1
10
90.7323898741039
20
8.04366087857002
30
0
41
1
10
90.5766219870777
20
8.00624493087491
30
0
41
1
10
89.7980454561475
20
7.81437414322426
30
0
41
1
10
89.1759975660666
20
7.64557825252913
30
0
41
1
10
87.9318268959191
20
7.27923287338589
30
0
41
1
10
87.3097227514663
20
7.08165387359
30
0
41
1
10
86.5311624460347
20
6.81772896170995
30
0
41
1
10
86.3754057316757
20
6.76409465457257
30
0
41
1
10
86.1678622241283
20
6.69153873644964
30
0
41
1
10
86.116127151994
20
6.67336251385456
30
0
41
1
10
86.0643921939609
20
6.65509725952279
30
0
0
SPLINE
5
D9
100
AcDbEntity
8
1
62
256
6
ByLayer
370
18
48
1
60
0
100
AcDbSpline
70
4
71
3
72
201
73
197
40
0
40
0
40
0
40
0
40
0.007991550504458
40
0.007991550504458
40
0.0183433030735617
40
0.0183433030735617
40
0.0286950556426653
40
0.0286950556426653
40
0.039046808211769
40
0.039046808211769
40
0.0597503133499754
40
0.0597503133499754
40
0.0701020659190791
40
0.0701020659190791
40
0.0804538184881828
40
0.0804538184881828
40
0.0908055710572865
40
0.0908055710572865
40
0.10115732362639
40
0.10115732362639
40
0.111509076195494
40
0.111509076195494
40
0.121860828764598
40
0.121860828764598
40
0.132212581333701
40
0.132212581333701
40
0.142564333902805
40
0.142564333902805
40
0.152916086471909
40
0.152916086471909
40
0.163267839041012
40
0.163267839041012
40
0.173619591610116
40
0.173619591610116
40
0.18397134417922
40
0.18397134417922
40
0.194323096748323
40
0.194323096748323
40
0.204674849317427
40
0.204674849317427
40
0.225378354455634
40
0.225378354455634
40
0.235730107024737
40
0.235730107024737
40
0.24608185959384
40
0.24608185959384
40
0.256433612162944
40
0.256433612162944
40
0.266785364732047
40
0.266785364732047
40
0.277137117301151
40
0.277137117301151
40
0.287488869870254
40
0.287488869870254
40
0.308192375008461
40
0.308192375008461
40
0.313368251293013
40
0.313368251293013
40
0.318544127577564
40
0.318544127577564
40
0.328895880146667
40
0.328895880146667
40
0.339247632715771
40
0.339247632715771
40
0.349599385284874
40
0.349599385284874
40
0.359951137853977
40
0.359951137853977
40
0.37030289042308
40
0.37030289042308
40
0.380654642992183
40
0.380654642992183
40
0.391006395561286
40
0.391006395561286
40
0.401358148130389
40
0.401358148130389
40
0.411709900699492
40
0.411709900699492
40
0.422061653268596
40
0.422061653268596
40
0.432413405837699
40
0.432413405837699
40
0.442765158406802
40
0.442765158406802
40
0.453116910975905
40
0.453116910975905
40
0.463468663545008
40
0.463468663545008
40
0.473820416114111
40
0.473820416114111
40
0.484172168683215
40
0.484172168683215
40
0.494523921252318
40
0.494523921252318
40
0.504875673821421
40
0.504875673821421
40
0.515227426390524
40
0.515227426390524
40
0.525579178959627
40
0.525579178959627
40
0.530755055244179
40
0.530755055244179
40
0.53593093152873
40
0.53593093152873
40
0.541106807813282
40
0.541106807813282
40
0.546282684097833
40
0.546282684097833
40
0.556634436666936
40
0.556634436666936
40
0.56698618923604
40
0.56698618923604
40
0.577337941805143
40
0.577337941805143
40
0.587689694374246
40
0.587689694374246
40
0.598041446943349
40
0.598041446943349
40
0.608393199512452
40
0.608393199512452
40
0.618744952081555
40
0.618744952081555
40
0.629096704650658
40
0.629096704650658
40
0.639448457219762
40
0.639448457219762
40
0.649800209788865
40
0.649800209788865
40
0.660151962357968
40
0.660151962357968
40
0.670503714927071
40
0.670503714927071
40
0.680855467496174
40
0.680855467496174
40
0.691207220065277
40
0.691207220065277
40
0.70155897263438
40
0.70155897263438
40
0.711910725203484
40
0.711910725203484
40
0.722262477772587
40
0.722262477772587
40
0.73261423034169
40
0.73261423034169
40
0.742965982910793
40
0.742965982910793
40
0.753317735479896
40
0.753317735479896
40
0.763669488048999
40
0.763669488048999
40
0.784372993187206
40
0.784372993187206
40
0.794724745756309
40
0.794724745756309
40
0.805076498325413
40
0.805076498325413
40
0.810252374609964
40
0.810252374609964
40
0.815428250894517
40
0.815428250894517
40
0.82578000346362
40
0.82578000346362
40
0.836131756032724
40
0.836131756032724
40
0.846483508601828
40
0.846483508601828
40
0.867187013740037
40
0.867187013740037
40
0.877538766309141
40
0.877538766309141
40
0.887890518878245
40
0.887890518878245
40
0.89824227144735
40
0.89824227144735
40
0.903418147731902
40
0.903418147731902
40
0.908594024016454
40
0.908594024016454
40
0.918945776585559
40
0.918945776585559
40
0.929297529154663
40
0.929297529154663
40
0.939649281723767
40
0.939649281723767
40
0.950001034292872
40
0.950001034292872
40
0.960352786861976
40
0.960352786861976
40
0.970704539431081
40
0.970704539431081
40
0.981056292000185
40
0.981056292000185
40
0.99140804456929
40
0.996583920853842
40
0.996583920853842
40
1
40
1
40
1
40
1
41
1
10
85.9034471900472
20
-6.71289280020139
30
0
41
1
10
85.7252725822805
20
-6.77470825955027
30
0
41
1
10
85.547167606935
20
-6.83539864046782
30
0
41
1
10
85.1385011374308
20
-6.97208742487689
30
0
41
1
10
84.9079950870266
20
-7.04729647398233
30
0
41
1
10
84.4471469504055
20
-7.19406044934121
30
0
41
1
10
84.2167391166129
20
-7.26560403646141
30
0
41
1
10
83.7556662088274
20
-7.40493801764657
30
0
41
1
10
83.5250241303614
20
-7.47271321513276
30
0
41
1
10
82.8327435759381
20
-7.67018071970489
30
0
41
1
10
82.3707640200272
20
-7.79402959844512
30
0
41
1
10
81.6769371639073
20
-7.96733352934694
30
0
41
1
10
81.445484077795
20
-8.0230247926562
30
0
41
1
10
80.9824262196169
20
-8.13012882417104
30
0
41
1
10
80.7511515475786
20
-8.18148661753995
30
0
41
1
10
80.2890905107467
20
-8.2796135205873
30
0
41
1
10
80.0582630060878
20
-8.32634748593247
30
0
41
1
10
79.5969267703123
20
-8.41489602955235
30
0
41
1
10
79.3664362951172
20
-8.45666296726822
30
0
41
1
10
78.9054663880312
20
-8.53566926069837
30
0
41
1
10
78.6749531565681
20
-8.57298585700093
30
0
41
1
10
78.2137845855443
20
-8.64332872216769
30
0
41
1
10
77.9831241993677
20
-8.67637161053963
30
0
41
1
10
77.5217067011123
20
-8.73794041032426
30
0
41
1
10
77.2909536714695
20
-8.76646570532708
30
0
41
1
10
76.8294780532103
20
-8.81873226623304
30
0
41
1
10
76.5988076126474
20
-8.84243876613627
30
0
41
1
10
76.1372462123924
20
-8.88511921323351
30
0
41
1
10
75.9063444654748
20
-8.90414370053364
30
0
41
1
10
75.444154448109
20
-8.93761838469879
30
0
41
1
10
75.2128509010174
20
-8.95207394056516
30
0
41
1
10
74.7499452472914
20
-8.97621482387225
30
0
41
1
10
74.518656066281
20
-8.98586946736
30
0
41
1
10
74.0564409087092
20
-9.00007294113362
30
0
41
1
10
73.8255267530132
20
-9.004574829966
30
0
41
1
10
73.3640022716097
20
-9.0084533210543
30
0
41
1
10
73.1333570323611
20
-9.00792127562261
30
0
41
1
10
72.6722069684015
20
-9.00239103833556
30
0
41
1
10
72.4416937869846
20
-8.99735603602176
30
0
41
1
10
71.7500157350367
20
-8.97545105599468
30
0
41
1
10
71.2887927610165
20
-8.95165731974458
30
0
41
1
10
70.5968863242001
20
-8.90024595123867
30
0
41
1
10
70.3662170478536
20
-8.88054683094757
30
0
41
1
10
69.9045151856536
20
-8.83692536197452
30
0
41
1
10
69.6734841122857
20
-8.81299271808066
30
0
41
1
10
69.2111638762676
20
-8.7605342536576
30
0
41
1
10
68.9798738637511
20
-8.73199821997179
30
0
41
1
10
68.5171609443974
20
-8.670024558927
30
0
41
1
10
68.2860180704907
20
-8.63665464775971
30
0
41
1
10
67.8240879137917
20
-8.56499205627168
30
0
41
1
10
67.5933166201835
20
-8.52663939659837
30
0
41
1
10
67.1318773186387
20
-8.44558849983346
30
0
41
1
10
66.9011868476646
20
-8.4029657000078
30
0
41
1
10
66.2091142318842
20
-8.26891120832403
30
0
41
1
10
65.7477066447327
20
-8.17131000180916
30
0
41
1
10
65.1712016944648
20
-8.03770350501927
30
0
41
1
10
65.055918680873
20
-8.010395896706
30
0
41
1
10
64.8253973075919
20
-7.95456841993544
30
0
41
1
10
64.7101520282171
20
-7.92605354694641
30
0
41
1
10
64.3643562413576
20
-7.8389358501602
30
0
41
1
10
64.1337370050466
20
-7.77882302037293
30
0
41
1
10
63.6721158807239
20
-7.65502677293313
30
0
41
1
10
63.441147261376
20
-7.59122886882864
30
0
41
1
10
62.9789203318126
20
-7.45949709218309
30
0
41
1
10
62.7476397457766
20
-7.39157749840217
30
0
41
1
10
62.284816627379
20
-7.25150970817251
30
0
41
1
10
62.0536108915756
20
-7.17944953837431
30
0
41
1
10
61.5915795286437
20
-7.03127214638417
30
0
41
1
10
61.3607244171941
20
-6.95524200542624
30
0
41
1
10
60.8991476098516
20
-6.80002662748549
30
0
41
1
10
60.6684500218704
20
-6.72076704234726
30
0
41
1
10
60.2071342221369
20
-6.55877966965068
30
0
41
1
10
59.9765239658523
20
-6.47604784205194
30
0
41
1
10
59.5153422082351
20
-6.30708931956951
30
0
41
1
10
59.2847753546998
20
-6.22085643314674
30
0
41
1
10
58.8236479658061
20
-6.04484309048004
30
0
41
1
10
58.5930948641473
20
-5.95502879693285
30
0
41
1
10
58.1317317143796
20
-5.77267102215149
30
0
41
1
10
57.9008992704578
20
-5.68020903215213
30
0
41
1
10
57.4390499532045
20
-5.49229340458959
30
0
41
1
10
57.2080509973612
20
-5.39678886413935
30
0
41
1
10
56.7459548633139
20
-5.20246545513777
30
0
41
1
10
56.514785638234
20
-5.10372870718786
30
0
41
1
10
56.0521699756245
20
-4.90327110853048
30
0
41
1
10
55.8210781665871
20
-4.80164100688663
30
0
41
1
10
55.3590854374418
20
-4.59615509967426
30
0
41
1
10
55.1281454052713
20
-4.49240828371742
30
0
41
1
10
54.6663137105084
20
-4.2830394148148
30
0
41
1
10
54.4354511081144
20
-4.17733792563413
30
0
41
1
10
53.9738676475482
20
-3.96372908271522
30
0
41
1
10
53.7431323632945
20
-3.85586375523655
30
0
41
1
10
53.2818900790054
20
-3.63767535598276
30
0
41
1
10
53.0514496123356
20
-3.52719425816383
30
0
41
1
10
52.5904445883962
20
-3.30466038617925
30
0
41
1
10
52.3598856849391
20
-3.19257773522776
30
0
41
1
10
51.8985057062729
20
-2.96709307913008
30
0
41
1
10
51.6676998424613
20
-2.85365119082473
30
0
41
1
10
51.2058680143041
20
-2.62524250071604
30
0
41
1
10
50.9748392524221
20
-2.51028300878349
30
0
41
1
10
50.6281113363349
20
-2.33667416049855
30
0
41
1
10
50.5125060613118
20
-2.27860445715393
30
0
41
1
10
50.2812439702294
20
-2.16201985331563
30
0
41
1
10
50.1655695722123
20
-2.10350840903465
30
0
41
1
10
49.9341888029078
20
-1.98620550108419
30
0
41
1
10
49.8185407336499
20
-1.92744234909847
30
0
41
1
10
49.587290710389
20
-1.80977215233224
30
0
41
1
10
49.4716871171272
20
-1.75086837943704
30
0
41
1
10
49.1249978535313
20
-1.57383677497552
30
0
41
1
10
48.894045983467
20
-1.45536454194095
30
0
41
1
10
48.4322818540701
20
-1.21791032598207
30
0
41
1
10
48.2014802202746
20
-1.09890833062212
30
0
41
1
10
47.7400124466888
20
-0.860391406827347
30
0
41
1
10
47.5093591699651
20
-0.740850437753124
30
0
41
1
10
47.0480990073977
20
-0.501429314827107
30
0
41
1
10
46.8175046174276
20
-0.381522731271474
30
0
41
1
10
46.3560852399905
20
-0.141939432469314
30
0
41
1
10
46.1252820829947
20
-0.0222166352397721
30
0
41
1
10
45.6635630294196
20
0.217246657260603
30
0
41
1
10
45.4326408436683
20
0.336972980621937
30
0
41
1
10
44.9708219160792
20
0.57672891456798
30
0
41
1
10
44.7399019173759
20
0.696718939092136
30
0
41
1
10
44.277809279697
20
0.936468865708548
30
0
41
1
10
44.0465581556002
20
1.05617150120909
30
0
41
1
10
43.5837251768184
20
1.2947233868116
30
0
41
1
10
43.3524081066455
20
1.41348907814844
30
0
41
1
10
42.8899723050642
20
1.64995901991404
30
0
41
1
10
42.6588516828519
20
1.76766198416993
30
0
41
1
10
42.1968111336241
20
2.00195953811226
30
0
41
1
10
41.9659033342614
20
2.11856540689959
30
0
41
1
10
41.504433776893
20
2.35080918531457
30
0
41
1
10
41.2738731869062
20
2.46647395538656
30
0
41
1
10
40.812677455558
20
2.69634062552308
30
0
41
1
10
40.5820359047827
20
2.81051908073874
30
0
41
1
10
40.1206106657568
20
3.03720529650241
30
0
41
1
10
39.8898300586769
20
3.14971889136689
30
0
41
1
10
39.4281264540874
20
3.37301714340717
30
0
41
1
10
39.1972005074817
20
3.48379960284572
30
0
41
1
10
38.7352531850934
20
3.70357429920134
30
0
41
1
10
38.5042470008169
20
3.81256880707284
30
0
41
1
10
38.0418669054356
20
4.02849761907351
30
0
41
1
10
37.8104218084661
20
4.1354551184113
30
0
41
1
10
37.3474464708017
20
4.34731372129309
30
0
41
1
10
37.1161674964396
20
4.45216379564462
30
0
41
1
10
36.6538441030829
20
4.65924456782756
30
0
41
1
10
36.4228059815216
20
4.76149584515579
30
0
41
1
10
35.960978590241
20
4.96321794122528
30
0
41
1
10
35.7302261590928
20
5.06269084622093
30
0
41
1
10
35.2688434510516
20
5.25873036260418
30
0
41
1
10
35.0381673890948
20
5.35530660157585
30
0
41
1
10
34.3459198304177
20
5.64066045048253
30
0
41
1
10
33.8841685076396
20
5.82497548186913
30
0
41
1
10
33.1917371333897
20
6.09258204410688
30
0
41
1
10
32.9609387913048
20
6.1802365278923
30
0
41
1
10
32.4992348679602
20
6.35204977445042
30
0
41
1
10
32.268297561167
20
6.43623164004171
30
0
41
1
10
31.9215309336658
20
6.56001030228583
30
0
41
1
10
31.8058873668359
20
6.60085192573251
30
0
41
1
10
31.5744932679414
20
6.68168085554129
30
0
41
1
10
31.458716708591
20
6.7216768035002
30
0
41
1
10
31.1114254828527
20
6.84028508647219
30
0
41
1
10
30.8800292137028
20
6.91749325480018
30
0
41
1
10
30.4175271483858
20
7.068016243133
30
0
41
1
10
30.186416657089
20
7.14132779786434
30
0
41
1
10
29.7245987608659
20
7.28390055720564
30
0
41
1
10
29.493931775926
20
7.35316715698346
30
0
41
1
10
28.802015482437
20
7.55529791894207
30
0
41
1
10
28.3405968101926
20
7.68250184713611
30
0
41
1
10
27.648254322175
20
7.86065617595705
30
0
41
1
10
27.4174447122671
20
7.9179317001861
30
0
41
1
10
26.9557554353559
20
8.0280524730035
30
0
41
1
10
26.7248915248981
20
8.08085600897044
30
0
41
1
10
26.2629430634594
20
8.18210225745909
30
0
41
1
10
26.0318349009407
20
8.23061349752405
30
0
41
1
10
25.6849777541539
20
8.3002982419045
30
0
41
1
10
25.569336344649
20
8.32300932788283
30
0
41
1
10
25.3379942161736
20
8.36735546039102
30
0
41
1
10
25.2222579363759
20
8.38899079804784
30
0
41
1
10
24.8751469369431
20
8.45216332892082
30
0
41
1
10
24.6439235502594
20
8.49194731014379
30
0
41
1
10
24.18174199485
20
8.56673511821322
30
0
41
1
10
23.9507777165221
20
8.60176577130053
30
0
41
1
10
23.4889626443066
20
8.66722127645292
30
0
41
1
10
23.2581084684186
20
8.69765309559057
30
0
41
1
10
22.7964135940841
20
8.75399720502392
30
0
41
1
10
22.5655769568844
20
8.77988724008293
30
0
41
1
10
22.103964984401
20
8.82694302334704
30
0
41
1
10
21.8731896851149
20
8.84810768344173
30
0
41
1
10
21.4118152241396
20
8.88556770739288
30
0
41
1
10
21.1811744441104
20
8.90186356302902
30
0
41
1
10
20.7197031840528
20
8.92969119204358
30
0
41
1
10
20.4888781561862
20
8.94122613071184
30
0
41
1
10
20.0269195079415
20
8.95968667421494
30
0
41
1
10
19.6802233585034
20
8.97008381486725
30
0
41
1
10
19.3331659493998
20
8.97509850871015
30
0
41
1
10
19.1410582730988
20
8.9768607072221
30
0
41
1
10
19.0646438240911
20
8.977295564066
30
0
41
1
10
18.9882363197019
20
8.97746142293639
30
0
0
SPLINE
5
DA
100
AcDbEntity
8
1
62
256
6
ByLayer
370
13
48
1
60
0
100
AcDbSpline
70
4
71
3
72
24
73
20
40
0
40
0
40
0
40
0
40
0.0539427785124936
40
0.0539427785124936
40
0.102834622900897
40
0.102834622900897
40
0.1517264672893
40
0.1517264672893
40
0.347293844842914
40
0.347293844842914
40
0.542861222396527
40
0.542861222396527
40
0.640644911173334
40
0.689536755561738
40
0.689536755561738
40
0.738428599950141
40
0.738428599950141
40
0.933995977503755
40
1
40
1
40
1
40
1
41
1
10
3.75062671116439
20
8.96564116594166
30
0
41
1
10
3.75062112778903
20
8.96561686145705
30
0
41
1
10
3.75061558532914
20
8.96435400133731
30
0
41
1
10
3.75060508570411
20
8.95957822085003
30
0
41
1
10
3.7506001182519
20
8.95628287220327
30
0
41
1
10
3.7505902485658
20
8.94765490830704
30
0
41
1
10
3.75058535338479
20
8.94233035805058
30
0
41
1
10
3.750561045582
20
8.91071474637732
30
0
41
1
10
3.75054214080825
20
8.86948652599023
30
0
41
1
10
3.75050458830452
20
8.75600707706113
30
0
41
1
10
3.75048594199907
20
8.68375402886258
30
0
41
1
10
3.75045746319182
20
8.55198190047722
30
0
41
1
10
3.75044309494032
20
8.48023617553591
30
0
41
1
10
3.75042838480579
20
8.39956993324031
30
0
41
1
10
3.75041848415765
20
8.34378760992959
30
0
41
1
10
3.75041348281391
20
8.31486981139835
30
0
41
1
10
3.75038824239155
20
8.16548622248106
30
0
41
1
10
3.75036042936105
20
7.98633960831421
30
0
41
1
10
3.75033055910666
20
7.78177365710559
30
0
41
1
10
3.75032286816236
20
7.72852630483106
30
0
0
SPLINE
5
DB
100
AcDbEntity
8
1
62
256
6
ByLayer
370
18
48
1
60
0
100
AcDbSpline
70
4
71
3
72
74
73
70
40
0
40
0
40
0
40
0
40
0.0551754588365062
40
0.0551754588365062
40
0.0827631882547593
40
0.0827631882547593
40
0.110350917673012
40
0.110350917673012
40
0.137938647091265
40
0.137938647091265
40
0.165526376509519
40
0.165526376509519
40
0.179320241218645
40
0.179320241218645
40
0.193114105927772
40
0.193114105927772
40
0.220701835346027
40
0.220701835346027
40
0.275877294182536
40
0.275877294182536
40
0.303465023600792
40
0.303465023600792
40
0.331052753019048
40
0.331052753019048
40
0.386228211855559
40
0.386228211855559
40
0.413815941273815
40
0.413815941273815
40
0.427609805982943
40
0.427609805982943
40
0.44140367069207
40
0.44140367069207
40
0.496579129528585
40
0.496579129528585
40
0.52416685894684
40
0.52416685894684
40
0.551754588365096
40
0.551754588365096
40
0.579342317783351
40
0.579342317783351
40
0.606930047201607
40
0.606930047201607
40
0.662105506038121
40
0.662105506038121
40
0.689693235456378
40
0.689693235456378
40
0.717280964874635
40
0.717280964874635
40
0.744868694292892
40
0.744868694292892
40
0.772456423711149
40
0.772456423711149
40
0.800044153129406
40
0.800044153129406
40
0.827631882547663
40
0.827631882547663
40
0.85521961196592
40
0.85521961196592
40
0.882807341384177
40
0.882807341384177
40
0.910395070802434
40
0.910395070802434
40
0.937982800220691
40
0.937982800220691
40
0.965570529638948
40
0.965570529638948
40
0.993158259057205
40
0.993158259057205
40
1
40
1
40
1
40
1
41
1
10
98.5254968007889
20
0.995235829103478
30
0
41
1
10
98.0648301563832
20
1.2345746871043
30
0
41
1
10
97.6041295387394
20
1.47217772419086
30
0
41
1
10
96.9128489085718
20
1.82563797556779
30
0
41
1
10
96.6823944059724
20
1.94298737260249
30
0
41
1
10
96.2214961418642
20
2.17686170059758
30
0
41
1
10
95.9910042285572
20
2.29329698483113
30
0
41
1
10
95.529795070004
20
2.52488000736474
30
0
41
1
10
95.2990794958445
20
2.6400310225589
30
0
41
1
10
94.8373803270152
20
2.86894406809858
30
0
41
1
10
94.6063936886877
20
2.98270423302765
30
0
41
1
10
94.2597079314465
20
3.15225169913452
30
0
41
1
10
94.1441127238763
20
3.20858640281847
30
0
41
1
10
93.912851388571
20
3.32087902596868
30
0
41
1
10
93.7971508328369
20
3.37684970206527
30
0
41
1
10
93.4501933756816
20
3.54398020419967
30
0
41
1
10
93.219035146895
20
3.65435524761233
30
0
41
1
10
92.5258817280264
20
3.98236320591596
30
0
41
1
10
92.0644374844292
20
4.1971759657668
30
0
41
1
10
91.372489740098
20
4.51188026987361
30
0
41
1
10
91.1418963735291
20
4.6155445958106
30
0
41
1
10
90.680803048095
20
4.82026535413445
30
0
41
1
10
90.450277105652
20
4.92131470606526
30
0
41
1
10
89.758382404603
20
5.22040085444382
30
0
41
1
10
89.2967097524509
20
5.41432787784581
30
0
41
1
10
88.603882721569
20
5.69690172102196
30
0
41
1
10
88.3729289137094
20
5.78976379792852
30
0
41
1
10
88.0262650465905
20
5.92674094416896
30
0
41
1
10
87.9106744927399
20
5.97201867819072
30
0
41
1
10
87.6794028124362
20
6.06178535543688
30
0
41
1
10
87.5636947802935
20
6.10628310855898
30
0
41
1
10
86.9852216461892
20
6.32663468605051
30
0
41
1
10
86.5230308012683
20
6.49596750659938
30
0
41
1
10
85.8304801191717
20
6.73876059314117
30
0
41
1
10
85.5997500366756
20
6.81781112365675
30
0
41
1
10
85.1385011374308
20
6.97208742487689
30
0
41
1
10
84.9079950870266
20
7.04729647398233
30
0
41
1
10
84.4471469504055
20
7.19406044934121
30
0
41
1
10
84.2167391166129
20
7.26560403646144
30
0
41
1
10
83.7556662088273
20
7.40493801764657
30
0
41
1
10
83.5250241303614
20
7.47271321513276
30
0
41
1
10
82.8327435759382
20
7.67018071970492
30
0
41
1
10
82.3707640200272
20
7.79402959844512
30
0
41
1
10
81.6769371639073
20
7.96733352934694
30
0
41
1
10
81.445484077795
20
8.0230247926562
30
0
41
1
10
80.9824262196169
20
8.13012882417104
30
0
41
1
10
80.7511515475786
20
8.18148661753995
30
0
41
1
10
80.2890905107468
20
8.2796135205873
30
0
41
1
10
80.0582630060878
20
8.32634748593244
30
0
41
1
10
79.5969267703123
20
8.41489602955235
30
0
41
1
10
79.3664362951172
20
8.45666296726822
30
0
41
1
10
78.9054663880312
20
8.53566926069837
30
0
41
1
10
78.6749531565681
20
8.57298585700093
30
0
41
1
10
78.2137845855444
20
8.64332872216769
30
0
41
1
10
77.9831241993677
20
8.67637161053963
30
0
41
1
10
77.5217067011123
20
8.73794041032426
30
0
41
1
10
77.2909536714695
20
8.76646570532705
30
0
41
1
10
76.8294780532104
20
8.81873226623304
30
0
41
1
10
76.5988076126474
20
8.84243876613627
30
0
41
1
10
76.1372462123924
20
8.88511921323354
30
0
41
1
10
75.9063444654749
20
8.90414370053361
30
0
41
1
10
75.444154448109
20
8.93761838469879
30
0
41
1
10
75.2128509010174
20
8.95207394056516
30
0
41
1
10
74.7499452472914
20
8.97621482387228
30
0
41
1
10
74.518656066281
20
8.98586946736
30
0
41
1
10
74.0564409087093
20
9.00007294113362
30
0
41
1
10
73.8255267530133
20
9.004574829966
30
0
41
1
10
73.5375356100585
20
9.00699500728376
30
0
41
1
10
73.4803139038293
20
9.00732394548595
30
0
41
1
10
73.4230986798776
20
9.00750452362502
30
0
0
SPLINE
5
DC
100
AcDbEntity
8
1
62
256
6
ByLayer
370
18
48
1
60
0
100
AcDbSpline
70
4
71
3
72
67
73
63
40
0
40
0
40
0
40
0
40
0.0210794098259837
40
0.0210794098259837
40
0.0537100961651171
40
0.0537100961651171
40
0.0863407825042506
40
0.0863407825042506
40
0.151602155182518
40
0.151602155182518
40
0.184232841521652
40
0.184232841521652
40
0.216863527860786
40
0.216863527860786
40
0.24949421419992
40
0.24949421419992
40
0.265809557369487
40
0.265809557369487
40
0.282124900539054
40
0.282124900539054
40
0.314755586878188
40
0.314755586878188
40
0.347386273217322
40
0.347386273217322
40
0.380016959556456
40
0.380016959556456
40
0.41264764589559
40
0.41264764589559
40
0.445278332234724
40
0.445278332234724
40
0.477909018573857
40
0.477909018573857
40
0.510539704912991
40
0.510539704912991
40
0.543170391252125
40
0.559485734421692
40
0.559485734421692
40
0.575801077591259
40
0.575801077591259
40
0.608431763930393
40
0.608431763930393
40
0.641062450269527
40
0.641062450269527
40
0.673693136608661
40
0.673693136608661
40
0.706323822947795
40
0.706323822947795
40
0.738954509286929
40
0.738954509286929
40
0.771585195626063
40
0.771585195626063
40
0.804215881965196
40
0.804215881965196
40
0.83684656830433
40
0.83684656830433
40
0.869477254643464
40
0.869477254643464
40
0.902107940982598
40
0.902107940982598
40
0.934738627321732
40
0.934738627321732
40
1
40
1
40
1
40
1
41
1
10
31.0971204424937
20
-6.84448321762019
30
0
41
1
10
30.9476149326301
20
-6.89470458377454
30
0
41
1
10
30.7981662521203
20
-6.9441358549856
30
0
41
1
10
30.4175271483858
20
-7.06801624313303
30
0
41
1
10
30.186416657089
20
-7.14132779786434
30
0
41
1
10
29.7245987608659
20
-7.28390055720567
30
0
41
1
10
29.493931775926
20
-7.35316715698346
30
0
41
1
10
28.802015482437
20
-7.5552979189421
30
0
41
1
10
28.3405968101925
20
-7.68250184713614
30
0
41
1
10
27.648254322175
20
-7.86065617595708
30
0
41
1
10
27.4174447122671
20
-7.91793170018613
30
0
41
1
10
26.955755435356
20
-8.02805247300353
30
0
41
1
10
26.724891524898
20
-8.08085600897044
30
0
41
1
10
26.2629430634593
20
-8.18210225745912
30
0
41
1
10
26.0318349009407
20
-8.23061349752408
30
0
41
1
10
25.6849777541539
20
-8.3002982419045
30
0
41
1
10
25.5693363446489
20
-8.32300932788283
30
0
41
1
10
25.3379942161736
20
-8.36735546039102
30
0
41
1
10
25.2222579363759
20
-8.38899079804787
30
0
41
1
10
24.8751469369431
20
-8.45216332892082
30
0
41
1
10
24.6439235502594
20
-8.49194731014379
30
0
41
1
10
24.18174199485
20
-8.56673511821325
30
0
41
1
10
23.950777716522
20
-8.60176577130056
30
0
41
1
10
23.4889626443067
20
-8.66722127645292
30
0
41
1
10
23.2581084684186
20
-8.69765309559057
30
0
41
1
10
22.7964135940841
20
-8.75399720502392
30
0
41
1
10
22.5655769568844
20
-8.77988724008293
30
0
41
1
10
22.103964984401
20
-8.82694302334704
30
0
41
1
10
21.8731896851148
20
-8.84810768344173
30
0
41
1
10
21.4118152241396
20
-8.88556770739288
30
0
41
1
10
21.1811744441103
20
-8.90186356302902
30
0
41
1
10
20.7197031840527
20
-8.92969119204358
30
0
41
1
10
20.4888781561862
20
-8.94122613071184
30
0
41
1
10
20.0269195079415
20
-8.95968667421494
30
0
41
1
10
19.6802233585034
20
-8.97008381486728
30
0
41
1
10
19.3331659493998
20
-8.97509850871015
30
0
41
1
10
19.1017109392184
20
-8.97722163925013
30
0
41
1
10
18.9859047431693
20
-8.97767306615063
30
0
41
1
10
18.6386802347808
20
-8.97716331485813
30
0
41
1
10
18.4074686308646
20
-8.97432017865353
30
0
41
1
10
17.9455263748632
20
-8.96380723739412
30
0
41
1
10
17.7148156176064
20
-8.95613963329839
30
0
41
1
10
17.253785224299
20
-8.93615893207507
30
0
41
1
10
17.0234143424879
20
-8.92387652838059
30
0
41
1
10
16.562865393238
20
-8.89467896879103
30
0
41
1
10
16.3326910563212
20
-8.87775177603211
30
0
41
1
10
15.872533229334
20
-8.83910127688097
30
0
41
1
10
15.6425564671273
20
-8.81735261017624
30
0
41
1
10
15.182717203945
20
-8.76908525710056
30
0
41
1
10
14.9528457350709
20
-8.74259392522518
30
0
41
1
10
14.4930673519748
20
-8.68516450206502
30
0
41
1
10
14.2631586589002
20
-8.65424359341824
30
0
41
1
10
13.8033160597728
20
-8.58805129826149
30
0
41
1
10
13.5734324226609
20
-8.55271646653796
30
0
41
1
10
13.1135832327007
20
-8.47738144012052
30
0
41
1
10
12.8836292365508
20
-8.43737082658018
30
0
41
1
10
12.4236327823724
20
-8.3524580383949
30
0
41
1
10
12.1935718774337
20
-8.30760375839023
30
0
41
1
10
11.7330275238846
20
-8.21377582557292
30
0
41
1
10
11.5025408489825
20
-8.16479714630734
30
0
41
1
10
10.8103986036885
20
-8.01149763765864
30
0
41
1
10
10.348075609518
20
-7.9008096945185
30
0
41
1
10
9.884716404058
20
-7.78099394974791
30
0
0
SPLINE
5
DD
100
AcDbEntity
8
1
62
256
6
ByLayer
370
13
48
1
60
0
100
AcDbSpline
70
4
71
3
72
43
73
39
40
0
40
0
40
0
40
0
40
0.0978096797383475
40
0.0978096797383475
40
0.195619359476695
40
0.207845569443988
40
0.207845569443988
40
0.220071779411282
40
0.220071779411282
40
0.244524199345868
40
0.244524199345868
40
0.29342903921504
40
0.29342903921504
40
0.391238718953385
40
0.48904839869173
40
0.48904839869173
40
0.513500818626316
40
0.513500818626316
40
0.537953238560902
40
0.537953238560902
40
0.586858078430075
40
0.586858078430075
40
0.68466775816842
40
0.68466775816842
40
0.733572598037592
40
0.733572598037592
40
0.758025017972179
40
0.758025017972179
40
0.782477437906765
40
0.782477437906765
40
0.880287117645109
40
0.880287117645109
40
0.904739537579695
40
0.904739537579695
40
0.929191957514281
40
0.929191957514281
40
0.978096797383454
40
1
40
1
40
1
40
1
41
1
10
3.7513040165565
20
-4.35822509395959
30
0
41
1
10
3.75129316973442
20
-4.62943902209935
30
0
41
1
10
3.75127938011735
20
-4.89171602346983
30
0
41
1
10
3.75124707145091
20
-5.39855219451857
30
0
41
1
10
3.75122623555313
20
-5.67368206272755
30
0
41
1
10
3.75120302037891
20
-5.93733248187343
30
0
41
1
10
3.75119780406578
20
-5.99563506210171
30
0
41
1
10
3.75119516549216
20
-6.02466284487261
30
0
41
1
10
3.75118718516637
20
-6.11111475701185
30
0
41
1
10
3.7511817765988
20
-6.1679355366592
30
0
41
1
10
3.751165312528
20
-6.3359852204519
30
0
41
1
10
3.75115401917066
20
-6.44480316217485
30
0
41
1
10
3.75111938065879
20
-6.76177837037235
30
0
41
1
10
3.75107118659108
20
-7.15918535025986
30
0
41
1
10
3.75102067702781
20
-7.50666878831348
30
0
41
1
10
3.75098879239789
20
-7.70790524031059
30
0
41
1
10
3.75098239926288
20
-7.74735343110285
30
0
41
1
10
3.75096958908
20
-7.82463467431242
30
0
41
1
10
3.7509631658811
20
-7.86250296602836
30
0
41
1
10
3.75094391588738
20
-7.97340355279647
30
0
41
1
10
3.75093114449362
20
-8.0435374834268
30
0
41
1
10
3.75089309473594
20
-8.24267708805675
30
0
41
1
10
3.75086808698228
20
-8.36045071997972
30
0
41
1
10
3.75083131019841
20
-8.51462501057028
30
0
41
1
10
3.75081917217557
20
-8.56226121411012
30
0
41
1
10
3.75080115706513
20
-8.62801225621146
30
0
41
1
10
3.75079519335981
20
-8.64894300271257
30
0
41
1
10
3.75078336455817
20
-8.68878293955078
30
0
41
1
10
3.75077749686625
20
-8.70770164223038
30
0
41
1
10
3.75074838871512
20
-8.79730707144182
30
0
41
1
10
3.75072584660433
20
-8.85307031474846
30
0
41
1
10
3.75069847403159
20
-8.90275622153058
30
0
41
1
10
3.7506930367914
20
-8.91169245759858
30
0
41
1
10
3.75068226663404
20
-8.92750559348406
30
0
41
1
10
3.75067693036476
20
-8.93438947618785
30
0
41
1
10
3.75066105774226
20
-8.95198656003416
30
0
41
1
10
3.75064600008116
20
-8.96307829680259
30
0
41
1
10
3.75063125855019
20
-8.96565923737782
30
0
41
1
10
3.75062672549348
20
-8.96564122559678
30
0
0
SPLINE
5
DE
100
AcDbEntity
8
1
62
256
6
ByLayer
370
18
48
1
60
0
100
AcDbSpline
70
4
71
3
72
54
73
50
40
0
40
0
40
0
40
0
40
0.0312499999999988
40
0.0312499999999988
40
0.0468749999999982
40
0.0468749999999982
40
0.0624999999999976
40
0.0624999999999976
40
0.124999999999995
40
0.124999999999995
40
0.187499999999993
40
0.187499999999993
40
0.24999999999999
40
0.24999999999999
40
0.26562499999999
40
0.26562499999999
40
0.28124999999999
40
0.312499999999989
40
0.343749999999988
40
0.343749999999988
40
0.359374999999988
40
0.359374999999988
40
0.374999999999989
40
0.374999999999989
40
0.43749999999999
40
0.43749999999999
40
0.499999999999991
40
0.499999999999991
40
0.562499999999992
40
0.562499999999992
40
0.624999999999993
40
0.624999999999993
40
0.656249999999994
40
0.656249999999994
40
0.687499999999994
40
0.687499999999994
40
0.749999999999996
40
0.749999999999996
40
0.765624999999996
40
0.765624999999996
40
0.781249999999997
40
0.781249999999997
40
0.812499999999997
40
0.812499999999997
40
0.874999999999998
40
0.874999999999998
40
0.937499999999999
40
0.937499999999999
40
1
40
1
40
1
40
1
41
1
10
98.525496800789
20
0.99523582910345
30
0
41
1
10
98.5205322888621
20
0.850890068088717
30
0
41
1
10
98.5177510543459
20
0.706089077386963
30
0
41
1
10
98.5165799357047
20
0.4882105556662
30
0
41
1
10
98.5166898157991
20
0.415471498389309
30
0
41
1
10
98.517865811438
20
0.269768051847421
30
0
41
1
10
98.5189326283349
20
0.196857747676546
30
0
41
1
10
98.5264957409531
20
-0.166590118318794
30
0
41
1
10
98.5396594637965
20
-0.455092812395151
30
0
41
1
10
98.576670879401
20
-1.02797062476276
30
0
41
1
10
98.6005255601966
20
-1.31234487007578
30
0
41
1
10
98.6559460343478
20
-1.87720104811496
30
0
41
1
10
98.6875163946517
20
-2.15768278912134
30
0
41
1
10
98.7301781848616
20
-2.50591835344292
30
0
41
1
10
98.7388584802531
20
-2.57534118246383
30
0
41
1
10
98.7564391032031
20
-2.71347174619186
30
0
41
1
10
98.7831561037033
20
-2.91972187865324
30
0
41
1
10
98.829109352487
20
-3.25880326675247
30
0
41
1
10
98.8667987800105
20
-3.52517268394556
30
0
41
1
10
98.8952122225002
20
-3.72312868388318
30
0
41
1
10
98.9047168589864
20
-3.78887135552674
30
0
41
1
10
98.9236899668932
20
-3.91937862963189
30
0
41
1
10
98.9331587454758
20
-3.98414650004969
30
0
41
1
10
98.9803414034469
20
-4.30558834600438
30
0
41
1
10
99.0175519572909
20
-4.55509018559101
30
0
41
1
10
99.0893806480866
20
-5.03925406257167
30
0
41
1
10
99.1240011585356
20
-5.27391487843195
30
0
41
1
10
99.1895873574879
20
-5.7283644170019
30
0
41
1
10
99.2205585949005
20
-5.94819391323426
30
0
41
1
10
99.2781743749987
20
-6.37230206599224
30
0
41
1
10
99.3044846863878
20
-6.57413378028716
30
0
41
1
10
99.3402894492439
20
-6.86163028649571
30
0
41
1
10
99.3516178437696
20
-6.9549159462249
30
0
41
1
10
99.373119888733
20
-7.13635227544171
30
0
41
1
10
99.3832998900467
20
-7.22456512335657
30
0
41
1
10
99.4120964973748
20
-7.48006263261087
30
0
41
1
10
99.4290110706024
20
-7.63867972107158
30
0
41
1
10
99.4480937436226
20
-7.82228410211383
30
0
41
1
10
99.4518083657039
20
-7.85827004855315
30
0
41
1
10
99.4590582282886
20
-7.92876513987088
30
0
41
1
10
99.4625968833271
20
-7.96330765557408
30
0
41
1
10
99.4729563345709
20
-8.06444109688962
30
0
41
1
10
99.4795139276125
20
-8.12847747665049
30
0
41
1
10
99.498518511961
20
-8.31062942216383
30
0
41
1
10
99.5102877119086
20
-8.41880952364582
30
0
41
1
10
99.5342504217053
20
-8.60917009896559
30
0
41
1
10
99.5464417248681
20
-8.69134689040743
30
0
41
1
10
99.573807045884
20
-8.82953857152603
30
0
41
1
10
99.5889766649204
20
-8.88555435190784
30
0
41
1
10
99.6071432547107
20
-8.92806212176998
30
0
0
SPLINE
5
DF
100
AcDbEntity
8
1
62
256
6
ByLayer
370
18
48
1
60
0
100
AcDbSpline
70
4
71
3
72
19
73
15
40
0
40
0
40
0
40
0
40
0.250000000000046
40
0.250000000000046
40
0.375000000000038
40
0.375000000000038
40
0.500000000000031
40
0.625000000000023
40
0.625000000000023
40
0.750000000000015
40
0.750000000000015
40
0.875000000000008
40
0.875000000000008
40
1
40
1
40
1
40
1
41
1
10
3.63028344714164
20
7.75812636144749
30
0
41
1
10
3.61050833340386
20
7.76426180848679
30
0
41
1
10
3.59261206377272
20
7.77174025207987
30
0
41
1
10
3.5685075252793
20
7.78487956879144
30
0
41
1
10
3.56089770862408
20
7.78961777259977
30
0
41
1
10
3.5470416809203
20
7.79948676470772
30
0
41
1
10
3.53444979790839
20
7.80978877118824
30
0
41
1
10
3.52434781571813
20
7.82093167626411
30
0
41
1
10
3.51553999135621
20
7.83250624082797
30
0
41
1
10
3.51187092364597
20
7.83839767016693
30
0
41
1
10
3.50598548494122
20
7.85031664132501
30
0
41
1
10
3.50376168748357
20
7.85635418136593
30
0
41
1
10
3.50076716756442
20
7.86858444452679
30
0
41
1
10
3.49999999999992
20
7.87480286198229
30
0
41
1
10
3.49999999999992
20
7.88100274956813
30
0
0
SPLINE
5
E0
100
AcDbEntity
8
1
62
256
6
ByLayer
370
18
48
1
60
0
100
AcDbSpline
70
4
71
3
72
23
73
19
40
0
40
0
40
0
40
0
40
0.043034815203888
40
0.043034815203888
40
0.0860696304077761
40
0.172139260815552
40
0.344278521631101
40
0.344278521631101
40
0.516417782446649
40
0.516417782446649
40
0.688557043262198
40
0.688557043262198
40
0.731591858466086
40
0.731591858466086
40
0.774626673669973
40
0.860696304077749
40
0.860696304077749
40
1
40
1
40
1
40
1
41
1
10
39.9999999999895
20
9.17736734988998
30
0
41
1
10
39.8720491661506
20
9.16024145887249
30
0
41
1
10
39.7440198283629
20
9.14235269551281
30
0
41
1
10
39.4881291695699
20
9.10510232413637
30
0
41
1
10
39.1044545307922
20
9.04700583730389
30
0
41
1
10
38.2102076133161
20
8.89599650632121
30
0
41
1
10
37.4447677738926
20
8.740533216458
30
0
41
1
10
36.4242243414481
20
8.51081170227701
30
0
41
1
10
35.9139640288535
20
8.3847418411635
30
0
41
1
10
34.8926447578395
20
8.11081462345183
30
0
41
1
10
34.3815908672307
20
7.96294716132405
30
0
41
1
10
33.7416230363454
20
7.76502008005508
30
0
41
1
10
33.613625876751
20
7.72479564139658
30
0
41
1
10
33.3577815025117
20
7.6431393991046
30
0
41
1
10
32.9741629088777
20
7.51881871479873
30
0
41
1
10
32.5909218069343
20
7.3890737758056
30
0
41
1
10
31.922201686224
20
7.15646034754471
30
0
41
1
10
31.5091658237
20
7.00654523585254
30
0
41
1
10
31.0961962866485
20
6.85079368906585
30
0
0
SPLINE
5
E1
100
AcDbEntity
8
1
62
256
6
ByLayer
370
18
48
1
60
0
100
AcDbSpline
70
4
71
3
72
106
73
102
40
0
40
0
40
0
40
0
40
0.015625000000001
40
0.0234375000000015
40
0.0234375000000015
40
0.0312500000000021
40
0.0312500000000021
40
0.0625000000000036
40
0.0625000000000036
40
0.0937500000000052
40
0.0937500000000052
40
0.125000000000007
40
0.125000000000007
40
0.156250000000008
40
0.156250000000008
40
0.18750000000001
40
0.18750000000001
40
0.19531250000001
40
0.19531250000001
40
0.20312500000001
40
0.20312500000001
40
0.21875000000001
40
0.21875000000001
40
0.250000000000011
40
0.250000000000011
40
0.281250000000013
40
0.281250000000013
40
0.289062500000013
40
0.289062500000013
40
0.296875000000013
40
0.296875000000013
40
0.312500000000014
40
0.312500000000014
40
0.343750000000015
40
0.343750000000015
40
0.375000000000017
40
0.375000000000017
40
0.390625000000018
40
0.390625000000018
40
0.398437500000018
40
0.398437500000018
40
0.406250000000019
40
0.437500000000019
40
0.437500000000019
40
0.468750000000019
40
0.468750000000019
40
0.484375000000019
40
0.49218750000002
40
0.49218750000002
40
0.50000000000002
40
0.50000000000002
40
0.531250000000021
40
0.531250000000021
40
0.546875000000022
40
0.546875000000022
40
0.562500000000022
40
0.562500000000022
40
0.593750000000023
40
0.593750000000023
40
0.601562500000024
40
0.601562500000024
40
0.609375000000024
40
0.625000000000025
40
0.640625000000025
40
0.640625000000025
40
0.656250000000026
40
0.656250000000026
40
0.671875000000026
40
0.671875000000026
40
0.687500000000027
40
0.687500000000027
40
0.718750000000028
40
0.718750000000028
40
0.726562500000028
40
0.726562500000028
40
0.734375000000028
40
0.734375000000028
40
0.750000000000028
40
0.750000000000028
40
0.781250000000028
40
0.781250000000028
40
0.796875000000028
40
0.796875000000028
40
0.804687500000027
40
0.804687500000027
40
0.812500000000027
40
0.843750000000023
40
0.843750000000023
40
0.851562500000021
40
0.851562500000021
40
0.859375000000019
40
0.875000000000016
40
0.875000000000016
40
0.906250000000011
40
0.906250000000011
40
0.921875000000009
40
0.921875000000009
40
0.929687500000008
40
0.929687500000008
40
0.937500000000007
40
1
40
1
40
1
40
1
41
1
10
40
20
9.06084511621989
30
0
41
1
10
40.3107786996247
20
9.10996734795285
30
0
41
1
10
40.7768407981963
20
9.17708497211876
30
0
41
1
10
41.2429711116483
20
9.23424284262032
30
0
41
1
10
41.5537659489561
20
9.27012217184645
30
0
41
1
10
41.709227330411
20
9.28695319714029
30
0
41
1
10
42.4861903336822
20
9.36546115162474
30
0
41
1
10
43.1056511143664
20
9.4101023120154
30
0
41
1
10
44.3420985531211
20
9.4632137271698
30
0
41
1
10
44.9591078488335
20
9.47168378583928
30
0
41
1
10
46.1923216995763
20
9.45273462119374
30
0
41
1
10
46.8084857782459
20
9.42531853237918
30
0
41
1
10
48.0413722767009
20
9.33480979527459
30
0
41
1
10
48.6580951291864
20
9.27171160259596
30
0
41
1
10
49.8937307477446
20
9.11006718451935
30
0
41
1
10
50.5126449738834
20
9.01151726165972
30
0
41
1
10
51.2887760640061
20
8.86642809021535
30
0
41
1
10
51.4441978748284
20
8.83630125541507
30
0
41
1
10
51.7549262543561
20
8.77394735171714
30
0
41
1
10
51.9102138148327
20
8.74172533308007
30
0
41
1
10
52.3758903748929
20
8.64196497995215
30
0
41
1
10
52.6860953690219
20
8.5713337617411
30
0
41
1
10
53.6163001587814
20
8.34738803484538
30
0
41
1
10
54.235860131534
20
8.18200431327867
30
0
41
1
10
55.4752019295066
20
7.82039006829669
30
0
41
1
10
56.0949838322708
20
7.62415423346559
30
0
41
1
10
56.870834172562
20
7.36047722231572
30
0
41
1
10
57.0260608633957
20
7.30682320290782
30
0
41
1
10
57.3366539358881
20
7.19770270861454
30
0
41
1
10
57.4920750819132
20
7.1422162173389
30
0
41
1
10
57.9581308707783
20
6.97324373909248
30
0
41
1
10
58.2685015942129
20
6.85726791076505
30
0
41
1
10
59.1989451292493
20
6.49981522752051
30
0
41
1
10
59.8183485092815
20
6.24880870713895
30
0
41
1
10
61.0571736408209
20
5.72394524409802
30
0
41
1
10
61.6766224190544
20
5.45013066579912
30
0
41
1
10
62.6070586726252
20
5.02410704880862
30
0
41
1
10
62.9174064057337
20
4.87953649632382
30
0
41
1
10
63.3833670105391
20
4.65903034416405
30
0
41
1
10
63.5388157515661
20
4.58489334721426
30
0
41
1
10
63.8495402781298
20
4.43560246754922
30
0
41
1
10
64.6259479366815
20
4.05982461103403
30
0
41
1
10
65.4006304161147
20
3.67179722725649
30
0
41
1
10
66.6395565062627
20
3.0380967353673
30
0
41
1
10
67.2587382700225
20
2.71481999456185
30
0
41
1
10
68.1883896716129
20
2.2225195095057
30
0
41
1
10
68.6534359032908
20
1.97452482118521
30
0
41
1
10
69.1190614144589
20
1.7241985229486
30
0
41
1
10
69.4296348275267
20
1.55684495700845
30
0
41
1
10
69.5850394425736
20
1.47291255057795
30
0
41
1
10
70.3618065105363
20
1.05256613630709
30
0
41
1
10
70.9826623731568
20
0.713945835996014
30
0
41
1
10
71.9142831425888
20
0.204642864442747
30
0
41
1
10
72.2248805628949
20
0.034648253391822
30
0
41
1
10
72.8463959894173
20
-0.305418407590707
30
0
41
1
10
73.1569999375854
20
-0.475318240464134
30
0
41
1
10
74.0885826390198
20
-0.983995926859762
30
0
41
1
10
74.7093747232195
20
-1.32176192014472
30
0
41
1
10
75.4860723747403
20
-1.74039270016092
30
0
41
1
10
75.641464445737
20
-1.82395029559626
30
0
41
1
10
75.9521304517381
20
-1.99054941959531
30
0
41
1
10
76.4180224441501
20
-2.23971188938714
30
0
41
1
10
77.1941652343521
20
-2.6509637174488
30
0
41
1
10
77.8151258578986
20
-2.97494905026352
30
0
41
1
10
78.4363180182233
20
-3.2960592548813
30
0
41
1
10
78.7470784790118
20
-3.45520052738485
30
0
41
1
10
79.3683936367501
20
-3.76991787653466
30
0
41
1
10
79.679021218863
20
-3.92553208600143
30
0
41
1
10
80.3004169374437
20
-4.23293371960241
30
0
41
1
10
80.6109911442399
20
-4.38462470017896
30
0
41
1
10
81.542409369153
20
-4.83304519161305
30
0
41
1
10
82.1630542484835
20
-5.12317583042872
30
0
41
1
10
82.9395757667367
20
-5.47310428244788
30
0
41
1
10
83.094934440506
20
-5.54246121387266
30
0
41
1
10
83.4056029112712
20
-5.67979348435506
30
0
41
1
10
83.5609243797504
20
-5.74777423942618
30
0
41
1
10
84.0268917311915
20
-5.94960163703979
30
0
41
1
10
84.3375892347461
20
-6.081351967525
30
0
41
1
10
85.2696543244906
20
-6.46761871513346
30
0
41
1
10
85.8904127552526
20
-6.71292197872216
30
0
41
1
10
86.8218141260109
20
-7.06102462173348
30
0
41
1
10
87.1323264058775
20
-7.17374839793521
30
0
41
1
10
87.5983202329063
20
-7.33766558805138
30
0
41
1
10
87.7536639534711
20
-7.39143392540532
30
0
41
1
10
88.0642390527249
20
-7.49714352439176
30
0
41
1
10
88.8405148204893
20
-7.75689207991243
30
0
41
1
10
89.6162911133522
20
-7.99367843369598
30
0
41
1
10
90.3927373204111
20
-8.21098159182483
30
0
41
1
10
90.5480953157909
20
-8.2534772071883
30
0
41
1
10
90.8586852507078
20
-8.33643397115085
30
0
41
1
10
91.3243969722541
20
-8.45782163888643
30
0
41
1
10
91.7896998149469
20
-8.5699922535434
30
0
41
1
10
92.7200385910963
20
-8.78185204350015
30
0
41
1
10
93.3399038923199
20
-8.90645229630391
30
0
41
1
10
94.2703722449189
20
-9.06753254491957
30
0
41
1
10
94.5806413447334
20
-9.11692176632184
30
0
41
1
10
95.0463751829532
20
-9.18443880135374
30
0
41
1
10
95.2017136153083
20
-9.20585472409073
30
0
41
1
10
95.5122235746214
20
-9.24644105334986
30
0
41
1
10
96.9089732822047
20
-9.41901606551693
30
0
41
1
10
98.3019466165836
20
-9.50062703197511
30
0
41
1
10
99.5439551300548
20
-9.49997920869515
30
0
0
SPLINE
5
E2
100
AcDbEntity
8
1
62
256
6
ByLayer
370
18
48
1
60
0
100
AcDbSpline
70
4
71
3
72
12
73
8
40
0
40
0
40
0
40
0
40
0.5
40
0.5
40
0.75
40
0.75
40
1
40
1
40
1
40
1
41
1
10
99.54395513006
20
-9.49997920869518
30
0
41
1
10
99.5246983939941
20
-9.50044401204127
30
0
41
1
10
99.5083669696951
20
-9.49272173386746
30
0
41
1
10
99.4872811610628
20
-9.46847032997042
30
0
41
1
10
99.4808141884185
20
-9.45824847180344
30
0
41
1
10
99.4689415200803
20
-9.43371466879717
30
0
41
1
10
99.4635222313585
20
-9.41939514015132
30
0
41
1
10
99.4585233816989
20
-9.40304931288418
30
0
0
SPLINE
5
E3
100
AcDbEntity
8
1
62
256
6
ByLayer
370
18
48
1
60
0
100
AcDbSpline
70
4
71
3
72
28
73
24
40
0
40
0
40
0
40
0
40
0.125
40
0.125
40
0.250000000000001
40
0.250000000000001
40
0.375000000000001
40
0.375000000000001
40
0.406250000000002
40
0.406250000000002
40
0.437500000000003
40
0.500000000000004
40
0.500000000000004
40
0.625000000000003
40
0.625000000000003
40
0.687500000000003
40
0.687500000000003
40
0.718750000000003
40
0.718750000000003
40
0.750000000000003
40
0.750000000000003
40
0.875000000000001
40
1
40
1
40
1
40
1
41
1
10
3.3892702038842
20
1.51792765445799
30
0
41
1
10
3.27136845842867
20
1.37046359441359
30
0
41
1
10
3.15869378911447
20
1.21953564381892
30
0
41
1
10
2.9449365405099
20
0.909984400981415
30
0
41
1
10
2.84384950086371
20
0.751364087770781
30
0
41
1
10
2.65476020242201
20
0.425423909459681
30
0
41
1
10
2.56675022741291
20
0.258109182396822
30
0
41
1
10
2.46618430327345
20
0.0426770969899053
30
0
41
1
10
2.44653093694097
20
-0.0007574118574212
30
0
41
1
10
2.40827346979657
20
-0.0881421051875577
30
0
41
1
10
2.35261464983623
20
-0.219637087079349
30
0
41
1
10
2.30222024939022
20
-0.352405043669194
30
0
41
1
10
2.2087056566599
20
-0.619698082811851
30
0
41
1
10
2.15604439444209
20
-0.800232062231487
30
0
41
1
10
2.09286572190754
20
-1.07484683535659
30
0
41
1
10
2.07444569578752
20
-1.16702170933715
30
0
41
1
10
2.05097886197183
20
-1.30628764640477
30
0
41
1
10
2.04385078366144
20
-1.35287697802207
30
0
41
1
10
2.03102136154203
20
-1.44639953202727
30
0
41
1
10
2.02532216034859
20
-1.49334503622592
30
0
41
1
10
2.00064676299422
20
-1.72721015718761
30
0
41
1
10
1.98517700864497
20
-2.09862998279138
30
0
41
1
10
2.01731763306577
20
-2.46457044288809
30
0
41
1
10
2.04537666554023
20
-2.6461676384024
30
0
0
SPLINE
5
E4
100
AcDbEntity
8
1
62
256
6
ByLayer
370
18
48
1
60
0
100
AcDbSpline
70
4
71
3
72
51
73
47
40
0
40
0
40
0
40
0
40
0.0156249999999994
40
0.0156249999999994
40
0.0312499999999989
40
0.0624999999999978
40
0.124999999999996
40
0.124999999999996
40
0.187499999999994
40
0.187499999999994
40
0.249999999999991
40
0.249999999999991
40
0.26562499999999
40
0.26562499999999
40
0.281249999999989
40
0.312499999999988
40
0.312499999999988
40
0.374999999999987
40
0.374999999999987
40
0.437499999999987
40
0.437499999999987
40
0.468749999999985
40
0.468749999999985
40
0.484374999999985
40
0.484374999999985
40
0.499999999999984
40
0.499999999999984
40
0.562499999999986
40
0.562499999999986
40
0.624999999999988
40
0.624999999999988
40
0.68749999999999
40
0.68749999999999
40
0.718749999999991
40
0.718749999999991
40
0.734374999999992
40
0.734374999999992
40
0.749999999999992
40
0.749999999999992
40
0.812499999999994
40
0.812499999999994
40
0.874999999999996
40
0.874999999999996
40
0.937499999999998
40
0.937499999999998
40
1
40
1
40
1
40
1
41
1
10
39.9999999999895
20
-9.17736734988998
30
0
41
1
10
39.8720491661507
20
-9.16024145887246
30
0
41
1
10
39.7440198283629
20
-9.14235269551278
30
0
41
1
10
39.4881291695698
20
-9.10510232413637
30
0
41
1
10
39.1044545307923
20
-9.04700583730389
30
0
41
1
10
38.2102076133162
20
-8.89599650632118
30
0
41
1
10
37.4447677738926
20
-8.740533216458
30
0
41
1
10
36.4242243414481
20
-8.51081170227698
30
0
41
1
10
35.9139640288534
20
-8.3847418411635
30
0
41
1
10
34.8926447578395
20
-8.1108146234518
30
0
41
1
10
34.3815908672307
20
-7.96294716132405
30
0
41
1
10
33.7416230363454
20
-7.76502008005508
30
0
41
1
10
33.613625876751
20
-7.72479564139658
30
0
41
1
10
33.3577815025117
20
-7.64313939910457
30
0
41
1
10
32.9741629088776
20
-7.51881871479873
30
0
41
1
10
32.5909218069343
20
-7.38907377580557
30
0
41
1
10
31.8247731072674
20
-7.12256994248614
30
0
41
1
10
31.3144674768971
20
-6.93553069447367
30
0
41
1
10
30.2938895819697
20
-6.54384376423212
30
0
41
1
10
29.7835802355631
20
-6.33924334228837
30
0
41
1
10
29.0173980300682
20
-6.02010831286711
30
0
41
1
10
28.7618857010471
20
-5.91168897316484
30
0
41
1
10
28.3783531516914
20
-5.74611258773831
30
0
41
1
10
28.2504651351577
20
-5.6904289850369
30
0
41
1
10
27.9945882627696
20
-5.57809594931223
30
0
41
1
10
27.8665695551423
20
-5.52143329639105
30
0
41
1
10
27.2265462024006
20
-5.23590245051267
30
0
41
1
10
26.7154537336713
20
-5.00065899130701
30
0
41
1
10
25.6940633654356
20
-4.51826660188624
30
0
41
1
10
25.183773319129
20
-4.27110702402967
30
0
41
1
10
24.1631130387186
20
-3.76634524582454
30
0
41
1
10
23.6527411801655
20
-3.50874656634139
30
0
41
1
10
22.8865050098118
20
-3.11554176230584
30
0
41
1
10
22.630971170152
20
-2.98335386635537
30
0
41
1
10
22.2473921497454
20
-2.78355362049692
30
0
41
1
10
22.1194863062027
20
-2.71670012583917
30
0
41
1
10
21.8635675210363
20
-2.58251120888235
30
0
41
1
10
21.7355161101862
20
-2.51515545857842
30
0
41
1
10
21.0955207896455
20
-2.17752762731578
30
0
41
1
10
20.5844055234638
20
-1.90473573110447
30
0
41
1
10
19.5630450571784
20
-1.35540828732746
30
0
41
1
10
19.0528342036221
20
-1.07880990831231
30
0
41
1
10
18.0323462480923
20
-0.523585593816733
30
0
41
1
10
17.5220626882481
20
-0.244971770429231
30
0
41
1
10
16.5005214897334
20
0.312615405457649
30
0
41
1
10
15.9892476487231
20
0.591558512204045
30
0
41
1
10
15.4770767187807
20
0.869929192053263
30
0
0
SPLINE
5
E5
100
AcDbEntity
8
1
62
256
6
ByLayer
370
18
48
1
60
0
100
AcDbSpline
70
4
71
3
72
15
73
11
40
0
40
0
40
0
40
0
40
0.183452587868235
40
0.275178881802353
40
0.275178881802353
40
0.366905175736471
40
0.366905175736471
40
0.733810351472936
40
0.733810351472936
40
1
40
1
40
1
40
1
41
1
10
40
20
-9.06084511621989
30
0
41
1
10
40.3107786996248
20
-9.10996734795285
30
0
41
1
10
40.7768407981963
20
-9.17708497211876
30
0
41
1
10
41.2429711116483
20
-9.23424284262032
30
0
41
1
10
41.5537659489562
20
-9.27012217184648
30
0
41
1
10
41.7092273304111
20
-9.28695319714029
30
0
41
1
10
42.4861903336822
20
-9.36546115162474
30
0
41
1
10
43.1056511143664
20
-9.4101023120154
30
0
41
1
10
44.1723960470023
20
-9.45592418135269
30
0
41
1
10
44.6202780483324
20
-9.46567096132776
30
0
41
1
10
45.0678309339897
20
-9.46595220576808
30
0
0
SPLINE
5
E6
100
AcDbEntity
8
1
62
256
6
ByLayer
370
18
48
1
60
0
100
AcDbSpline
70
4
71
3
72
29
73
25
40
0
40
0
40
0
40
0
40
0.0445642391092152
40
0.0445642391092152
40
0.112809650601429
40
0.112809650601429
40
0.146932356347534
40
0.146932356347534
40
0.181055062093639
40
0.317545885078048
40
0.317545885078048
40
0.351668590824147
40
0.351668590824147
40
0.385791296570246
40
0.454036708062438
40
0.454036708062438
40
0.590527531046824
40
0.590527531046824
40
0.658772942539019
40
0.658772942539019
40
0.692895648285117
40
0.692895648285117
40
0.727018354031214
40
1
40
1
40
1
40
1
41
1
10
85.9031706942002
20
6.71348261222275
30
0
41
1
10
86.1058958142291
20
6.79203891084697
30
0
41
1
10
86.3086120371206
20
6.86922009024971
30
0
41
1
10
86.8218141260109
20
7.06102462173345
30
0
41
1
10
87.1323264058775
20
7.17374839793519
30
0
41
1
10
87.5983202329063
20
7.33766558805135
30
0
41
1
10
87.7536639534712
20
7.39143392540532
30
0
41
1
10
88.064239052725
20
7.49714352439176
30
0
41
1
10
88.8405148204891
20
7.7568920799124
30
0
41
1
10
89.6162911133522
20
7.99367843369598
30
0
41
1
10
90.3927373204111
20
8.2109815918248
30
0
41
1
10
90.5480953157909
20
8.2534772071883
30
0
41
1
10
90.8586852507078
20
8.33643397115083
30
0
41
1
10
91.3243969722541
20
8.45782163888643
30
0
41
1
10
91.7896998149467
20
8.56999225354338
30
0
41
1
10
92.7200385910962
20
8.78185204350012
30
0
41
1
10
93.3399038923197
20
8.90645229630388
30
0
41
1
10
94.2703722449189
20
9.06753254491957
30
0
41
1
10
94.5806413447334
20
9.11692176632181
30
0
41
1
10
95.0463751829532
20
9.18443880135374
30
0
41
1
10
95.2017136153082
20
9.2058547240907
30
0
41
1
10
95.5122235746213
20
9.24644105334983
30
0
41
1
10
96.9089732822046
20
9.4190160655169
30
0
41
1
10
98.3019466165836
20
9.50062703197511
30
0
41
1
10
99.5439551300548
20
9.49997920869515
30
0
0
SPLINE
5
E7
100
AcDbEntity
8
1
62
256
6
ByLayer
370
13
48
1
60
0
100
AcDbSpline
70
4
71
3
72
47
73
43
40
0
40
0
40
0
40
0
40
0.0452899864608093
40
0.0452899864608093
40
0.0794453242316667
40
0.0965229931170959
40
0.0965229931170959
40
0.113600662002526
40
0.113600662002526
40
0.181911337544243
40
0.181911337544243
40
0.250222013085961
40
0.250222013085961
40
0.318532688627678
40
0.318532688627678
40
0.352688026398537
40
0.369765695283966
40
0.369765695283966
40
0.386843364169396
40
0.386843364169396
40
0.455154039711113
40
0.455154039711113
40
0.523464715252831
40
0.523464715252831
40
0.591775390794549
40
0.591775390794549
40
0.660086066336266
40
0.660086066336266
40
0.677163735221696
40
0.677163735221696
40
0.694241404107126
40
0.728396741877986
40
0.728396741877986
40
0.796707417419706
40
0.796707417419706
40
0.865018092961427
40
0.865018092961427
40
0.933328768503147
40
0.933328768503147
40
0.967484106274007
40
0.967484106274007
40
1
40
1
40
1
40
1
41
1
10
16.2485062494049
20
2.20594118962617
30
0
41
1
10
16.5800391987561
20
2.03945366825479
30
0
41
1
10
16.9116721125862
20
1.87168471230476
30
0
41
1
10
17.4937978385764
20
1.57555522238974
30
0
41
1
10
17.8693931843126
20
1.38369367760836
30
0
41
1
10
18.2453794170703
20
1.19068342864154
30
0
41
1
10
18.4961354001107
20
1.06177594976506
30
0
41
1
10
18.6215348832397
20
0.997219443135464
30
0
41
1
10
19.2481407868548
20
0.67425025217662
30
0
41
1
10
19.7486575178191
20
0.415029692119987
30
0
41
1
10
20.7490262533884
20
-0.103415906800677
30
0
41
1
10
21.2488786860237
20
-0.362640041165321
30
0
41
1
10
22.2486346540568
20
-0.879701860048385
30
0
41
1
10
22.748539204184
20
-1.1375377528486
30
0
41
1
10
23.4990814836507
20
-1.52200256922816
30
0
41
1
10
23.8745239240155
20
-1.71366276125832
30
0
41
1
10
24.2503237105767
20
-1.90426974873216
30
0
41
1
10
24.5009475986717
20
-2.03108509114079
30
0
41
1
10
24.626334926919
20
-2.09437996908835
30
0
41
1
10
25.2531547844333
20
-2.40997140294562
30
0
41
1
10
25.7537783976156
20
-2.65938538690219
30
0
41
1
10
26.7542503125496
20
-3.15052223296738
30
0
41
1
10
27.2541213741728
20
-3.39222512764593
30
0
41
1
10
28.2537892053395
20
-3.86666231113961
30
0
41
1
10
28.7535751328799
20
-4.09941006688589
30
0
41
1
10
29.7539553831153
20
-4.5543998836057
30
0
41
1
10
30.2545756094711
20
-4.77662954748132
30
0
41
1
10
30.8812952182397
20
-5.0470582544732
30
0
41
1
10
31.0066902067339
20
-5.10077804075681
30
0
41
1
10
31.2573119408618
20
-5.20734264285329
30
0
41
1
10
31.6330954171394
20
-5.36592192339242
30
0
41
1
10
32.0084962981938
20
-5.52060866436975
30
0
41
1
10
32.7589610428976
20
-5.82455178838632
30
0
41
1
10
33.2588557502144
20
-6.01995242480834
30
0
41
1
10
34.2584386396629
20
-6.39526061345308
30
0
41
1
10
34.7581194694441
20
-6.57517117129461
30
0
41
1
10
35.758216210324
20
-6.91829954556346
30
0
41
1
10
36.2586017277376
20
-7.08156946428204
30
0
41
1
10
37.0102210970761
20
-7.31321052172757
30
0
41
1
10
37.2610197747693
20
-7.38823040585012
30
0
41
1
10
37.750167609189
20
-7.52997033631286
30
0
41
1
10
37.988622141501
20
-7.59694305027415
30
0
41
1
10
38.2270190828624
20
-7.66171849188211
30
0
0
SPLINE
5
E8
100
AcDbEntity
8
1
62
256
6
ByLayer
370
18
48
1
60
0
100
AcDbSpline
70
4
71
3
72
26
73
22
40
0
40
0
40
0
40
0
40
0.0036820836794563
40
0.0036820836794563
40
0.157103372174171
40
0.157103372174171
40
0.310524660668885
40
0.310524660668885
40
0.348879982792563
40
0.348879982792563
40
0.387235304916242
40
0.387235304916242
40
0.463945949163597
40
0.463945949163597
40
0.617367237658308
40
0.617367237658308
40
0.770788526153019
40
0.770788526153019
40
0.92420981464773
40
0.92420981464773
40
1
40
1
40
1
40
1
41
1
10
38.2270190820358
20
-7.6617184916575
30
0
41
1
10
38.2390390024502
20
-7.6649844549226
30
0
41
1
10
38.2510587764596
20
-7.66824483238338
30
0
41
1
10
38.763900187564
20
-7.80711671292477
30
0
41
1
10
39.2644484835059
20
-7.93307970116064
30
0
41
1
10
40.2657344569994
20
-8.16488718012982
30
0
41
1
10
40.766490509328
20
-8.27072223571
30
0
41
1
10
41.3931211202113
20
-8.38999578227623
30
0
41
1
10
41.5185079525018
20
-8.41320439813296
30
0
41
1
10
41.7690890952139
20
-8.45826558712318
30
0
41
1
10
41.8943101867399
20
-8.48012385694784
30
0
41
1
10
42.2697808050167
20
-8.54367689060052
30
0
41
1
10
42.5198388503614
20
-8.58334747062747
30
0
41
1
10
43.2694080295306
20
-8.69417244655321
30
0
41
1
10
43.7683131409503
20
-8.75715435736313
30
0
41
1
10
44.7652946721467
20
-8.86110514833979
30
0
41
1
10
45.2633875610241
20
-8.90213940292955
30
0
41
1
10
46.2595034933623
20
-8.96200868254445
30
0
41
1
10
46.757537387385
20
-8.98084191434907
30
0
41
1
10
47.5021806016152
20
-8.99233756718462
30
0
41
1
10
47.7484930976693
20
-8.99342207395839
30
0
41
1
10
47.9949409572135
20
-8.99177079451556
30
0
0
SPLINE
5
E9
100
AcDbEntity
8
1
62
256
6
ByLayer
370
13
48
1
60
0
100
AcDbSpline
70
4
71
3
72
39
73
35
40
0
40
0
40
0
40
0
40
0.0154608072149975
40
0.0154608072149975
40
0.0368155517335025
40
0.0368155517335025
40
0.0795250407705106
40
0.0795250407705106
40
0.164944018844527
40
0.164944018844527
40
0.250362996918543
40
0.250362996918543
40
0.335781974992559
40
0.335781974992559
40
0.421200953066574
40
0.421200953066574
40
0.463910442103583
40
0.485265186622086
40
0.485265186622086
40
0.506619931140589
40
0.506619931140589
40
0.592038909214599
40
0.592038909214599
40
0.67745788728861
40
0.67745788728861
40
0.720167376325614
40
0.720167376325614
40
0.762876865362619
40
0.762876865362619
40
0.848295843436627
40
0.848295843436627
40
0.933714821510635
40
0.933714821510635
40
1
40
1
40
1
40
1
41
1
10
50.115925661199
20
-8.99269539065091
30
0
41
1
10
50.0251634486702
20
-8.99971756932089
30
0
41
1
10
49.9344176123391
20
-9.00636847511709
30
0
41
1
10
49.7184506692228
20
-9.02131402099744
30
0
41
1
10
49.5932478702244
20
-9.02927115404151
30
0
41
1
10
49.2178280762798
20
-9.05101125114527
30
0
41
1
10
48.9678029007547
20
-9.06266854200928
30
0
41
1
10
48.2183020340975
20
-9.08910536557576
30
0
41
1
10
47.7193883022957
20
-9.09531817155681
30
0
41
1
10
46.7223425447961
20
-9.08520651803465
30
0
41
1
10
46.2242174404636
20
-9.06887484051705
30
0
41
1
10
45.2279148206236
20
-9.0137371746998
30
0
41
1
10
44.7297350514509
20
-8.97492965613679
30
0
41
1
10
43.7325779102995
20
-8.87513096065828
30
0
41
1
10
43.2335737048707
20
-8.81408288546888
30
0
41
1
10
42.4838371341894
20
-8.70592744637801
30
0
41
1
10
42.1086617453387
20
-8.64769827562108
30
0
41
1
10
41.7329069814193
20
-8.58330655808547
30
0
41
1
10
41.4822628824608
20
-8.53901437181966
30
0
41
1
10
41.3568404457879
20
-8.5161794569517
30
0
41
1
10
40.7300207835573
20
-8.39871976258448
30
0
41
1
10
40.2291201077289
20
-8.2941707929312
30
0
41
1
10
39.227551136529
20
-8.06460744084697
30
0
41
1
10
38.7268713512841
20
-7.93959716549873
30
0
41
1
10
37.9754420076123
20
-7.73733565281273
30
0
41
1
10
37.7249025069525
20
-7.66744550026169
30
0
41
1
10
37.2235858532425
20
-7.52282474452991
30
0
41
1
10
36.9727089396075
20
-7.44806271410272
30
0
41
1
10
36.2208548517933
20
-7.21706660486851
30
0
41
1
10
35.7203333207812
20
-7.05405275330151
30
0
41
1
10
34.7199862206309
20
-6.7110824419303
30
0
41
1
10
34.2201832622231
20
-6.53108114348026
30
0
41
1
10
33.3323323651052
20
-6.19735847772125
30
0
41
1
10
32.9443398131012
20
-6.04676931946108
30
0
41
1
10
32.5561385737336
20
-5.89164729790011
30
0
0
SPLINE
5
EA
100
AcDbEntity
8
1
62
256
6
ByLayer
370
18
48
1
60
0
100
AcDbSpline
70
4
71
3
72
30
73
26
40
0
40
0
40
0
40
0
40
0.0275015371424684
40
0.0275015371424684
40
0.0888888925878159
40
0.11958257031049
40
0.11958257031049
40
0.150276248033163
40
0.150276248033163
40
0.27305095892386
40
0.27305095892386
40
0.395825669814558
40
0.395825669814558
40
0.518600380705254
40
0.518600380705254
40
0.641375091595952
40
0.641375091595952
40
0.672068769318625
40
0.672068769318625
40
0.702762447041299
40
0.764149802486646
40
0.764149802486646
40
0.886924513377338
40
0.886924513377338
40
1
40
1
40
1
40
1
41
1
10
32.5561395018982
20
-5.89164766878707
30
0
41
1
10
32.4440814915959
20
-5.84687021180679
30
0
41
1
10
32.3320060925628
20
-5.80171505688338
30
0
41
1
10
31.9696944555524
20
-5.65456507320616
30
0
41
1
10
31.5941976408558
20
-5.49935434103077
30
0
41
1
10
31.2183103496449
20
-5.34015690821812
30
0
41
1
10
30.9676175897026
20
-5.23315919648903
30
0
41
1
10
30.8421854448379
20
-5.17921194870823
30
0
41
1
10
30.2152648850873
20
-4.90758896322384
30
0
41
1
10
29.7145081682112
20
-4.68422976626681
30
0
41
1
10
28.7138746091675
20
-4.22665490170897
30
0
41
1
10
28.2139629152803
20
-3.99246876135817
30
0
41
1
10
27.2140454145517
20
-3.51484894772346
30
0
41
1
10
26.7140584882896
20
-3.27138559920425
30
0
41
1
10
25.7133448786363
20
-2.77641116655107
30
0
41
1
10
25.2125900357693
20
-2.52493134421596
30
0
41
1
10
24.5855907590105
20
-2.20656576005243
30
0
41
1
10
24.4601630474418
20
-2.14270452479118
30
0
41
1
10
24.2094636981882
20
-2.01474159570463
30
0
41
1
10
23.8335537678973
20
-1.82238829317404
30
0
41
1
10
23.4580087581113
20
-1.62890883276182
30
0
41
1
10
22.7072670491356
20
-1.240713541145
30
0
41
1
10
22.2072366843415
20
-0.980269050501505
30
0
41
1
10
21.2467363154642
20
-0.478381542620184
30
0
41
1
10
20.7862624314812
20
-0.237061294769262
30
0
41
1
10
20.3255257317503
20
0.0044004132759596
30
0
0
SPLINE
5
EB
100
AcDbEntity
8
1
62
256
6
ByLayer
370
18
48
1
60
0
100
AcDbSpline
70
4
71
3
72
95
73
91
40
0
40
0
40
0
40
0
40
0.0294795646973234
40
0.0294795646973234
40
0.059808328300533
40
0.059808328300533
40
0.0749727101021381
40
0.0749727101021381
40
0.0901370919037433
40
0.0901370919037433
40
0.120465855506954
40
0.120465855506954
40
0.150794619110164
40
0.150794619110164
40
0.165959000911769
40
0.165959000911769
40
0.181123382713374
40
0.181123382713374
40
0.211452146316584
40
0.211452146316584
40
0.226616528118189
40
0.226616528118189
40
0.241780909919794
40
0.272109673523005
40
0.272109673523005
40
0.28727405532461
40
0.294856246225413
40
0.294856246225413
40
0.302438437126215
40
0.302438437126215
40
0.332767200729425
40
0.332767200729425
40
0.363095964332635
40
0.363095964332635
40
0.37826034613424
40
0.37826034613424
40
0.393424727935844
40
0.393424727935844
40
0.423753491539054
40
0.423753491539054
40
0.438917873340658
40
0.438917873340658
40
0.454082255142263
40
0.454082255142263
40
0.469246636943868
40
0.469246636943868
40
0.484411018745472
40
0.484411018745472
40
0.514739782348681
40
0.514739782348681
40
0.54506854595189
40
0.54506854595189
40
0.560232927753494
40
0.560232927753494
40
0.575397309555098
40
0.575397309555098
40
0.636054836761516
40
0.636054836761516
40
0.643637027662319
40
0.643637027662319
40
0.65121921856312
40
0.65121921856312
40
0.666383600364724
40
0.666383600364724
40
0.696712363967931
40
0.696712363967931
40
0.727041127571138
40
0.727041127571138
40
0.742205509372741
40
0.742205509372741
40
0.757369891174345
40
0.772534272975948
40
0.772534272975948
40
0.787698654777552
40
0.787698654777552
40
0.818027418380759
40
0.818027418380759
40
0.848356181983965
40
0.848356181983965
40
0.863520563785569
40
0.863520563785569
40
0.878684945587173
40
0.878684945587173
40
0.90901370919038
40
0.90901370919038
40
0.924178090991983
40
0.924178090991983
40
0.939342472793587
40
0.939342472793587
40
1
40
1
40
1
40
1
41
1
10
53.0165767202517
20
-9.00010740725025
30
0
41
1
10
52.5311039587944
20
-9.08250008337717
30
0
41
1
10
52.0461578620208
20
-9.15417558030046
30
0
41
1
10
51.0625956880528
20
-9.27756655171882
30
0
41
1
10
50.5639771448101
20
-9.3286423010417
30
0
41
1
10
49.8156338405511
20
-9.38778756110224
30
0
41
1
10
49.5661162815675
20
-9.40459129137264
30
0
41
1
10
49.0668455722753
20
-9.43234048000329
30
0
41
1
10
48.8169960873615
20
-9.44328740137362
30
0
41
1
10
48.0679465189231
20
-9.46725412884865
30
0
41
1
10
47.569080631917
20
-9.47142206180882
30
0
41
1
10
46.5715499024717
20
-9.45620938756872
30
0
41
1
10
46.0728876522833
20
-9.43682584274345
30
0
41
1
10
45.3243705803618
20
-9.3901489362157
30
0
41
1
10
45.0747772438314
20
-9.37165706797904
30
0
41
1
10
44.5753222526469
20
-9.32881522236383
30
0
41
1
10
44.3254762053864
20
-9.30446420459845
30
0
41
1
10
43.5762715903044
20
-9.22276303057879
30
0
41
1
10
43.0769443166393
20
-9.1567408717263
30
0
41
1
10
42.3275333799274
20
-9.04064851764608
30
0
41
1
10
42.0777686268352
20
-8.99912337206038
30
0
41
1
10
41.5785522548153
20
-8.91055198329443
30
0
41
1
10
40.8300398770858
20
-8.7693898894002
30
0
41
1
10
40.0820270776299
20
-8.60363009492036
30
0
41
1
10
39.3336727372351
20
-8.42197365628124
30
0
41
1
10
38.9594107258147
20
-8.32717136937259
30
0
41
1
10
38.5848999075991
20
-8.22650130680938
30
0
41
1
10
38.3351591158704
20
-8.15809270211173
30
0
41
1
10
38.2102303529234
20
-8.12323365182667
30
0
41
1
10
37.5857297538618
20
-7.94581895897863
30
0
41
1
10
37.0867221042677
20
-7.79394892052588
30
0
41
1
10
36.0889722864725
20
-7.47135767245217
30
0
41
1
10
35.5902265384908
20
-7.30064313428511
30
0
41
1
10
34.841714110213
20
-7.03110974619133
30
0
41
1
10
34.5921452049577
20
-6.93902019962096
30
0
41
1
10
34.0927563937619
20
-6.75049081900005
30
0
41
1
10
33.8428662571847
20
-6.6540227571235
30
0
41
1
10
33.0934399311606
20
-6.35862852267269
30
0
41
1
10
32.5940294354099
20
-6.1536180555569
30
0
41
1
10
31.8446203620461
20
-5.83480717811409
30
0
41
1
10
31.5947398134972
20
-5.72665171915938
30
0
41
1
10
31.0951543294384
20
-5.50693396213259
30
0
41
1
10
30.8454016010046
20
-5.39535193560408
30
0
41
1
10
30.3458608331015
20
-5.16891767291997
30
0
41
1
10
30.0960743258684
20
-5.05406341434698
30
0
41
1
10
29.5963948093907
20
-4.8211921514725
30
0
41
1
10
29.3465336782457
20
-4.70319204373001
30
0
41
1
10
28.5975104952907
20
-4.34517723724778
30
0
41
1
10
28.0986156306328
20
-4.10101023690356
30
0
41
1
10
27.1008145687158
20
-3.60324038459135
30
0
41
1
10
26.6019349320899
20
-3.34959416279921
30
0
41
1
10
25.8530397898713
20
-2.96300215682535
30
0
41
1
10
25.6032952337076
20
-2.83311759589819
30
0
41
1
10
25.1035448389996
20
-2.5715424969805
30
0
41
1
10
24.853818399093
20
-2.43999868462086
30
0
41
1
10
23.6056462359765
20
-1.77901165768648
30
0
41
1
10
22.6086428450778
20
-1.23965224148716
30
0
41
1
10
21.48490436836
20
-0.627933759170219
30
0
41
1
10
21.3600147425547
20
-0.559897371401632
30
0
41
1
10
21.1101631271471
20
-0.423712444516383
30
0
41
1
10
20.9851946793624
20
-0.355560372779564
30
0
41
1
10
20.610465959444
20
-0.151136991339371
30
0
41
1
10
20.3607823574511
20
-0.0148438075256081
30
0
41
1
10
19.6119838851515
20
0.39378577831755
30
0
41
1
10
19.113117727635
20
0.665865407957455
30
0
41
1
10
18.1151571598705
20
1.20770750377139
30
0
41
1
10
17.6160663508489
20
1.47747671161713
30
0
41
1
10
16.8666478546981
20
1.87927444951384
30
0
41
1
10
16.616682759539
20
2.01274388570485
30
0
41
1
10
16.116983459975
20
2.27820242048961
30
0
41
1
10
15.617367838391
20
2.54225863614096
30
0
41
1
10
15.1177019982153
20
2.8031256514237
30
0
41
1
10
14.6179071383246
20
3.06221452251265
30
0
41
1
10
14.3679890012532
20
3.19084666540223
30
0
41
1
10
13.6187877040568
20
3.57334613113923
30
0
41
1
10
13.1197686126192
20
3.82395958882876
30
0
41
1
10
12.1217583990696
20
4.31497365498345
30
0
41
1
10
11.6227759605774
20
4.55538869684219
30
0
41
1
10
10.8736867826947
20
4.90730139537493
30
0
41
1
10
10.6238658718228
20
5.02316164304179
30
0
41
1
10
10.1239903211344
20
5.25175306351349
30
0
41
1
10
9.87416842770901
20
5.36437784248582
30
0
41
1
10
9.12488691096584
20
5.69700501995789
30
0
41
1
10
8.62561333453971
20
5.91176442666313
30
0
41
1
10
7.87650409197809
20
6.22259482362637
30
0
41
1
10
7.62676705140751
20
6.32431859466743
30
0
41
1
10
7.12710397750328
20
6.52382026292793
30
0
41
1
10
6.87710641348718
20
6.62162467399122
30
0
41
1
10
5.62782990890176
20
7.09981017664271
30
0
41
1
10
4.62987195918649
20
7.44799300605615
30
0
41
1
10
3.63028344714167
20
7.75812636144752
30
0
0
SPLINE
5
EC
100
AcDbEntity
8
1
62
256
6
ByLayer
370
13
48
1
60
0
100
AcDbSpline
70
4
71
3
72
47
73
43
40
0
40
0
40
0
40
0
40
0.0221325300311551
40
0.0221325300311551
40
0.0851882089946698
40
0.0851882089946698
40
0.100952128735548
40
0.100952128735548
40
0.116716048476426
40
0.116716048476426
40
0.148243887958183
40
0.148243887958183
40
0.211299566921695
40
0.211299566921695
40
0.274355245885209
40
0.274355245885209
40
0.337410924848724
40
0.3531748445896
40
0.3531748445896
40
0.368938764330477
40
0.368938764330477
40
0.400466603812233
40
0.400466603812233
40
0.463522282775748
40
0.463522282775748
40
0.589633640702775
40
0.589633640702775
40
0.621161480184531
40
0.621161480184531
40
0.636925399925409
40
0.636925399925409
40
0.652689319666288
40
0.652689319666288
40
0.715744998629799
40
0.715744998629799
40
0.84185635655682
40
0.84185635655682
40
0.904912035520331
40
0.904912035520331
40
0.967967714483841
40
0.967967714483841
40
1
40
1
40
1
40
1
41
1
10
70.747595546596
20
2.16396601134667
30
0
41
1
10
70.9229514105654
20
2.07545835886836
30
0
41
1
10
71.0983248141497
20
1.98660210326051
30
0
41
1
10
71.7734622864743
20
1.6433593344448
30
0
41
1
10
72.2734658447226
20
1.38670182577866
30
0
41
1
10
72.8993688669653
20
1.06367578119941
30
0
41
1
10
73.0245949274312
20
0.998962223886679
30
0
41
1
10
73.2751532326348
20
0.869349123962024
30
0
41
1
10
73.4004645407455
20
0.804460572960636
30
0
41
1
10
73.7761627777915
20
0.609739637800431
30
0
41
1
10
74.026435552027
20
0.479776520727938
30
0
41
1
10
74.7767954280604
20
0.0896713840233474
30
0
41
1
10
75.2764497212606
20
-0.170637762247367
30
0
41
1
10
76.2755259011511
20
-0.689922756335051
30
0
41
1
10
76.7749379919312
20
-0.948918681301137
30
0
41
1
10
77.7741572380417
20
-1.46436959264509
30
0
41
1
10
78.3989399236958
20
-1.78489328895643
30
0
41
1
10
79.0247552802952
20
-2.10203585839963
30
0
41
1
10
79.2751766379012
20
-2.22859825394624
30
0
41
1
10
79.4004657726912
20
-2.29174700575942
30
0
41
1
10
79.7762677912472
20
-2.48059838269106
30
0
41
1
10
80.0266000042723
20
-2.60565496681383
30
0
41
1
10
80.7771298172936
20
-2.97804339763829
30
0
41
1
10
81.2768838018359
20
-3.22257050880532
30
0
41
1
10
82.7754092876698
20
-3.94306744570952
30
0
41
1
10
83.7734630013929
20
-4.40591671647414
30
0
41
1
10
85.023930977845
20
-4.95537833620077
30
0
41
1
10
85.2741786330889
20
-5.06381213792613
30
0
41
1
10
85.6498417908983
20
-5.22416478928633
30
0
41
1
10
85.7751665654908
20
-5.27725682874657
30
0
41
1
10
86.0255285568633
20
-5.38249642634582
30
0
41
1
10
86.1505869606812
20
-5.43465282949987
30
0
41
1
10
86.7753023061621
20
-5.69307475448664
30
0
41
1
10
87.2732343335579
20
-5.8922498776686
30
0
41
1
10
88.7628155292899
20
-6.46554912415198
30
0
41
1
10
89.7501903653363
20
-6.81556830399771
30
0
41
1
10
91.2273266322689
20
-7.28747713076316
30
0
41
1
10
91.7190899099585
20
-7.43595287109926
30
0
41
1
10
92.7019737825987
20
-7.71447994991962
30
0
41
1
10
93.1931053520075
20
-7.84451977484281
30
0
41
1
10
93.9338694957772
20
-8.02612253900415
30
0
41
1
10
94.1834435026442
20
-8.08483054603883
30
0
41
1
10
94.4330922520782
20
-8.14102551897474
30
0
0
SPLINE
5
ED
100
AcDbEntity
8
1
62
256
6
ByLayer
370
18
48
1
60
0
100
AcDbSpline
70
4
71
3
72
18
73
14
40
0
40
0
40
0
40
0
40
0.140893468915017
40
0.140893468915017
40
0.427262312610011
40
0.427262312610011
40
0.713631156305006
40
0.856815578152502
40
0.928407789076251
40
0.964203894538133
40
0.982101947269065
40
0.982101947269065
40
1
40
1
40
1
40
1
41
1
10
94.4330922492248
20
-8.14102551833244
30
0
41
1
10
94.6748780376248
20
-8.19545056901228
30
0
41
1
10
94.9167339345384
20
-8.24751839418104
30
0
41
1
10
95.6504951098548
20
-8.39814417183473
30
0
41
1
10
96.1427415724147
20
-8.48918665163839
30
0
41
1
10
97.128893540955
20
-8.65067236293456
30
0
41
1
10
97.8697504394041
20
-8.75634576642284
30
0
41
1
10
98.7372110813473
20
-8.85168198607172
30
0
41
1
10
99.1718406245382
20
-8.89224127445593
30
0
41
1
10
99.3893948551424
20
-8.91072835314321
30
0
41
1
10
99.4826852613489
20
-8.91826560316048
30
0
41
1
10
99.5448907901634
20
-8.92320452106384
30
0
41
1
10
99.5760186018312
20
-8.92562581873398
30
0
41
1
10
99.607143254713
20
-8.92806212176998
30
0
0
SPLINE
5
EE
100
AcDbEntity
8
1
62
256
6
ByLayer
370
18
48
1
60
0
100
AcDbSpline
70
4
71
3
72
22
73
18
40
0
40
0
40
0
40
0
40
0.125
40
0.125
40
0.25
40
0.25
40
0.375
40
0.375
40
0.5
40
0.5
40
0.625
40
0.625
40
0.75
40
0.75
40
0.875
40
0.875
40
1
40
1
40
1
40
1
41
1
10
99.6071432547106
20
-8.92806212176978
30
0
41
1
10
99.607573697563
20
-8.92906930946543
30
0
41
1
10
99.607834134022
20
-8.93057492803578
30
0
41
1
10
99.6079912206693
20
-8.93464568977731
30
0
41
1
10
99.6078864591127
20
-8.93722915391859
30
0
41
1
10
99.6072553855088
20
-8.94355533073016
30
0
41
1
10
99.6067372496727
20
-8.94723360122336
30
0
41
1
10
99.605254971189
20
-8.95572227925234
30
0
41
1
10
99.6042752092896
20
-8.96059219578993
30
0
41
1
10
99.6019212374318
20
-8.97107953169902
30
0
41
1
10
99.6005421688191
20
-8.97673869786507
30
0
41
1
10
99.59734240223
20
-8.98897033827282
30
0
41
1
10
99.5955825501302
20
-8.99530701093016
30
0
41
1
10
99.5918025906143
20
-9.00825234213369
30
0
41
1
10
99.5897591349877
20
-9.01493168859716
30
0
41
1
10
99.5856165909
20
-9.02793388619074
30
0
41
1
10
99.5834822426621
20
-9.03437443209731
30
0
41
1
10
99.5813310487524
20
-9.04063786163425
30
0
0
SPLINE
5
EF
100
AcDbEntity
8
1
62
256
6
ByLayer
370
18
48
1
60
0
100
AcDbSpline
70
4
71
3
72
8
73
4
40
0
40
0
40
0
40
0
40
1
40
1
40
1
40
1
41
1
10
99.5813310487524
20
-9.04063786163437
30
0
41
1
10
99.5398378809354
20
-9.16144962654531
30
0
41
1
10
99.4988936454467
20
-9.28224553437133
30
0
41
1
10
99.4585233816989
20
-9.40304931288418
30
0
0
SPLINE
5
F0
100
AcDbEntity
8
1
62
256
6
ByLayer
370
13
48
1
60
0
100
AcDbSpline
70
4
71
3
72
26
73
22
40
0
40
0
40
0
40
0
40
0.0152811731598856
40
0.0152811731598856
40
0.0305623463197711
40
0.0611246926395474
40
0.122249385279098
40
0.122249385279098
40
0.244498770558207
40
0.244498770558207
40
0.366748155837316
40
0.366748155837316
40
0.488997541116425
40
0.488997541116425
40
0.611246926395533
40
0.611246926395533
40
0.733496311674642
40
0.733496311674642
40
0.977995082232859
40
0.977995082232859
40
1
40
1
40
1
40
1
41
1
10
99.5813310487526
20
-9.04063786163442
30
0
41
1
10
99.5191216547673
20
-9.03601674178461
30
0
41
1
10
99.4569068987176
20
-9.03142776376382
30
0
41
1
10
99.3325395560715
20
-9.02180090642318
30
0
41
1
10
99.1460600961207
20
-9.00683910303178
30
0
41
1
10
98.7114273424886
20
-8.9682933062571
30
0
41
1
10
98.3396670148361
20
-8.92907621947313
30
0
41
1
10
97.5970521395478
20
-8.84254383326024
30
0
41
1
10
97.1031836887079
20
-8.77405919111061
30
0
41
1
10
96.1171243265735
20
-8.61620678038966
30
0
41
1
10
95.6249340664887
20
-8.52683329833172
30
0
41
1
10
94.6414707786267
20
-8.32795450122185
30
0
41
1
10
94.1501969219019
20
-8.21845459967494
30
0
41
1
10
93.1679202526476
20
-7.97998244696117
30
0
41
1
10
92.6768711889084
20
-7.85097931412585
30
0
41
1
10
91.6941389703325
20
-7.57420827030188
30
0
41
1
10
91.2024452249542
20
-7.42645322042716
30
0
41
1
10
89.7255023977045
20
-6.9561454300148
30
0
41
1
10
88.7381971545084
20
-6.60652293559198
30
0
41
1
10
87.6557372634306
20
-6.18956662679488
30
0
41
1
10
87.566313359778
20
-6.15487149410771
30
0
41
1
10
87.476840523999
20
-6.11991177680312
30
0
0
SPLINE
5
F1
100
AcDbEntity
8
1
62
256
6
ByLayer
370
18
48
1
60
0
100
AcDbSpline
70
4
71
3
72
29
73
25
40
0
40
0
40
0
40
0
40
0.0965046396631161
40
0.125926788742035
40
0.125926788742035
40
0.155348937820953
40
0.155348937820953
40
0.214193235978789
40
0.214193235978789
40
0.449570428610147
40
0.449570428610147
40
0.567259024925829
40
0.567259024925829
40
0.62610332308367
40
0.62610332308367
40
0.65552547216259
40
0.65552547216259
40
0.684947621241511
40
0.684947621241511
40
0.802636217557183
40
0.802636217557183
40
0.920324813872854
40
0.920324813872854
40
1
40
1
40
1
40
1
41
1
10
87.4768407525934
20
-6.11991186612184
30
0
41
1
10
87.069242844583
20
-5.9606511548287
30
0
41
1
10
86.5360521793383
20
-5.7456703468327
30
0
41
1
10
86.0007208863975
20
-5.52181048844801
30
0
41
1
10
85.7503165228464
20
-5.41625302627256
30
0
41
1
10
85.6249533770222
20
-5.36298355567709
30
0
41
1
10
85.2491654101919
20
-5.20205907837371
30
0
41
1
10
84.9988413839599
20
-5.09319794195576
30
0
41
1
10
83.7480167009421
20
-4.54137754787965
30
0
41
1
10
82.7497205809734
20
-4.07599642233777
30
0
41
1
10
81.2508306709904
20
-3.35074925150545
30
0
41
1
10
80.7509548298323
20
-3.10448066490707
30
0
41
1
10
80.0002445267539
20
-2.72921919994647
30
0
41
1
10
79.7498518873905
20
-2.60316348559582
30
0
41
1
10
79.373959528966
20
-2.41274509172774
30
0
41
1
10
79.2486266057988
20
-2.34905559613426
30
0
41
1
10
78.9981263198599
20
-2.22139958858546
30
0
41
1
10
78.8729248066974
20
-2.15741582224075
30
0
41
1
10
78.2471266419604
20
-1.83678215023926
30
0
41
1
10
77.7471607717511
20
-1.57798214706096
30
0
41
1
10
76.7476832191428
20
-1.05749803837242
30
0
41
1
10
76.2481543532176
20
-0.795846446049126
30
0
41
1
10
75.4102306846599
20
-0.355769794556807
30
0
41
1
10
75.0719099615473
20
-0.177750155233554
30
0
41
1
10
74.7333900781582
20
0.000353082441336
30
0
0
SPLINE
5
F2
100
AcDbEntity
8
1
62
256
6
ByLayer
370
18
48
1
60
0
100
AcDbSpline
70
4
71
3
72
100
73
96
40
0
40
0
40
0
40
0
40
0.0288267514746649
40
0.0288267514746649
40
0.0576535029493299
40
0.0576535029493299
40
0.0720668786866624
40
0.0720668786866624
40
0.0864802544239948
40
0.0864802544239948
40
0.100893630161327
40
0.100893630161327
40
0.11530700589866
40
0.11530700589866
40
0.17296050884799
40
0.17296050884799
40
0.187373884585322
40
0.187373884585322
40
0.194580572453988
40
0.194580572453988
40
0.201787260322654
40
0.23061401179732
40
0.23061401179732
40
0.259440763271985
40
0.259440763271985
40
0.273854139009318
40
0.273854139009318
40
0.288267514746651
40
0.288267514746651
40
0.345921017695981
40
0.345921017695981
40
0.353127705564647
40
0.353127705564647
40
0.360334393433314
40
0.360334393433314
40
0.374747769170648
40
0.374747769170648
40
0.403574520645316
40
0.403574520645316
40
0.432401272119984
40
0.432401272119984
40
0.446814647857318
40
0.446814647857318
40
0.461228023594653
40
0.461228023594653
40
0.490054775069322
40
0.490054775069322
40
0.518881526543991
40
0.518881526543991
40
0.533294902281326
40
0.533294902281326
40
0.547708278018661
40
0.547708278018661
40
0.576535029493331
40
0.576535029493331
40
0.590948405230665
40
0.590948405230665
40
0.605361780968
40
0.605361780968
40
0.63418853244267
40
0.63418853244267
40
0.66301528391734
40
0.66301528391734
40
0.677428659654675
40
0.677428659654675
40
0.69184203539201
40
0.69184203539201
40
0.749495538341351
40
0.749495538341351
40
0.763908914078687
40
0.763908914078687
40
0.771115601947355
40
0.771115601947355
40
0.778322289816023
40
0.807149041290696
40
0.807149041290696
40
0.835975792765368
40
0.835975792765368
40
0.850389168502705
40
0.850389168502705
40
0.864802544240041
40
0.864802544240041
40
0.879215919977377
40
0.879215919977377
40
0.893629295714713
40
0.893629295714713
40
0.922456047189384
40
0.922456047189384
40
0.951282798664056
40
0.951282798664056
40
0.965696174401392
40
0.965696174401392
40
0.980109550138728
40
0.980109550138728
40
1
40
1
40
1
40
1
41
1
10
99.4585233816989
20
-9.40304931288418
30
0
41
1
10
98.9596301635174
20
-9.36370300190256
30
0
41
1
10
98.4607222469126
20
-9.3126555591636
30
0
41
1
10
97.4623210389718
20
-9.18746921413202
30
0
41
1
10
96.9633769948912
20
-9.11339947645894
30
0
41
1
10
96.2147436022729
20
-8.98540815378817
30
0
41
1
10
95.9651188597066
20
-8.93992129169254
30
0
41
1
10
95.4659052090784
20
-8.84341648702124
30
0
41
1
10
95.2163628365386
20
-8.79240864529251
30
0
41
1
10
94.7172989928267
20
-8.68496087477408
30
0
41
1
10
94.4677763500554
20
-8.6285220298798
30
0
41
1
10
93.9686622046335
20
-8.51027688898157
30
0
41
1
10
93.7189967785483
20
-8.44844784008589
30
0
41
1
10
92.4713916358287
20
-8.12642822962843
30
0
41
1
10
91.4753636314365
20
-7.82768209034131
30
0
41
1
10
90.2287505635448
20
-7.40711661393254
30
0
41
1
10
89.97934389405
20
-7.32065249828426
30
0
41
1
10
89.6050275947385
20
-7.18751414155716
30
0
41
1
10
89.4801960088096
20
-7.14255161876835
30
0
41
1
10
89.2305914696264
20
-7.05154421395451
30
0
41
1
10
88.6067598332307
20
-6.82133274675746
30
0
41
1
10
87.9836571467807
20
-6.57788737650674
30
0
41
1
10
86.9868007409337
20
-6.17255831113164
30
0
41
1
10
86.4884325461667
20
-5.96197531349188
30
0
41
1
10
85.7402654547196
20
-5.6351933310479
30
0
41
1
10
85.4907705747009
20
-5.52445365808083
30
0
41
1
10
84.9914845364453
20
-5.29946491392312
30
0
41
1
10
84.7419292572418
20
-5.18531213235323
30
0
41
1
10
83.4948385620494
20
-4.60700500584457
30
0
41
1
10
82.4987320244464
20
-4.12004407727036
30
0
41
1
10
81.376046698125
20
-3.55109997437373
30
0
41
1
10
81.2512749174472
20
-3.48759124784249
30
0
41
1
10
81.0016612072304
20
-3.36000827515031
30
0
41
1
10
80.876796852066
20
-3.29592212055599
30
0
41
1
10
80.5023557108905
20
-3.10298335446834
30
0
41
1
10
80.2528741856145
20
-2.97341859068101
30
0
41
1
10
79.5047035978422
20
-2.5821974915508
30
0
41
1
10
79.0062998225491
20
-2.31799410943131
30
0
41
1
10
78.0093245972814
20
-1.78444364434927
30
0
41
1
10
77.5107463859821
20
-1.51510879342138
30
0
41
1
10
76.7620705981292
20
-1.10847002446218
30
0
41
1
10
76.5123029344663
20
-0.972447553473671
30
0
41
1
10
76.0131777113074
20
-0.70011625676068
30
0
41
1
10
75.7637409810153
20
-0.563761701894975
30
0
41
1
10
75.0156581010679
20
-0.154406509225026
30
0
41
1
10
74.5172453246776
20
0.118896708889395
30
0
41
1
10
73.520069509436
20
0.6645299016499
30
0
41
1
10
73.0213131161785
20
0.936872121252236
30
0
41
1
10
72.2723713099535
20
1.34365892572026
30
0
41
1
10
72.0226551759923
20
1.47891019739129
30
0
41
1
10
71.5234130986697
20
1.7482844710411
30
0
41
1
10
71.2738231457128
20
1.88244272540703
30
0
41
1
10
70.5249785536937
20
2.28303030369528
30
0
41
1
10
70.025478431915
20
2.54765122913645
30
0
41
1
10
69.276602577817
20
2.93914404318585
30
0
41
1
10
69.0270063768205
20
3.06875612934508
30
0
41
1
10
68.5277532180215
20
3.32600289186112
30
0
41
1
10
68.2780553518656
20
3.45365770352285
30
0
41
1
10
67.5289551420665
20
3.83320721426878
30
0
41
1
10
67.0301233821573
20
4.08142563233881
30
0
41
1
10
66.0328367964868
20
4.56701513627863
30
0
41
1
10
65.5343438447182
20
4.80432271479145
30
0
41
1
10
64.7861848665521
20
5.15102439936678
30
0
41
1
10
64.5367282126945
20
5.26504780810742
30
0
41
1
10
64.0375703426729
20
5.48984163020754
30
0
41
1
10
63.7877703670567
20
5.60065467688099
30
0
41
1
10
62.5396022134594
20
6.14544091992695
30
0
41
1
10
61.5431653422713
20
6.55179747123753
30
0
41
1
10
60.2959296250143
20
7.01714405582203
30
0
41
1
10
60.0464008890611
20
7.10808748894718
30
0
41
1
10
59.6719023511643
20
7.2412039869404
30
0
41
1
10
59.547009926513
20
7.28503503858917
30
0
41
1
10
59.2973049256539
20
7.37152333030738
30
0
41
1
10
58.6732195569389
20
7.5848193278463
30
0
41
1
10
58.0498416709292
20
7.78331258824161
30
0
41
1
10
57.0525092805845
20
8.08112877914974
30
0
41
1
10
56.5538800873319
20
8.22015013517236
30
0
41
1
10
55.8053298327156
20
8.41320488062897
30
0
41
1
10
55.5557117028219
20
8.47497694816229
30
0
41
1
10
55.0561703457508
20
8.5932625026056
30
0
41
1
10
54.8064509793865
20
8.64972753288214
30
0
41
1
10
54.3070846655332
20
8.757208795662
30
0
41
1
10
54.0574250354143
20
8.80822808292669
30
0
41
1
10
53.5580421869329
20
8.90474846302862
30
0
41
1
10
53.3082766494804
20
8.95025982077755
30
0
41
1
10
52.5590431434424
20
9.0783616548913
30
0
41
1
10
52.0601231398632
20
9.1524235922262
30
0
41
1
10
51.0625956880528
20
9.27756655171882
30
0
41
1
10
50.56397714481
20
9.3286423010417
30
0
41
1
10
49.815633840551
20
9.38778756110224
30
0
41
1
10
49.5661162815675
20
9.40459129137264
30
0
41
1
10
49.0668455722752
20
9.43234048000329
30
0
41
1
10
48.8169960873616
20
9.44328740137362
30
0
41
1
10
48.2227502463528
20
9.46230100037261
30
0
41
1
10
47.8784258788349
20
9.46770300868889
30
0
41
1
10
47.5342084018638
20
9.4674940354044
30
0
0
SPLINE
5
F3
100
AcDbEntity
8
1
62
256
6
ByLayer
370
18
48
1
60
0
100
AcDbSpline
70
4
71
3
72
8
73
4
40
0
40
0
40
0
40
0
40
1
40
1
40
1
40
1
41
1
10
3.5
20
-4.76854415586595
30
0
41
1
10
3.5
20
-4.95941711709091
30
0
41
1
10
3.49999999999997
20
-5.15039397016196
30
0
41
1
10
3.49999999999997
20
-5.34147473335594
30
0
0
SPLINE
5
F4
100
AcDbEntity
8
1
62
256
6
ByLayer
370
18
48
1
60
0
100
AcDbSpline
70
4
71
3
72
42
73
38
40
0
40
0
40
0
40
0
40
0.062500000000081
40
0.062500000000081
40
0.0937500000001141
40
0.0937500000001141
40
0.125000000000147
40
0.125000000000147
40
0.15625000000018
40
0.15625000000018
40
0.187500000000213
40
0.187500000000213
40
0.218750000000246
40
0.218750000000246
40
0.234375000000248
40
0.234375000000248
40
0.250000000000249
40
0.250000000000249
40
0.265625000000251
40
0.265625000000251
40
0.281250000000252
40
0.281250000000252
40
0.312500000000235
40
0.312500000000235
40
0.343750000000217
40
0.343750000000217
40
0.3750000000002
40
0.3750000000002
40
0.43750000000018
40
0.43750000000018
40
0.500000000000159
40
0.500000000000159
40
0.625000000000118
40
0.625000000000118
40
0.750000000000077
40
0.750000000000077
40
1
40
1
40
1
40
1
41
1
10
3.75130401655474
20
-4.35822511675104
30
0
41
1
10
3.74352041916103
20
-4.34745261515329
30
0
41
1
10
3.73532723025318
20
-4.33712118511173
30
0
41
1
10
3.72208554117299
20
-4.32264753028201
30
0
41
1
10
3.71751101098818
20
-4.31799567960115
30
0
41
1
10
3.70793413351555
20
-4.309151615812
30
0
41
1
10
3.70293906348661
20
-4.30496861880991
30
0
41
1
10
3.69253666298232
20
-4.29737064726325
30
0
41
1
10
3.68711595870349
20
-4.29393719574389
30
0
41
1
10
3.67564208238838
20
-4.28812290963495
30
0
41
1
10
3.66963319183179
20
-4.28577655946546
30
0
41
1
10
3.65719971540955
20
-4.28277373947239
30
0
41
1
10
3.65064284094626
20
-4.2821200969434
30
0
41
1
10
3.64089979891392
20
-4.28282894362977
30
0
41
1
10
3.63765310784612
20
-4.2833381747848
30
0
41
1
10
3.63116182291188
20
-4.28493839203961
30
0
41
1
10
3.62794227389003
20
-4.28602858323191
30
0
41
1
10
3.62172465813316
20
-4.2886984111413
30
0
41
1
10
3.61869995131463
20
-4.29028390908226
30
0
41
1
10
3.61280503336033
20
-4.29391520614405
30
0
41
1
10
3.60992964137915
20
-4.2959692986405
30
0
41
1
10
3.60173970257534
20
-4.30256823885267
30
0
41
1
10
3.59676562739003
20
-4.30759198189057
30
0
41
1
10
3.58751001654187
20
-4.31852935267202
30
0
41
1
10
3.58327038920862
20
-4.32440704763738
30
0
41
1
10
3.57550541463667
20
-4.33649036612044
30
0
41
1
10
3.57194748232428
20
-4.34273990945607
30
0
41
1
10
3.56199137261294
20
-4.36194816769188
30
0
41
1
10
3.55628800465851
20
-4.37541042214175
30
0
41
1
10
3.54630028661012
20
-4.40244079858169
30
0
41
1
10
3.5419774164186
20
-4.41610815713457
30
0
41
1
10
3.53037251107645
20
-4.45741966498446
30
0
41
1
10
3.52443032783901
20
-4.48536784282894
30
0
41
1
10
3.51472465037864
20
-4.54175914732411
30
0
41
1
10
3.5110021189804
20
-4.57019569465589
30
0
41
1
10
3.5024068232417
20
-4.65522882795781
30
0
41
1
10
3.5
20
-4.71189392903247
30
0
41
1
10
3.5
20
-4.76854415586595
30
0
0
SPLINE
5
F5
100
AcDbEntity
8
1
62
256
6
ByLayer
370
18
48
1
60
0
100
AcDbSpline
70
4
71
3
72
34
73
30
40
0
40
0
40
0
40
0
40
0.125
40
0.125
40
0.25
40
0.25
40
0.375
40
0.375
40
0.5
40
0.5
40
0.625
40
0.625
40
0.656249999999999
40
0.656249999999999
40
0.687499999999998
40
0.687499999999998
40
0.749999999999999
40
0.749999999999999
40
0.8125
40
0.8125
40
0.875
40
0.875
40
0.937500000000001
40
0.937500000000001
40
0.96875
40
0.96875
40
0.984375
40
0.984375
40
1
40
1
40
1
40
1
41
1
10
9.88472192858526
20
-7.78099344395491
30
0
41
1
10
9.5913886466592
20
-7.70494909885764
30
0
41
1
10
9.30110797440506
20
-7.62323037514489
30
0
41
1
10
8.72663633338524
20
-7.44844150662445
30
0
41
1
10
8.44239758365887
20
-7.35549201626526
30
0
41
1
10
7.88096490767344
20
-7.15580582186919
30
0
41
1
10
7.60376865530256
20
-7.04907454077483
30
0
41
1
10
7.05746294954483
20
-6.81918537367756
30
0
41
1
10
6.78834676253646
20
-6.69604383759435
30
0
41
1
10
6.25962135991904
20
-6.42977262130654
30
0
41
1
10
6.00000117731994
20
-6.28666930205944
30
0
41
1
10
5.68272929955398
20
-6.09203916714722
30
0
41
1
10
5.61961742887234
20
-6.05230577648379
30
0
41
1
10
5.494260259409
20
-5.9712071343701
30
0
41
1
10
5.43218214728756
20
-5.92995057475551
30
0
41
1
10
5.24782605692735
20
-5.80395581620883
30
0
41
1
10
5.12742329143919
20
-5.71699643945237
30
0
41
1
10
4.89209433062766
20
-5.53651798647095
30
0
41
1
10
4.77716696547986
20
-5.44300040626587
30
0
41
1
10
4.55337182758049
20
-5.24863141162402
30
0
41
1
10
4.44450227745116
20
-5.14778226841389
30
0
41
1
10
4.23355956714556
20
-4.93777864794933
30
0
41
1
10
4.13148358512319
20
-4.8286277733784
30
0
41
1
10
3.98418506772822
20
-4.65773165009969
30
0
41
1
10
3.93605678340535
20
-4.59956877218573
30
0
41
1
10
3.8654333710231
20
-4.51038191355164
30
0
41
1
10
3.84214024719526
20
-4.48031015324739
30
0
41
1
10
3.79623034295827
20
-4.41966876063867
30
0
41
1
10
3.77360031368022
20
-4.38908320026678
30
0
41
1
10
3.75130400522374
20
-4.35822510107951
30
0
0
SPLINE
5
F6
100
AcDbEntity
8
1
62
256
6
ByLayer
370
18
48
1
60
0
100
AcDbSpline
70
4
71
3
72
28
73
24
40
0
40
0
40
0
40
0
40
0.0964849160312752
40
0.0964849160312752
40
0.19709887580842
40
0.19709887580842
40
0.222252365752707
40
0.228540738238779
40
0.231684924481814
40
0.231684924481814
40
0.233257017603332
40
0.233257017603332
40
0.23482911072485
40
0.23482911072485
40
0.24740585569699
40
0.24740585569699
40
0.297712835585548
40
0.297712835585548
40
0.498940755139782
40
0.498940755139782
40
0.700168674694016
40
0.700168674694016
40
1
40
1
40
1
40
1
41
1
10
13.9809751660568
20
1.65177027489602
30
0
41
1
10
13.9387825625476
20
1.65104613782188
30
0
41
1
10
13.8961070871126
20
1.64904171837981
30
0
41
1
10
13.8081125115669
20
1.64228374270422
30
0
41
1
10
13.7627638825255
20
1.6374189439864
30
0
41
1
10
13.7056181554868
20
1.6295427675459
30
0
41
1
10
13.691303577164
20
1.62746160853746
30
0
41
1
10
13.6755204321128
20
1.62501764039911
30
0
41
1
10
13.6712129643195
20
1.62433844079479
30
0
41
1
10
13.6690587365399
20
1.62399672947777
30
0
41
1
10
13.6679659378185
20
1.6239401769852
30
0
41
1
10
13.6697834463741
20
1.62284538273187
30
0
41
1
10
13.6710339285301
20
1.6222714774232
30
0
41
1
10
13.681902081347
20
1.61721670508516
30
0
41
1
10
13.6926428999481
20
1.61276999925741
30
0
41
1
10
13.7451009666693
20
1.59053148833584
30
0
41
1
10
13.7877922887413
20
1.57279350002116
30
0
41
1
10
14.0008922062833
20
1.48388126896677
30
0
41
1
10
14.1722827609831
20
1.4122845480633
30
0
41
1
10
14.515024277154
20
1.26787982055689
30
0
41
1
10
14.6865171417266
20
1.19510065394891
30
0
41
1
10
15.1136068866458
20
1.01238176187999
30
0
41
1
10
15.3692744013278
20
0.901683172964141
30
0
41
1
10
15.6249611995503
20
0.789640656003229
30
0
0
SPLINE
5
F7
100
AcDbEntity
8
1
62
256
6
ByLayer
370
18
48
1
60
0
100
AcDbSpline
70
4
71
3
72
21
73
17
40
0
40
0
40
0
40
0
40
0.0143230761724548
40
0.0523419509744727
40
0.0523419509744727
40
0.128379700578508
40
0.128379700578508
40
0.28045519978658
40
0.28045519978658
40
0.584606198202722
40
0.584606198202722
40
0.736681697410793
40
0.736681697410793
40
0.888757196618864
40
0.888757196618864
40
1
40
1
40
1
40
1
41
1
10
24.8524913868927
20
-4.09993176793276
30
0
41
1
10
24.779200028878
20
-4.11619069787824
30
0
41
1
10
24.5114409962337
20
-4.17567650352896
30
0
41
1
10
24.2439627512726
20
-4.235415902917
30
0
41
1
10
23.6615738768585
20
-4.36599213556187
30
0
41
1
10
23.2739264623564
20
-4.45357794872641
30
0
41
1
10
22.1128272598592
20
-4.71796359922743
30
0
41
1
10
21.3415286229683
20
-4.89632144571186
30
0
41
1
10
19.0366161213274
20
-5.43771705820592
30
0
41
1
10
17.5117117607834
20
-5.80712092293615
30
0
41
1
10
15.2421310635295
20
-6.37441669254528
30
0
41
1
10
14.4887367757441
20
-6.56569214668886
30
0
41
1
10
12.9906043925495
20
-6.95212034626323
30
0
41
1
10
12.2455405817066
20
-7.14735531393217
30
0
41
1
10
10.9624156717117
20
-7.48898735150308
30
0
41
1
10
10.4224874288436
20
-7.63442384190213
30
0
41
1
10
9.8847164040597
20
-7.7809939497474
30
0
0
SPLINE
5
F8
100
AcDbEntity
8
1
62
256
6
ByLayer
370
18
48
1
60
0
100
AcDbSpline
70
4
71
3
72
59
73
55
40
0
40
0
40
0
40
0
40
0.124999999999977
40
0.124999999999977
40
0.187499999999965
40
0.187499999999965
40
0.249999999999954
40
0.249999999999954
40
0.37499999999993
40
0.37499999999993
40
0.437499999999919
40
0.437499999999919
40
0.468749999999913
40
0.468749999999913
40
0.499999999999907
40
0.499999999999907
40
0.562499999999895
40
0.562499999999895
40
0.624999999999884
40
0.624999999999884
40
0.687499999999872
40
0.687499999999872
40
0.689453124999871
40
0.689453124999871
40
0.691406249999869
40
0.691406249999869
40
0.695312499999866
40
0.695312499999866
40
0.697265624999864
40
0.697265624999864
40
0.698242187499864
40
0.698242187499864
40
0.699218749999864
40
0.699218749999864
40
0.700195312499864
40
0.700195312499864
40
0.701171874999864
40
0.703124999999865
40
0.718749999999873
40
0.718749999999873
40
0.749999999999888
40
0.749999999999888
40
0.781249999999902
40
0.781249999999902
40
0.812499999999917
40
0.812499999999917
40
0.874999999999945
40
0.874999999999945
40
0.937499999999973
40
0.937499999999973
40
0.95312499999998
40
0.95312499999998
40
0.968749999999986
40
1
40
1
40
1
40
1
41
1
10
15.4771192811282
20
0.869906057275671
30
0
41
1
10
14.9705145982232
20
1.14542071682914
30
0
41
1
10
14.4601784635293
20
1.41133922824525
30
0
41
1
10
13.6868281410642
20
1.79197498566023
30
0
41
1
10
13.4277368285208
20
1.91581452630422
30
0
41
1
10
12.9066020085918
20
2.15686742248866
30
0
41
1
10
12.6445150944565
20
2.27410806581142
30
0
41
1
10
11.8536480079609
20
2.61501436675857
30
0
41
1
10
11.3215285034987
20
2.82727365799985
30
0
41
1
10
10.5146345859005
20
3.12106174718292
30
0
41
1
10
10.2442189508775
20
3.2148957122497
30
0
41
1
10
9.83630160658521
20
3.34938821804164
30
0
41
1
10
9.69994586350882
20
3.39317357062674
30
0
41
1
10
9.42644714585177
20
3.4786311859965
30
0
41
1
10
9.2892744179955
20
3.52031405008577
30
0
41
1
10
8.87678419447894
20
3.64210150333787
30
0
41
1
10
8.60057580904783
20
3.71892240291709
30
0
41
1
10
8.04563722735614
20
3.86380211065819
30
0
41
1
10
7.76685698989948
20
3.93187011902026
30
0
41
1
10
7.20692573958002
20
4.05920205974323
30
0
41
1
10
6.92583291302279
20
4.1184540219538
30
0
41
1
10
6.63490222828398
20
4.17500629933144
30
0
41
1
10
6.62608517492603
20
4.17671569450516
30
0
41
1
10
6.60844912002796
20
4.18012585434244
30
0
41
1
10
6.59965410077911
20
4.18192651217348
30
0
41
1
10
6.57294245090446
20
4.18596720551474
30
0
41
1
10
6.55502038243816
20
4.18661349207056
30
0
41
1
10
6.528130808154
20
4.18312452415393
30
0
41
1
10
6.51940357339345
20
4.18126362454333
30
0
41
1
10
6.50680223504329
20
4.17707930975769
30
0
41
1
10
6.50268873520452
20
4.17543447058438
30
0
41
1
10
6.49461324122024
20
4.17170861140514
30
0
41
1
10
6.49074659517814
20
4.16956781209439
30
0
41
1
10
6.48320921105881
20
4.16502287844574
30
0
41
1
10
6.47950379114758
20
4.16266584364297
30
0
41
1
10
6.47205180711899
20
4.15800601025015
30
0
41
1
10
6.46087622695904
20
4.15101176587933
30
0
41
1
10
6.39014332790339
20
4.10662941799043
30
0
41
1
10
6.32339264083743
20
4.06409411962051
30
0
41
1
10
6.1460566396525
20
3.94948880349489
30
0
41
1
10
6.02872544988986
20
3.87151966449812
30
0
41
1
10
5.79596329310309
20
3.71222397032497
30
0
41
1
10
5.68053389459271
20
3.63089498044275
30
0
41
1
10
5.45223115983066
20
3.4650129709438
30
0
41
1
10
5.33929302888458
20
3.38041677008266
30
0
41
1
10
5.00436141264049
20
3.12130159969962
30
0
41
1
10
4.78623259074533
20
2.94148238033228
30
0
41
1
10
4.36195285560297
20
2.5652403054807
30
0
41
1
10
4.15578803185042
20
2.36883719132342
30
0
41
1
10
3.9070547236845
20
2.11077357293098
30
0
41
1
10
3.85772987552286
20
2.05849506996802
30
0
41
1
10
3.76046024976475
20
1.95307878905112
30
0
41
1
10
3.61647711518435
20
1.79351242106398
30
0
41
1
10
3.478451871522
20
1.62947008237259
30
0
41
1
10
3.38929289127151
20
1.51795746152186
30
0
0
SPLINE
5
F9
100
AcDbEntity
8
1
62
256
6
ByLayer
370
13
48
1
60
0
100
AcDbSpline
70
4
71
3
72
9
73
5
40
0
40
0
40
0
40
0
40
0.831952392920393
40
1
40
1
40
1
40
1
41
1
10
2.04537398580158
20
-2.64617623169414
30
0
41
1
10
2.40695110646411
20
-1.48668334662841
30
0
41
1
10
2.85277489332958
20
-0.0973871814521203
30
0
41
1
10
3.31177248161305
20
1.28569997731552
30
0
41
1
10
3.38927572555843
20
1.51794420056683
30
0
0
SPLINE
5
FA
100
AcDbEntity
8
1
62
256
6
ByLayer
370
18
48
1
60
0
100
AcDbSpline
70
4
71
3
72
26
73
22
40
0
40
0
40
0
40
0
40
0.062499999999996
40
0.062499999999996
40
0.0937499999999948
40
0.0937499999999948
40
0.124999999999994
40
0.249999999999993
40
0.249999999999993
40
0.374999999999993
40
0.374999999999993
40
0.437499999999994
40
0.468749999999995
40
0.468749999999995
40
0.499999999999996
40
0.499999999999996
40
0.624999999999997
40
0.624999999999997
40
0.749999999999999
40
0.749999999999999
40
1
40
1
40
1
40
1
41
1
10
2.04536931144975
20
-2.64618402795671
30
0
41
1
10
2.05569342172157
20
-2.71299758802724
30
0
41
1
10
2.06763520686334
20
-2.77957887869351
30
0
41
1
10
2.08798033001383
20
-2.87910241379797
30
0
41
1
10
2.09516285085897
20
-2.91218999188303
30
0
41
1
10
2.11025120502603
20
-2.97789485532894
30
0
41
1
10
2.14982513252767
20
-3.14119404923807
30
0
41
1
10
2.19844067009768
20
-3.29979788435867
30
0
41
1
10
2.2869103363272
20
-3.54803512417166
30
0
41
1
10
2.33648922839015
20
-3.66938844887449
30
0
41
1
10
2.4183438461084
20
-3.84756193033183
30
0
41
1
10
2.46114461301562
20
-3.93568358511871
30
0
41
1
10
2.5066715262515
20
-4.02240448822323
30
0
41
1
10
2.53762021205486
20
-4.07991188115298
30
0
41
1
10
2.55339455519507
20
-4.10851289622951
30
0
41
1
10
2.63340732993601
20
-4.2501932458355
30
0
41
1
10
2.70131196336848
20
-4.35978287465718
30
0
41
1
10
2.84404728912534
20
-4.57232232895856
30
0
41
1
10
2.91888004597342
20
-4.67527013080192
30
0
41
1
10
3.1527567478914
20
-4.97517920199201
30
0
41
1
10
3.32113368334953
20
-5.16325096594201
30
0
41
1
10
3.49999999999994
20
-5.34147473335594
30
0
0
SPLINE
5
FB
100
AcDbEntity
8
SK1
62
256
6
ByLayer
370
18
48
1
60
0
100
AcDbSpline
70
4
71
3
72
10
73
6
40
0
40
0
40
0
40
0
40
0.5
40
0.5
40
1
40
1
40
1
40
1
41
1
10
-47.7
20
-8.73421460121691
30
0
41
1
10
-48.0842868821149
20
-8.34633709499943
30
0
41
1
10
-48.4682279907735
20
-7.95812493320804
30
0
41
1
10
-49.2350571498937
20
-7.1806814111041
30
0
41
1
10
-49.6179525143873
20
-6.79145712965061
30
0
41
1
10
-50
20
-6.40141223172589
30
0
0
SPLINE
5
FC
100
AcDbEntity
8
SK1
62
256
6
ByLayer
370
18
48
1
60
0
100
AcDbSpline
70
4
71
3
72
20
73
16
40
0
40
0
40
0
40
0
40
0.0624999999999994
40
0.0624999999999994
40
0.124999999999999
40
0.124999999999999
40
0.250000000000003
40
0.250000000000003
40
0.375000000000007
40
0.375000000000007
40
0.500000000000012
40
0.500000000000012
40
0.750000000000006
40
0.750000000000006
40
1
40
1
40
1
40
1
41
1
10
-47.6
20
-8.86073253987826
30
0
41
1
10
-47.6
20
-8.85969894024564
30
0
41
1
10
-47.6002545389195
20
-8.85842362353731
30
0
41
1
10
-47.60123480667
20
-8.85542535632996
30
0
41
1
10
-47.6019684076971
20
-8.85369020466172
30
0
41
1
10
-47.6047458803751
20
-8.84803351224554
30
0
41
1
10
-47.6073743300038
20
-8.84361343042829
30
0
41
1
10
-47.6138294746024
20
-8.83381471335508
30
0
41
1
10
-47.6175534620108
20
-8.82858911178784
30
0
41
1
10
-47.6257680910789
20
-8.81763665858529
30
0
41
1
10
-47.6303046531941
20
-8.8118567011559
30
0
41
1
10
-47.6445549531645
20
-8.79432313467186
30
0
41
1
10
-47.6549008195925
20
-8.78234872157458
30
0
41
1
10
-47.677012179697
20
-8.75793648852328
30
0
41
1
10
-47.6883653842198
20
-8.74595792622915
30
0
41
1
10
-47.7
20
-8.73421460121691
30
0
0
SPLINE
5
FD
100
AcDbEntity
8
SK1
62
256
6
ByLayer
370
18
48
1
60
0
100
AcDbSpline
70
4
71
3
72
22
73
18
40
0
40
0
40
0
40
0
40
0.250000000000002
40
0.250000000000002
40
0.375000000000001
40
0.375000000000001
40
0.5
40
0.5
40
0.624999999999999
40
0.624999999999999
40
0.749999999999998
40
0.749999999999998
40
0.874999999999997
40
0.874999999999997
40
0.937499999999998
40
0.937499999999998
40
1
40
1
40
1
40
1
41
1
10
-47.7
20
-9.02265018227689
30
0
41
1
10
-47.6883704981325
20
-9.0343883455941
30
0
41
1
10
-47.6770410072387
20
-9.04596389241473
30
0
41
1
10
-47.6605020903187
20
-9.06307158349622
30
0
41
1
10
-47.6551122090305
20
-9.06868386299513
30
0
41
1
10
-47.6447852263308
20
-9.07951367459054
30
0
41
1
10
-47.6398182959505
20
-9.08476193330827
30
0
41
1
10
-47.6303323018591
20
-9.09487530597139
30
0
41
1
10
-47.6257868470759
20
-9.09976969373454
30
0
41
1
10
-47.617552362798
20
-9.10875265749712
30
0
41
1
10
-47.6138253782534
20
-9.11288065705727
30
0
41
1
10
-47.6073739214732
20
-9.12019893494679
30
0
41
1
10
-47.6047412675197
20
-9.1232858615584
30
0
41
1
10
-47.6019644282291
20
-9.12677087435583
30
0
41
1
10
-47.6012316827266
20
-9.12774651471742
30
0
41
1
10
-47.6002536023557
20
-9.12920623840631
30
0
41
1
10
-47.6
20
-9.12969984923379
30
0
41
1
10
-47.6
20
-9.12993908220093
30
0
0
SPLINE
5
FE
100
AcDbEntity
8
SK1
62
256
6
ByLayer
370
18
48
1
60
0
100
AcDbSpline
70
4
71
3
72
10
73
6
40
0
40
0
40
0
40
0
40
0.5
40
0.5
40
1
40
1
40
1
40
1
41
1
10
-50
20
-6.6898478127859
30
0
41
1
10
-49.6179448694991
20
-7.07990051562956
30
0
41
1
10
-49.2350468737178
20
-7.46912742866385
30
0
41
1
10
-48.4682186659771
20
-8.24656995005458
30
0
41
1
10
-48.0842811798472
20
-8.63477843160678
30
0
41
1
10
-47.7
20
-9.02265018227689
30
0
0
SPLINE
5
FF
100
AcDbEntity
8
SK1
62
256
6
ByLayer
370
18
48
1
60
0
100
AcDbSpline
70
4
71
3
72
22
73
18
40
0
40
0
40
0
40
0
40
0.249999999999995
40
0.249999999999995
40
0.374999999999994
40
0.374999999999994
40
0.499999999999994
40
0.499999999999994
40
0.624999999999994
40
0.624999999999994
40
0.749999999999993
40
0.749999999999993
40
0.874999999999993
40
0.874999999999993
40
0.937499999999996
40
0.937499999999996
40
1
40
1
40
1
40
1
41
1
10
-47.7
20
9.02265018227689
30
0
41
1
10
-47.6883704981325
20
9.0343883455941
30
0
41
1
10
-47.6770410072387
20
9.04596389241473
30
0
41
1
10
-47.6605020903187
20
9.06307158349622
30
0
41
1
10
-47.6551122090305
20
9.06868386299513
30
0
41
1
10
-47.6447852263308
20
9.07951367459054
30
0
41
1
10
-47.6398182959505
20
9.08476193330827
30
0
41
1
10
-47.6303323018591
20
9.09487530597139
30
0
41
1
10
-47.6257868470759
20
9.09976969373454
30
0
41
1
10
-47.617552362798
20
9.10875265749712
30
0
41
1
10
-47.6138253782534
20
9.11288065705727
30
0
41
1
10
-47.6073739214732
20
9.12019893494679
30
0
41
1
10
-47.6047412675197
20
9.1232858615584
30
0
41
1
10
-47.6019644282291
20
9.12677087435583
30
0
41
1
10
-47.6012316827266
20
9.12774651471742
30
0
41
1
10
-47.6002536023557
20
9.12920623840631
30
0
41
1
10
-47.6
20
9.12969984923376
30
0
41
1
10
-47.6
20
9.12993908220093
30
0
0
SPLINE
5
100
100
AcDbEntity
8
SK1
62
256
6
ByLayer
370
18
48
1
60
0
100
AcDbSpline
70
4
71
3
72
10
73
6
40
0
40
0
40
0
40
0
40
0.5
40
0.5
40
1
40
1
40
1
40
1
41
1
10
-50
20
6.6898478127859
30
0
41
1
10
-49.6179448694991
20
7.07990051562953
30
0
41
1
10
-49.2350468737178
20
7.46912742866385
30
0
41
1
10
-48.4682186659771
20
8.24656995005458
30
0
41
1
10
-48.0842811798472
20
8.63477843160678
30
0
41
1
10
-47.7
20
9.02265018227689
30
0
0
SPLINE
5
101
100
AcDbEntity
8
1
62
256
6
ByLayer
370
18
48
1
60
0
100
AcDbSpline
70
4
71
3
72
35
73
31
40
0
40
0
40
0
40
0
40
6.002977383E-07
40
9.0595029362E-06
40
2.41960245182E-05
40
4.88653185016E-05
40
7.00980441074E-05
40
0.0002031984193407
40
0.000307737730532
40
0.0004963818165275
40
0.0008395307959517
40
0.0014724066733966
40
0.0026670259766415
40
0.0050076036942817
40
0.0098555634733901
40
0.0206696589904966
40
0.0469307377907265
40
0.0759538525251642
40
0.104527332675654
40
0.209617207139056
40
0.306191545500958
40
0.397230803248659
40
0.487575917833515
40
0.577806338219376
40
0.67646823566673
40
0.771528626584642
40
0.815459433232104
40
0.871449706927112
40
0.939493173062903
40
1
40
1
40
1
40
1
41
1
10
48.9581511341954
20
0.952451959063376
30
0
41
1
10
48.9581519361501
20
0.952452556616025
30
0
41
1
10
48.9581531819205
20
0.952453515936237
30
0
41
1
10
48.9581308117765
20
0.952462684330897
30
0
41
1
10
48.9580604403633
20
0.952487086151052
30
0
41
1
10
48.9579067260402
20
0.952532349709486
30
0
41
1
10
48.957156266482
20
0.952723791234092
30
0
41
1
10
48.9558530219898
20
0.9530338768744
30
0
41
1
10
48.9540309099917
20
0.95349466518698
30
0
41
1
10
48.9511906561919
20
0.954200941952905
30
0
41
1
10
48.9460451771285
20
0.955485291086035
30
0
41
1
10
48.9363509754348
20
0.957894363193901
30
0
41
1
10
48.9175862772955
20
0.962540925358383
30
0
41
1
10
48.879287341655
20
0.971963782976047
30
0
41
1
10
48.7955576564419
20
0.992401705109614
30
0
41
1
10
48.5968169776878
20
1.04055298518261
30
0
41
1
10
48.2784849791675
20
1.11771572933213
30
0
41
1
10
47.8725245351883
20
1.21748288683455
30
0
41
1
10
47.0848882640592
20
1.41429430711932
30
0
41
1
10
45.9622227283028
20
1.70621294216792
30
0
41
1
10
44.5371807771725
20
2.10115449308424
30
0
41
1
10
43.1911918499743
20
2.49551270128347
30
0
41
1
10
41.8818061030549
20
2.89950721931268
30
0
41
1
10
40.5423558214829
20
3.33372780303554
30
0
41
1
10
39.1876239557624
20
3.79532525208774
30
0
41
1
10
38.0604384812446
20
4.19879297433019
30
0
41
1
10
37.1397712225621
20
4.53980281770097
30
0
41
1
10
36.3493006098659
20
4.8398811097737
30
0
41
1
10
35.4841516710601
20
5.17748316672177
30
0
41
1
10
34.8847539666588
20
5.42004685040786
30
0
41
1
10
34.6032828046496
20
5.53572681713297
30
0
0
SPLINE
5
102
100
AcDbEntity
8
1
62
256
6
ByLayer
370
18
48
1
60
0
100
AcDbSpline
70
4
71
3
72
18
73
14
40
0
40
0
40
0
40
0
40
0.085981909731475
40
0.183743898867362
40
0.280121835417424
40
0.375493420903306
40
0.52236641344083
40
0.664888567301117
40
0.711039875554668
40
0.769109526597787
40
0.83997830854158
40
0.92364139494673
40
1
40
1
40
1
40
1
41
1
10
99.4977941090802
20
1.94589642129651
30
0
41
1
10
99.1885863021861
20
2.03168416888016
30
0
41
1
10
98.528891122345
20
2.21844565530682
30
0
41
1
10
97.5267591292122
20
2.5148053721606
30
0
41
1
10
96.4947741974879
20
2.83237752137202
30
0
41
1
10
95.2923092429285
20
3.2172551315239
30
0
41
1
10
93.9327491261084
20
3.6736562095646
30
0
41
1
10
92.7546034183094
20
4.09147320361362
30
0
41
1
10
91.8920444755466
20
4.40816577247358
30
0
41
1
10
91.2814284577502
20
4.63658803281569
30
0
41
1
10
90.5423211217481
20
4.9195821267744
30
0
41
1
10
89.742513552809
20
5.23375171450297
30
0
41
1
10
89.1908819591597
20
5.45755373334677
30
0
41
1
10
88.9282194822475
20
5.56563657507141
30
0
0
SPLINE
5
103
100
AcDbEntity
8
1
62
256
6
ByLayer
370
18
48
1
60
0
100
AcDbSpline
70
4
71
3
72
42
73
38
40
0
40
0
40
0
40
0
40
0.0150453360746436
40
0.0335930780957524
40
0.0526424279456006
40
0.0728632011781612
40
0.0991337473638935
40
0.122221020741372
40
0.141908650871748
40
0.159707682561051
40
0.181140964295893
40
0.204507064718022
40
0.223462696295154
40
0.238949283513408
40
0.259882692116894
40
0.284422954743106
40
0.307219400343236
40
0.327936903136775
40
0.346582927633481
40
0.363167002515557
40
0.394266487738563
40
0.424728240307015
40
0.454635660599697
40
0.48223498157214
40
0.505806257656238
40
0.530712669077961
40
0.594366657488968
40
0.652004854832052
40
0.716674315964359
40
0.775851141175968
40
0.837944790051046
40
0.906635179108076
40
0.924792185010948
40
0.943339770976468
40
0.962278173420293
40
0.981619682868375
40
1
40
1
40
1
40
1
41
1
10
47.6659022641392
20
-8.99194665480658
30
0
41
1
10
47.778174016922
20
-8.99152043953384
30
0
41
1
10
48.0367828469814
20
-8.99035858623475
30
0
41
1
10
48.4784960914075
20
-8.9857773998182
30
0
41
1
10
48.9783437143507
20
-8.98435006939528
30
0
41
1
10
49.5433641612065
20
-8.98754658002755
30
0
41
1
10
50.122510468879
20
-8.9928501648198
30
0
41
1
10
50.7082575191872
20
-8.99450878651589
30
0
41
1
10
51.2263922131804
20
-8.9949693837159
30
0
41
1
10
51.7347661165844
20
-8.9951220167971
30
0
41
1
10
52.2748076293401
20
-8.99534130791744
30
0
41
1
10
52.8245724874054
20
-8.99576459962154
30
0
41
1
10
53.3232685915234
20
-8.99638485397909
30
0
41
1
10
53.8009791387841
20
-8.99673969248218
30
0
41
1
10
54.3266201027663
20
-8.99694406706598
30
0
41
1
10
54.9150335702919
20
-8.99688970908187
30
0
41
1
10
55.501860327575
20
-8.99705768460896
30
0
41
1
10
56.0380164939497
20
-8.99761466983975
30
0
41
1
10
56.5207044208033
20
-8.99794567036005
30
0
41
1
10
57.0927651398754
20
-8.99831947951444
30
0
41
1
10
57.7659870958111
20
-8.99839384882043
30
0
41
1
10
58.5549008759463
20
-8.99881823584673
30
0
41
1
10
59.3137566975221
20
-8.99995611878163
30
0
41
1
10
60.0131927243425
20
-9.00017453741106
30
0
41
1
10
60.6694818252512
20
-9.00003318651181
30
0
41
1
10
61.6368016745934
20
-9.00032731328207
30
0
41
1
10
62.898021354877
20
-9.00223508668137
30
0
41
1
10
64.5021812260008
20
-9.00177441826585
30
0
41
1
10
66.0678196145913
20
-9.00324468625121
30
0
41
1
10
67.6717915559606
20
-9.00481406499213
30
0
41
1
10
69.310746522596
20
-9.00467828415273
30
0
41
1
10
70.5948030682117
20
-9.00615372709521
30
0
41
1
10
71.5035757055016
20
-9.00638122507146
30
0
41
1
10
71.9834398288675
20
-9.00617007226208
30
0
41
1
10
72.4735624747219
20
-9.00612868080481
30
0
41
1
10
72.9622464795182
20
-9.00649190363885
30
0
41
1
10
73.2876578626061
20
-9.00707510188531
30
0
41
1
10
73.446228461179
20
-9.00743420487674
30
0
0
SPLINE
5
104
100
AcDbEntity
8
1
62
256
6
ByLayer
370
18
48
1
60
0
100
AcDbSpline
70
4
71
3
72
36
73
32
40
0
40
0
40
0
40
0
40
0.0164722213106779
40
0.0449540105459774
40
0.0831851152061919
40
0.133915875131724
40
0.167631977645859
40
0.192388046978745
40
0.209031631495986
40
0.226425138740519
40
0.246889533757991
40
0.270433141931153
40
0.311930037883368
40
0.349918611824863
40
0.382973127969221
40
0.41438603989192
40
0.444862259848378
40
0.476171039726765
40
0.516918773691199
40
0.568515692775143
40
0.619788956941152
40
0.667414644945537
40
0.716499050536113
40
0.755527524951939
40
0.792554450386812
40
0.812479813550419
40
0.834083699592274
40
0.864209526031858
40
0.904582679829577
40
0.955282250129576
40
1
40
1
40
1
40
1
41
1
10
19.0183094990294
20
8.97732137257807
30
0
41
1
10
18.935210896181
20
8.97738168669832
30
0
41
1
10
18.7080514104486
20
8.97747212133464
30
0
41
1
10
18.2844201376144
20
8.97704293505862
30
0
41
1
10
17.6869052606323
20
8.97638633073848
30
0
41
1
10
17.0623841670693
20
8.97590004795964
30
0
41
1
10
16.5065529195202
20
8.97578946817461
30
0
41
1
10
16.1242124313906
20
8.97566390486432
30
0
41
1
10
15.8249562455437
20
8.97549729874973
30
0
41
1
10
15.5475401523404
20
8.97525557080846
30
0
41
1
10
15.2350044210385
20
8.97490655851038
30
0
41
1
10
14.7997831934936
20
8.97439925484758
30
0
41
1
10
14.2753643327051
20
8.97393251828944
30
0
41
1
10
13.7025295439043
20
8.97401154734223
30
0
41
1
10
13.1810237108632
20
8.974130875231
30
0
41
1
10
12.6977572062544
20
8.9739686592502
30
0
41
1
10
12.2233775788623
20
8.97333958955988
30
0
41
1
10
11.7014852997857
20
8.97281281213427
30
0
41
1
10
11.0720822542881
20
8.97261697607752
30
0
41
1
10
10.3410606920002
20
8.97244660445836
30
0
41
1
10
9.57502987799546
20
8.97143028474088
30
0
41
1
10
8.82178890250054
20
8.96975062567049
30
0
41
1
10
8.13087283108996
20
8.96985113271197
30
0
41
1
10
7.49390651295028
20
8.96958881993336
30
0
41
1
10
7.00536254594599
20
8.96933807423579
30
0
41
1
10
6.60550941141543
20
8.96911446218297
30
0
41
1
10
6.24078232170873
20
8.96891684031792
30
0
41
1
10
5.77197829006982
20
8.96863578556543
30
0
41
1
10
5.15507472788843
20
8.96812003083878
30
0
41
1
10
4.46389140836462
20
8.96725291974766
30
0
41
1
10
3.97822073170914
20
8.96614414071499
30
0
41
1
10
3.75061013972314
20
8.96553663864097
30
0
0
SPLINE
5
105
100
AcDbEntity
8
1
62
256
6
ByLayer
370
18
48
1
60
0
100
AcDbSpline
70
4
71
3
72
35
73
31
40
0
40
0
40
0
40
0
40
0.0234038025485911
40
0.0518300201457096
40
0.0809024710893198
40
0.123422781663707
40
0.170462359417248
40
0.214342737077335
40
0.248159418862364
40
0.27991607251594
40
0.3224907790904
40
0.373334763340235
40
0.422697049864081
40
0.476087697715508
40
0.53827701630456
40
0.577773463456932
40
0.617161981394165
40
0.64987516605974
40
0.673529150591382
40
0.69517760139841
40
0.721324068296764
40
0.751995537614647
40
0.799403727153422
40
0.844794105674483
40
0.887691118892088
40
0.926786391323558
40
0.946402810370312
40
0.965319583818377
40
0.989923922141899
40
1
40
1
40
1
40
1
41
1
10
73.4235541593154
20
9.00750954715949
30
0
41
1
10
73.2640298750069
20
9.00733584321642
30
0
41
1
10
72.9113218172529
20
9.00686919012821
30
0
41
1
10
72.3620277996922
20
9.00590015796905
30
0
41
1
10
71.6874880927646
20
9.00420669382538
30
0
41
1
10
70.8762494857744
20
9.00383808667334
30
0
41
1
10
69.9703857164205
20
9.0036404362402
30
0
41
1
10
69.1256583541708
20
9.00505278772008
30
0
41
1
10
68.3809524293878
20
9.00525878778708
30
0
41
1
10
67.6438585849952
20
9.00463675869938
30
0
41
1
10
66.7910928517616
20
9.00321587135767
30
0
41
1
10
65.8182580240136
20
9.00344901804419
30
0
41
1
10
64.7717648410703
20
9.00274457624258
30
0
41
1
10
63.6479615616958
20
9.0011672649959
30
0
41
1
10
62.5913796505174
20
9.00218330669455
30
0
41
1
10
61.6302016517549
20
9.00066568200188
30
0
41
1
10
60.8698501511705
20
8.99991612224886
30
0
41
1
10
60.2174444041848
20
9.00018696706672
30
0
41
1
10
59.685882577263
20
9.00005096467339
30
0
41
1
10
59.1991448099529
20
8.99978437943398
30
0
41
1
10
58.6656204586363
20
8.9989873891767
30
0
41
1
10
57.9583694172688
20
8.9977987229743
30
0
41
1
10
57.1220892798273
20
8.99639142083757
30
0
41
1
10
56.1954513002367
20
8.99557953477034
30
0
41
1
10
55.3306207661229
20
8.99634263585847
30
0
41
1
10
54.6456816034324
20
8.99703903712117
30
0
41
1
10
54.1171029177773
20
8.99685754467004
30
0
41
1
10
53.6868882350521
20
8.99668044138468
30
0
41
1
10
53.3217108216378
20
8.99634481394276
30
0
41
1
10
53.0854478484791
20
8.99609088058017
30
0
41
1
10
53.0168021132658
20
8.99601786795728
30
0
0
SPLINE
5
106
100
AcDbEntity
8
1
62
256
6
ByLayer
370
18
48
1
60
0
100
AcDbSpline
70
4
71
3
72
29
73
25
40
0
40
0
40
0
40
0
40
0.0379540716487259
40
0.0791923470634768
40
0.109071156725563
40
0.14014021882554
40
0.17494668955666
40
0.224664938764518
40
0.271044161714805
40
0.313353974869674
40
0.360105968087478
40
0.409804855959738
40
0.460207706412099
40
0.511070847141255
40
0.568814322496373
40
0.63587025646885
40
0.690292763572431
40
0.746626621719707
40
0.806283368259324
40
0.852896862184269
40
0.88667185233014
40
0.925464741404933
40
0.966385672869084
40
1
40
1
40
1
40
1
41
1
10
3.75060570715806
20
-8.96555242002299
30
0
41
1
10
3.94328067384453
20
-8.96607403186809
30
0
41
1
10
4.34519987203888
20
-8.96700884985896
30
0
41
1
10
4.89886233419799
20
-8.96781492034538
30
0
41
1
10
5.41668347814147
20
-8.96826383448843
30
0
41
1
10
5.90277566045512
20
-8.96857548532478
30
0
41
1
10
6.4895490486183
20
-8.96895686979664
30
0
41
1
10
7.15344053132793
20
-8.96941597585786
30
0
41
1
10
7.85582554943693
20
-8.96978495304228
30
0
41
1
10
8.54331509874154
20
-8.96975349599018
30
0
41
1
10
9.24765730551607
20
-8.97052746186827
30
0
41
1
10
9.99303597586518
20
-8.97219792579099
30
0
41
1
10
10.7593229263007
20
-8.97257034593591
30
0
41
1
10
11.5664337972643
20
-8.97265614107141
30
0
41
1
10
12.4580824981528
20
-8.97374174940126
30
0
41
1
10
13.3677936834864
20
-8.9742167626338
30
0
41
1
10
14.270345131041
20
-8.97381180935335
30
0
41
1
10
15.1353493397432
20
-8.97479825526926
30
0
41
1
10
15.9606968914085
20
-8.97568990122426
30
0
41
1
10
16.6715972296109
20
-8.97580776767956
30
0
41
1
10
17.2764310133242
20
-8.97602412340507
30
0
41
1
10
17.8526755709847
20
-8.97654299345533
30
0
41
1
10
18.4272515863002
20
-8.97728444291158
30
0
41
1
10
18.8038611565201
20
-8.97728638360562
30
0
41
1
10
18.973489925215
20
-8.97722511953521
30
0
0
SPLINE
5
107
100
AcDbEntity
8
1
62
256
6
ByLayer
370
18
48
1
60
0
100
AcDbSpline
70
4
71
3
72
8
73
4
40
0
40
0
40
0
40
0
40
1
40
1
40
1
40
1
41
1
10
18.9937092199079
20
-8.97721752462994
30
0
41
1
10
19.0155130714454
20
-8.97720902166503
30
0
41
1
10
19.037313371003
20
-8.97719951587965
30
0
41
1
10
19.0591102137091
20
-8.97718908512718
30
0
0
SPLINE
5
108
100
AcDbEntity
8
1
62
256
6
ByLayer
370
18
48
1
60
0
100
AcDbSpline
70
4
71
1
72
4
73
2
40
0
40
0
40
1
40
1
41
1
10
20.3250253086981
20
0.0046626698220962
30
0
41
1
10
20.3250375954057
20
0.0046561887713779
30
0
0
LINE
5
82
100
AcDbEntity
8
4
62
256
6
ByLayer
370
18
48
0.05
60
0
100
AcDbLine
10
0
20
0
30
0
11
103
21
0
31
0
39
0
210
0
220
0
230
1
0
LINE
5
84
100
AcDbEntity
8
81
62
256
6
ByLayer
370
18
48
1
60
0
100
AcDbLine
10
103
20
0
30
0
11
106
21
0
31
0
39
0
210
0
220
0
230
1
0
LINE
5
85
100
AcDbEntity
8
80
62
256
6
ByLayer
370
18
48
1
60
0
100
AcDbLine
10
0
20
0
30
0
11
-3
21
0
31
0
39
0
210
0
220
0
230
1
0
LINE
5
86
100
AcDbEntity
8
SK4
62
256
6
ByLayer
370
18
48
0.05
60
0
100
AcDbLine
10
-53
20
0
30
0
11
106
21
0
31
0
39
0
210
0
220
0
230
1
0
LINE
5
88
100
AcDbEntity
8
1
62
256
6
ByLayer
370
13
48
1
60
0
100
AcDbLine
10
102.867522
20
0.114364
30
0
11
100.618384
21
2.597022
31
0
39
0
210
0
220
0
230
1
0
LINE
5
89
100
AcDbEntity
8
1
62
256
6
ByLayer
370
13
48
1
60
0
100
AcDbLine
10
0.611858
20
9.71549
30
0
11
0.611858
21
-9.71549
31
0
39
0
210
0
220
0
230
1
0
LINE
5
8A
100
AcDbEntity
8
1
62
256
6
ByLayer
370
13
48
1
60
0
100
AcDbLine
10
0.60532
20
9.723056
30
0
11
0.60532
21
-9.723056
31
0
39
0
210
0
220
0
230
1
0
LINE
5
8B
100
AcDbEntity
8
1
62
256
6
ByLayer
370
18
48
1
60
0
100
AcDbLine
10
0
20
10
30
0
11
0
21
-10
31
0
39
0
210
0
220
0
230
1
0
LINE
5
8C
100
AcDbEntity
8
1
62
256
6
ByLayer
370
13
48
1
60
0
100
AcDbLine
10
1.217678
20
9.438546
30
0
11
1.217678
21
-9.438546
31
0
39
0
210
0
220
0
230
1
0
LINE
5
8D
100
AcDbEntity
8
1
62
256
6
ByLayer
370
18
48
1
60
0
100
AcDbLine
10
3.5
20
9.439973
30
0
11
3.5
21
7.881003
31
0
39
0
210
0
220
0
230
1
0
LINE
5
8E
100
AcDbEntity
8
1
62
256
6
ByLayer
370
18
48
1
60
0
100
AcDbLine
10
3.5
20
-9.439973
30
0
11
3.5
21
-5.341475
31
0
39
0
210
0
220
0
230
1
0
LINE
5
8F
100
AcDbEntity
8
1
62
256
6
ByLayer
370
18
48
1
60
0
100
AcDbLine
10
40
20
-9.060845
30
0
11
40
21
-9.177367
31
0
39
0
210
0
220
0
230
1
0
LINE
5
90
100
AcDbEntity
8
SK1
62
256
6
ByLayer
370
18
48
1
60
0
100
AcDbLine
10
-50
20
-6.40136
30
0
11
-50
21
-6.689848
31
0
39
0
210
0
220
0
230
1
0
LINE
5
92
100
AcDbEntity
8
SK1
62
256
6
ByLayer
370
13
48
1
60
0
100
AcDbLine
10
-47.7
20
-9.02265
30
0
11
-47.7
21
-8.734101
31
0
39
0
210
0
220
0
230
1
0
LINE
5
93
100
AcDbEntity
8
SK1
62
256
6
ByLayer
370
18
48
1
60
0
100
AcDbLine
10
-47.6
20
-9.145
30
0
11
-47.6
21
-8.860733
31
0
39
0
210
0
220
0
230
1
0
LINE
5
94
100
AcDbEntity
8
SK1
62
256
6
ByLayer
370
18
48
1
60
0
100
AcDbLine
10
-47.6
20
9.145
30
0
11
-47.6
21
9.129939
31
0
39
0
210
0
220
0
230
1
0
LINE
5
95
100
AcDbEntity
8
SK1
62
256
6
ByLayer
370
18
48
1
60
0
100
AcDbLine
10
-50
20
6.689848
30
0
11
-50
21
-6.401412
31
0
39
0
210
0
220
0
230
1
0
LINE
5
96
100
AcDbEntity
8
SK1
62
256
6
ByLayer
370
18
48
1
60
0
100
AcDbLine
10
-46.745
20
-10
30
0
11
-46.745
21
10
31
0
39
0
210
0
220
0
230
1
0
LINE
5
97
100
AcDbEntity
8
SK1
62
256
6
ByLayer
370
18
48
1
60
0
100
AcDbLine
10
0
20
10
30
0
11
0
21
-10
31
0
39
0
210
0
220
0
230
1
0
LINE
5
98
100
AcDbEntity
8
1
62
256
6
ByLayer
370
18
48
1
60
0
100
AcDbLine
10
82.170553
20
-5.123218
30
0
11
82.17057
21
-5.123225
31
0
39
0
210
0
220
0
230
1
0
LINE
5
99
100
AcDbEntity
8
1
62
256
6
ByLayer
370
18
48
1
60
0
100
AcDbLine
10
0.611858
20
9.71549
30
0
11
0.60532
21
9.723056
31
0
39
0
210
0
220
0
230
1
0
LINE
5
9A
100
AcDbEntity
8
1
62
256
6
ByLayer
370
18
48
1
60
0
100
AcDbLine
10
0.60532
20
-9.723056
30
0
11
0.611858
21
-9.71549
31
0
39
0
210
0
220
0
230
1
0
LINE
5
9B
100
AcDbEntity
8
1
62
256
6
ByLayer
370
18
48
1
60
0
100
AcDbLine
10
1.217678
20
-9.438546
30
0
11
3.5
21
-9.439973
31
0
39
0
210
0
220
0
230
1
0
LINE
5
9C
100
AcDbEntity
8
1
62
256
6
ByLayer
370
18
48
1
60
0
100
AcDbLine
10
45.067797
20
-9.465952
30
0
11
47.533381
21
-9.467493
31
0
39
0
210
0
220
0
230
1
0
LINE
5
9D
100
AcDbEntity
8
1
62
256
6
ByLayer
370
18
48
1
60
0
100
AcDbLine
10
47.533381
20
9.467493
30
0
11
45.067797
21
9.465952
31
0
39
0
210
0
220
0
230
1
0
LINE
5
9E
100
AcDbEntity
8
1
62
256
6
ByLayer
370
18
48
1
60
0
100
AcDbLine
10
3.5
20
9.439973
30
0
11
1.217678
21
9.438546
31
0
39
0
210
0
220
0
230
1
0
LINE
5
9F
100
AcDbEntity
8
SK1
62
256
6
ByLayer
370
18
48
1
60
0
100
AcDbLine
10
-47.6
20
-9.145
30
0
11
-46.745
21
-10
31
0
39
0
210
0
220
0
230
1
0
LINE
5
A0
100
AcDbEntity
8
SK1
62
256
6
ByLayer
370
18
48
1
60
0
100
AcDbLine
10
-46.745
20
10
30
0
11
-47.6
21
9.145
31
0
39
0
210
0
220
0
230
1
0
LINE
5
A1
100
AcDbEntity
8
SK1
62
256
6
ByLayer
370
18
48
1
60
0
100
AcDbLine
10
-46.745
20
-10
30
0
11
0
21
-10
31
0
39
0
210
0
220
0
230
1
0
LINE
5
A2
100
AcDbEntity
8
SK1
62
256
6
ByLayer
370
18
48
1
60
0
100
AcDbLine
10
0
20
10
30
0
11
-46.745
21
10
31
0
39
0
210
0
220
0
230
1
0
LINE
5
A3
100
AcDbEntity
8
2
62
256
6
ByLayer
370
13
48
1
60
0
100
AcDbLine
10
116.75
20
-9.5
30
0
11
116.75
21
23.556066
31
0
39
0
210
0
220
0
230
1
0
LINE
5
A5
100
AcDbEntity
8
2
62
256
6
ByLayer
370
13
48
1
60
0
100
AcDbLine
10
104.5875
20
9.5
30
0
11
118.75
21
9.5
31
0
39
0
210
0
220
0
230
1
0
LINE
5
A6
100
AcDbEntity
8
2
62
256
6
ByLayer
370
13
48
1
60
0
100
AcDbLine
10
104.5875
20
-9.5
30
0
11
118.75
21
-9.5
31
0
39
0
210
0
220
0
230
1
0
LINE
5
A7
100
AcDbEntity
8
1
62
256
6
ByLayer
370
18
48
1
60
1
100
AcDbLine
10
116.75
20
9.5
30
0
11
117.210784
21
6.000002
31
0
39
0
210
0
220
0
230
1
0
LINE
5
A8
100
AcDbEntity
8
1
62
256
6
ByLayer
370
18
48
1
60
1
100
AcDbLine
10
117.210784
20
6.000002
30
0
11
116.289216
21
5.999998
31
0
39
0
210
0
220
0
230
1
0
LINE
5
A9
100
AcDbEntity
8
1
62
256
6
ByLayer
370
18
48
1
60
1
100
AcDbLine
10
116.289216
20
5.999998
30
0
11
116.75
21
9.5
31
0
39
0
210
0
220
0
230
1
0
LINE
5
AA
100
AcDbEntity
8
1
62
256
6
ByLayer
370
18
48
1
60
1
100
AcDbLine
10
116.75
20
-9.5
30
0
11
116.289216
21
-6.000002
31
0
39
0
210
0
220
0
230
1
0
LINE
5
AB
100
AcDbEntity
8
1
62
256
6
ByLayer
370
18
48
1
60
1
100
AcDbLine
10
116.289216
20
-6.000002
30
0
11
117.210784
21
-5.999998
31
0
39
0
210
0
220
0
230
1
0
LINE
5
AC
100
AcDbEntity
8
1
62
256
6
ByLayer
370
18
48
1
60
1
100
AcDbLine
10
117.210784
20
-5.999998
30
0
11
116.75
21
-9.5
31
0
39
0
210
0
220
0
230
1
0
LINE
5
AD
100
AcDbEntity
8
SK2
62
256
6
ByLayer
370
13
48
1
60
0
100
AcDbLine
10
-58.25
20
-10
30
0
11
-58.25
21
22.930932
31
0
39
0
210
0
220
0
230
1
0
LINE
5
AF
100
AcDbEntity
8
SK2
62
256
6
ByLayer
370
13
48
1
60
0
100
AcDbLine
10
-51.5875
20
10
30
0
11
-60.25
21
10
31
0
39
0
210
0
220
0
230
1
0
LINE
5
B0
100
AcDbEntity
8
SK2
62
256
6
ByLayer
370
13
48
1
60
0
100
AcDbLine
10
-51.5875
20
-10
30
0
11
-60.25
21
-10
31
0
39
0
210
0
220
0
230
1
0
LINE
5
B1
100
AcDbEntity
8
1
62
256
6
ByLayer
370
18
48
1
60
1
100
AcDbLine
10
-58.25
20
10
30
0
11
-57.789216
21
6.500002
31
0
39
0
210
0
220
0
230
1
0
LINE
5
B2
100
AcDbEntity
8
1
62
256
6
ByLayer
370
18
48
1
60
1
100
AcDbLine
10
-57.789216
20
6.500002
30
0
11
-58.710784
21
6.499998
31
0
39
0
210
0
220
0
230
1
0
LINE
5
B3
100
AcDbEntity
8
1
62
256
6
ByLayer
370
18
48
1
60
1
100
AcDbLine
10
-58.710784
20
6.499998
30
0
11
-58.25
21
10
31
0
39
0
210
0
220
0
230
1
0
LINE
5
B4
100
AcDbEntity
8
1
62
256
6
ByLayer
370
18
48
1
60
1
100
AcDbLine
10
-58.25
20
-10
30
0
11
-58.710784
21
-6.500002
31
0
39
0
210
0
220
0
230
1
0
LINE
5
B5
100
AcDbEntity
8
1
62
256
6
ByLayer
370
18
48
1
60
1
100
AcDbLine
10
-58.710784
20
-6.500002
30
0
11
-57.789216
21
-6.499998
31
0
39
0
210
0
220
0
230
1
0
LINE
5
B6
100
AcDbEntity
8
1
62
256
6
ByLayer
370
18
48
1
60
1
100
AcDbLine
10
-57.789216
20
-6.499998
30
0
11
-58.25
21
-10
31
0
39
0
210
0
220
0
230
1
0
LINE
5
B7
100
AcDbEntity
8
SK2
62
256
6
ByLayer
370
13
48
1
60
0
100
AcDbLine
10
103.542996
20
1.491748
30
0
11
116.611264
21
37.393584
31
0
39
0
210
0
220
0
230
1
0
LINE
5
B8
100
AcDbEntity
8
SK2
62
256
6
ByLayer
370
13
48
1
60
0
100
AcDbLine
10
103.542996
20
-1.491748
30
0
11
116.611264
21
-37.393584
31
0
39
0
210
0
220
0
230
1
0
LINE
5
B9
100
AcDbEntity
8
1
62
256
6
ByLayer
370
18
48
1
60
1
100
AcDbLine
10
115.927175
20
35.514216
30
0
11
119.355075
21
34.670526
31
0
39
0
210
0
220
0
230
1
0
LINE
5
BA
100
AcDbEntity
8
1
62
256
6
ByLayer
370
18
48
1
60
1
100
AcDbLine
10
119.355075
20
34.670526
30
0
11
119.019912
21
33.812067
31
0
39
0
210
0
220
0
230
1
0
LINE
5
BB
100
AcDbEntity
8
1
62
256
6
ByLayer
370
18
48
1
60
1
100
AcDbLine
10
119.019912
20
33.812067
30
0
11
115.927175
21
35.514216
31
0
39
0
210
0
220
0
230
1
0
LINE
5
BC
100
AcDbEntity
8
1
62
256
6
ByLayer
370
18
48
1
60
1
100
AcDbLine
10
115.927175
20
-35.514216
30
0
11
119.019908
21
-33.812068
31
0
39
0
210
0
220
0
230
1
0
LINE
5
BD
100
AcDbEntity
8
1
62
256
6
ByLayer
370
18
48
1
60
1
100
AcDbLine
10
119.019908
20
-33.812068
30
0
11
119.355078
21
-34.670525
31
0
39
0
210
0
220
0
230
1
0
LINE
5
BE
100
AcDbEntity
8
1
62
256
6
ByLayer
370
18
48
1
60
1
100
AcDbLine
10
119.355078
20
-34.670525
30
0
11
115.927175
21
-35.514216
31
0
39
0
210
0
220
0
230
1
0
LINE
5
109
100
AcDbEntity
8
1
62
256
6
ByLayer
370
13
48
0.05
60
0
100
AcDbLine
10
-56.5
20
0
30
0
11
106.08429
21
0
31
0
39
0
210
0
220
0
230
1
0
LINE
5
10E
100
AcDbEntity
8
1
62
256
6
ByLayer
370
18
48
1
60
1
100
AcDbLine
10
116.75
20
9.5
30
0
11
117.210784
21
6.000002
31
0
39
0
210
0
220
0
230
1
0
LINE
5
10F
100
AcDbEntity
8
1
62
256
6
ByLayer
370
18
48
1
60
1
100
AcDbLine
10
117.210784
20
6.000002
30
0
11
116.289216
21
5.999998
31
0
39
0
210
0
220
0
230
1
0
LINE
5
110
100
AcDbEntity
8
1
62
256
6
ByLayer
370
18
48
1
60
1
100
AcDbLine
10
116.289216
20
5.999998
30
0
11
116.75
21
9.5
31
0
39
0
210
0
220
0
230
1
0
LINE
5
112
100
AcDbEntity
8
1
62
256
6
ByLayer
370
18
48
1
60
1
100
AcDbLine
10
116.75
20
-9.5
30
0
11
116.289216
21
-6.000002
31
0
39
0
210
0
220
0
230
1
0
LINE
5
113
100
AcDbEntity
8
1
62
256
6
ByLayer
370
18
48
1
60
1
100
AcDbLine
10
116.289216
20
-6.000002
30
0
11
117.210784
21
-5.999998
31
0
39
0
210
0
220
0
230
1
0
LINE
5
114
100
AcDbEntity
8
1
62
256
6
ByLayer
370
18
48
1
60
1
100
AcDbLine
10
117.210784
20
-5.999998
30
0
11
116.75
21
-9.5
31
0
39
0
210
0
220
0
230
1
0
LINE
5
118
100
AcDbEntity
8
1
62
256
6
ByLayer
370
18
48
1
60
1
100
AcDbLine
10
-58.25
20
10
30
0
11
-57.789216
21
6.500002
31
0
39
0
210
0
220
0
230
1
0
LINE
5
119
100
AcDbEntity
8
1
62
256
6
ByLayer
370
18
48
1
60
1
100
AcDbLine
10
-57.789216
20
6.500002
30
0
11
-58.710784
21
6.499998
31
0
39
0
210
0
220
0
230
1
0
LINE
5
11A
100
AcDbEntity
8
1
62
256
6
ByLayer
370
18
48
1
60
1
100
AcDbLine
10
-58.710784
20
6.499998
30
0
11
-58.25
21
10
31
0
39
0
210
0
220
0
230
1
0
LINE
5
11C
100
AcDbEntity
8
1
62
256
6
ByLayer
370
18
48
1
60
1
100
AcDbLine
10
-58.25
20
-10
30
0
11
-58.710784
21
-6.500002
31
0
39
0
210
0
220
0
230
1
0
LINE
5
11D
100
AcDbEntity
8
1
62
256
6
ByLayer
370
18
48
1
60
1
100
AcDbLine
10
-58.710784
20
-6.500002
30
0
11
-57.789216
21
-6.499998
31
0
39
0
210
0
220
0
230
1
0
LINE
5
11E
100
AcDbEntity
8
1
62
256
6
ByLayer
370
18
48
1
60
1
100
AcDbLine
10
-57.789216
20
-6.499998
30
0
11
-58.25
21
-10
31
0
39
0
210
0
220
0
230
1
0
LINE
5
121
100
AcDbEntity
8
1
62
256
6
ByLayer
370
18
48
1
60
1
100
AcDbLine
10
115.927175
20
35.514216
30
0
11
119.355075
21
34.670526
31
0
39
0
210
0
220
0
230
1
0
LINE
5
122
100
AcDbEntity
8
1
62
256
6
ByLayer
370
18
48
1
60
1
100
AcDbLine
10
119.355075
20
34.670526
30
0
11
119.019912
21
33.812067
31
0
39
0
210
0
220
0
230
1
0
LINE
5
123
100
AcDbEntity
8
1
62
256
6
ByLayer
370
18
48
1
60
1
100
AcDbLine
10
119.019912
20
33.812067
30
0
11
115.927175
21
35.514216
31
0
39
0
210
0
220
0
230
1
0
LINE
5
125
100
AcDbEntity
8
1
62
256
6
ByLayer
370
18
48
1
60
1
100
AcDbLine
10
115.927175
20
-35.514216
30
0
11
119.019908
21
-33.812068
31
0
39
0
210
0
220
0
230
1
0
LINE
5
126
100
AcDbEntity
8
1
62
256
6
ByLayer
370
18
48
1
60
1
100
AcDbLine
10
119.019908
20
-33.812068
30
0
11
119.355078
21
-34.670525
31
0
39
0
210
0
220
0
230
1
0
LINE
5
127
100
AcDbEntity
8
1
62
256
6
ByLayer
370
18
48
1
60
1
100
AcDbLine
10
119.355078
20
-34.670525
30
0
11
115.927175
21
-35.514216
31
0
39
0
210
0
220
0
230
1
0
MTEXT
5
10A
100
AcDbEntity
8
2
62
256
6
ByLayer
370
18
48
1
60
0
100
AcDbMText
10
115.185366
20
13.434844
30
0
210
0
220
0
230
1
1
%%c
40
3.5
41
0
44
1.084337
50
90
71
7
72
5
7
iso_b_vert
0
MTEXT
5
10D
100
AcDbEntity
8
2
62
256
6
ByLayer
370
18
48
1
60
0
100
AcDbMText
10
115.185366
20
20.4075
30
0
210
0
220
0
230
1
1
\W0.5469;19
40
3.5
41
0
44
1.084337
50
90
71
7
72
5
7
iso_b_vert
0
MTEXT
5
116
100
AcDbEntity
8
SK2
62
256
6
ByLayer
370
18
48
1
60
0
100
AcDbMText
10
-59.814634
20
11.934844
30
0
210
0
220
0
230
1
1
%%c
40
3.5
41
0
44
1.084337
50
90
71
7
72
5
7
iso_b_vert
0
MTEXT
5
117
100
AcDbEntity
8
SK2
62
256
6
ByLayer
370
18
48
1
60
0
100
AcDbMText
10
-59.814634
20
18.9075
30
0
210
0
220
0
230
1
1
\W0.6740;20
40
3.5
41
0
44
1.084337
50
90
71
7
72
5
7
iso_b_vert
0
MTEXT
5
120
100
AcDbEntity
8
SK2
62
256
6
ByLayer
370
18
48
1
60
0
100
AcDbMText
10
136.722152
20
-2.467366
30
0
210
0
220
0
230
1
1
\W0.7825;140%%d
40
3.5
41
0
44
1.084337
50
0
71
7
72
5
7
iso_b_vert
0
MTEXT
5
129
100
AcDbEntity
8
SK6
62
256
6
ByLayer
370
18
48
1
60
0
100
AcDbMText
10
0.069239
20
-97.467366
30
0
210
0
220
0
230
1
1
\W0.7396;860.1-1900-077A1-MM M2BM
40
3.5
41
0
44
1.084337
50
0
71
7
72
5
7
iso_b_vert
0
HATCH
5
111
100
AcDbEntity
8
2
62
256
6
ByLayer
370
13
48
1
60
0
100
AcDbHatch
10
0
20
0
30
0
210
0
220
0
230
1
2
ANSI31
70
0
71
0
91
1
92
5
93
3
72
1
10
116.75
20
9.5
11
117.210783741553
21
6.00000169255318
72
1
10
117.210783741553
20
6.00000169255318
11
116.289216258447
21
5.99999830744682
72
1
10
116.289216258447
20
5.99999830744682
11
116.75
21
9.5
97
0
75
0
76
1
52
0
41
0.0062
77
0
78
1
53
45
43
0
44
0
45
-0.0139193969876572
46
0.0139193969876572
79
0
47
0
98
1
10
0
20
0
0
HATCH
5
115
100
AcDbEntity
8
2
62
256
6
ByLayer
370
13
48
1
60
0
100
AcDbHatch
10
0
20
0
30
0
210
0
220
0
230
1
2
ANSI31
70
0
71
0
91
1
92
5
93
3
72
1
10
116.75
20
-9.5
11
116.289216258447
21
-6.00000169255318
72
1
10
116.289216258447
20
-6.00000169255318
11
117.210783741553
21
-5.99999830744682
72
1
10
117.210783741553
20
-5.99999830744682
11
116.75
21
-9.5
97
0
75
0
76
1
52
0
41
0.0062
77
0
78
1
53
45
43
0
44
0
45
-0.0139193969876572
46
0.0139193969876572
79
0
47
0
98
1
10
0
20
0
0
HATCH
5
11B
100
AcDbEntity
8
SK2
62
256
6
ByLayer
370
13
48
1
60
0
100
AcDbHatch
10
0
20
0
30
0
210
0
220
0
230
1
2
ANSI31
70
0
71
0
91
1
92
5
93
3
72
1
10
-58.25
20
10
11
-57.7892162584472
21
6.50000169255318
72
1
10
-57.7892162584472
20
6.50000169255318
11
-58.7107837415528
21
6.49999830744682
72
1
10
-58.7107837415528
20
6.49999830744682
11
-58.25
21
10
97
0
75
0
76
1
52
0
41
0.0062
77
0
78
1
53
45
43
0
44
0
45
-0.0139193969876572
46
0.0139193969876572
79
0
47
0
98
1
10
0
20
0
0
HATCH
5
11F
100
AcDbEntity
8
SK2
62
256
6
ByLayer
370
13
48
1
60
0
100
AcDbHatch
10
0
20
0
30
0
210
0
220
0
230
1
2
ANSI31
70
0
71
0
91
1
92
5
93
3
72
1
10
-58.25
20
-10
11
-58.7107837415528
21
-6.50000169255318
72
1
10
-58.7107837415528
20
-6.50000169255318
11
-57.7892162584472
21
-6.49999830744682
72
1
10
-57.7892162584472
20
-6.49999830744682
11
-58.25
21
-10
97
0
75
0
76
1
52
0
41
0.0062
77
0
78
1
53
45
43
0
44
0
45
-0.0139193969876572
46
0.0139193969876572
79
0
47
0
98
1
10
0
20
0
0
HATCH
5
124
100
AcDbEntity
8
SK2
62
256
6
ByLayer
370
13
48
1
60
0
100
AcDbHatch
10
0
20
0
30
0
210
0
220
0
230
1
2
ANSI31
70
0
71
0
91
1
92
5
93
3
72
1
10
115.927174728338
20
35.5142162866413
11
119.35507451295
21
34.670526251578
72
1
10
119.35507451295
20
34.670526251578
11
119.01991155124
21
33.8120669252108
72
1
10
119.01991155124
20
33.8120669252108
11
115.927174728338
21
35.5142162866413
97
0
75
0
76
1
52
0
41
0.0062
77
0
78
1
53
45
43
0
44
0
45
-0.0139193969876572
46
0.0139193969876572
79
0
47
0
98
1
10
0
20
0
0
HATCH
5
128
100
AcDbEntity
8
SK2
62
256
6
ByLayer
370
13
48
1
60
0
100
AcDbHatch
10
0
20
0
30
0
210
0
220
0
230
1
2
ANSI31
70
0
71
0
91
1
92
5
93
3
72
1
10
115.927174728337
20
-35.5142162866414
11
119.019908397947
21
-33.8120681563449
72
1
10
119.019908397947
20
-33.8120681563449
11
119.355077666242
21
-34.6705250204443
72
1
10
119.355077666242
20
-34.6705250204443
11
115.927174728337
21
-35.5142162866414
97
0
75
0
76
1
52
0
41
0.0062
77
0
78
1
53
45
43
0
44
0
45
-0.0139193969876572
46
0.0139193969876572
79
0
47
0
98
1
10
0
20
0
0
DIMENSION
5
12C
100
AcDbEntity
8
2
62
256
6
ByLayer
370
18
48
1
60
0
100
AcDbDimension
2
_U0
10
103
20
-64.995826
30
0
11
26.5
21
-64.995826
31
0
70
32
71
1
72
1
41
1
210
0
220
0
230
1
3
Standard
100
AcDbAlignedDimension
13
-50
23
-10
33
0
14
103
24
-9.5
34
0
50
0
100
AcDbRotatedDimension
1001
ACAD
1000
DSTYLE
1002
{
1070
   371
1070
    13
1070
   372
1070
    13
1070
     3
1000

1070
   170
1070
     0
1070
   144
1040
1.0
1070
   277
1070
     2
1070
   284
1070
     8
1070
   278
1070
    46
1070
   146
1040
1.0
1070
   345
1005
16
1070
   347
1005
16
1070
   346
1005
16
1070
   344
1005
0
1070
   343
1005
0
1070
   172
1070
     1
1070
    76
1070
     0
1070
    75
1070
     0
1070
   282
1070
     0
1070
   281
1070
     0
1070
    71
1070
     0
1070
    74
1070
     0
1070
   279
1070
     0
1070
   173
1070
     1
1070
   340
1005
10B
1070
   271
1070
     2
1070
   272
1070
     2
1070
    77
1070
     1
1070
    73
1070
     1
1070
   171
1070
     3
1070
   274
1070
     4
1070
   177
1070
     2
1070
   176
1070
     2
1070
   178
1070
     2
1070
    78
1070
     8
1070
    48
1040
-0.1
1070
    41
1040
3.5
1070
   147
1040
1.75
1070
    42
1040
1.5875
1070
    44
1040
2.0
1070
   140
1040
3.5
1002
}
1001
ACAD_DSTYLE_DIM_LINETYPE
1070
   380
1005
16
1001
ACAD_DSTYLE_DIM_EXT1_LINETYPE
1070
   381
1005
16
1001
ACAD_DSTYLE_DIM_EXT2_LINETYPE
1070
   382
1005
16
0
DIMENSION
5
145
100
AcDbEntity
8
SK2
62
256
6
ByLayer
370
18
48
1
60
0
100
AcDbDimension
2
_U1
10
2
20
-44.995826
30
0
11
52.5
21
-44.995826
31
0
70
32
71
1
72
1
41
1
210
0
220
0
230
1
3
Standard
100
AcDbAlignedDimension
13
103
23
-9.5
33
0
14
2
24
-9.5
34
0
50
0
100
AcDbRotatedDimension
1001
ACAD
1000
DSTYLE
1002
{
1070
   371
1070
    13
1070
   372
1070
    13
1070
     3
1000

1070
   170
1070
     0
1070
   144
1040
1.0
1070
   277
1070
     2
1070
   284
1070
     8
1070
   278
1070
    46
1070
   146
1040
1.0
1070
   345
1005
16
1070
   347
1005
16
1070
   346
1005
16
1070
   344
1005
0
1070
   343
1005
0
1070
   172
1070
     1
1070
    76
1070
     0
1070
    75
1070
     0
1070
   282
1070
     0
1070
   281
1070
     0
1070
    71
1070
     0
1070
    74
1070
     0
1070
   279
1070
     0
1070
   173
1070
     1
1070
   340
1005
10B
1070
   271
1070
     2
1070
   272
1070
     2
1070
    77
1070
     1
1070
    73
1070
     1
1070
   171
1070
     3
1070
   274
1070
     4
1070
   177
1070
     2
1070
   176
1070
     2
1070
   178
1070
     2
1070
    78
1070
     8
1070
    48
1040
-0.1
1070
    41
1040
3.5
1070
   147
1040
1.75
1070
    42
1040
1.5875
1070
    44
1040
2.0
1070
   140
1040
3.5
1002
}
1001
ACAD_DSTYLE_DIM_LINETYPE
1070
   380
1005
16
1001
ACAD_DSTYLE_DIM_EXT1_LINETYPE
1070
   381
1005
16
1001
ACAD_DSTYLE_DIM_EXT2_LINETYPE
1070
   382
1005
16
0
DIMENSION
5
15D
100
AcDbEntity
8
SK2
62
256
6
ByLayer
370
18
48
1
60
0
100
AcDbDimension
2
_U2
10
26
20
-34.995826
30
0
11
64.5
21
-34.995826
31
0
70
32
71
1
72
1
41
1
210
0
220
0
230
1
3
Standard
100
AcDbAlignedDimension
13
103
23
-9.5
33
0
14
26
24
-9.5
34
0
50
0
100
AcDbRotatedDimension
1001
ACAD
1000
DSTYLE
1002
{
1070
   371
1070
    13
1070
   372
1070
    13
1070
     3
1000

1070
   170
1070
     0
1070
   144
1040
1.0
1070
   277
1070
     2
1070
   284
1070
     8
1070
   278
1070
    46
1070
   146
1040
1.0
1070
   345
1005
16
1070
   347
1005
16
1070
   346
1005
16
1070
   344
1005
0
1070
   343
1005
0
1070
   172
1070
     1
1070
    76
1070
     0
1070
    75
1070
     0
1070
   282
1070
     0
1070
   281
1070
     0
1070
    71
1070
     0
1070
    74
1070
     0
1070
   279
1070
     0
1070
   173
1070
     1
1070
   340
1005
10B
1070
   271
1070
     2
1070
   272
1070
     2
1070
    77
1070
     1
1070
    73
1070
     1
1070
   171
1070
     3
1070
   274
1070
     4
1070
   177
1070
     2
1070
   176
1070
     2
1070
   178
1070
     2
1070
    78
1070
     8
1070
    48
1040
-0.1
1070
    41
1040
3.5
1070
   147
1040
1.75
1070
    42
1040
1.5875
1070
    44
1040
2.0
1070
   140
1040
3.5
1002
}
1001
ACAD_DSTYLE_DIM_LINETYPE
1070
   380
1005
16
1001
ACAD_DSTYLE_DIM_EXT1_LINETYPE
1070
   381
1005
16
1001
ACAD_DSTYLE_DIM_EXT2_LINETYPE
1070
   382
1005
16
0
DIMENSION
5
177
100
AcDbEntity
8
SK2
62
256
6
ByLayer
370
18
48
1
60
0
100
AcDbDimension
2
_U3
10
0
20
-44.995826
30
0
11
-25
21
-44.995826
31
0
70
32
71
1
72
1
41
1
210
0
220
0
230
1
3
Standard
100
AcDbAlignedDimension
13
-50
23
-10
33
0
14
0
24
-10
34
0
50
0
100
AcDbRotatedDimension
1001
ACAD
1000
DSTYLE
1002
{
1070
   371
1070
    13
1070
   372
1070
    13
1070
     3
1000

1070
   170
1070
     0
1070
   144
1040
1.0
1070
   277
1070
     2
1070
   284
1070
     8
1070
   278
1070
    46
1070
   146
1040
1.0
1070
   345
1005
16
1070
   347
1005
16
1070
   346
1005
16
1070
   344
1005
0
1070
   343
1005
0
1070
   172
1070
     1
1070
    76
1070
     0
1070
    75
1070
     0
1070
   282
1070
     0
1070
   281
1070
     0
1070
    71
1070
     0
1070
    74
1070
     0
1070
   279
1070
     0
1070
   173
1070
     1
1070
   340
1005
10B
1070
   271
1070
     2
1070
   272
1070
     2
1070
    77
1070
     1
1070
    73
1070
     1
1070
   171
1070
     3
1070
   274
1070
     4
1070
   177
1070
     2
1070
   176
1070
     2
1070
   178
1070
     2
1070
    78
1070
     8
1070
    48
1040
-0.1
1070
    41
1040
3.5
1070
   147
1040
1.75
1070
    42
1040
1.5875
1070
    44
1040
2.0
1070
   140
1040
3.5
1002
}
1001
ACAD_DSTYLE_DIM_LINETYPE
1070
   380
1005
16
1001
ACAD_DSTYLE_DIM_EXT1_LINETYPE
1070
   381
1005
16
1001
ACAD_DSTYLE_DIM_EXT2_LINETYPE
1070
   382
1005
16
0
DIMENSION
5
18F
100
AcDbEntity
8
SK2
62
256
6
ByLayer
370
18
48
1
60
0
100
AcDbDimension
2
_U4
10
103
20
-54.995826
30
0
11
51.5
21
-54.995826
31
0
70
32
71
1
72
1
41
1
210
0
220
0
230
1
3
Standard
100
AcDbAlignedDimension
13
0
23
-10
33
0
14
103
24
-9.5
34
0
50
0
100
AcDbRotatedDimension
1001
ACAD
1000
DSTYLE
1002
{
1070
   371
1070
    13
1070
   372
1070
    13
1070
     3
1000

1070
   170
1070
     0
1070
   144
1040
1.0
1070
   277
1070
     2
1070
   284
1070
     8
1070
   278
1070
    46
1070
   146
1040
1.0
1070
   345
1005
16
1070
   347
1005
16
1070
   346
1005
16
1070
   344
1005
0
1070
   343
1005
0
1070
   172
1070
     1
1070
    76
1070
     0
1070
    75
1070
     0
1070
   282
1070
     0
1070
   281
1070
     0
1070
    71
1070
     0
1070
    74
1070
     0
1070
   279
1070
     0
1070
   173
1070
     1
1070
   340
1005
10B
1070
   271
1070
     2
1070
   272
1070
     2
1070
    77
1070
     1
1070
    73
1070
     1
1070
   171
1070
     3
1070
   274
1070
     4
1070
   177
1070
     2
1070
   176
1070
     2
1070
   178
1070
     2
1070
    78
1070
     8
1070
    48
1040
-0.1
1070
    41
1040
3.5
1070
   147
1040
1.75
1070
    42
1040
1.5875
1070
    44
1040
2.0
1070
   140
1040
3.5
1002
}
1001
ACAD_DSTYLE_DIM_LINETYPE
1070
   380
1005
16
1001
ACAD_DSTYLE_DIM_EXT1_LINETYPE
1070
   381
1005
16
1001
ACAD_DSTYLE_DIM_EXT2_LINETYPE
1070
   382
1005
16
0
ENDSEC
0
SECTION
2
OBJECTS
0
DICTIONARY
5
217
330
0
100
AcDbDictionary
280
0
281
1
3
ACAD_GROUP
350
218
3
ACAD_MLINESTYLE
350
219
0
DICTIONARY
5
218
330
0
100
AcDbDictionary
280
0
281
1
0
DICTIONARY
5
219
330
0
100
AcDbDictionary
280
0
281
1
3
Standard
350
18
0
MLINESTYLE
5
18
330
219
100
AcDbMlineStyle
2
Standard
70
0
3

62
256
51
90
52
90
71
2
49
-0.5
62
256
6
ByLayer
49
0.5
62
256
6
ByLayer
0
RASTERVARIABLES
5
205
330

100
AcDbRasterVariables
90
0
70
1
71
1
72
1
0
ENDSEC
0
EOF
