0
SECTION
2
HEADER
9
$ACADVER
1
AC1015
9
$DWGCODEPAGE
3
ANSI_1252
9
$HANDSEED
5
21c
9
$ANGBASE
50
0
9
$ANGDIR
70
0
9
$ATTMODE
70
1
9
$AUNITS
70
0
9
$AUPREC
70
0
9
$CECOLOR
62
256
9
$CELTSCALE
40
1
9
$CELTYPE
6
ByLayer
9
$CELWEIGHT
370
18
9
$CLAYER
8
0
9
$CMLJUST
70
0
9
$CMLSCALE
40
1
9
$CMLSTYLE
2
Standard
9
$DIMSTYLE
2
Standard
9
$TEXTSIZE
40
0.2
9
$TEXTSTYLE
7
Standard
9
$LUNITS
70
2
9
$LUPREC
70
4
9
$EXTNAMES
290
1
9
$INSUNITS
70
4
9
$LTSCALE
40
1
9
$LWDISPLAY
290
1
9
$PDMODE
70
0
9
$PDSIZE
40
0
9
$PLINEGEN
70
0
0
ENDSEC
0
SECTION
2
CLASSES
0
CLASS
1
RASTERVARIABLES
2
AcDbRasterVariables
3
ISM
90
0
280
0
281
0
0
ENDSEC
0
SECTION
2
TABLES
0
TABLE
2
VPORT
5
212
100
AcDbSymbolTable
0
VPORT
5
1
100
AcDbSymbolTableRecord
100
AcDbViewportTableRecord
2
*Active
70
0
10
0
20
0
11
1
21
1
12
-1
22
1
13
0
23
0
14
0.5
24
0.5
15
10
25
10
16
0
26
0
36
1
17
0
27
0
37
0
0
ENDTAB
0
TABLE
2
LTYPE
5
213
100
AcDbSymbolTable
0
LTYPE
5
14
100
AcDbSymbolTableRecord
100
AcDbLinetypeTableRecord
70
0
2
ByBlock
3

72
65
73
0
40
0
0
LTYPE
5
15
100
AcDbSymbolTableRecord
100
AcDbLinetypeTableRecord
70
0
2
ByLayer
3

72
65
73
0
40
0
0
LTYPE
5
16
100
AcDbSymbolTableRecord
100
AcDbLinetypeTableRecord
70
0
2
Continuous
3
Solid line
72
65
73
0
40
0
0
LTYPE
5
6E
100
AcDbSymbolTableRecord
100
AcDbLinetypeTableRecord
70
0
2
CENTER
3
____ _ ____ _ ____ _ ____
72
65
73
4
40
47.5
49
22
74
0
49
-8.5
74
0
49
8.5
74
0
49
-8.5
74
0
0
LTYPE
5
6F
100
AcDbSymbolTableRecord
100
AcDbLinetypeTableRecord
70
0
2
DASHED
3
__ __ __ __ __ __ __ __ __
72
65
73
2
40
25.72
49
12.86
74
0
49
-12.86
74
0
0
ENDTAB
0
TABLE
2
LAYER
5
214
100
AcDbSymbolTable
0
LAYER
5
10
100
AcDbSymbolTableRecord
100
AcDbLayerTableRecord
2
0
70
0
62
7
6
Continuous
290
1
370
-3
390
0
0
LAYER
5
71
100
AcDbSymbolTableRecord
100
AcDbLayerTableRecord
2
80
70
0
62
-6
6
Continuous
290
1
370
-3
390
0
0
LAYER
5
73
100
AcDbSymbolTableRecord
100
AcDbLayerTableRecord
2
81
70
0
62
-3
6
Continuous
290
1
370
-3
390
0
0
LAYER
5
75
100
AcDbSymbolTableRecord
100
AcDbLayerTableRecord
2
1
70
0
62
4
6
Continuous
290
1
370
-3
390
0
0
LAYER
5
87
100
AcDbSymbolTableRecord
100
AcDbLayerTableRecord
2
4
70
0
62
-2
6
CENTER
290
1
370
-3
390
0
0
LAYER
5
A2
100
AcDbSymbolTableRecord
100
AcDbLayerTableRecord
2
2
70
0
62
7
6
Continuous
290
1
370
-3
390
0
0
LAYER
5
127
100
AcDbSymbolTableRecord
100
AcDbLayerTableRecord
2
Defpoints
70
0
62
7
6
Continuous
290
0
370
-3
390
0
0
LAYER
5
1fe
100
AcDbSymbolTableRecord
100
AcDbLayerTableRecord
2
SK4
70
0
62
2
6
CENTER
290
1
370
-3
390
0
0
LAYER
5
1ff
100
AcDbSymbolTableRecord
100
AcDbLayerTableRecord
2
SK1
70
0
62
4
6
Continuous
290
1
370
-3
390
0
0
LAYER
5
200
100
AcDbSymbolTableRecord
100
AcDbLayerTableRecord
2
SK2
70
0
62
7
6
Continuous
290
1
370
-3
390
0
0
LAYER
5
201
100
AcDbSymbolTableRecord
100
AcDbLayerTableRecord
2
SK6
70
0
62
5
6
Continuous
290
1
370
-3
390
0
0
ENDTAB
0
TABLE
2
STYLE
5
215
100
AcDbSymbolTable
0
STYLE
5
11
100
AcDbSymbolTableRecord
100
AcDbTextStyleTableRecord
2
Standard
3
txt
70
0
71
0
40
0
41
1
42
0
50
0
0
STYLE
5
103
100
AcDbSymbolTableRecord
100
AcDbTextStyleTableRecord
2
iso_b_vert
3
simplex.shx
70
0
71
0
40
0
41
1
42
0
50
0
0
STYLE
5
104
100
AcDbSymbolTableRecord
100
AcDbTextStyleTableRecord
2
DWGDirectTextStyle
3
simplex
70
0
71
0
40
0
41
1
42
0
50
0
0
ENDTAB
0
TABLE
2
DIMSTYLE
5
216
100
AcDbSymbolTable
100
AcDbDimStyleTable
0
DIMSTYLE
105
27
100
AcDbSymbolTableRecord
100
AcDbDimStyleTableRecord
2
Standard
70
0
3
<>
41
0.18
42
0.0625
44
0.18
140
0.18
147
0.09
73
0
74
0
77
1
271
2
275
0
278
52
280
0
340
11
0
ENDTAB
0
TABLE
2
VIEW
5
217
100
AcDbSymbolTable
0
ENDTAB
0
TABLE
2
UCS
5
218
100
AcDbSymbolTable
0
ENDTAB
0
TABLE
2
APPID
5
219
100
AcDbSymbolTable
0
APPID
5
12
100
AcDbSymbolTableRecord
100
AcDbRegAppTableRecord
2
ACAD
70
0
0
APPID
5
123
100
AcDbSymbolTableRecord
100
AcDbRegAppTableRecord
2
ACAD_DSTYLE_DIMBREAK
70
0
0
APPID
5
1BD
100
AcDbSymbolTableRecord
100
AcDbRegAppTableRecord
2
ACAD_DSTYLE_DIM_LINETYPE
70
0
0
APPID
5
1BE
100
AcDbSymbolTableRecord
100
AcDbRegAppTableRecord
2
ACAD_DSTYLE_DIM_EXT1_LINETYPE
70
0
0
APPID
5
1BF
100
AcDbSymbolTableRecord
100
AcDbRegAppTableRecord
2
ACAD_DSTYLE_DIM_EXT2_LINETYPE
70
0
0
APPID
5
1FA
100
AcDbSymbolTableRecord
100
AcDbRegAppTableRecord
2
ACAD_MLEADERVER
70
0
0
ENDTAB
0
TABLE
2
BLOCK_RECORD
5
21a
100
AcDbSymbolTable
0
BLOCK_RECORD
5
1F
100
AcDbSymbolTableRecord
100
AcDbBlockTableRecord
2
*Model_Space
340
0
70
0
0
BLOCK_RECORD
5
1B
100
AcDbSymbolTableRecord
100
AcDbBlockTableRecord
2
*Paper_Space
340
0
70
0
0
BLOCK_RECORD
5
23
100
AcDbSymbolTableRecord
100
AcDbBlockTableRecord
2
*Paper_Space0
340
0
70
0
0
BLOCK_RECORD
5
128
100
AcDbSymbolTableRecord
100
AcDbBlockTableRecord
2
*D1
340
0
70
0
0
BLOCK_RECORD
5
134
100
AcDbSymbolTableRecord
100
AcDbBlockTableRecord
2
_U0
340
0
70
0
0
BLOCK_RECORD
5
140
100
AcDbSymbolTableRecord
100
AcDbBlockTableRecord
2
*D3
340
0
70
0
0
BLOCK_RECORD
5
14C
100
AcDbSymbolTableRecord
100
AcDbBlockTableRecord
2
_U1
340
0
70
0
0
BLOCK_RECORD
5
158
100
AcDbSymbolTableRecord
100
AcDbBlockTableRecord
2
*D5
340
0
70
0
0
BLOCK_RECORD
5
164
100
AcDbSymbolTableRecord
100
AcDbBlockTableRecord
2
_U2
340
0
70
0
0
BLOCK_RECORD
5
172
100
AcDbSymbolTableRecord
100
AcDbBlockTableRecord
2
*D7
340
0
70
0
0
BLOCK_RECORD
5
17E
100
AcDbSymbolTableRecord
100
AcDbBlockTableRecord
2
_U3
340
0
70
0
0
BLOCK_RECORD
5
18A
100
AcDbSymbolTableRecord
100
AcDbBlockTableRecord
2
*D9
340
0
70
0
0
BLOCK_RECORD
5
196
100
AcDbSymbolTableRecord
100
AcDbBlockTableRecord
2
_U4
340
0
70
0
0
ENDTAB
0
ENDSEC
0
SECTION
2
BLOCKS
0
BLOCK
5
20
100
AcDbEntity
8
0
100
AcDbBlockBegin
2
*Model_Space
70
0
10
0
20
0
30
0
3
*Model_Space
0
ENDBLK
5
21
100
AcDbEntity
8
0
100
AcDbBlockEnd
0
BLOCK
5
1C
100
AcDbEntity
8
0
100
AcDbBlockBegin
2
*Paper_Space
70
0
10
0
20
0
30
0
3
*Paper_Space
0
ENDBLK
5
1D
100
AcDbEntity
8
0
100
AcDbBlockEnd
0
BLOCK
5
24
100
AcDbEntity
8
0
100
AcDbBlockBegin
2
*Paper_Space0
70
0
10
0
20
0
30
0
3
*Paper_Space0
0
ENDBLK
5
25
100
AcDbEntity
8
0
100
AcDbBlockEnd
0
BLOCK
5
129
100
AcDbEntity
8
0
100
AcDbBlockBegin
2
*D1
70
1
10
0
20
0
30
0
3
*D1
0
LINE
5
12B
100
AcDbEntity
8
0
62
256
6
ByLayer
370
-2
48
1
60
0
100
AcDbLine
10
-45
20
-8.5875
30
0
11
-45
21
-66.801012
31
0
39
0
210
0
220
0
230
1
0
LINE
5
12C
100
AcDbEntity
8
0
62
256
6
ByLayer
370
-2
48
1
60
0
100
AcDbLine
10
79
20
-8.5875
30
0
11
79
21
-66.801012
31
0
39
0
210
0
220
0
230
1
0
LINE
5
12D
100
AcDbEntity
8
0
62
256
6
ByLayer
370
-2
48
1
60
0
100
AcDbLine
10
-41.5
20
-64.801012
30
0
11
75.5
21
-64.801012
31
0
39
0
210
0
220
0
230
1
0
SOLID
5
12E
100
AcDbEntity
8
0
62
256
6
ByLayer
370
-1
48
1
60
0
100
AcDbTrace
10
-41.5
20
-64.217678
30
0
11
-41.5
21
-65.384345
31
0
12
-45
22
-64.801012
32
0
13
-45
23
-64.801012
33
0
39
0
210
0
220
0
230
1
0
SOLID
5
12F
100
AcDbEntity
8
0
62
256
6
ByLayer
370
-1
48
1
60
0
100
AcDbTrace
10
75.5
20
-65.384345
30
0
11
75.5
21
-64.217678
31
0
12
79
22
-64.801012
32
0
13
79
23
-64.801012
33
0
39
0
210
0
220
0
230
1
0
MTEXT
5
130
100
AcDbEntity
8
0
62
256
6
ByLayer
370
18
48
1
60
0
100
AcDbMText
10
17
20
-57.801012
30
0
210
0
220
0
230
1
1
\A1;124
40
3.5
41
0
44
1
50
0
71
5
72
5
7
iso_b_vert
0
POINT
5
131
100
AcDbEntity
8
Defpoints
62
0
6
ByLayer
370
-1
48
1
60
0
100
AcDbPoint
10
-45
20
-7
30
0
39
0
210
0
220
0
230
1
50
360
0
POINT
5
132
100
AcDbEntity
8
Defpoints
62
0
6
ByLayer
370
-1
48
1
60
0
100
AcDbPoint
10
79
20
-7
30
0
39
0
210
0
220
0
230
1
50
360
0
POINT
5
133
100
AcDbEntity
8
Defpoints
62
0
6
ByLayer
370
-1
48
1
60
0
100
AcDbPoint
10
79
20
-64.801012
30
0
39
0
210
0
220
0
230
1
50
360
0
ENDBLK
5
12A
100
AcDbEntity
8
0
100
AcDbBlockEnd
0
BLOCK
5
13B
100
AcDbEntity
8
0
100
AcDbBlockBegin
2
_U0
70
0
10
0
20
0
30
0
3
_U0
0
MTEXT
5
135
100
AcDbEntity
8
2
62
256
6
ByLayer
370
18
48
1
60
0
100
AcDbMText
10
14.040467
20
-63.768378
30
0
210
0
220
0
230
1
1
\W0.6506;124
40
3.5
41
0
44
1.084337
50
0
71
7
72
5
7
iso_b_vert
0
LINE
5
136
100
AcDbEntity
8
2
62
256
6
ByLayer
370
13
48
1
60
0
100
AcDbLine
10
-45
20
-8.5875
30
0
11
-45
21
-66.801012
31
0
39
0
210
0
220
0
230
1
0
LINE
5
137
100
AcDbEntity
8
2
62
256
6
ByLayer
370
13
48
1
60
0
100
AcDbLine
10
79
20
-8.5875
30
0
11
79
21
-66.801012
31
0
39
0
210
0
220
0
230
1
0
LINE
5
138
100
AcDbEntity
8
2
62
256
6
ByLayer
370
13
48
1
60
0
100
AcDbLine
10
-45
20
-64.801012
30
0
11
79
21
-64.801012
31
0
39
0
210
0
220
0
230
1
0
SOLID
5
139
100
AcDbEntity
8
2
62
256
6
ByLayer
370
18
48
1
60
0
100
AcDbTrace
10
-45
20
-64.801012
30
0
11
-41.500002
21
-64.340228
31
0
12
-41.499998
22
-65.261796
32
0
13
-41.499998
23
-65.261796
33
0
39
0
210
0
220
0
230
1
0
SOLID
5
13A
100
AcDbEntity
8
2
62
256
6
ByLayer
370
18
48
1
60
0
100
AcDbTrace
10
79
20
-64.801012
30
0
11
75.500002
21
-65.261796
31
0
12
75.499998
22
-64.340228
32
0
13
75.499998
23
-64.340228
33
0
39
0
210
0
220
0
230
1
0
ENDBLK
5
13C
100
AcDbEntity
8
0
100
AcDbBlockEnd
0
BLOCK
5
141
100
AcDbEntity
8
0
100
AcDbBlockBegin
2
*D3
70
1
10
0
20
0
30
0
3
*D3
0
LINE
5
143
100
AcDbEntity
8
0
62
256
6
ByLayer
370
-2
48
1
60
0
100
AcDbLine
10
79
20
-8.5875
30
0
11
79
21
-46.801012
31
0
39
0
210
0
220
0
230
1
0
LINE
5
144
100
AcDbEntity
8
0
62
256
6
ByLayer
370
-2
48
1
60
0
100
AcDbLine
10
2
20
-8.5875
30
0
11
2
21
-46.801012
31
0
39
0
210
0
220
0
230
1
0
LINE
5
145
100
AcDbEntity
8
0
62
256
6
ByLayer
370
-2
48
1
60
0
100
AcDbLine
10
75.5
20
-44.801012
30
0
11
5.5
21
-44.801012
31
0
39
0
210
0
220
0
230
1
0
SOLID
5
146
100
AcDbEntity
8
0
62
256
6
ByLayer
370
-1
48
1
60
0
100
AcDbTrace
10
75.5
20
-45.384345
30
0
11
75.5
21
-44.217678
31
0
12
79
22
-44.801012
32
0
13
79
23
-44.801012
33
0
39
0
210
0
220
0
230
1
0
SOLID
5
147
100
AcDbEntity
8
0
62
256
6
ByLayer
370
-1
48
1
60
0
100
AcDbTrace
10
5.5
20
-44.217678
30
0
11
5.5
21
-45.384345
31
0
12
2
22
-44.801012
32
0
13
2
23
-44.801012
33
0
39
0
210
0
220
0
230
1
0
MTEXT
5
148
100
AcDbEntity
8
0
62
256
6
ByLayer
370
18
48
1
60
0
100
AcDbMText
10
40.5
20
-37.801012
30
0
210
0
220
0
230
1
1
\A1;77
40
3.5
41
0
44
1
50
0
71
5
72
5
7
iso_b_vert
0
POINT
5
149
100
AcDbEntity
8
Defpoints
62
0
6
ByLayer
370
-1
48
1
60
0
100
AcDbPoint
10
79
20
-7
30
0
39
0
210
0
220
0
230
1
50
360
0
POINT
5
14A
100
AcDbEntity
8
Defpoints
62
0
6
ByLayer
370
-1
48
1
60
0
100
AcDbPoint
10
2
20
-7
30
0
39
0
210
0
220
0
230
1
50
360
0
POINT
5
14B
100
AcDbEntity
8
Defpoints
62
0
6
ByLayer
370
-1
48
1
60
0
100
AcDbPoint
10
2
20
-44.801012
30
0
39
0
210
0
220
0
230
1
50
360
0
ENDBLK
5
142
100
AcDbEntity
8
0
100
AcDbBlockEnd
0
BLOCK
5
153
100
AcDbEntity
8
0
100
AcDbBlockBegin
2
_U1
70
0
10
0
20
0
30
0
3
_U1
0
MTEXT
5
14D
100
AcDbEntity
8
SK2
62
256
6
ByLayer
370
18
48
1
60
0
100
AcDbMText
10
38.595034
20
-43.768378
30
0
210
0
220
0
230
1
1
\W0.6740;77
40
3.5
41
0
44
1.084337
50
0
71
7
72
5
7
iso_b_vert
0
LINE
5
14E
100
AcDbEntity
8
SK2
62
256
6
ByLayer
370
13
48
1
60
0
100
AcDbLine
10
79
20
-8.5875
30
0
11
79
21
-46.801012
31
0
39
0
210
0
220
0
230
1
0
LINE
5
14F
100
AcDbEntity
8
SK2
62
256
6
ByLayer
370
13
48
1
60
0
100
AcDbLine
10
2
20
-8.5875
30
0
11
2
21
-46.801012
31
0
39
0
210
0
220
0
230
1
0
LINE
5
150
100
AcDbEntity
8
SK2
62
256
6
ByLayer
370
13
48
1
60
0
100
AcDbLine
10
79
20
-44.801012
30
0
11
2
21
-44.801012
31
0
39
0
210
0
220
0
230
1
0
SOLID
5
151
100
AcDbEntity
8
SK2
62
256
6
ByLayer
370
18
48
1
60
0
100
AcDbTrace
10
79
20
-44.801012
30
0
11
75.500002
21
-45.261796
31
0
12
75.499998
22
-44.340228
32
0
13
75.499998
23
-44.340228
33
0
39
0
210
0
220
0
230
1
0
SOLID
5
152
100
AcDbEntity
8
SK2
62
256
6
ByLayer
370
18
48
1
60
0
100
AcDbTrace
10
2
20
-44.801012
30
0
11
5.499998
21
-44.340228
31
0
12
5.500002
22
-45.261796
32
0
13
5.500002
23
-45.261796
33
0
39
0
210
0
220
0
230
1
0
ENDBLK
5
154
100
AcDbEntity
8
0
100
AcDbBlockEnd
0
BLOCK
5
159
100
AcDbEntity
8
0
100
AcDbBlockBegin
2
*D5
70
1
10
0
20
0
30
0
3
*D5
0
LINE
5
15B
100
AcDbEntity
8
0
62
256
6
ByLayer
370
-2
48
1
60
0
100
AcDbLine
10
79
20
-8.5875
30
0
11
79
21
-36.801012
31
0
39
0
210
0
220
0
230
1
0
LINE
5
15C
100
AcDbEntity
8
0
62
256
6
ByLayer
370
-2
48
1
60
0
100
AcDbLine
10
19
20
-8.5875
30
0
11
19
21
-36.801012
31
0
39
0
210
0
220
0
230
1
0
LINE
5
15D
100
AcDbEntity
8
0
62
256
6
ByLayer
370
-2
48
1
60
0
100
AcDbLine
10
75.5
20
-34.801012
30
0
11
22.5
21
-34.801012
31
0
39
0
210
0
220
0
230
1
0
SOLID
5
15E
100
AcDbEntity
8
0
62
256
6
ByLayer
370
-1
48
1
60
0
100
AcDbTrace
10
75.5
20
-35.384345
30
0
11
75.5
21
-34.217678
31
0
12
79
22
-34.801012
32
0
13
79
23
-34.801012
33
0
39
0
210
0
220
0
230
1
0
SOLID
5
15F
100
AcDbEntity
8
0
62
256
6
ByLayer
370
-1
48
1
60
0
100
AcDbTrace
10
22.5
20
-34.217678
30
0
11
22.5
21
-35.384345
31
0
12
19
22
-34.801012
32
0
13
19
23
-34.801012
33
0
39
0
210
0
220
0
230
1
0
MTEXT
5
160
100
AcDbEntity
8
0
62
256
6
ByLayer
370
18
48
1
60
0
100
AcDbMText
10
49
20
-27.801012
30
0
210
0
220
0
230
1
1
\A1;60
40
3.5
41
0
44
1
50
0
71
5
72
5
7
iso_b_vert
0
POINT
5
161
100
AcDbEntity
8
Defpoints
62
0
6
ByLayer
370
-1
48
1
60
0
100
AcDbPoint
10
79
20
-7
30
0
39
0
210
0
220
0
230
1
50
360
0
POINT
5
162
100
AcDbEntity
8
Defpoints
62
0
6
ByLayer
370
-1
48
1
60
0
100
AcDbPoint
10
19
20
-7
30
0
39
0
210
0
220
0
230
1
50
360
0
POINT
5
163
100
AcDbEntity
8
Defpoints
62
0
6
ByLayer
370
-1
48
1
60
0
100
AcDbPoint
10
19
20
-34.801012
30
0
39
0
210
0
220
0
230
1
50
360
0
ENDBLK
5
15A
100
AcDbEntity
8
0
100
AcDbBlockEnd
0
BLOCK
5
16D
100
AcDbEntity
8
0
100
AcDbBlockBegin
2
_U2
70
0
10
0
20
0
30
0
3
_U2
0
MTEXT
5
165
100
AcDbEntity
8
SK2
62
256
6
ByLayer
370
18
48
1
60
0
100
AcDbMText
10
47.095034
20
-33.768378
30
0
210
0
220
0
230
1
1
\W0.6740;60
40
3.5
41
0
44
1.084337
50
0
71
7
72
5
7
iso_b_vert
0
MTEXT
5
166
100
AcDbEntity
8
SK2
62
256
6
ByLayer
370
18
48
1
60
0
100
AcDbMText
10
43.227034
20
-33.768378
30
0
210
0
220
0
230
1
1
\W0.1790;(
40
3.5
41
0
44
1.084337
50
0
71
7
72
5
7
iso_b_vert
0
MTEXT
5
167
100
AcDbEntity
8
SK2
62
256
6
ByLayer
370
18
48
1
60
0
100
AcDbMText
10
54.775966
20
-33.768378
30
0
210
0
220
0
230
1
1
\W0.1969;)
40
3.5
41
0
44
1.084337
50
0
71
7
72
5
7
iso_b_vert
0
LINE
5
168
100
AcDbEntity
8
SK2
62
256
6
ByLayer
370
13
48
1
60
0
100
AcDbLine
10
79
20
-8.5875
30
0
11
79
21
-36.801012
31
0
39
0
210
0
220
0
230
1
0
LINE
5
169
100
AcDbEntity
8
SK2
62
256
6
ByLayer
370
13
48
1
60
0
100
AcDbLine
10
19
20
-8.5875
30
0
11
19
21
-36.801012
31
0
39
0
210
0
220
0
230
1
0
LINE
5
16A
100
AcDbEntity
8
SK2
62
256
6
ByLayer
370
13
48
1
60
0
100
AcDbLine
10
79
20
-34.801012
30
0
11
19
21
-34.801012
31
0
39
0
210
0
220
0
230
1
0
SOLID
5
16B
100
AcDbEntity
8
SK2
62
256
6
ByLayer
370
18
48
1
60
0
100
AcDbTrace
10
79
20
-34.801012
30
0
11
75.500002
21
-35.261796
31
0
12
75.499998
22
-34.340228
32
0
13
75.499998
23
-34.340228
33
0
39
0
210
0
220
0
230
1
0
SOLID
5
16C
100
AcDbEntity
8
SK2
62
256
6
ByLayer
370
18
48
1
60
0
100
AcDbTrace
10
19
20
-34.801012
30
0
11
22.499998
21
-34.340228
31
0
12
22.500002
22
-35.261796
32
0
13
22.500002
23
-35.261796
33
0
39
0
210
0
220
0
230
1
0
ENDBLK
5
16E
100
AcDbEntity
8
0
100
AcDbBlockEnd
0
BLOCK
5
173
100
AcDbEntity
8
0
100
AcDbBlockBegin
2
*D7
70
1
10
0
20
0
30
0
3
*D7
0
LINE
5
175
100
AcDbEntity
8
0
62
256
6
ByLayer
370
-2
48
1
60
0
100
AcDbLine
10
-45
20
-8.5875
30
0
11
-45
21
-46.801012
31
0
39
0
210
0
220
0
230
1
0
LINE
5
176
100
AcDbEntity
8
0
62
256
6
ByLayer
370
-2
48
1
60
0
100
AcDbLine
10
0
20
-8.5875
30
0
11
0
21
-46.801012
31
0
39
0
210
0
220
0
230
1
0
LINE
5
177
100
AcDbEntity
8
0
62
256
6
ByLayer
370
-2
48
1
60
0
100
AcDbLine
10
-41.5
20
-44.801012
30
0
11
-3.5
21
-44.801012
31
0
39
0
210
0
220
0
230
1
0
SOLID
5
178
100
AcDbEntity
8
0
62
256
6
ByLayer
370
-1
48
1
60
0
100
AcDbTrace
10
-41.5
20
-44.217678
30
0
11
-41.5
21
-45.384345
31
0
12
-45
22
-44.801012
32
0
13
-45
23
-44.801012
33
0
39
0
210
0
220
0
230
1
0
SOLID
5
179
100
AcDbEntity
8
0
62
256
6
ByLayer
370
-1
48
1
60
0
100
AcDbTrace
10
-3.5
20
-45.384345
30
0
11
-3.5
21
-44.217678
31
0
12
0
22
-44.801012
32
0
13
0
23
-44.801012
33
0
39
0
210
0
220
0
230
1
0
MTEXT
5
17A
100
AcDbEntity
8
0
62
256
6
ByLayer
370
18
48
1
60
0
100
AcDbMText
10
-22.5
20
-37.801012
30
0
210
0
220
0
230
1
1
\A1;45
40
3.5
41
0
44
1
50
0
71
5
72
5
7
iso_b_vert
0
POINT
5
17B
100
AcDbEntity
8
Defpoints
62
0
6
ByLayer
370
-1
48
1
60
0
100
AcDbPoint
10
-45
20
-7
30
0
39
0
210
0
220
0
230
1
50
360
0
POINT
5
17C
100
AcDbEntity
8
Defpoints
62
0
6
ByLayer
370
-1
48
1
60
0
100
AcDbPoint
10
0
20
-7
30
0
39
0
210
0
220
0
230
1
50
360
0
POINT
5
17D
100
AcDbEntity
8
Defpoints
62
0
6
ByLayer
370
-1
48
1
60
0
100
AcDbPoint
10
0
20
-44.801012
30
0
39
0
210
0
220
0
230
1
50
360
0
ENDBLK
5
174
100
AcDbEntity
8
0
100
AcDbBlockEnd
0
BLOCK
5
185
100
AcDbEntity
8
0
100
AcDbBlockBegin
2
_U3
70
0
10
0
20
0
30
0
3
_U3
0
MTEXT
5
17F
100
AcDbEntity
8
SK2
62
256
6
ByLayer
370
18
48
1
60
0
100
AcDbMText
10
-24.589233
20
-43.768378
30
0
210
0
220
0
230
1
1
\W0.7361;45
40
3.5
41
0
44
1.084337
50
0
71
7
72
5
7
iso_b_vert
0
LINE
5
180
100
AcDbEntity
8
SK2
62
256
6
ByLayer
370
13
48
1
60
0
100
AcDbLine
10
-45
20
-8.5875
30
0
11
-45
21
-46.801012
31
0
39
0
210
0
220
0
230
1
0
LINE
5
181
100
AcDbEntity
8
SK2
62
256
6
ByLayer
370
13
48
1
60
0
100
AcDbLine
10
0
20
-8.5875
30
0
11
0
21
-46.801012
31
0
39
0
210
0
220
0
230
1
0
LINE
5
182
100
AcDbEntity
8
SK2
62
256
6
ByLayer
370
13
48
1
60
0
100
AcDbLine
10
-45
20
-44.801012
30
0
11
0
21
-44.801012
31
0
39
0
210
0
220
0
230
1
0
SOLID
5
183
100
AcDbEntity
8
SK2
62
256
6
ByLayer
370
18
48
1
60
0
100
AcDbTrace
10
-45
20
-44.801012
30
0
11
-41.500002
21
-44.340228
31
0
12
-41.499998
22
-45.261796
32
0
13
-41.499998
23
-45.261796
33
0
39
0
210
0
220
0
230
1
0
SOLID
5
184
100
AcDbEntity
8
SK2
62
256
6
ByLayer
370
18
48
1
60
0
100
AcDbTrace
10
0
20
-44.801012
30
0
11
-3.499998
21
-45.261796
31
0
12
-3.500002
22
-44.340228
32
0
13
-3.500002
23
-44.340228
33
0
39
0
210
0
220
0
230
1
0
ENDBLK
5
186
100
AcDbEntity
8
0
100
AcDbBlockEnd
0
BLOCK
5
18B
100
AcDbEntity
8
0
100
AcDbBlockBegin
2
*D9
70
1
10
0
20
0
30
0
3
*D9
0
LINE
5
18D
100
AcDbEntity
8
0
62
256
6
ByLayer
370
-2
48
1
60
0
100
AcDbLine
10
0
20
-8.5875
30
0
11
0
21
-56.801012
31
0
39
0
210
0
220
0
230
1
0
LINE
5
18E
100
AcDbEntity
8
0
62
256
6
ByLayer
370
-2
48
1
60
0
100
AcDbLine
10
79
20
-8.5875
30
0
11
79
21
-56.801012
31
0
39
0
210
0
220
0
230
1
0
LINE
5
18F
100
AcDbEntity
8
0
62
256
6
ByLayer
370
-2
48
1
60
0
100
AcDbLine
10
3.5
20
-54.801012
30
0
11
75.5
21
-54.801012
31
0
39
0
210
0
220
0
230
1
0
SOLID
5
190
100
AcDbEntity
8
0
62
256
6
ByLayer
370
-1
48
1
60
0
100
AcDbTrace
10
3.5
20
-54.217678
30
0
11
3.5
21
-55.384345
31
0
12
0
22
-54.801012
32
0
13
0
23
-54.801012
33
0
39
0
210
0
220
0
230
1
0
SOLID
5
191
100
AcDbEntity
8
0
62
256
6
ByLayer
370
-1
48
1
60
0
100
AcDbTrace
10
75.5
20
-55.384345
30
0
11
75.5
21
-54.217678
31
0
12
79
22
-54.801012
32
0
13
79
23
-54.801012
33
0
39
0
210
0
220
0
230
1
0
MTEXT
5
192
100
AcDbEntity
8
0
62
256
6
ByLayer
370
18
48
1
60
0
100
AcDbMText
10
39.5
20
-47.801012
30
0
210
0
220
0
230
1
1
\A1;79
40
3.5
41
0
44
1
50
0
71
5
72
5
7
iso_b_vert
0
POINT
5
193
100
AcDbEntity
8
Defpoints
62
0
6
ByLayer
370
-1
48
1
60
0
100
AcDbPoint
10
0
20
-7
30
0
39
0
210
0
220
0
230
1
50
360
0
POINT
5
194
100
AcDbEntity
8
Defpoints
62
0
6
ByLayer
370
-1
48
1
60
0
100
AcDbPoint
10
79
20
-7
30
0
39
0
210
0
220
0
230
1
50
360
0
POINT
5
195
100
AcDbEntity
8
Defpoints
62
0
6
ByLayer
370
-1
48
1
60
0
100
AcDbPoint
10
79
20
-54.801012
30
0
39
0
210
0
220
0
230
1
50
360
0
ENDBLK
5
18C
100
AcDbEntity
8
0
100
AcDbBlockEnd
0
BLOCK
5
19D
100
AcDbEntity
8
0
100
AcDbBlockBegin
2
_U4
70
0
10
0
20
0
30
0
3
_U4
0
MTEXT
5
197
100
AcDbEntity
8
SK2
62
256
6
ByLayer
370
18
48
1
60
0
100
AcDbMText
10
37.595034
20
-53.768378
30
0
210
0
220
0
230
1
1
\W0.6927;79
40
3.5
41
0
44
1.084337
50
0
71
7
72
5
7
iso_b_vert
0
LINE
5
198
100
AcDbEntity
8
SK2
62
256
6
ByLayer
370
13
48
1
60
0
100
AcDbLine
10
0
20
-8.5875
30
0
11
0
21
-56.801012
31
0
39
0
210
0
220
0
230
1
0
LINE
5
199
100
AcDbEntity
8
SK2
62
256
6
ByLayer
370
13
48
1
60
0
100
AcDbLine
10
79
20
-8.5875
30
0
11
79
21
-56.801012
31
0
39
0
210
0
220
0
230
1
0
LINE
5
19A
100
AcDbEntity
8
SK2
62
256
6
ByLayer
370
13
48
1
60
0
100
AcDbLine
10
0
20
-54.801012
30
0
11
79
21
-54.801012
31
0
39
0
210
0
220
0
230
1
0
SOLID
5
19B
100
AcDbEntity
8
SK2
62
256
6
ByLayer
370
18
48
1
60
0
100
AcDbTrace
10
0
20
-54.801012
30
0
11
3.499998
21
-54.340228
31
0
12
3.500002
22
-55.261796
32
0
13
3.500002
23
-55.261796
33
0
39
0
210
0
220
0
230
1
0
SOLID
5
19C
100
AcDbEntity
8
SK2
62
256
6
ByLayer
370
18
48
1
60
0
100
AcDbTrace
10
79
20
-54.801012
30
0
11
75.500002
21
-55.261796
31
0
12
75.499998
22
-54.340228
32
0
13
75.499998
23
-54.340228
33
0
39
0
210
0
220
0
230
1
0
ENDBLK
5
19E
100
AcDbEntity
8
0
100
AcDbBlockEnd
0
ENDSEC
0
SECTION
2
ENTITIES
0
ARC
5
BD
100
AcDbEntity
8
SK2
62
256
6
ByLayer
370
13
48
1
60
0
100
AcDbCircle
39
0
10
79
20
0
30
0
40
35.777776911554
210
0
220
0
230
1
100
AcDbArc
50
5.211848
51
69.998494
0
ARC
5
BE
100
AcDbEntity
8
SK2
62
256
6
ByLayer
370
13
48
1
60
0
100
AcDbCircle
39
0
10
79
20
0
30
0
40
35.777776911554
210
0
220
0
230
1
100
AcDbArc
50
290.001506
51
354.788152
0
ELLIPSE
5
BF
100
AcDbEntity
8
1
62
256
6
ByLayer
370
13
48
1
60
0
100
AcDbEllipse
10
3.677259
20
-6.668499
30
0
11
0.0526892855154671
21
-0.0849931714425906
31
0
210
0
220
0
230
1
40
0.372311
41
-2.14051702326339
42
-1.93916447883964
0
ELLIPSE
5
C0
100
AcDbEntity
8
1
62
256
6
ByLayer
370
13
48
1
60
0
100
AcDbEllipse
10
3.750176
20
-6.644594
30
0
11
0.00726017391746669
21
-0.0997361011604531
31
0
210
0
220
0
230
1
40
0.479692
41
-1.9765375446384
42
-1.73473090811321
0
ELLIPSE
5
C1
100
AcDbEntity
8
1
62
256
6
ByLayer
370
18
48
1
60
0
100
AcDbEllipse
10
3.75
20
-6.854009
30
0
11
-0.25
21
3.06151588455594E-17
31
0
210
0
220
0
230
1
40
0.99988
41
-1.56946104420786
42
-0.0301391404390157
0
POINT
5
70
100
AcDbEntity
8
80
62
256
6
ByLayer
370
18
48
1
60
0
100
AcDbPoint
10
0
20
0
30
0
39
0
210
0
220
0
230
1
50
360
0
POINT
5
72
100
AcDbEntity
8
81
62
256
6
ByLayer
370
18
48
1
60
0
100
AcDbPoint
10
79
20
0
30
0
39
0
210
0
220
0
230
1
50
360
0
POINT
5
74
100
AcDbEntity
8
1
62
256
6
ByLayer
370
18
48
1
60
0
100
AcDbPoint
10
-199.786112
20
-200
30
0
39
0
210
0
220
0
230
1
50
360
0
POINT
5
76
100
AcDbEntity
8
1
62
256
6
ByLayer
370
13
48
1
60
1
100
AcDbPoint
10
-46.5
20
0
30
0
39
0
210
0
220
0
230
1
50
360
0
POINT
5
77
100
AcDbEntity
8
1
62
256
6
ByLayer
370
13
48
1
60
1
100
AcDbPoint
10
77.999939
20
0
30
0
39
0
210
0
220
0
230
1
50
360
0
POINT
5
78
100
AcDbEntity
8
1
62
256
6
ByLayer
370
18
48
1
60
1
100
AcDbPoint
10
-45
20
-7
30
0
39
0
210
0
220
0
230
1
50
360
0
POINT
5
79
100
AcDbEntity
8
1
62
256
6
ByLayer
370
18
48
1
60
1
100
AcDbPoint
10
79
20
-7
30
0
39
0
210
0
220
0
230
1
50
360
0
POINT
5
7A
100
AcDbEntity
8
1
62
256
6
ByLayer
370
18
48
1
60
1
100
AcDbPoint
10
79
20
-7
30
0
39
0
210
0
220
0
230
1
50
360
0
POINT
5
7B
100
AcDbEntity
8
1
62
256
6
ByLayer
370
18
48
1
60
1
100
AcDbPoint
10
2
20
-7
30
0
39
0
210
0
220
0
230
1
50
360
0
POINT
5
7C
100
AcDbEntity
8
1
62
256
6
ByLayer
370
18
48
1
60
1
100
AcDbPoint
10
79
20
-7
30
0
39
0
210
0
220
0
230
1
50
360
0
POINT
5
7D
100
AcDbEntity
8
1
62
256
6
ByLayer
370
18
48
1
60
1
100
AcDbPoint
10
19
20
-7
30
0
39
0
210
0
220
0
230
1
50
360
0
POINT
5
7E
100
AcDbEntity
8
1
62
256
6
ByLayer
370
18
48
1
60
1
100
AcDbPoint
10
-45
20
-7
30
0
39
0
210
0
220
0
230
1
50
360
0
POINT
5
7F
100
AcDbEntity
8
1
62
256
6
ByLayer
370
18
48
1
60
1
100
AcDbPoint
10
0
20
-7
30
0
39
0
210
0
220
0
230
1
50
360
0
POINT
5
80
100
AcDbEntity
8
1
62
256
6
ByLayer
370
18
48
1
60
1
100
AcDbPoint
10
0
20
-7
30
0
39
0
210
0
220
0
230
1
50
360
0
POINT
5
81
100
AcDbEntity
8
1
62
256
6
ByLayer
370
18
48
1
60
1
100
AcDbPoint
10
79
20
-7
30
0
39
0
210
0
220
0
230
1
50
360
0
SPLINE
5
C2
100
AcDbEntity
8
1
62
256
6
ByLayer
370
18
48
1
60
0
100
AcDbSpline
70
4
71
3
72
8
73
4
40
0
40
0
40
0
40
0
40
1
40
1
40
1
40
1
41
1
10
78.3714010846426
20
2.19942618610671
30
0
41
1
10
78.5846041613613
20
1.59719869482086
30
0
41
1
10
78.7920150854185
20
0.992889127348718
30
0
41
1
10
78.993544838045
20
0.386465484558045
30
0
0
SPLINE
5
C3
100
AcDbEntity
8
1
62
256
6
ByLayer
370
18
48
1
60
0
100
AcDbSpline
70
4
71
3
72
22
73
18
40
0
40
0
40
0
40
0
40
0.500000000000024
40
0.500000000000024
40
0.750000000000023
40
0.875000000000036
40
0.875000000000036
40
0.937500000000043
40
0.937500000000043
40
0.968750000000032
40
0.984375000000014
40
0.992187499999991
40
0.996093749999979
40
0.996093749999979
40
0.99804687499999
40
0.99804687499999
40
1
40
1
40
1
40
1
41
1
10
76.4538925402702
20
6.99997147698741
30
0
41
1
10
76.4793822131006
20
6.94199521289633
30
0
41
1
10
76.505380388022
20
6.88401608789832
30
0
41
1
10
76.545133785132
20
6.79701903779963
30
0
41
1
10
76.5651988131736
20
6.75351558537008
30
0
41
1
10
76.5855445248915
20
6.71000278022794
30
0
41
1
10
76.5957639101731
20
6.68824478795253
30
0
41
1
10
76.5991778791208
20
6.68099287801257
30
0
41
1
10
76.6043115838465
20
6.67011002857015
30
0
41
1
10
76.6068817577707
20
6.66466682395787
30
0
41
1
10
76.6098869253735
20
6.65830998892869
30
0
41
1
10
76.6113912673496
20
6.65512955631689
30
0
41
1
10
76.6120363716475
20
6.65376604093584
30
0
41
1
10
76.6123589890789
20
6.65308420081308
30
0
41
1
10
76.6124666578721
20
6.65285644625584
30
0
41
1
10
76.6126815231522
20
6.65240282674907
30
0
41
1
10
76.6128025615813
20
6.652150462658
30
0
41
1
10
76.6128357975607
20
6.65215084964726
30
0
0
SPLINE
5
C4
100
AcDbEntity
8
1
62
256
6
ByLayer
370
18
48
1
60
0
100
AcDbSpline
70
2053
71
3
72
126
73
122
40
0
40
0
40
0
40
0
40
0.0312499999999978
40
0.0312499999999978
40
0.0624999999999956
40
0.0624999999999956
40
0.0781249999999945
40
0.0781249999999945
40
0.0937499999999934
40
0.0937499999999934
40
0.124999999999989
40
0.124999999999989
40
0.132812499999988
40
0.132812499999988
40
0.140624999999986
40
0.156249999999983
40
0.156249999999983
40
0.187499999999978
40
0.187499999999978
40
0.195312499999976
40
0.195312499999976
40
0.203124999999974
40
0.21874999999997
40
0.21874999999997
40
0.249999999999964
40
0.249999999999964
40
0.257812499999962
40
0.257812499999962
40
0.26562499999996
40
0.281249999999957
40
0.296874999999953
40
0.296874999999953
40
0.304687499999952
40
0.304687499999952
40
0.31249999999995
40
0.31249999999995
40
0.343749999999942
40
0.343749999999942
40
0.351562499999941
40
0.351562499999941
40
0.359374999999939
40
0.359374999999939
40
0.374999999999937
40
0.390624999999935
40
0.390624999999935
40
0.406249999999933
40
0.406249999999933
40
0.437499999999927
40
0.437499999999927
40
0.445312499999925
40
0.445312499999925
40
0.453124999999924
40
0.468749999999921
40
0.484374999999917
40
0.484374999999917
40
0.492187499999916
40
0.492187499999916
40
0.499999999999914
40
0.499999999999914
40
0.531249999999912
40
0.531249999999912
40
0.53906249999991
40
0.53906249999991
40
0.546874999999907
40
0.546874999999907
40
0.562499999999906
40
0.562499999999906
40
0.593749999999903
40
0.593749999999903
40
0.601562499999903
40
0.601562499999903
40
0.609374999999903
40
0.609374999999903
40
0.624999999999906
40
0.624999999999906
40
0.656249999999913
40
0.656249999999913
40
0.671874999999916
40
0.671874999999916
40
0.679687499999918
40
0.679687499999918
40
0.687499999999919
40
0.687499999999919
40
0.718749999999926
40
0.718749999999926
40
0.726562499999928
40
0.726562499999928
40
0.73437499999993
40
0.73437499999993
40
0.749999999999933
40
0.765624999999936
40
0.765624999999936
40
0.773437499999937
40
0.773437499999937
40
0.781249999999938
40
0.781249999999938
40
0.812499999999944
40
0.812499999999944
40
0.820312499999945
40
0.820312499999945
40
0.828124999999947
40
0.828124999999947
40
0.843749999999951
40
0.859374999999955
40
0.859374999999955
40
0.867187499999958
40
0.867187499999958
40
0.87499999999996
40
0.87499999999996
40
0.90624999999997
40
0.90624999999997
40
0.93749999999998
40
0.93749999999998
40
0.953124999999985
40
0.953124999999985
40
0.96874999999999
40
0.984374999999995
40
0.984374999999995
40
0.992187499999997
40
0.992187499999997
40
1
40
1
40
1
40
1
41
1
10
77.2701882113506
20
-2.62549295707103
30
0
41
1
10
77.2464354096935
20
-2.65242395669392
30
0
41
1
10
77.2234554010884
20
-2.6742649169081
30
0
41
1
10
77.1787602855906
20
-2.70846374094927
30
0
41
1
10
77.1570468606357
20
-2.72081660527445
30
0
41
1
10
77.125274176095
20
-2.73199396649207
30
0
41
1
10
77.1149395458527
20
-2.73444068698532
30
0
41
1
10
77.0948075139003
20
-2.73682631225688
30
0
41
1
10
77.0849978480007
20
-2.73676941041162
30
0
41
1
10
77.0562808317457
20
-2.73287302863125
30
0
41
1
10
77.0380802198588
20
-2.72533967246485
30
0
41
1
10
77.0164025196572
20
-2.70937866933869
30
0
41
1
10
77.0121341839127
20
-2.70586482486826
30
0
41
1
10
77.003779180068
20
-2.69824126657341
30
0
41
1
10
76.9914958985996
20
-2.68589199798075
30
0
41
1
10
76.9799337312193
20
-2.67083103445506
30
0
41
1
10
76.9577316092946
20
-2.63707938547702
30
0
41
1
10
76.9441489411983
20
-2.60977500824217
30
0
41
1
10
76.928715311062
20
-2.56910857447741
30
0
41
1
10
76.9257061464572
20
-2.56063995146971
30
0
41
1
10
76.9199109531136
20
-2.54322230458979
30
0
41
1
10
76.9115280306197
20
-2.51630657108203
30
0
41
1
10
76.9040592510923
20
-2.48704341208145
30
0
41
1
10
76.8903486019124
20
-2.42534731106619
30
0
41
1
10
76.8828234246151
20
-2.38003068197381
30
0
41
1
10
76.8757276351098
20
-2.31750542127875
30
0
41
1
10
76.8744314572595
20
-2.30474560789321
30
0
41
1
10
76.8721111460757
20
-2.27894674048784
30
0
41
1
10
76.8690286705161
20
-2.23972771260932
30
0
41
1
10
76.8658930414383
20
-2.17177244716393
30
0
41
1
10
76.8656270368873
20
-2.11458860328034
30
0
41
1
10
76.8663480182992
20
-2.07058289211881
30
0
41
1
10
76.8667421848633
20
-2.05572759557074
30
0
41
1
10
76.8678574343957
20
-2.02562760213271
30
0
41
1
10
76.8685792141516
20
-2.01040407034657
30
0
41
1
10
76.8729777728555
20
-1.93444433613058
30
0
41
1
10
76.8790220146625
20
-1.87330117160045
30
0
41
1
10
76.8900749558411
20
-1.79642486870514
30
0
41
1
10
76.8924623521922
20
-1.7810270052041
30
0
41
1
10
76.8976076105179
20
-1.75018564928737
30
0
41
1
10
76.9003739878609
20
-1.73470381639021
30
0
41
1
10
76.9091241372856
20
-1.68886387496903
30
0
41
1
10
76.9220497292629
20
-1.62895924666515
30
0
41
1
10
76.9374978632952
20
-1.57141773635683
30
0
41
1
10
76.9542442496672
20
-1.51506148789372
30
0
41
1
10
76.963322755512
20
-1.48734229752296
30
0
41
1
10
76.9918761867663
20
-1.40793816129607
30
0
41
1
10
77.0127945707026
20
-1.35940093328804
30
0
41
1
10
77.0411970612926
20
-1.30380489656108
30
0
41
1
10
77.0470031644919
20
-1.29292205679172
30
0
41
1
10
77.0587226523451
20
-1.27187543259578
30
0
41
1
10
77.0764975523747
20
-1.24131582112926
30
0
41
1
10
77.1070595439853
20
-1.19519601858542
30
0
41
1
10
77.1324447067267
20
-1.16312921919925
30
0
41
1
10
77.1518161704836
20
-1.14082931504768
30
0
41
1
10
77.1583349111253
20
-1.13368342474257
30
0
41
1
10
77.1713683299701
20
-1.12008333652744
30
0
41
1
10
77.1778964187546
20
-1.11361292496693
30
0
41
1
10
77.2105867676111
20
-1.082846710225
30
0
41
1
10
77.2368993113722
20
-1.06326411418738
30
0
41
1
10
77.2698747763233
20
-1.04456618672219
30
0
41
1
10
77.2764740646016
20
-1.04111826671149
30
0
41
1
10
77.2896779084571
20
-1.03480319416658
30
0
41
1
10
77.2962762296207
20
-1.0319402878819
30
0
41
1
10
77.3159258112083
20
-1.02427161924743
30
0
41
1
10
77.3288806511949
20
-1.02035960756859
30
0
41
1
10
77.3672888035662
20
-1.01207145675525
30
0
41
1
10
77.3922902937916
20
-1.0111143397844
30
0
41
1
10
77.4226501895763
20
-1.01558618930892
30
0
41
1
10
77.4286772076009
20
-1.01676630617752
30
0
41
1
10
77.4406363208604
20
-1.01970655673398
30
0
41
1
10
77.4465677960105
20
-1.02146817928016
30
0
41
1
10
77.4640694485611
20
-1.02758234857401
30
0
41
1
10
77.4753966493764
20
-1.03277286834049
30
0
41
1
10
77.5083243539359
20
-1.05165460597715
30
0
41
1
10
77.5288807120249
20
-1.06862421066137
30
0
41
1
10
77.5573357850313
20
-1.10106423423409
30
0
41
1
10
77.5664220216131
20
-1.11304926042948
30
0
41
1
10
77.5793913825458
20
-1.13291865276443
30
0
41
1
10
77.583603247148
20
-1.13985949678403
30
0
41
1
10
77.5917151156382
20
-1.15425195093056
30
0
41
1
10
77.5956259725522
20
-1.16171940172853
30
0
41
1
10
77.6144418845189
20
-1.20042783892327
30
0
41
1
10
77.6271534263589
20
-1.23573546033953
30
0
41
1
10
77.6397101331235
20
-1.28597226216201
30
0
41
1
10
77.6420533919152
20
-1.29632786095328
30
0
41
1
10
77.64638693116
20
-1.3176867197821
30
0
41
1
10
77.6483747528208
20
-1.32868715806967
30
0
41
1
10
77.6537241039754
20
-1.36229975111149
30
0
41
1
10
77.6592725530325
20
-1.40899080915639
30
0
41
1
10
77.6615770279755
20
-1.45955133686749
30
0
41
1
10
77.662025820713
20
-1.49901960969052
30
0
41
1
10
77.661961785916
20
-1.51243423384074
30
0
41
1
10
77.6613907373737
20
-1.53980444717234
30
0
41
1
10
77.6608830919303
20
-1.55371537479073
30
0
41
1
10
77.657270318554
20
-1.62366928850952
30
0
41
1
10
77.6509602974657
20
-1.68156303077717
30
0
41
1
10
77.6388788394155
20
-1.7564583220049
30
0
41
1
10
77.6362509768328
20
-1.77156510381607
30
0
41
1
10
77.6305662128608
20
-1.80204267694171
30
0
41
1
10
77.6275248583706
20
-1.81732479651885
30
0
41
1
10
77.6178987413351
20
-1.86293504454883
30
0
41
1
10
77.603673278702
20
-1.92342486287598
30
0
41
1
10
77.586861481341
20
-1.98331454650787
30
0
41
1
10
77.5733210397523
20
-2.02801648582812
30
0
41
1
10
77.5686384479842
20
-2.04292050179146
30
0
41
1
10
77.559079497663
20
-2.07231141910546
30
0
41
1
10
77.5541942508229
20
-2.08683064799635
30
0
41
1
10
77.5292714779627
20
-2.15858105386741
30
0
41
1
10
77.507753830021
20
-2.2133322852101
30
0
41
1
10
77.4620785330117
20
-2.31774807847117
30
0
41
1
10
77.4386359331471
20
-2.36578936373658
30
0
41
1
10
77.4027715101264
20
-2.43229942183524
30
0
41
1
10
77.3906858530809
20
-2.45355375984789
30
0
41
1
10
77.3663328906764
20
-2.49412828604142
30
0
41
1
10
77.3420812717789
20
-2.53230442175621
30
0
41
1
10
77.3180199634246
20
-2.56594566981775
30
0
41
1
10
77.300037810603
20
-2.58951984938767
30
0
41
1
10
77.294054367941
20
-2.59710124841644
30
0
41
1
10
77.2821070711657
20
-2.61171190038442
30
0
41
1
10
77.2761264117649
20
-2.61876020716531
30
0
41
1
10
77.2701882113506
20
-2.62549295707103
30
0
0
SPLINE
5
C5
100
AcDbEntity
8
1
62
256
6
ByLayer
370
18
48
1
60
0
100
AcDbSpline
70
4
71
3
72
8
73
4
40
0
40
0
40
0
40
0
40
1
40
1
40
1
40
1
41
1
10
78.3714010846426
20
-2.19942618610671
30
0
41
1
10
78.5846041613619
20
-1.59719869481936
30
0
41
1
10
78.7920150854196
20
-0.992889127345705
30
0
41
1
10
78.9935448380465
20
-0.386465484553497
30
0
0
SPLINE
5
C6
100
AcDbEntity
8
1
62
256
6
ByLayer
370
18
48
1
60
0
100
AcDbSpline
70
4
71
3
72
8
73
4
40
0
40
0
40
0
40
0
40
1
40
1
40
1
40
1
41
1
10
78.9935448380398
20
0.38646548456299
30
0
41
1
10
79.0021494248988
20
0.128890550420721
30
0
41
1
10
79.0021540176145
20
-0.12875306927296
30
0
41
1
10
78.99354483804
20
-0.386465484559921
30
0
0
SPLINE
5
C7
100
AcDbEntity
8
1
62
256
6
ByLayer
370
18
48
1
60
0
100
AcDbSpline
70
4
71
3
72
8
73
4
40
0
40
0
40
0
40
0
40
1
40
1
40
1
40
1
41
1
10
78.9935448380354
20
0.386465484560972
30
0
41
1
10
78.9633089834628
20
0.285687039410504
30
0
41
1
10
78.9329220313024
20
0.184954708790656
30
0
41
1
10
78.9023845376183
20
0.0842683229924432
30
0
0
SPLINE
5
C8
100
AcDbEntity
8
1
62
256
6
ByLayer
370
18
48
1
60
0
100
AcDbSpline
70
4
71
3
72
55
73
51
40
0
40
0
40
0
40
0
40
0.0624999999999973
40
0.0624999999999973
40
0.124999999999995
40
0.124999999999995
40
0.156249999999993
40
0.156249999999993
40
0.171874999999996
40
0.171874999999996
40
0.187499999999998
40
0.250000000000014
40
0.250000000000014
40
0.312500000000029
40
0.312500000000029
40
0.343750000000037
40
0.343750000000037
40
0.375000000000045
40
0.375000000000045
40
0.437500000000053
40
0.437500000000053
40
0.468750000000058
40
0.468750000000058
40
0.484375000000063
40
0.484375000000063
40
0.500000000000069
40
0.500000000000069
40
0.562500000000071
40
0.562500000000071
40
0.593750000000072
40
0.593750000000072
40
0.609375000000072
40
0.609375000000072
40
0.625000000000072
40
0.625000000000072
40
0.687500000000056
40
0.687500000000056
40
0.718750000000048
40
0.718750000000048
40
0.75000000000004
40
0.75000000000004
40
0.812500000000029
40
0.812500000000029
40
0.875000000000018
40
0.875000000000018
40
0.906250000000012
40
0.906250000000012
40
0.937500000000007
40
0.937500000000007
40
1
40
1
40
1
40
1
41
1
10
78.9023845376183
20
0.0842683229924432
30
0
41
1
10
78.8854423054845
20
0.0284074151341542
30
0
41
1
10
78.8672188200378
20
-0.0268081086976508
30
0
41
1
10
78.8282134054833
20
-0.135929515450528
30
0
41
1
10
78.8074325672063
20
-0.189836002574793
30
0
41
1
10
78.774266995091
20
-0.269658355861935
30
0
41
1
10
78.7628785020971
20
-0.296092428699552
30
0
41
1
10
78.7452758697175
20
-0.335471014295081
30
0
41
1
10
78.7393113961833
20
-0.348573070604715
30
0
41
1
10
78.7272963107058
20
-0.374488307007283
30
0
41
1
10
78.6970026988321
20
-0.438644589483914
30
0
41
1
10
78.6654605574071
20
-0.49966447662473
30
0
41
1
10
78.6134322805973
20
-0.593157678441798
30
0
41
1
10
78.5866387884994
20
-0.637837687695821
30
0
41
1
10
78.5452178481961
20
-0.701478895963362
30
0
41
1
10
78.5311345017919
20
-0.722221212458692
30
0
41
1
10
78.5030507051691
20
-0.761783351986082
30
0
41
1
10
78.4890179787288
20
-0.780662134365315
30
0
41
1
10
78.4469475844064
20
-0.834623051602989
30
0
41
1
10
78.4189393553431
20
-0.867042908657709
30
0
41
1
10
78.3769571058193
20
-0.910230964558565
30
0
41
1
10
78.362967637775
20
-0.92371680454329
30
0
41
1
10
78.3419828521371
20
-0.94253504023709
30
0
41
1
10
78.3349867342554
20
-0.948571815931388
30
0
41
1
10
78.3211305104534
20
-0.960056030765088
30
0
41
1
10
78.3142529114886
20
-0.965519572250457
30
0
41
1
10
78.2801080636541
20
-0.991470610617313
30
0
41
1
10
78.2535681814439
20
-1.00787731267556
30
0
41
1
10
78.2147696800405
20
-1.02621191625792
30
0
41
1
10
78.2020058151155
20
-1.0312737285048
30
0
41
1
10
78.183097382687
20
-1.03729213325965
30
0
41
1
10
78.1768225621557
20
-1.03903789259897
30
0
41
1
10
78.1644354678684
20
-1.04198354515478
30
0
41
1
10
78.1583171654735
20
-1.04318638664245
30
0
41
1
10
78.1280839800974
20
-1.04788839499457
30
0
41
1
10
78.1050387684971
20
-1.04746864333467
30
0
41
1
10
78.0719107859153
20
-1.04105610476418
30
0
41
1
10
78.0611091570216
20
-1.03795125012533
30
0
41
1
10
78.0399531186727
20
-1.02985234521967
30
0
41
1
10
78.0295748843665
20
-1.02483884142424
30
0
41
1
10
77.9994466280302
20
-1.00725793633916
30
0
41
1
10
77.9805778398596
20
-0.99213598266283
30
0
41
1
10
77.9448417833507
20
-0.955838105584917
30
0
41
1
10
77.9279765874899
20
-0.934657868821802
30
0
41
1
10
77.9039617437945
20
-0.898684712734308
30
0
41
1
10
77.8961714922029
20
-0.885991341473073
30
0
41
1
10
77.880992471963
20
-0.859238083647654
30
0
41
1
10
77.8736039395419
20
-0.845173738843044
30
0
41
1
10
77.8521538074493
20
-0.801303715741938
30
0
41
1
10
77.838748087598
20
-0.769731183815452
30
0
41
1
10
77.8261174943686
20
-0.736015256698749
30
0
0
SPLINE
5
C9
100
AcDbEntity
8
1
62
256
6
ByLayer
370
18
48
1
60
0
100
AcDbSpline
70
4
71
3
72
9
73
5
40
0
40
0
40
0
40
0
40
0.5
40
1
40
1
40
1
40
1
41
1
10
77.8261174943688
20
-0.736015256698551
30
0
41
1
10
77.7099100140624
20
-0.425812650591212
30
0
41
1
10
77.4476880115136
20
0.214042954239488
30
0
41
1
10
77.126209337534
20
0.892566117122783
30
0
41
1
10
76.9509141015214
20
1.24132605641819
30
0
0
SPLINE
5
CA
100
AcDbEntity
8
1
62
256
6
ByLayer
370
18
48
1
60
0
100
AcDbSpline
70
4
71
3
72
20
73
16
40
0
40
0
40
0
40
0
40
0.125000000000011
40
0.125000000000011
40
0.187500000000017
40
0.187500000000017
40
0.250000000000022
40
0.250000000000022
40
0.375000000000025
40
0.375000000000025
40
0.437500000000026
40
0.437500000000026
40
0.500000000000026
40
0.500000000000026
40
1
40
1
40
1
40
1
41
1
10
76.9509141015214
20
1.24132605641822
30
0
41
1
10
76.8968304067204
20
1.2386820541501
30
0
41
1
10
76.8425548959251
20
1.233691452144
30
0
41
1
10
76.7609771069442
20
1.2225367412282
30
0
41
1
10
76.7337409659845
20
1.21819093051425
30
0
41
1
10
76.679296207621
20
1.20820169181138
30
0
41
1
10
76.652152648621
20
1.20256377031404
30
0
41
1
10
76.5709877009384
20
1.18379527082209
30
0
41
1
10
76.5172282211436
20
1.16887301119127
30
0
41
1
10
76.4371966571014
20
1.14335687080387
30
0
41
1
10
76.4106201614806
20
1.1343333366957
30
0
41
1
10
76.3576742838422
20
1.1153757147504
30
0
41
1
10
76.3313043057559
20
1.10544513361512
30
0
41
1
10
76.0950393394212
20
1.01140671706548
30
0
41
1
10
75.8925917894798
20
0.894417398417261
30
0
41
1
10
75.7030646069392
20
0.740672678890803
30
0
0
SPLINE
5
CB
100
AcDbEntity
8
1
62
256
6
ByLayer
370
18
48
1
60
0
100
AcDbSpline
70
4
71
3
72
18
73
14
40
0
40
0
40
0
40
0
40
0.168470854837017
40
0.168470854837017
40
0.336941709674034
40
0.336941709674034
40
0.673883419348041
40
0.673883419348041
40
0.842354274185033
40
0.842354274185033
40
0.92658970160354
40
0.92658970160354
40
1
40
1
40
1
40
1
41
1
10
76.9509141015214
20
1.24132605641822
30
0
41
1
10
76.9182035096496
20
1.26015959101366
30
0
41
1
10
76.8858842527463
20
1.27830766379728
30
0
41
1
10
76.8219985212237
20
1.31328523691477
30
0
41
1
10
76.7903689046811
20
1.33022533655768
30
0
41
1
10
76.6965304696045
20
1.37920573075223
30
0
41
1
10
76.6355946705706
20
1.40901620603623
30
0
41
1
10
76.5479671228248
20
1.44711761822265
30
0
41
1
10
76.5194086354495
20
1.45867833209087
30
0
41
1
10
76.4776073056102
20
1.47420404388484
30
0
41
1
10
76.4638222462628
20
1.47908501878223
30
0
41
1
10
76.4384928919028
20
1.48760393184133
30
0
41
1
10
76.4268828847545
20
1.4913243606521
30
0
41
1
10
76.4154554993801
20
1.49480144212035
30
0
0
SPLINE
5
CC
100
AcDbEntity
8
1
62
256
6
ByLayer
370
18
48
1
60
0
100
AcDbSpline
70
4
71
3
72
24
73
20
40
0
40
0
40
0
40
0
40
0.12549152165659
40
0.12549152165659
40
0.198367228185216
40
0.198367228185216
40
0.271242934713841
40
0.271242934713841
40
0.416994347771092
40
0.416994347771092
40
0.562745760828343
40
0.562745760828343
40
0.635621467356953
40
0.635621467356953
40
0.708497173885562
40
0.708497173885562
40
0.854248586942781
40
0.854248586942781
40
1
40
1
40
1
40
1
41
1
10
76.2732411071863
20
1.53263904532812
30
0
41
1
10
76.3029154868563
20
1.5508660862441
30
0
41
1
10
76.3341673328192
20
1.56970522864319
30
0
41
1
10
76.386306990295
20
1.60007748433185
30
0
41
1
10
76.4060392169565
20
1.61137477767593
30
0
41
1
10
76.4467003001459
20
1.63421131007107
30
0
41
1
10
76.4674714812916
20
1.6456640646413
30
0
41
1
10
76.5308849273518
20
1.67984387721467
30
0
41
1
10
76.5747316699787
20
1.70245317345447
30
0
41
1
10
76.6658033354502
20
1.74653427385996
30
0
41
1
10
76.7130264424979
20
1.76801143422074
30
0
41
1
10
76.7866555077301
20
1.79872156421013
30
0
41
1
10
76.8117583448441
20
1.80873900448208
30
0
41
1
10
76.8623813968744
20
1.82792804918805
30
0
41
1
10
76.8879075388486
20
1.83710621588759
30
0
41
1
10
76.9651448579853
20
1.86327259737675
30
0
41
1
10
77.0175158375146
20
1.87888776256719
30
0
41
1
10
77.1240841045237
20
1.90591853741239
30
0
41
1
10
77.1782773564998
20
1.91734875089998
30
0
41
1
10
77.2333855201399
20
1.92655363572655
30
0
0
SPLINE
5
CD
100
AcDbEntity
8
1
62
256
6
ByLayer
370
18
48
1
60
0
100
AcDbSpline
70
4
71
3
72
16
73
12
40
0
40
0
40
0
40
0
40
0.249999999999992
40
0.249999999999992
40
0.499999999999983
40
0.499999999999983
40
0.749999999999974
40
0.749999999999974
40
0.874999999999987
40
0.874999999999987
40
1
40
1
40
1
40
1
41
1
10
77.2333855201399
20
1.92655363572655
30
0
41
1
10
77.3295159696243
20
1.94261059820508
30
0
41
1
10
77.4257467158056
20
1.96016250550764
30
0
41
1
10
77.6172678865101
20
1.99825691942743
30
0
41
1
10
77.7126657452214
20
2.01879990699228
30
0
41
1
10
77.9027390045306
20
2.06286509211643
30
0
41
1
10
77.9973885988605
20
2.08649370732056
30
0
41
1
10
78.1384350378078
20
2.12576324021447
30
0
41
1
10
78.1852999771187
20
2.1394738696784
30
0
41
1
10
78.2786818367896
20
2.16833025891762
30
0
41
1
10
78.3252364558062
20
2.183489731523
30
0
41
1
10
78.3714010846425
20
2.19942618610671
30
0
0
SPLINE
5
CE
100
AcDbEntity
8
1
62
256
6
ByLayer
370
18
48
1
60
0
100
AcDbSpline
70
4
71
3
72
31
73
27
40
0
40
0
40
0
40
0
40
0.250000000000022
40
0.250000000000022
40
0.312500000000026
40
0.312500000000026
40
0.37500000000003
40
0.37500000000003
40
0.500000000000036
40
0.500000000000036
40
0.625000000000041
40
0.625000000000041
40
0.656250000000041
40
0.656250000000041
40
0.671875000000042
40
0.671875000000042
40
0.687500000000042
40
0.750000000000039
40
0.750000000000039
40
0.781250000000036
40
0.781250000000036
40
0.812500000000032
40
0.812500000000032
40
0.875000000000023
40
0.875000000000023
40
1
40
1
40
1
40
1
41
1
10
76.6128357974212
20
6.65215084982387
30
0
41
1
10
76.7494389061335
20
6.27676011696337
30
0
41
1
10
76.8847341648579
20
5.89806043835586
30
0
41
1
10
77.0551122941185
20
5.42228562779559
30
0
41
1
10
77.089256540679
20
5.32698705385661
30
0
41
1
10
77.1576643105892
20
5.13637254217207
30
0
41
1
10
77.1919324319302
20
5.04103905530073
30
0
41
1
10
77.2950195036262
20
4.75500048419255
30
0
41
1
10
77.3641283462708
20
4.56422588107549
30
0
41
1
10
77.5034725208078
20
4.1829272020392
30
0
41
1
10
77.57369798553
20
3.99241841087073
30
0
41
1
10
77.6622201891947
20
3.75459137902624
30
0
41
1
10
77.6799609575044
20
3.7070402752189
30
0
41
1
10
77.7066284157491
20
3.63573568302826
30
0
41
1
10
77.7155516910718
20
3.61197866418783
30
0
41
1
10
77.7335253545494
20
3.56456582268981
30
0
41
1
10
77.7787367049599
20
3.44624042359772
30
0
41
1
10
77.8254188462836
20
3.32898968104536
30
0
41
1
10
77.8831669307872
20
3.18946880640905
30
0
41
1
10
77.9026853357099
20
3.14320737204989
30
0
41
1
10
77.9420869241262
20
3.05168960114696
30
0
41
1
10
77.9619997901342
20
3.0063640560258
30
0
41
1
10
78.0224147564906
20
2.87168040166179
30
0
41
1
10
78.0635910726432
20
2.78360703221017
30
0
41
1
10
78.1900862342415
20
2.52444935305317
30
0
41
1
10
78.2783926265672
20
2.35845584812822
30
0
41
1
10
78.3714010846426
20
2.19942618610673
30
0
0
SPLINE
5
CF
100
AcDbEntity
8
1
62
256
6
ByLayer
370
18
48
1
60
0
100
AcDbSpline
70
4
71
3
72
29
73
25
40
0
40
0
40
0
40
0
40
0.0936154248569122
40
0.0936154248569122
40
0.187230849713824
40
0.187230849713824
40
0.23403856214228
40
0.23403856214228
40
0.280846274570737
40
0.280846274570737
40
0.374461699427649
40
0.374461699427649
40
0.468077124284561
40
0.468077124284561
40
0.514884836713017
40
0.514884836713017
40
0.561692549141473
40
0.655307973998385
40
0.655307973998385
40
0.748923398855297
40
0.748923398855297
40
0.936154248569125
40
0.936154248569125
40
1
40
1
40
1
40
1
41
1
10
76.6128357974372
20
6.65215084981944
30
0
41
1
10
76.3129933475159
20
6.66034039663302
30
0
41
1
10
76.0132320387661
20
6.66240132680497
30
0
41
1
10
75.4135615401791
20
6.65417250379409
30
0
41
1
10
75.1136048763028
20
6.64391279818645
30
0
41
1
10
74.6631925371859
20
6.61932521590862
30
0
41
1
10
74.5129788637462
20
6.60959466669209
30
0
41
1
10
74.2123493262109
20
6.5870570485695
30
0
41
1
10
74.061903329054
20
6.57424373578581
30
0
41
1
10
73.6106663647822
20
6.5312357648813
30
0
41
1
10
73.3098582683321
20
6.49648664659719
30
0
41
1
10
72.7084961303275
20
6.41511421645811
30
0
41
1
10
72.4078784011479
20
6.36849508294779
30
0
41
1
10
71.9566365432216
20
6.28989933716156
30
0
41
1
10
71.8063254551914
20
6.26227627842255
30
0
41
1
10
71.5060384320997
20
6.20425378184396
30
0
41
1
10
71.0560260580372
20
6.11304308325259
30
0
41
1
10
70.6070738843321
20
6.0094786920962
30
0
41
1
10
70.0090472060105
20
5.86067947179151
30
0
41
1
10
69.710364010514
20
5.78083987679906
30
0
41
1
10
68.8146066525774
20
5.52581811210882
30
0
41
1
10
68.2177438136342
20
5.33528558835769
30
0
41
1
10
67.4158894070763
20
5.05427257174864
30
0
41
1
10
67.2118597581033
20
4.98059466295007
30
0
41
1
10
67.0076525590933
20
4.90474415846154
30
0
0
SPLINE
5
D0
100
AcDbEntity
8
1
62
256
6
ByLayer
370
18
48
1
60
0
100
AcDbSpline
70
4
71
3
72
18
73
14
40
0
40
0
40
0
40
0
40
0.107256685852579
40
0.107256685852579
40
0.234791445016496
40
0.234791445016496
40
0.48986096334433
40
0.48986096334433
40
0.617395722508248
40
0.617395722508248
40
0.744930481672166
40
0.744930481672166
40
1
40
1
40
1
40
1
41
1
10
26.0687612085913
20
-3.72568128462271
30
0
41
1
10
25.8161460439259
20
-3.61075259271854
30
0
41
1
10
25.5633846429035
20
-3.49335021280908
30
0
41
1
10
25.009516029996
20
-3.23122469864299
30
0
41
1
10
24.708623532698
20
-3.08558538861644
30
0
41
1
10
23.8061650186235
20
-2.64058530007236
30
0
41
1
10
23.2053282055254
20
-2.33387352317504
30
0
41
1
10
22.3032812225476
20
-1.86189584066949
30
0
41
1
10
22.0022850583741
20
-1.70248626929953
30
0
41
1
10
21.4012791738064
20
-1.3812159359652
30
0
41
1
10
21.1010887493151
20
-1.21931325683471
30
0
41
1
10
20.2006976676435
20
-0.73123593364059
30
0
41
1
10
19.6008163811633
20
-0.402439279315956
30
0
41
1
10
19.0000000000008
20
-0.0724521894792645
30
0
0
SPLINE
5
D1
100
AcDbEntity
8
1
62
256
6
ByLayer
370
18
48
1
60
0
100
AcDbSpline
70
4
71
3
72
31
73
27
40
0
40
0
40
0
40
0
40
0.249999999999999
40
0.249999999999999
40
0.312499999999999
40
0.312499999999999
40
0.374999999999999
40
0.374999999999999
40
0.499999999999998
40
0.499999999999998
40
0.624999999999998
40
0.624999999999998
40
0.656249999999997
40
0.656249999999997
40
0.671874999999997
40
0.671874999999997
40
0.687499999999996
40
0.749999999999999
40
0.749999999999999
40
0.78125
40
0.78125
40
0.8125
40
0.8125
40
0.875
40
0.875
40
1
40
1
40
1
40
1
41
1
10
76.6128357974239
20
-6.65215084981611
30
0
41
1
10
76.749438906136
20
-6.2767601169563
30
0
41
1
10
76.8847341648602
20
-5.89806043834949
30
0
41
1
10
77.0551122941205
20
-5.4222856277901
30
0
41
1
10
77.089256540681
20
-5.3269870538513
30
0
41
1
10
77.157664310591
20
-5.13637254216712
30
0
41
1
10
77.1919324319319
20
-5.04103905529595
30
0
41
1
10
77.2950195036278
20
-4.75500048418829
30
0
41
1
10
77.3641283462723
20
-4.56422588107162
30
0
41
1
10
77.5034725208089
20
-4.18292720203601
30
0
41
1
10
77.5736979855311
20
-3.99241841086791
30
0
41
1
10
77.6622201891957
20
-3.75459137902391
30
0
41
1
10
77.6799609575052
20
-3.70704027521663
30
0
41
1
10
77.7066284157499
20
-3.63573568302616
30
0
41
1
10
77.7155516910726
20
-3.61197866418573
30
0
41
1
10
77.7335253545502
20
-3.56456582268777
30
0
41
1
10
77.7787367049607
20
-3.4462404235959
30
0
41
1
10
77.8254188462844
20
-3.32898968104371
30
0
41
1
10
77.8831669307879
20
-3.1894688064076
30
0
41
1
10
77.9026853357103
20
-3.14320737204849
30
0
41
1
10
77.9420869241268
20
-3.05168960114571
30
0
41
1
10
77.9619997901347
20
-3.00636405602461
30
0
41
1
10
78.022414756491
20
-2.8716804016608
30
0
41
1
10
78.0635910726435
20
-2.78360703220929
30
0
41
1
10
78.1900862342417
20
-2.52444935305266
30
0
41
1
10
78.2783926265673
20
-2.35845584812796
30
0
41
1
10
78.3714010846425
20
-2.19942618610673
30
0
0
SPLINE
5
D2
100
AcDbEntity
8
1
62
256
6
ByLayer
370
18
48
1
60
0
100
AcDbSpline
70
4
71
3
72
94
73
90
40
0
40
0
40
0
40
0
40
0.0185622893517755
40
0.0185622893517755
40
0.043714459993329
40
0.043714459993329
40
0.0562905453141054
40
0.0562905453141054
40
0.0688666306348817
40
0.0688666306348817
40
0.0940188012764344
40
0.0940188012764344
40
0.119170971917987
40
0.119170971917987
40
0.169475313201092
40
0.169475313201092
40
0.194627483842645
40
0.194627483842645
40
0.219779654484197
40
0.219779654484197
40
0.232355739804973
40
0.232355739804973
40
0.244931825125748
40
0.244931825125748
40
0.270083995767299
40
0.270083995767299
40
0.295236166408849
40
0.295236166408849
40
0.320388337050399
40
0.320388337050399
40
0.332964422371175
40
0.332964422371175
40
0.34554050769195
40
0.34554050769195
40
0.3706926783335
40
0.3706926783335
40
0.395844848975051
40
0.395844848975051
40
0.420997019616601
40
0.420997019616601
40
0.446149190258152
40
0.446149190258152
40
0.471301360899702
40
0.471301360899702
40
0.496453531541252
40
0.496453531541252
40
0.509029616862028
40
0.509029616862028
40
0.521605702182803
40
0.521605702182803
40
0.546757872824353
40
0.546757872824353
40
0.571910043465904
40
0.571910043465904
40
0.622214384749006
40
0.622214384749006
40
0.672518726032107
40
0.672518726032107
40
0.685094811352882
40
0.685094811352882
40
0.697670896673658
40
0.697670896673658
40
0.722823067315207
40
0.722823067315207
40
0.773127408598306
40
0.773127408598306
40
0.798279579239855
40
0.798279579239855
40
0.81085566456063
40
0.81085566456063
40
0.823431749881405
40
0.823431749881405
40
0.873736091164507
40
0.873736091164507
40
0.898888261806058
40
0.898888261806058
40
0.911464347126833
40
0.911464347126833
40
0.924040432447609
40
0.924040432447609
40
0.949192603089161
40
0.949192603089161
40
0.961768688409937
40
0.961768688409937
40
0.974344773730713
40
0.974344773730713
40
0.999496944372264
40
0.999496944372264
40
1
40
1
40
1
40
1
41
1
10
64.6821726974769
20
-3.95655061939414
30
0
41
1
10
64.4601471055925
20
-3.85848912905269
30
0
41
1
10
64.2381361584546
20
-3.75842024963913
30
0
41
1
10
63.7155117905953
20
-3.5184029994322
30
0
41
1
10
63.4149335676249
20
-3.37689143842408
30
0
41
1
10
62.9638351182903
20
-3.16020832988897
30
0
41
1
10
62.8133661924137
20
-3.08719599671656
30
0
41
1
10
62.5127478589784
20
-2.93994285454133
30
0
41
1
10
62.3626007541781
20
-2.86570793563877
30
0
41
1
10
61.9125729380589
20
-2.64130942611345
30
0
41
1
10
61.6131028362219
20
-2.48945824401596
30
0
41
1
10
61.0149063244533
20
-2.18187634015698
30
0
41
1
10
60.7162169430638
20
-2.02607168669758
30
0
41
1
10
59.8206943448107
20
-1.55385207345935
30
0
41
1
10
59.2243076816026
20
-1.23281533352059
30
0
41
1
10
58.328625533079
20
-0.745636404247989
30
0
41
1
10
58.0298651504959
20
-0.582335845819244
30
0
41
1
10
57.4316612176879
20
-0.254401452414726
30
0
41
1
10
57.1321807291453
20
-0.0898371303977115
30
0
41
1
10
56.6820741668764
20
0.157319116850403
30
0
41
1
10
56.5318962900121
20
0.239766054285013
30
0
41
1
10
56.231205159142
20
0.404689142962837
30
0
41
1
10
56.0807276235021
20
0.487146561653503
30
0
41
1
10
55.6294457794429
20
0.734034608650717
30
0
41
1
10
55.3285758440258
20
0.898077071345455
30
0
41
1
10
54.7268862929076
20
1.22428831531522
30
0
41
1
10
54.426069497187
20
1.38650531863681
30
0
41
1
10
53.8246241802016
20
1.70777410108397
30
0
41
1
10
53.5239758005035
20
1.86690497546951
30
0
41
1
10
53.072849266065
20
2.10289408337775
30
0
41
1
10
52.9224051982429
20
2.18112813495125
30
0
41
1
10
52.6216530263173
20
2.33648003062149
30
0
41
1
10
52.4713547719243
20
2.41359239683331
30
0
41
1
10
52.0206217237027
20
2.64312371731475
30
0
41
1
10
51.7203737649652
20
2.79378031285191
30
0
41
1
10
51.1199508625639
20
3.08969361401958
30
0
41
1
10
50.8197404928194
20
3.23488252514113
30
0
41
1
10
50.2190179724356
20
3.51921835748618
30
0
41
1
10
49.9184888795419
20
3.65835165866153
30
0
41
1
10
49.3167686714117
20
3.929892816971
30
0
41
1
10
49.0159020642933
20
4.0621604961612
30
0
41
1
10
48.4142615219167
20
4.31902432503986
30
0
41
1
10
48.1134445939618
20
4.44357635995451
30
0
41
1
10
47.5120177404613
20
4.68407317201579
30
0
41
1
10
47.2113675803771
20
4.80005765038763
30
0
41
1
10
46.7602008189897
20
4.96728400326157
30
0
41
1
10
46.6097428311284
20
5.02191387590941
30
0
41
1
10
46.3092721054865
20
5.12867446786365
30
0
41
1
10
46.1591918213633
20
5.18082924089828
30
0
41
1
10
45.7093700188171
20
5.33358743247283
30
0
41
1
10
45.4100582969884
20
5.43051319412399
30
0
41
1
10
44.8120432525627
20
5.61405816000052
30
0
41
1
10
44.5133685458135
20
5.70070137981236
30
0
41
1
10
43.6178344385781
20
5.94482499730742
30
0
41
1
10
43.0214435952461
20
6.08647713285129
30
0
41
1
10
41.8271896358798
20
6.32503762009571
30
0
41
1
10
41.2291480304261
20
6.42195203483362
30
0
41
1
10
40.4787231347581
20
6.51309037237297
30
0
41
1
10
40.328489328532
20
6.52982216780191
30
0
41
1
10
40.0276785557838
20
6.56027619391418
30
0
41
1
10
39.8773018549772
20
6.57397417340371
30
0
41
1
10
39.4265927521817
20
6.61047183037257
30
0
41
1
10
39.1264753100513
20
6.62871875146783
30
0
41
1
10
38.2265124464841
20
6.6652764941181
30
0
41
1
10
37.6271359401819
20
6.6654448740104
30
0
41
1
10
36.7268331565285
20
6.62939571378269
30
0
41
1
10
36.426565319885
20
6.61130281767402
30
0
41
1
10
35.9755027334159
20
6.5750565602622
30
0
41
1
10
35.8249961862975
20
6.56144651103409
30
0
41
1
10
35.5243145210798
20
6.53123033129944
30
0
41
1
10
35.3740728591602
20
6.51462018832729
30
0
41
1
10
34.623251407909
20
6.42408645768882
30
0
41
1
10
34.0238357389758
20
6.32758310500049
30
0
41
1
10
33.1242985213426
20
6.14837425484387
30
0
41
1
10
32.8243369185786
20
6.08293308228625
30
0
41
1
10
32.3739776510926
20
5.97641552392091
30
0
41
1
10
32.2237871562149
20
5.93951707327702
30
0
41
1
10
31.9232176999817
20
5.86296569168448
30
0
41
1
10
31.7728030827598
20
5.82330282896891
30
0
41
1
10
31.321478929688
20
5.70030544540322
30
0
41
1
10
31.0205829340542
20
5.61299514915422
30
0
41
1
10
30.5693227097933
20
5.47427995208588
30
0
41
1
10
30.4189011627565
20
5.42675749258416
30
0
41
1
10
30.1181440815571
20
5.32929552155494
30
0
41
1
10
29.9677849529356
20
5.27935495634767
30
0
41
1
10
29.5167255431412
20
5.12593651312744
30
0
41
1
10
29.216045383225
20
5.01886047230482
30
0
41
1
10
28.9091911601155
20
4.90496048059865
30
0
41
1
10
28.9031742295325
20
4.90272526875256
30
0
41
1
10
28.8971572703305
20
4.90048823764059
30
0
0
SPLINE
5
D3
100
AcDbEntity
8
1
62
256
6
ByLayer
370
18
48
1
60
0
100
AcDbSpline
70
4
71
3
72
22
73
18
40
0
40
0
40
0
40
0
40
0.5
40
0.5
40
0.750000000000016
40
0.875000000000024
40
0.875000000000024
40
0.937500000000012
40
0.937500000000012
40
0.968750000000006
40
0.984375000000003
40
0.9921875
40
0.996093749999998
40
0.996093749999998
40
0.998046874999999
40
0.998046874999999
40
1
40
1
40
1
40
1
41
1
10
76.4538925402702
20
-6.99997147698744
30
0
41
1
10
76.4793822130997
20
-6.94199521289843
30
0
41
1
10
76.5053803880202
20
-6.88401608790247
30
0
41
1
10
76.5451337851285
20
-6.79701903780693
30
0
41
1
10
76.5651988131695
20
-6.75351558537901
30
0
41
1
10
76.5855445248866
20
-6.71000278023834
30
0
41
1
10
76.5957639101677
20
-6.68824478796375
30
0
41
1
10
76.5991778791154
20
-6.68099287802403
30
0
41
1
10
76.6043115838409
20
-6.67011002858203
30
0
41
1
10
76.6068817577651
20
-6.66466682396998
30
0
41
1
10
76.6098869253677
20
-6.65830998894094
30
0
41
1
10
76.6113912673437
20
-6.65512955632937
30
0
41
1
10
76.6120363716415
20
-6.65376604094837
30
0
41
1
10
76.612358989073
20
-6.65308420082562
30
0
41
1
10
76.6124666578662
20
-6.65285644626857
30
0
41
1
10
76.6126815231462
20
-6.65240282676132
30
0
41
1
10
76.612802561576
20
-6.6521504626669
30
0
41
1
10
76.6128357975589
20
-6.65215084964723
30
0
0
SPLINE
5
D4
100
AcDbEntity
8
1
62
256
6
ByLayer
370
18
48
1
60
0
100
AcDbSpline
70
4
71
3
72
178
73
174
40
0
40
0
40
0
40
0
40
0.0011872298518606
40
0.0011872298518606
40
0.012603015560432
40
0.012603015560432
40
0.0240188012690034
40
0.0240188012690034
40
0.0468503726861455
40
0.0468503726861455
40
0.0582661583947169
40
0.0582661583947169
40
0.0696819441032883
40
0.0696819441032883
40
0.0810977298118597
40
0.0810977298118597
40
0.0925135155204311
40
0.0925135155204311
40
0.103929301229003
40
0.103929301229003
40
0.115345086937574
40
0.115345086937574
40
0.12105297979186
40
0.12105297979186
40
0.126760872646145
40
0.126760872646145
40
0.138176658354716
40
0.138176658354716
40
0.149592444063287
40
0.149592444063287
40
0.161008229771857
40
0.161008229771857
40
0.172424015480428
40
0.172424015480428
40
0.183839801188999
40
0.183839801188999
40
0.189547694043284
40
0.189547694043284
40
0.19525558689757
40
0.19525558689757
40
0.206671372606141
40
0.206671372606141
40
0.218087158314713
40
0.218087158314713
40
0.229502944023284
40
0.229502944023284
40
0.252334515440427
40
0.252334515440427
40
0.263750301148999
40
0.263750301148999
40
0.275166086857571
40
0.275166086857571
40
0.286581872566143
40
0.286581872566143
40
0.297997658274715
40
0.297997658274715
40
0.309413443983286
40
0.309413443983286
40
0.320829229691858
40
0.320829229691858
40
0.33224501540043
40
0.33224501540043
40
0.343660801109001
40
0.343660801109001
40
0.366492372526146
40
0.366492372526146
40
0.377908158234718
40
0.377908158234718
40
0.38932394394329
40
0.38932394394329
40
0.395031836797576
40
0.395031836797576
40
0.400739729651861
40
0.400739729651861
40
0.412155515360433
40
0.412155515360433
40
0.434987086777576
40
0.434987086777576
40
0.457818658194718
40
0.457818658194718
40
0.463526551049004
40
0.463526551049004
40
0.469234443903289
40
0.469234443903289
40
0.480650229611859
40
0.480650229611859
40
0.492066015320429
40
0.492066015320429
40
0.503481801028999
40
0.503481801028999
40
0.514897586737569
40
0.514897586737569
40
0.52631337244614
40
0.52631337244614
40
0.53772915815471
40
0.53772915815471
40
0.54914494386328
40
0.54914494386328
40
0.56056072957185
40
0.56056072957185
40
0.57197651528042
40
0.57197651528042
40
0.58339230098899
40
0.58339230098899
40
0.59480808669756
40
0.59480808669756
40
0.6176396581147
40
0.6176396581147
40
0.62905544382327
40
0.62905544382327
40
0.64047122953184
40
0.64047122953184
40
0.66330280094898
40
0.66330280094898
40
0.674718586657551
40
0.674718586657551
40
0.686134372366121
40
0.686134372366121
40
0.697550158074691
40
0.697550158074691
40
0.708965943783262
40
0.708965943783262
40
0.720381729491832
40
0.720381729491832
40
0.726089622346117
40
0.726089622346117
40
0.731797515200402
40
0.731797515200402
40
0.743213300908972
40
0.743213300908972
40
0.754629086617543
40
0.754629086617543
40
0.766044872326113
40
0.766044872326113
40
0.777460658034683
40
0.777460658034683
40
0.788876443743254
40
0.788876443743254
40
0.800292229451824
40
0.800292229451824
40
0.811708015160394
40
0.811708015160394
40
0.823123800868965
40
0.823123800868965
40
0.834539586577535
40
0.834539586577535
40
0.845955372286106
40
0.845955372286106
40
0.857371157994676
40
0.857371157994676
40
0.868786943703246
40
0.868786943703246
40
0.880202729411817
40
0.880202729411817
40
0.891618515120387
40
0.891618515120387
40
0.903034300828958
40
0.903034300828958
40
0.908742193683243
40
0.908742193683243
40
0.914450086537528
40
0.914450086537528
40
0.937281657954668
40
0.937281657954668
40
0.948697443663239
40
0.948697443663239
40
0.960113229371809
40
0.960113229371809
40
0.98294480078895
40
0.98294480078895
40
0.99436058649752
40
0.99436058649752
40
1
40
1
40
1
40
1
41
1
10
20.2504007170154
20
6.61480024802489
30
0
41
1
10
20.2689799467464
20
6.61455863819251
30
0
41
1
10
20.2875606591068
20
6.61429417316748
30
0
41
1
10
20.4848194284979
20
6.61124544529247
30
0
41
1
10
20.6632077131995
20
6.60639774245129
30
0
41
1
10
21.0193031959022
20
6.59274930710328
30
0
41
1
10
21.1970331340676
20
6.58389482388756
30
0
41
1
10
21.7296352047974
20
6.55037632111078
30
0
41
1
10
22.0838795502161
20
6.51892573997088
30
0
41
1
10
22.6143911962076
20
6.45991009671607
30
0
41
1
10
22.7910537860911
20
6.43824868826766
30
0
41
1
10
23.1440392133311
20
6.39120666339005
30
0
41
1
10
23.3203479480892
20
6.36585793421261
30
0
41
1
10
23.672917837035
20
6.31089846031131
30
0
41
1
10
23.8492035004558
20
6.28123207427248
30
0
41
1
10
24.201718335934
20
6.21778636005652
30
0
41
1
10
24.3779371749661
20
6.18402210806769
30
0
41
1
10
24.730328642515
20
6.11264656036536
30
0
41
1
10
24.9064961345023
20
6.0750282387427
30
0
41
1
10
25.2588282764471
20
5.99617821933114
30
0
41
1
10
25.4349778715895
20
5.95501102231449
30
0
41
1
10
25.699304852216
20
5.89037533214815
30
0
41
1
10
25.7874374310013
20
5.86834225180226
30
0
41
1
10
25.9638074421742
20
5.8232528501737
30
0
41
1
10
26.0520419319699
20
5.80020223530425
30
0
41
1
10
26.3168738563601
20
5.72959983213894
30
0
41
1
10
26.4935929088356
20
5.68061097786159
30
0
41
1
10
26.8472812497582
20
5.57901083329128
30
0
41
1
10
27.0242576283081
20
5.52638643554775
30
0
41
1
10
27.3784471070388
20
5.41759756361074
30
0
41
1
10
27.5556431243462
20
5.36145468579232
30
0
41
1
10
27.9103482503688
20
5.24564486606869
30
0
41
1
10
28.0879035705521
20
5.18591843661278
30
0
41
1
10
28.4439080771636
20
5.06279950237524
30
0
41
1
10
28.6222905377549
20
4.99942789560205
30
0
41
1
10
28.890321613632
20
4.90180190019058
30
0
41
1
10
28.9796829298987
20
4.86885629616049
30
0
41
1
10
29.1582875731787
20
4.80224077612161
30
0
41
1
10
29.2475548706193
20
4.76856166532218
30
0
41
1
10
29.5152518252767
20
4.66644172094689
30
0
41
1
10
29.6935738474434
20
4.59691989988247
30
0
41
1
10
30.0498550996003
20
4.45502161123636
30
0
41
1
10
30.2278187974689
20
4.38261525655111
30
0
41
1
10
30.5838397239083
20
4.23487065388915
30
0
41
1
10
30.7618945344543
20
4.15955043392495
30
0
41
1
10
31.2961296364384
20
3.92966455059005
30
0
41
1
10
31.6524833672755
20
3.7713339645488
30
0
41
1
10
32.1869548790604
20
3.52656686077509
30
0
41
1
10
32.3650770017099
20
3.44376470306156
30
0
41
1
10
32.7216779230303
20
3.27583080768198
30
0
41
1
10
32.9002171237609
20
3.19070869929362
30
0
41
1
10
33.2576458589997
20
3.01828243960605
30
0
41
1
10
33.4360465142479
20
2.93120036969361
30
0
41
1
10
33.7922441797925
20
2.75538468511124
30
0
41
1
10
33.9700268444329
20
2.66662709694487
30
0
41
1
10
34.32510767602
20
2.48768037621434
30
0
41
1
10
34.5024082181067
20
2.39749926330805
30
0
41
1
10
34.8566193524182
20
2.2158320042769
30
0
41
1
10
35.0335679851833
20
2.12440146636149
30
0
41
1
10
35.387284636074
20
1.94058895084487
30
0
41
1
10
35.564038385295
20
1.84819025966641
30
0
41
1
10
35.9172606382775
20
1.66232201853325
30
0
41
1
10
36.0937170001082
20
1.56883276422343
30
0
41
1
10
36.6226175483655
20
1.28671262867482
30
0
41
1
10
36.9746045803384
20
1.09643305748742
30
0
41
1
10
37.5032046899153
20
0.810282333326285
30
0
41
1
10
37.6794671724479
20
0.714711893390671
30
0
41
1
10
38.0320285206051
20
0.523084119929194
30
0
41
1
10
38.2083419784413
20
0.42705187226511
30
0
41
1
10
38.472838903233
20
0.282654570902508
30
0
41
1
10
38.5610064282783
20
0.234459919440383
30
0
41
1
10
38.7373373531399
20
0.137934660653883
30
0
41
1
10
38.8255061730172
20
0.0896122547193556
30
0
41
1
10
39.0901271298658
20
-0.0553700637278496
30
0
41
1
10
39.2666796781357
20
-0.152067288689381
30
0
41
1
10
39.7969461803502
20
-0.441939792709377
30
0
41
1
10
40.1512554483768
20
-0.634916699249345
30
0
41
1
10
40.8613554610101
20
-1.02024347571782
30
0
41
1
10
41.21699279455
20
-1.21288071837546
30
0
41
1
10
41.6634502696069
20
-1.45161950199525
30
0
41
1
10
41.7528117277642
20
-1.49925299998316
30
0
41
1
10
41.9313983934944
20
-1.59413931477258
30
0
41
1
10
42.0206612630382
20
-1.64141682268348
30
0
41
1
10
42.2883483708722
20
-1.78279357129236
30
0
41
1
10
42.4666778568721
20
-1.87642218100859
30
0
41
1
10
42.823067735202
20
-2.06260479235729
30
0
41
1
10
43.0010910760827
20
-2.15525440858994
30
0
41
1
10
43.3570730604481
20
-2.33904714448164
30
0
41
1
10
43.535069185874
20
-2.43008914041172
30
0
41
1
10
43.8911227092336
20
-2.61032511402172
30
0
41
1
10
44.0691815799801
20
-2.69953042180165
30
0
41
1
10
44.4254111680114
20
-2.87608086826535
30
0
41
1
10
44.6035884851428
20
-2.96340815583943
30
0
41
1
10
44.9600200305749
20
-3.1363435421853
30
0
41
1
10
45.138239552805
20
-3.22203857471666
30
0
41
1
10
45.4947494079263
20
-3.39175595313751
30
0
41
1
10
45.673088375525
20
-3.4756557716272
30
0
41
1
10
46.0301974057255
20
-3.64095326775819
30
0
41
1
10
46.2087277351927
20
-3.72228682833571
30
0
41
1
10
46.5655443872419
20
-3.88212161866949
30
0
41
1
10
46.7438532965977
20
-3.96068181395512
30
0
41
1
10
47.100296711804
20
-4.11519737888821
30
0
41
1
10
47.2784251175708
20
-4.19119194789423
30
0
41
1
10
47.6344662633016
20
-4.34087055477497
30
0
41
1
10
47.8124021866894
20
-4.41445908515954
30
0
41
1
10
48.346348433564
20
-4.63025409036015
30
0
41
1
10
48.7024009240207
20
-4.76777300359251
30
0
41
1
10
49.236994818897
20
-4.96473446049541
30
0
41
1
10
49.4153033450066
20
-5.02881190907161
30
0
41
1
10
49.7719589429176
20
-5.15430235502697
30
0
41
1
10
49.9503175431478
20
-5.21571299142744
30
0
41
1
10
50.4859879863871
20
-5.39435076637113
30
0
41
1
10
50.8426914338352
20
-5.50548946876614
30
0
41
1
10
51.3771912030342
20
-5.6613786979635
30
0
41
1
10
51.5552695935458
20
-5.71152521133905
30
0
41
1
10
51.9111900398769
20
-5.80856330649161
30
0
41
1
10
52.0889916467347
20
-5.85555876312088
30
0
41
1
10
52.4447138205393
20
-5.94547853588352
30
0
41
1
10
52.6226574312605
20
-5.98829768132015
30
0
41
1
10
52.9787378914357
20
-6.06970532311067
30
0
41
1
10
53.1568792571254
20
-6.10831398125344
30
0
41
1
10
53.513364929251
20
-6.18157509092404
30
0
41
1
10
53.6917105150324
20
-6.21622400382751
30
0
41
1
10
53.9592927175119
20
-6.26548033387814
30
0
41
1
10
54.0484960088806
20
-6.28144895219214
30
0
41
1
10
54.2269065458401
20
-6.31251993419585
30
0
41
1
10
54.3161556964396
20
-6.32761868518315
30
0
41
1
10
54.5836964484642
20
-6.37133584867766
30
0
41
1
10
54.7617448643353
20
-6.39827697928655
30
0
41
1
10
55.1174124696927
20
-6.44743900165858
30
0
41
1
10
55.2950372438919
20
-6.46973485535474
30
0
41
1
10
55.6498825561594
20
-6.51014194081466
30
0
41
1
10
55.8270756854648
20
-6.52827890356446
30
0
41
1
10
56.1810172704394
20
-6.56067071299802
30
0
41
1
10
56.3577643806335
20
-6.57492892785606
30
0
41
1
10
56.7108947813346
20
-6.59941733581974
30
0
41
1
10
56.8872970545272
20
-6.60956615973063
30
0
41
1
10
57.2400114933398
20
-6.62510454847546
30
0
41
1
10
57.4163057585436
20
-6.63056778051171
30
0
41
1
10
57.7687797386125
20
-6.63717501938314
30
0
41
1
10
57.9449496993506
20
-6.63832049563064
30
0
41
1
10
58.2971996886842
20
-6.63658190731471
30
0
41
1
10
58.4733023577041
20
-6.63369183330084
30
0
41
1
10
58.8254056926688
20
-6.62397779321952
30
0
41
1
10
59.0014143682417
20
-6.6171388766852
30
0
41
1
10
59.3536585104485
20
-6.59899843542462
30
0
41
1
10
59.5299030897856
20
-6.58769161969983
30
0
41
1
10
59.8825704857228
20
-6.56088244945192
30
0
41
1
10
60.0589883922445
20
-6.54537945890445
30
0
41
1
10
60.4118897901351
20
-6.51043368469323
30
0
41
1
10
60.588373683584
20
-6.49100438390147
30
0
41
1
10
60.9414584001801
20
-6.44829215919773
30
0
41
1
10
61.1180233787948
20
-6.42505826158703
30
0
41
1
10
61.4718123250957
20
-6.37407623790932
30
0
41
1
10
61.6490177554816
20
-6.34632825279502
30
0
41
1
10
62.0040586538377
20
-6.28640315736945
30
0
41
1
10
62.1818978770831
20
-6.25424725997723
30
0
41
1
10
62.4491388949451
20
-6.20284362343449
30
0
41
1
10
62.5382993674955
20
-6.18518044217953
30
0
41
1
10
62.716779024614
20
-6.14881214865088
30
0
41
1
10
62.8061354028568
20
-6.13009831122704
30
0
41
1
10
63.2526470093101
20
-6.0340880527778
30
0
41
1
10
63.6092637594927
20
-5.94941356068821
30
0
41
1
10
64.1435793726961
20
-5.81138399240672
30
0
41
1
10
64.3216074008378
20
-5.76355940379776
30
0
41
1
10
64.6775408267569
20
-5.66440950158295
30
0
41
1
10
64.8554146577086
20
-5.61307107185559
30
0
41
1
10
65.3889091203496
20
-5.4538596374104
30
0
41
1
10
65.7444777899806
20
-5.340741082584
30
0
41
1
10
66.2787049046764
20
-5.15998832168478
30
0
41
1
10
66.4569063898123
20
-5.09791527765927
30
0
41
1
10
66.7233646405086
20
-5.00261589515227
30
0
41
1
10
66.8115071118036
20
-4.97068555740188
30
0
41
1
10
66.8996879619916
20
-4.93834840792738
30
0
0
SPLINE
5
D5
100
AcDbEntity
8
1
62
256
6
ByLayer
370
18
48
1
60
0
100
AcDbSpline
70
4
71
3
72
82
73
78
40
0
40
0
40
0
40
0
40
0.0249987505755355
40
0.0249987505755355
40
0.0499975011510711
40
0.0499975011510711
40
0.0999950023021422
40
0.0999950023021422
40
0.124993752877678
40
0.124993752877678
40
0.149992503453213
40
0.149992503453213
40
0.174991254028749
40
0.174991254028749
40
0.199990004604284
40
0.199990004604284
40
0.249987505755355
40
0.249987505755355
40
0.274986256330891
40
0.274986256330891
40
0.299985006906427
40
0.299985006906427
40
0.349982508057498
40
0.349982508057498
40
0.39998000920857
40
0.39998000920857
40
0.412479384496338
40
0.412479384496338
40
0.424978759784106
40
0.424978759784106
40
0.449977510359642
40
0.449977510359642
40
0.474976260935178
40
0.474976260935178
40
0.499975011510715
40
0.499975011510715
40
0.524973762086251
40
0.524973762086251
40
0.549972512661788
40
0.549972512661788
40
0.574971263237325
40
0.574971263237325
40
0.599970013812861
40
0.599970013812861
40
0.624968764388398
40
0.624968764388398
40
0.649967514963935
40
0.649967514963935
40
0.699965016115008
40
0.699965016115008
40
0.724963766690545
40
0.724963766690545
40
0.749962517266081
40
0.749962517266081
40
0.774961267841618
40
0.774961267841618
40
0.799960018417155
40
0.799960018417155
40
0.824958768992691
40
0.824958768992691
40
0.849957519568228
40
0.849957519568228
40
0.862456894855996
40
0.862456894855996
40
0.874956270143764
40
0.874956270143764
40
0.899955020719302
40
0.899955020719302
40
0.924953771294841
40
0.924953771294841
40
0.949952521870379
40
0.949952521870379
40
0.974951272445917
40
0.974951272445917
40
0.999950023021455
40
0.999950023021455
40
1
40
1
40
1
40
1
41
1
10
7.53359320597212
20
-3.42936511166676
30
0
41
1
10
7.71236740583211
20
-3.51256913247099
30
0
41
1
10
7.89075814314435
20
-3.59483895883903
30
0
41
1
10
8.24693536321618
20
-3.75682670913523
30
0
41
1
10
8.42474299808981
20
-3.83643946668141
30
0
41
1
10
8.95747288278892
20
-4.07086558447628
30
0
41
1
10
9.3116257592859
20
-4.22150884558201
30
0
41
1
10
9.84183121449465
20
-4.43920079498261
30
0
41
1
10
10.0183997071844
20
-4.51037971324959
30
0
41
1
10
10.3713444634895
20
-4.64972690254601
30
0
41
1
10
10.5477226825662
20
-4.71785611422453
30
0
41
1
10
10.9004005681448
20
-4.85069089989744
30
0
41
1
10
11.0767029947978
20
-4.91542664509257
30
0
41
1
10
11.4292611808092
20
-5.04169031604908
30
0
41
1
10
11.6055168404836
20
-5.10322154022623
30
0
41
1
10
12.1341064844039
20
-5.28340572041759
30
0
41
1
10
12.4862148969089
20
-5.39764502888164
30
0
41
1
10
13.0149648399202
20
-5.558077680021
30
0
41
1
10
13.1913392371467
20
-5.60969968430587
30
0
41
1
10
13.544396512662
20
-5.7092952273031
30
0
41
1
10
13.721051200206
20
-5.75729719685134
30
0
41
1
10
14.2513843255797
20
-5.89610535411182
30
0
41
1
10
14.6053970238106
20
-5.98183379087448
30
0
41
1
10
15.3153026055102
20
-6.13770582651489
30
0
41
1
10
15.6712751865919
20
-6.20763538859455
30
0
41
1
10
16.117687417722
20
-6.28533133208057
30
0
41
1
10
16.2070254248105
20
-6.30038037076611
30
0
41
1
10
16.3855580395708
20
-6.32947430927857
30
0
41
1
10
16.4747869985862
20
-6.34352438399716
30
0
41
1
10
16.7423638453487
20
-6.38415589628752
30
0
41
1
10
16.9206058387865
20
-6.40921587058779
30
0
41
1
10
17.2769776678586
20
-6.45503856124884
30
0
41
1
10
17.4551168120271
20
-6.47577783829371
30
0
41
1
10
17.8113651269354
20
-6.5128673685133
30
0
41
1
10
17.9894617545193
20
-6.52924622699601
30
0
41
1
10
18.3455714639219
20
-6.55784758437935
30
0
41
1
10
18.5235868804798
20
-6.57008170134594
30
0
41
1
10
18.8796110527512
20
-6.59047281969819
30
0
41
1
10
19.0576235043592
20
-6.59860389932561
30
0
41
1
10
19.413896531364
20
-6.61053268748347
30
0
41
1
10
19.5921420339535
20
-6.6143245269636
30
0
41
1
10
19.9489253233364
20
-6.61742835397976
30
0
41
1
10
20.1274662490611
20
-6.61676850823528
30
0
41
1
10
20.4848194284978
20
-6.61124544529247
30
0
41
1
10
20.6632077131995
20
-6.60639774245129
30
0
41
1
10
21.0193031959021
20
-6.59274930710328
30
0
41
1
10
21.1970331340676
20
-6.58389482388756
30
0
41
1
10
21.7296352047973
20
-6.55037632111078
30
0
41
1
10
22.083879550216
20
-6.51892573997088
30
0
41
1
10
22.6143911962075
20
-6.45991009671607
30
0
41
1
10
22.791053786091
20
-6.43824868826766
30
0
41
1
10
23.1440392133311
20
-6.39120666339005
30
0
41
1
10
23.3203479480891
20
-6.36585793421264
30
0
41
1
10
23.6729178370348
20
-6.31089846031131
30
0
41
1
10
23.8492035004557
20
-6.28123207427251
30
0
41
1
10
24.201718335934
20
-6.21778636005655
30
0
41
1
10
24.377937174966
20
-6.18402210806772
30
0
41
1
10
24.7303286425149
20
-6.11264656036536
30
0
41
1
10
24.9064961345023
20
-6.07502823874273
30
0
41
1
10
25.2588282764471
20
-5.99617821933117
30
0
41
1
10
25.4349778715894
20
-5.95501102231452
30
0
41
1
10
25.6993048522159
20
-5.89037533214818
30
0
41
1
10
25.7874374310012
20
-5.86834225180229
30
0
41
1
10
25.9638074421741
20
-5.82325285017373
30
0
41
1
10
26.0520419319699
20
-5.80020223530428
30
0
41
1
10
26.31687385636
20
-5.72959983213897
30
0
41
1
10
26.4935929088356
20
-5.68061097786165
30
0
41
1
10
26.8472812497582
20
-5.57901083329133
30
0
41
1
10
27.024257628308
20
-5.52638643554778
30
0
41
1
10
27.3784471070386
20
-5.41759756361077
30
0
41
1
10
27.5556431243461
20
-5.36145468579235
30
0
41
1
10
27.9103482503687
20
-5.24564486606872
30
0
41
1
10
28.087903570552
20
-5.18591843661284
30
0
41
1
10
28.4439080771635
20
-5.06279950237527
30
0
41
1
10
28.6222905377549
20
-4.99942789560208
30
0
41
1
10
28.8013351497482
20
-4.93421378409764
30
0
41
1
10
28.8016923781052
20
-4.93408366308179
30
0
41
1
10
28.8020496067391
20
-4.93395353561621
30
0
0
SPLINE
5
D6
100
AcDbEntity
8
1
62
256
6
ByLayer
370
18
48
1
60
0
100
AcDbSpline
70
4
71
3
72
66
73
62
40
0
40
0
40
0
40
0
40
0.0262309108402195
40
0.0262309108402195
40
0.0566611948764616
40
0.0566611948764616
40
0.0870914789127038
40
0.0870914789127038
40
0.117521762948946
40
0.117521762948946
40
0.147952046985188
40
0.147952046985188
40
0.178382331021431
40
0.178382331021431
40
0.208812615057673
40
0.208812615057673
40
0.239242899093915
40
0.239242899093915
40
0.254458041112036
40
0.254458041112036
40
0.269673183130157
40
0.269673183130157
40
0.33053375120264
40
0.33053375120264
40
0.360964035238881
40
0.360964035238881
40
0.391394319275122
40
0.391394319275122
40
0.452254887347607
40
0.452254887347607
40
0.48268517138385
40
0.48268517138385
40
0.497900313401972
40
0.497900313401972
40
0.513115455420095
40
0.513115455420095
40
0.54354573945634
40
0.54354573945634
40
0.573976023492584
40
0.573976023492584
40
0.634836591565072
40
0.634836591565072
40
0.665266875601316
40
0.665266875601316
40
0.69569715963756
40
0.69569715963756
40
0.726127443673804
40
0.726127443673804
40
0.756557727710048
40
0.756557727710048
40
0.786988011746292
40
0.786988011746292
40
0.817418295782536
40
0.817418295782536
40
0.84784857981878
40
0.84784857981878
40
0.878278863855024
40
0.878278863855024
40
0.939139431927512
40
0.939139431927512
40
1
40
1
40
1
40
1
41
1
10
58.1939889867445
20
6.63697600481942
30
0
41
1
10
58.3458029846067
20
6.63574678961368
30
0
41
1
10
58.4975974530985
20
6.63302156549307
30
0
41
1
10
58.8254056926687
20
6.62397779321952
30
0
41
1
10
59.0014143682417
20
6.6171388766852
30
0
41
1
10
59.3536585104485
20
6.59899843542465
30
0
41
1
10
59.5299030897855
20
6.58769161969983
30
0
41
1
10
59.8825704857227
20
6.56088244945195
30
0
41
1
10
60.0589883922445
20
6.54537945890445
30
0
41
1
10
60.4118897901351
20
6.51043368469325
30
0
41
1
10
60.588373683584
20
6.4910043839015
30
0
41
1
10
60.94145840018
20
6.44829215919776
30
0
41
1
10
61.1180233787947
20
6.42505826158705
30
0
41
1
10
61.4718123250957
20
6.37407623790932
30
0
41
1
10
61.6490177554815
20
6.34632825279505
30
0
41
1
10
62.0040586538376
20
6.28640315736948
30
0
41
1
10
62.1818978770831
20
6.25424725997723
30
0
41
1
10
62.449138894945
20
6.20284362343449
30
0
41
1
10
62.5382993674955
20
6.18518044217956
30
0
41
1
10
62.7167790246139
20
6.14881214865088
30
0
41
1
10
62.8061354028567
20
6.13009831122704
30
0
41
1
10
63.25264700931
20
6.0340880527778
30
0
41
1
10
63.6092637594926
20
5.94941356068824
30
0
41
1
10
64.1435793726961
20
5.81138399240675
30
0
41
1
10
64.3216074008377
20
5.76355940379779
30
0
41
1
10
64.6775408267568
20
5.66440950158301
30
0
41
1
10
64.8554146577085
20
5.61307107185559
30
0
41
1
10
65.3889091203496
20
5.45385963741043
30
0
41
1
10
65.7444777899805
20
5.34074108258403
30
0
41
1
10
66.2787049046764
20
5.15998832168478
30
0
41
1
10
66.4569063898122
20
5.0979152776593
30
0
41
1
10
66.7244345129893
20
5.00223325289403
30
0
41
1
10
66.8136477437653
20
4.96991003596588
30
0
41
1
10
66.9921528902134
20
4.90443040157908
30
0
41
1
10
67.0814409491863
20
4.87127645035278
30
0
41
1
10
67.3491373424544
20
4.77074007536365
30
0
41
1
10
67.5274920356615
20
4.70225219719589
30
0
41
1
10
67.8839814381334
20
4.56232925895247
30
0
41
1
10
68.0621272553474
20
4.4909079335653
30
0
41
1
10
68.5964307191459
20
4.27244169186631
30
0
41
1
10
68.9524533528735
20
4.12120125232931
30
0
41
1
10
69.4862983537189
20
3.88649822624413
30
0
41
1
10
69.6642120460029
20
3.80695916534521
30
0
41
1
10
70.0200889684407
20
3.64535705857793
30
0
41
1
10
70.1980570986821
20
3.5632995026921
30
0
41
1
10
70.5542849451015
20
3.39692835526387
30
0
41
1
10
70.7325273231086
20
3.31257355853776
30
0
41
1
10
71.0893054444817
20
3.14163623071914
30
0
41
1
10
71.267951181691
20
3.05501841597797
30
0
41
1
10
71.6245934606423
20
2.88017300689174
30
0
41
1
10
71.8026656481632
20
2.79188160609277
30
0
41
1
10
72.1583919677314
20
2.61364470661212
30
0
41
1
10
72.3360656706811
20
2.52371145154945
30
0
41
1
10
72.6912147266646
20
2.34248780584662
30
0
41
1
10
72.8686676124066
20
2.25117568591696
30
0
41
1
10
73.2233882920286
20
2.06731417943604
30
0
41
1
10
73.4006860072643
20
1.97481195200584
30
0
41
1
10
73.9323994735257
20
1.69563293913856
30
0
41
1
10
74.2866052767645
20
1.50723453448987
30
0
41
1
10
74.9948854735313
20
1.12668282655215
30
0
41
1
10
75.3489098121774
20
0.934447398349505
30
0
41
1
10
75.7030646069391
20
0.74067267889086
30
0
0
SPLINE
5
D7
100
AcDbEntity
8
1
62
256
6
ByLayer
370
13
48
1
60
0
100
AcDbSpline
70
4
71
3
72
53
73
49
40
0
40
0
40
0
40
0
40
0.0691681820168119
40
0.0691681820168119
40
0.138336364033624
40
0.138336364033624
40
0.207504546050436
40
0.207504546050436
40
0.242088637058842
40
0.242088637058842
40
0.259380682563045
40
0.259380682563045
40
0.276672728067248
40
0.276672728067248
40
0.34584091008406
40
0.34584091008406
40
0.415009092100871
40
0.415009092100871
40
0.484177274117683
40
0.484177274117683
40
0.501469319621886
40
0.501469319621886
40
0.518761365126089
40
0.518761365126089
40
0.536053410630292
40
0.536053410630292
40
0.553345456134495
40
0.553345456134495
40
0.622513638151306
40
0.622513638151306
40
0.691681820168118
40
0.691681820168118
40
0.760850002184929
40
0.760850002184929
40
0.778142047689132
40
0.778142047689132
40
0.795434093193335
40
0.795434093193335
40
0.830018184201741
40
0.864602275210147
40
0.864602275210147
40
0.899186366218553
40
0.899186366218553
40
0.968354548235364
40
0.968354548235364
40
0.985646593739567
40
0.985646593739567
40
1
40
1
40
1
40
1
41
1
10
3.7513392189918
20
-0.769386599392789
30
0
41
1
10
3.7513328312636
20
-0.984786331639128
30
0
41
1
10
3.75132431539058
20
-1.19863711288559
30
0
41
1
10
3.75130356635012
20
-1.62322226182491
30
0
41
1
10
3.7512913327343
20
-1.83395695167795
30
0
41
1
10
3.75126355305434
20
-2.25219756292208
30
0
41
1
10
3.75124818358162
20
-2.45707524151814
30
0
41
1
10
3.75122328696432
20
-2.75805443835944
30
0
41
1
10
3.75121467957692
20
-2.85732470784652
30
0
41
1
10
3.7512013414559
20
-3.0046361280279
30
0
41
1
10
3.75119681930408
20
-3.05352502694635
30
0
41
1
10
3.7511876659577
20
-3.15047026813093
30
0
41
1
10
3.75118303532895
20
-3.19852344052563
30
0
41
1
10
3.75115962903277
20
-3.43671533050298
30
0
41
1
10
3.75114010029853
20
-3.62064780577012
30
0
41
1
10
3.75109975416677
20
-3.97560692513431
30
0
41
1
10
3.75107893619401
20
-4.14663286882436
30
0
41
1
10
3.75103617781053
20
-4.47573050554689
30
0
41
1
10
3.75101423754228
20
-4.63380338106754
30
0
41
1
10
3.7509861248941
20
-4.82302619976267
30
0
41
1
10
3.75098046793437
20
-4.86044787502971
30
0
41
1
10
3.75096912142379
20
-4.93420013078267
30
0
41
1
10
3.75096342723549
20
-4.97056225910148
30
0
41
1
10
3.75095199628026
20
-5.04225846934972
30
0
41
1
10
3.7509462547946
20
-5.07762064696195
30
0
41
1
10
3.75093475850684
20
-5.14713212996517
30
0
41
1
10
3.750929002769
20
-5.18128858652483
30
0
41
1
10
3.75090018244953
20
-5.34910739066592
30
0
41
1
10
3.75087699741442
20
-5.47390167102446
30
0
41
1
10
3.75083020430503
20
-5.7050420002482
30
0
41
1
10
3.75080659645295
20
-5.81138708303774
30
0
41
1
10
3.75075867709847
20
-6.00555283525912
30
0
41
1
10
3.7507343664216
20
-6.09337523212736
30
0
41
1
10
3.75070328175133
20
-6.19118202364214
30
0
41
1
10
3.75069703225006
20
-6.21013332916147
30
0
41
1
10
3.75068450796283
20
-6.24667491215888
30
0
41
1
10
3.75067822685557
20
-6.26428541002491
30
0
41
1
10
3.7506593160399
20
-6.31514377519159
30
0
41
1
10
3.75063392196859
20
-6.37769567883834
30
0
41
1
10
3.75060804743521
20
-6.42975274416429
30
0
41
1
10
3.75058186594521
20
-6.47653505658067
30
0
41
1
10
3.75056860910462
20
-6.49729916481382
30
0
41
1
10
3.75052848343273
20
-6.55132829604437
30
0
41
1
10
3.75050120247684
20
-6.57647771260804
30
0
41
1
10
3.75046607681747
20
-6.59435502723639
30
0
41
1
10
3.75045900028525
20
-6.59725094017651
30
0
41
1
10
3.75044594678118
20
-6.60130185012184
30
0
41
1
10
3.75043998398328
20
-6.60266917357117
30
0
41
1
10
3.75043398815086
20
-6.60356339995099
30
0
0
SPLINE
5
D8
100
AcDbEntity
8
1
62
256
6
ByLayer
370
18
48
1
60
0
100
AcDbSpline
70
4
71
3
72
62
73
58
40
0
40
0
40
0
40
0
40
0.0312500000000005
40
0.0312500000000005
40
0.0468750000000007
40
0.0468750000000007
40
0.0625000000000009
40
0.0625000000000009
40
0.125000000000002
40
0.125000000000002
40
0.187500000000003
40
0.187500000000003
40
0.218750000000004
40
0.218750000000004
40
0.234375000000004
40
0.234375000000004
40
0.250000000000004
40
0.250000000000004
40
0.312500000000003
40
0.312500000000003
40
0.343750000000003
40
0.343750000000003
40
0.359375000000003
40
0.359375000000003
40
0.375000000000003
40
0.375000000000003
40
0.437500000000002
40
0.437500000000002
40
0.500000000000002
40
0.500000000000002
40
0.531250000000002
40
0.531250000000002
40
0.546875000000002
40
0.546875000000002
40
0.562500000000002
40
0.562500000000002
40
0.625000000000002
40
0.625000000000002
40
0.656250000000002
40
0.656250000000002
40
0.671875000000002
40
0.671875000000002
40
0.687500000000003
40
0.687500000000003
40
0.750000000000002
40
0.750000000000002
40
0.765625000000002
40
0.765625000000002
40
0.781250000000002
40
0.781250000000002
40
0.812500000000002
40
0.812500000000002
40
0.875000000000001
40
0.875000000000001
40
0.937500000000001
40
0.937500000000001
40
1
40
1
40
1
40
1
41
1
10
75.7030646069392
20
0.740672678890803
30
0
41
1
10
75.6993382258202
20
0.634489886823019
30
0
41
1
10
75.6972178673212
20
0.527939348448541
30
0
41
1
10
75.6962491591643
20
0.367566192478051
30
0
41
1
10
75.6962952653864
20
0.313983006969949
30
0
41
1
10
75.6970917852051
20
0.206784409010965
30
0
41
1
10
75.697840797149
20
0.153283321909186
30
0
41
1
10
75.7032265739142
20
-0.113743805204933
30
0
41
1
10
75.7127666844052
20
-0.325839151966108
30
0
41
1
10
75.7397436080237
20
-0.747232058003419
30
0
41
1
10
75.7571853153796
20
-0.956529070243334
30
0
41
1
10
75.7876463767756
20
-1.26849355894595
30
0
41
1
10
75.7985190683187
20
-1.37215084410823
30
0
41
1
10
75.8157227167567
20
-1.52714902632883
30
0
41
1
10
75.8216064898955
20
-1.5787337538998
30
0
41
1
10
75.8336431883493
20
-1.681741461126
30
0
41
1
10
75.8398018881252
20
-1.73321126397988
30
0
41
1
10
75.8711208561714
20
-1.98953789265292
30
0
41
1
10
75.8977923536462
20
-2.19096851658304
30
0
41
1
10
75.9388509009864
20
-2.48788690835505
30
0
41
1
10
75.9527152497189
20
-2.58598638821272
30
0
41
1
10
75.9736308061438
20
-2.73183497030939
30
0
41
1
10
75.9806189052928
20
-2.78020767243123
30
0
41
1
10
75.9945608049575
20
-2.87617020241791
30
0
41
1
10
76.0015206993326
20
-2.92380261526989
30
0
41
1
10
76.0362115994442
20
-3.16024179922962
30
0
41
1
10
76.0636027793638
20
-3.34389446889696
30
0
41
1
10
76.1165355657713
20
-3.70050899193342
30
0
41
1
10
76.1420788256946
20
-3.87347012867193
30
0
41
1
10
76.1784097910651
20
-4.12485663815309
30
0
41
1
10
76.1901918488076
20
-4.20730692171716
30
0
41
1
10
76.2073188506783
20
-4.32893520318612
30
0
41
1
10
76.212936983212
20
-4.36913659699775
30
0
41
1
10
76.2239843402666
20
-4.44884958665966
30
0
41
1
10
76.2294175996649
20
-4.48839133961451
30
0
41
1
10
76.2560005539177
20
-4.683642594151
30
0
41
1
10
76.275450977766
20
-4.83245016777718
30
0
41
1
10
76.301948099195
20
-5.04459662023896
30
0
41
1
10
76.3103366865925
20
-5.11346458190394
30
0
41
1
10
76.3222838565596
20
-5.21396799434962
30
0
41
1
10
76.3261620242666
20
-5.24701640845231
30
0
41
1
10
76.3336946201499
20
-5.31200438902366
30
0
41
1
10
76.3373514217043
20
-5.3439635393697
30
0
41
1
10
76.3551154876051
20
-5.50109348328846
30
0
41
1
10
76.367649850683
20
-5.61828526022398
30
0
41
1
10
76.3817902874767
20
-5.754083599198
30
0
41
1
10
76.3845428308554
20
-5.78070754763104
30
0
41
1
10
76.3899144869686
20
-5.83287809415003
30
0
41
1
10
76.392533063352
20
-5.85841952850785
30
0
41
1
10
76.4001857580363
20
-5.93310724484164
30
0
41
1
10
76.4050281081759
20
-5.98043088689036
30
0
41
1
10
76.4190502602168
20
-6.11513680051638
30
0
41
1
10
76.4277179800496
20
-6.19526978259125
30
0
41
1
10
76.445308402275
20
-6.33653386761449
30
0
41
1
10
76.4542295445387
20
-6.39766216624514
30
0
41
1
10
76.4741915811545
20
-6.50076998096145
30
0
41
1
10
76.4852290952413
20
-6.54275067007401
30
0
41
1
10
76.4984272410956
20
-6.57483154909127
30
0
0
SPLINE
5
D9
100
AcDbEntity
8
1
62
256
6
ByLayer
370
18
48
1
60
0
100
AcDbSpline
70
4
71
3
72
17
73
13
40
0
40
0
40
0
40
0
40
0.250000000000006
40
0.250000000000006
40
0.375000000000008
40
0.375000000000008
40
0.50000000000001
40
0.625000000000013
40
0.625000000000013
40
0.750000000000015
40
0.750000000000015
40
1
40
1
40
1
40
1
41
1
10
3.62557007283851
20
6.88569222959666
30
0
41
1
10
3.60639990711431
20
6.88722381223889
30
0
41
1
10
3.58908892243923
20
6.88904792487642
30
0
41
1
10
3.56582973671303
20
6.89215272016608
30
0
41
1
10
3.55849172887398
20
6.89325819757286
30
0
41
1
10
3.54512809763619
20
6.89552902241121
30
0
41
1
10
3.53300112592439
20
6.89786636077071
30
0
41
1
10
3.52330236800069
20
6.90031607046254
30
0
41
1
10
3.51485901833215
20
6.90281573392764
30
0
41
1
10
3.51132395560188
20
6.90407536152247
30
0
41
1
10
3.50287759067703
20
6.90781208499732
30
0
41
1
10
3.5
20
6.91027228036387
30
0
41
1
10
3.49999999999997
20
6.91268947062986
30
0
0
SPLINE
5
DA
100
AcDbEntity
8
1
62
256
6
ByLayer
370
18
48
1
60
0
100
AcDbSpline
70
4
71
3
72
112
73
108
40
0
40
0
40
0
40
0
40
0.0198665565489691
40
0.0198665565489691
40
0.0245787365655601
40
0.0245787365655601
40
0.0292909165821512
40
0.0292909165821512
40
0.0387152766153333
40
0.0575639966816975
40
0.0575639966816975
40
0.0952614368144259
40
0.0952614368144259
40
0.104685796847608
40
0.104685796847608
40
0.114110156880791
40
0.114110156880791
40
0.132958876947157
40
0.132958876947157
40
0.170656317079888
40
0.170656317079888
40
0.189505037146253
40
0.189505037146253
40
0.198929397179436
40
0.198929397179436
40
0.208353757212618
40
0.208353757212618
40
0.246051197345349
40
0.246051197345349
40
0.264899917411715
40
0.264899917411715
40
0.274324277444898
40
0.274324277444898
40
0.28374863747808
40
0.28374863747808
40
0.32144607761081
40
0.32144607761081
40
0.359143517743539
40
0.359143517743539
40
0.368567877776721
40
0.368567877776721
40
0.377992237809903
40
0.396840957876269
40
0.396840957876269
40
0.406265317909452
40
0.406265317909452
40
0.415689677942635
40
0.415689677942635
40
0.425114037975817
40
0.425114037975817
40
0.434538398009
40
0.434538398009
40
0.472235838141732
40
0.472235838141732
40
0.509933278274464
40
0.509933278274464
40
0.519357638307647
40
0.519357638307647
40
0.52878199834083
40
0.52878199834083
40
0.547630718407196
40
0.547630718407196
40
0.585328158539928
40
0.585328158539928
40
0.594752518573111
40
0.594752518573111
40
0.604176878606294
40
0.604176878606294
40
0.62302559867266
40
0.62302559867266
40
0.660723038805392
40
0.660723038805392
40
0.679571758871758
40
0.679571758871758
40
0.688996118904941
40
0.688996118904941
40
0.698420478938125
40
0.717269199004492
40
0.726693559037676
40
0.726693559037676
40
0.736117919070859
40
0.736117919070859
40
0.754966639137226
40
0.754966639137226
40
0.76439099917041
40
0.76439099917041
40
0.773815359203593
40
0.773815359203593
40
0.811512799336328
40
0.811512799336328
40
0.849210239469063
40
0.849210239469063
40
0.858634599502247
40
0.858634599502247
40
0.86805895953543
40
0.86805895953543
40
0.886907679601797
40
0.886907679601797
40
0.92460511973453
40
0.92460511973453
40
0.934029479767714
40
0.934029479767714
40
0.943453839800897
40
0.943453839800897
40
0.962302559867265
40
0.962302559867265
40
1
40
1
40
1
40
1
41
1
10
28.8022592038913
20
4.94510032543175
30
0
41
1
10
29.1166333246363
20
5.07244239297216
30
0
41
1
10
29.431579458691
20
5.19505023232446
30
0
41
1
10
29.8222110604548
20
5.34047772542019
30
0
41
1
10
29.897147106406
20
5.36807351862873
30
0
41
1
10
30.0471158101221
20
5.42268508089373
30
0
41
1
10
30.1221712246916
20
5.44970880809694
30
0
41
1
10
30.3472044519647
20
5.52979374207476
30
0
41
1
10
30.7969364874008
20
5.68608982939085
30
0
41
1
10
31.2458859705286
20
5.83057551952021
30
0
41
1
10
32.1433328037614
20
6.10328423233651
30
0
41
1
10
32.7410169669808
20
6.26340914224903
30
0
41
1
10
33.4894837403459
20
6.43462911809041
30
0
41
1
10
33.63924599877
20
6.46742607909533
30
0
41
1
10
33.9389647280187
20
6.53007991603795
30
0
41
1
10
34.0889715103469
20
6.55994620027286
30
0
41
1
10
34.5390284882278
20
6.64500289255156
30
0
41
1
10
34.8386547375008
20
6.69556282753231
30
0
41
1
10
35.736911376512
20
6.82866277382462
30
0
41
1
10
36.3348577012714
20
6.89266690781037
30
0
41
1
10
37.2325713264429
20
6.95091975604413
30
0
41
1
10
37.53194564227
20
6.96404039700337
30
0
41
1
10
37.9815146996558
20
6.97417004002264
30
0
41
1
10
38.1314938203386
20
6.97595464380413
30
0
41
1
10
38.4315106270644
20
6.9763222735013
30
0
41
1
10
38.5814004822046
20
6.97490595640889
30
0
41
1
10
39.3303930725596
20
6.95985472945694
30
0
41
1
10
39.9281217761965
20
6.92229730341143
30
0
41
1
10
40.8251955913502
20
6.82842503602919
30
0
41
1
10
41.1243076837926
20
6.7908849327402
30
0
41
1
10
41.5733830008293
20
6.72528763403761
30
0
41
1
10
41.7231422137648
20
6.70187366554921
30
0
41
1
10
42.0228427654995
20
6.65196255055517
30
0
41
1
10
42.1728104064243
20
6.62546045164569
30
0
41
1
10
42.9229513691647
20
6.48532821450996
30
0
41
1
10
43.5212523324082
20
6.34937093548084
30
0
41
1
10
44.7174720412115
20
6.03244125068551
30
0
41
1
10
45.3153514518026
20
5.85143741093182
30
0
41
1
10
46.0644279072547
20
5.59864582479915
30
0
41
1
10
46.2143402585933
20
5.54675787342555
30
0
41
1
10
46.5143517478494
20
5.44038823694075
30
0
41
1
10
46.9641916825744
20
5.27710489306514
30
0
41
1
10
47.4137455297447
20
5.10292222741663
30
0
41
1
10
47.8634210505702
20
4.92184241978961
30
0
41
1
10
48.0133323018212
20
4.86033194382932
30
0
41
1
10
48.3132432402974
20
4.73506822737477
30
0
41
1
10
48.4632609823632
20
4.67130682772156
30
0
41
1
10
48.7632149824716
20
4.54169921597719
30
0
41
1
10
48.913175671965
20
4.47584307137998
30
0
41
1
10
49.2131175664261
20
4.34209661810487
30
0
41
1
10
49.3631460396171
20
4.27418445429586
30
0
41
1
10
50.1128176755853
20
3.93002391756889
30
0
41
1
10
50.7108958341153
20
3.64014128637592
30
0
41
1
10
51.9068452457324
20
3.03608387158451
30
0
41
1
10
52.5046930136151
20
2.72186982665892
30
0
41
1
10
53.2538842673257
20
2.31700129736421
30
0
41
1
10
53.4038902619723
20
2.23538355495947
30
0
41
1
10
53.7037594074198
20
2.07123379199081
30
0
41
1
10
53.8535852805357
20
1.98872296878369
30
0
41
1
10
54.3028159836347
20
1.74001904656379
30
0
41
1
10
54.6019718363046
20
1.57265107569276
30
0
41
1
10
55.4990312714684
20
1.06686030275424
30
0
41
1
10
56.0965204048692
20
0.724739010725102
30
0
41
1
10
56.8447712154559
20
0.29450663402946
30
0
41
1
10
56.9944913399406
20
0.208332014420904
30
0
41
1
10
57.2941250368073
20
0.0358189067190722
30
0
41
1
10
57.4441083277396
20
-0.0505591569275623
30
0
41
1
10
57.8938998919231
20
-0.309499096714831
30
0
41
1
10
58.1933304404222
20
-0.481745838741574
30
0
41
1
10
59.0909165414286
20
-0.996341348815719
30
0
41
1
10
59.6883643487507
20
-1.336549027903
30
0
41
1
10
60.5855413250281
20
-1.83841784838219
30
0
41
1
10
60.8847691014138
20
-2.0042982378759
30
0
41
1
10
61.3341657653432
20
-2.25048611453283
30
0
41
1
10
61.4841054706512
20
-2.33213689485649
30
0
41
1
10
61.7839821894513
20
-2.49434728121514
30
0
41
1
10
62.2336313100429
20
-2.73593906653167
30
0
41
1
10
62.8328082734416
20
-3.05067489865357
30
0
41
1
10
63.2824061977571
20
-3.28042325489699
30
0
41
1
10
63.5822409912403
20
-3.43210138255952
30
0
41
1
10
63.7321986946558
20
-3.50719071215312
30
0
41
1
10
64.1818496496565
20
-3.72987506529367
30
0
41
1
10
64.4814752601582
20
-3.87495762066817
30
0
41
1
10
64.931008131546
20
-4.08708400828874
30
0
41
1
10
65.0808666537789
20
-4.15687874293198
30
0
41
1
10
65.3806583444167
20
-4.29457368563044
30
0
41
1
10
65.530642467298
20
-4.36249649256425
30
0
41
1
10
66.2802344822372
20
-4.69691743567609
30
0
41
1
10
66.8781236066806
20
-4.94753392583132
30
0
41
1
10
68.0735818530159
20
-5.41111738909484
30
0
41
1
10
68.6711386490423
20
-5.62409450431775
30
0
41
1
10
69.4199818005667
20
-5.86434619858699
30
0
41
1
10
69.5699054950186
20
-5.91111522770717
30
0
41
1
10
69.8697137970516
20
-6.00190624920288
30
0
41
1
10
70.0195270039897
20
-6.04590689621719
30
0
41
1
10
70.4687680389288
20
-6.17367470458657
30
0
41
1
10
70.767992719067
20
-6.25321244473366
30
0
41
1
10
71.6654049239465
20
-6.47452468537759
30
0
41
1
10
72.2633183859976
20
-6.59900368173913
30
0
41
1
10
73.0122973517373
20
-6.72429202878394
30
0
41
1
10
73.1622409265874
20
-6.74784304954989
30
0
41
1
10
73.4619255572591
20
-6.79181559912746
30
0
41
1
10
73.6116725421012
20
-6.81223987130016
30
0
41
1
10
74.0607092621235
20
-6.86880790863188
30
0
41
1
10
74.3597970869244
20
-6.90024604346777
30
0
41
1
10
75.2568705973949
20
-6.97561076951408
30
0
41
1
10
75.8546598565256
20
-7.0005833007958
30
0
41
1
10
76.4538925402701
20
-6.99997147698741
30
0
0
SPLINE
5
DB
100
AcDbEntity
8
1
62
256
6
ByLayer
370
18
48
1
60
0
100
AcDbSpline
70
4
71
3
72
14
73
10
40
0
40
0
40
0
40
0
40
0.125
40
0.125
40
0.249999999999999
40
0.249999999999999
40
0.499999999999999
40
0.499999999999999
40
1
40
1
40
1
40
1
41
1
10
76.4538925402702
20
-6.99997147698741
30
0
41
1
10
76.4503015034913
20
-7.00009016410496
30
0
41
1
10
76.4468458592974
20
-6.99982467936741
30
0
41
1
10
76.440190865367
20
-6.99851758678864
30
0
41
1
10
76.4369887717311
20
-6.99747458483097
30
0
41
1
10
76.4277651268051
20
-6.99317868709738
30
0
41
1
10
76.4221372174378
20
-6.98876830152417
30
0
41
1
10
76.4065896165847
20
-6.97096113222261
30
0
41
1
10
76.3980026488525
20
-6.95299399190131
30
0
41
1
10
76.3906340935796
20
-6.92902901511451
30
0
0
SPLINE
5
DC
100
AcDbEntity
8
1
62
256
6
ByLayer
370
18
48
1
60
0
100
AcDbSpline
70
4
71
3
72
17
73
13
40
0
40
0
40
0
40
0
40
0.250000000000047
40
0.250000000000047
40
0.375000000000043
40
0.375000000000043
40
0.500000000000038
40
0.625000000000034
40
0.625000000000034
40
0.75000000000003
40
0.75000000000003
40
1
40
1
40
1
40
1
41
1
10
3.62557007283854
20
-6.88569222959666
30
0
41
1
10
3.60639990711434
20
-6.88722381223886
30
0
41
1
10
3.58908892243923
20
-6.88904792487642
30
0
41
1
10
3.56582973671303
20
-6.89215272016608
30
0
41
1
10
3.55849172887398
20
-6.89325819757286
30
0
41
1
10
3.54512809763619
20
-6.89552902241121
30
0
41
1
10
3.53300112592442
20
-6.89786636077068
30
0
41
1
10
3.52330236800069
20
-6.90031607046254
30
0
41
1
10
3.51485901833212
20
-6.90281573392764
30
0
41
1
10
3.51132395560188
20
-6.90407536152247
30
0
41
1
10
3.50287759067706
20
-6.90781208499732
30
0
41
1
10
3.5
20
-6.91027228036387
30
0
41
1
10
3.49999999999997
20
-6.91268947062986
30
0
0
SPLINE
5
DD
100
AcDbEntity
8
1
62
256
6
ByLayer
370
18
48
1
60
0
100
AcDbSpline
70
4
71
3
72
16
73
12
40
0
40
0
40
0
40
0
40
0.249999999999999
40
0.249999999999999
40
0.499999999999998
40
0.499999999999998
40
0.749999999999996
40
0.749999999999996
40
0.874999999999998
40
0.874999999999998
40
1
40
1
40
1
40
1
41
1
10
12.6398881250024
20
3.32592374804392
30
0
41
1
10
13.1755308559564
20
3.05583245081118
30
0
41
1
10
13.7083112919369
20
2.77758712297535
30
0
41
1
10
14.7702762509751
20
2.20853295456951
30
0
41
1
10
15.2994467795055
20
1.91769862517637
30
0
41
1
10
16.3564717531652
20
1.32745052810011
30
0
41
1
10
16.8843775900478
20
1.02812725163125
30
0
41
1
10
17.6768510262085
20
0.575517484548783
30
0
41
1
10
17.9411166928633
20
0.424052797294507
30
0
41
1
10
18.4701212039029
20
0.120383990152419
30
0
41
1
10
18.7348541885852
20
-0.031830923938486
30
0
41
1
10
19.0000000000077
20
-0.184105037123516
30
0
0
SPLINE
5
DE
100
AcDbEntity
8
1
62
256
6
ByLayer
370
18
48
1
60
0
100
AcDbSpline
70
4
71
3
72
49
73
45
40
0
40
0
40
0
40
0
40
0.0232406806575738
40
0.0232406806575738
40
0.0464813613151477
40
0.0929627226302937
40
0.0929627226302937
40
0.13944408394544
40
0.13944408394544
40
0.185925445260586
40
0.185925445260586
40
0.209166125918158
40
0.209166125918158
40
0.23240680657573
40
0.278888167890876
40
0.278888167890876
40
0.37185089052117
40
0.37185089052117
40
0.464813613151464
40
0.464813613151464
40
0.557776335781757
40
0.557776335781757
40
0.569396676110544
40
0.569396676110544
40
0.58101701643933
40
0.58101701643933
40
0.604257697096903
40
0.650739058412048
40
0.650739058412048
40
0.743701781042338
40
0.743701781042338
40
0.766942461699912
40
0.766942461699912
40
0.790183142357486
40
0.790183142357486
40
0.836664503672632
40
0.836664503672632
40
0.929627226302923
40
0.929627226302923
40
0.976108587618069
40
0.976108587618069
40
0.999349268275642
40
0.999349268275642
40
1
40
1
40
1
40
1
41
1
10
18.9999999999999
20
0.132634890838887
30
0
41
1
10
19.1501059360214
20
0.0465612763543106
30
0
41
1
10
19.300252216739
20
-0.0395903433851856
30
0
41
1
10
19.6003054766298
20
-0.211751799490969
30
0
41
1
10
20.0500814065848
20
-0.469811016804272
30
0
41
1
10
20.4991733911062
20
-0.726924224409117
30
0
41
1
10
21.0978047923506
20
-1.06811896270213
30
0
41
1
10
21.3970412699056
20
-1.23790518289161
30
0
41
1
10
21.995861221376
20
-1.57498292896315
30
0
41
1
10
22.2954621302082
20
-1.74224486019554
30
0
41
1
10
22.7454617045153
20
-1.99068807031122
30
0
41
1
10
22.8956491724147
20
-2.07314845606513
30
0
41
1
10
23.1955409641048
20
-2.23679964693977
30
0
41
1
10
23.6448193931978
20
-2.48046441188876
30
0
41
1
10
24.0926150203656
20
-2.71841943336131
30
0
41
1
10
24.9867677141528
20
-3.18593284631135
30
0
41
1
10
25.5809348009266
20
-3.48643727348849
30
0
41
1
10
26.7685694544481
20
-4.06037652382344
30
0
41
1
10
27.3620708199037
20
-4.33375331610165
30
0
41
1
10
28.5519244206683
20
-4.84827604143547
30
0
41
1
10
29.1481919624864
20
-5.08954844250087
30
0
41
1
10
29.8222110604548
20
-5.34047772542019
30
0
41
1
10
29.8971471064061
20
-5.36807351862873
30
0
41
1
10
30.0471158101221
20
-5.42268508089373
30
0
41
1
10
30.1221712246917
20
-5.44970880809694
30
0
41
1
10
30.3472044519647
20
-5.52979374207476
30
0
41
1
10
30.7969364874008
20
-5.68608982939085
30
0
41
1
10
31.2458859705286
20
-5.83057551952018
30
0
41
1
10
32.1433328037614
20
-6.10328423233648
30
0
41
1
10
32.7410169669808
20
-6.26340914224903
30
0
41
1
10
33.4894837403459
20
-6.43462911809041
30
0
41
1
10
33.63924599877
20
-6.46742607909533
30
0
41
1
10
33.9389647280187
20
-6.53007991603795
30
0
41
1
10
34.0889715103469
20
-6.55994620027286
30
0
41
1
10
34.5390284882279
20
-6.64500289255156
30
0
41
1
10
34.8386547375009
20
-6.69556282753231
30
0
41
1
10
35.736911376512
20
-6.82866277382462
30
0
41
1
10
36.3348577012714
20
-6.89266690781037
30
0
41
1
10
37.2325713264429
20
-6.95091975604413
30
0
41
1
10
37.53194564227
20
-6.96404039700337
30
0
41
1
10
37.9815146996558
20
-6.97417004002264
30
0
41
1
10
38.1314938203386
20
-6.97595464380413
30
0
41
1
10
38.2857024116576
20
-6.97614360541047
30
0
41
1
10
38.2899025066739
20
-6.97614749769306
30
0
41
1
10
38.2941025093479
20
-6.97615013563669
30
0
0
SPLINE
5
DF
100
AcDbEntity
8
1
62
256
6
ByLayer
370
18
48
1
60
0
100
AcDbSpline
70
4
71
3
72
26
73
22
40
0
40
0
40
0
40
0
40
0.0603270413988837
40
0.0603270413988837
40
0.248261633119113
40
0.248261633119113
40
0.29524528104917
40
0.29524528104917
40
0.342228928979227
40
0.342228928979227
40
0.436196224839339
40
0.436196224839339
40
0.624130816559561
40
0.624130816559561
40
0.671114464489617
40
0.671114464489617
40
0.718098112419673
40
0.718098112419673
40
0.812065408279781
40
0.812065408279781
40
1
40
1
40
1
40
1
41
1
10
66.9001360348389
20
4.95035390172705
30
0
41
1
10
67.0920939077994
20
5.02857554900831
30
0
41
1
10
67.2839815621798
20
5.10492046541157
30
0
41
1
10
68.0735818530159
20
5.41111738909484
30
0
41
1
10
68.6711386490423
20
5.62409450431775
30
0
41
1
10
69.4199818005667
20
5.86434619858699
30
0
41
1
10
69.5699054950187
20
5.91111522770717
30
0
41
1
10
69.8697137970517
20
6.00190624920288
30
0
41
1
10
70.0195270039898
20
6.04590689621719
30
0
41
1
10
70.4687680389288
20
6.17367470458657
30
0
41
1
10
70.767992719067
20
6.25321244473366
30
0
41
1
10
71.6654049239465
20
6.47452468537756
30
0
41
1
10
72.2633183859977
20
6.59900368173916
30
0
41
1
10
73.0122973517374
20
6.72429202878394
30
0
41
1
10
73.1622409265874
20
6.74784304954989
30
0
41
1
10
73.4619255572591
20
6.79181559912746
30
0
41
1
10
73.6116725421012
20
6.81223987130016
30
0
41
1
10
74.0607092621236
20
6.86880790863188
30
0
41
1
10
74.3597970869244
20
6.90024604346777
30
0
41
1
10
75.2568705973948
20
6.97561076951408
30
0
41
1
10
75.8546598565257
20
7.0005833007958
30
0
41
1
10
76.4538925402702
20
6.99997147698741
30
0
0
SPLINE
5
E0
100
AcDbEntity
8
1
62
256
6
ByLayer
370
13
48
1
60
0
100
AcDbSpline
70
4
71
3
72
33
73
29
40
0
40
0
40
0
40
0
40
0.0558780678645744
40
0.0558780678645744
40
0.121849832761955
40
0.121849832761955
40
0.187821597659336
40
0.187821597659336
40
0.253793362556716
40
0.253793362556716
40
0.319765127454097
40
0.319765127454097
40
0.451708657248858
40
0.451708657248858
40
0.468201598473204
40
0.468201598473204
40
0.484694539697551
40
0.517680422146242
40
0.517680422146242
40
0.583652187043627
40
0.583652187043627
40
0.715595716838397
40
0.715595716838397
40
0.847539246633168
40
0.847539246633168
40
0.979482776427939
40
0.979482776427939
40
1
40
1
40
1
40
1
41
1
10
55.1317522584899
20
2.22346994978508
30
0
41
1
10
55.4518499896098
20
2.05845227315615
30
0
41
1
10
55.7712074091678
20
1.89142857906435
30
0
41
1
10
56.4665593909016
20
1.52388205568911
30
0
41
1
10
56.8424416889752
20
1.32291001103712
30
0
41
1
10
57.5934738272464
20
0.917846178684812
30
0
41
1
10
57.9686485244106
20
0.713805009975516
30
0
41
1
10
58.7191466657024
20
0.304269367308962
30
0
41
1
10
59.0944706489091
20
0.0987745813160643
30
0
41
1
10
59.8458409587993
20
-0.312604008366634
30
0
41
1
10
60.2219053931496
20
-0.518452031188986
30
0
41
1
10
61.3525219193965
20
-1.13406787045886
30
0
41
1
10
62.1095248525356
20
-1.54185490699024
30
0
41
1
10
62.968073044333
20
-1.99154093998177
30
0
41
1
10
63.0635739312013
20
-2.04138539912634
30
0
41
1
10
63.2547383315795
20
-2.14077575955463
30
0
41
1
10
63.5411717147649
20
-2.28912388999473
30
0
41
1
10
63.8267233596711
20
-2.43517250365838
30
0
41
1
10
64.396800699669
20
-2.7239748988456
30
0
41
1
10
64.7754849679553
20
-2.91211072525812
30
0
41
1
10
65.9085869464143
20
-3.46158261238904
30
0
41
1
10
66.6600123402422
20
-3.80817767817629
30
0
41
1
10
68.1610493426427
20
-4.45305688194483
30
0
41
1
10
68.9107163681177
20
-4.75135361379378
30
0
41
1
10
70.4139950436974
20
-5.29160980804326
30
0
41
1
10
71.1675411765266
20
-5.53364847617641
30
0
41
1
10
72.0440280231071
20
-5.77596691210135
30
0
41
1
10
72.1621050500714
20
-5.80779771458
30
0
41
1
10
72.2803170555405
20
-5.83883357980832
30
0
0
SPLINE
5
E1
100
AcDbEntity
8
1
62
256
6
ByLayer
370
18
48
1
60
0
100
AcDbSpline
70
4
71
3
72
21
73
17
40
0
40
0
40
0
40
0
40
0.186771466621258
40
0.186771466621258
40
0.322309555517717
40
0.322309555517717
40
0.457847644414174
40
0.457847644414174
40
0.728923822207092
40
0.728923822207092
40
0.864461911103549
40
0.932230955551779
40
0.966115477775889
40
0.983057738887945
40
0.983057738887945
40
1
40
1
40
1
40
1
41
1
10
72.2803170581116
20
-5.83883358048334
30
0
41
1
10
72.5422078763976
20
-5.90759147106695
30
0
41
1
10
72.8047611887422
20
-5.97244769444649
30
0
41
1
10
73.2591798502261
20
-6.07733561026998
30
0
41
1
10
73.4501709204917
20
-6.11917757164696
30
0
41
1
10
73.8317801085242
20
-6.1982147381843
30
0
41
1
10
74.0224440822138
20
-6.23542055798515
30
0
41
1
10
74.5941692042367
20
-6.34002055609272
30
0
41
1
10
74.9749611688825
20
-6.40039631925447
30
0
41
1
10
75.5461284858427
20
-6.47661238256754
30
0
41
1
10
75.8317070573988
20
-6.5111353332388
30
0
41
1
10
76.1649882755966
20
-6.54508642390584
30
0
41
1
10
76.3316694430712
20
-6.56047383588691
30
0
41
1
10
76.4031144130571
20
-6.56672740290321
30
0
41
1
10
76.4507468210255
20
-6.57082058029897
30
0
41
1
10
76.4745860189084
20
-6.5728199715586
30
0
41
1
10
76.4984272410975
20
-6.57483154909127
30
0
0
SPLINE
5
E2
100
AcDbEntity
8
1
62
256
6
ByLayer
370
18
48
1
60
0
100
AcDbSpline
70
4
71
3
72
22
73
18
40
0
40
0
40
0
40
0
40
0.125
40
0.125
40
0.25
40
0.25
40
0.375
40
0.375
40
0.5
40
0.5
40
0.625
40
0.625
40
0.75
40
0.75
40
0.875
40
0.875
40
1
40
1
40
1
40
1
41
1
10
76.4984272410955
20
-6.5748315490911
30
0
41
1
10
76.4988535024455
20
-6.57586766726632
30
0
41
1
10
76.4991137728532
20
-6.57739069447973
30
0
41
1
10
76.4992771552195
20
-6.58147510345046
30
0
41
1
10
76.4991795674362
20
-6.58404876776495
30
0
41
1
10
76.4985659272764
20
-6.59036160199929
30
0
41
1
10
76.4980581763182
20
-6.59402690851385
30
0
41
1
10
76.4965981334087
20
-6.60248078501061
30
0
41
1
10
76.4956287877659
20
-6.60733721755179
30
0
41
1
10
76.4932885170756
20
-6.61781421362269
30
0
41
1
10
76.4919146371805
20
-6.62346866475204
30
0
41
1
10
76.4887210828311
20
-6.63569494566073
30
0
41
1
10
76.4869505791361
20
-6.64207241466136
30
0
41
1
10
76.4831591154739
20
-6.65505093096203
30
0
41
1
10
76.4811059388774
20
-6.66175483914452
30
0
41
1
10
76.4769464174184
20
-6.67479370264934
30
0
41
1
10
76.4748059477295
20
-6.68124319162715
30
0
41
1
10
76.4726514507326
20
-6.68750859356362
30
0
0
SPLINE
5
E3
100
AcDbEntity
8
1
62
256
6
ByLayer
370
18
48
1
60
0
100
AcDbSpline
70
4
71
3
72
8
73
4
40
0
40
0
40
0
40
0
40
1
40
1
40
1
40
1
41
1
10
76.4726514507327
20
-6.68750859356371
30
0
41
1
10
76.4449644780597
20
-6.76802391219834
30
0
41
1
10
76.4176206968404
20
-6.84852602349741
30
0
41
1
10
76.3906340935796
20
-6.92902901511451
30
0
0
SPLINE
5
E4
100
AcDbEntity
8
1
62
256
6
ByLayer
370
13
48
1
60
0
100
AcDbSpline
70
4
71
3
72
22
73
18
40
0
40
0
40
0
40
0
40
0.0171444251632568
40
0.0171444251632568
40
0.0342888503265146
40
0.0685777006530293
40
0.137155401306057
40
0.137155401306057
40
0.274310802612105
40
0.274310802612105
40
0.411466203918153
40
0.411466203918153
40
0.548621605224201
40
0.548621605224201
40
0.822932407836299
40
0.822932407836299
40
1
40
1
40
1
40
1
41
1
10
76.4726514507332
20
-6.68750859356393
30
0
41
1
10
76.42502256142
20
-6.68375399163992
30
0
41
1
10
76.3773912345459
20
-6.68003166581525
30
0
41
1
10
76.2821411847201
20
-6.67219399778969
30
0
41
1
10
76.1392799646204
20
-6.65997451763309
30
0
41
1
10
75.8060197205822
20
-6.62822838414902
30
0
41
1
10
75.5204600849178
20
-6.59549662245209
30
0
41
1
10
74.9493272853562
20
-6.52273173953935
30
0
41
1
10
74.5685535234325
20
-6.46448198361063
30
0
41
1
10
73.8062715314903
20
-6.3288937386844
30
0
41
1
10
73.4247697318768
20
-6.25155623497716
30
0
41
1
10
72.660173847519
20
-6.07820307822374
30
0
41
1
10
72.2795505723895
20
-5.98274591751448
30
0
41
1
10
71.1416975458518
20
-5.67158527241062
30
0
41
1
10
70.3882536903832
20
-5.43105882179603
30
0
41
1
10
69.1517237839929
20
-4.98779292954535
30
0
41
1
10
68.6675035227818
20
-4.80185364020915
30
0
41
1
10
68.1833604266448
20
-4.60493480174128
30
0
0
SPLINE
5
E5
100
AcDbEntity
8
1
62
256
6
ByLayer
370
18
48
1
60
0
100
AcDbSpline
70
4
71
3
72
25
73
21
40
0
40
0
40
0
40
0
40
0.0881401875005093
40
0.0881401875005093
40
0.336772699262179
40
0.336772699262179
40
0.461088955143013
40
0.461088955143013
40
0.523247083083431
40
0.55432614705364
40
0.55432614705364
40
0.585405211023848
40
0.585405211023848
40
0.709721466904686
40
0.709721466904686
40
0.834037722785524
40
0.834037722785524
40
0.958353978666362
40
0.958353978666362
40
1
40
1
40
1
40
1
41
1
10
68.1833598298371
20
-4.6049345589976
30
0
41
1
10
67.9174749596684
20
-4.49678937914581
30
0
41
1
10
67.6516133628421
20
-4.38533270315654
30
0
41
1
10
66.635390273086
20
-3.94749783926724
30
0
41
1
10
65.8842450183429
20
-3.59931310345081
30
0
41
1
10
64.7514928466412
20
-3.04620689969889
30
0
41
1
10
64.3729037456575
20
-2.85666447220942
30
0
41
1
10
63.8029280501983
20
-2.56544684798953
30
0
41
1
10
63.5174170849114
20
-2.41811449610628
30
0
41
1
10
63.2310076954981
20
-2.26836633708092
30
0
41
1
10
63.0398554108005
20
-2.1680165013459
30
0
41
1
10
62.9442970944525
20
-2.11764773489591
30
0
41
1
10
62.4671992177801
20
-1.86522992897793
30
0
41
1
10
62.0870964693923
20
-1.6611398876245
30
0
41
1
10
61.3293508826391
20
-1.24991871796874
30
0
41
1
10
60.9516949057174
20
-1.04281542646129
30
0
41
1
10
60.1980551044843
20
-0.627036981805162
30
0
41
1
10
59.8220646464666
20
-0.418374313050549
30
0
41
1
10
59.3206501619641
20
-0.139834546499003
30
0
41
1
10
59.1948697802881
20
-0.0699444694673446
30
0
41
1
10
59.0691208662652
20
-8.11994695766E-05
30
0
0
SPLINE
5
E6
100
AcDbEntity
8
1
62
256
6
ByLayer
370
13
48
1
60
0
100
AcDbSpline
70
4
71
3
72
8
73
4
40
0
40
0
40
0
40
0
40
1
40
1
40
1
40
1
41
1
10
3.98660096847206
20
-6.60711744476964
30
0
41
1
10
3.89166378842233
20
-6.61594300369751
30
0
41
1
10
3.79672867613107
20
-6.62415568089256
30
0
41
1
10
3.70179037787201
20
-6.6317525837548
30
0
0
SPLINE
5
E7
100
AcDbEntity
8
1
62
256
6
ByLayer
370
13
48
1
60
0
100
AcDbSpline
70
4
71
3
72
10
73
6
40
0
40
0
40
0
40
0
40
0.5
40
0.5
40
1
40
1
40
1
40
1
41
1
10
3.70179037787199
20
-6.6317525837548
30
0
41
1
10
3.68911567836392
20
-6.63276680523063
30
0
41
1
10
3.67666946928898
20
-6.63531659397168
30
0
41
1
10
3.65223714570993
20
-6.64343000070795
30
0
41
1
10
3.64017227288684
20
-6.64905908652091
30
0
41
1
10
3.62876452695809
20
-6.65619415450371
30
0
0
SPLINE
5
E8
100
AcDbEntity
8
1
62
256
6
ByLayer
370
13
48
1
60
0
100
AcDbSpline
70
4
71
3
72
10
73
6
40
0
40
0
40
0
40
0
40
0.0210958377257961
40
0.0210958377257961
40
1
40
1
40
1
40
1
41
1
10
3.62557007283854
20
-6.88569222959663
30
0
41
1
10
3.62559225847602
20
-6.88407837123069
30
0
41
1
10
3.62561444995538
20
-6.88246451369909
30
0
41
1
10
3.62666666327633
20
-6.80596332570545
30
0
41
1
10
3.62770926196964
20
-6.73107779072865
30
0
41
1
10
3.62876452695809
20
-6.65619415450371
30
0
0
SPLINE
5
E9
100
AcDbEntity
8
1
62
256
6
ByLayer
370
18
48
1
60
0
100
AcDbSpline
70
4
71
3
72
90
73
86
40
0
40
0
40
0
40
0
40
0.0312969450463452
40
0.0312969450463452
40
0.0391211813079315
40
0.0391211813079315
40
0.0469454175695178
40
0.0469454175695178
40
0.0625938900926912
40
0.0625938900926912
40
0.0938908351390382
40
0.0938908351390382
40
0.125187780185385
40
0.125187780185385
40
0.140836252708559
40
0.140836252708559
40
0.148660488970146
40
0.148660488970146
40
0.156484725231733
40
0.156484725231733
40
0.187781670278078
40
0.187781670278078
40
0.25037556037077
40
0.25037556037077
40
0.266024032893942
40
0.266024032893942
40
0.281672505417115
40
0.281672505417115
40
0.312969450463461
40
0.312969450463461
40
0.375563340556151
40
0.375563340556151
40
0.383387576817739
40
0.383387576817739
40
0.391211813079326
40
0.391211813079326
40
0.406860285602499
40
0.406860285602499
40
0.438157230648846
40
0.438157230648846
40
0.469454175695194
40
0.469454175695194
40
0.500751120741541
40
0.500751120741541
40
0.532048065787889
40
0.532048065787889
40
0.563345010834236
40
0.563345010834236
40
0.594641955880584
40
0.594641955880584
40
0.602466192142171
40
0.602466192142171
40
0.610290428403758
40
0.610290428403758
40
0.625938900926931
40
0.625938900926931
40
0.65723584597328
40
0.65723584597328
40
0.688532791019628
40
0.688532791019628
40
0.704181263542802
40
0.712005499804388
40
0.712005499804388
40
0.719829736065975
40
0.719829736065975
40
0.751126681112322
40
0.751126681112322
40
0.813720571205016
40
0.813720571205016
40
0.821544807466603
40
0.821544807466603
40
0.82936904372819
40
0.82936904372819
40
0.845017516251363
40
0.845017516251363
40
0.876314461297709
40
0.876314461297709
40
0.907611406344055
40
0.907611406344055
40
0.923259878867228
40
0.931084115128815
40
0.931084115128815
40
0.938908351390402
40
0.938908351390402
40
1
40
1
40
1
40
1
41
1
10
76.3906340935796
20
-6.92902901511451
30
0
41
1
10
76.0101818776351
20
-6.8975711767778
30
0
41
1
10
75.6298349015999
20
-6.8559020941882
30
0
41
1
10
75.1540716320741
20
-6.79123992994246
30
0
41
1
10
75.0589023673451
20
-6.77767859883403
30
0
41
1
10
74.8685193892554
20
-6.74930207648629
30
0
41
1
10
74.7732837677289
20
-6.73448316660557
30
0
41
1
10
74.487738266753
20
-6.68819206254369
30
0
41
1
10
74.2975459774625
20
-6.65488023506299
30
0
41
1
10
73.7273404669868
20
-6.54770079807724
30
0
41
1
10
73.3477022780526
20
-6.46658533116153
30
0
41
1
10
72.5885357765483
20
-6.28568394784833
30
0
41
1
10
72.2090183076672
20
-6.18589376061001
30
0
41
1
10
71.6392825350256
20
-6.02259848764808
30
0
41
1
10
71.449281902129
20
-5.96590827471857
30
0
41
1
10
71.1640662519328
20
-5.87754742670393
30
0
41
1
10
71.0689587505656
20
-5.84753941137541
30
0
41
1
10
70.8786591583421
20
-5.7864247481921
30
0
41
1
10
70.7834391208681
20
-5.75530875819319
30
0
41
1
10
70.3074458855961
20
-5.59712605591014
30
0
41
1
10
69.927351023407
20
-5.46237903036661
30
0
41
1
10
68.7879114140352
20
-5.03508005112141
30
0
41
1
10
68.0294370290073
20
-4.71945005463621
30
0
41
1
10
67.0787669114375
20
-4.29132705785793
30
0
41
1
10
66.8884869352647
20
-4.20402066626329
30
0
41
1
10
66.5076090074331
20
-4.026217082248
30
0
41
1
10
66.3173548982513
20
-3.93588080300961
30
0
41
1
10
65.746979421776
20
-3.66082917896122
30
0
41
1
10
65.3672415445974
20
-3.47207596889135
30
0
41
1
10
64.2282901688867
20
-2.89165782342099
30
0
41
1
10
63.4693552449945
20
-2.48581085188084
30
0
41
1
10
62.6122361695876
20
-2.01381198613836
30
0
41
1
10
62.5170181880666
20
-1.9611893759434
30
0
41
1
10
62.3268212267968
20
-1.8557275431084
30
0
41
1
10
62.2318096615513
20
-1.80286997539926
30
0
41
1
10
61.9470200042139
20
-1.6439450074536
30
0
41
1
10
61.7574890773994
20
-1.53752154186981
30
0
41
1
10
61.1897162520672
20
-1.21712560184139
30
0
41
1
10
60.8123048885003
20
-1.00200872350422
30
0
41
1
10
60.0588215730279
20
-0.570272190882434
30
0
41
1
10
59.6827441502649
20
-0.353662298482021
30
0
41
1
10
58.9310381513914
20
0.0794862487339572
30
0
41
1
10
58.5554061479991
20
0.296019055344118
30
0
41
1
10
57.8039030178902
20
0.727798672903361
30
0
41
1
10
57.4280258613739
20
0.943034634980449
30
0
41
1
10
56.6751606778237
20
1.37068022524147
30
0
41
1
10
56.2981898673978
20
1.58312031528607
30
0
41
1
10
55.5424608025621
20
2.00397647513253
30
0
41
1
10
55.1636386717566
20
2.21228056037938
30
0
41
1
10
54.6883737818956
20
2.46905228297067
30
0
41
1
10
54.5932337793333
20
2.52022592565305
30
0
41
1
10
54.4027671714772
20
2.62218963452295
30
0
41
1
10
54.3075093361989
20
2.67294292906817
30
0
41
1
10
54.0219511414436
20
2.82432813997338
30
0
41
1
10
53.8317416793027
20
2.92415286071113
30
0
41
1
10
53.2614594082754
20
3.22012068813692
30
0
41
1
10
52.881738790384
20
3.41276559826286
30
0
41
1
10
52.1223185877043
20
3.78735585859459
30
0
41
1
10
51.7426127766987
20
3.96929411800781
30
0
41
1
10
51.1724922533219
20
4.23332124129325
30
0
41
1
10
50.8872920420178
20
4.36311497563614
30
0
41
1
10
50.6017563728654
20
4.4893925394301
30
0
41
1
10
50.4113102997624
20
4.57277500600861
30
0
41
1
10
50.3160251271142
20
4.61407232187429
30
0
41
1
10
49.839944538477
20
4.81824390882858
30
0
41
1
10
49.4597434641997
20
4.97436561771289
30
0
41
1
10
48.3199609239199
20
5.41980624075293
30
0
41
1
10
47.561151303655
20
5.68613639915824
30
0
41
1
10
46.7049117025323
20
5.94715914277737
30
0
41
1
10
46.6097387104006
20
5.97562610551805
30
0
41
1
10
46.4193085191354
20
6.03147384545599
30
0
41
1
10
46.3240203922321
20
6.05886318989005
30
0
41
1
10
46.0382946671026
20
6.13929955205344
30
0
41
1
10
45.8479862671993
20
6.19061944693735
30
0
41
1
10
45.2774212616823
20
6.33756513999435
30
0
41
1
10
44.8975275666236
20
6.42618023141216
30
0
41
1
10
44.1379059854722
20
6.58423549522036
30
0
41
1
10
43.7581744406235
20
6.65367176150571
30
0
41
1
10
43.1880511331914
20
6.74305510587663
30
0
41
1
10
42.902857759546
20
6.78405419106892
30
0
41
1
10
42.6173493096514
20
6.81944540512799
30
0
41
1
10
42.426928460662
20
6.84178608491868
30
0
41
1
10
42.3316462072103
20
6.85233284572141
30
0
41
1
10
41.4926012344381
20
6.93961143403862
30
0
41
1
10
40.754430795055
20
6.97768100984769
30
0
41
1
10
40.0186823105011
20
6.97722797481248
30
0
0
SPLINE
5
EA
100
AcDbEntity
8
1
62
256
6
ByLayer
370
18
48
1
60
0
100
AcDbSpline
70
4
71
3
72
8
73
4
40
0
40
0
40
0
40
0
40
1
40
1
40
1
40
1
41
1
10
5.71075685405188
20
-6.61844518104365
30
0
41
1
10
5.01739953156135
20
-6.74037140128726
30
0
41
1
10
4.32309402649042
20
-6.8299641991089
30
0
41
1
10
3.62557007283854
20
-6.88569222959666
30
0
0
SPLINE
5
EB
100
AcDbEntity
8
1
62
256
6
ByLayer
370
18
48
1
60
0
100
AcDbSpline
70
4
71
3
72
84
73
80
40
0
40
0
40
0
40
0
40
0.0097889556574154
40
0.0097889556574154
40
0.023934827719449
40
0.0310077637504661
40
0.0310077637504661
40
0.0380806997814833
40
0.0380806997814833
40
0.0946641880296219
40
0.0946641880296219
40
0.2078311645259
40
0.2078311645259
40
0.236122908649969
40
0.236122908649969
40
0.243195844680987
40
0.243195844680987
40
0.250268780712004
40
0.26441465277404
40
0.26441465277404
40
0.32099814102218
40
0.32099814102218
40
0.34928988514625
40
0.34928988514625
40
0.377581629270321
40
0.377581629270321
40
0.405873373394391
40
0.405873373394391
40
0.434165117518462
40
0.434165117518462
40
0.448310989580498
40
0.448310989580498
40
0.455383925611516
40
0.455383925611516
40
0.462456861642534
40
0.490748605766608
40
0.490748605766608
40
0.519040349890681
40
0.519040349890681
40
0.547332094014755
40
0.547332094014755
40
0.554405030045774
40
0.554405030045774
40
0.561477966076793
40
0.561477966076793
40
0.575623838138831
40
0.603915582262909
40
0.603915582262909
40
0.632207326386986
40
0.632207326386986
40
0.660499070511064
40
0.660499070511064
40
0.688790814635141
40
0.688790814635141
40
0.717082558759219
40
0.717082558759219
40
0.745374302883297
40
0.745374302883297
40
0.752447238914316
40
0.752447238914316
40
0.759520174945335
40
0.759520174945335
40
0.773666047007374
40
0.773666047007374
40
0.830249535255528
40
0.830249535255528
40
0.844395407317566
40
0.844395407317566
40
0.851468343348586
40
0.851468343348586
40
0.858541279379605
40
0.858541279379605
40
0.886833023503684
40
0.886833023503684
40
0.915124767627763
40
0.915124767627763
40
0.943416511751842
40
0.943416511751842
40
1
40
1
40
1
40
1
41
1
10
43.7725099240499
20
-6.64788123854441
30
0
41
1
10
43.641067469311
20
-6.67084619951024
30
0
41
1
10
43.5096008423548
20
-6.69264287397544
30
0
41
1
10
43.1880511331914
20
-6.74305510587663
30
0
41
1
10
42.902857759546
20
-6.78405419106889
30
0
41
1
10
42.6173493096514
20
-6.81944540512799
30
0
41
1
10
42.426928460662
20
-6.84178608491868
30
0
41
1
10
42.3316462072103
20
-6.85233284572141
30
0
41
1
10
41.4743115735473
20
-6.94151394920186
30
0
41
1
10
40.7181310202332
20
-6.97952950550993
30
0
41
1
10
38.4569696654686
20
-6.97231504711093
30
0
41
1
10
36.9597231254517
20
-6.80580805381311
30
0
41
1
10
35.0687220556938
20
-6.40443127689966
30
0
41
1
10
34.6895451487076
20
-6.3144998536535
30
0
41
1
10
34.2138385059564
20
-6.19016250495991
30
0
41
1
10
34.1185736644724
20
-6.16468900930141
30
0
41
1
10
33.9280187402507
20
-6.11259830844961
30
0
41
1
10
33.6424644765872
20
-6.03283407934546
30
0
41
1
10
33.3576821859384
20
-5.94826481681835
30
0
41
1
10
32.409831072567
20
-5.65606160874199
30
0
41
1
10
31.6562102513079
20
-5.38921461492774
30
0
41
1
10
30.5277928518125
20
-4.94580419513599
30
0
41
1
10
30.15197959725
20
-4.79082536270255
30
0
41
1
10
29.4002764029452
20
-4.46747910581334
30
0
41
1
10
29.0243959998158
20
-4.29909617310119
30
0
41
1
10
28.2716930620215
20
-3.95008061572506
30
0
41
1
10
27.8948659304324
20
-3.76945797980798
30
0
41
1
10
27.1395459185038
20
-3.39691221994156
30
0
41
1
10
26.7610571172948
20
-3.20497817123874
30
0
41
1
10
26.1913518462462
20
-2.9095886088304
30
0
41
1
10
26.0011233951847
20
-2.80987520351656
30
0
41
1
10
25.7152456478169
20
-2.65847645794651
30
0
41
1
10
25.6199332293716
20
-2.60774309045342
30
0
41
1
10
25.42945508948
20
-2.50587739674526
30
0
41
1
10
24.9534709157502
20
-2.25013408302277
30
0
41
1
10
24.4783423279779
20
-1.9893329600159
30
0
41
1
10
23.7183119250849
20
-1.56714694908254
30
0
41
1
10
23.3384347897714
20
-1.35351741453391
30
0
41
1
10
22.5781772026074
20
-0.922509575511555
30
0
41
1
10
22.197767200746
20
-0.705181539560868
30
0
41
1
10
21.7213301525077
20
-0.432223225892216
30
0
41
1
10
21.6259677012158
20
-0.37754839454206
30
0
41
1
10
21.4355009528709
20
-0.268284862031408
30
0
41
1
10
21.3403576371503
20
-0.213673361927221
30
0
41
1
10
21.0551828865251
20
-0.0499247785965906
30
0
41
1
10
20.4858473056538
20
0.27721579965953
30
0
41
1
10
19.9190141308847
20
0.602349986849333
30
0
41
1
10
19.1645746519855
20
1.03256002239425
30
0
41
1
10
18.7880305596113
20
1.24602679751953
30
0
41
1
10
18.0355607026406
20
1.66843727393245
30
0
41
1
10
17.6596293296001
20
1.87737027882929
30
0
41
1
10
16.9075269972727
20
2.2892481300924
30
0
41
1
10
16.5313615666455
20
2.49220314993085
30
0
41
1
10
15.7780580408095
20
2.89087494203434
30
0
41
1
10
15.4009142029424
20
3.08658141191827
30
0
41
1
10
14.6447789005794
20
3.4692707545274
30
0
41
1
10
14.2657928478714
20
3.65626311068689
30
0
41
1
10
13.790421944188
20
3.88372609531294
30
0
41
1
10
13.6952655003984
20
3.9289042516121
30
0
41
1
10
13.5047738855578
20
4.01860769434447
30
0
41
1
10
13.409400554248
20
4.06315039685248
30
0
41
1
10
13.1235029339447
20
4.19552773243271
30
0
41
1
10
12.9330765540277
20
4.28217090648974
30
0
41
1
10
11.9815325775583
20
4.70700916914643
30
0
41
1
10
11.22222227348
20
5.02013110853113
30
0
41
1
10
10.2713411396141
20
5.37299262315668
30
0
41
1
10
10.0810778228292
20
5.44163813319608
30
0
41
1
10
9.79548225456472
20
5.54162856510209
30
0
41
1
10
9.70024989956266
20
5.57446193726301
30
0
41
1
10
9.50970290130738
20
5.63911732843616
30
0
41
1
10
9.41436278109552
20
5.67094766810146
30
0
41
1
10
8.9377096877239
20
5.82743254740902
30
0
41
1
10
8.55742432259689
20
5.94379671159973
30
0
41
1
10
7.79805460353248
20
6.15831910189186
30
0
41
1
10
7.41898792125954
20
6.25649578540353
30
0
41
1
10
6.66134882445684
20
6.4342068452352
30
0
41
1
10
6.28276367968311
20
6.51372796005515
30
0
41
1
10
5.14636875215399
20
6.72343345618495
30
0
41
1
10
4.38789150634136
20
6.82478726444774
30
0
41
1
10
3.62557007283857
20
6.88569222959666
30
0
0
SPLINE
5
EC
100
AcDbEntity
8
1
62
256
6
ByLayer
370
13
48
1
60
0
100
AcDbSpline
70
4
71
3
72
46
73
42
40
0
40
0
40
0
40
0
40
0.0140386376506176
40
0.0140386376506176
40
0.0818582382971953
40
0.0818582382971953
40
0.149677838943773
40
0.149677838943773
40
0.217497439590351
40
0.217497439590351
40
0.25140723991364
40
0.25140723991364
40
0.268362140075285
40
0.268362140075285
40
0.285317040236931
40
0.285317040236931
40
0.353136640883507
40
0.353136640883507
40
0.420956241530083
40
0.420956241530083
40
0.488775842176659
40
0.488775842176659
40
0.556595442823234
40
0.556595442823234
40
0.62441504346981
40
0.62441504346981
40
0.692234644116386
40
0.692234644116386
40
0.760054244762962
40
0.760054244762962
40
0.777009144924607
40
0.777009144924607
40
0.793964045086253
40
0.793964045086253
40
0.827873845409542
40
0.827873845409542
40
0.895693446056121
40
0.895693446056121
40
0.963513046702701
40
0.963513046702701
40
1
40
1
40
1
40
1
41
1
10
17.1448555634357
20
2.15759641162566
30
0
41
1
10
17.2229874987479
20
2.11734251841719
30
0
41
1
10
17.3011166497629
20
2.07695364848976
30
0
41
1
10
17.7566825437232
20
1.84069157760104
30
0
41
1
10
18.1341210069483
20
1.64191431175132
30
0
41
1
10
18.8898233962148
20
1.23977891989981
30
0
41
1
10
19.2680894927096
20
1.03642445508677
30
0
41
1
10
20.02610998322
20
0.626278943839509
30
0
41
1
10
20.4058639133145
20
0.419487801685477
30
0
41
1
10
20.9772559480094
20
0.107909696861981
30
0
41
1
10
21.1680141467375
20
0.0038198362359765
30
0
41
1
10
21.4546687449216
20
-0.152512359810316
30
0
41
1
10
21.5503649454428
20
-0.204688053459904
30
0
41
1
10
21.7416119828856
20
-0.308916143502501
30
0
41
1
10
21.837148167733
20
-0.360960871647507
30
0
41
1
10
22.3144084846165
20
-0.620803993464762
30
0
41
1
10
22.6948766206273
20
-0.82745652931564
30
0
41
1
10
23.4540456716114
20
-1.23671616884181
30
0
41
1
10
23.8327886054522
20
-1.43927864915597
30
0
41
1
10
24.5891722807261
20
-1.83918797756192
30
0
41
1
10
24.9667892448783
20
-2.03656543855286
30
0
41
1
10
25.7217529218321
20
-2.42465618566442
30
0
41
1
10
26.0991364792365
20
-2.61534155919881
30
0
41
1
10
26.8542909136892
20
-2.98889042897014
30
0
41
1
10
27.2320422383054
20
-3.17177623234528
30
0
41
1
10
27.9888226241167
20
-3.52823957454595
30
0
41
1
10
28.367824051423
20
-3.70186978835324
30
0
41
1
10
29.1277041281521
20
-4.0387230505969
30
0
41
1
10
29.50860517565
20
-4.20191105998936
30
0
41
1
10
29.9864893527218
20
-4.39843996081495
30
0
41
1
10
30.082188042263
20
-4.43738657537773
30
0
41
1
10
30.2733113481081
20
-4.51433947922953
30
0
41
1
10
30.3687875253734
20
-4.55236743733442
30
0
41
1
10
30.6549714304896
20
-4.66509747633822
30
0
41
1
10
30.8454357215747
20
-4.73844305561056
30
0
41
1
10
31.4160174772097
20
-4.95284888537157
30
0
41
1
10
31.7953261697486
20
-5.08828906686401
30
0
41
1
10
32.5525759410205
20
-5.34341812599862
30
0
41
1
10
32.9305362218955
20
-5.46315811251978
30
0
41
1
10
33.5113287159999
20
-5.63473345757751
30
0
41
1
10
33.7143989381186
20
-5.69237650085373
30
0
41
1
10
33.9174374704547
20
-5.74759356731784
30
0
0
SPLINE
5
ED
100
AcDbEntity
8
1
62
256
6
ByLayer
370
18
48
1
60
0
100
AcDbSpline
70
4
71
3
72
21
73
17
40
0
40
0
40
0
40
0
40
0.0836198854276594
40
0.0836198854276594
40
0.264615355344837
40
0.264615355344837
40
0.626606295179192
40
0.626606295179192
40
0.71710403013778
40
0.71710403013778
40
0.762352897617071
40
0.762352897617071
40
0.807601765096362
40
0.807601765096362
40
0.988597235013537
40
1
40
1
40
1
40
1
41
1
10
33.9174374699857
20
-5.74759356719025
30
0
41
1
10
34.0917938950308
20
-5.79501043038385
30
0
41
1
10
34.2661269511773
20
-5.84063831299767
30
0
41
1
10
34.8178550804483
20
-5.9792642211161
30
0
41
1
10
35.1952963481039
20
-6.06558658261019
30
0
41
1
10
36.328870812211
20
-6.29801238843569
30
0
41
1
10
37.0863333770736
20
-6.41752068655799
30
0
41
1
10
38.0390718822091
20
-6.51947799174607
30
0
41
1
10
38.2299170322119
20
-6.53749037795629
30
0
41
1
10
38.5167127983177
20
-6.56088507918895
30
0
41
1
10
38.6123632294841
20
-6.5680754510644
30
0
41
1
10
38.8035681192034
20
-6.58122233949967
30
0
41
1
10
38.8991532750127
20
-6.58718210344429
30
0
41
1
10
39.3770171737227
20
-6.61391802406919
30
0
41
1
10
39.7831859997526
20
-6.62624649461151
30
0
41
1
10
40.1895774202871
20
-6.62739587449585
30
0
41
1
10
40.2136636812086
20
-6.62742469220976
30
0
0
SPLINE
5
EE
100
AcDbEntity
8
1
62
256
6
ByLayer
370
13
48
1
60
0
100
AcDbSpline
70
4
71
3
72
33
73
29
40
0
40
0
40
0
40
0
40
0.0506305032379957
40
0.0506305032379957
40
0.0987583315403204
40
0.0987583315403204
40
0.122822245691481
40
0.122822245691481
40
0.146886159842642
40
0.146886159842642
40
0.243141816447288
40
0.243141816447288
40
0.291269644749611
40
0.291269644749611
40
0.339397473051934
40
0.339397473051934
40
0.531908786261219
40
0.531908786261219
40
0.724420099470505
40
0.724420099470505
40
0.820675756075147
40
0.820675756075147
40
0.916931412679789
40
0.916931412679789
40
0.96505924098211
40
0.98912315513327
40
0.98912315513327
40
1
40
1
40
1
40
1
41
1
10
41.8691316008711
20
-6.64974250775688
30
0
41
1
10
41.6684744879707
20
-6.66652493052098
30
0
41
1
10
41.4677500805623
20
-6.68058760381587
30
0
41
1
10
41.0759789669488
20
-6.70268620883101
30
0
41
1
10
40.8849412321155
20
-6.71097830612914
30
0
41
1
10
40.5981271337472
20
-6.7196567619936
30
0
41
1
10
40.5024686890714
20
-6.72192256506884
30
0
41
1
10
40.3112308984611
20
-6.72519259395332
30
0
41
1
10
40.2156307432326
20
-6.72619804643455
30
0
41
1
10
39.7376952225447
20
-6.7280844155342
30
0
41
1
10
39.3555595259488
20
-6.71954651188744
30
0
41
1
10
38.7820839792548
20
-6.69180610632358
30
0
41
1
10
38.5908356076962
20
-6.68006455175802
30
0
41
1
10
38.2083319726128
20
-6.65159550728842
30
0
41
1
10
38.0174415712726
20
-6.63489985584829
30
0
41
1
10
37.0645203770702
20
-6.53930712455153
30
0
41
1
10
36.3070834271405
20
-6.42415685779829
30
0
41
1
10
34.7958037707874
20
-6.12153109674512
30
0
41
1
10
34.0419635854931
20
-5.93412355420651
30
0
41
1
10
32.9093206333989
20
-5.60263136494243
30
0
41
1
10
32.5314512180802
20
-5.48374293954063
30
0
41
1
10
31.7743737248293
20
-5.22990685118407
30
0
41
1
10
31.3951333514983
20
-5.09492387335251
30
0
41
1
10
30.8246314269269
20
-4.880887019482
30
0
41
1
10
30.5389698559573
20
-4.77097253308278
30
0
41
1
10
30.2525736549474
20
-4.65685773143454
30
0
41
1
10
30.1138317656026
20
-4.60095572952147
30
0
41
1
10
30.0706122559904
20
-4.58345417138361
30
0
41
1
10
30.0273852604125
20
-4.56586275895694
30
0
0
SPLINE
5
EF
100
AcDbEntity
8
1
62
256
6
ByLayer
370
18
48
1
60
0
100
AcDbSpline
70
4
71
3
72
32
73
28
40
0
40
0
40
0
40
0
40
0.0172023674595918
40
0.0172023674595918
40
0.142767410482435
40
0.142767410482435
40
0.268332453505278
40
0.268332453505278
40
0.393897496528122
40
0.393897496528122
40
0.456680018039542
40
0.456680018039542
40
0.519462539550962
40
0.519462539550962
40
0.645027582573806
40
0.645027582573806
40
0.707810104085226
40
0.707810104085226
40
0.770592625596645
40
0.770592625596645
40
0.896157668619486
40
0.896157668619486
40
0.927548929375195
40
0.927548929375195
40
0.958940190130905
40
0.958940190130905
40
1
40
1
40
1
40
1
41
1
10
30.0273843349079
20
-4.56586238231884
30
0
41
1
10
29.9749763031199
20
-4.54453470607709
30
0
41
1
10
29.9225572680027
20
-4.52307495378628
30
0
41
1
10
29.4877583379231
20
-4.34402237498608
30
0
41
1
10
29.1067909469862
20
-4.18039029542177
30
0
41
1
10
28.3468379570813
20
-3.84227573747498
30
0
41
1
10
27.9678409356761
20
-3.66780876227941
30
0
41
1
10
27.211116263899
20
-3.30929148880432
30
0
41
1
10
26.8334108187174
20
-3.12519623264618
30
0
41
1
10
26.267129805176
20
-2.84295525173005
30
0
41
1
10
26.0784129141991
20
-2.74785971800557
30
0
41
1
10
25.7010291175115
20
-2.55572882677535
30
0
41
1
10
25.5123655291818
20
-2.45869159795922
30
0
41
1
10
24.9462731914942
20
-2.16495665149526
30
0
41
1
10
24.5687400964557
20
-1.96563205053025
30
0
41
1
10
24.0015737528699
20
-1.66250819791523
30
0
41
1
10
23.8123708677681
20
-1.56078006088308
30
0
41
1
10
23.4336356788828
20
-1.35602911116828
30
0
41
1
10
23.2441069086463
20
-1.25300328391586
30
0
41
1
10
22.674844496031
20
-0.942285705510926
30
0
41
1
10
22.29443226293
20
-0.732951396485163
30
0
41
1
10
21.8172179436125
20
-0.469527862024165
30
0
41
1
10
21.7216895981056
20
-0.416755901184274
30
0
41
1
10
21.5304561342549
20
-0.311048497084101
30
0
41
1
10
21.4347309616083
20
-0.258101881743585
30
0
41
1
10
21.2141397319886
20
-0.136031494444353
30
0
41
1
10
21.0892788876387
20
-0.0668919320921759
30
0
41
1
10
20.9645555302778
20
0.0021761991719416
30
0
0
SPLINE
5
F0
100
AcDbEntity
8
1
62
256
6
ByLayer
370
18
48
1
60
0
100
AcDbSpline
70
4
71
3
72
104
73
100
40
0
40
0
40
0
40
0
40
0.031249999999996
40
0.031249999999996
40
0.0468749999999937
40
0.0468749999999937
40
0.0546874999999925
40
0.0546874999999925
40
0.0624999999999913
40
0.0624999999999913
40
0.0937499999999866
40
0.0937499999999866
40
0.124999999999982
40
0.124999999999982
40
0.132812499999981
40
0.132812499999981
40
0.14062499999998
40
0.14062499999998
40
0.156249999999979
40
0.156249999999979
40
0.187499999999975
40
0.187499999999975
40
0.191406249999975
40
0.191406249999975
40
0.195312499999974
40
0.195312499999974
40
0.203124999999973
40
0.218749999999972
40
0.218749999999972
40
0.249999999999968
40
0.249999999999968
40
0.253906249999968
40
0.253906249999968
40
0.257812499999968
40
0.265624999999967
40
0.281249999999965
40
0.281249999999965
40
0.312499999999962
40
0.312499999999962
40
0.320312499999961
40
0.320312499999961
40
0.32812499999996
40
0.343749999999958
40
0.343749999999958
40
0.374999999999954
40
0.374999999999954
40
0.40624999999995
40
0.40624999999995
40
0.421874999999948
40
0.421874999999948
40
0.429687499999947
40
0.429687499999947
40
0.437499999999946
40
0.437499999999946
40
0.468749999999942
40
0.468749999999942
40
0.499999999999939
40
0.499999999999939
40
0.531249999999935
40
0.531249999999935
40
0.546874999999933
40
0.546874999999933
40
0.548828124999932
40
0.549804687499932
40
0.549804687499932
40
0.550781249999932
40
0.550781249999932
40
0.551757812499931
40
0.551757812499931
40
0.552734374999931
40
0.552734374999931
40
0.553710937499931
40
0.553710937499931
40
0.55468749999993
40
0.55468749999993
40
0.55664062499993
40
0.55664062499993
40
0.55761718749993
40
0.55761718749993
40
0.55859374999993
40
0.55859374999993
40
0.56249999999993
40
0.624999999999939
40
0.624999999999939
40
0.687499999999948
40
0.687499999999948
40
0.703124999999951
40
0.703124999999951
40
0.718749999999954
40
0.718749999999954
40
0.749999999999959
40
0.749999999999959
40
0.812499999999969
40
0.812499999999969
40
0.874999999999979
40
0.874999999999979
40
0.93749999999999
40
0.93749999999999
40
1
40
1
40
1
40
1
41
1
10
3.49999999999932
20
-1.28384599519978
30
0
41
1
10
3.37309511174993
20
-1.15715905283076
30
0
41
1
10
3.25046777279556
20
-1.02608899502113
30
0
41
1
10
3.07410567767045
20
-0.821693893551469
30
0
41
1
10
3.01658543247513
20
-0.752259738301603
30
0
41
1
10
2.93239770091904
20
-0.645954514378815
30
0
41
1
10
2.90468427978942
20
-0.610160043501708
30
0
41
1
10
2.8499930183286
20
-0.537813451134866
30
0
41
1
10
2.82306469701194
20
-0.501325267265912
30
0
41
1
10
2.69091839759042
20
-0.317699465959521
30
0
41
1
10
2.59282698715688
20
-0.166600121271756
30
0
41
1
10
2.41445595261678
20
0.145404439021519
30
0
41
1
10
2.33415401665133
20
0.306297372281733
30
0
41
1
10
2.2472583492065
20
0.514834822887252
30
0
41
1
10
2.23055739297541
20
0.556915628420597
30
0
41
1
10
2.1985899611995
20
0.641866860174645
30
0
41
1
10
2.18331703854176
20
0.684770459932281
30
0
41
1
10
2.14016476273241
20
0.813511553488013
30
0
41
1
10
2.11479938136733
20
0.899760126378936
30
0
41
1
10
2.0493257347228
20
1.15981731317558
30
0
41
1
10
2.01980044036287
20
1.33493210549941
30
0
41
1
10
2.00417179181713
20
1.53410247243866
30
0
41
1
10
2.0026803631589
20
1.55626270937154
30
0
41
1
10
2.00019507031431
20
1.60064448687257
30
0
41
1
10
1.99920100054189
20
1.62288870927679
30
0
41
1
10
1.9969852925376
20
1.68936079163024
30
0
41
1
10
1.99559798459097
20
1.8215530344481
30
0
41
1
10
2.00317084096383
20
1.95153256030955
30
0
41
1
10
2.02989450382847
20
2.20863621482485
30
0
41
1
10
2.06312281146856
20
2.37623682681314
30
0
41
1
10
2.11711352609129
20
2.56071248965728
30
0
41
1
10
2.1233405043869
20
2.5811398053076
30
0
41
1
10
2.13618768999595
20
2.62168156939435
30
0
41
1
10
2.15606981737756
20
2.68209915745621
30
0
41
1
10
2.20663284138101
20
2.82037958494655
30
0
41
1
10
2.25677498836586
20
2.93451835123506
30
0
41
1
10
2.36535629471729
20
3.15746071883569
30
0
41
1
10
2.44877292930374
20
3.29899704507602
30
0
41
1
10
2.56491335282726
20
3.46834229420324
30
0
41
1
10
2.58874340219288
20
3.50183863089933
30
0
41
1
10
2.63753439395427
20
3.56806430694863
30
0
41
1
10
2.7120906187078
20
3.66580878197445
30
0
41
1
10
2.79051159711358
20
3.75906559074153
30
0
41
1
10
2.95197436458957
20
3.94023873486404
30
0
41
1
10
3.06575476668195
20
4.05392732052081
30
0
41
1
10
3.30350486767207
20
4.26965368335951
30
0
41
1
10
3.42748499393846
20
4.37167894363881
30
0
41
1
10
3.62002062382945
20
4.51729675070064
30
0
41
1
10
3.68529732032937
20
4.56459466173052
30
0
41
1
10
3.78475237571888
20
4.63381157599417
30
0
41
1
10
3.81818216067262
20
4.65660935803839
30
0
41
1
10
3.88540744647196
20
4.70156019366567
30
0
41
1
10
3.91920500069168
20
4.72371542509373
30
0
41
1
10
4.08908049529808
20
4.83296024678825
30
0
41
1
10
4.22781197648769
20
4.9154737280507
30
0
41
1
10
4.51016404987541
20
5.07220186591206
30
0
41
1
10
4.65378734305264
20
5.1464115125404
30
0
41
1
10
4.94535099991506
20
5.28762398681567
30
0
41
1
10
5.09332984144447
20
5.35463940715047
30
0
41
1
10
5.31808684249174
20
5.45034533504426
30
0
41
1
10
5.39342047882582
20
5.48142167973555
30
0
41
1
10
5.47861293337459
20
5.51551088728058
30
0
41
1
10
5.4928208307723
20
5.5211742203648
30
0
41
1
10
5.50704204260342
20
5.52681034009493
30
0
41
1
10
5.51652579858981
20
5.53056176456889
30
0
41
1
10
5.52125256379355
20
5.53245008184163
30
0
41
1
10
5.53078456979517
20
5.53614966655331
30
0
41
1
10
5.53571545042377
20
5.53786430638067
30
0
41
1
10
5.54590067438343
20
5.54072693058097
30
0
41
1
10
5.55113579114999
20
5.54190508101109
30
0
41
1
10
5.56187575785594
20
5.54378371528381
30
0
41
1
10
5.56740436617736
20
5.54449884298137
30
0
41
1
10
5.57852672217041
20
5.54553654632389
30
0
41
1
10
5.58409029087341
20
5.54585567746742
30
0
41
1
10
5.6007870832878
20
5.546305038779
30
0
41
1
10
5.61192822269248
20
5.5459153864463
30
0
41
1
10
5.62864571955376
20
5.54442351801131
30
0
41
1
10
5.63416835898732
20
5.54378182029836
30
0
41
1
10
5.64513460448094
20
5.54226902519358
30
0
41
1
10
5.65059418489653
20
5.54144408597355
30
0
41
1
10
5.67793015800396
20
5.53742933845459
30
0
41
1
10
6.04954902204668
20
5.48237601342908
30
0
41
1
10
6.41860309768472
20
5.41956060702043
30
0
41
1
10
7.10743621316431
20
5.28666896985629
30
0
41
1
10
7.44907145958538
20
5.21287110509815
30
0
41
1
10
7.87288199429642
20
5.11076336327534
30
0
41
1
10
7.95749679310575
20
5.08984532424756
30
0
41
1
10
8.12620090329267
20
5.04706382040126
30
0
41
1
10
8.21031492835581
20
5.02519476494797
30
0
41
1
10
8.46195829159495
20
4.95813940829294
30
0
41
1
10
8.62878528061779
20
4.91149938613952
30
0
41
1
10
9.12660907383869
20
4.76570387196952
30
0
41
1
10
9.45494522240608
20
4.66066312724229
30
0
41
1
10
10.10545914038
20
4.43483483814484
30
0
41
1
10
10.4276441199873
20
4.31405620296553
30
0
41
1
10
11.0669627440322
20
4.0571271045618
30
0
41
1
10
11.3840909944106
20
3.92096538566838
30
0
41
1
10
12.0145169032401
20
3.63405438818018
30
0
41
1
10
12.3278177101428
20
3.48330852765926
30
0
41
1
10
12.639885613294
20
3.32592501211661
30
0
0
SPLINE
5
F1
100
AcDbEntity
8
1
62
256
6
ByLayer
370
18
48
1
60
0
100
AcDbSpline
70
4
71
3
72
8
73
4
40
0
40
0
40
0
40
0
40
1
40
1
40
1
40
1
41
1
10
3.49999999999997
20
-1.2838459951999
30
0
41
1
10
3.49999999999997
20
-1.21321272333134
30
0
41
1
10
3.49999999999997
20
-1.14254863496777
30
0
41
1
10
3.49999999999997
20
-1.07185374388769
30
0
0
SPLINE
5
F2
100
AcDbEntity
8
1
62
256
6
ByLayer
370
18
48
1
60
0
100
AcDbSpline
70
4
71
3
72
38
73
34
40
0
40
0
40
0
40
0
40
0.249999999999995
40
0.249999999999995
40
0.374999999999992
40
0.374999999999992
40
0.437499999999991
40
0.437499999999991
40
0.499999999999989
40
0.499999999999989
40
0.562499999999987
40
0.562499999999987
40
0.624999999999986
40
0.624999999999986
40
0.687499999999984
40
0.687499999999984
40
0.718749999999983
40
0.718749999999983
40
0.749999999999982
40
0.749999999999982
40
0.781249999999981
40
0.781249999999981
40
0.812499999999981
40
0.812499999999981
40
0.84374999999998
40
0.84374999999998
40
0.874999999999979
40
0.874999999999979
40
0.906249999999978
40
0.906249999999978
40
0.937499999999977
40
0.937499999999977
40
1
40
1
40
1
40
1
41
1
10
3.5
20
-1.07185374388769
30
0
41
1
10
3.5
20
-1.02371782923939
30
0
41
1
10
3.502708878118
20
-0.976281679051311
30
0
41
1
10
3.5122832880698
20
-0.906560256332313
30
0
41
1
10
3.51640420184521
20
-0.883561466847823
30
0
41
1
10
3.52452936440039
20
-0.849571047255381
30
0
41
1
10
3.52757609941736
20
-0.838293209024755
30
0
41
1
10
3.53444987145914
20
-0.816131397606398
30
0
41
1
10
3.53826701676252
20
-0.805265159153805
30
0
41
1
10
3.54688542493807
20
-0.784089139979812
30
0
41
1
10
3.55168135743889
20
-0.773776331757006
30
0
41
1
10
3.56266195362579
20
-0.753937121204757
30
0
41
1
10
3.56882040844423
20
-0.744462026299203
30
0
41
1
10
3.58288489400553
20
-0.727247189980318
30
0
41
1
10
3.59091437074028
20
-0.719390264841053
30
0
41
1
10
3.60450085762784
20
-0.71016448911044
30
0
41
1
10
3.60930605532974
20
-0.707497064997625
30
0
41
1
10
3.61957692127117
20
-0.703219483700678
30
0
41
1
10
3.62488975404369
20
-0.701675685790264
30
0
41
1
10
3.63589983238853
20
-0.699877803171432
30
0
41
1
10
3.64166537654052
20
-0.699638193692067
30
0
41
1
10
3.65309951430913
20
-0.700503566108125
30
0
41
1
10
3.65880245102039
20
-0.701586069749311
30
0
41
1
10
3.67018302649325
20
-0.704916414898264
30
0
41
1
10
3.67577732993806
20
-0.707145542569947
30
0
41
1
10
3.68657760734951
20
-0.71240273879269
30
0
41
1
10
3.69182650663908
20
-0.715444452343348
30
0
41
1
10
3.70208100950697
20
-0.722192684971844
30
0
41
1
10
3.70707849162596
20
-0.725899308663884
30
0
41
1
10
3.71667258479508
20
-0.733685051601753
30
0
41
1
10
3.72130095510099
20
-0.737785156442072
30
0
41
1
10
3.73478521847986
20
-0.750578048231745
30
0
41
1
10
3.74324566498316
20
-0.759756781341878
30
0
41
1
10
3.75133921899581
20
-0.769386599528133
30
0
0
SPLINE
5
F3
100
AcDbEntity
8
1
62
256
6
ByLayer
370
18
48
1
60
0
100
AcDbSpline
70
4
71
3
72
23
73
19
40
0
40
0
40
0
40
0
40
0.124999999999996
40
0.124999999999996
40
0.249999999999992
40
0.249999999999992
40
0.374999999999988
40
0.374999999999988
40
0.437499999999986
40
0.468749999999985
40
0.468749999999985
40
0.499999999999984
40
0.499999999999984
40
0.624999999999987
40
0.624999999999987
40
0.74999999999999
40
0.74999999999999
40
1
40
1
40
1
40
1
41
1
10
3.75133921892163
20
-0.769386599439827
30
0
41
1
10
3.87849835215616
20
-0.920682227029204
30
0
41
1
10
4.01181795014122
20
-1.064460248958
30
0
41
1
10
4.28837657255337
20
-1.33996095701193
30
0
41
1
10
4.43163100971941
20
-1.47166465568171
30
0
41
1
10
4.72649315286887
20
-1.72496641898897
30
0
41
1
10
4.87811080007873
20
-1.84655219915922
30
0
41
1
10
5.11095392545698
20
-2.02241137652754
30
0
41
1
10
5.22873366656196
20
-2.10870614075122
30
0
41
1
10
5.34842015772293
20
-2.1927121521434
30
0
41
1
10
5.42862210889734
20
-2.24822356808406
30
0
41
1
10
5.46892617354038
20
-2.27573093684279
30
0
41
1
10
5.67098586766181
20
-2.41177398186611
30
0
41
1
10
5.8347212298026
20
-2.51609996812596
30
0
41
1
10
6.16580587005623
20
-2.71704639920043
30
0
41
1
10
6.33315755817193
20
-2.81366128757384
30
0
41
1
10
6.8400006230828
20
-3.0934339367947
30
0
41
1
10
7.18428475890229
20
-3.26650736062652
30
0
41
1
10
7.53359320309264
20
-3.42936511085918
30
0
0
SPLINE
5
F4
100
AcDbEntity
8
1
62
256
6
ByLayer
370
18
48
1
60
0
100
AcDbSpline
70
4
71
3
72
138
73
134
40
0
40
0
40
0
40
0
40
0.0059254173950189
40
0.0226564494663595
40
0.0393874815376999
40
0.0561185136090405
40
0.0644840296447108
40
0.072849545680381
40
0.0812150617160512
40
0.0895805777517215
40
0.0979460937873918
40
0.106311609823062
40
0.110494367840897
40
0.114677125858732
40
0.118859883876567
40
0.123042641894403
40
0.127225399912238
40
0.131408157930073
40
0.13349953693899
40
0.135590915947908
40
0.136636605452367
40
0.137682294956825
40
0.138727984461284
40
0.139773673965743
40
0.140819363470202
40
0.141342208222431
40
0.141603630598546
40
0.141865052974661
40
0.142126475350775
40
0.14238789772689
40
0.142453253320918
40
0.142518608914947
40
0.142649320103004
40
0.142780031291062
40
0.142910742479119
40
0.143172164855234
40
0.143433587231349
40
0.143956431983578
40
0.144479276735807
40
0.145002121488037
40
0.146047810992496
40
0.147093500496954
40
0.148139190001413
40
0.150230569010331
40
0.152321948019248
40
0.154413327028166
40
0.156504706037083
40
0.160687464054919
40
0.164870222072754
40
0.169052980090589
40
0.173235738108424
40
0.181601254144094
40
0.189966770179765
40
0.206697802251105
40
0.223428834322446
40
0.240159866393786
40
0.256890898465127
40
0.273621930536467
40
0.290352962607808
40
0.307083994679148
40
0.323815026750489
40
0.35727709089317
40
0.374008122964511
40
0.390739155035851
40
0.407470187107192
40
0.424201219178532
40
0.440932251249873
40
0.457663283321213
40
0.474394315392554
40
0.482759831428224
40
0.491125347463894
40
0.495308105481729
40
0.499490863499564
40
0.503673621517399
40
0.505765000526317
40
0.507856379535234
40
0.509947758544152
40
0.51203913755307
40
0.514130516561987
40
0.515176206066446
40
0.516221895570905
40
0.517267585075364
40
0.518313274579822
40
0.518836119332052
40
0.519358964084281
40
0.51988180883651
40
0.520143231212625
40
0.52040465358874
40
0.520535364776797
40
0.520666075964854
40
0.520731431558883
40
0.520764109355898
40
0.520796787152912
40
0.520862142746941
40
0.520927498340969
40
0.521058209529026
40
0.521188920717084
40
0.521450343093198
40
0.521711765469313
40
0.521973187845428
40
0.522496032597657
40
0.523541722102116
40
0.524587411606575
40
0.526678790615493
40
0.52877016962441
40
0.530861548633328
40
0.532952927642245
40
0.537135685660081
40
0.541318443677916
40
0.545501201695751
40
0.549683959713586
40
0.553866717731421
40
0.558049475749256
40
0.566414991784926
40
0.574780507820597
40
0.583146023856267
40
0.591511539891937
40
0.599877055927607
40
0.608242571963278
40
0.624973604034618
40
0.641704636105959
40
0.658435668177299
40
0.67516670024864
40
0.69189773231998
40
0.725359796462662
40
0.758821860605343
40
0.792283924748024
40
0.825745988890705
40
0.859208053033386
40
0.892670117176067
40
0.926132181318748
40
0.99305630960411
40
1
40
1
40
1
40
1
41
1
10
12.6398881250024
20
3.32592374804392
30
0
41
1
10
12.6222589883253
20
3.32788534956731
30
0
41
1
10
12.5550247298989
20
3.33270638775335
30
0
41
1
10
12.4389906471164
20
3.32350502385418
30
0
41
1
10
12.2778509474721
20
3.28790920392419
30
0
41
1
10
12.1363573813954
20
3.23617764480994
30
0
41
1
10
12.0192658488559
20
3.18105402216457
30
0
41
1
10
11.929563925174
20
3.1326933530475
30
0
41
1
10
11.8386166081862
20
3.07678103886948
30
0
41
1
10
11.7446039216736
20
3.01537999327459
30
0
41
1
10
11.6476018025864
20
2.9483472673416
30
0
41
1
10
11.564586495336
20
2.88766154885749
30
0
41
1
10
11.4970194677692
20
2.83611330784714
30
0
41
1
10
11.4457273234692
20
2.79597955381126
30
0
41
1
10
11.3937102412072
20
2.75441026839033
30
0
41
1
10
11.3411006252076
20
2.71141544832415
30
0
41
1
10
11.2879805441651
20
2.66702932617753
30
0
41
1
10
11.2433041807895
20
2.62885499966558
30
0
41
1
10
11.2073342826212
20
2.59759670208908
30
0
41
1
10
11.1847604950633
20
2.57775846788573
30
0
41
1
10
11.166647735588
20
2.56170562246322
30
0
41
1
10
11.1530366732049
20
2.54957454602436
30
0
41
1
10
11.13939975544
20
2.53735168715445
30
0
41
1
10
11.1257366215283
20
2.52503683015524
30
0
41
1
10
11.1143316064831
20
2.51469719510825
30
0
41
1
10
11.1063349516826
20
2.50742069669093
30
0
41
1
10
11.1017681552098
20
2.50325025965245
30
0
41
1
10
11.0983261203639
20
2.50011978961757
30
0
41
1
10
11.0949422332527
20
2.49697210862684
30
0
41
1
10
11.0922364289989
20
2.49463944626092
30
0
41
1
10
11.0906916606449
20
2.49303225275997
30
0
41
1
10
11.0890438102887
20
2.49208010616169
30
0
41
1
10
11.0916095589842
20
2.4899498969823
30
0
41
1
10
11.0942032163082
20
2.48810463521389
30
0
41
1
10
11.0980305304124
20
2.48552300539634
30
0
41
1
10
11.1028143028367
20
2.48244133414897
30
0
41
1
10
11.1105994696308
20
2.47753768137952
30
0
41
1
10
11.1204005632606
20
2.47149411535383
30
0
41
1
10
11.132226549449
20
2.46429136048755
30
0
41
1
10
11.1480423800885
20
2.45473485827617
30
0
41
1
10
11.1678739411272
20
2.44284355267553
30
0
41
1
10
11.1917224020017
20
2.42861758101572
30
0
41
1
10
11.2235633309653
20
2.40968635395978
30
0
41
1
10
11.2634197962067
20
2.38606715403626
30
0
41
1
10
11.3113001513298
20
2.3577600296677
30
0
41
1
10
11.3592172423027
20
2.32947318040962
30
0
41
1
10
11.4231429259694
20
2.2917718936144
30
0
41
1
10
11.503104195147
20
2.24465798535337
30
0
41
1
10
11.5991076306523
20
2.18811036587613
30
0
41
1
10
11.6951412145027
20
2.1315315730524
30
0
41
1
10
11.8232128055379
20
2.05603693685293
30
0
41
1
10
11.9833353539806
20
1.96154451530805
30
0
41
1
10
12.2395500614513
20
1.81003398319515
30
0
41
1
10
12.5598317786288
20
1.62000811592668
30
0
41
1
10
12.9441836881776
20
1.3909814048055
30
0
41
1
10
13.328414176469
20
1.16103268827666
30
0
41
1
10
13.7125272678984
20
0.930115423541679
30
0
41
1
10
14.0964964874921
20
0.698206787241077
30
0
41
1
10
14.4803022560622
20
0.46527171629026
30
0
41
1
10
14.8639601478156
20
0.23132921844072
30
0
41
1
10
15.3753367184055
20
-0.0818981420707132
30
0
41
1
10
15.8864890992683
20
-0.397044963824698
30
0
41
1
10
16.3974532436145
20
-0.714058930734467
30
0
41
1
10
16.7806042714785
20
-0.952721970390314
30
0
41
1
10
17.1637051678795
20
-1.192237692395
30
0
41
1
10
17.5467735236575
20
-1.43262553895528
30
0
41
1
10
17.9296337922052
20
-1.67385099471562
30
0
41
1
10
18.3122440491492
20
-1.9159802288022
30
0
41
1
10
18.6308559516216
20
-2.11856029843145
30
0
41
1
10
18.8855831128843
20
-2.28110215496306
30
0
41
1
10
19.044716863006
20
-2.38289258542446
30
0
41
1
10
19.1719628416573
20
-2.46447788865575
30
0
41
1
10
19.2673578541418
20
-2.52575565786623
30
0
41
1
10
19.3468108069245
20
-2.57690948642713
30
0
41
1
10
19.4103373353006
20
-2.61790276765092
30
0
41
1
10
19.4579599909391
20
-2.64869007776249
30
0
41
1
10
19.5055540303679
20
-2.6795296080989
30
0
41
1
10
19.5531081264809
20
-2.71043902030382
30
0
41
1
10
19.5926892354497
20
-2.73627818877318
30
0
41
1
10
19.6243104702695
20
-2.75702291461272
30
0
41
1
10
19.6479967549578
20
-2.77262984553118
30
0
41
1
10
19.6716410678869
20
-2.78830521987604
30
0
41
1
10
19.6912904244772
20
-2.80145541426865
30
0
41
1
10
19.7069508667273
20
-2.81206797563189
30
0
41
1
10
19.7186511636096
20
-2.82009677617194
30
0
41
1
10
19.7283424773762
20
-2.82688076251583
30
0
41
1
10
19.7360130607642
20
-2.83241963519922
30
0
41
1
10
19.7407537159755
20
-2.83598034811027
30
0
41
1
10
19.7444459709186
20
-2.83891252143246
30
0
41
1
10
19.7466964353082
20
-2.84092864587592
30
0
41
1
10
19.7480810514178
20
-2.84232557922678
30
0
41
1
10
19.7486826814377
20
-2.84359233896419
30
0
41
1
10
19.7474835145812
20
-2.84411386457603
30
0
41
1
10
19.7461030312865
20
-2.84405252000619
30
0
41
1
10
19.7438154713589
20
-2.84428230576105
30
0
41
1
10
19.7409830230648
20
-2.84445721768225
30
0
41
1
10
19.7364360714354
20
-2.8447997748286
30
0
41
1
10
19.7307576399703
20
-2.8452063232447
30
0
41
1
10
19.7239414432925
20
-2.845703212041
30
0
41
1
10
19.7148541338067
20
-2.84636226914466
30
0
41
1
10
19.6989514560291
20
-2.84751646896487
30
0
41
1
10
19.6762348853516
20
-2.84916269394208
30
0
41
1
10
19.6398911699236
20
-2.85179314053965
30
0
41
1
10
19.594466999901
20
-2.8550736416903
30
0
41
1
10
19.5399666775336
20
-2.85899845113897
30
0
41
1
10
19.4854750669771
20
-2.86291138185226
30
0
41
1
10
19.4128314510367
20
-2.86811278868402
30
0
41
1
10
19.3220490906202
20
-2.87458484010955
30
0
41
1
10
19.2131457248092
20
-2.88230373626783
30
0
41
1
10
19.1042778035243
20
-2.88997503009242
30
0
41
1
10
18.9954453174857
20
-2.89759868478703
30
0
41
1
10
18.8866482404484
20
-2.90517466426857
30
0
41
1
10
18.7416327226779
20
-2.91521234923647
30
0
41
1
10
18.5604594526789
20
-2.92763955430149
30
0
41
1
10
18.3432037757949
20
-2.94236018517694
30
0
41
1
10
18.1261005917216
20
-2.95688849752912
30
0
41
1
10
17.9091496794261
20
-2.97122421703759
30
0
41
1
10
17.692350899803
20
-2.9853670594384
30
0
41
1
10
17.4034887265196
20
-3.00396661686761
30
0
41
1
10
17.0427897031763
20
-3.02673247940879
30
0
41
1
10
16.6105625844846
20
-3.05327499466065
30
0
41
1
10
16.1789230532688
20
-3.0790399119364
30
0
41
1
10
15.7479564534688
20
-3.10401962507768
30
0
41
1
10
15.1744079099348
20
-3.13626627320318
30
0
41
1
10
14.4593998867737
20
-3.17458841525823
30
0
41
1
10
13.6044863942558
20
-3.21738170004318
30
0
41
1
10
12.7526497260246
20
-3.25696729824449
30
0
41
1
10
11.9038801231638
20
-3.29332957029746
30
0
41
1
10
11.0581664176582
20
-3.32645207753814
30
0
41
1
10
10.2154990510197
20
-3.35631839604159
30
0
41
1
10
9.09599218129409
20
-3.39177222028812
30
0
41
1
10
8.20314239684737
20
-3.41491848689131
30
0
41
1
10
7.59110412538658
20
-3.42814564736025
30
0
41
1
10
7.53359320597471
20
-3.4293651116667
30
0
0
SPLINE
5
F5
100
AcDbEntity
8
SK1
62
256
6
ByLayer
370
18
48
1
60
0
100
AcDbSpline
70
4
71
3
72
8
73
4
40
0
40
0
40
0
40
0
40
1
40
1
40
1
40
1
41
1
10
-44
20
1.07404192103311
30
0
41
1
10
-44.334098253316
20
1.08415141261614
30
0
41
1
10
-44.6675872358303
20
1.09427817300914
30
0
41
1
10
-45
20
1.10443543709613
30
0
0
SPLINE
5
F6
100
AcDbEntity
8
SK1
62
256
6
ByLayer
370
18
48
1
60
0
100
AcDbSpline
70
4
71
3
72
22
73
18
40
0
40
0
40
0
40
0
40
0.0625000000000029
40
0.0625000000000029
40
0.125000000000006
40
0.125000000000006
40
0.187500000000009
40
0.187500000000009
40
0.250000000000011
40
0.250000000000011
40
0.375000000000011
40
0.375000000000011
40
0.50000000000001
40
0.50000000000001
40
0.750000000000005
40
0.750000000000005
40
1
40
1
40
1
40
1
41
1
10
-43.9
20
0.970472402475536
30
0
41
1
10
-43.9
20
0.974643779880296
30
0
41
1
10
-43.9002571469355
20
0.978753487406209
30
0
41
1
10
-43.9012483835253
20
0.986858442312212
30
0
41
1
10
-43.9019843556157
20
0.990834080330018
30
0
41
1
10
-43.9038359680824
20
0.998436265338967
30
0
41
1
10
-43.9049554933943
20
1.00209682825155
30
0
41
1
10
-43.9075371366113
20
1.00916953364083
30
0
41
1
10
-43.9090098712764
20
1.01260112663516
30
0
41
1
10
-43.9138180081128
20
1.02238497284341
30
0
41
1
10
-43.9175198606348
20
1.02822989222307
30
0
41
1
10
-43.9257005361924
20
1.03886252278619
30
0
41
1
10
-43.9302200865512
20
1.04367079894041
30
0
41
1
10
-43.9443936613409
20
1.05630838530166
30
0
41
1
10
-43.954746409351
20
1.06256319035973
30
0
41
1
10
-43.9768690024478
20
1.07132787131576
30
0
41
1
10
-43.9882652984639
20
1.07368684025903
30
0
41
1
10
-44
20
1.07404192103311
30
0
0
SPLINE
5
F7
100
AcDbEntity
8
SK1
62
256
6
ByLayer
370
18
48
1
60
0
100
AcDbSpline
70
4
71
3
72
20
73
16
40
0
40
0
40
0
40
0
40
0.250000000000006
40
0.250000000000006
40
0.375000000000005
40
0.375000000000005
40
0.500000000000004
40
0.500000000000004
40
0.625000000000003
40
0.625000000000003
40
0.750000000000002
40
0.750000000000002
40
0.875000000000001
40
0.875000000000001
40
1
40
1
40
1
40
1
41
1
10
-44
20
-1.42486210369424
30
0
41
1
10
-43.9882624499766
20
-1.42521727066082
30
0
41
1
10
-43.9768728652908
20
-1.42357170952039
30
0
41
1
10
-43.9603029144173
20
-1.41808741140616
30
0
41
1
10
-43.9549192380518
20
-1.4157555126487
30
0
41
1
10
-43.9446385503254
20
-1.41013488082967
30
0
41
1
10
-43.939710400316
20
-1.40683772082619
30
0
41
1
10
-43.9303270310238
20
-1.39915142095032
30
0
41
1
10
-43.9258537171356
20
-1.39474639313119
30
0
41
1
10
-43.9175707048936
20
-1.38464090856124
30
0
41
1
10
-43.9138512313552
20
-1.37905923596881
30
0
41
1
10
-43.9074484414431
20
-1.3665931278195
30
0
41
1
10
-43.904769301989
20
-1.35966092421782
30
0
41
1
10
-43.9010616930766
20
-1.34484951931648
30
0
41
1
10
-43.9
20
-1.33675700867863
30
0
41
1
10
-43.9
20
-1.32851930027363
30
0
0
SPLINE
5
F8
100
AcDbEntity
8
SK1
62
256
6
ByLayer
370
18
48
1
60
0
100
AcDbSpline
70
4
71
3
72
8
73
4
40
0
40
0
40
0
40
0
40
1
40
1
40
1
40
1
41
1
10
-45
20
-1.39446858763122
30
0
41
1
10
-44.6675984623247
20
-1.40462550867943
30
0
41
1
10
-44.3341076295214
20
-1.41475232839625
30
0
41
1
10
-44
20
-1.42486210369424
30
0
0
SPLINE
5
F9
100
AcDbEntity
8
SK1
62
256
6
ByLayer
370
18
48
1
60
0
100
AcDbSpline
70
4
71
3
72
8
73
4
40
0
40
0
40
0
40
0
40
1
40
1
40
1
40
1
41
1
10
-44
20
-1.07404192103309
30
0
41
1
10
-44.334098253316
20
-1.08415141261614
30
0
41
1
10
-44.6675872358303
20
-1.09427817300912
30
0
41
1
10
-45
20
-1.10443543709613
30
0
0
SPLINE
5
FA
100
AcDbEntity
8
SK1
62
256
6
ByLayer
370
18
48
1
60
0
100
AcDbSpline
70
4
71
3
72
22
73
18
40
0
40
0
40
0
40
0
40
0.0625000000000015
40
0.0625000000000015
40
0.125000000000003
40
0.125000000000003
40
0.187500000000005
40
0.187500000000005
40
0.250000000000006
40
0.250000000000006
40
0.375000000000005
40
0.375000000000005
40
0.500000000000004
40
0.500000000000004
40
0.750000000000002
40
0.750000000000002
40
1
40
1
40
1
40
1
41
1
10
-43.9
20
-0.970472402475508
30
0
41
1
10
-43.9
20
-0.974643779880296
30
0
41
1
10
-43.9002571469355
20
-0.978753487406181
30
0
41
1
10
-43.9012483835253
20
-0.986858442312183
30
0
41
1
10
-43.9019843556157
20
-0.990834080329989
30
0
41
1
10
-43.9038359680824
20
-0.998436265338967
30
0
41
1
10
-43.9049554933943
20
-1.00209682825155
30
0
41
1
10
-43.9075371366113
20
-1.0091695336408
30
0
41
1
10
-43.9090098712764
20
-1.01260112663513
30
0
41
1
10
-43.9138180081128
20
-1.02238497284338
30
0
41
1
10
-43.9175198606348
20
-1.02822989222304
30
0
41
1
10
-43.9257005361924
20
-1.03886252278616
30
0
41
1
10
-43.9302200865512
20
-1.04367079894038
30
0
41
1
10
-43.9443936613409
20
-1.05630838530163
30
0
41
1
10
-43.954746409351
20
-1.06256319035973
30
0
41
1
10
-43.9768690024478
20
-1.07132787131576
30
0
41
1
10
-43.9882652984639
20
-1.07368684025903
30
0
41
1
10
-44
20
-1.07404192103311
30
0
0
SPLINE
5
FB
100
AcDbEntity
8
1
62
256
6
ByLayer
370
18
48
1
60
0
100
AcDbSpline
70
4
71
3
72
14
73
10
40
0
40
0
40
0
40
0
40
0.125240884755437
40
0.313266741473428
40
0.431691553819577
40
0.550318030168735
40
0.680726057859333
40
0.838611546384316
40
1
40
1
40
1
40
1
41
1
10
76.4193379766257
20
1.49672878712195
30
0
41
1
10
76.0781489174662
20
1.59858798132831
30
0
41
1
10
75.2266470282167
20
1.85923330239342
30
0
41
1
10
74.0604813086814
20
2.24110993699151
30
0
41
1
10
72.9175657069689
20
2.63261051781495
30
0
41
1
10
71.9336365452021
20
2.98259572626023
30
0
41
1
10
70.849009812306
20
3.38320594300802
30
0
41
1
10
69.6568303196336
20
3.84192265062399
30
0
41
1
10
68.8163489350974
20
4.181770031616
30
0
41
1
10
68.3929446828229
20
4.35704294820439
30
0
0
SPLINE
5
FC
100
AcDbEntity
8
1
62
256
6
ByLayer
370
18
48
1
60
0
100
AcDbSpline
70
4
71
3
72
34
73
30
40
0
40
0
40
0
40
0
40
1.7599743476E-06
40
1.27833373263E-05
40
2.21256929099E-05
40
3.85682987485E-05
40
5.18570359027E-05
40
0.000165912384512
40
0.0002581424421173
40
0.0004292307606907
40
0.0007502484719753
40
0.0013754711435576
40
0.0026609319163844
40
0.0078180415824168
40
0.0269985532828334
40
0.0522414701137537
40
0.0787915320804523
40
0.15161121246832
40
0.223633054817596
40
0.290824000397641
40
0.344789758775595
40
0.397410459575557
40
0.457791958388525
40
0.524262986922683
40
0.603303744797477
40
0.688554641868653
40
0.784342792369364
40
0.895093905881608
40
1
40
1
40
1
40
1
41
1
10
42.0458873480574
20
0.456559723748029
30
0
41
1
10
42.0458899273053
20
0.456559131028854
30
0
41
1
10
42.0459077796779
20
0.456555053830101
30
0
41
1
10
42.0459270255138
20
0.456551009204304
30
0
41
1
10
42.0459054278977
20
0.456557935371137
30
0
41
1
10
42.045819304153
20
0.456581159331421
30
0
41
1
10
42.0454242891888
20
0.456686183645843
30
0
41
1
10
42.0445640011263
20
0.456910531769267
30
0
41
1
10
42.0432729930276
20
0.457248833949109
30
0
41
1
10
42.0411999115515
20
0.457790433926249
30
0
41
1
10
42.0372077124511
20
0.458830592600606
30
0
41
1
10
42.0290420853512
20
0.460948689456728
30
0
41
1
10
42.0025010716415
20
0.467795175238479
30
0
41
1
10
41.9019155112762
20
0.493548197681576
30
0
41
1
10
41.7038741892721
20
0.544484959305805
30
0
41
1
10
41.4208212696424
20
0.618277179407386
30
0
41
1
10
40.9242696016087
20
0.749666806658695
30
0
41
1
10
40.2427407451191
20
0.935172510533477
30
0
41
1
10
39.4020761940449
20
1.17329800142539
30
0
41
1
10
38.6384518839239
20
1.39776153673009
30
0
41
1
10
37.9533115635388
20
1.60555048577669
30
0
41
1
10
37.296611394839
20
1.81012713257601
30
0
41
1
10
36.5925973498279
20
2.03561745052039
30
0
41
1
10
35.7873625122876
20
2.30148565375015
30
0
41
1
10
34.8880532202871
20
2.60867076535854
30
0
41
1
10
33.8786343020507
20
2.96648785233503
30
0
41
1
10
32.7516364746707
20
3.38233607517276
30
0
41
1
10
31.5553364098388
20
3.84273140460763
30
0
41
1
10
30.732902629052
20
4.17547259445138
30
0
41
1
10
30.3341424126429
20
4.3404740784039
30
0
0
SPLINE
5
FD
100
AcDbEntity
8
1
62
256
6
ByLayer
370
18
48
1
60
0
100
AcDbSpline
70
4
71
3
72
40
73
36
40
0
40
0
40
0
40
0
40
0.0488291813032417
40
0.0922383630601452
40
0.125207734329667
40
0.151137655805861
40
0.172093876929023
40
0.189608180895678
40
0.225477473844676
40
0.273334896312285
40
0.322134930165914
40
0.353037498043695
40
0.381760717075673
40
0.404563007525425
40
0.423900141614954
40
0.452574458261916
40
0.485156310221479
40
0.509046563064288
40
0.539659728789639
40
0.586382547233794
40
0.618526794741807
40
0.64344481660764
40
0.673088316007278
40
0.705918478184904
40
0.733996352659058
40
0.756805684806711
40
0.782812386271701
40
0.818951461277465
40
0.855144840655046
40
0.887416198122896
40
0.919956672122407
40
0.942205584082955
40
0.96645460201507
40
0.996484351092734
40
1
40
1
40
1
40
1
41
1
10
40.2141811639624
20
-6.62739742028754
30
0
41
1
10
40.5066434837735
20
-6.6274759305465
30
0
41
1
10
41.0591700082632
20
-6.62774291854134
30
0
41
1
10
41.8126182242554
20
-6.62812753746573
30
0
41
1
10
42.4236912798492
20
-6.62905333583271
30
0
41
1
10
42.8968558740942
20
-6.62873503062747
30
0
41
1
10
43.2850840829389
20
-6.62882577584901
30
0
41
1
10
43.72853842298
20
-6.62977988093587
30
0
41
1
10
44.3368158392155
20
-6.63005461132965
30
0
41
1
10
45.1324715362443
20
-6.63005597721261
30
0
41
1
10
45.8984981811811
20
-6.63117443518922
30
0
41
1
10
46.5495572803947
20
-6.63136053395235
30
0
41
1
10
47.0444988052301
20
-6.63124781521825
30
0
41
1
10
47.4699848910959
20
-6.6315010989573
30
0
41
1
10
47.8952049547122
20
-6.63224654311131
30
0
41
1
10
48.3791591642762
20
-6.63263594409659
30
0
41
1
10
48.890445610522
20
-6.63261462956584
30
0
41
1
10
49.4133824484686
20
-6.63230030736366
30
0
41
1
10
50.0212317831498
20
-6.63324370985558
30
0
41
1
10
50.6786457361547
20
-6.63405023250385
30
0
41
1
10
51.3018616749425
20
-6.63371828576402
30
0
41
1
10
51.8225185178126
20
-6.63357676603459
30
0
41
1
10
52.3472928016292
20
-6.63499261222711
30
0
41
1
10
52.891042787329
20
-6.63537997556134
30
0
41
1
10
53.3937554179454
20
-6.63505251068597
30
0
41
1
10
53.8554904486484
20
-6.63469682145072
30
0
41
1
10
54.3656402286897
20
-6.63536518493962
30
0
41
1
10
54.9560921407402
20
-6.63659759805273
30
0
41
1
10
55.5844407308748
20
-6.63609146363305
30
0
41
1
10
56.1896316081251
20
-6.63608047366225
30
0
41
1
10
56.7135517980006
20
-6.63746052438518
30
0
41
1
10
57.1851645155211
20
-6.6383099742097
30
0
41
1
10
57.6370022084395
20
-6.63744150532392
30
0
41
1
10
57.9858452063503
20
-6.6366698696232
30
0
41
1
10
58.1870078115993
20
-6.63687307902904
30
0
41
1
10
58.2080967426472
20
-6.63689793386445
30
0
0
SPLINE
5
FE
100
AcDbEntity
8
1
62
256
6
ByLayer
370
18
48
1
60
0
100
AcDbSpline
70
4
71
3
72
32
73
28
40
0
40
0
40
0
40
0
40
0.0143825276949626
40
0.0515851278607345
40
0.084152038827347
40
0.11330575995762
40
0.139352991453061
40
0.170084544777872
40
0.207834160242802
40
0.247297902607241
40
0.291416580288022
40
0.334923577624236
40
0.379958112568002
40
0.422028434675067
40
0.461725280694443
40
0.508370153440746
40
0.564608711102471
40
0.612314728912299
40
0.669710645666982
40
0.72502942468927
40
0.781044167510368
40
0.839527708213992
40
0.874574681019302
40
0.906114994431553
40
0.938730036797469
40
0.973504390149602
40
1
40
1
40
1
40
1
41
1
10
20.2499994365614
20
6.61484270326815
30
0
41
1
10
20.1801422922613
20
6.61463799542037
30
0
41
1
10
19.9301681726509
20
6.61408304227854
30
0
41
1
10
19.5261673394166
20
6.61612995754757
30
0
41
1
10
19.0557602999716
20
6.61600766864314
30
0
41
1
10
18.6305473304018
20
6.61536321971639
30
0
41
1
10
18.2134435070333
20
6.61522592464149
30
0
41
1
10
17.7550142327306
20
6.61523015743376
30
0
41
1
10
17.2312284420956
20
6.61497461407956
30
0
41
1
10
16.6425469215939
20
6.61411414767446
30
0
41
1
10
16.0259002405141
20
6.61360209622293
30
0
41
1
10
15.3822497430735
20
6.61367588628423
30
0
41
1
10
14.7484681536681
20
6.61312059006676
30
0
41
1
10
14.1334309363527
20
6.61233150629042
30
0
41
1
10
13.5114021638886
20
6.61187250297976
30
0
41
1
10
12.8193426549047
20
6.61193885847649
30
0
41
1
10
12.0895068540443
20
6.61083352807608
30
0
41
1
10
11.3064762015367
20
6.61065110752551
30
0
41
1
10
10.5281802702717
20
6.61088076096786
30
0
41
1
10
9.70949000141019
20
6.60966752797091
30
0
41
1
10
8.8855401679312
20
6.60951934585222
30
0
41
1
10
8.15995932783574
20
6.60864639098961
30
0
41
1
10
7.55311322765263
20
6.60764700058238
30
0
41
1
10
7.07179354080998
20
6.60749059566569
30
0
41
1
10
6.59178686861952
20
6.60732147245082
30
0
41
1
10
6.13625287453738
20
6.60716608947476
30
0
41
1
10
5.83900643745605
20
6.60704545393639
30
0
41
1
10
5.71049785438757
20
6.60698146169884
30
0
0
SPLINE
5
FF
100
AcDbEntity
8
1
62
256
6
ByLayer
370
18
48
1
60
0
100
AcDbSpline
70
4
71
3
72
35
73
31
40
0
40
0
40
0
40
0
40
0.0249019006539945
40
0.0659021077622884
40
0.10135503868953
40
0.13399361492106
40
0.175792231244223
40
0.222753567484764
40
0.270129944351747
40
0.302594223279358
40
0.331067212135355
40
0.366116945368558
40
0.407098980080185
40
0.444103089739995
40
0.475208365173167
40
0.515334169609498
40
0.573658467763846
40
0.606518242622713
40
0.629354448608536
40
0.65849679090911
40
0.69290189948382
40
0.720238355388168
40
0.739595086246614
40
0.761437234267121
40
0.799932821833808
40
0.842902600106486
40
0.888101918227212
40
0.935206307052119
40
0.976609235834779
40
1
40
1
40
1
40
1
41
1
10
58.1940422201263
20
6.63711651456649
30
0
41
1
10
58.0739393732574
20
6.63703691695241
30
0
41
1
10
57.7568024214818
20
6.63689872751757
30
0
41
1
10
57.2738824691972
20
6.63848337518195
30
0
41
1
10
56.7538442284273
20
6.63754220419983
30
0
41
1
10
56.2241679399966
20
6.63614293160822
30
0
41
1
10
55.6415152822582
20
6.63604836971342
30
0
41
1
10
54.9864413700666
20
6.6366196194094
30
0
41
1
10
54.3765291403495
20
6.6353877386386
30
0
41
1
10
53.8554906583868
20
6.63469522889886
30
0
41
1
10
53.3937553512989
20
6.63505302230558
30
0
41
1
10
52.8910428104359
20
6.63537976926233
30
0
41
1
10
52.3472927958076
20
6.63499278754023
30
0
41
1
10
51.8225185187184
20
6.63357635356999
30
0
41
1
10
51.3018616756879
20
6.63371968179897
30
0
41
1
10
50.6786457294713
20
6.6340419155116
30
0
41
1
10
50.0469905074443
20
6.63331297247973
30
0
41
1
10
49.4985057658325
20
6.63236916628512
30
0
41
1
10
49.0903975177797
20
6.63250752737048
30
0
41
1
10
48.6748563130443
20
6.63263178852998
30
0
41
1
10
48.2376732902696
20
6.63255900073128
30
0
41
1
10
47.847553610204
20
6.63214910748707
30
0
41
1
10
47.5178759985789
20
6.63160036506252
30
0
41
1
10
47.1345411173674
20
6.63123158739285
30
0
41
1
10
46.6376216954757
20
6.63137090226832
30
0
41
1
10
46.0283295886281
20
6.63123928650623
30
0
41
1
10
45.3776054220643
20
6.63044780517947
30
0
41
1
10
44.7344272569002
20
6.63005333596163
30
0
41
1
10
44.1961390187926
20
6.62997449096963
30
0
41
1
10
43.8846087639648
20
6.62980031792128
30
0
41
1
10
43.772318427707
20
6.6296817118785
30
0
0
SPLINE
5
100
100
AcDbEntity
8
1
62
256
6
ByLayer
370
18
48
1
60
0
100
AcDbSpline
70
4
71
3
72
35
73
31
40
0
40
0
40
0
40
0
40
0.0346456653811966
40
0.0745798485661774
40
0.104502498094772
40
0.124573386586577
40
0.14018081890524
40
0.158712098344262
40
0.227218366607915
40
0.280114544774782
40
0.341820934489839
40
0.404541310828649
40
0.459325153220632
40
0.522517985296703
40
0.544416592575229
40
0.570846216570377
40
0.603503033121801
40
0.644035331132807
40
0.68449932170817
40
0.713921715900942
40
0.742207569519883
40
0.775261595477748
40
0.813864765389912
40
0.845123439038089
40
0.871531990113404
40
0.902633480231317
40
0.925248228016021
40
0.954553402528542
40
0.992176052131741
40
1
40
1
40
1
40
1
41
1
10
3.75040971264735
20
-6.60340151519858
30
0
41
1
10
3.93670272229397
20
-6.60421071784845
30
0
41
1
10
4.33812318936205
20
-6.60564229303293
30
0
41
1
10
4.90187909256287
20
-6.60646444935082
30
0
41
1
10
5.38785555557527
20
-6.60679021861006
30
0
41
1
10
5.74323860222358
20
-6.60695838952148
30
0
41
1
10
6.0365226610011
20
-6.60712206083289
30
0
41
1
10
6.5923297532068
20
-6.60734973762931
30
0
41
1
10
7.34999926269288
20
-6.6072531906909
30
0
41
1
10
8.34145266615312
20
-6.60910154496969
30
0
41
1
10
9.3015874691215
20
-6.60947892305597
30
0
41
1
10
10.271938514307
20
-6.61055010825737
30
0
41
1
10
11.2503392107495
20
-6.61077954630832
30
0
41
1
10
12.0077124474039
20
-6.61081091054805
30
0
41
1
10
12.6115460447055
20
-6.6116195547998
30
0
41
1
10
13.0500481032403
20
-6.61202123180809
30
0
41
1
10
13.589443123936
20
-6.61211058758622
30
0
41
1
10
14.2048278113261
20
-6.61236187195689
30
0
41
1
10
14.8027000359029
20
-6.61320103988598
30
0
41
1
10
15.3342631074687
20
-6.61360790336275
30
0
41
1
10
15.8257051182387
20
-6.6136404760959
30
0
41
1
10
16.3668514632048
20
-6.61378489964108
30
0
41
1
10
16.9241178529724
20
-6.61454863935106
30
0
41
1
10
17.4453073587441
20
-6.6151310571926
30
0
41
1
10
17.9256926252753
20
-6.61516183858913
30
0
41
1
10
18.3596981088126
20
-6.61526132931937
30
0
41
1
10
18.8081658283371
20
-6.61561686466067
30
0
41
1
10
19.2930704446532
20
-6.61621924193474
30
0
41
1
10
19.6978138379872
20
-6.6165675077018
30
0
41
1
10
19.9438742662177
20
-6.61667867507506
30
0
41
1
10
19.9862347625663
20
-6.61669532586762
30
0
0
LINE
5
82
100
AcDbEntity
8
81
62
256
6
ByLayer
370
18
48
1
60
0
100
AcDbLine
10
79
20
0
30
0
11
82
21
0
31
0
39
0
210
0
220
0
230
1
0
LINE
5
83
100
AcDbEntity
8
80
62
256
6
ByLayer
370
18
48
1
60
0
100
AcDbLine
10
0
20
0
30
0
11
-3
21
0
31
0
39
0
210
0
220
0
230
1
0
LINE
5
84
100
AcDbEntity
8
SK4
62
256
6
ByLayer
370
18
48
0.05
60
0
100
AcDbLine
10
-48
20
0
30
0
11
82
21
0
31
0
39
0
210
0
220
0
230
1
0
LINE
5
86
100
AcDbEntity
8
4
62
256
6
ByLayer
370
18
48
0.05
60
0
100
AcDbLine
10
0
20
0
30
0
11
79
21
0
31
0
39
0
210
0
220
0
230
1
0
LINE
5
88
100
AcDbEntity
8
1
62
256
6
ByLayer
370
18
48
1
60
0
100
AcDbLine
10
0
20
7
30
0
11
0
21
-7
31
0
39
0
210
0
220
0
230
1
0
LINE
5
89
100
AcDbEntity
8
1
62
256
6
ByLayer
370
13
48
1
60
0
100
AcDbLine
10
78.902385
20
0.084268
30
0
11
77.233386
21
1.926554
31
0
39
0
210
0
220
0
230
1
0
LINE
5
8A
100
AcDbEntity
8
1
62
256
6
ByLayer
370
18
48
1
60
0
100
AcDbLine
10
3.5
20
6.954404
30
0
11
3.5
21
6.912689
31
0
39
0
210
0
220
0
230
1
0
LINE
5
8B
100
AcDbEntity
8
1
62
256
6
ByLayer
370
18
48
1
60
0
100
AcDbLine
10
3.5
20
-6.954404
30
0
11
3.5
21
-1.283846
31
0
39
0
210
0
220
0
230
1
0
LINE
5
8C
100
AcDbEntity
8
1
62
256
6
ByLayer
370
18
48
1
60
0
100
AcDbLine
10
19
20
0.132635
30
0
11
19
21
-0.184105
31
0
39
0
210
0
220
0
230
1
0
LINE
5
8D
100
AcDbEntity
8
1
62
256
6
ByLayer
370
18
48
1
60
0
100
AcDbLine
10
1
20
-6.952841
30
0
11
1
21
6.952841
31
0
39
0
210
0
220
0
230
1
0
LINE
5
8E
100
AcDbEntity
8
SK1
62
256
6
ByLayer
370
18
48
1
60
0
100
AcDbLine
10
-45
20
-1.104435
30
0
11
-45
21
-1.394469
31
0
39
0
210
0
220
0
230
1
0
LINE
5
90
100
AcDbEntity
8
SK1
62
256
6
ByLayer
370
13
48
1
60
0
100
AcDbLine
10
-44
20
-1.424862
30
0
11
-44
21
-1.074042
31
0
39
0
210
0
220
0
230
1
0
LINE
5
91
100
AcDbEntity
8
SK1
62
256
6
ByLayer
370
18
48
1
60
0
100
AcDbLine
10
-43.9
20
-1.328519
30
0
11
-43.9
21
0.970472
31
0
39
0
210
0
220
0
230
1
0
LINE
5
92
100
AcDbEntity
8
SK1
62
256
6
ByLayer
370
18
48
1
60
0
100
AcDbLine
10
-45
20
-5.055
30
0
11
-45
21
-1.394469
31
0
39
0
210
0
220
0
230
1
0
LINE
5
93
100
AcDbEntity
8
SK1
62
256
6
ByLayer
370
18
48
1
60
0
100
AcDbLine
10
-45
20
5.055
30
0
11
-45
21
1.104435
31
0
39
0
210
0
220
0
230
1
0
LINE
5
94
100
AcDbEntity
8
SK1
62
256
6
ByLayer
370
18
48
1
60
0
100
AcDbLine
10
-43.055
20
-7
30
0
11
-43.055
21
7
31
0
39
0
210
0
220
0
230
1
0
LINE
5
95
100
AcDbEntity
8
SK1
62
256
6
ByLayer
370
18
48
1
60
0
100
AcDbLine
10
0
20
7
30
0
11
0
21
-7
31
0
39
0
210
0
220
0
230
1
0
LINE
5
96
100
AcDbEntity
8
1
62
256
6
ByLayer
370
18
48
1
60
0
100
AcDbLine
10
64.276472
20
-3.774811
30
0
11
64.276796
21
-3.774955
31
0
39
0
210
0
220
0
230
1
0
LINE
5
97
100
AcDbEntity
8
1
62
256
6
ByLayer
370
18
48
1
60
0
100
AcDbLine
10
1
20
6.952841
30
0
11
0
21
7
31
0
39
0
210
0
220
0
230
1
0
LINE
5
98
100
AcDbEntity
8
1
62
256
6
ByLayer
370
18
48
1
60
0
100
AcDbLine
10
0
20
-7
30
0
11
1
21
-6.952841
31
0
39
0
210
0
220
0
230
1
0
LINE
5
99
100
AcDbEntity
8
1
62
256
6
ByLayer
370
18
48
1
60
0
100
AcDbLine
10
1
20
-6.952841
30
0
11
3.5
21
-6.954404
31
0
39
0
210
0
220
0
230
1
0
LINE
5
9A
100
AcDbEntity
8
1
62
256
6
ByLayer
370
18
48
1
60
0
100
AcDbLine
10
38.29402
20
-6.97615
30
0
11
40.018853
21
-6.977228
31
0
39
0
210
0
220
0
230
1
0
LINE
5
9B
100
AcDbEntity
8
1
62
256
6
ByLayer
370
18
48
1
60
0
100
AcDbLine
10
40.018853
20
6.977228
30
0
11
38.29402
21
6.97615
31
0
39
0
210
0
220
0
230
1
0
LINE
5
9C
100
AcDbEntity
8
1
62
256
6
ByLayer
370
18
48
1
60
0
100
AcDbLine
10
3.5
20
6.954404
30
0
11
1
21
6.952841
31
0
39
0
210
0
220
0
230
1
0
LINE
5
9D
100
AcDbEntity
8
SK1
62
256
6
ByLayer
370
18
48
1
60
0
100
AcDbLine
10
-45
20
-5.055
30
0
11
-43.055
21
-7
31
0
39
0
210
0
220
0
230
1
0
LINE
5
9E
100
AcDbEntity
8
SK1
62
256
6
ByLayer
370
18
48
1
60
0
100
AcDbLine
10
-43.055
20
7
30
0
11
-45
21
5.055
31
0
39
0
210
0
220
0
230
1
0
LINE
5
9F
100
AcDbEntity
8
SK1
62
256
6
ByLayer
370
18
48
1
60
0
100
AcDbLine
10
-43.055
20
-7
30
0
11
0
21
-7
31
0
39
0
210
0
220
0
230
1
0
LINE
5
A0
100
AcDbEntity
8
SK1
62
256
6
ByLayer
370
18
48
1
60
0
100
AcDbLine
10
0
20
7
30
0
11
-43.055
21
7
31
0
39
0
210
0
220
0
230
1
0
LINE
5
A1
100
AcDbEntity
8
2
62
256
6
ByLayer
370
13
48
1
60
0
100
AcDbLine
10
92.75
20
-7
30
0
11
92.75
21
21.424599
31
0
39
0
210
0
220
0
230
1
0
LINE
5
A3
100
AcDbEntity
8
2
62
256
6
ByLayer
370
13
48
1
60
0
100
AcDbLine
10
80.5875
20
7
30
0
11
94.75
21
7
31
0
39
0
210
0
220
0
230
1
0
LINE
5
A4
100
AcDbEntity
8
2
62
256
6
ByLayer
370
13
48
1
60
0
100
AcDbLine
10
80.5875
20
-7
30
0
11
94.75
21
-7
31
0
39
0
210
0
220
0
230
1
0
LINE
5
A5
100
AcDbEntity
8
1
62
256
6
ByLayer
370
18
48
1
60
1
100
AcDbLine
10
92.75
20
7
30
0
11
93.210784
21
3.500002
31
0
39
0
210
0
220
0
230
1
0
LINE
5
A6
100
AcDbEntity
8
1
62
256
6
ByLayer
370
18
48
1
60
1
100
AcDbLine
10
93.210784
20
3.500002
30
0
11
92.289216
21
3.499998
31
0
39
0
210
0
220
0
230
1
0
LINE
5
A7
100
AcDbEntity
8
1
62
256
6
ByLayer
370
18
48
1
60
1
100
AcDbLine
10
92.289216
20
3.499998
30
0
11
92.75
21
7
31
0
39
0
210
0
220
0
230
1
0
LINE
5
A8
100
AcDbEntity
8
1
62
256
6
ByLayer
370
18
48
1
60
1
100
AcDbLine
10
92.75
20
-7
30
0
11
92.289216
21
-3.500002
31
0
39
0
210
0
220
0
230
1
0
LINE
5
A9
100
AcDbEntity
8
1
62
256
6
ByLayer
370
18
48
1
60
1
100
AcDbLine
10
92.289216
20
-3.500002
30
0
11
93.210784
21
-3.499998
31
0
39
0
210
0
220
0
230
1
0
LINE
5
AA
100
AcDbEntity
8
1
62
256
6
ByLayer
370
18
48
1
60
1
100
AcDbLine
10
93.210784
20
-3.499998
30
0
11
92.75
21
-7
31
0
39
0
210
0
220
0
230
1
0
LINE
5
AB
100
AcDbEntity
8
SK2
62
256
6
ByLayer
370
13
48
1
60
0
100
AcDbLine
10
-53.25
20
-7
30
0
11
-53.25
21
22.424599
31
0
39
0
210
0
220
0
230
1
0
LINE
5
AD
100
AcDbEntity
8
SK2
62
256
6
ByLayer
370
13
48
1
60
0
100
AcDbLine
10
-46.5875
20
7
30
0
11
-55.25
21
7
31
0
39
0
210
0
220
0
230
1
0
LINE
5
AE
100
AcDbEntity
8
SK2
62
256
6
ByLayer
370
13
48
1
60
0
100
AcDbLine
10
-46.5875
20
-7
30
0
11
-55.25
21
-7
31
0
39
0
210
0
220
0
230
1
0
LINE
5
AF
100
AcDbEntity
8
1
62
256
6
ByLayer
370
18
48
1
60
1
100
AcDbLine
10
-53.25
20
7
30
0
11
-52.789216
21
3.500002
31
0
39
0
210
0
220
0
230
1
0
LINE
5
B0
100
AcDbEntity
8
1
62
256
6
ByLayer
370
18
48
1
60
1
100
AcDbLine
10
-52.789216
20
3.500002
30
0
11
-53.710784
21
3.499998
31
0
39
0
210
0
220
0
230
1
0
LINE
5
B1
100
AcDbEntity
8
1
62
256
6
ByLayer
370
18
48
1
60
1
100
AcDbLine
10
-53.710784
20
3.499998
30
0
11
-53.25
21
7
31
0
39
0
210
0
220
0
230
1
0
LINE
5
B2
100
AcDbEntity
8
1
62
256
6
ByLayer
370
18
48
1
60
1
100
AcDbLine
10
-53.25
20
-7
30
0
11
-53.710784
21
-3.500002
31
0
39
0
210
0
220
0
230
1
0
LINE
5
B3
100
AcDbEntity
8
1
62
256
6
ByLayer
370
18
48
1
60
1
100
AcDbLine
10
-53.710784
20
-3.500002
30
0
11
-52.789216
21
-3.499998
31
0
39
0
210
0
220
0
230
1
0
LINE
5
B4
100
AcDbEntity
8
1
62
256
6
ByLayer
370
18
48
1
60
1
100
AcDbLine
10
-52.789216
20
-3.499998
30
0
11
-53.25
21
-7
31
0
39
0
210
0
220
0
230
1
0
LINE
5
B5
100
AcDbEntity
8
SK2
62
256
6
ByLayer
370
13
48
1
60
0
100
AcDbLine
10
79.542996
20
1.491748
30
0
11
91.921694
21
35.499159
31
0
39
0
210
0
220
0
230
1
0
LINE
5
B6
100
AcDbEntity
8
SK2
62
256
6
ByLayer
370
13
48
1
60
0
100
AcDbLine
10
79.542996
20
-1.491748
30
0
11
91.921694
21
-35.499159
31
0
39
0
210
0
220
0
230
1
0
LINE
5
B7
100
AcDbEntity
8
1
62
256
6
ByLayer
370
18
48
1
60
1
100
AcDbLine
10
91.237604
20
33.619791
30
0
11
94.664403
21
32.77164
31
0
39
0
210
0
220
0
230
1
0
LINE
5
B8
100
AcDbEntity
8
1
62
256
6
ByLayer
370
18
48
1
60
1
100
AcDbLine
10
94.664403
20
32.77164
30
0
11
94.328123
21
31.913618
31
0
39
0
210
0
220
0
230
1
0
LINE
5
B9
100
AcDbEntity
8
1
62
256
6
ByLayer
370
18
48
1
60
1
100
AcDbLine
10
94.328123
20
31.913618
30
0
11
91.237604
21
33.619791
31
0
39
0
210
0
220
0
230
1
0
LINE
5
BA
100
AcDbEntity
8
1
62
256
6
ByLayer
370
18
48
1
60
1
100
AcDbLine
10
91.237604
20
-33.619791
30
0
11
94.32812
21
-31.913619
31
0
39
0
210
0
220
0
230
1
0
LINE
5
BB
100
AcDbEntity
8
1
62
256
6
ByLayer
370
18
48
1
60
1
100
AcDbLine
10
94.32812
20
-31.913619
30
0
11
94.664406
21
-32.771639
31
0
39
0
210
0
220
0
230
1
0
LINE
5
BC
100
AcDbEntity
8
1
62
256
6
ByLayer
370
18
48
1
60
1
100
AcDbLine
10
94.664406
20
-32.771639
30
0
11
91.237604
21
-33.619791
31
0
39
0
210
0
220
0
230
1
0
LINE
5
101
100
AcDbEntity
8
1
62
256
6
ByLayer
370
13
48
0.05
60
0
100
AcDbLine
10
-51.5
20
0
30
0
11
82.999939
21
0
31
0
39
0
210
0
220
0
230
1
0
LINE
5
106
100
AcDbEntity
8
1
62
256
6
ByLayer
370
18
48
1
60
1
100
AcDbLine
10
92.75
20
7
30
0
11
93.210784
21
3.500002
31
0
39
0
210
0
220
0
230
1
0
LINE
5
107
100
AcDbEntity
8
1
62
256
6
ByLayer
370
18
48
1
60
1
100
AcDbLine
10
93.210784
20
3.500002
30
0
11
92.289216
21
3.499998
31
0
39
0
210
0
220
0
230
1
0
LINE
5
108
100
AcDbEntity
8
1
62
256
6
ByLayer
370
18
48
1
60
1
100
AcDbLine
10
92.289216
20
3.499998
30
0
11
92.75
21
7
31
0
39
0
210
0
220
0
230
1
0
LINE
5
10A
100
AcDbEntity
8
1
62
256
6
ByLayer
370
18
48
1
60
1
100
AcDbLine
10
92.75
20
-7
30
0
11
92.289216
21
-3.500002
31
0
39
0
210
0
220
0
230
1
0
LINE
5
10B
100
AcDbEntity
8
1
62
256
6
ByLayer
370
18
48
1
60
1
100
AcDbLine
10
92.289216
20
-3.500002
30
0
11
93.210784
21
-3.499998
31
0
39
0
210
0
220
0
230
1
0
LINE
5
10C
100
AcDbEntity
8
1
62
256
6
ByLayer
370
18
48
1
60
1
100
AcDbLine
10
93.210784
20
-3.499998
30
0
11
92.75
21
-7
31
0
39
0
210
0
220
0
230
1
0
LINE
5
110
100
AcDbEntity
8
1
62
256
6
ByLayer
370
18
48
1
60
1
100
AcDbLine
10
-53.25
20
7
30
0
11
-52.789216
21
3.500002
31
0
39
0
210
0
220
0
230
1
0
LINE
5
111
100
AcDbEntity
8
1
62
256
6
ByLayer
370
18
48
1
60
1
100
AcDbLine
10
-52.789216
20
3.500002
30
0
11
-53.710784
21
3.499998
31
0
39
0
210
0
220
0
230
1
0
LINE
5
112
100
AcDbEntity
8
1
62
256
6
ByLayer
370
18
48
1
60
1
100
AcDbLine
10
-53.710784
20
3.499998
30
0
11
-53.25
21
7
31
0
39
0
210
0
220
0
230
1
0
LINE
5
114
100
AcDbEntity
8
1
62
256
6
ByLayer
370
18
48
1
60
1
100
AcDbLine
10
-53.25
20
-7
30
0
11
-53.710784
21
-3.500002
31
0
39
0
210
0
220
0
230
1
0
LINE
5
115
100
AcDbEntity
8
1
62
256
6
ByLayer
370
18
48
1
60
1
100
AcDbLine
10
-53.710784
20
-3.500002
30
0
11
-52.789216
21
-3.499998
31
0
39
0
210
0
220
0
230
1
0
LINE
5
116
100
AcDbEntity
8
1
62
256
6
ByLayer
370
18
48
1
60
1
100
AcDbLine
10
-52.789216
20
-3.499998
30
0
11
-53.25
21
-7
31
0
39
0
210
0
220
0
230
1
0
LINE
5
119
100
AcDbEntity
8
1
62
256
6
ByLayer
370
18
48
1
60
1
100
AcDbLine
10
91.237604
20
33.619791
30
0
11
94.664403
21
32.77164
31
0
39
0
210
0
220
0
230
1
0
LINE
5
11A
100
AcDbEntity
8
1
62
256
6
ByLayer
370
18
48
1
60
1
100
AcDbLine
10
94.664403
20
32.77164
30
0
11
94.328123
21
31.913618
31
0
39
0
210
0
220
0
230
1
0
LINE
5
11B
100
AcDbEntity
8
1
62
256
6
ByLayer
370
18
48
1
60
1
100
AcDbLine
10
94.328123
20
31.913618
30
0
11
91.237604
21
33.619791
31
0
39
0
210
0
220
0
230
1
0
LINE
5
11D
100
AcDbEntity
8
1
62
256
6
ByLayer
370
18
48
1
60
1
100
AcDbLine
10
91.237604
20
-33.619791
30
0
11
94.32812
21
-31.913619
31
0
39
0
210
0
220
0
230
1
0
LINE
5
11E
100
AcDbEntity
8
1
62
256
6
ByLayer
370
18
48
1
60
1
100
AcDbLine
10
94.32812
20
-31.913619
30
0
11
94.664406
21
-32.771639
31
0
39
0
210
0
220
0
230
1
0
LINE
5
11F
100
AcDbEntity
8
1
62
256
6
ByLayer
370
18
48
1
60
1
100
AcDbLine
10
94.664406
20
-32.771639
30
0
11
91.237604
21
-33.619791
31
0
39
0
210
0
220
0
230
1
0
MTEXT
5
102
100
AcDbEntity
8
2
62
256
6
ByLayer
370
18
48
1
60
0
100
AcDbMText
10
91.185366
20
10.934844
30
0
210
0
220
0
230
1
1
%%c
40
3.5
41
0
44
1.084337
50
90
71
7
72
5
7
iso_b_vert
0
MTEXT
5
105
100
AcDbEntity
8
2
62
256
6
ByLayer
370
18
48
1
60
0
100
AcDbMText
10
91.185366
20
17.9075
30
0
210
0
220
0
230
1
1
\W0.5785;14
40
3.5
41
0
44
1.084337
50
90
71
7
72
5
7
iso_b_vert
0
MTEXT
5
10E
100
AcDbEntity
8
SK2
62
256
6
ByLayer
370
18
48
1
60
0
100
AcDbMText
10
-54.814634
20
11.934844
30
0
210
0
220
0
230
1
1
%%c
40
3.5
41
0
44
1.084337
50
90
71
7
72
5
7
iso_b_vert
0
MTEXT
5
10F
100
AcDbEntity
8
SK2
62
256
6
ByLayer
370
18
48
1
60
0
100
AcDbMText
10
-54.814634
20
18.9075
30
0
210
0
220
0
230
1
1
\W0.5785;14
40
3.5
41
0
44
1.084337
50
90
71
7
72
5
7
iso_b_vert
0
MTEXT
5
118
100
AcDbEntity
8
SK2
62
256
6
ByLayer
370
18
48
1
60
0
100
AcDbMText
10
110.706128
20
-2.467366
30
0
210
0
220
0
230
1
1
\W0.7825;140%%d
40
3.5
41
0
44
1.084337
50
0
71
7
72
5
7
iso_b_vert
0
MTEXT
5
121
100
AcDbEntity
8
SK6
62
256
6
ByLayer
370
18
48
1
60
0
100
AcDbMText
10
-10.62304
20
-97.467366
30
0
210
0
220
0
230
1
1
\W0.7442;860.1-1400-060A1-MM M2BM
40
3.5
41
0
44
1.084337
50
0
71
7
72
5
7
iso_b_vert
0
HATCH
5
109
100
AcDbEntity
8
2
62
256
6
ByLayer
370
13
48
1
60
0
100
AcDbHatch
10
0
20
0
30
0
210
0
220
0
230
1
2
ANSI31
70
0
71
0
91
1
92
5
93
3
72
1
10
92.75
20
7
11
93.2107837415528
21
3.50000169255318
72
1
10
93.2107837415528
20
3.50000169255318
11
92.2892162584472
21
3.49999830744682
72
1
10
92.2892162584472
20
3.49999830744682
11
92.75
21
7
97
0
75
0
76
1
52
0
41
0.0062
77
0
78
1
53
45
43
0
44
0
45
-0.0139193969876572
46
0.0139193969876572
79
0
47
0
98
1
10
0
20
0
0
HATCH
5
10D
100
AcDbEntity
8
2
62
256
6
ByLayer
370
13
48
1
60
0
100
AcDbHatch
10
0
20
0
30
0
210
0
220
0
230
1
2
ANSI31
70
0
71
0
91
1
92
5
93
3
72
1
10
92.75
20
-7
11
92.2892162584472
21
-3.50000169255318
72
1
10
92.2892162584472
20
-3.50000169255318
11
93.2107837415528
21
-3.49999830744682
72
1
10
93.2107837415528
20
-3.49999830744682
11
92.75
21
-7
97
0
75
0
76
1
52
0
41
0.0062
77
0
78
1
53
45
43
0
44
0
45
-0.0139193969876572
46
0.0139193969876572
79
0
47
0
98
1
10
0
20
0
0
HATCH
5
113
100
AcDbEntity
8
SK2
62
256
6
ByLayer
370
13
48
1
60
0
100
AcDbHatch
10
0
20
0
30
0
210
0
220
0
230
1
2
ANSI31
70
0
71
0
91
1
92
5
93
3
72
1
10
-53.25
20
7
11
-52.7892162584472
21
3.50000169255318
72
1
10
-52.7892162584472
20
3.50000169255318
11
-53.7107837415528
21
3.49999830744682
72
1
10
-53.7107837415528
20
3.49999830744682
11
-53.25
21
7
97
0
75
0
76
1
52
0
41
0.0062
77
0
78
1
53
45
43
0
44
0
45
-0.0139193969876572
46
0.0139193969876572
79
0
47
0
98
1
10
0
20
0
0
HATCH
5
117
100
AcDbEntity
8
SK2
62
256
6
ByLayer
370
13
48
1
60
0
100
AcDbHatch
10
0
20
0
30
0
210
0
220
0
230
1
2
ANSI31
70
0
71
0
91
1
92
5
93
3
72
1
10
-53.25
20
-7
11
-53.7107837415528
21
-3.50000169255318
72
1
10
-53.7107837415528
20
-3.50000169255318
11
-52.7892162584472
21
-3.49999830744682
72
1
10
-52.7892162584472
20
-3.49999830744682
11
-53.25
21
-7
97
0
75
0
76
1
52
0
41
0.0062
77
0
78
1
53
45
43
0
44
0
45
-0.0139193969876572
46
0.0139193969876572
79
0
47
0
98
1
10
0
20
0
0
HATCH
5
11C
100
AcDbEntity
8
SK2
62
256
6
ByLayer
370
13
48
1
60
0
100
AcDbHatch
10
0
20
0
30
0
210
0
220
0
230
1
2
ANSI31
70
0
71
0
91
1
92
5
93
3
72
1
10
91.2376040389549
20
33.6197913158111
11
94.6644027507249
21
32.7716401514416
72
1
10
94.6644027507249
20
32.7716401514416
11
94.3281226798264
21
31.9136178091651
72
1
10
94.3281226798264
20
31.9136178091651
11
91.2376040389549
21
33.6197913158111
97
0
75
0
76
1
52
0
41
0.0062
77
0
78
1
53
45
43
0
44
0
45
-0.0139193969876572
46
0.0139193969876572
79
0
47
0
98
1
10
0
20
0
0
HATCH
5
120
100
AcDbEntity
8
SK2
62
256
6
ByLayer
370
13
48
1
60
0
100
AcDbHatch
10
0
20
0
30
0
210
0
220
0
230
1
2
ANSI31
70
0
71
0
91
1
92
5
93
3
72
1
10
91.2376040389552
20
-33.6197913158109
11
94.3281195281392
21
-31.9136190444023
72
1
10
94.3281195281392
20
-31.9136190444023
11
94.6644059024127
21
-32.7716389162042
72
1
10
94.6644059024127
20
-32.7716389162042
11
91.2376040389552
21
-33.6197913158109
97
0
75
0
76
1
52
0
41
0.0062
77
0
78
1
53
45
43
0
44
0
45
-0.0139193969876572
46
0.0139193969876572
79
0
47
0
98
1
10
0
20
0
0
DIMENSION
5
124
100
AcDbEntity
8
2
62
256
6
ByLayer
370
18
48
1
60
0
100
AcDbDimension
2
_U0
10
79
20
-64.801012
30
0
11
17
21
-64.801012
31
0
70
32
71
1
72
1
41
1
210
0
220
0
230
1
3
Standard
100
AcDbAlignedDimension
13
-45
23
-7
33
0
14
79
24
-7
34
0
50
0
100
AcDbRotatedDimension
1001
ACAD
1000
DSTYLE
1002
{
1070
   371
1070
    13
1070
   372
1070
    13
1070
     3
1000

1070
   170
1070
     0
1070
   144
1040
1.0
1070
   277
1070
     2
1070
   284
1070
     8
1070
   278
1070
    46
1070
   146
1040
1.0
1070
   345
1005
16
1070
   347
1005
16
1070
   346
1005
16
1070
   344
1005
0
1070
   343
1005
0
1070
   172
1070
     1
1070
    76
1070
     0
1070
    75
1070
     0
1070
   282
1070
     0
1070
   281
1070
     0
1070
    71
1070
     0
1070
    74
1070
     0
1070
   279
1070
     0
1070
   173
1070
     1
1070
   340
1005
103
1070
   271
1070
     2
1070
   272
1070
     2
1070
    77
1070
     1
1070
    73
1070
     1
1070
   171
1070
     3
1070
   274
1070
     4
1070
   177
1070
     2
1070
   176
1070
     2
1070
   178
1070
     2
1070
    78
1070
     8
1070
    48
1040
-0.1
1070
    41
1040
3.5
1070
   147
1040
1.75
1070
    42
1040
1.5875
1070
    44
1040
2.0
1070
   140
1040
3.5
1002
}
1001
ACAD_DSTYLE_DIM_LINETYPE
1070
   380
1005
16
1001
ACAD_DSTYLE_DIM_EXT1_LINETYPE
1070
   381
1005
16
1001
ACAD_DSTYLE_DIM_EXT2_LINETYPE
1070
   382
1005
16
0
DIMENSION
5
13D
100
AcDbEntity
8
SK2
62
256
6
ByLayer
370
18
48
1
60
0
100
AcDbDimension
2
_U1
10
2
20
-44.801012
30
0
11
40.5
21
-44.801012
31
0
70
32
71
1
72
1
41
1
210
0
220
0
230
1
3
Standard
100
AcDbAlignedDimension
13
79
23
-7
33
0
14
2
24
-7
34
0
50
0
100
AcDbRotatedDimension
1001
ACAD
1000
DSTYLE
1002
{
1070
   371
1070
    13
1070
   372
1070
    13
1070
     3
1000

1070
   170
1070
     0
1070
   144
1040
1.0
1070
   277
1070
     2
1070
   284
1070
     8
1070
   278
1070
    46
1070
   146
1040
1.0
1070
   345
1005
16
1070
   347
1005
16
1070
   346
1005
16
1070
   344
1005
0
1070
   343
1005
0
1070
   172
1070
     1
1070
    76
1070
     0
1070
    75
1070
     0
1070
   282
1070
     0
1070
   281
1070
     0
1070
    71
1070
     0
1070
    74
1070
     0
1070
   279
1070
     0
1070
   173
1070
     1
1070
   340
1005
103
1070
   271
1070
     2
1070
   272
1070
     2
1070
    77
1070
     1
1070
    73
1070
     1
1070
   171
1070
     3
1070
   274
1070
     4
1070
   177
1070
     2
1070
   176
1070
     2
1070
   178
1070
     2
1070
    78
1070
     8
1070
    48
1040
-0.1
1070
    41
1040
3.5
1070
   147
1040
1.75
1070
    42
1040
1.5875
1070
    44
1040
2.0
1070
   140
1040
3.5
1002
}
1001
ACAD_DSTYLE_DIM_LINETYPE
1070
   380
1005
16
1001
ACAD_DSTYLE_DIM_EXT1_LINETYPE
1070
   381
1005
16
1001
ACAD_DSTYLE_DIM_EXT2_LINETYPE
1070
   382
1005
16
0
DIMENSION
5
155
100
AcDbEntity
8
SK2
62
256
6
ByLayer
370
18
48
1
60
0
100
AcDbDimension
2
_U2
10
19
20
-34.801012
30
0
11
49
21
-34.801012
31
0
70
32
71
1
72
1
41
1
210
0
220
0
230
1
3
Standard
100
AcDbAlignedDimension
13
79
23
-7
33
0
14
19
24
-7
34
0
50
0
100
AcDbRotatedDimension
1001
ACAD
1000
DSTYLE
1002
{
1070
   371
1070
    13
1070
   372
1070
    13
1070
     3
1000

1070
   170
1070
     0
1070
   144
1040
1.0
1070
   277
1070
     2
1070
   284
1070
     8
1070
   278
1070
    46
1070
   146
1040
1.0
1070
   345
1005
16
1070
   347
1005
16
1070
   346
1005
16
1070
   344
1005
0
1070
   343
1005
0
1070
   172
1070
     1
1070
    76
1070
     0
1070
    75
1070
     0
1070
   282
1070
     0
1070
   281
1070
     0
1070
    71
1070
     0
1070
    74
1070
     0
1070
   279
1070
     0
1070
   173
1070
     1
1070
   340
1005
103
1070
   271
1070
     2
1070
   272
1070
     2
1070
    77
1070
     1
1070
    73
1070
     1
1070
   171
1070
     3
1070
   274
1070
     4
1070
   177
1070
     2
1070
   176
1070
     2
1070
   178
1070
     2
1070
    78
1070
     8
1070
    48
1040
-0.1
1070
    41
1040
3.5
1070
   147
1040
1.75
1070
    42
1040
1.5875
1070
    44
1040
2.0
1070
   140
1040
3.5
1002
}
1001
ACAD_DSTYLE_DIM_LINETYPE
1070
   380
1005
16
1001
ACAD_DSTYLE_DIM_EXT1_LINETYPE
1070
   381
1005
16
1001
ACAD_DSTYLE_DIM_EXT2_LINETYPE
1070
   382
1005
16
0
DIMENSION
5
16F
100
AcDbEntity
8
SK2
62
256
6
ByLayer
370
18
48
1
60
0
100
AcDbDimension
2
_U3
10
0
20
-44.801012
30
0
11
-22.5
21
-44.801012
31
0
70
32
71
1
72
1
41
1
210
0
220
0
230
1
3
Standard
100
AcDbAlignedDimension
13
-45
23
-7
33
0
14
0
24
-7
34
0
50
0
100
AcDbRotatedDimension
1001
ACAD
1000
DSTYLE
1002
{
1070
   371
1070
    13
1070
   372
1070
    13
1070
     3
1000

1070
   170
1070
     0
1070
   144
1040
1.0
1070
   277
1070
     2
1070
   284
1070
     8
1070
   278
1070
    46
1070
   146
1040
1.0
1070
   345
1005
16
1070
   347
1005
16
1070
   346
1005
16
1070
   344
1005
0
1070
   343
1005
0
1070
   172
1070
     1
1070
    76
1070
     0
1070
    75
1070
     0
1070
   282
1070
     0
1070
   281
1070
     0
1070
    71
1070
     0
1070
    74
1070
     0
1070
   279
1070
     0
1070
   173
1070
     1
1070
   340
1005
103
1070
   271
1070
     2
1070
   272
1070
     2
1070
    77
1070
     1
1070
    73
1070
     1
1070
   171
1070
     3
1070
   274
1070
     4
1070
   177
1070
     2
1070
   176
1070
     2
1070
   178
1070
     2
1070
    78
1070
     8
1070
    48
1040
-0.1
1070
    41
1040
3.5
1070
   147
1040
1.75
1070
    42
1040
1.5875
1070
    44
1040
2.0
1070
   140
1040
3.5
1002
}
1001
ACAD_DSTYLE_DIM_LINETYPE
1070
   380
1005
16
1001
ACAD_DSTYLE_DIM_EXT1_LINETYPE
1070
   381
1005
16
1001
ACAD_DSTYLE_DIM_EXT2_LINETYPE
1070
   382
1005
16
0
DIMENSION
5
187
100
AcDbEntity
8
SK2
62
256
6
ByLayer
370
18
48
1
60
0
100
AcDbDimension
2
_U4
10
79
20
-54.801012
30
0
11
39.5
21
-54.801012
31
0
70
32
71
1
72
1
41
1
210
0
220
0
230
1
3
Standard
100
AcDbAlignedDimension
13
0
23
-7
33
0
14
79
24
-7
34
0
50
0
100
AcDbRotatedDimension
1001
ACAD
1000
DSTYLE
1002
{
1070
   371
1070
    13
1070
   372
1070
    13
1070
     3
1000

1070
   170
1070
     0
1070
   144
1040
1.0
1070
   277
1070
     2
1070
   284
1070
     8
1070
   278
1070
    46
1070
   146
1040
1.0
1070
   345
1005
16
1070
   347
1005
16
1070
   346
1005
16
1070
   344
1005
0
1070
   343
1005
0
1070
   172
1070
     1
1070
    76
1070
     0
1070
    75
1070
     0
1070
   282
1070
     0
1070
   281
1070
     0
1070
    71
1070
     0
1070
    74
1070
     0
1070
   279
1070
     0
1070
   173
1070
     1
1070
   340
1005
103
1070
   271
1070
     2
1070
   272
1070
     2
1070
    77
1070
     1
1070
    73
1070
     1
1070
   171
1070
     3
1070
   274
1070
     4
1070
   177
1070
     2
1070
   176
1070
     2
1070
   178
1070
     2
1070
    78
1070
     8
1070
    48
1040
-0.1
1070
    41
1040
3.5
1070
   147
1040
1.75
1070
    42
1040
1.5875
1070
    44
1040
2.0
1070
   140
1040
3.5
1002
}
1001
ACAD_DSTYLE_DIM_LINETYPE
1070
   380
1005
16
1001
ACAD_DSTYLE_DIM_EXT1_LINETYPE
1070
   381
1005
16
1001
ACAD_DSTYLE_DIM_EXT2_LINETYPE
1070
   382
1005
16
0
ENDSEC
0
SECTION
2
OBJECTS
0
DICTIONARY
5
20f
330
0
100
AcDbDictionary
280
0
281
1
3
ACAD_GROUP
350
210
3
ACAD_MLINESTYLE
350
211
0
DICTIONARY
5
210
330
0
100
AcDbDictionary
280
0
281
1
0
DICTIONARY
5
211
330
0
100
AcDbDictionary
280
0
281
1
3
Standard
350
18
0
MLINESTYLE
5
18
330
211
100
AcDbMlineStyle
2
Standard
70
0
3

62
256
51
90
52
90
71
2
49
-0.5
62
256
6
ByLayer
49
0.5
62
256
6
ByLayer
0
RASTERVARIABLES
5
1fd
330

100
AcDbRasterVariables
90
0
70
1
71
1
72
1
0
ENDSEC
0
EOF
