0
SECTION
2
HEADER
9
$ACADVER
1
AC1015
9
$DWGCODEPAGE
3
ANSI_1252
9
$HANDSEED
5
224
9
$ANGBASE
50
0
9
$ANGDIR
70
0
9
$ATTMODE
70
1
9
$AUNITS
70
0
9
$AUPREC
70
0
9
$CECOLOR
62
256
9
$CELTSCALE
40
1
9
$CELTYPE
6
ByLayer
9
$CELWEIGHT
370
18
9
$CLAYER
8
0
9
$CMLJUST
70
0
9
$CMLSCALE
40
1
9
$CMLSTYLE
2
Standard
9
$DIMSTYLE
2
Standard
9
$TEXTSIZE
40
0.2
9
$TEXTSTYLE
7
Standard
9
$LUNITS
70
2
9
$LUPREC
70
4
9
$EXTNAMES
290
1
9
$INSUNITS
70
4
9
$LTSCALE
40
1
9
$LWDISPLAY
290
1
9
$PDMODE
70
0
9
$PDSIZE
40
0
9
$PLINEGEN
70
0
0
ENDSEC
0
SECTION
2
CLASSES
0
CLASS
1
RASTERVARIABLES
2
AcDbRasterVariables
3
ISM
90
0
280
0
281
0
0
ENDSEC
0
SECTION
2
TABLES
0
TABLE
2
VPORT
5
21a
100
AcDbSymbolTable
0
VPORT
5
1
100
AcDbSymbolTableRecord
100
AcDbViewportTableRecord
2
*Active
70
0
10
0
20
0
11
1
21
1
12
-1
22
1
13
0
23
0
14
0.5
24
0.5
15
10
25
10
16
0
26
0
36
1
17
0
27
0
37
0
0
ENDTAB
0
TABLE
2
LTYPE
5
21b
100
AcDbSymbolTable
0
LTYPE
5
14
100
AcDbSymbolTableRecord
100
AcDbLinetypeTableRecord
70
0
2
ByBlock
3

72
65
73
0
40
0
0
LTYPE
5
15
100
AcDbSymbolTableRecord
100
AcDbLinetypeTableRecord
70
0
2
ByLayer
3

72
65
73
0
40
0
0
LTYPE
5
16
100
AcDbSymbolTableRecord
100
AcDbLinetypeTableRecord
70
0
2
Continuous
3
Solid line
72
65
73
0
40
0
0
LTYPE
5
6E
100
AcDbSymbolTableRecord
100
AcDbLinetypeTableRecord
70
0
2
CENTER
3
____ _ ____ _ ____ _ ____
72
65
73
4
40
47.5
49
22
74
0
49
-8.5
74
0
49
8.5
74
0
49
-8.5
74
0
0
LTYPE
5
6F
100
AcDbSymbolTableRecord
100
AcDbLinetypeTableRecord
70
0
2
DASHED
3
__ __ __ __ __ __ __ __ __
72
65
73
2
40
25.72
49
12.86
74
0
49
-12.86
74
0
0
ENDTAB
0
TABLE
2
LAYER
5
21c
100
AcDbSymbolTable
0
LAYER
5
10
100
AcDbSymbolTableRecord
100
AcDbLayerTableRecord
2
0
70
0
62
7
6
Continuous
290
1
370
-3
390
0
0
LAYER
5
71
100
AcDbSymbolTableRecord
100
AcDbLayerTableRecord
2
80
70
0
62
-6
6
Continuous
290
1
370
-3
390
0
0
LAYER
5
73
100
AcDbSymbolTableRecord
100
AcDbLayerTableRecord
2
81
70
0
62
-3
6
Continuous
290
1
370
-3
390
0
0
LAYER
5
75
100
AcDbSymbolTableRecord
100
AcDbLayerTableRecord
2
1
70
0
62
4
6
Continuous
290
1
370
-3
390
0
0
LAYER
5
87
100
AcDbSymbolTableRecord
100
AcDbLayerTableRecord
2
4
70
0
62
-2
6
CENTER
290
1
370
-3
390
0
0
LAYER
5
A2
100
AcDbSymbolTableRecord
100
AcDbLayerTableRecord
2
2
70
0
62
7
6
Continuous
290
1
370
-3
390
0
0
LAYER
5
12F
100
AcDbSymbolTableRecord
100
AcDbLayerTableRecord
2
Defpoints
70
0
62
7
6
Continuous
290
0
370
-3
390
0
0
LAYER
5
206
100
AcDbSymbolTableRecord
100
AcDbLayerTableRecord
2
SK4
70
0
62
2
6
CENTER
290
1
370
-3
390
0
0
LAYER
5
207
100
AcDbSymbolTableRecord
100
AcDbLayerTableRecord
2
SK1
70
0
62
4
6
Continuous
290
1
370
-3
390
0
0
LAYER
5
208
100
AcDbSymbolTableRecord
100
AcDbLayerTableRecord
2
SK2
70
0
62
7
6
Continuous
290
1
370
-3
390
0
0
LAYER
5
209
100
AcDbSymbolTableRecord
100
AcDbLayerTableRecord
2
SK6
70
0
62
5
6
Continuous
290
1
370
-3
390
0
0
ENDTAB
0
TABLE
2
STYLE
5
21d
100
AcDbSymbolTable
0
STYLE
5
11
100
AcDbSymbolTableRecord
100
AcDbTextStyleTableRecord
2
Standard
3
txt
70
0
71
0
40
0
41
1
42
0
50
0
0
STYLE
5
10B
100
AcDbSymbolTableRecord
100
AcDbTextStyleTableRecord
2
iso_b_vert
3
simplex.shx
70
0
71
0
40
0
41
1
42
0
50
0
0
STYLE
5
10C
100
AcDbSymbolTableRecord
100
AcDbTextStyleTableRecord
2
DWGDirectTextStyle
3
simplex
70
0
71
0
40
0
41
1
42
0
50
0
0
ENDTAB
0
TABLE
2
DIMSTYLE
5
21e
100
AcDbSymbolTable
100
AcDbDimStyleTable
0
DIMSTYLE
105
27
100
AcDbSymbolTableRecord
100
AcDbDimStyleTableRecord
2
Standard
70
0
3
<>
41
0.18
42
0.0625
44
0.18
140
0.18
147
0.09
73
0
74
0
77
1
271
2
275
0
278
52
280
0
340
11
0
ENDTAB
0
TABLE
2
VIEW
5
21f
100
AcDbSymbolTable
0
ENDTAB
0
TABLE
2
UCS
5
220
100
AcDbSymbolTable
0
ENDTAB
0
TABLE
2
APPID
5
221
100
AcDbSymbolTable
0
APPID
5
12
100
AcDbSymbolTableRecord
100
AcDbRegAppTableRecord
2
ACAD
70
0
0
APPID
5
12B
100
AcDbSymbolTableRecord
100
AcDbRegAppTableRecord
2
ACAD_DSTYLE_DIMBREAK
70
0
0
APPID
5
1C5
100
AcDbSymbolTableRecord
100
AcDbRegAppTableRecord
2
ACAD_DSTYLE_DIM_LINETYPE
70
0
0
APPID
5
1C6
100
AcDbSymbolTableRecord
100
AcDbRegAppTableRecord
2
ACAD_DSTYLE_DIM_EXT1_LINETYPE
70
0
0
APPID
5
1C7
100
AcDbSymbolTableRecord
100
AcDbRegAppTableRecord
2
ACAD_DSTYLE_DIM_EXT2_LINETYPE
70
0
0
APPID
5
202
100
AcDbSymbolTableRecord
100
AcDbRegAppTableRecord
2
ACAD_MLEADERVER
70
0
0
ENDTAB
0
TABLE
2
BLOCK_RECORD
5
222
100
AcDbSymbolTable
0
BLOCK_RECORD
5
1F
100
AcDbSymbolTableRecord
100
AcDbBlockTableRecord
2
*Model_Space
340
0
70
0
0
BLOCK_RECORD
5
1B
100
AcDbSymbolTableRecord
100
AcDbBlockTableRecord
2
*Paper_Space
340
0
70
0
0
BLOCK_RECORD
5
23
100
AcDbSymbolTableRecord
100
AcDbBlockTableRecord
2
*Paper_Space0
340
0
70
0
0
BLOCK_RECORD
5
130
100
AcDbSymbolTableRecord
100
AcDbBlockTableRecord
2
*D1
340
0
70
0
0
BLOCK_RECORD
5
13C
100
AcDbSymbolTableRecord
100
AcDbBlockTableRecord
2
_U0
340
0
70
0
0
BLOCK_RECORD
5
148
100
AcDbSymbolTableRecord
100
AcDbBlockTableRecord
2
*D3
340
0
70
0
0
BLOCK_RECORD
5
154
100
AcDbSymbolTableRecord
100
AcDbBlockTableRecord
2
_U1
340
0
70
0
0
BLOCK_RECORD
5
160
100
AcDbSymbolTableRecord
100
AcDbBlockTableRecord
2
*D5
340
0
70
0
0
BLOCK_RECORD
5
16C
100
AcDbSymbolTableRecord
100
AcDbBlockTableRecord
2
_U2
340
0
70
0
0
BLOCK_RECORD
5
17A
100
AcDbSymbolTableRecord
100
AcDbBlockTableRecord
2
*D7
340
0
70
0
0
BLOCK_RECORD
5
186
100
AcDbSymbolTableRecord
100
AcDbBlockTableRecord
2
_U3
340
0
70
0
0
BLOCK_RECORD
5
192
100
AcDbSymbolTableRecord
100
AcDbBlockTableRecord
2
*D9
340
0
70
0
0
BLOCK_RECORD
5
19E
100
AcDbSymbolTableRecord
100
AcDbBlockTableRecord
2
_U4
340
0
70
0
0
ENDTAB
0
ENDSEC
0
SECTION
2
BLOCKS
0
BLOCK
5
20
100
AcDbEntity
8
0
100
AcDbBlockBegin
2
*Model_Space
70
0
10
0
20
0
30
0
3
*Model_Space
0
ENDBLK
5
21
100
AcDbEntity
8
0
100
AcDbBlockEnd
0
BLOCK
5
1C
100
AcDbEntity
8
0
100
AcDbBlockBegin
2
*Paper_Space
70
0
10
0
20
0
30
0
3
*Paper_Space
0
ENDBLK
5
1D
100
AcDbEntity
8
0
100
AcDbBlockEnd
0
BLOCK
5
24
100
AcDbEntity
8
0
100
AcDbBlockBegin
2
*Paper_Space0
70
0
10
0
20
0
30
0
3
*Paper_Space0
0
ENDBLK
5
25
100
AcDbEntity
8
0
100
AcDbBlockEnd
0
BLOCK
5
131
100
AcDbEntity
8
0
100
AcDbBlockBegin
2
*D1
70
1
10
0
20
0
30
0
3
*D1
0
LINE
5
133
100
AcDbEntity
8
0
62
256
6
ByLayer
370
-2
48
1
60
0
100
AcDbLine
10
-45
20
-7.5875
30
0
11
-45
21
-83.478634
31
0
39
0
210
0
220
0
230
1
0
LINE
5
134
100
AcDbEntity
8
0
62
256
6
ByLayer
370
-2
48
1
60
0
100
AcDbLine
10
73
20
-7.1425
30
0
11
73
21
-83.478634
31
0
39
0
210
0
220
0
230
1
0
LINE
5
135
100
AcDbEntity
8
0
62
256
6
ByLayer
370
-2
48
1
60
0
100
AcDbLine
10
-41.5
20
-81.478634
30
0
11
69.5
21
-81.478634
31
0
39
0
210
0
220
0
230
1
0
SOLID
5
136
100
AcDbEntity
8
0
62
256
6
ByLayer
370
-1
48
1
60
0
100
AcDbTrace
10
-41.5
20
-80.8953
30
0
11
-41.5
21
-82.061967
31
0
12
-45
22
-81.478634
32
0
13
-45
23
-81.478634
33
0
39
0
210
0
220
0
230
1
0
SOLID
5
137
100
AcDbEntity
8
0
62
256
6
ByLayer
370
-1
48
1
60
0
100
AcDbTrace
10
69.5
20
-82.061967
30
0
11
69.5
21
-80.8953
31
0
12
73
22
-81.478634
32
0
13
73
23
-81.478634
33
0
39
0
210
0
220
0
230
1
0
MTEXT
5
138
100
AcDbEntity
8
0
62
256
6
ByLayer
370
18
48
1
60
0
100
AcDbMText
10
14
20
-74.478634
30
0
210
0
220
0
230
1
1
\A1;118
40
3.5
41
0
44
1
50
0
71
5
72
5
7
iso_b_vert
0
POINT
5
139
100
AcDbEntity
8
Defpoints
62
0
6
ByLayer
370
-1
48
1
60
0
100
AcDbPoint
10
-45
20
-6
30
0
39
0
210
0
220
0
230
1
50
360
0
POINT
5
13A
100
AcDbEntity
8
Defpoints
62
0
6
ByLayer
370
-1
48
1
60
0
100
AcDbPoint
10
73
20
-5.555
30
0
39
0
210
0
220
0
230
1
50
360
0
POINT
5
13B
100
AcDbEntity
8
Defpoints
62
0
6
ByLayer
370
-1
48
1
60
0
100
AcDbPoint
10
73
20
-81.478634
30
0
39
0
210
0
220
0
230
1
50
360
0
ENDBLK
5
132
100
AcDbEntity
8
0
100
AcDbBlockEnd
0
BLOCK
5
143
100
AcDbEntity
8
0
100
AcDbBlockBegin
2
_U0
70
0
10
0
20
0
30
0
3
_U0
0
MTEXT
5
13D
100
AcDbEntity
8
2
62
256
6
ByLayer
370
18
48
1
60
0
100
AcDbMText
10
11.662167
20
-80.446
30
0
210
0
220
0
230
1
1
\W0.5296;118
40
3.5
41
0
44
1.084337
50
0
71
7
72
5
7
iso_b_vert
0
LINE
5
13E
100
AcDbEntity
8
2
62
256
6
ByLayer
370
13
48
1
60
0
100
AcDbLine
10
-45
20
-7.5875
30
0
11
-45
21
-83.478634
31
0
39
0
210
0
220
0
230
1
0
LINE
5
13F
100
AcDbEntity
8
2
62
256
6
ByLayer
370
13
48
1
60
0
100
AcDbLine
10
73
20
-7.1425
30
0
11
73
21
-83.478634
31
0
39
0
210
0
220
0
230
1
0
LINE
5
140
100
AcDbEntity
8
2
62
256
6
ByLayer
370
13
48
1
60
0
100
AcDbLine
10
-45
20
-81.478634
30
0
11
73
21
-81.478634
31
0
39
0
210
0
220
0
230
1
0
SOLID
5
141
100
AcDbEntity
8
2
62
256
6
ByLayer
370
18
48
1
60
0
100
AcDbTrace
10
-45
20
-81.478634
30
0
11
-41.500002
21
-81.01785
31
0
12
-41.499998
22
-81.939417
32
0
13
-41.499998
23
-81.939417
33
0
39
0
210
0
220
0
230
1
0
SOLID
5
142
100
AcDbEntity
8
2
62
256
6
ByLayer
370
18
48
1
60
0
100
AcDbTrace
10
73
20
-81.478634
30
0
11
69.500002
21
-81.939417
31
0
12
69.499998
22
-81.01785
32
0
13
69.499998
23
-81.01785
33
0
39
0
210
0
220
0
230
1
0
ENDBLK
5
144
100
AcDbEntity
8
0
100
AcDbBlockEnd
0
BLOCK
5
149
100
AcDbEntity
8
0
100
AcDbBlockBegin
2
*D3
70
1
10
0
20
0
30
0
3
*D3
0
LINE
5
14B
100
AcDbEntity
8
0
62
256
6
ByLayer
370
-2
48
1
60
0
100
AcDbLine
10
73
20
-7.1425
30
0
11
73
21
-63.478634
31
0
39
0
210
0
220
0
230
1
0
LINE
5
14C
100
AcDbEntity
8
0
62
256
6
ByLayer
370
-2
48
1
60
0
100
AcDbLine
10
2
20
-7.1425
30
0
11
2
21
-63.478634
31
0
39
0
210
0
220
0
230
1
0
LINE
5
14D
100
AcDbEntity
8
0
62
256
6
ByLayer
370
-2
48
1
60
0
100
AcDbLine
10
69.5
20
-61.478634
30
0
11
5.5
21
-61.478634
31
0
39
0
210
0
220
0
230
1
0
SOLID
5
14E
100
AcDbEntity
8
0
62
256
6
ByLayer
370
-1
48
1
60
0
100
AcDbTrace
10
69.5
20
-62.061967
30
0
11
69.5
21
-60.8953
31
0
12
73
22
-61.478634
32
0
13
73
23
-61.478634
33
0
39
0
210
0
220
0
230
1
0
SOLID
5
14F
100
AcDbEntity
8
0
62
256
6
ByLayer
370
-1
48
1
60
0
100
AcDbTrace
10
5.5
20
-60.8953
30
0
11
5.5
21
-62.061967
31
0
12
2
22
-61.478634
32
0
13
2
23
-61.478634
33
0
39
0
210
0
220
0
230
1
0
MTEXT
5
150
100
AcDbEntity
8
0
62
256
6
ByLayer
370
18
48
1
60
0
100
AcDbMText
10
37.5
20
-54.478634
30
0
210
0
220
0
230
1
1
\A1;71
40
3.5
41
0
44
1
50
0
71
5
72
5
7
iso_b_vert
0
POINT
5
151
100
AcDbEntity
8
Defpoints
62
0
6
ByLayer
370
-1
48
1
60
0
100
AcDbPoint
10
73
20
-5.555
30
0
39
0
210
0
220
0
230
1
50
360
0
POINT
5
152
100
AcDbEntity
8
Defpoints
62
0
6
ByLayer
370
-1
48
1
60
0
100
AcDbPoint
10
2
20
-5.555
30
0
39
0
210
0
220
0
230
1
50
360
0
POINT
5
153
100
AcDbEntity
8
Defpoints
62
0
6
ByLayer
370
-1
48
1
60
0
100
AcDbPoint
10
2
20
-61.478634
30
0
39
0
210
0
220
0
230
1
50
360
0
ENDBLK
5
14A
100
AcDbEntity
8
0
100
AcDbBlockEnd
0
BLOCK
5
15B
100
AcDbEntity
8
0
100
AcDbBlockBegin
2
_U1
70
0
10
0
20
0
30
0
3
_U1
0
MTEXT
5
155
100
AcDbEntity
8
SK2
62
256
6
ByLayer
370
18
48
1
60
0
100
AcDbMText
10
36.032467
20
-60.446
30
0
210
0
220
0
230
1
1
\W0.6351;71
40
3.5
41
0
44
1.084337
50
0
71
7
72
5
7
iso_b_vert
0
LINE
5
156
100
AcDbEntity
8
SK2
62
256
6
ByLayer
370
13
48
1
60
0
100
AcDbLine
10
73
20
-7.1425
30
0
11
73
21
-63.478634
31
0
39
0
210
0
220
0
230
1
0
LINE
5
157
100
AcDbEntity
8
SK2
62
256
6
ByLayer
370
13
48
1
60
0
100
AcDbLine
10
2
20
-7.1425
30
0
11
2
21
-63.478634
31
0
39
0
210
0
220
0
230
1
0
LINE
5
158
100
AcDbEntity
8
SK2
62
256
6
ByLayer
370
13
48
1
60
0
100
AcDbLine
10
73
20
-61.478634
30
0
11
2
21
-61.478634
31
0
39
0
210
0
220
0
230
1
0
SOLID
5
159
100
AcDbEntity
8
SK2
62
256
6
ByLayer
370
18
48
1
60
0
100
AcDbTrace
10
73
20
-61.478634
30
0
11
69.500002
21
-61.939417
31
0
12
69.499998
22
-61.01785
32
0
13
69.499998
23
-61.01785
33
0
39
0
210
0
220
0
230
1
0
SOLID
5
15A
100
AcDbEntity
8
SK2
62
256
6
ByLayer
370
18
48
1
60
0
100
AcDbTrace
10
2
20
-61.478634
30
0
11
5.499998
21
-61.01785
31
0
12
5.500002
22
-61.939417
32
0
13
5.500002
23
-61.939417
33
0
39
0
210
0
220
0
230
1
0
ENDBLK
5
15C
100
AcDbEntity
8
0
100
AcDbBlockEnd
0
BLOCK
5
161
100
AcDbEntity
8
0
100
AcDbBlockBegin
2
*D5
70
1
10
0
20
0
30
0
3
*D5
0
LINE
5
163
100
AcDbEntity
8
0
62
256
6
ByLayer
370
-2
48
1
60
0
100
AcDbLine
10
73
20
-7.1425
30
0
11
73
21
-53.478634
31
0
39
0
210
0
220
0
230
1
0
LINE
5
164
100
AcDbEntity
8
0
62
256
6
ByLayer
370
-2
48
1
60
0
100
AcDbLine
10
17
20
-7.1425
30
0
11
17
21
-53.478634
31
0
39
0
210
0
220
0
230
1
0
LINE
5
165
100
AcDbEntity
8
0
62
256
6
ByLayer
370
-2
48
1
60
0
100
AcDbLine
10
69.5
20
-51.478634
30
0
11
20.5
21
-51.478634
31
0
39
0
210
0
220
0
230
1
0
SOLID
5
166
100
AcDbEntity
8
0
62
256
6
ByLayer
370
-1
48
1
60
0
100
AcDbTrace
10
69.5
20
-52.061967
30
0
11
69.5
21
-50.8953
31
0
12
73
22
-51.478634
32
0
13
73
23
-51.478634
33
0
39
0
210
0
220
0
230
1
0
SOLID
5
167
100
AcDbEntity
8
0
62
256
6
ByLayer
370
-1
48
1
60
0
100
AcDbTrace
10
20.5
20
-50.8953
30
0
11
20.5
21
-52.061967
31
0
12
17
22
-51.478634
32
0
13
17
23
-51.478634
33
0
39
0
210
0
220
0
230
1
0
MTEXT
5
168
100
AcDbEntity
8
0
62
256
6
ByLayer
370
18
48
1
60
0
100
AcDbMText
10
45
20
-44.478634
30
0
210
0
220
0
230
1
1
\A1;56
40
3.5
41
0
44
1
50
0
71
5
72
5
7
iso_b_vert
0
POINT
5
169
100
AcDbEntity
8
Defpoints
62
0
6
ByLayer
370
-1
48
1
60
0
100
AcDbPoint
10
73
20
-5.555
30
0
39
0
210
0
220
0
230
1
50
360
0
POINT
5
16A
100
AcDbEntity
8
Defpoints
62
0
6
ByLayer
370
-1
48
1
60
0
100
AcDbPoint
10
17
20
-5.555
30
0
39
0
210
0
220
0
230
1
50
360
0
POINT
5
16B
100
AcDbEntity
8
Defpoints
62
0
6
ByLayer
370
-1
48
1
60
0
100
AcDbPoint
10
17
20
-51.478634
30
0
39
0
210
0
220
0
230
1
50
360
0
ENDBLK
5
162
100
AcDbEntity
8
0
100
AcDbBlockEnd
0
BLOCK
5
175
100
AcDbEntity
8
0
100
AcDbBlockBegin
2
_U2
70
0
10
0
20
0
30
0
3
_U2
0
MTEXT
5
16D
100
AcDbEntity
8
SK2
62
256
6
ByLayer
370
18
48
1
60
0
100
AcDbMText
10
43.095034
20
-50.446
30
0
210
0
220
0
230
1
1
\W0.6740;56
40
3.5
41
0
44
1.084337
50
0
71
7
72
5
7
iso_b_vert
0
MTEXT
5
16E
100
AcDbEntity
8
SK2
62
256
6
ByLayer
370
18
48
1
60
0
100
AcDbMText
10
39.227034
20
-50.446
30
0
210
0
220
0
230
1
1
\W0.1790;(
40
3.5
41
0
44
1.084337
50
0
71
7
72
5
7
iso_b_vert
0
MTEXT
5
16F
100
AcDbEntity
8
SK2
62
256
6
ByLayer
370
18
48
1
60
0
100
AcDbMText
10
50.775966
20
-50.446
30
0
210
0
220
0
230
1
1
\W0.1969;)
40
3.5
41
0
44
1.084337
50
0
71
7
72
5
7
iso_b_vert
0
LINE
5
170
100
AcDbEntity
8
SK2
62
256
6
ByLayer
370
13
48
1
60
0
100
AcDbLine
10
73
20
-7.1425
30
0
11
73
21
-53.478634
31
0
39
0
210
0
220
0
230
1
0
LINE
5
171
100
AcDbEntity
8
SK2
62
256
6
ByLayer
370
13
48
1
60
0
100
AcDbLine
10
17
20
-7.1425
30
0
11
17
21
-53.478634
31
0
39
0
210
0
220
0
230
1
0
LINE
5
172
100
AcDbEntity
8
SK2
62
256
6
ByLayer
370
13
48
1
60
0
100
AcDbLine
10
73
20
-51.478634
30
0
11
17
21
-51.478634
31
0
39
0
210
0
220
0
230
1
0
SOLID
5
173
100
AcDbEntity
8
SK2
62
256
6
ByLayer
370
18
48
1
60
0
100
AcDbTrace
10
73
20
-51.478634
30
0
11
69.500002
21
-51.939417
31
0
12
69.499998
22
-51.01785
32
0
13
69.499998
23
-51.01785
33
0
39
0
210
0
220
0
230
1
0
SOLID
5
174
100
AcDbEntity
8
SK2
62
256
6
ByLayer
370
18
48
1
60
0
100
AcDbTrace
10
17
20
-51.478634
30
0
11
20.499998
21
-51.01785
31
0
12
20.500002
22
-51.939417
32
0
13
20.500002
23
-51.939417
33
0
39
0
210
0
220
0
230
1
0
ENDBLK
5
176
100
AcDbEntity
8
0
100
AcDbBlockEnd
0
BLOCK
5
17B
100
AcDbEntity
8
0
100
AcDbBlockBegin
2
*D7
70
1
10
0
20
0
30
0
3
*D7
0
LINE
5
17D
100
AcDbEntity
8
0
62
256
6
ByLayer
370
-2
48
1
60
0
100
AcDbLine
10
-45
20
-7.5875
30
0
11
-45
21
-63.478634
31
0
39
0
210
0
220
0
230
1
0
LINE
5
17E
100
AcDbEntity
8
0
62
256
6
ByLayer
370
-2
48
1
60
0
100
AcDbLine
10
0
20
-7.5875
30
0
11
0
21
-63.478634
31
0
39
0
210
0
220
0
230
1
0
LINE
5
17F
100
AcDbEntity
8
0
62
256
6
ByLayer
370
-2
48
1
60
0
100
AcDbLine
10
-41.5
20
-61.478634
30
0
11
-3.5
21
-61.478634
31
0
39
0
210
0
220
0
230
1
0
SOLID
5
180
100
AcDbEntity
8
0
62
256
6
ByLayer
370
-1
48
1
60
0
100
AcDbTrace
10
-41.5
20
-60.8953
30
0
11
-41.5
21
-62.061967
31
0
12
-45
22
-61.478634
32
0
13
-45
23
-61.478634
33
0
39
0
210
0
220
0
230
1
0
SOLID
5
181
100
AcDbEntity
8
0
62
256
6
ByLayer
370
-1
48
1
60
0
100
AcDbTrace
10
-3.5
20
-62.061967
30
0
11
-3.5
21
-60.8953
31
0
12
0
22
-61.478634
32
0
13
0
23
-61.478634
33
0
39
0
210
0
220
0
230
1
0
MTEXT
5
182
100
AcDbEntity
8
0
62
256
6
ByLayer
370
18
48
1
60
0
100
AcDbMText
10
-22.5
20
-54.478634
30
0
210
0
220
0
230
1
1
\A1;45
40
3.5
41
0
44
1
50
0
71
5
72
5
7
iso_b_vert
0
POINT
5
183
100
AcDbEntity
8
Defpoints
62
0
6
ByLayer
370
-1
48
1
60
0
100
AcDbPoint
10
-45
20
-6
30
0
39
0
210
0
220
0
230
1
50
360
0
POINT
5
184
100
AcDbEntity
8
Defpoints
62
0
6
ByLayer
370
-1
48
1
60
0
100
AcDbPoint
10
0
20
-6
30
0
39
0
210
0
220
0
230
1
50
360
0
POINT
5
185
100
AcDbEntity
8
Defpoints
62
0
6
ByLayer
370
-1
48
1
60
0
100
AcDbPoint
10
0
20
-61.478634
30
0
39
0
210
0
220
0
230
1
50
360
0
ENDBLK
5
17C
100
AcDbEntity
8
0
100
AcDbBlockEnd
0
BLOCK
5
18D
100
AcDbEntity
8
0
100
AcDbBlockBegin
2
_U3
70
0
10
0
20
0
30
0
3
_U3
0
MTEXT
5
187
100
AcDbEntity
8
SK2
62
256
6
ByLayer
370
18
48
1
60
0
100
AcDbMText
10
-24.589233
20
-60.446
30
0
210
0
220
0
230
1
1
\W0.7361;45
40
3.5
41
0
44
1.084337
50
0
71
7
72
5
7
iso_b_vert
0
LINE
5
188
100
AcDbEntity
8
SK2
62
256
6
ByLayer
370
13
48
1
60
0
100
AcDbLine
10
-45
20
-7.5875
30
0
11
-45
21
-63.478634
31
0
39
0
210
0
220
0
230
1
0
LINE
5
189
100
AcDbEntity
8
SK2
62
256
6
ByLayer
370
13
48
1
60
0
100
AcDbLine
10
0
20
-7.5875
30
0
11
0
21
-63.478634
31
0
39
0
210
0
220
0
230
1
0
LINE
5
18A
100
AcDbEntity
8
SK2
62
256
6
ByLayer
370
13
48
1
60
0
100
AcDbLine
10
-45
20
-61.478634
30
0
11
0
21
-61.478634
31
0
39
0
210
0
220
0
230
1
0
SOLID
5
18B
100
AcDbEntity
8
SK2
62
256
6
ByLayer
370
18
48
1
60
0
100
AcDbTrace
10
-45
20
-61.478634
30
0
11
-41.500002
21
-61.01785
31
0
12
-41.499998
22
-61.939417
32
0
13
-41.499998
23
-61.939417
33
0
39
0
210
0
220
0
230
1
0
SOLID
5
18C
100
AcDbEntity
8
SK2
62
256
6
ByLayer
370
18
48
1
60
0
100
AcDbTrace
10
0
20
-61.478634
30
0
11
-3.499998
21
-61.939417
31
0
12
-3.500002
22
-61.01785
32
0
13
-3.500002
23
-61.01785
33
0
39
0
210
0
220
0
230
1
0
ENDBLK
5
18E
100
AcDbEntity
8
0
100
AcDbBlockEnd
0
BLOCK
5
193
100
AcDbEntity
8
0
100
AcDbBlockBegin
2
*D9
70
1
10
0
20
0
30
0
3
*D9
0
LINE
5
195
100
AcDbEntity
8
0
62
256
6
ByLayer
370
-2
48
1
60
0
100
AcDbLine
10
0
20
-7.5875
30
0
11
0
21
-73.478634
31
0
39
0
210
0
220
0
230
1
0
LINE
5
196
100
AcDbEntity
8
0
62
256
6
ByLayer
370
-2
48
1
60
0
100
AcDbLine
10
73
20
-7.1425
30
0
11
73
21
-73.478634
31
0
39
0
210
0
220
0
230
1
0
LINE
5
197
100
AcDbEntity
8
0
62
256
6
ByLayer
370
-2
48
1
60
0
100
AcDbLine
10
3.5
20
-71.478634
30
0
11
69.5
21
-71.478634
31
0
39
0
210
0
220
0
230
1
0
SOLID
5
198
100
AcDbEntity
8
0
62
256
6
ByLayer
370
-1
48
1
60
0
100
AcDbTrace
10
3.5
20
-70.8953
30
0
11
3.5
21
-72.061967
31
0
12
0
22
-71.478634
32
0
13
0
23
-71.478634
33
0
39
0
210
0
220
0
230
1
0
SOLID
5
199
100
AcDbEntity
8
0
62
256
6
ByLayer
370
-1
48
1
60
0
100
AcDbTrace
10
69.5
20
-72.061967
30
0
11
69.5
21
-70.8953
31
0
12
73
22
-71.478634
32
0
13
73
23
-71.478634
33
0
39
0
210
0
220
0
230
1
0
MTEXT
5
19A
100
AcDbEntity
8
0
62
256
6
ByLayer
370
18
48
1
60
0
100
AcDbMText
10
36.5
20
-64.478634
30
0
210
0
220
0
230
1
1
\A1;73
40
3.5
41
0
44
1
50
0
71
5
72
5
7
iso_b_vert
0
POINT
5
19B
100
AcDbEntity
8
Defpoints
62
0
6
ByLayer
370
-1
48
1
60
0
100
AcDbPoint
10
0
20
-6
30
0
39
0
210
0
220
0
230
1
50
360
0
POINT
5
19C
100
AcDbEntity
8
Defpoints
62
0
6
ByLayer
370
-1
48
1
60
0
100
AcDbPoint
10
73
20
-5.555
30
0
39
0
210
0
220
0
230
1
50
360
0
POINT
5
19D
100
AcDbEntity
8
Defpoints
62
0
6
ByLayer
370
-1
48
1
60
0
100
AcDbPoint
10
73
20
-71.478634
30
0
39
0
210
0
220
0
230
1
50
360
0
ENDBLK
5
194
100
AcDbEntity
8
0
100
AcDbBlockEnd
0
BLOCK
5
1A5
100
AcDbEntity
8
0
100
AcDbBlockBegin
2
_U4
70
0
10
0
20
0
30
0
3
_U4
0
MTEXT
5
19F
100
AcDbEntity
8
SK2
62
256
6
ByLayer
370
18
48
1
60
0
100
AcDbMText
10
34.595034
20
-70.446
30
0
210
0
220
0
230
1
1
\W0.6740;73
40
3.5
41
0
44
1.084337
50
0
71
7
72
5
7
iso_b_vert
0
LINE
5
1A0
100
AcDbEntity
8
SK2
62
256
6
ByLayer
370
13
48
1
60
0
100
AcDbLine
10
0
20
-7.5875
30
0
11
0
21
-73.478634
31
0
39
0
210
0
220
0
230
1
0
LINE
5
1A1
100
AcDbEntity
8
SK2
62
256
6
ByLayer
370
13
48
1
60
0
100
AcDbLine
10
73
20
-7.1425
30
0
11
73
21
-73.478634
31
0
39
0
210
0
220
0
230
1
0
LINE
5
1A2
100
AcDbEntity
8
SK2
62
256
6
ByLayer
370
13
48
1
60
0
100
AcDbLine
10
0
20
-71.478634
30
0
11
73
21
-71.478634
31
0
39
0
210
0
220
0
230
1
0
SOLID
5
1A3
100
AcDbEntity
8
SK2
62
256
6
ByLayer
370
18
48
1
60
0
100
AcDbTrace
10
0
20
-71.478634
30
0
11
3.499998
21
-71.01785
31
0
12
3.500002
22
-71.939417
32
0
13
3.500002
23
-71.939417
33
0
39
0
210
0
220
0
230
1
0
SOLID
5
1A4
100
AcDbEntity
8
SK2
62
256
6
ByLayer
370
18
48
1
60
0
100
AcDbTrace
10
73
20
-71.478634
30
0
11
69.500002
21
-71.939417
31
0
12
69.499998
22
-71.01785
32
0
13
69.499998
23
-71.01785
33
0
39
0
210
0
220
0
230
1
0
ENDBLK
5
1A6
100
AcDbEntity
8
0
100
AcDbBlockEnd
0
ENDSEC
0
SECTION
2
ENTITIES
0
ARC
5
BD
100
AcDbEntity
8
1
62
256
6
ByLayer
370
18
48
1
60
0
100
AcDbCircle
39
0
10
1.15108
20
6.311357
30
0
40
0.799999999999998
210
0
220
0
230
1
100
AcDbArc
50
224.352224
51
270.03581
0
ARC
5
BE
100
AcDbEntity
8
1
62
256
6
ByLayer
370
18
48
1
60
0
100
AcDbCircle
39
0
10
1.15108
20
-6.311357
30
0
40
0.799999999999998
210
0
220
0
230
1
100
AcDbArc
50
89.96419
51
135.647776
0
ARC
5
BF
100
AcDbEntity
8
1
62
256
6
ByLayer
370
18
48
1
60
0
100
AcDbCircle
39
0
10
0
20
5.2
30
0
40
0.800000000000005
210
0
220
0
230
1
100
AcDbArc
50
44.352224
51
90
0
ARC
5
C0
100
AcDbEntity
8
1
62
256
6
ByLayer
370
18
48
1
60
0
100
AcDbCircle
39
0
10
0
20
-5.2
30
0
40
0.800000000000005
210
0
220
0
230
1
100
AcDbArc
50
270
51
315.647776
0
ARC
5
C1
100
AcDbEntity
8
SK2
62
256
6
ByLayer
370
13
48
1
60
0
100
AcDbCircle
39
0
10
73
20
0
30
0
40
33.5354631657617
210
0
220
0
230
1
100
AcDbArc
50
5.561396
51
69.998676
0
ARC
5
C2
100
AcDbEntity
8
SK2
62
256
6
ByLayer
370
13
48
1
60
0
100
AcDbCircle
39
0
10
73
20
0
30
0
40
33.5354631657617
210
0
220
0
230
1
100
AcDbArc
50
290.001324
51
354.438604
0
ELLIPSE
5
C3
100
AcDbEntity
8
1
62
256
6
ByLayer
370
13
48
1
60
0
100
AcDbEllipse
10
3.681313
20
-5.027895
30
0
11
0.0296456668699951
21
-0.0955046304418444
31
0
210
0
220
0
230
1
40
0.528825
41
-2.77465381925122
42
-1.42852394950023
0
ELLIPSE
5
C4
100
AcDbEntity
8
1
62
256
6
ByLayer
370
13
48
1
60
0
100
AcDbEllipse
10
3.750193
20
-5.024164
30
0
11
-0.0171343054909893
21
-0.0985211427833714
31
0
210
0
220
0
230
1
40
0.4298
41
-2.7599116073773
42
-1.20340697274495
0
POINT
5
70
100
AcDbEntity
8
80
62
256
6
ByLayer
370
18
48
1
60
0
100
AcDbPoint
10
0
20
0
30
0
39
0
210
0
220
0
230
1
50
360
0
POINT
5
72
100
AcDbEntity
8
81
62
256
6
ByLayer
370
18
48
1
60
0
100
AcDbPoint
10
73
20
0
30
0
39
0
210
0
220
0
230
1
50
360
0
POINT
5
74
100
AcDbEntity
8
1
62
256
6
ByLayer
370
18
48
1
60
0
100
AcDbPoint
10
-203.907268
20
-206.255912
30
0
39
0
210
0
220
0
230
1
50
360
0
POINT
5
76
100
AcDbEntity
8
1
62
256
6
ByLayer
370
13
48
1
60
1
100
AcDbPoint
10
-46.5
20
0
30
0
39
0
210
0
220
0
230
1
50
360
0
POINT
5
77
100
AcDbEntity
8
1
62
256
6
ByLayer
370
13
48
1
60
1
100
AcDbPoint
10
72.540609
20
0
30
0
39
0
210
0
220
0
230
1
50
360
0
POINT
5
78
100
AcDbEntity
8
1
62
256
6
ByLayer
370
18
48
1
60
1
100
AcDbPoint
10
-45
20
-6
30
0
39
0
210
0
220
0
230
1
50
360
0
POINT
5
79
100
AcDbEntity
8
1
62
256
6
ByLayer
370
18
48
1
60
1
100
AcDbPoint
10
73
20
-5.555
30
0
39
0
210
0
220
0
230
1
50
360
0
POINT
5
7A
100
AcDbEntity
8
1
62
256
6
ByLayer
370
18
48
1
60
1
100
AcDbPoint
10
73
20
-5.555
30
0
39
0
210
0
220
0
230
1
50
360
0
POINT
5
7B
100
AcDbEntity
8
1
62
256
6
ByLayer
370
18
48
1
60
1
100
AcDbPoint
10
2
20
-5.555
30
0
39
0
210
0
220
0
230
1
50
360
0
POINT
5
7C
100
AcDbEntity
8
1
62
256
6
ByLayer
370
18
48
1
60
1
100
AcDbPoint
10
73
20
-5.555
30
0
39
0
210
0
220
0
230
1
50
360
0
POINT
5
7D
100
AcDbEntity
8
1
62
256
6
ByLayer
370
18
48
1
60
1
100
AcDbPoint
10
17
20
-5.555
30
0
39
0
210
0
220
0
230
1
50
360
0
POINT
5
7E
100
AcDbEntity
8
1
62
256
6
ByLayer
370
18
48
1
60
1
100
AcDbPoint
10
-45
20
-6
30
0
39
0
210
0
220
0
230
1
50
360
0
POINT
5
7F
100
AcDbEntity
8
1
62
256
6
ByLayer
370
18
48
1
60
1
100
AcDbPoint
10
0
20
-6
30
0
39
0
210
0
220
0
230
1
50
360
0
POINT
5
80
100
AcDbEntity
8
1
62
256
6
ByLayer
370
18
48
1
60
1
100
AcDbPoint
10
0
20
-6
30
0
39
0
210
0
220
0
230
1
50
360
0
POINT
5
81
100
AcDbEntity
8
1
62
256
6
ByLayer
370
18
48
1
60
1
100
AcDbPoint
10
73
20
-5.555
30
0
39
0
210
0
220
0
230
1
50
360
0
SPLINE
5
C5
100
AcDbEntity
8
1
62
256
6
ByLayer
370
18
48
1
60
0
100
AcDbSpline
70
4
71
3
72
8
73
4
40
0
40
0
40
0
40
0
40
1
40
1
40
1
40
1
41
1
10
3.50000000000003
20
2.3759820807216
30
0
41
1
10
3.50000000000003
20
2.3673304529178
30
0
41
1
10
3.50000000000003
20
2.35869235338902
30
0
41
1
10
3.50000000000003
20
2.35006779532844
30
0
0
SPLINE
5
C6
100
AcDbEntity
8
1
62
256
6
ByLayer
370
18
48
1
60
0
100
AcDbSpline
70
4
71
3
72
56
73
52
40
0
40
0
40
0
40
0
40
0.0549395597624758
40
0.0549395597624758
40
0.0706905670997679
40
0.0706905670997679
40
0.0864415744370601
40
0.0864415744370601
40
0.117943589111645
40
0.117943589111645
40
0.180947618460814
40
0.243951647809983
40
0.243951647809983
40
0.259702655147275
40
0.259702655147275
40
0.275453662484567
40
0.275453662484567
40
0.306955677159151
40
0.306955677159151
40
0.369959706508319
40
0.432963735857487
40
0.432963735857487
40
0.464465750532071
40
0.464465750532071
40
0.495967765206655
40
0.495967765206655
40
0.511718772543947
40
0.511718772543947
40
0.527469779881239
40
0.527469779881239
40
0.558971794555823
40
0.558971794555823
40
0.621975823904991
40
0.684979853254159
40
0.684979853254159
40
0.716481867928743
40
0.716481867928743
40
0.732232875266035
40
0.732232875266035
40
0.747983882603327
40
0.747983882603327
40
0.810987911952495
40
0.810987911952495
40
0.873991941301664
40
0.873991941301664
40
0.905493955976248
40
0.92124496331354
40
0.92124496331354
40
0.936995970650832
40
0.936995970650832
40
1
40
1
40
1
40
1
41
1
10
3.50000000000003
20
-5.07977191916626
30
0
41
1
10
3.50000000000003
20
-5.01747404527157
30
0
41
1
10
3.50000000000006
20
-4.94840637921473
30
0
41
1
10
3.50000000000003
20
-4.85084793956864
30
0
41
1
10
3.50000000000003
20
-4.82853091971594
30
0
41
1
10
3.50000000000006
20
-4.78290972874566
30
0
41
1
10
3.50000000000006
20
-4.75961046970383
30
0
41
1
10
3.50000000000006
20
-4.68826353279533
30
0
41
1
10
3.50000000000003
20
-4.63876769011364
30
0
41
1
10
3.50000000000003
20
-4.48458375025939
30
0
41
1
10
3.5
20
-4.26384402524036
30
0
41
1
10
3.50000000000003
20
-4.0130831153117
30
0
41
1
10
3.5
20
-3.84677210368011
30
0
41
1
10
3.5
20
-3.8130294101619
30
0
41
1
10
3.5
20
-3.74457295951163
30
0
41
1
10
3.50000000000003
20
-3.70982055698246
30
0
41
1
10
3.50000000000006
20
-3.60435832657131
30
0
41
1
10
3.50000000000008
20
-3.53271008198376
30
0
41
1
10
3.50000000000008
20
-3.31383102250297
30
0
41
1
10
3.49999999999997
20
-3.01152110988568
30
0
41
1
10
3.5
20
-2.6886625859924
30
0
41
1
10
3.5
20
-2.43871554657866
30
0
41
1
10
3.50000000000006
20
-2.3540968493389
30
0
41
1
10
3.50000000000008
20
-2.18220543165165
30
0
41
1
10
3.50000000000003
20
-2.09481901340902
30
0
41
1
10
3.50000000000003
20
-1.96257956661142
30
0
41
1
10
3.50000000000003
20
-1.91827786958285
30
0
41
1
10
3.50000000000003
20
-1.82923041922095
30
0
41
1
10
3.50000000000006
20
-1.78447742361297
30
0
41
1
10
3.50000000000006
20
-1.65001885383558
30
0
41
1
10
3.5
20
-1.55996058470558
30
0
41
1
10
3.5
20
-1.28855258745204
30
0
41
1
10
3.50000000000008
20
-0.923393110256171
30
0
41
1
10
3.50000000000003
20
-0.551768600798482
30
0
41
1
10
3.50000000000003
20
-0.270586100405353
30
0
41
1
10
3.50000000000003
20
-0.176447116395479
30
0
41
1
10
3.50000000000003
20
-0.0346088269920983
30
0
41
1
10
3.50000000000006
20
0.0128295624267309
30
0
41
1
10
3.50000000000003
20
0.107399687120477
30
0
41
1
10
3.50000000000008
20
0.154581999820152
30
0
41
1
10
3.50000000000006
20
0.389985510925811
30
0
41
1
10
3.50000000000003
20
0.576686657735621
30
0
41
1
10
3.50000000000003
20
0.94692353388993
30
0
41
1
10
3.50000000000003
20
1.13045912052826
30
0
41
1
10
3.5
20
1.40337092849722
30
0
41
1
10
3.5
20
1.5392277844295
30
0
41
1
10
3.50000000000003
20
1.67417194906756
30
0
41
1
10
3.50000000000003
20
1.76392953448209
30
0
41
1
10
3.50000000000003
20
1.80875596709421
30
0
41
1
10
3.50000000000003
20
2.0315909203822
30
0
41
1
10
3.50000000000003
20
2.20579799991543
30
0
41
1
10
3.50000000000003
20
2.3759820807216
30
0
0
SPLINE
5
C7
100
AcDbEntity
8
1
62
256
6
ByLayer
370
18
48
1
60
0
100
AcDbSpline
70
4
71
3
72
8
73
4
40
0
40
0
40
0
40
0
40
1
40
1
40
1
40
1
41
1
10
72.4919006971876
20
1.77154687280824
30
0
41
1
10
72.6643493691392
20
1.28498046606222
30
0
41
1
10
72.8320330835552
20
0.796703077785622
30
0
41
1
10
72.9948773679056
20
0.306687966685928
30
0
0
SPLINE
5
C8
100
AcDbEntity
8
1
62
256
6
ByLayer
370
13
48
1
60
0
100
AcDbSpline
70
4
71
3
72
21
73
17
40
0
40
0
40
0
40
0
40
0.250000000000001
40
0.250000000000001
40
0.375000000000001
40
0.375000000000001
40
0.500000000000002
40
0.625000000000002
40
0.625000000000002
40
0.750000000000003
40
0.750000000000003
40
0.875000000000003
40
0.875000000000003
40
0.937500000000002
40
0.937500000000002
40
1
40
1
40
1
40
1
41
1
10
3.63552151260177
20
-5.05695620019227
30
0
41
1
10
3.61357739810907
20
-5.05956616650343
30
0
41
1
10
3.59430375669655
20
-5.06277398039239
30
0
41
1
10
3.56883291297066
20
-5.06832898813244
30
0
41
1
10
3.56092954727973
20
-5.07031195991866
30
0
41
1
10
3.54672707134944
20
-5.07438845375921
30
0
41
1
10
3.5339785322189
20
-5.07860561248222
30
0
41
1
10
3.52395362886781
20
-5.08307885795142
30
0
41
1
10
3.51527732211358
20
-5.08767579877224
30
0
41
1
10
3.51163314626098
20
-5.09003086998246
30
0
41
1
10
3.50583015948507
20
-5.09476277677402
30
0
41
1
10
3.5036449102364
20
-5.09715656873553
30
0
41
1
10
3.50145758568212
20
-5.1007616723781
30
0
41
1
10
3.50091061991125
20
-5.10196488195049
30
0
41
1
10
3.50018128999838
20
-5.10437189610755
30
0
41
1
10
3.50000000000003
20
-5.10558210407902
30
0
41
1
10
3.50000000000003
20
-5.10676801204053
30
0
0
SPLINE
5
C9
100
AcDbEntity
8
1
62
256
6
ByLayer
370
18
48
1
60
0
100
AcDbSpline
70
4
71
3
72
26
73
22
40
0
40
0
40
0
40
0
40
0.500000000000006
40
0.500000000000006
40
0.750000000000026
40
0.750000000000026
40
0.875000000000021
40
0.875000000000021
40
0.93750000000002
40
0.93750000000002
40
0.953125000000006
40
0.953125000000006
40
0.968749999999991
40
0.968749999999991
40
0.984374999999977
40
0.984374999999977
40
0.992187499999969
40
0.992187499999969
40
0.996093749999985
40
0.996093749999985
40
1
40
1
40
1
40
1
41
1
10
70.9797744593042
20
5.55496641875482
30
0
41
1
10
70.9999451255275
20
5.50893679649263
30
0
41
1
10
71.020508867126
20
5.4629095803468
30
0
41
1
10
71.0519376259998
20
5.39385967684012
30
0
41
1
10
71.0625038968853
20
5.37086943599852
30
0
41
1
10
71.078478628197
20
5.33645922170868
30
0
41
1
10
71.0838316853585
20
5.3249726813747
30
0
41
1
10
71.0919368674947
20
5.30758084365505
30
0
41
1
10
71.0946648348041
20
5.30170146900136
30
0
41
1
10
71.098044455133
20
5.29450454208879
30
0
41
1
10
71.0987177627877
20
5.29307702555087
30
0
41
1
10
71.1000542617759
20
5.29026517596429
30
0
41
1
10
71.1007125066063
20
5.28890060851262
30
0
41
1
10
71.1020462026907
20
5.28610558078285
30
0
41
1
10
71.102729089898
20
5.28464858864521
30
0
41
1
10
71.1037863394203
20
5.28232032455682
30
0
41
1
10
71.1041456896458
20
5.28151386688896
30
0
41
1
10
71.1046690951846
20
5.28037118892522
30
0
41
1
10
71.1048414112151
20
5.27999941353599
30
0
41
1
10
71.1051649092318
20
5.27934470436529
30
0
41
1
10
71.1053224976439
20
5.27905801610615
30
0
41
1
10
71.1053674534114
20
5.27907894966711
30
0
0
SPLINE
5
CA
100
AcDbEntity
8
1
62
256
6
ByLayer
370
18
48
1
60
0
100
AcDbSpline
70
2053
71
3
72
118
73
114
40
0
40
0
40
0
40
0
40
0.0312500000000108
40
0.0312500000000108
40
0.0625000000000216
40
0.0625000000000216
40
0.0937500000000323
40
0.0937500000000323
40
0.109375000000037
40
0.109375000000037
40
0.125000000000041
40
0.125000000000041
40
0.156250000000049
40
0.156250000000049
40
0.187500000000057
40
0.187500000000057
40
0.218750000000065
40
0.218750000000065
40
0.23437500000007
40
0.23437500000007
40
0.242187500000072
40
0.242187500000072
40
0.250000000000074
40
0.250000000000074
40
0.281250000000081
40
0.281250000000081
40
0.296875000000085
40
0.296875000000085
40
0.304687500000087
40
0.304687500000087
40
0.312500000000089
40
0.312500000000089
40
0.343750000000097
40
0.343750000000097
40
0.351562500000098
40
0.351562500000098
40
0.3593750000001
40
0.3593750000001
40
0.375000000000103
40
0.390625000000107
40
0.390625000000107
40
0.398437500000109
40
0.398437500000109
40
0.406250000000111
40
0.406250000000111
40
0.437500000000114
40
0.437500000000114
40
0.445312500000113
40
0.445312500000113
40
0.453125000000113
40
0.468750000000109
40
0.484375000000106
40
0.484375000000106
40
0.492187500000104
40
0.492187500000104
40
0.500000000000102
40
0.500000000000102
40
0.531250000000089
40
0.531250000000089
40
0.546875000000083
40
0.546875000000083
40
0.562500000000077
40
0.562500000000077
40
0.593750000000064
40
0.593750000000064
40
0.609375000000058
40
0.609375000000058
40
0.625000000000052
40
0.625000000000052
40
0.656250000000039
40
0.656250000000039
40
0.664062500000037
40
0.664062500000037
40
0.671875000000035
40
0.671875000000035
40
0.687500000000033
40
0.687500000000033
40
0.718750000000029
40
0.718750000000029
40
0.734375000000026
40
0.734375000000026
40
0.750000000000023
40
0.76562500000002
40
0.76562500000002
40
0.773437500000019
40
0.773437500000019
40
0.781250000000017
40
0.781250000000017
40
0.812500000000011
40
0.812500000000011
40
0.82031250000001
40
0.82031250000001
40
0.828125000000008
40
0.828125000000008
40
0.843750000000007
40
0.859375000000005
40
0.859375000000005
40
0.867187500000004
40
0.867187500000004
40
0.875000000000003
40
0.875000000000003
40
0.906250000000002
40
0.906250000000002
40
0.937500000000002
40
0.937500000000002
40
0.953125000000001
40
0.953125000000001
40
0.968750000000001
40
0.984375
40
0.984375
40
0.9921875
40
0.9921875
40
1
40
1
40
1
40
1
41
1
10
71.4422559062471
20
-2.52026809879424
30
0
41
1
10
71.4216494511932
20
-2.54710482027363
30
0
41
1
10
71.401765579895
20
-2.56907627599907
30
0
41
1
10
71.3631468239501
20
-2.60396342639496
30
0
41
1
10
71.3443987502439
20
-2.61688059666628
30
0
41
1
10
71.3078700021958
20
-2.63331353257973
30
0
41
1
10
71.2905706219845
20
-2.63661793262554
30
0
41
1
10
71.2657763979851
20
-2.63447444305112
30
0
41
1
10
71.2577055270794
20
-2.63256926230514
30
0
41
1
10
71.2419169884353
20
-2.6263365483521
30
0
41
1
10
71.2341866384816
20
-2.62199972727643
30
0
41
1
10
71.2115658428159
20
-2.60526448876087
30
0
41
1
10
71.1975629037651
20
-2.58942945324003
30
0
41
1
10
71.1713863788028
20
-2.54857043176796
30
0
41
1
10
71.1592050401651
20
-2.52353184379882
30
0
41
1
10
71.1366372881056
20
-2.46358327383311
30
0
41
1
10
71.1265913050614
20
-2.42959106969477
30
0
41
1
10
71.1133033284334
20
-2.37258945421596
30
0
41
1
10
71.1091738595058
20
-2.35258017033939
30
0
41
1
10
71.1034494984247
20
-2.32098943119749
30
0
41
1
10
71.1016199035702
20
-2.31019589101592
30
0
41
1
10
71.0981240491032
20
-2.28806492245459
30
0
41
1
10
71.0964540963503
20
-2.27669997046726
30
0
41
1
10
71.0885773653182
20
-2.21878122439466
30
0
41
1
10
71.0838560515798
20
-2.16969973379949
30
0
41
1
10
71.0793565185997
20
-2.09187535434106
30
0
41
1
10
71.0782913271617
20
-2.06522830203539
30
0
41
1
10
71.0774183776526
20
-2.02413362178325
30
0
41
1
10
71.0772485666617
20
-2.01024761433223
30
0
41
1
10
71.0771686244265
20
-1.98208303570826
30
0
41
1
10
71.0772594626264
20
-1.96788085740306
30
0
41
1
10
71.078379192571
20
-1.89683160357924
30
0
41
1
10
71.081374996927
20
-1.8393303999535
30
0
41
1
10
71.0881535606682
20
-1.76661589176018
30
0
41
1
10
71.089662738595
20
-1.75203064088922
30
0
41
1
10
71.0930060858398
20
-1.72277325921226
30
0
41
1
10
71.0948484929311
20
-1.70804462028335
30
0
41
1
10
71.1008168064483
20
-1.66428261364285
30
0
41
1
10
71.1099499375496
20
-1.60694836780311
30
0
41
1
10
71.1214799541671
20
-1.55160430552664
30
0
41
1
10
71.131068197405
20
-1.51085149058409
30
0
41
1
10
71.1344213211175
20
-1.49739333424537
30
0
41
1
10
71.1414518775622
20
-1.47073374617895
30
0
41
1
10
71.1451310346308
20
-1.45753287958664
30
0
41
1
10
71.1640854749158
20
-1.39308663082628
30
0
41
1
10
71.1812193537933
20
-1.34570603165568
30
0
41
1
10
71.2050268967083
20
-1.29131277481653
30
0
41
1
10
71.2099222841077
20
-1.28065039303229
30
0
41
1
10
71.219883363256
20
-1.25995808936042
30
0
41
1
10
71.2350566386408
20
-1.22991363145726
30
0
41
1
10
71.2614540542988
20
-1.18456126956329
30
0
41
1
10
71.283677266716
20
-1.15299565842713
30
0
41
1
10
71.3007370494842
20
-1.13102362125554
30
0
41
1
10
71.3064967200318
20
-1.12397644754861
30
0
41
1
10
71.3180414133948
20
-1.11055883490565
30
0
41
1
10
71.3238379337676
20
-1.10417259857724
30
0
41
1
10
71.3529311123723
20
-1.07378784372145
30
0
41
1
10
71.3765586324488
20
-1.05438388473351
30
0
41
1
10
71.4123469390352
20
-1.0319565199064
30
0
41
1
10
71.4243679677464
20
-1.025594474576
30
0
41
1
10
71.4481533869553
20
-1.01522014928966
30
0
41
1
10
71.4599537266891
20
-1.01117918023201
30
0
41
1
10
71.4950452594045
20
-1.00233290038273
30
0
41
1
10
71.5180304030224
20
-1.00077652352314
30
0
41
1
10
71.5517097619396
20
-1.00485396522078
30
0
41
1
10
71.5628143175615
20
-1.00730253449552
30
0
41
1
10
71.5843840582163
20
-1.01427743377641
30
0
41
1
10
71.5948925856134
20
-1.01880523606133
30
0
41
1
10
71.6255496754152
20
-1.03547943077172
30
0
41
1
10
71.6448379212978
20
-1.05068656679316
30
0
41
1
10
71.6672720777699
20
-1.07513667908353
30
0
41
1
10
71.671674453045
20
-1.08030116080485
30
0
41
1
10
71.6803014043418
20
-1.09119768242004
30
0
41
1
10
71.684535152181
20
-1.09694352973372
30
0
41
1
10
71.6968792014468
20
-1.11495611982863
30
0
41
1
10
71.7046213541265
20
-1.12796993153648
30
0
41
1
10
71.7263259935957
20
-1.1700899040016
30
0
41
1
10
71.7387823871393
20
-1.20223681907265
30
0
41
1
10
71.7539700128773
20
-1.25739000654838
30
0
41
1
10
71.7584581909432
20
-1.27704171997775
30
0
41
1
10
71.7659838802001
20
-1.31803441879813
30
0
41
1
10
71.7721097561595
20
-1.3608422109904
30
0
41
1
10
71.7753449985858
20
-1.40742979241975
30
0
41
1
10
71.7766242884491
20
-1.4438938568602
30
0
41
1
10
71.7768592063296
20
-1.45630299427717
30
0
41
1
10
71.7769309183537
20
-1.48165569161543
30
0
41
1
10
71.7767667165389
20
-1.49450915326798
30
0
41
1
10
71.7749627588982
20
-1.55932619242697
30
0
41
1
10
71.7704006203558
20
-1.61325436118699
30
0
41
1
10
71.7608494937936
20
-1.68341852418294
30
0
41
1
10
71.7587452564946
20
-1.69759046904599
30
0
41
1
10
71.7541432186994
20
-1.72622279521462
30
0
41
1
10
71.7516529051873
20
-1.74062878096092
30
0
41
1
10
71.7437150648189
20
-1.78364242925966
30
0
41
1
10
71.7318305448703
20
-1.84082236107648
30
0
41
1
10
71.7175405782043
20
-1.89769654724893
30
0
41
1
10
71.7059626259183
20
-1.94024743660114
30
0
41
1
10
71.7019456097014
20
-1.95446003919318
30
0
41
1
10
71.693713304562
20
-1.98256255023071
30
0
41
1
10
71.6894977408294
20
-1.99645807254811
30
0
41
1
10
71.6679568226125
20
-2.0651892752729
30
0
41
1
10
71.6492629343852
20
-2.11781304645049
30
0
41
1
10
71.6094504247063
20
-2.21868485603051
30
0
41
1
10
71.5889579174953
20
-2.26534519808135
30
0
41
1
10
71.5576490425776
20
-2.33014414971166
30
0
41
1
10
71.5470994529615
20
-2.35090131212868
30
0
41
1
10
71.5258566621907
20
-2.39061328677977
30
0
41
1
10
71.5047215762133
20
-2.42805898112559
30
0
41
1
10
71.4837929367547
20
-2.4612274611525
30
0
41
1
10
71.4681666607244
20
-2.48454126263505
30
0
41
1
10
71.4629695635852
20
-2.49205158117707
30
0
41
1
10
71.4525970096049
20
-2.50655127118887
30
0
41
1
10
71.4474075200106
20
-2.51355891842439
30
0
41
1
10
71.4422559062471
20
-2.52026809879424
30
0
0
SPLINE
5
CB
100
AcDbEntity
8
1
62
256
6
ByLayer
370
18
48
1
60
0
100
AcDbSpline
70
4
71
3
72
8
73
4
40
0
40
0
40
0
40
0
40
1
40
1
40
1
40
1
41
1
10
72.4919006971876
20
-1.77154687280824
30
0
41
1
10
72.6643493691418
20
-1.28498046605486
30
0
41
1
10
72.8320330835602
20
-0.796703077770871
30
0
41
1
10
72.994877367913
20
-0.30668796666373
30
0
0
SPLINE
5
CC
100
AcDbEntity
8
1
62
256
6
ByLayer
370
18
48
1
60
0
100
AcDbSpline
70
4
71
3
72
8
73
4
40
0
40
0
40
0
40
0
40
1
40
1
40
1
40
1
41
1
10
72.9948773679056
20
0.306687966685928
30
0
41
1
10
73.0017138062962
20
0.102041863734627
30
0
41
1
10
73.0017012932251
20
-0.102416437602869
30
0
41
1
10
72.9948773679061
20
-0.306687966670239
30
0
0
SPLINE
5
CD
100
AcDbEntity
8
1
62
256
6
ByLayer
370
18
48
1
60
0
100
AcDbSpline
70
4
71
3
72
8
73
4
40
0
40
0
40
0
40
0
40
1
40
1
40
1
40
1
41
1
10
72.9948773679056
20
0.306687966685899
30
0
41
1
10
72.9708829586274
20
0.226712742120782
30
0
41
1
10
72.9467687407264
20
0.146774443311983
30
0
41
1
10
72.9225351580705
20
0.0668729334567502
30
0
0
SPLINE
5
CE
100
AcDbEntity
8
1
62
256
6
ByLayer
370
18
48
1
60
0
100
AcDbSpline
70
4
71
3
72
55
73
51
40
0
40
0
40
0
40
0
40
0.062499999999984
40
0.062499999999984
40
0.124999999999968
40
0.124999999999968
40
0.156249999999964
40
0.156249999999964
40
0.171874999999965
40
0.171874999999965
40
0.187499999999967
40
0.249999999999965
40
0.249999999999965
40
0.312499999999963
40
0.312499999999963
40
0.343749999999967
40
0.343749999999967
40
0.37499999999997
40
0.37499999999997
40
0.437499999999969
40
0.437499999999969
40
0.468749999999963
40
0.468749999999963
40
0.48437499999996
40
0.48437499999996
40
0.499999999999957
40
0.499999999999957
40
0.562499999999955
40
0.562499999999955
40
0.593749999999954
40
0.593749999999954
40
0.609374999999957
40
0.609374999999957
40
0.624999999999961
40
0.624999999999961
40
0.687499999999975
40
0.687499999999975
40
0.718749999999979
40
0.718749999999979
40
0.749999999999982
40
0.749999999999982
40
0.812499999999989
40
0.812499999999989
40
0.874999999999996
40
0.874999999999996
40
0.906249999999997
40
0.906249999999997
40
0.937499999999998
40
0.937499999999998
40
1
40
1
40
1
40
1
41
1
10
72.9225351580705
20
0.0668729334567502
30
0
41
1
10
72.9090902867128
20
0.0225433130063664
30
0
41
1
10
72.8946286493334
20
-0.0212741491201314
30
0
41
1
10
72.8636750667833
20
-0.107869779764712
30
0
41
1
10
72.8471839872649
20
-0.150648427761126
30
0
41
1
10
72.8208647368218
20
-0.213993166691125
30
0
41
1
10
72.8118271541674
20
-0.234970491635806
30
0
41
1
10
72.7978582080434
20
-0.266220212061938
30
0
41
1
10
72.7931249722601
20
-0.276617629604829
30
0
41
1
10
72.7835901437133
20
-0.297183220778578
30
0
41
1
10
72.7595499988621
20
-0.348095813515329
30
0
41
1
10
72.7345190566312
20
-0.396519452524956
30
0
41
1
10
72.6932309026771
20
-0.470712986252579
30
0
41
1
10
72.6719683528766
20
-0.50616976502485
30
0
41
1
10
72.6390978781073
20
-0.556673609585687
30
0
41
1
10
72.6279217367823
20
-0.573134119318723
30
0
41
1
10
72.6056352381766
20
-0.604529502900846
30
0
41
1
10
72.5944992674086
20
-0.619511165203193
30
0
41
1
10
72.5611134044856
20
-0.662333007382529
30
0
41
1
10
72.5388868741359
20
-0.688060479660095
30
0
41
1
10
72.5055709604067
20
-0.722333286878524
30
0
41
1
10
72.494469318266
20
-0.733035264180131
30
0
41
1
10
72.4778163919492
20
-0.747968878362855
30
0
41
1
10
72.4722644726872
20
-0.752759491074613
30
0
41
1
10
72.46126856937
20
-0.761873035846207
30
0
41
1
10
72.4558107033344
20
-0.766208746267779
30
0
41
1
10
72.42871432766
20
-0.786802748857468
30
0
41
1
10
72.4076530354204
20
-0.799822638848042
30
0
41
1
10
72.3768636532353
20
-0.814372456405181
30
0
41
1
10
72.3667346147126
20
-0.818389365981147
30
0
41
1
10
72.3517294229784
20
-0.82316540004021
30
0
41
1
10
72.3467499046854
20
-0.824550784772981
30
0
41
1
10
72.336919860576
20
-0.826888370479821
30
0
41
1
10
72.332064550604
20
-0.827842911117585
30
0
41
1
10
72.3080723584948
20
-0.831574290602759
30
0
41
1
10
72.2897843370035
20
-0.831241187678415
30
0
41
1
10
72.2634949165403
20
-0.826152380284327
30
0
41
1
10
72.2549230524683
20
-0.823688456353096
30
0
41
1
10
72.2381342248929
20
-0.817261396817258
30
0
41
1
10
72.2298983546685
20
-0.813282823448219
30
0
41
1
10
72.2059894312472
20
-0.799331119484322
30
0
41
1
10
72.1910157000633
20
-0.787330769102653
30
0
41
1
10
72.1626565866481
20
-0.758525810935879
30
0
41
1
10
72.1492728490758
20
-0.741717780190328
30
0
41
1
10
72.1302153552576
20
-0.713170511323824
30
0
41
1
10
72.1240332341731
20
-0.703097414558613
30
0
41
1
10
72.111987597397
20
-0.681866793527206
30
0
41
1
10
72.1061242691685
20
-0.670705731328752
30
0
41
1
10
72.0891020572009
20
-0.635891734424973
30
0
41
1
10
72.0784636609475
20
-0.610836675160471
30
0
41
1
10
72.0684403830348
20
-0.584080678712866
30
0
0
SPLINE
5
CF
100
AcDbEntity
8
1
62
256
6
ByLayer
370
18
48
1
60
0
100
AcDbSpline
70
4
71
3
72
9
73
5
40
0
40
0
40
0
40
0
40
0.5
40
1
40
1
40
1
40
1
41
1
10
72.0684403830349
20
-0.584080678712667
30
0
41
1
10
71.9746530510288
20
-0.333726099717438
30
0
41
1
10
71.7626064024409
20
0.182963573362599
30
0
41
1
10
71.5019104150932
20
0.731421879253332
30
0
41
1
10
71.3596171340033
20
1.01345145578946
30
0
0
SPLINE
5
D0
100
AcDbEntity
8
1
62
256
6
ByLayer
370
18
48
1
60
0
100
AcDbSpline
70
4
71
3
72
31
73
27
40
0
40
0
40
0
40
0
40
0.062500000000007
40
0.062500000000007
40
0.0937500000000104
40
0.0937500000000104
40
0.125000000000014
40
0.250000000000028
40
0.250000000000028
40
0.375000000000043
40
0.375000000000043
40
0.406250000000046
40
0.406250000000046
40
0.421875000000046
40
0.421875000000046
40
0.437500000000045
40
0.437500000000045
40
0.50000000000004
40
0.50000000000004
40
0.625000000000031
40
0.625000000000031
40
0.75000000000002
40
0.75000000000002
40
0.87500000000001
40
0.87500000000001
40
1
40
1
40
1
40
1
41
1
10
72.4919006971876
20
-1.77154687280833
30
0
41
1
10
72.4554050168299
20
-1.83398196152515
30
0
41
1
10
72.4194431311237
20
-1.89812941123589
30
0
41
1
10
72.3662551017548
20
-1.99705427900045
30
0
41
1
10
72.34869290855
20
-2.03040589238313
30
0
41
1
10
72.3140908273857
20
-2.0974700118033
30
0
41
1
10
72.2287359214962
20
-2.2663157745508
30
0
41
1
10
72.1488976890903
20
-2.44099656608409
30
0
41
1
10
72.0267814039183
20
-2.727427669192
30
0
41
1
10
71.968539854844
20
-2.87411998602158
30
0
41
1
10
71.8982258876647
20
-3.06146595464207
30
0
41
1
10
71.884278638169
20
-3.09915932329625
30
0
41
1
10
71.8636225832463
20
-3.15569884031248
30
0
41
1
10
71.8567775845571
20
-3.17455657237591
30
0
41
1
10
71.8431583579188
20
-3.2122914128727
30
0
41
1
10
71.8363745129074
20
-3.23116583564291
30
0
41
1
10
71.8024373831742
20
-3.32553198956614
30
0
41
1
10
71.7753631000569
20
-3.40104309004508
30
0
41
1
10
71.69434167156
20
-3.62757018309472
30
0
41
1
10
71.6406016965221
20
-3.77857711593933
30
0
41
1
10
71.533483441828
20
-4.08024896345702
30
0
41
1
10
71.4800958995654
20
-4.23093837204451
30
0
41
1
10
71.3733325597558
20
-4.53185353080295
30
0
41
1
10
71.3199417436068
20
-4.68212898573285
30
0
41
1
10
71.2129513046519
20
-4.98147937721472
30
0
41
1
10
71.1593314885425
20
-5.1306095139326
30
0
41
1
10
71.1053674534116
20
-5.27907894966535
30
0
0
SPLINE
5
D1
100
AcDbEntity
8
1
62
256
6
ByLayer
370
18
48
1
60
0
100
AcDbSpline
70
4
71
3
72
84
73
80
40
0
40
0
40
0
40
0
40
0.0035896945094801
40
0.0035896945094801
40
0.0158831640869258
40
0.0158831640869258
40
0.0404701032418173
40
0.0404701032418173
40
0.0650570423967086
40
0.0650570423967086
40
0.0896439815516
40
0.0896439815516
40
0.138817859861383
40
0.138817859861383
40
0.187991738171166
40
0.187991738171166
40
0.237165616480948
40
0.237165616480948
40
0.261752555635839
40
0.274046025213285
40
0.274046025213285
40
0.286339494790732
40
0.286339494790732
40
0.310926433945624
40
0.310926433945624
40
0.335513373100517
40
0.335513373100517
40
0.384687251410304
40
0.384687251410304
40
0.39698072098775
40
0.39698072098775
40
0.409274190565197
40
0.409274190565197
40
0.433861129720091
40
0.433861129720091
40
0.483035008029879
40
0.483035008029879
40
0.507621947184773
40
0.507621947184773
40
0.532208886339667
40
0.532208886339667
40
0.544502355917113
40
0.544502355917113
40
0.55679582549456
40
0.55679582549456
40
0.581382764649454
40
0.581382764649454
40
0.605969703804347
40
0.605969703804347
40
0.618263173381794
40
0.618263173381794
40
0.630556642959241
40
0.630556642959241
40
0.679730521269029
40
0.679730521269029
40
0.728904399578818
40
0.728904399578818
40
0.741197869156264
40
0.741197869156264
40
0.753491338733711
40
0.753491338733711
40
0.778078277888605
40
0.778078277888605
40
0.802665217043499
40
0.802665217043499
40
0.827252156198393
40
0.827252156198393
40
0.851839095353288
40
0.864132564930735
40
0.864132564930735
40
0.876426034508182
40
0.876426034508182
40
0.901012973663075
40
0.901012973663075
40
0.925599912817968
40
0.925599912817968
40
0.974773791127755
40
0.974773791127755
40
1
40
1
40
1
40
1
41
1
10
60.5681074062311
20
-3.00825748872214
30
0
41
1
10
60.5323434562495
20
-2.99330268065842
30
0
41
1
10
60.4965740299047
20
-2.97829226447618
30
0
41
1
10
60.3382808253779
20
-2.9116324807662
30
0
41
1
10
60.2156606305323
20
-2.85937724668611
30
0
41
1
10
59.8477652344315
20
-2.70083570294386
30
0
41
1
10
59.6031448753597
20
-2.59307449281232
30
0
41
1
10
59.1149882670617
20
-2.37381989454664
30
0
41
1
10
58.8714329341064
20
-2.26236299598509
30
0
41
1
10
58.3850489744215
20
-2.03640771702331
30
0
41
1
10
58.1422295828157
20
-1.92189229106944
30
0
41
1
10
57.4145732471076
20
-1.57434387357074
30
0
41
1
10
56.9305522023349
20
-1.33726245436148
30
0
41
1
10
55.9629960661321
20
-0.855662654586922
30
0
41
1
10
55.4792920405699
20
-0.611498072353868
30
0
41
1
10
54.5101982239154
20
-0.120013027418793
30
0
41
1
10
54.0248373825845
20
0.127363089018814
30
0
41
1
10
53.2942341593277
20
0.498172767130626
30
0
41
1
10
52.9282388771245
20
0.683405172954338
30
0
41
1
10
52.5609282224073
20
0.867826349046823
30
0
41
1
10
52.3157347180778
20
0.990538042573661
30
0
41
1
10
52.1930527805942
20
1.05173965621279
30
0
41
1
10
51.8254194964628
20
1.23444284543163
30
0
41
1
10
51.580603020318
20
1.35517750701663
30
0
41
1
10
51.091327082508
20
1.59412143266579
30
0
41
1
10
50.8468863557034
20
1.71236379948965
30
0
41
1
10
50.1135839391726
20
2.06240283409835
30
0
41
1
10
49.624733554848
20
2.28949134518513
30
0
41
1
10
49.0125513232885
20
2.56343732201481
30
0
41
1
10
48.8900590727778
20
2.61773074032033
30
0
41
1
10
48.6449378558763
20
2.7252769945309
30
0
41
1
10
48.5222518225472
20
2.77855359526646
30
0
41
1
10
48.154515660827
20
2.93651298643962
30
0
41
1
10
47.9097350603637
20
3.03935000482545
30
0
41
1
10
47.1759462762297
20
3.3396247384936
30
0
41
1
10
46.6875268505251
20
3.52889725474745
30
0
41
1
10
45.9546986993896
20
3.7945377718342
30
0
41
1
10
45.7103939627232
20
3.88003775175989
30
0
41
1
10
45.2215352313996
20
4.04460602623493
30
0
41
1
10
44.9769562594227
20
4.12365808470267
30
0
41
1
10
44.6096195715935
20
4.23708703151684
30
0
41
1
10
44.4870986795684
20
4.27404122962423
30
0
41
1
10
44.2418760997013
20
4.3461996548445
30
0
41
1
10
44.1191998406184
20
4.38139592016859
30
0
41
1
10
43.7513015573083
20
4.48418833497198
30
0
41
1
10
43.5060699613602
20
4.54902860517032
30
0
41
1
10
43.0154601145776
20
4.67106722797428
30
0
41
1
10
42.7701613111602
20
4.72824945048006
30
0
41
1
10
42.4022609752116
20
4.80799586768691
30
0
41
1
10
42.2796105613794
20
4.8335749942905
30
0
41
1
10
42.0344943281021
20
4.88265240425554
30
0
41
1
10
41.912005642555
20
4.90615672918958
30
0
41
1
10
41.2998308003564
20
5.01848058573378
30
0
41
1
10
40.8109349297729
20
5.09172833507475
30
0
41
1
10
39.8330710500747
20
5.20431095572235
30
0
41
1
10
39.3441706612389
20
5.24360101585816
30
0
41
1
10
38.7315741530906
20
5.27067244512043
30
0
41
1
10
38.608956956008
20
5.27499028852912
30
0
41
1
10
38.363673114119
20
5.28142357420506
30
0
41
1
10
38.2411102464418
20
5.28353677400912
30
0
41
1
10
37.8736127419925
20
5.28657943515071
30
0
41
1
10
37.628867559541
20
5.28421562681277
30
0
41
1
10
37.1396920481411
20
5.27070706513481
30
0
41
1
10
36.895276183931
20
5.25955404916044
30
0
41
1
10
36.4064124735355
20
5.22853076140811
30
0
41
1
10
36.1619741858864
20
5.20864187419303
30
0
41
1
10
35.6728417088574
20
5.16019630411975
30
0
41
1
10
35.3058031553328
20
5.11737754216537
30
0
41
1
10
34.9382183599005
20
5.06498166283444
30
0
41
1
10
34.693016211624
20
5.02792834474258
30
0
41
1
10
34.5703432207961
20
5.00833854035781
30
0
41
1
10
34.2030410377354
20
4.94656056591168
30
0
41
1
10
33.9587918216656
20
4.90133233055982
30
0
41
1
10
33.4711936739913
20
4.80314437803096
30
0
41
1
10
33.2278561019993
20
4.75017371310801
30
0
41
1
10
32.4989048831401
20
4.57997732001681
30
0
41
1
10
32.0143525650375
20
4.45144603056627
30
0
41
1
10
31.2821147355334
20
4.23575025512889
30
0
41
1
10
31.0339560035645
20
4.15897816956007
30
0
41
1
10
30.7857845627161
20
4.07871397863698
30
0
0
SPLINE
5
D2
100
AcDbEntity
8
1
62
256
6
ByLayer
370
18
48
1
60
0
100
AcDbSpline
70
4
71
3
72
26
73
22
40
0
40
0
40
0
40
0
40
0.500000000000019
40
0.500000000000019
40
0.750000000000028
40
0.750000000000028
40
0.875000000000033
40
0.875000000000033
40
0.937500000000017
40
0.937500000000017
40
0.953125000000022
40
0.953125000000022
40
0.968750000000028
40
0.968750000000028
40
0.984375000000033
40
0.984375000000033
40
0.992187500000035
40
0.992187500000035
40
0.996093750000018
40
0.996093750000018
40
1
40
1
40
1
40
1
41
1
10
70.9797744593036
20
-5.55496641875604
30
0
41
1
10
70.999945125527
20
-5.50893679649366
30
0
41
1
10
71.0205088671256
20
-5.46290958034766
30
0
41
1
10
71.0519376259996
20
-5.39385967684066
30
0
41
1
10
71.0625038968851
20
-5.37086943599894
30
0
41
1
10
71.0784786281968
20
-5.33645922170894
30
0
41
1
10
71.0838316853584
20
-5.32497268137496
30
0
41
1
10
71.0919368674946
20
-5.30758084365525
30
0
41
1
10
71.094664834804
20
-5.3017014690015
30
0
41
1
10
71.098044455133
20
-5.29450454208887
30
0
41
1
10
71.0987177627876
20
-5.29307702555099
30
0
41
1
10
71.1000542617759
20
-5.29026517596441
30
0
41
1
10
71.1007125066062
20
-5.28890060851271
30
0
41
1
10
71.1020462026907
20
-5.28610558078293
30
0
41
1
10
71.102729089898
20
-5.2846485886453
30
0
41
1
10
71.1037863394203
20
-5.28232032455691
30
0
41
1
10
71.1041456896458
20
-5.28151386688904
30
0
41
1
10
71.1046690951846
20
-5.28037118892527
30
0
41
1
10
71.1048414112151
20
-5.27999941353605
30
0
41
1
10
71.1051649092318
20
-5.27934470436532
30
0
41
1
10
71.1053224976438
20
-5.27905801610615
30
0
41
1
10
71.1053674534114
20
-5.27907894966711
30
0
0
SPLINE
5
D3
100
AcDbEntity
8
1
62
256
6
ByLayer
370
18
48
1
60
0
100
AcDbSpline
70
4
71
3
72
21
73
17
40
0
40
0
40
0
40
0
40
0.261297112190813
40
0.261297112190813
40
0.391945668286214
40
0.391945668286214
40
0.457269946333915
40
0.457269946333915
40
0.522594224381615
40
0.522594224381615
40
0.653242780477027
40
0.653242780477027
40
0.783891336572438
40
0.914539892667848
40
0.914539892667848
40
1
40
1
40
1
40
1
41
1
10
70.4234423536961
20
1.1442114842101
30
0
41
1
10
70.5027204282485
20
1.14843285608288
30
0
41
1
10
70.5820281173766
20
1.14883824848931
30
0
41
1
10
70.7006231860605
20
1.14342089000596
30
0
41
1
10
70.7400923532389
20
1.14060310044914
30
0
41
1
10
70.7991700965743
20
1.13516688355557
30
0
41
1
10
70.8188432203312
20
1.13318093197506
30
0
41
1
10
70.8581508765123
20
1.12895999425919
30
0
41
1
10
70.877783427831
20
1.1266871076285
30
0
41
1
10
70.9365965057216
20
1.11920143219757
30
0
41
1
10
70.9756948455219
20
1.11335300906896
30
0
41
1
10
71.0535735120336
20
1.09949256590713
30
0
41
1
10
71.1311389727536
20
1.08354801483046
30
0
41
1
10
71.2079002556578
20
1.0630713634543
30
0
41
1
10
71.2709667315787
20
1.04405348031077
30
0
41
1
10
71.2957930545775
20
1.03595501625173
30
0
41
1
10
71.3205071492405
20
1.02739644308636
30
0
0
SPLINE
5
D4
100
AcDbEntity
8
1
62
256
6
ByLayer
370
18
48
1
60
0
100
AcDbSpline
70
4
71
3
72
24
73
20
40
0
40
0
40
0
40
0
40
0.280682249580093
40
0.280682249580093
40
0.350852811975106
40
0.350852811975106
40
0.421023374370119
40
0.421023374370119
40
0.561364499160183
40
0.561364499160183
40
0.701705623950248
40
0.701705623950248
40
0.771876186345297
40
0.771876186345297
40
0.842046748740345
40
0.842046748740345
40
0.982387873530443
40
0.982387873530443
40
1
40
1
40
1
40
1
41
1
10
71.5720415580812
20
1.55758353193312
30
0
41
1
10
71.4850981210209
20
1.54303888296391
30
0
41
1
10
71.4012129673435
20
1.52087485310594
30
0
41
1
10
71.3001584267565
20
1.48480771322753
30
0
41
1
10
71.2801376896088
20
1.47717795974867
30
0
41
1
10
71.2404770450491
20
1.46112109148925
30
0
41
1
10
71.2209275829569
20
1.45272771370895
30
0
41
1
10
71.1636807229078
20
1.42682487866193
30
0
41
1
10
71.1271374703823
20
1.40849816047202
30
0
41
1
10
71.0570645011352
20
1.37032941862691
30
0
41
1
10
71.0235349739291
20
1.35048550807008
30
0
41
1
10
70.9754078418909
20
1.31997788517916
30
0
41
1
10
70.959720058482
20
1.30967675869658
30
0
41
1
10
70.9294961670288
20
1.28919570873075
30
0
41
1
10
70.9148998106146
20
1.27897805999845
30
0
41
1
10
70.8725749875664
20
1.24849178076349
30
0
41
1
10
70.8462980504806
20
1.22840008931919
30
0
41
1
10
70.8187416642839
20
1.20632174005269
30
0
41
1
10
70.8156975241942
20
1.20386725601708
30
0
41
1
10
70.8126817647284
20
1.20142044091767
30
0
0
SPLINE
5
D5
100
AcDbEntity
8
1
62
256
6
ByLayer
370
18
48
1
60
0
100
AcDbSpline
70
4
71
3
72
16
73
12
40
0
40
0
40
0
40
0
40
0.25
40
0.25
40
0.5
40
0.5
40
0.625
40
0.625
40
0.75
40
0.75
40
1
40
1
40
1
40
1
41
1
10
72.4919006971876
20
1.77154687280822
30
0
41
1
10
72.4171186097857
20
1.74752885207394
30
0
41
1
10
72.3416672773972
20
1.72558835510475
30
0
41
1
10
72.1897810782674
20
1.68476052709431
30
0
41
1
10
72.1133354243303
20
1.66590668252894
30
0
41
1
10
71.9980235980271
20
1.63962303987171
30
0
41
1
10
71.9594796796879
20
1.63119287507891
30
0
41
1
10
71.8821975583397
20
1.61493565949044
30
0
41
1
10
71.8434411157041
20
1.60710533754235
30
0
41
1
10
71.7271933196041
20
1.58449215310941
30
0
41
1
10
71.6496400058503
20
1.5705648703931
30
0
41
1
10
71.5720415580812
20
1.55758353193312
30
0
0
SPLINE
5
D6
100
AcDbEntity
8
1
62
256
6
ByLayer
370
18
48
1
60
0
100
AcDbSpline
70
4
71
3
72
31
73
27
40
0
40
0
40
0
40
0
40
0.0625000000000031
40
0.0625000000000031
40
0.0937500000000048
40
0.0937500000000048
40
0.125000000000006
40
0.250000000000005
40
0.250000000000005
40
0.375000000000003
40
0.375000000000003
40
0.40625
40
0.40625
40
0.421874999999999
40
0.421874999999999
40
0.437499999999998
40
0.437499999999998
40
0.499999999999998
40
0.499999999999998
40
0.624999999999999
40
0.624999999999999
40
0.749999999999999
40
0.749999999999999
40
0.875
40
0.875
40
1
40
1
40
1
40
1
41
1
10
72.4919006971876
20
1.7715468728083
30
0
41
1
10
72.4554050168298
20
1.83398196152515
30
0
41
1
10
72.4194431311237
20
1.89812941123594
30
0
41
1
10
72.3662551017548
20
1.99705427900056
30
0
41
1
10
72.34869290855
20
2.03040589238327
30
0
41
1
10
72.3140908273856
20
2.0974700118035
30
0
41
1
10
72.2287359214962
20
2.26631577455109
30
0
41
1
10
72.1488976890901
20
2.44099656608452
30
0
41
1
10
72.0267814039181
20
2.72742766919262
30
0
41
1
10
71.9685398548437
20
2.87411998602229
30
0
41
1
10
71.8982258876644
20
3.0614659546429
30
0
41
1
10
71.8842786381687
20
3.0991593232971
30
0
41
1
10
71.8636225832459
20
3.15569884031336
30
0
41
1
10
71.8567775845569
20
3.17455657237679
30
0
41
1
10
71.8431583579185
20
3.21229141287361
30
0
41
1
10
71.836374512907
20
3.23116583564385
30
0
41
1
10
71.8024373831738
20
3.32553198956714
30
0
41
1
10
71.7753631000565
20
3.4010430900461
30
0
41
1
10
71.6943416715596
20
3.62757018309588
30
0
41
1
10
71.6406016965216
20
3.77857711594061
30
0
41
1
10
71.5334834418275
20
4.08024896345847
30
0
41
1
10
71.4800958995649
20
4.23093837204604
30
0
41
1
10
71.3733325597553
20
4.53185353080465
30
0
41
1
10
71.3199417436062
20
4.68212898573466
30
0
41
1
10
71.2129513046512
20
4.98147937721672
30
0
41
1
10
71.1593314885417
20
5.13060951393467
30
0
41
1
10
71.1053674534108
20
5.27907894966748
30
0
0
SPLINE
5
D7
100
AcDbEntity
8
1
62
256
6
ByLayer
370
18
48
1
60
0
100
AcDbSpline
70
4
71
3
72
26
73
22
40
0
40
0
40
0
40
0
40
0.0960984032252806
40
0.0960984032252806
40
0.192196806450561
40
0.192196806450561
40
0.384393612901118
40
0.384393612901118
40
0.480492016126396
40
0.480492016126396
40
0.576590419351675
40
0.576590419351675
40
0.768787225802236
40
0.768787225802236
40
0.864885629027517
40
0.864885629027517
40
0.912934830640155
40
0.912934830640155
40
0.960984032252793
40
0.960984032252793
40
1
40
1
40
1
40
1
41
1
10
71.1053674534128
20
5.2790789496668
30
0
41
1
10
70.8604488423667
20
5.28508900703523
30
0
41
1
10
70.6157780889463
20
5.2866819140084
30
0
41
1
10
70.1267113985258
20
5.2811159510492
30
0
41
1
10
69.8822872051764
20
5.27396449782864
30
0
41
1
10
69.1488972518241
20
5.23947846803017
30
0
41
1
10
68.6598380304613
20
5.19913693077976
30
0
41
1
10
67.9247420226613
20
5.11271964159835
30
0
41
1
10
67.6793136200001
20
5.07955055481344
30
0
41
1
10
67.1893456111033
20
5.00487676060374
30
0
41
1
10
66.9446100652678
20
4.96338979795777
30
0
41
1
10
66.2107815095447
20
4.82670634754388
30
0
41
1
10
65.7220827967962
20
4.71916418865806
30
0
41
1
10
64.9884344811825
20
4.53466120875274
30
0
41
1
10
64.7438068488603
20
4.46928290602497
30
0
41
1
10
64.3764832541078
20
4.36569970571131
30
0
41
1
10
64.2539775193752
20
4.33025224530817
30
0
41
1
10
64.0088068549879
20
4.25754628337003
30
0
41
1
10
63.8861241023205
20
4.22028139658153
30
0
41
1
10
63.664041178781
20
4.15126680948842
30
0
41
1
10
63.5645649352822
20
4.11979027600805
30
0
41
1
10
63.4651265010231
20
4.08777123435326
30
0
0
SPLINE
5
D8
100
AcDbEntity
8
1
62
256
6
ByLayer
370
18
48
1
60
0
100
AcDbSpline
70
4
71
3
72
18
73
14
40
0
40
0
40
0
40
0
40
0.139599956719691
40
0.139599956719691
40
0.247149962129733
40
0.247149962129733
40
0.354699967539776
40
0.354699967539776
40
0.569799978359849
40
0.569799978359849
40
0.784899989179925
40
0.784899989179925
40
1
40
1
40
1
40
1
41
1
10
27.6374280484148
20
-2.88974107213926
30
0
41
1
10
27.4789583645633
20
-2.82227367476867
30
0
41
1
10
27.3202630616842
20
-2.7537158602934
30
0
41
1
10
27.0388508208166
20
-2.63048738680001
30
0
41
1
10
26.916168354861
20
-2.57620953914343
30
0
41
1
10
26.6709194156701
20
-2.46664649174849
30
0
41
1
10
26.5483413387429
20
-2.4113563279314
30
0
41
1
10
26.1807093549244
20
-2.24402486605973
30
0
41
1
10
25.9357771438273
20
-2.13048499965609
30
0
41
1
10
25.4458730096098
20
-1.90008471651996
30
0
41
1
10
25.2008942409549
20
-1.78323605651389
30
0
41
1
10
24.710642347221
20
-1.54667645724655
30
0
41
1
10
24.4652982100111
20
-1.42692575960376
30
0
41
1
10
24.2199999999989
20
-1.30609991546939
30
0
0
SPLINE
5
D9
100
AcDbEntity
8
1
62
256
6
ByLayer
370
18
48
1
60
0
100
AcDbSpline
70
4
71
3
72
71
73
67
40
0
40
0
40
0
40
0
40
0.0065497533434654
40
0.0065497533434654
40
0.0424164209784375
40
0.0424164209784375
40
0.0603497547959235
40
0.0603497547959235
40
0.0782830886134096
40
0.0782830886134096
40
0.0962164224308957
40
0.0962164224308957
40
0.114149756248382
40
0.114149756248382
40
0.123116423157125
40
0.123676839838921
40
0.12395704817982
40
0.12395704817982
40
0.124237256520718
40
0.124237256520718
40
0.124797673202514
40
0.124797673202514
40
0.125358089884311
40
0.125358089884311
40
0.127599756611496
40
0.127599756611496
40
0.132083090065868
40
0.132083090065868
40
0.150016423883355
40
0.150016423883355
40
0.185883091518329
40
0.185883091518329
40
0.257616426788277
40
0.257616426788277
40
0.401083097328173
40
0.401083097328173
40
0.472816432598121
40
0.472816432598121
40
0.544549767868069
40
0.544549767868069
40
0.562483101685556
40
0.562483101685556
40
0.566966435139927
40
0.566966435139927
40
0.56808726850352
40
0.56808726850352
40
0.568367476844419
40
0.568367476844419
40
0.568507581014868
40
0.568507581014868
40
0.568647685185317
40
0.568647685185317
40
0.569208101867113
40
0.571449768594298
40
0.580416435503039
40
0.616283103138001
40
0.616283103138001
40
0.688016438407926
40
0.688016438407926
40
0.831483108947775
40
0.831483108947775
40
0.9032164442177
40
0.9032164442177
40
0.974949779487625
40
0.974949779487625
40
1
40
1
40
1
40
1
41
1
10
9.41805632193365
20
5.05807287840329
30
0
41
1
10
9.40616805088698
20
5.02942392243193
30
0
41
1
10
9.39393176850069
20
5.00051905692692
30
0
41
1
10
9.31268072816661
20
4.81152885282785
30
0
41
1
10
9.23465017039945
20
4.64301912947656
30
0
41
1
10
9.10961896599514
20
4.37480251864056
30
0
41
1
10
9.06730576576896
20
4.2830575911722
30
0
41
1
10
8.97802454205828
20
4.09691942921702
30
0
41
1
10
8.93111784267271
20
4.0024951098145
30
0
41
1
10
8.83372631169826
20
3.81037444967808
30
0
41
1
10
8.78342953216105
20
3.71241043031569
30
0
41
1
10
8.67881574004886
20
3.51461909343144
30
0
41
1
10
8.62452364088875
20
3.41466107151317
30
0
41
1
10
8.54078429749018
20
3.26289275708908
30
0
41
1
10
8.51073020357242
20
3.20884018494814
30
0
41
1
10
8.47942717795351
20
3.15286583383974
30
0
41
1
10
8.47674132628273
20
3.14806551874813
30
0
41
1
10
8.47495015448246
20
3.14486474990412
30
0
41
1
10
8.47356747049807
20
3.14304077372793
30
0
41
1
10
8.47719548837225
20
3.13831848486006
30
0
41
1
10
8.48061055401001
20
3.13612383036738
30
0
41
1
10
8.48693790617691
20
3.13139056607355
30
0
41
1
10
8.49015479481616
20
3.12910231252624
30
0
41
1
10
8.50632234477345
20
3.11778356603349
30
0
41
1
10
8.51949677139004
20
3.10910207355707
30
0
41
1
10
8.55905652229018
20
3.08315651424871
30
0
41
1
10
8.58560315268065
20
3.06614927937744
30
0
41
1
10
8.71848507844641
20
2.98140925158268
30
0
41
1
10
8.82530785779059
20
2.91457903934091
30
0
41
1
10
9.14569699835405
20
2.71414558939932
30
0
41
1
10
9.35951371318495
20
2.58121392243228
30
0
41
1
10
10.0009767642018
20
2.18330987540813
30
0
41
1
10
10.4289029595922
20
1.91954730028561
30
0
41
1
10
11.7114961855024
20
1.13196014232082
30
0
41
1
10
12.5648705919108
20
0.611126957014164
30
0
41
1
10
13.843774808826
20
-0.161452931068766
30
0
41
1
10
14.2699797820501
20
-0.417415796409386
30
0
41
1
10
15.1218751559369
20
-0.926686847983234
30
0
41
1
10
15.5477098663265
20
-1.17997794292617
30
0
41
1
10
16.078596195909
20
-1.49547791782388
30
0
41
1
10
16.1848372333191
20
-1.5583985732292
30
0
41
1
10
16.3166775895544
20
-1.63782669007125
30
0
41
1
10
16.3430625188889
20
-1.65368851503041
30
0
41
1
10
16.3754446081577
20
-1.67408733268431
30
0
41
1
10
16.381939269345
20
-1.67816743480449
30
0
41
1
10
16.3896836806589
20
-1.68357674854894
30
0
41
1
10
16.3912302243754
20
-1.68466279620472
30
0
41
1
10
16.3933040656004
20
-1.686445926641
30
0
41
1
10
16.3944642219397
20
-1.6874258221512
30
0
41
1
10
16.3929401945664
20
-1.68794096810944
30
0
41
1
10
16.3918772948937
20
-1.68770121489152
30
0
41
1
10
16.3872016603313
20
-1.68749179005363
30
0
41
1
10
16.3684995347365
20
-1.68665113600792
30
0
41
1
10
16.2899592626543
20
-1.68305833397582
30
0
41
1
10
15.9759358011538
20
-1.66769386366334
30
0
41
1
10
15.6774268686176
20
-1.64927268713035
30
0
41
1
10
14.9621170062578
20
-1.59775594720693
30
0
41
1
10
14.4866157331572
20
-1.5536481753052
30
0
41
1
10
13.0664815812156
20
-1.39220094247042
30
0
41
1
10
12.1271733158485
20
-1.24530570225122
30
0
41
1
10
10.7260565912901
20
-0.967137163482761
30
0
41
1
10
10.2599321824539
20
-0.864654857076602
30
0
41
1
10
9.33323670122584
20
-0.641651535255193
30
0
41
1
10
8.87234281249491
20
-0.521100172612961
30
0
41
1
10
8.2534081720525
20
-0.346828465398431
30
0
41
1
10
8.09347299748075
20
-0.300670915722691
30
0
41
1
10
7.93378908006801
20
-0.253482288729003
30
0
0
SPLINE
5
DA
100
AcDbEntity
8
1
62
256
6
ByLayer
370
18
48
1
60
0
100
AcDbSpline
70
4
71
3
72
176
73
172
40
0
40
0
40
0
40
0
40
0.0001500501755652
40
0.0001500501755652
40
0.0064023948531061
40
0.0064023948531061
40
0.018907084208187
40
0.018907084208187
40
0.0439164629183481
40
0.0439164629183481
40
0.0564211522734287
40
0.0564211522734287
40
0.0689258416285092
40
0.0689258416285092
40
0.0814305309835898
40
0.0814305309835898
40
0.0939352203386703
40
0.0939352203386703
40
0.118944599048831
40
0.118944599048831
40
0.131449288403912
40
0.131449288403912
40
0.143953977758992
40
0.143953977758992
40
0.156458667114073
40
0.156458667114073
40
0.168963356469154
40
0.168963356469154
40
0.181468045824234
40
0.181468045824234
40
0.193972735179315
40
0.193972735179315
40
0.206477424534395
40
0.206477424534395
40
0.212729769211936
40
0.212729769211936
40
0.218982113889476
40
0.218982113889476
40
0.231486803244555
40
0.231486803244555
40
0.243991492599635
40
0.243991492599635
40
0.256496181954715
40
0.256496181954715
40
0.262748526632255
40
0.262748526632255
40
0.269000871309794
40
0.269000871309794
40
0.281505560664874
40
0.281505560664874
40
0.294010250019954
40
0.294010250019954
40
0.319019628730113
40
0.319019628730113
40
0.331524318085193
40
0.331524318085193
40
0.344029007440272
40
0.344029007440272
40
0.356533696795351
40
0.356533696795351
40
0.36903838615043
40
0.36903838615043
40
0.38154307550551
40
0.38154307550551
40
0.394047764860589
40
0.394047764860589
40
0.419057143570748
40
0.419057143570748
40
0.425309488248288
40
0.425309488248288
40
0.431561832925827
40
0.431561832925827
40
0.444066522280906
40
0.444066522280906
40
0.456571211635986
40
0.456571211635986
40
0.462823556313525
40
0.462823556313525
40
0.469075900991064
40
0.469075900991064
40
0.481580590346142
40
0.481580590346142
40
0.494085279701221
40
0.494085279701221
40
0.5065899690563
40
0.5065899690563
40
0.519094658411378
40
0.519094658411378
40
0.531599347766457
40
0.531599347766457
40
0.544104037121535
40
0.544104037121535
40
0.556608726476614
40
0.556608726476614
40
0.562861071154153
40
0.562861071154153
40
0.569113415831692
40
0.569113415831692
40
0.58161810518677
40
0.58161810518677
40
0.594122794541849
40
0.594122794541849
40
0.606627483896927
40
0.606627483896927
40
0.619132173252006
40
0.619132173252006
40
0.631636862607084
40
0.631636862607084
40
0.644141551962163
40
0.644141551962163
40
0.656646241317241
40
0.656646241317241
40
0.66915093067232
40
0.66915093067232
40
0.681655620027398
40
0.681655620027398
40
0.694160309382477
40
0.694160309382477
40
0.706664998737555
40
0.706664998737555
40
0.719169688092634
40
0.719169688092634
40
0.731674377447712
40
0.731674377447712
40
0.744179066802791
40
0.744179066802791
40
0.756683756157869
40
0.756683756157869
40
0.762936100835409
40
0.762936100835409
40
0.769188445512949
40
0.769188445512949
40
0.781693134868029
40
0.781693134868029
40
0.794197824223109
40
0.794197824223109
40
0.806702513578189
40
0.806702513578189
40
0.819207202933269
40
0.819207202933269
40
0.831711892288349
40
0.831711892288349
40
0.844216581643429
40
0.844216581643429
40
0.856721270998509
40
0.856721270998509
40
0.869225960353589
40
0.869225960353589
40
0.881730649708669
40
0.881730649708669
40
0.89423533906375
40
0.89423533906375
40
0.90674002841883
40
0.90674002841883
40
0.91924471777391
40
0.91924471777391
40
0.93174940712899
40
0.93174940712899
40
0.94425409648407
40
0.94425409648407
40
0.95675878583915
40
0.95675878583915
40
0.96301113051669
40
0.96301113051669
40
0.96926347519423
40
0.96926347519423
40
0.981768164549311
40
0.981768164549311
40
0.99427285390439
40
0.99427285390439
40
1
40
1
40
1
40
1
41
1
10
63.3263315621844
20
-4.13486964106801
30
0
41
1
10
63.3243802650662
20
-4.13548383311181
30
0
41
1
10
63.3224290124668
20
-4.13609781320309
30
0
41
1
10
63.2391741732175
20
-4.16228630111621
30
0
41
1
10
63.1579488748745
20
-4.1874946371338
30
0
41
1
10
62.9144175821704
20
-4.26191344019065
30
0
41
1
10
62.7522628710748
20
-4.30992654371053
30
0
41
1
10
62.2661472926273
20
-4.44896672300265
30
0
41
1
10
61.942518031089
20
-4.53509819314436
30
0
41
1
10
61.4575490480646
20
-4.65364060251054
30
0
41
1
10
61.2959751028842
20
-4.69135887486584
30
0
41
1
10
60.972937903979
20
-4.76310013952579
30
0
41
1
10
60.811466780742
20
-4.79715239323227
30
0
41
1
10
60.4886100208506
20
-4.86190339514897
30
0
41
1
10
60.327270795025
20
-4.89263648961705
30
0
41
1
10
60.004419286928
20
-4.95077554516959
30
0
41
1
10
59.8429208970398
20
-4.9781779301062
30
0
41
1
10
59.3580773441021
20
-5.05514632080192
30
0
41
1
10
59.0344189485038
20
-5.09949589194394
30
0
41
1
10
58.5480354183658
20
-5.1548634387577
30
0
41
1
10
58.3857507688411
20
-5.17145756581897
30
0
41
1
10
58.060860699592
20
-5.20082532217555
30
0
41
1
10
57.8982515160298
20
-5.21360354458449
30
0
41
1
10
57.5728318058546
20
-5.23521582019268
30
0
41
1
10
57.4099850673336
20
-5.24404057637943
30
0
41
1
10
57.0837700785221
20
-5.25741682512472
30
0
41
1
10
56.9203870071834
20
-5.26191641096298
30
0
41
1
10
56.5930785176461
20
-5.26679781449056
30
0
41
1
10
56.4295105962211
20
-5.26733295454682
30
0
41
1
10
56.1023992485632
20
-5.2649677964977
30
0
41
1
10
55.9388678523278
20
-5.26203350001015
30
0
41
1
10
55.6118628617492
20
-5.25247733830548
30
0
41
1
10
55.4483873947821
20
-5.24584146050995
30
0
41
1
10
55.2032972063338
20
-5.23286885231494
30
0
41
1
10
55.1216193773518
20
-5.2280418819891
30
0
41
1
10
54.9583338760085
20
-5.21733729995125
30
0
41
1
10
54.8767324343314
20
-5.21145257025134
30
0
41
1
10
54.6319403463516
20
-5.19231855241904
30
0
41
1
10
54.4687521299726
20
-5.17762209888821
30
0
41
1
10
54.1421738449871
20
-5.14473023667856
30
0
41
1
10
53.9787938923048
20
-5.12649591815119
30
0
41
1
10
53.6518264368412
20
-5.08632218004598
30
0
41
1
10
53.4882418408026
20
-5.06436448800008
30
0
41
1
10
53.2426966522529
20
-5.02839778302996
30
0
41
1
10
53.1608200251306
20
-5.01590403705106
30
0
41
1
10
52.9970045706623
20
-4.98987275698821
30
0
41
1
10
52.9150299142956
20
-4.97632327849075
30
0
41
1
10
52.6694179329615
20
-4.93417652278873
30
0
41
1
10
52.5059914149046
20
-4.90413118313271
30
0
41
1
10
52.1795651087495
20
-4.8409628333809
30
0
41
1
10
52.0166307397728
20
-4.80774520415093
30
0
41
1
10
51.5283430406039
20
-4.70320565581275
30
0
41
1
10
51.203516162753
20
-4.6269852109802
30
0
41
1
10
50.7172267896524
20
-4.50191140342858
30
0
41
1
10
50.5552993796342
20
-4.45838755036755
30
0
41
1
10
50.2315098205847
20
-4.3685511170101
30
0
41
1
10
50.0696265193818
20
-4.32231370594096
30
0
41
1
10
49.7459460213274
20
-4.22699256510842
30
0
41
1
10
49.5841497639238
20
-4.17789711892954
30
0
41
1
10
49.2608403492079
20
-4.07638463310744
30
0
41
1
10
49.0992858922238
20
-4.02401509021277
30
0
41
1
10
48.7761785064826
20
-3.91611595990875
30
0
41
1
10
48.6146438372165
20
-3.86050977366111
30
0
41
1
10
48.2914283969959
20
-3.74653661148108
30
0
41
1
10
48.1297286644601
20
-3.68828642403074
30
0
41
1
10
47.6442224502371
20
-3.51018549041862
30
0
41
1
10
47.3200450250422
20
-3.38669084942981
30
0
41
1
10
46.9142236933312
20
-3.22545272537897
30
0
41
1
10
46.833030562155
20
-3.19286061049479
30
0
41
1
10
46.6706098960084
20
-3.12692603577108
30
0
41
1
10
46.5893901372135
20
-3.09356430363792
30
0
41
1
10
46.3456163197238
20
-2.99247871612624
30
0
41
1
10
46.1829274738902
20
-2.92382351175317
30
0
41
1
10
45.8569986400581
20
-2.78476468448471
30
0
41
1
10
45.6937679096651
20
-2.71429141559355
30
0
41
1
10
45.4485044053799
20
-2.60698927329963
30
0
41
1
10
45.3666797991193
20
-2.57095919655802
30
0
41
1
10
45.2028827350446
20
-2.49836756085995
30
0
41
1
10
45.1208844220032
20
-2.46179413387244
30
0
41
1
10
44.8750840416033
20
-2.35146117921178
30
0
41
1
10
44.7113571617397
20
-2.27703748763176
30
0
41
1
10
44.384150189928
20
-2.12647249241914
30
0
41
1
10
44.2206667319484
20
-2.0503412310305
30
0
41
1
10
43.8938286701867
20
-1.89678874061735
30
0
41
1
10
43.7305276416651
20
-1.81927153533985
30
0
41
1
10
43.4039619012694
20
-1.66301288544145
30
0
41
1
10
43.2407027927173
20
-1.58425929792176
30
0
41
1
10
42.9141236963339
20
-1.42566859796
30
0
41
1
10
42.7508113707858
20
-1.34581746118067
30
0
41
1
10
42.4240884467043
20
-1.18506719429865
30
0
41
1
10
42.2606849063402
20
-1.10413885916805
30
0
41
1
10
41.9336221341587
20
-0.941669826015584
30
0
41
1
10
41.7699437283229
20
-0.860192549264582
30
0
41
1
10
41.524233428746
20
-0.73751479889853
30
0
41
1
10
41.44230064351
20
-0.696537296887328
30
0
41
1
10
41.2783883362891
20
-0.614375879626465
30
0
41
1
10
41.1964100372
20
-0.573189050450281
30
0
41
1
10
40.9508809752396
20
-0.449454657414776
30
0
41
1
10
40.7875456866108
20
-0.366759480152524
30
0
41
1
10
40.4613651458396
20
-0.201431707614205
30
0
41
1
10
40.298538796198
20
-0.1187708222634
30
0
41
1
10
39.9732257657722
20
0.0462346062052745
30
0
41
1
10
39.8107131671509
20
0.128549718867134
30
0
41
1
10
39.4858788351351
20
0.292651179790226
30
0
41
1
10
39.3235783822452
20
0.374464934061251
30
0
41
1
10
38.9992371662694
20
0.537601281258389
30
0
41
1
10
38.8371928269019
20
0.618913784642302
30
0
41
1
10
38.5134131886356
20
0.781111760764446
30
0
41
1
10
38.3516961538722
20
0.862042223012367
30
0
41
1
10
38.0285011705566
20
1.02340174060328
30
0
41
1
10
37.8669664823415
20
1.10372105910699
30
0
41
1
10
37.5438215281628
20
1.26330472995849
30
0
41
1
10
37.3822193524042
20
1.34257765065465
30
0
41
1
10
37.0589487564682
20
1.500022804418
30
0
41
1
10
36.8972813548696
20
1.57819544603191
30
0
41
1
10
36.5738738277811
20
1.7333414063547
30
0
41
1
10
36.4121292612504
20
1.81030842336878
30
0
41
1
10
36.0884392350059
20
1.96286959475654
30
0
41
1
10
35.9264970591116
20
2.03846992469147
30
0
41
1
10
35.6024291655359
20
2.18840769527742
30
0
41
1
10
35.4403548376373
20
2.26284736033782
30
0
41
1
10
35.11589944665
20
2.41015978224559
30
0
41
1
10
34.9535200236649
20
2.48303453265132
30
0
41
1
10
34.6283447978714
20
2.62694248789114
30
0
41
1
10
34.4655591575719
20
2.69798431067596
30
0
41
1
10
34.139490386941
20
2.83810837707634
30
0
41
1
10
33.9762049311114
20
2.90719049878649
30
0
41
1
10
33.730837775633
20
3.00928087543892
30
0
41
1
10
33.6489757069831
20
3.04305596164198
30
0
41
1
10
33.4850974840455
20
3.11008761619405
30
0
41
1
10
33.4030908029518
20
3.14333870111622
30
0
41
1
10
33.1574012170906
20
3.24209733533832
30
0
41
1
10
32.993856256141
20
3.30667339480198
30
0
41
1
10
32.6675041354851
20
3.4334077056202
30
0
41
1
10
32.5046923744828
20
3.49549202225217
30
0
41
1
10
32.1795096431304
20
3.61667066551021
30
0
41
1
10
32.0171174203469
20
3.67581051238167
30
0
41
1
10
31.6925293422179
20
3.79124007986505
30
0
41
1
10
31.5303462292461
20
3.84752868398831
30
0
41
1
10
31.2061484146423
20
3.95720104493836
30
0
41
1
10
31.0441395657011
20
4.01057897462491
30
0
41
1
10
30.7203060150226
20
4.114239523962
30
0
41
1
10
30.5584822811765
20
4.16449903524759
30
0
41
1
10
30.2351207654484
20
4.26170252334779
30
0
41
1
10
30.0735803020114
20
4.30870687368704
30
0
41
1
10
29.7505970541605
20
4.39995855175371
30
0
41
1
10
29.5891031422128
20
4.44411982115932
30
0
41
1
10
29.2660177180146
20
4.52923666539911
30
0
41
1
10
29.1044237174106
20
4.57019065149871
30
0
41
1
10
28.7811146830501
20
4.64871629922382
30
0
41
1
10
28.619397649078
20
4.68629754502464
30
0
41
1
10
28.2958456900796
20
4.75769547545639
30
0
41
1
10
28.1340214486207
20
4.79144628198071
30
0
41
1
10
27.8100633785862
20
4.8555512798921
30
0
41
1
10
27.6479201187791
20
4.88598295736961
30
0
41
1
10
27.3233796745546
20
4.94361727961825
30
0
41
1
10
27.1610411724539
20
4.97083298306265
30
0
41
1
10
26.8360153680703
20
5.02168430687706
30
0
41
1
10
26.6733195000317
20
5.04533098949392
30
0
41
1
10
26.3474466975569
20
5.0886794917071
30
0
41
1
10
26.1842833765101
20
5.10830998748585
30
0
41
1
10
25.9391179030752
20
5.13475849606951
30
0
41
1
10
25.8573243617509
20
5.14309181429604
30
0
41
1
10
25.6935795480854
20
5.1588707967845
30
0
41
1
10
25.6115970897097
20
5.16632453042243
30
0
41
1
10
25.3657534746941
20
5.18731381043384
30
0
41
1
10
25.2019309003453
20
5.19947909804213
30
0
41
1
10
24.8744651670446
20
5.22000928341353
30
0
41
1
10
24.7108171863782
20
5.22838251029961
30
0
41
1
10
24.472474341373
20
5.23769843815455
30
0
41
1
10
24.3976409714295
20
5.2401989615918
30
0
41
1
10
24.3228319577772
20
5.24226058957785
30
0
0
SPLINE
5
DB
100
AcDbEntity
8
1
62
256
6
ByLayer
370
18
48
1
60
0
100
AcDbSpline
70
4
71
3
72
36
73
32
40
0
40
0
40
0
40
0
40
0.0624999999999755
40
0.0624999999999755
40
0.124999999999951
40
0.124999999999951
40
0.187499999999927
40
0.187499999999927
40
0.218749999999931
40
0.218749999999931
40
0.249999999999936
40
0.249999999999936
40
0.312499999999911
40
0.312499999999911
40
0.343749999999913
40
0.343749999999913
40
0.374999999999916
40
0.374999999999916
40
0.437499999999924
40
0.437499999999924
40
0.499999999999933
40
0.499999999999933
40
0.562499999999941
40
0.562499999999941
40
0.624999999999949
40
0.624999999999949
40
0.749999999999966
40
0.749999999999966
40
0.874999999999983
40
0.874999999999983
40
1
40
1
40
1
40
1
41
1
10
3.75148356781651
20
2.42247232582477
30
0
41
1
10
3.74371254738386
20
2.42938429972818
30
0
41
1
10
3.73568218802748
20
2.43615360013288
30
0
41
1
10
3.71894702322535
20
2.44931991709473
30
0
41
1
10
3.71018655502036
20
2.4557572776734
30
0
41
1
10
3.69199669838289
20
2.46792512375947
30
0
41
1
10
3.6826573063114
20
2.47360253652525
30
0
41
1
10
3.66815611173757
20
2.48130033551337
30
0
41
1
10
3.66320152039847
20
2.48374495543567
30
0
41
1
10
3.6533258695859
20
2.48820321034708
30
0
41
1
10
3.64840508600849
20
2.49022025336322
30
0
41
1
10
3.63369748250523
20
2.4955927704772
30
0
41
1
10
3.62385803280506
20
2.49826444395637
30
0
41
1
10
3.61016028210244
20
2.50060316327074
30
0
41
1
10
3.60573379441996
20
2.50112290571224
30
0
41
1
10
3.59714503126932
20
2.50167121094339
30
0
41
1
10
3.59300050944216
20
2.50169507399576
30
0
41
1
10
3.58126502330631
20
2.50111093048531
30
0
41
1
10
3.5742338856308
20
2.49986549845224
30
0
41
1
10
3.56137886825806
20
2.49607756897615
30
0
41
1
10
3.55567660771661
20
2.49356509258294
30
0
41
1
10
3.54546422479282
20
2.48771625329627
30
0
41
1
10
3.54092736680977
20
2.4843662911388
30
0
41
1
10
3.53274146205689
20
2.47700687158491
30
0
41
1
10
3.5290890016355
20
2.47298250225759
30
0
41
1
10
3.51939330700952
20
2.46031468666445
30
0
41
1
10
3.51450832029525
20
2.45102943510108
30
0
41
1
10
3.50694820742265
20
2.43129805726389
30
0
41
1
10
3.50429030539607
20
2.42084249119463
30
0
41
1
10
3.5008074850432
20
2.39897679023952
30
0
41
1
10
3.49999999999969
20
2.38764398799791
30
0
41
1
10
3.50000000000003
20
2.37598208071384
30
0
0
SPLINE
5
DC
100
AcDbEntity
8
1
62
256
6
ByLayer
370
18
48
1
60
0
100
AcDbSpline
70
4
71
3
72
21
73
17
40
0
40
0
40
0
40
0
40
0.249999999999997
40
0.249999999999997
40
0.374999999999996
40
0.374999999999996
40
0.499999999999995
40
0.624999999999995
40
0.624999999999995
40
0.749999999999994
40
0.749999999999994
40
0.874999999999993
40
0.874999999999993
40
0.937499999999996
40
0.937499999999996
40
1
40
1
40
1
40
1
41
1
10
3.63552151260177
20
-4.94437288018696
30
0
41
1
10
3.61358371168475
20
-4.95274325018991
30
0
41
1
10
3.59430381405835
20
-4.96305572848209
30
0
41
1
10
3.56882119851315
20
-4.98099471443052
30
0
41
1
10
3.56091354301796
20
-4.98741031461978
30
0
41
1
10
3.54670563245452
20
-5.00062557265602
30
0
41
1
10
3.53395387667578
20
-5.01432252258186
30
0
41
1
10
3.52393014519313
20
-5.02891033179031
30
0
41
1
10
3.51525676892098
20
-5.04393425442134
30
0
41
1
10
3.51161537139595
20
-5.05164664206765
30
0
41
1
10
3.50581894832769
20
-5.06717441537862
30
0
41
1
10
3.50363739308907
20
-5.07504528113736
30
0
41
1
10
3.50145415870921
20
-5.08692555641585
30
0
41
1
10
3.50090840706551
20
-5.09089455043178
30
0
41
1
10
3.50018077682006
20
-5.09884314481073
30
0
41
1
10
3.50000000000003
20
-5.10284445629372
30
0
41
1
10
3.50000000000003
20
-5.10676801204053
30
0
0
SPLINE
5
DD
100
AcDbEntity
8
1
62
256
6
ByLayer
370
13
48
1
60
0
100
AcDbSpline
70
4
71
3
72
12
73
8
40
0
40
0
40
0
40
0
40
0.499999999999998
40
0.499999999999998
40
0.749999999999999
40
0.749999999999999
40
1
40
1
40
1
40
1
41
1
10
3.75032206212151
20
-4.92998914717936
30
0
41
1
10
3.73034885516361
20
-4.92793406591045
30
0
41
1
10
3.71077294970846
20
-4.92814044265612
30
0
41
1
10
3.6819933820606
20
-4.93171069359119
30
0
41
1
10
3.67249855355448
20
-4.93344988984973
30
0
41
1
10
3.6537161368648
20
-4.93807564047356
30
0
41
1
10
3.64448726242321
20
-4.94095199749944
30
0
41
1
10
3.63552151260177
20
-4.94437288018696
30
0
0
SPLINE
5
DE
100
AcDbEntity
8
1
62
256
6
ByLayer
370
18
48
1
60
0
100
AcDbSpline
70
4
71
3
72
60
73
56
40
0
40
0
40
0
40
0
40
0.0710479566993789
40
0.0710479566993789
40
0.106571935049068
40
0.106571935049068
40
0.142095913398758
40
0.142095913398758
40
0.177619891748447
40
0.177619891748447
40
0.213143870098137
40
0.213143870098137
40
0.248667848447826
40
0.248667848447826
40
0.284191826797515
40
0.284191826797515
40
0.319715805147205
40
0.319715805147205
40
0.355239783496894
40
0.355239783496894
40
0.426287740196273
40
0.426287740196273
40
0.444049729371118
40
0.444049729371118
40
0.461811718545963
40
0.461811718545963
40
0.497335696895652
40
0.497335696895652
40
0.515097686070497
40
0.515097686070497
40
0.532859675245341
40
0.532859675245341
40
0.568383653595031
40
0.568383653595031
40
0.63943161029441
40
0.63943161029441
40
0.674955588644099
40
0.674955588644099
40
0.710479566993789
40
0.710479566993789
40
0.746003545343478
40
0.746003545343478
40
0.781527523693167
40
0.781527523693167
40
0.852575480392546
40
0.852575480392546
40
0.888099458742235
40
0.888099458742235
40
0.923623437091923
40
0.923623437091923
40
0.959147415441611
40
0.959147415441611
40
0.994671393791299
40
0.994671393791299
40
1
40
1
40
1
40
1
41
1
10
70.423442353696
20
1.14421148421013
30
0
41
1
10
70.0973194812665
20
1.3061750966632
30
0
41
1
10
69.7710801294856
20
1.466057979835
30
0
41
1
10
69.281192559016
20
1.70215605079542
30
0
41
1
10
69.1178165405489
20
1.78024620505877
30
0
41
1
10
68.7909913718296
20
1.93535554789978
30
0
41
1
10
68.6275881014482
20
2.01245797322997
30
0
41
1
10
68.3004922409516
20
2.1651746404265
30
0
41
1
10
68.1367716848859
20
2.24082370835941
30
0
41
1
10
67.8097033117866
20
2.39009293757994
30
0
41
1
10
67.6462709419588
20
2.46377071138568
30
0
41
1
10
67.3195694333874
20
2.60908604275036
30
0
41
1
10
67.1563080638449
20
2.68071983047045
30
0
41
1
10
66.8299216049092
20
2.82178316791797
30
0
41
1
10
66.6667720777112
20
2.89120509760807
30
0
41
1
10
66.3404444485264
20
3.02791282602345
30
0
41
1
10
66.1772749292333
20
3.09519637922253
30
0
41
1
10
65.8510919818555
20
3.22777925367015
30
0
41
1
10
65.6880245527388
20
3.29298960528229
30
0
41
1
10
65.1985946873263
20
3.48476295005165
30
0
41
1
10
64.8720017340798
20
3.60744691634798
30
0
41
1
10
64.4628837976589
20
3.75406504602722
30
0
41
1
10
64.381001932687
20
3.78305874918226
30
0
41
1
10
64.2174153719448
20
3.84027324089044
30
0
41
1
10
64.1356790808834
20
3.86850487798779
30
0
41
1
10
63.890637172418
20
3.95205435475498
30
0
41
1
10
63.727494562588
20
4.00622239256654
30
0
41
1
10
63.4831627230243
20
4.08519447469195
30
0
41
1
10
63.4017814359695
20
4.11113686195375
30
0
41
1
10
63.2391741732177
20
4.16228630111615
30
0
41
1
10
63.1579488748746
20
4.18749463713374
30
0
41
1
10
62.9144175821705
20
4.2619134401906
30
0
41
1
10
62.7522628710749
20
4.3099265437105
30
0
41
1
10
62.2661472926274
20
4.44896672300263
30
0
41
1
10
61.9425180310891
20
4.53509819314434
30
0
41
1
10
61.4575490480647
20
4.65364060251051
30
0
41
1
10
61.2959751028842
20
4.69135887486581
30
0
41
1
10
60.9729379039791
20
4.76310013952576
30
0
41
1
10
60.8114667807421
20
4.79715239323224
30
0
41
1
10
60.4886100208508
20
4.86190339514894
30
0
41
1
10
60.3272707950253
20
4.89263648961702
30
0
41
1
10
60.0044192869282
20
4.95077554516959
30
0
41
1
10
59.8429208970401
20
4.97817793010617
30
0
41
1
10
59.3580773441023
20
5.0551463208019
30
0
41
1
10
59.0344189485041
20
5.09949589194392
30
0
41
1
10
58.548035418366
20
5.15486343875767
30
0
41
1
10
58.3857507688414
20
5.17145756581894
30
0
41
1
10
58.0608606995924
20
5.20082532217552
30
0
41
1
10
57.8982515160302
20
5.21360354458446
30
0
41
1
10
57.572831805855
20
5.23521582019265
30
0
41
1
10
57.409985067334
20
5.2440405763794
30
0
41
1
10
57.0837700785226
20
5.25741682512472
30
0
41
1
10
56.920387007184
20
5.26191641096298
30
0
41
1
10
56.7321845821363
20
5.26472321864102
30
0
41
1
10
56.7076383441395
20
5.26504644926467
30
0
41
1
10
56.6830937984178
20
5.26532743856998
30
0
0
SPLINE
5
DF
100
AcDbEntity
8
1
62
256
6
ByLayer
370
18
48
1
60
0
100
AcDbSpline
70
4
71
3
72
99
73
95
40
0
40
0
40
0
40
0
40
0.0127060286447762
40
0.0127060286447762
40
0.034168941065541
40
0.034168941065541
40
0.0556318534863061
40
0.0556318534863061
40
0.0770947659070709
40
0.0770947659070709
40
0.098557678327836
40
0.098557678327836
40
0.120020590748601
40
0.120020590748601
40
0.141483503169366
40
0.141483503169366
40
0.162946415590131
40
0.162946415590131
40
0.184409328010896
40
0.184409328010896
40
0.205872240431661
40
0.205872240431661
40
0.216603696642043
40
0.216603696642043
40
0.227335152852426
40
0.227335152852426
40
0.248798065273191
40
0.248798065273191
40
0.270260977693956
40
0.270260977693956
40
0.291723890114721
40
0.291723890114721
40
0.313186802535486
40
0.313186802535486
40
0.356112627377017
40
0.356112627377017
40
0.377575539797783
40
0.377575539797783
40
0.388306996008165
40
0.388306996008165
40
0.399038452218548
40
0.399038452218548
40
0.44196427706008
40
0.44196427706008
40
0.463427189480845
40
0.463427189480845
40
0.48489010190161
40
0.48489010190161
40
0.506353014322375
40
0.506353014322375
40
0.52781592674314
40
0.52781592674314
40
0.549278839163905
40
0.549278839163905
40
0.57074175158467
40
0.57074175158467
40
0.592204664005436
40
0.592204664005436
40
0.613667576426203
40
0.613667576426203
40
0.635130488846969
40
0.635130488846969
40
0.656593401267736
40
0.656593401267736
40
0.678056313688502
40
0.678056313688502
40
0.699519226109269
40
0.720982138530035
40
0.720982138530035
40
0.731713594740418
40
0.731713594740418
40
0.742445050950801
40
0.742445050950801
40
0.763907963371568
40
0.763907963371568
40
0.785370875792335
40
0.785370875792335
40
0.806833788213101
40
0.806833788213101
40
0.828296700633868
40
0.828296700633868
40
0.849759613054634
40
0.849759613054634
40
0.871222525475401
40
0.871222525475401
40
0.892685437896167
40
0.892685437896167
40
0.914148350316934
40
0.914148350316934
40
0.9356112627377
40
0.9356112627377
40
0.957074175158467
40
0.957074175158467
40
1
40
1
40
1
40
1
41
1
10
30.6840861621382
20
-4.12505927929453
30
0
41
1
10
30.5882814147874
20
-4.15497539825961
30
0
41
1
10
30.4925164151443
20
-4.18432858193765
30
0
41
1
10
30.2351207654493
20
-4.26170252334754
30
0
41
1
10
30.0735803020122
20
-4.30870687368682
30
0
41
1
10
29.7505970541614
20
-4.39995855175346
30
0
41
1
10
29.5891031422137
20
-4.44411982115909
30
0
41
1
10
29.2660177180154
20
-4.52923666539891
30
0
41
1
10
29.1044237174115
20
-4.57019065149848
30
0
41
1
10
28.781114683051
20
-4.64871629922362
30
0
41
1
10
28.6193976490789
20
-4.68629754502444
30
0
41
1
10
28.2958456900806
20
-4.75769547545619
30
0
41
1
10
28.1340214486217
20
-4.79144628198051
30
0
41
1
10
27.8100633785872
20
-4.85555127989193
30
0
41
1
10
27.64792011878
20
-4.88598295736941
30
0
41
1
10
27.3233796745556
20
-4.94361727961808
30
0
41
1
10
27.1610411724549
20
-4.97083298306248
30
0
41
1
10
26.8360153680715
20
-5.02168430687692
30
0
41
1
10
26.6733195000328
20
-5.04533098949378
30
0
41
1
10
26.347446697558
20
-5.08867949170696
30
0
41
1
10
26.1842833765112
20
-5.10830998748571
30
0
41
1
10
25.9391179030764
20
-5.1347584960694
30
0
41
1
10
25.8573243617521
20
-5.14309181429593
30
0
41
1
10
25.6935795480867
20
-5.15887079678439
30
0
41
1
10
25.611597089711
20
-5.16632453042232
30
0
41
1
10
25.3657534746954
20
-5.18731381043375
30
0
41
1
10
25.2019309003465
20
-5.19947909804205
30
0
41
1
10
24.8744651670459
20
-5.22000928341345
30
0
41
1
10
24.7108171863795
20
-5.22838251029955
30
0
41
1
10
24.3838722394642
20
-5.24116156199685
30
0
41
1
10
24.2205761624578
20
-5.24552081186249
30
0
41
1
10
23.8940735542978
20
-5.24990777733865
30
0
41
1
10
23.7308533000756
20
-5.2500277810723
30
0
41
1
10
23.2409149060148
20
-5.24519269726679
30
0
41
1
10
22.9140122767916
20
-5.23481788496778
30
0
41
1
10
22.4231291092544
20
-5.20732227693034
30
0
41
1
10
22.2594029238845
20
-5.19617350427217
30
0
41
1
10
22.0137106245081
20
-5.17622636044507
30
0
41
1
10
21.9317952583674
20
-5.16903535538137
30
0
41
1
10
21.7679336317618
20
-5.15365726250255
30
0
41
1
10
21.685994558783
20
-5.14546647370466
30
0
41
1
10
21.2768004096826
20
-5.1023522733062
30
0
41
1
10
20.9503032379815
20
-5.06111184370062
30
0
41
1
10
20.4616722954194
20
-4.98819232407769
30
0
41
1
10
20.2989900344164
20
-4.96204025492295
30
0
41
1
10
19.9739958438081
20
-4.90591958269744
30
0
41
1
10
19.8116993579025
20
-4.87588853266635
30
0
41
1
10
19.4873042443032
20
-4.81244415217347
30
0
41
1
10
19.3251860097398
20
-4.77912073888115
30
0
41
1
10
19.001176693829
20
-4.70921932770815
30
0
41
1
10
18.8393511494577
20
-4.67254972750152
30
0
41
1
10
18.5158571516307
20
-4.59574016887601
30
0
41
1
10
18.3541910707006
20
-4.55557828314977
30
0
41
1
10
18.0308717273557
20
-4.47188962136084
30
0
41
1
10
17.8692187502165
20
-4.42838630208178
30
0
41
1
10
17.545821432276
20
-4.33833844747585
30
0
41
1
10
17.3840739757227
20
-4.29180872031418
30
0
41
1
10
17.0604162444007
20
-4.19586934689127
30
0
41
1
10
16.8985068586334
20
-4.14643724742257
30
0
41
1
10
16.5745346471098
20
-4.04448370869051
30
0
41
1
10
16.412470331069
20
-3.99196077301227
30
0
41
1
10
16.0883145518731
20
-3.88351353087447
30
0
41
1
10
15.9262169760845
20
-3.82761299647061
30
0
41
1
10
15.601649844331
20
-3.71305510466181
30
0
41
1
10
15.4391925715431
20
-3.65438359781319
30
0
41
1
10
15.1138164203503
20
-3.53455372625874
30
0
41
1
10
14.7879950793867
20
-3.41219496150012
30
0
41
1
10
14.4611983601616
20
-3.28455475235364
30
0
41
1
10
14.215691213983
20
-3.18678584640713
30
0
41
1
10
14.1337864255086
20
-3.15385577166484
30
0
41
1
10
13.9698328149413
20
-3.08734155832423
30
0
41
1
10
13.8877662165921
20
-3.05374838906474
30
0
41
1
10
13.641865482002
20
-2.95221313466095
30
0
41
1
10
13.478177845929
20
-2.88343106238801
30
0
41
1
10
13.1512855271744
20
-2.74375276183025
30
0
41
1
10
12.9880096691789
20
-2.67298627019548
30
0
41
1
10
12.6616819011171
20
-2.52975873392825
30
0
41
1
10
12.4986291814321
20
-2.45729768759591
30
0
41
1
10
12.1727236639835
20
-2.31067372240077
30
0
41
1
10
12.009877039653
20
-2.23649041261584
30
0
41
1
10
11.6842878393867
20
-2.08662459363919
30
0
41
1
10
11.5215411078932
20
-2.01095508246559
30
0
41
1
10
11.1960341779328
20
-1.858416092997
30
0
41
1
10
11.033271390971
20
-1.7815600302587
30
0
41
1
10
10.707796711022
20
-1.62653271248354
30
0
41
1
10
10.5451462918601
20
-1.54823415348048
30
0
41
1
10
10.2198236120848
20
-1.39035583969277
30
0
41
1
10
10.0571574236306
20
-1.31075898667197
30
0
41
1
10
9.73174368677061
20
-1.15035996798917
30
0
41
1
10
9.56897840886663
20
-1.06960916967432
30
0
41
1
10
9.24308681921218
20
-0.907589386778
30
0
41
1
10
9.07995549835587
20
-0.826322361808451
30
0
41
1
10
8.58991950459381
20
-0.581902777117676
30
0
41
1
10
8.26239851160835
20
-0.418068839887127
30
0
41
1
10
7.93384422769148
20
-0.25351992547462
30
0
0
SPLINE
5
E0
100
AcDbEntity
8
1
62
256
6
ByLayer
370
18
48
1
60
0
100
AcDbSpline
70
4
71
3
72
26
73
22
40
0
40
0
40
0
40
0
40
0.125
40
0.125
40
0.249999999999999
40
0.249999999999999
40
0.374999999999999
40
0.374999999999999
40
0.499999999999999
40
0.499999999999999
40
0.624999999999998
40
0.624999999999998
40
0.687499999999998
40
0.687499999999998
40
0.718749999999996
40
0.718749999999996
40
0.749999999999995
40
0.749999999999995
40
0.874999999999997
40
0.874999999999997
40
1
40
1
40
1
40
1
41
1
10
7.93373927761695
20
-0.25346700010445
30
0
41
1
10
7.74591030284432
20
-0.158746094779417
30
0
41
1
10
7.55937403723843
20
-0.0622054127749152
30
0
41
1
10
7.1887128074645
20
0.134272419238073
30
0
41
1
10
7.00458430168013
20
0.234205157213268
30
0
41
1
10
6.63904495827725
20
0.437848544431603
30
0
41
1
10
6.45763290062479
20
0.541557530206745
30
0
41
1
10
6.09784840548187
20
0.753158670452649
30
0
41
1
10
5.91947437872051
20
0.861048669101734
30
0
41
1
10
5.56618779516333
20
1.0815528448029
30
0
41
1
10
5.39127222000096
20
1.19416294933569
30
0
41
1
10
5.13193689473127
20
1.36719714252862
30
0
41
1
10
5.04599966050966
20
1.42556379354011
30
0
41
1
10
4.91792965577616
20
1.51424411023996
30
0
41
1
10
4.87537911263928
20
1.54399281007403
30
0
41
1
10
4.79057136786682
20
1.60388646821605
30
0
41
1
10
4.74828613769873
20
1.63405186179264
30
0
41
1
10
4.53815694232693
20
1.78554304616674
30
0
41
1
10
4.37395813827104
20
1.90899515113182
30
0
41
1
10
4.05500597764882
20
2.16131504016246
30
0
41
1
10
3.90022976476743
20
2.29016925953312
30
0
41
1
10
3.751483567815
20
2.42247232584015
30
0
0
SPLINE
5
E1
100
AcDbEntity
8
1
62
256
6
ByLayer
370
13
48
1
60
0
100
AcDbSpline
70
4
71
3
72
56
73
52
40
0
40
0
40
0
40
0
40
0.0624999999999996
40
0.0624999999999996
40
0.0781249999999994
40
0.0781249999999994
40
0.0937499999999993
40
0.0937499999999993
40
0.124999999999999
40
0.124999999999999
40
0.187499999999999
40
0.249999999999999
40
0.249999999999999
40
0.281249999999999
40
0.281249999999999
40
0.296874999999999
40
0.296874999999999
40
0.312499999999999
40
0.312499999999999
40
0.374999999999999
40
0.437499999999998
40
0.437499999999998
40
0.468749999999998
40
0.468749999999998
40
0.484374999999998
40
0.484374999999998
40
0.499999999999998
40
0.499999999999998
40
0.531249999999998
40
0.531249999999998
40
0.562499999999998
40
0.562499999999998
40
0.624999999999998
40
0.687499999999998
40
0.687499999999998
40
0.703124999999998
40
0.703124999999998
40
0.718749999999998
40
0.718749999999998
40
0.749999999999999
40
0.749999999999999
40
0.812499999999999
40
0.875
40
0.875
40
0.90625
40
0.90625
40
0.921875
40
0.921875
40
0.9375
40
0.9375
40
1
40
1
40
1
40
1
41
1
10
3.75148356781435
20
2.42247232585936
30
0
41
1
10
3.75148633360584
20
2.25611040875035
30
0
41
1
10
3.75148595012976
20
2.08567602058852
30
0
41
1
10
3.75148194905452
20
1.8675613375961
30
0
41
1
10
3.75148097222683
20
1.82368413002791
30
0
41
1
10
3.75147867367735
20
1.73541888673054
30
0
41
1
10
3.75147735084829
20
1.69100867970181
30
0
41
1
10
3.75147289838807
20
1.55760073332723
30
0
41
1
10
3.75146928125028
20
1.46823992398762
30
0
41
1
10
3.75145663465983
20
1.1989165264595
30
0
41
1
10
3.75143499933438
20
0.836516295482937
30
0
41
1
10
3.75140505526582
20
0.467608663422993
30
0
41
1
10
3.75137978358256
20
0.188440575119955
30
0
41
1
10
3.75137088928662
20
0.0949691123943808
30
0
41
1
10
3.75135686596559
20
-0.0458754985545227
30
0
41
1
10
3.75135209313649
20
-0.0927745929202217
30
0
41
1
10
3.75134237647995
20
-0.186301459886124
30
0
41
1
10
3.75133742985278
20
-0.232957380527012
30
0
41
1
10
3.75131227348112
20
-0.465705052489596
30
0
41
1
10
3.75126933183532
20
-0.834706127417206
30
0
41
1
10
3.7512216542969
20
-1.1970541285188
30
0
41
1
10
3.75118420549666
20
-1.46628607024493
30
0
41
1
10
3.75117143927673
20
-1.55560767112814
30
0
41
1
10
3.75115186116847
20
-1.6889438845771
30
0
41
1
10
3.751145257742
20
-1.73331991026095
30
0
41
1
10
3.75113193695356
20
-1.82164800301044
30
0
41
1
10
3.75112522227497
20
-1.86558351975259
30
0
41
1
10
3.75110491464687
20
-1.99670504592561
30
0
41
1
10
3.75109113817979
20
-2.08332511306241
30
0
41
1
10
3.75106332426446
20
-2.25360404895929
30
0
41
1
10
3.75104926993831
20
-2.33737836591604
30
0
41
1
10
3.75100664436755
20
-2.58468156774279
30
0
41
1
10
3.75094858673441
20
-2.90372210347598
30
0
41
1
10
3.75088762152294
20
-3.2016134176011
30
0
41
1
10
3.75084836029706
20
-3.38103642105196
30
0
41
1
10
3.75084044967997
20
-3.41658214188195
30
0
41
1
10
3.75082450354273
20
-3.48698827862384
30
0
41
1
10
3.75081645566229
20
-3.5219007871768
30
0
41
1
10
3.75079221821554
20
-3.62514392028703
30
0
41
1
10
3.75077594160828
20
-3.6919629008629
30
0
41
1
10
3.75072667268753
20
-3.88651911559145
30
0
41
1
10
3.75065981601142
20
-4.13022492309099
30
0
41
1
10
3.75058959781148
20
-4.3430576420073
30
0
41
1
10
3.75053520438712
20
-4.49090745532112
30
0
41
1
10
3.75051678385242
20
-4.53822417539257
30
0
41
1
10
3.75048864976733
20
-4.60618542925064
30
0
41
1
10
3.75047918695347
20
-4.62833641825887
30
0
41
1
10
3.75046016609707
20
-4.6714338488764
30
0
41
1
10
3.7504505977474
20
-4.6924057405565
30
0
41
1
10
3.75040244229803
20
-4.79439147495452
30
0
41
1
10
3.75036291687883
20
-4.86680904513551
30
0
41
1
10
3.75032206212151
20
-4.92998914717936
30
0
0
SPLINE
5
E2
100
AcDbEntity
8
1
62
256
6
ByLayer
370
18
48
1
60
0
100
AcDbSpline
70
4
71
3
72
53
73
49
40
0
40
0
40
0
40
0
40
0.0625000000000013
40
0.0625000000000013
40
0.125000000000003
40
0.125000000000003
40
0.156250000000003
40
0.156250000000003
40
0.171875000000003
40
0.171875000000003
40
0.187500000000004
40
0.187500000000004
40
0.250000000000005
40
0.250000000000005
40
0.312500000000006
40
0.312500000000006
40
0.343750000000006
40
0.343750000000006
40
0.359375000000006
40
0.359375000000006
40
0.375000000000006
40
0.375000000000006
40
0.437500000000006
40
0.437500000000006
40
0.500000000000005
40
0.500000000000005
40
0.562500000000005
40
0.562500000000005
40
0.578125000000004
40
0.578125000000004
40
0.593750000000004
40
0.625000000000004
40
0.625000000000004
40
0.687500000000003
40
0.687500000000003
40
0.750000000000002
40
0.750000000000002
40
0.765625000000001
40
0.765625000000001
40
0.781250000000001
40
0.781250000000001
40
0.812500000000001
40
0.812500000000001
40
0.875000000000001
40
0.875000000000001
40
0.9375
40
0.9375
40
1
40
1
40
1
40
1
41
1
10
70.4234423536961
20
1.14421148421013
30
0
41
1
10
70.403917694126
20
0.967378193272197
30
0
41
1
10
70.3913718512759
20
0.789737451388277
30
0
41
1
10
70.3778245838013
20
0.432915311664459
30
0
41
1
10
70.3768272736321
20
0.253733776997876
30
0
41
1
10
70.3824073761704
20
-0.016173596574788
30
0
41
1
10
70.385448670536
20
-0.10633224980819
30
0
41
1
10
70.3915983132177
20
-0.241855154451315
30
0
41
1
10
70.3939128954494
20
-0.287076966118036
30
0
41
1
10
70.3990416779064
20
-0.377615995081641
30
0
41
1
10
70.4018607845588
20
-0.423002456717313
30
0
41
1
10
70.4170584931169
20
-0.649115282688001
30
0
41
1
10
70.432711162619
20
-0.827463435184086
30
0
41
1
10
70.468666224361
20
-1.17948589940943
30
0
41
1
10
70.4889741411822
20
-1.35315903207683
30
0
41
1
10
70.5214956301847
20
-1.61031931850556
30
0
41
1
10
70.532682183057
20
-1.69547973474823
30
0
41
1
10
70.5498232965939
20
-1.82238780967106
30
0
41
1
10
70.555597347959
20
-1.86455165566682
30
0
41
1
10
70.5672413354584
20
-1.94860175567916
30
0
41
1
10
70.573118955428
20
-1.99054179929829
30
0
41
1
10
70.6025525885205
20
-2.19860136328515
30
0
41
1
10
70.6262730967038
20
-2.36015714618387
30
0
41
1
10
70.6727219867574
20
-2.67393085573917
30
0
41
1
10
70.6954531801076
20
-2.82614730179108
30
0
41
1
10
70.7389543215244
20
-3.12131648356379
30
0
41
1
10
70.7597250560158
20
-3.26426970547522
30
0
41
1
10
70.7840491857105
20
-3.43699880961927
30
0
41
1
10
70.7888388591229
20
-3.4712899791711
30
0
41
1
10
70.7982003080827
20
-3.53891667933368
30
0
41
1
10
70.8119281129694
20
-3.63900668417944
30
0
41
1
10
70.8247057377177
20
-3.73509195257805
30
0
41
1
10
70.8490054409118
20
-3.92200007148679
30
0
41
1
10
70.8635207588169
20
-4.03960274492795
30
0
41
1
10
70.8894957186665
20
-4.26086495622948
30
0
41
1
10
70.9009540744415
20
-4.36452484797502
30
0
41
1
10
70.9137808147596
20
-4.4851436500945
30
0
41
1
10
70.9162722768102
20
-4.50881847710403
30
0
41
1
10
70.9211216712751
20
-4.55525956097475
30
0
41
1
10
70.9234817573982
20
-4.57804676832916
30
0
41
1
10
70.9303712301236
20
-4.64488641167955
30
0
41
1
10
70.9346864541036
20
-4.68719258826496
30
0
41
1
10
70.9470531021805
20
-4.80750358814672
30
0
41
1
10
70.9545181529033
20
-4.87891733477929
30
0
41
1
10
70.9694069792846
20
-5.00454613746163
30
0
41
1
10
70.9768288184642
20
-5.05875887297435
30
0
41
1
10
70.9934064602851
20
-5.14985933149049
30
0
41
1
10
71.0025581451176
20
-5.18674972489089
30
0
41
1
10
71.0136389614501
20
-5.21465596427987
30
0
0
SPLINE
5
E3
100
AcDbEntity
8
1
62
256
6
ByLayer
370
13
48
1
60
0
100
AcDbSpline
70
4
71
3
72
46
73
42
40
0
40
0
40
0
40
0
40
0.0294733809628684
40
0.0294733809628684
40
0.0469339204013823
40
0.0469339204013823
40
0.0643944598398956
40
0.0643944598398956
40
0.134236617593951
40
0.134236617593951
40
0.16915769647098
40
0.16915769647098
40
0.204078775348009
40
0.204078775348009
40
0.273920933102067
40
0.273920933102067
40
0.308842011979096
40
0.308842011979096
40
0.343763090856125
40
0.343763090856125
40
0.48344740636424
40
0.48344740636424
40
0.553289564118297
40
0.553289564118297
40
0.57075010355681
40
0.57075010355681
40
0.588210642995324
40
0.588210642995324
40
0.623131721872355
40
0.623131721872355
40
0.692973879626414
40
0.692973879626414
40
0.762816037380473
40
0.762816037380473
40
0.832658195134531
40
0.832658195134531
40
0.902500352888591
40
0.902500352888591
40
0.97234251064265
40
0.97234251064265
40
1
40
1
40
1
40
1
41
1
10
19.5976178470516
20
1.99015050100934
30
0
41
1
10
19.7460971590144
20
1.92083098667041
30
0
41
1
10
19.894773807215
20
1.85082091641635
30
0
41
1
10
20.1318899680862
20
1.73833274198063
30
0
41
1
10
20.2202081715294
20
1.69624994896208
30
0
41
1
10
20.3968997296866
20
1.6116987872829
30
0
41
1
10
20.4851637591366
20
1.56928249052905
30
0
41
1
10
20.9260899398829
20
1.35652809190194
30
0
41
1
10
21.2775767792168
20
1.18418403988389
30
0
41
1
10
21.8035028934123
20
0.923630938418711
30
0
41
1
10
21.978596729801
20
0.836445141742644
30
0
41
1
10
22.3284819129678
20
0.661659264862209
30
0
41
1
10
22.5032695469949
20
0.574052060994319
30
0
41
1
10
23.0272416151169
20
0.310742420969206
30
0
41
1
10
23.3760429401895
20
0.134566699838132
30
0
41
1
10
23.8990092404844
20
-0.129566894820385
30
0
41
1
10
24.0732945227081
20
-0.21758515603517
30
0
41
1
10
24.42191015652
20
-0.393332290358302
30
0
41
1
10
24.596237250052
20
-0.481067263062073
30
0
41
1
10
25.4680994090806
20
-0.918775925791408
30
0
41
1
10
26.1664162964099
20
-1.2656509408462
30
0
41
1
10
27.2194016195429
20
-1.77241501024307
30
0
41
1
10
27.5713324366446
20
-1.939042795517
30
0
41
1
10
28.012892413329
20
-2.14349819683787
30
0
41
1
10
28.1012205540705
20
-2.18416766480118
30
0
41
1
10
28.2776339688497
20
-2.26492366894297
30
0
41
1
10
28.3657613534634
20
-2.30503002683639
30
0
41
1
10
28.6299179902478
20
-2.42451792249273
30
0
41
1
10
28.805723626736
20
-2.50306435000348
30
0
41
1
10
29.3324204670972
20
-2.73506600476298
30
0
41
1
10
29.6825900212781
20
-2.8848935840399
30
0
41
1
10
30.3817346806173
20
-3.17372642460202
30
0
41
1
10
30.730731453259
20
-3.31276392397228
30
0
41
1
10
31.4281782867211
20
-3.57908147641439
30
0
41
1
10
31.7766359785209
20
-3.70633626207976
30
0
41
1
10
32.4737754198457
20
-3.94798303487781
30
0
41
1
10
32.822461089964
20
-4.06242108980683
30
0
41
1
10
33.5207272924769
20
-4.27750090161572
30
0
41
1
10
33.8702982904982
20
-4.37811409595182
30
0
41
1
10
34.3594390877621
20
-4.50824139772115
30
0
41
1
10
34.4983214093725
20
-4.54399934619124
30
0
41
1
10
34.6373548033732
20
-4.5785701307565
30
0
0
SPLINE
5
E4
100
AcDbEntity
8
1
62
256
6
ByLayer
370
18
48
1
60
0
100
AcDbSpline
70
4
71
3
72
26
73
22
40
0
40
0
40
0
40
0
40
0.12015119015144
40
0.12015119015144
40
0.169882636937992
40
0.169882636937992
40
0.219614083724544
40
0.219614083724544
40
0.319076977297649
40
0.319076977297649
40
0.518002764443863
40
0.518002764443863
40
0.567734211230412
40
0.567734211230412
40
0.617465658016962
40
0.617465658016962
40
0.716928551590066
40
0.716928551590066
40
0.915854338736275
40
0.915854338736275
40
1
40
1
40
1
40
1
41
1
10
34.6373548025713
20
-4.5785701305571
30
0
41
1
10
34.8494159030414
20
-4.63129932322846
30
0
41
1
10
35.0618284578213
20
-4.68126670171438
30
0
41
1
10
35.3627681018115
20
-4.74784936677924
30
0
41
1
10
35.4509388015446
20
-4.7668470992281
30
0
41
1
10
35.6274388143055
20
-4.80383774521297
30
0
41
1
10
35.7157867616346
20
-4.82183365727391
30
0
41
1
10
35.9806674281419
20
-4.87420903060874
30
0
41
1
10
36.1571664354332
20
-4.90700690501075
30
0
41
1
10
36.6865539188446
20
-4.99899454613802
30
0
41
1
10
37.0393419310536
20
-5.05181194571975
30
0
41
1
10
37.4806088296534
20
-5.10684410411272
30
0
41
1
10
37.5688760041746
20
-5.11730015266423
30
0
41
1
10
37.7454488291084
20
-5.13710240629976
30
0
41
1
10
37.8337845038217
20
-5.14645105961037
30
0
41
1
10
38.0986029529996
20
-5.1727962232948
30
0
41
1
10
38.2748868208244
20
-5.18809486266554
30
0
41
1
10
38.8031061488302
20
-5.22724066932309
30
0
41
1
10
39.1544207162872
20
-5.24437150163999
30
0
41
1
10
39.6536770728549
20
-5.25595709068185
30
0
41
1
10
39.8019988777043
20
-5.25778474905792
30
0
41
1
10
39.95026152547
20
-5.2580027827612
30
0
0
SPLINE
5
E5
100
AcDbEntity
8
1
62
256
6
ByLayer
370
18
48
1
60
0
100
AcDbSpline
70
4
71
3
72
17
73
13
40
0
40
0
40
0
40
0
40
0.150195234835976
40
0.225292852253965
40
0.225292852253965
40
0.300390469671954
40
0.300390469671954
40
0.600780939343909
40
0.600780939343909
40
0.901171409015863
40
0.901171409015863
40
1
40
1
40
1
40
1
41
1
10
3.75032206212154
20
-4.92998914717936
30
0
41
1
10
3.92705074030303
20
-4.96014874863457
30
0
41
1
10
4.19210895521022
20
-5.00211069520091
30
0
41
1
10
4.45720291263427
20
-5.03913142932348
30
0
41
1
10
4.63395019756811
20
-5.06271051028926
30
0
41
1
10
4.72235929104752
20
-5.07395258684579
30
0
41
1
10
5.16415753923673
20
-5.12736153306446
30
0
41
1
10
5.51626222294161
20
-5.16106566638061
30
0
41
1
10
6.21852225730495
20
-5.21058397292876
30
0
41
1
10
6.56868509873169
20
-5.22641287312752
30
0
41
1
10
7.0333333628995
20
-5.23573258753711
30
0
41
1
10
7.14830129720511
20
-5.23708037125365
30
0
41
1
10
7.26322121010639
20
-5.23746812053133
30
0
0
SPLINE
5
E6
100
AcDbEntity
8
1
62
256
6
ByLayer
370
13
48
1
60
0
100
AcDbSpline
70
4
71
3
72
35
73
31
40
0
40
0
40
0
40
0
40
0.136277352745879
40
0.136277352745879
40
0.276914434539799
40
0.276914434539799
40
0.347232975436761
40
0.347232975436761
40
0.417551516333722
40
0.417551516333722
40
0.452710786782203
40
0.470290422006444
40
0.470290422006444
40
0.487870057230686
40
0.487870057230686
40
0.558188598127656
40
0.558188598127656
40
0.698825679921594
40
0.698825679921594
40
0.769144220818563
40
0.769144220818563
40
0.786723856042806
40
0.786723856042806
40
0.804303491267048
40
0.804303491267048
40
0.83946276171553
40
0.83946276171553
40
0.98009984350946
40
0.98009984350946
40
1
40
1
40
1
40
1
41
1
10
52.1847598730832
20
2.02717893795841
30
0
41
1
10
52.8667819526755
20
1.70842677628994
30
0
41
1
10
53.5445417452869
20
1.37851566363119
30
0
41
1
10
54.9183962274806
20
0.696163761623637
30
0
41
1
10
55.6144255817139
20
0.343409291916373
30
0
41
1
10
56.6600174998564
20
-0.18674834099761
30
0
41
1
10
57.0088336334637
20
-0.363584836144497
30
0
41
1
10
57.7077561028324
20
-0.71603953949932
30
0
41
1
10
58.0578753401676
20
-0.891628106671732
30
0
41
1
10
58.5845147192621
20
-1.15310002323352
30
0
41
1
10
58.8482012045538
20
-1.28335474135565
30
0
41
1
10
59.1125421154024
20
-1.41267659272515
30
0
41
1
10
59.2889266207173
20
-1.4986599915778
30
0
41
1
10
59.377229571986
20
-1.54155152343299
30
0
41
1
10
59.8183393703722
20
-1.75497210911789
30
0
41
1
10
60.1704698177539
20
-1.92265514638194
30
0
41
1
10
61.2257029341409
20
-2.41451673914946
30
0
41
1
10
61.927732653921
20
-2.7273830689264
30
0
41
1
10
62.9829686018791
20
-3.16653264389669
30
0
41
1
10
63.3350795625456
20
-3.30790517680401
30
0
41
1
10
63.7761588836786
20
-3.47755369481186
30
0
41
1
10
63.8644493556671
20
-3.51114004932498
30
0
41
1
10
64.0407763485472
20
-3.5774520008496
30
0
41
1
10
64.1288530102197
20
-3.61019328093201
30
0
41
1
10
64.3928385222666
20
-3.70715347940344
30
0
41
1
10
64.5685023813459
20
-3.77010756907094
30
0
41
1
10
65.4454111674638
20
-4.0762175199809
30
0
41
1
10
66.1423937003933
20
-4.29344360806979
30
0
41
1
10
66.9361924535553
20
-4.50648374451848
30
0
41
1
10
67.0345646289282
20
-4.5322830876481
30
0
41
1
10
67.1329156214139
20
-4.55746611711422
30
0
0
SPLINE
5
E7
100
AcDbEntity
8
1
62
256
6
ByLayer
370
18
48
1
60
0
100
AcDbSpline
70
4
71
3
72
18
73
14
40
0
40
0
40
0
40
0
40
0.19289746849615
40
0.19289746849615
40
0.4619316456641
40
0.4619316456641
40
0.73096582283205
40
0.73096582283205
40
0.86548291141603
40
0.932741455708014
40
0.966370727854008
40
0.966370727854008
40
1
40
1
40
1
40
1
41
1
10
67.1329156233732
20
-4.55746611761586
30
0
41
1
10
67.382094474567
20
-4.62126901569874
30
0
41
1
10
67.6311373535945
20
-4.68111581924762
30
0
41
1
10
68.2274183485011
20
-4.81467481827829
30
0
41
1
10
68.5746308520794
20
-4.88454051953212
30
0
41
1
10
69.269690275313
20
-5.00780351413198
30
0
41
1
10
69.6175312823538
20
-5.06119767044825
30
0
41
1
10
70.1402338045206
20
-5.12845519218158
30
0
41
1
10
70.401820420784
20
-5.15887769461682
30
0
41
1
10
70.7075227361455
20
-5.18867384019148
30
0
41
1
10
70.8386601763031
20
-5.20021352502991
30
0
41
1
10
70.9261135213696
20
-5.20763225164058
30
0
41
1
10
70.9698503033505
20
-5.21116339183664
30
0
41
1
10
71.0136389614514
20
-5.21465596427984
30
0
0
SPLINE
5
E8
100
AcDbEntity
8
1
62
256
6
ByLayer
370
18
48
1
60
0
100
AcDbSpline
70
4
71
3
72
22
73
18
40
0
40
0
40
0
40
0
40
0.125
40
0.125
40
0.25
40
0.25
40
0.375
40
0.375
40
0.5
40
0.5
40
0.625
40
0.625
40
0.75
40
0.75
40
0.875
40
0.875
40
1
40
1
40
1
40
1
41
1
10
71.0136389614501
20
-5.21465596427976
30
0
41
1
10
71.0140564389377
20
-5.2157073513219
30
0
41
1
10
71.014304836583
20
-5.21725504531972
30
0
41
1
10
71.0144388399864
20
-5.22140353342144
30
0
41
1
10
71.0143228592434
20
-5.22402367621282
30
0
41
1
10
71.0136708345132
20
-5.23040846962652
30
0
41
1
10
71.0131430610292
20
-5.23410967232664
30
0
41
1
10
71.0116442725139
20
-5.2426267091831
30
0
41
1
10
71.0106577357168
20
-5.24750133961805
30
0
41
1
10
71.0082956997535
20
-5.25797723538889
30
0
41
1
10
71.0069151911237
20
-5.2636204305409
30
0
41
1
10
71.0037220444749
20
-5.27579346640837
30
0
41
1
10
71.0019676717103
20
-5.28209794169388
30
0
41
1
10
70.9982088564018
20
-5.29496132940429
30
0
41
1
10
70.9961793712798
20
-5.30159736188449
30
0
41
1
10
70.9920696213879
20
-5.31452075513863
30
0
41
1
10
70.989956990684
20
-5.320917063916
30
0
41
1
10
70.9878273078846
20
-5.32714997083593
30
0
0
SPLINE
5
E9
100
AcDbEntity
8
1
62
256
6
ByLayer
370
13
48
1
60
0
100
AcDbSpline
70
4
71
3
72
36
73
32
40
0
40
0
40
0
40
0
40
0.0032042525205075
40
0.0032042525205075
40
0.186304138160207
40
0.186304138160207
40
0.277854080980058
40
0.277854080980058
40
0.323629052389982
40
0.323629052389982
40
0.346516538094944
40
0.346516538094944
40
0.369404023799906
40
0.369404023799906
40
0.46095396661976
40
0.46095396661976
40
0.506728938029687
40
0.506728938029687
40
0.529616423734649
40
0.529616423734649
40
0.552503909439612
40
0.552503909439612
40
0.64405385225946
40
0.64405385225946
40
0.735603795079308
40
0.735603795079308
40
0.827153737899157
40
0.827153737899157
40
0.918703680719004
40
0.918703680719004
40
1
40
1
40
1
40
1
41
1
10
41.6107270097444
20
-5.27255801749303
30
0
41
1
10
41.5984590492205
20
-5.27367714788781
30
0
41
1
10
41.5861914274862
20
-5.27478518751821
30
0
41
1
10
40.8729366545508
20
-5.33856451286439
30
0
41
1
10
40.1730084267812
20
-5.36521623306288
30
0
41
1
10
39.1200976755472
20
-5.34995662789612
30
0
41
1
10
38.7686551339271
20
-5.33569910730466
30
0
41
1
10
38.2402195162373
20
-5.30056612745369
30
0
41
1
10
38.0638582228169
20
-5.28655651353543
30
0
41
1
10
37.7989097546302
20
-5.26207188361482
30
0
41
1
10
37.7105207305937
20
-5.25333065717265
30
0
41
1
10
37.5338435652907
20
-5.23471691748932
30
0
41
1
10
37.4455246630427
20
-5.22484213886227
30
0
41
1
10
37.0040020954782
20
-5.17264950761904
30
0
41
1
10
36.6510256680775
20
-5.12188334238274
30
0
41
1
10
36.1213646755563
20
-5.03262457355427
30
0
41
1
10
35.9447744110034
20
-5.0006799473806
30
0
41
1
10
35.6797497642097
20
-4.94950399449229
30
0
41
1
10
35.5913493647878
20
-4.93189425972986
30
0
41
1
10
35.4147381876509
20
-4.89564572699851
30
0
41
1
10
35.326514256909
20
-4.87700522142359
30
0
41
1
10
34.8857756599349
20
-4.7812629438406
30
0
41
1
10
34.5344119462791
20
-4.69654803120875
30
0
41
1
10
33.8333953703388
20
-4.51191957298357
30
0
41
1
10
33.4837260719573
20
-4.41198680275488
30
0
41
1
10
32.7852829435264
20
-4.1978383346902
30
0
41
1
10
32.4365349404471
20
-4.0836262201239
30
0
41
1
10
31.7392903985032
20
-3.84195998717004
30
0
41
1
10
31.3907788660877
20
-3.71447592908439
30
0
41
1
10
30.7322719705485
20
-3.46221651093461
30
0
41
1
10
30.4223401164216
20
-3.33873662075584
30
0
41
1
10
30.1119713056038
20
-3.21078163443789
30
0
0
SPLINE
5
EA
100
AcDbEntity
8
1
62
256
6
ByLayer
370
18
48
1
60
0
100
AcDbSpline
70
4
71
3
72
26
73
22
40
0
40
0
40
0
40
0
40
0.0175935163498978
40
0.0175935163498978
40
0.174678024190156
40
0.174678024190156
40
0.253220278110284
40
0.253220278110284
40
0.292491405070346
40
0.292491405070346
40
0.331762532030409
40
0.331762532030409
40
0.488847039870664
40
0.488847039870664
40
0.803016055551172
40
0.803016055551172
40
0.881558309471298
40
0.881558309471298
40
0.960100563391424
40
0.960100563391424
40
1
40
1
40
1
40
1
41
1
10
30.1119713062347
20
-3.21078163469798
30
0
41
1
10
30.0728255615126
20
-3.1946431147968
30
0
41
1
10
30.0336728657253
20
-3.17843340549365
30
0
41
1
10
29.6448700255831
20
-3.0167948843081
30
0
41
1
10
29.2946012123003
20
-2.86581222426165
30
0
41
1
10
28.7677160268815
20
-2.63171828281105
30
0
41
1
10
28.5918412079533
20
-2.55241397865311
30
0
41
1
10
28.3275731640357
20
-2.43169010675641
30
0
41
1
10
28.2394074685196
20
-2.39115509386508
30
0
41
1
10
28.0629134100136
20
-2.30951006106972
30
0
41
1
10
27.9745465440108
20
-2.26838176165094
30
0
41
1
10
27.5327208057265
20
-2.06153469681877
30
0
41
1
10
27.1806138904181
20
-1.8928150755581
30
0
41
1
10
26.1271901859213
20
-1.37923732868745
30
0
41
1
10
25.4287356579252
20
-1.02703042687915
30
0
41
1
10
24.556702812436
20
-0.581902772673743
30
0
41
1
10
24.3823429632684
20
-0.492643558786625
30
0
41
1
10
24.0336741308949
20
-0.313746364487514
30
0
41
1
10
23.8593683628315
20
-0.224102632979623
30
0
41
1
10
23.5964535260272
20
-0.0888309814672823
30
0
41
1
10
23.5078743597814
20
-0.0432476836187732
30
0
41
1
10
23.4192783078448
20
0.0023383966798747
30
0
0
SPLINE
5
EB
100
AcDbEntity
8
1
62
256
6
ByLayer
370
18
48
1
60
0
100
AcDbSpline
70
4
71
3
72
8
73
4
40
0
40
0
40
0
40
0
40
1
40
1
40
1
40
1
41
1
10
70.9878273078846
20
-5.32714997083608
30
0
41
1
10
70.9681904266277
20
-5.38462090176898
30
0
41
1
10
70.9487634585788
20
-5.44208824863361
30
0
41
1
10
70.9295541312535
20
-5.49955911183128
30
0
0
SPLINE
5
EC
100
AcDbEntity
8
1
62
256
6
ByLayer
370
13
48
1
60
0
100
AcDbSpline
70
4
71
3
72
25
73
21
40
0
40
0
40
0
40
0
40
0.0181633237860933
40
0.0181633237860933
40
0.0363266475721855
40
0.0726532951443761
40
0.145306590288763
40
0.145306590288763
40
0.290613180577534
40
0.290613180577534
40
0.435919770866307
40
0.435919770866307
40
0.581226361155079
40
0.581226361155079
40
0.871839541732624
40
0.871839541732624
40
0.944492836877011
40
0.980819484449205
40
0.980819484449205
40
1
40
1
40
1
40
1
41
1
10
70.9878273078847
20
-5.32714997083616
30
0
41
1
10
70.9440811844742
20
-5.3239509382135
30
0
41
1
10
70.9003318075376
20
-5.32076941898742
30
0
41
1
10
70.8128724557984
20
-5.31403777674339
30
0
41
1
10
70.6817272161989
20
-5.30351891759108
30
0
41
1
10
70.376014588344
20
-5.27603635797411
30
0
41
1
10
70.1144306084169
20
-5.24748064395302
30
0
41
1
10
69.5917428344045
20
-5.18380390295872
30
0
41
1
10
69.2439238252315
20
-5.13259356112096
30
0
41
1
10
68.5489221357553
20
-5.01327232004798
30
0
41
1
10
68.2017459207666
20
-4.945163177301
30
0
41
1
10
67.5072527641755
20
-4.79268086515017
30
0
41
1
10
67.1599206770353
20
-4.70830319656298
30
0
41
1
10
66.116915781766
20
-4.43160056774826
30
0
41
1
10
65.4199370934937
20
-4.2156437861114
30
0
41
1
10
64.542863489007
20
-3.90985891450197
30
0
41
1
10
64.2793035465498
20
-3.81543263010642
30
0
41
1
10
64.0149835789564
20
-3.71706817246687
30
0
41
1
10
63.8802196523194
20
-3.66630911643716
30
0
41
1
10
63.8336138043756
20
-3.64864397182202
30
0
41
1
10
63.7869989799826
20
-3.63086604526498
30
0
0
SPLINE
5
ED
100
AcDbEntity
8
1
62
256
6
ByLayer
370
18
48
1
60
0
100
AcDbSpline
70
4
71
3
72
27
73
23
40
0
40
0
40
0
40
0
40
0.0160195641564767
40
0.0160195641564767
40
0.151778454262946
40
0.151778454262946
40
0.287537344369415
40
0.287537344369415
40
0.423296234475885
40
0.423296234475885
40
0.559055124582354
40
0.559055124582354
40
0.592994847108969
40
0.592994847108969
40
0.626934569635584
40
0.694814014688819
40
0.694814014688819
40
0.830572904795294
40
0.830572904795294
40
0.966331794901767
40
0.966331794901767
40
1
40
1
40
1
40
1
41
1
10
63.7869994307118
20
-3.63086621716374
30
0
41
1
10
63.7453286626958
20
-3.6149738517278
30
0
41
1
10
63.7036507212968
20
-3.59899135935112
30
0
41
1
10
63.3088996161101
20
-3.4467952192332
30
0
41
1
10
62.9566001915148
20
-3.30476442305201
30
0
41
1
10
62.2527686067294
20
-3.0102209456569
30
0
41
1
10
61.9012236022964
20
-2.85771786124076
30
0
41
1
10
61.1981676342887
20
-2.54343001988224
30
0
41
1
10
60.8466729915709
20
-2.38162083152093
30
0
41
1
10
60.1429159743858
20
-2.05007101155925
30
0
41
1
10
59.7906389614093
20
-1.88034613331197
30
0
41
1
10
59.34931699364
20
-1.66410044128458
30
0
41
1
10
59.2609621844203
20
-1.62062598504468
30
0
41
1
10
59.0844584282735
20
-1.53344500367334
30
0
41
1
10
58.819946649693
20
-1.40229408077852
30
0
41
1
10
58.5561119006325
20
-1.2701128764312
30
0
41
1
10
58.0292027710383
20
-1.00465914895258
30
0
41
1
10
57.6789386253681
20
-0.826245535869873
30
0
41
1
10
56.9797977354919
20
-0.467774362682377
30
0
41
1
10
56.6309132545449
20
-0.287734509544066
30
0
41
1
10
56.1958666465044
20
-0.0630244602129721
30
0
41
1
10
56.109431633184
20
-0.0183719013998882
30
0
41
1
10
56.0230077984133
20
0.0262686672021459
30
0
0
SPLINE
5
EE
100
AcDbEntity
8
1
62
256
6
ByLayer
370
13
48
1
60
0
100
AcDbSpline
70
4
71
3
72
19
73
15
40
0
40
0
40
0
40
0
40
0.238095236502023
40
0.238095236502023
40
0.428571427376515
40
0.428571427376515
40
0.619047618251008
40
0.619047618251008
40
0.8095238091255
40
0.8095238091255
40
0.857142856844124
40
0.857142856844124
40
0.904761904562749
40
1
40
1
40
1
40
1
41
1
10
9.22950026461729
20
-5.22623389367297
30
0
41
1
10
8.79345873630757
20
-5.2715644843008
30
0
41
1
10
8.35775441037947
20
-5.3030620350707
30
0
41
1
10
7.57276247113427
20
-5.33445093311749
30
0
41
1
10
7.22361677926685
20
-5.3393661173117
30
0
41
1
10
6.52420765715942
20
-5.33110417412411
30
0
41
1
10
6.17394545478166
20
-5.31797403510254
30
0
41
1
10
5.4714239080173
20
-5.27348941619942
30
0
41
1
10
5.11915798639285
20
-5.24212115592911
30
0
41
1
10
4.67711388954638
20
-5.19138423524819
30
0
41
1
10
4.58865366067357
20
-5.18066394491058
30
0
41
1
10
4.41180586655926
20
-5.15810246664427
30
0
41
1
10
4.14656128130034
20
-5.122569395683
30
0
41
1
10
3.8813514966748
20
-5.08197755107412
30
0
41
1
10
3.70452023865246
20
-5.05267771304474
30
0
0
SPLINE
5
EF
100
AcDbEntity
8
1
62
256
6
ByLayer
370
13
48
1
60
0
100
AcDbSpline
70
4
71
3
72
10
73
6
40
0
40
0
40
0
40
0
40
0.5
40
0.5
40
1
40
1
40
1
40
1
41
1
10
3.70452023865241
20
-5.05267771304474
30
0
41
1
10
3.69257825338346
20
-5.05069900046846
30
0
41
1
10
3.68084260466091
20
-5.05007691003428
30
0
41
1
10
3.65778450686099
20
-5.05146766565147
30
0
41
1
10
3.64638135062768
20
-5.05351474333648
30
0
41
1
10
3.63552151260177
20
-5.05695620019227
30
0
0
SPLINE
5
F0
100
AcDbEntity
8
1
62
256
6
ByLayer
370
13
48
1
60
0
100
AcDbSpline
70
4
71
3
72
8
73
4
40
0
40
0
40
0
40
0
40
1
40
1
40
1
40
1
41
1
10
3.63277614397518
20
-5.20921285010405
30
0
41
1
10
3.6336824137039
20
-5.15846375773168
30
0
41
1
10
3.63459753103552
20
-5.10771158371199
30
0
41
1
10
3.63552151260177
20
-5.05695620019227
30
0
0
SPLINE
5
F1
100
AcDbEntity
8
1
62
256
6
ByLayer
370
18
48
1
60
0
100
AcDbSpline
70
4
71
3
72
92
73
88
40
0
40
0
40
0
40
0
40
0.0212249181546347
40
0.0212249181546347
40
0.0574758471118651
40
0.0574758471118651
40
0.0665385793511723
40
0.0665385793511723
40
0.0756013115904794
40
0.0756013115904794
40
0.0937267760690939
40
0.0937267760690939
40
0.129977705026323
40
0.129977705026323
40
0.148103169504937
40
0.148103169504937
40
0.157165901744244
40
0.157165901744244
40
0.166228633983552
40
0.166228633983552
40
0.202479562940782
40
0.202479562940782
40
0.238730491898012
40
0.238730491898012
40
0.24779322413732
40
0.24779322413732
40
0.256855956376628
40
0.256855956376628
40
0.274981420855245
40
0.293106885333862
40
0.293106885333862
40
0.30216961757317
40
0.30216961757317
40
0.311232349812479
40
0.329357814291096
40
0.338420546530404
40
0.338420546530404
40
0.347483278769713
40
0.347483278769713
40
0.419985136684184
40
0.419985136684184
40
0.429047868923493
40
0.429047868923493
40
0.438110601162802
40
0.438110601162802
40
0.456236065641421
40
0.456236065641421
40
0.49248699459866
40
0.49248699459866
40
0.510612459077279
40
0.510612459077279
40
0.519675191316588
40
0.519675191316588
40
0.528737923555898
40
0.528737923555898
40
0.564988852513135
40
0.564988852513135
40
0.637490710427609
40
0.637490710427609
40
0.709992568342082
40
0.709992568342082
40
0.719055300581391
40
0.719055300581391
40
0.7281180328207
40
0.746243497299318
40
0.746243497299318
40
0.782494426256556
40
0.782494426256556
40
0.800619890735174
40
0.800619890735174
40
0.809682622974484
40
0.809682622974484
40
0.818745355213794
40
0.818745355213794
40
0.854996284171035
40
0.854996284171035
40
0.891247213128275
40
0.891247213128275
40
0.900309945367585
40
0.900309945367585
40
0.909372677606895
40
0.909372677606895
40
0.927498142085516
40
0.927498142085516
40
0.963749071042758
40
0.963749071042758
40
1
40
1
40
1
40
1
41
1
10
30.6837731282094
20
4.12333830759695
30
0
41
1
10
30.969291753703
20
4.22462110903825
30
0
41
1
10
31.2545901241579
20
4.32116053188412
30
0
41
1
10
32.027110322113
20
4.56911950965898
30
0
41
1
10
32.5143008148578
20
4.71099497130007
30
0
41
1
10
33.1245937460846
20
4.86867796302059
30
0
41
1
10
33.2467164580451
20
4.8992328805503
30
0
41
1
10
33.4911202312318
20
4.958345634707
30
0
41
1
10
33.6133471242455
20
4.98688944595074
30
0
41
1
10
33.9796693795526
20
5.06933837224119
30
0
41
1
10
34.2235929469382
20
5.12010684800256
30
0
41
1
10
34.9548818409519
20
5.25958633290133
30
0
41
1
10
35.4417607802011
20
5.33546662889171
30
0
41
1
10
36.1727813661995
20
5.42270235160575
30
0
41
1
10
36.4165762457626
20
5.44735019695554
30
0
41
1
10
36.7826494013317
20
5.47757827148726
30
0
41
1
10
36.9047364988644
20
5.48653062997926
30
0
41
1
10
37.1490674633005
20
5.50217215523213
30
0
41
1
10
37.2712970105331
20
5.50885909475133
30
0
41
1
10
37.8818040402875
20
5.53656022056472
30
0
41
1
10
38.3690353833566
20
5.54042955756688
30
0
41
1
10
39.3433242268556
20
5.51178958475506
30
0
41
1
10
39.830401703776
20
5.47928960450716
30
0
41
1
10
40.4404201802211
20
5.41611304490812
30
0
41
1
10
40.5624826912454
20
5.40235013721761
30
0
41
1
10
40.8067587221343
20
5.37257414347971
30
0
41
1
10
40.9289841314164
20
5.35655852046594
30
0
41
1
10
41.2954376883823
20
5.30522043779308
30
0
41
1
10
41.7837758971885
20
5.22795492946795
30
0
41
1
10
42.2721398287584
20
5.13339327379356
30
0
41
1
10
42.6386347712862
20
5.05612183253746
30
0
41
1
10
42.7608476350348
20
5.02930376541923
30
0
41
1
10
43.0051565794261
20
4.97362338600229
30
0
41
1
10
43.3715251195209
20
4.88702035714562
30
0
41
1
10
43.8598199304143
20
4.75938583160851
30
0
41
1
10
44.2261857849723
20
4.65480113759753
30
0
41
1
10
44.4704961058496
20
4.58314077747053
30
0
41
1
10
44.5927040166783
20
4.54633519748839
30
0
41
1
10
45.6915464021705
20
4.20698133910446
30
0
41
1
10
46.6635486414392
20
3.84705707891419
30
0
41
1
10
47.7611997582101
20
3.38906168613374
30
0
41
1
10
47.8832193275171
20
3.33743766265883
30
0
41
1
10
48.1274100369806
20
3.23276581501653
30
0
41
1
10
48.2496247570373
20
3.17969893906016
30
0
41
1
10
48.6159218986343
20
3.01870888298944
30
0
41
1
10
48.859817937125
20
2.90892650810173
30
0
41
1
10
49.5909850405611
20
2.57286418930485
30
0
41
1
10
50.0777323188857
20
2.33986231293295
30
0
41
1
10
50.8084228740281
20
1.97966733568626
30
0
41
1
10
51.0520821936167
20
1.85782219831299
30
0
41
1
10
51.4179206153151
20
1.67273870781216
30
0
41
1
10
51.539925212776
20
1.61065868396543
30
0
41
1
10
51.7840829874773
20
1.48578218221218
30
0
41
1
10
51.9063155772318
20
1.42294427670711
30
0
41
1
10
52.5165104696486
20
1.1078356801317
30
0
41
1
10
53.0020964621034
20
0.852544117727263
30
0
41
1
10
54.4543008630577
20
0.0831077693565305
30
0
41
1
10
55.4164169094518
20
-0.434495887714348
30
0
41
1
10
57.3447762558395
20
-1.44810575477487
30
0
41
1
10
58.3111096376259
20
-1.94394343158154
30
0
41
1
10
59.4098253644013
20
-2.47198430721085
30
0
41
1
10
59.5319800086529
20
-2.53019790995785
30
0
41
1
10
59.7760061300777
20
-2.64543114464317
30
0
41
1
10
60.141826426412
20
-2.81658993272308
30
0
41
1
10
60.5071471430917
20
-2.98243103206266
30
0
41
1
10
61.2375264683876
20
-3.30640199904403
30
0
41
1
10
61.724087473974
20
-3.51211021591112
30
0
41
1
10
62.4550846844495
20
-3.80271609503453
30
0
41
1
10
62.6989472411622
20
-3.89658785457749
30
0
41
1
10
63.0652077426974
20
-4.03264289495979
30
0
41
1
10
63.1873815076931
20
-4.07720452556569
30
0
41
1
10
63.4314457656901
20
-4.16453250523793
30
0
41
1
10
63.5533946979676
20
-4.20732085284519
30
0
41
1
10
64.1628030356118
20
-4.41679990491954
30
0
41
1
10
64.6492454443789
20
-4.57010696719095
30
0
41
1
10
65.6221466171667
20
-4.84587773333638
30
0
41
1
10
66.1086245529233
20
-4.96832166456258
30
0
41
1
10
66.7181336613222
20
-5.10073446989227
30
0
41
1
10
66.8401042072371
20
-5.12618674625341
30
0
41
1
10
67.0842139339792
20
-5.17500005699705
30
0
41
1
10
67.2063753400985
20
-5.19836394092738
30
0
41
1
10
67.572421697125
20
-5.26514294356181
30
0
41
1
10
67.8161077116973
20
-5.30529529589532
30
0
41
1
10
68.5465386586839
20
-5.41249919905383
30
0
41
1
10
69.0326763565377
20
-5.46628767828793
30
0
41
1
10
70.0053772852539
20
-5.53782267832594
30
0
41
1
10
70.4919281879429
20
-5.55556715285553
30
0
41
1
10
70.9797744593007
20
-5.55496641874095
30
0
0
SPLINE
5
F2
100
AcDbEntity
8
1
62
256
6
ByLayer
370
18
48
1
60
0
100
AcDbSpline
70
4
71
3
72
8
73
4
40
0
40
0
40
0
40
0
40
1
40
1
40
1
40
1
41
1
10
70.9797744593093
20
-5.55496641874097
30
0
41
1
10
70.9568499030379
20
-5.5558893093295
30
0
41
1
10
70.9412987335675
20
-5.53726558577532
30
0
41
1
10
70.9295541312596
20
-5.49955911181206
30
0
0
SPLINE
5
F3
100
AcDbEntity
8
1
62
256
6
ByLayer
370
18
48
1
60
0
100
AcDbSpline
70
4
71
3
72
82
73
78
40
0
40
0
40
0
40
0
40
0.0337381914515652
40
0.0337381914515652
40
0.0506072871773478
40
0.0506072871773478
40
0.0590418350402391
40
0.0590418350402391
40
0.0674763829031303
40
0.101214574354695
40
0.101214574354695
40
0.134952765806261
40
0.134952765806261
40
0.202429148709391
40
0.202429148709391
40
0.236167340160957
40
0.236167340160957
40
0.269905531612522
40
0.269905531612522
40
0.286774627338305
40
0.286774627338305
40
0.295209175201197
40
0.295209175201197
40
0.303643723064088
40
0.303643723064088
40
0.337381914515652
40
0.337381914515652
40
0.40485829741878
40
0.40485829741878
40
0.413292845281671
40
0.413292845281671
40
0.421727393144563
40
0.421727393144563
40
0.438596488870348
40
0.438596488870348
40
0.472334680321916
40
0.472334680321916
40
0.539811063225053
40
0.539811063225053
40
0.607287446128189
40
0.607287446128189
40
0.641025637579758
40
0.641025637579758
40
0.649460185442651
40
0.649460185442651
40
0.657894733305543
40
0.657894733305543
40
0.67476382903133
40
0.67476382903133
40
0.708502020482904
40
0.708502020482904
40
0.742240211934477
40
0.742240211934477
40
0.759109307660264
40
0.759109307660264
40
0.767543855523157
40
0.767543855523157
40
0.77597840338605
40
0.77597840338605
40
0.809716594837622
40
0.809716594837622
40
0.843454786289193
40
0.843454786289193
40
0.877192977740764
40
0.877192977740764
40
0.885627525603657
40
0.885627525603657
40
0.89406207346655
40
0.89406207346655
40
0.910931169192337
40
0.910931169192337
40
0.94466936064391
40
0.94466936064391
40
0.978407552095484
40
0.978407552095484
40
0.99527664782127
40
1
40
1
40
1
40
1
41
1
10
70.9295541312539
20
-5.49955911181215
30
0
41
1
10
70.5774542729226
20
-5.47278170423849
30
0
41
1
10
70.2254934673013
20
-5.4365499768374
30
0
41
1
10
69.6972292170756
20
-5.3682745067984
30
0
41
1
10
69.52108682265
20
-5.34319453744754
30
0
41
1
10
69.25672705795
20
-5.30211944680508
30
0
41
1
10
69.1685776938311
20
-5.28785042688168
30
0
41
1
10
68.9925197035342
20
-5.25821811900011
30
0
41
1
10
68.5527881060506
20
-5.18137474961642
30
0
41
1
10
68.1149889161298
20
-5.09086784000132
30
0
41
1
10
67.4161252367791
20
-4.92950043009222
30
0
41
1
10
67.0675071092353
20
-4.8405385496647
30
0
41
1
10
66.0231338856579
20
-4.5499238531192
30
0
41
1
10
65.3286184681173
20
-4.32475635918664
30
0
41
1
10
64.2847896841045
20
-3.94539433137317
30
0
41
1
10
63.9365051273111
20
-3.81200873682229
30
0
41
1
10
63.2385351499003
20
-3.53223673475443
30
0
41
1
10
62.888855197201
20
-3.38583969894981
30
0
41
1
10
62.3626661063842
20
-3.15726079495593
30
0
41
1
10
62.1869896661676
20
-3.07957412396396
30
0
41
1
10
61.9229820579469
20
-2.96089519431996
30
0
41
1
10
61.8348690809163
20
-2.92096398294123
30
0
41
1
10
61.658596459287
20
-2.84045744417446
30
0
41
1
10
61.5705035472098
20
-2.79991282921432
30
0
41
1
10
61.1302275104229
20
-2.59578257218828
30
0
41
1
10
60.7786232995993
20
-2.42795171547516
30
0
41
1
10
59.7242940610502
20
-1.91325020264313
30
0
41
1
10
59.0219969636804
20
-1.55527154683034
30
0
41
1
10
58.2290885607964
20
-1.14202269149752
30
0
41
1
10
58.1409134777234
20
-1.09594224697875
30
0
41
1
10
57.9646376870506
20
-1.00359708574206
30
0
41
1
10
57.8765855240539
20
-0.957357408467999
30
0
41
1
10
57.6126715479972
20
-0.818464767670463
30
0
41
1
10
57.4370546458631
20
-0.725633435220772
30
0
41
1
10
56.9110280796088
20
-0.446724027675202
30
0
41
1
10
56.5614524706704
20
-0.260211599397593
30
0
41
1
10
55.5147110876712
20
0.298480620594688
30
0
41
1
10
54.8194810738284
20
0.669722268399596
30
0
41
1
10
53.4283577553902
20
1.39869256958471
30
0
41
1
10
52.7324012345158
20
1.75630051349134
30
0
41
1
10
51.6833384930846
20
2.27385622530735
30
0
41
1
10
51.3327771314593
20
2.44319752648687
30
0
41
1
10
50.8929955537627
20
2.64998898710957
30
0
41
1
10
50.8049602757575
20
2.6911030785848
30
0
41
1
10
50.6287193991187
20
2.77281965651125
30
0
41
1
10
50.540518773977
20
2.8134193670964
30
0
41
1
10
50.276167083405
20
2.9341782065797
30
0
41
1
10
50.1000915302048
20
3.01337791491523
30
0
41
1
10
49.572198454948
20
3.24684916400821
30
0
41
1
10
49.2207209360011
20
3.39700052268134
30
0
41
1
10
48.5177846448367
20
3.68502679731392
30
0
41
1
10
48.166313307155
20
3.82288709614647
30
0
41
1
10
47.6385712023511
20
4.01969440898887
30
0
41
1
10
47.4625708871359
20
4.08363642607247
30
0
41
1
10
47.1983612290831
20
4.17694532899844
30
0
41
1
10
47.1102563269112
20
4.20761409915886
30
0
41
1
10
46.9339625623716
20
4.26806380981685
30
0
41
1
10
46.845764972133
20
4.2978472980665
30
0
41
1
10
46.4051141229378
20
4.44430691154002
30
0
41
1
10
46.0532074182038
20
4.55375933696459
30
0
41
1
10
45.3498759104489
20
4.75653984148821
30
0
41
1
10
44.9984598611708
20
4.84987367307062
30
0
41
1
10
44.2952718259867
20
5.01963443405086
30
0
41
1
10
43.9434936297345
20
5.0960590953988
30
0
41
1
10
43.5030725994311
20
5.18059895525596
30
0
41
1
10
43.4149536718934
20
5.19695746381947
30
0
41
1
10
43.238633378393
20
5.22856401291375
30
0
41
1
10
43.1504298852688
20
5.24381188634158
30
0
41
1
10
42.8860253349836
20
5.28781691663181
30
0
41
1
10
42.709913696187
20
5.31485676910782
30
0
41
1
10
42.1818924702747
20
5.38903124421481
30
0
41
1
10
41.8302936417329
20
5.42922025003281
30
0
41
1
10
41.1271664618597
20
5.49084865545649
30
0
41
1
10
40.7756398237123
20
5.51228635269263
30
0
41
1
10
40.2477826296175
20
5.53020476969289
30
0
41
1
10
40.0224422511198
20
5.53481292768549
30
0
41
1
10
39.7968609444537
20
5.53551369530922
30
0
41
1
10
39.747502496394
20
5.53547976804669
30
0
0
SPLINE
5
F4
100
AcDbEntity
8
1
62
256
6
ByLayer
370
18
48
1
60
0
100
AcDbSpline
70
4
71
3
72
22
73
18
40
0
40
0
40
0
40
0
40
0.0563070471210229
40
0.0563070471210229
40
0.095627586824315
40
0.095627586824315
40
0.134948126527607
40
0.134948126527607
40
0.213589205934187
40
0.213589205934187
40
0.370871364747349
40
0.370871364747349
40
0.528153523560511
40
0.528153523560511
40
0.685435682373673
40
0.685435682373673
40
1
40
1
40
1
40
1
41
1
10
10.3267035914098
20
-5.25307599684382
30
0
41
1
10
10.2008891039729
20
-5.27341428560663
30
0
41
1
10
10.0749281288995
20
-5.29262027724459
30
0
41
1
10
9.86072440201426
20
-5.32328315726011
30
0
41
1
10
9.77256680669799
20
-5.33533015119883
30
0
41
1
10
9.59607968117271
20
-5.35829027724418
30
0
41
1
10
9.50783990169452
20
-5.36919135129557
30
0
41
1
10
9.24341568846737
20
-5.40011850090616
30
0
41
1
10
9.06740063976076
20
-5.41838423206792
30
0
41
1
10
8.5399965842681
20
-5.46612096600273
30
0
41
1
10
8.18924633467552
20
-5.48852938334045
30
0
41
1
10
7.48862523988663
20
-5.51455595391767
30
0
41
1
10
7.13876659978507
20
-5.51818021181427
30
0
41
1
10
6.43927593652393
20
-5.50669903163711
30
0
41
1
10
6.08963340523991
20
-5.4915871994358
30
0
41
1
10
5.03967402580057
20
-5.41829638020403
30
0
41
1
10
4.33829774077
20
-5.33222642458449
30
0
41
1
10
3.63277614397518
20
-5.20921285010419
30
0
0
SPLINE
5
F5
100
AcDbEntity
8
1
62
256
6
ByLayer
370
18
48
1
60
0
100
AcDbSpline
70
4
71
3
72
19
73
15
40
0
40
0
40
0
40
0
40
0.249999999999998
40
0.249999999999998
40
0.374999999999999
40
0.374999999999999
40
0.499999999999999
40
0.499999999999999
40
0.624999999999999
40
0.624999999999999
40
0.749999999999999
40
0.875
40
0.875
40
1
40
1
40
1
40
1
41
1
10
3.63277614397515
20
-5.20921285010417
30
0
41
1
10
3.61266881967961
20
-5.20570697041734
30
0
41
1
10
3.5944520635561
20
-5.20137148507561
30
0
41
1
10
3.56988638358752
20
-5.19358334634651
30
0
41
1
10
3.56213003358971
20
-5.19075080935852
30
0
41
1
10
3.54800901004214
20
-5.18479266314566
30
0
41
1
10
3.54158847533418
20
-5.18165336592315
30
0
41
1
10
3.53001055233014
20
-5.17504635595694
30
0
41
1
10
3.52485010961019
20
-5.17157637427314
30
0
41
1
10
3.51585761772557
20
-5.16429262186185
30
0
41
1
10
3.50838840809089
20
-5.15682459068327
30
0
41
1
10
3.50384400346056
20
-5.14898655433475
30
0
41
1
10
3.50078320645068
20
-5.14095568546878
30
0
41
1
10
3.50000000000006
20
-5.13682970651746
30
0
41
1
10
3.50000000000003
20
-5.13267611783411
30
0
0
SPLINE
5
F6
100
AcDbEntity
8
1
62
256
6
ByLayer
370
18
48
1
60
0
100
AcDbSpline
70
4
71
3
72
97
73
93
40
0
40
0
40
0
40
0
40
0.0625000000000153
40
0.0625000000000153
40
0.125000000000031
40
0.125000000000031
40
0.156250000000037
40
0.156250000000037
40
0.187500000000044
40
0.187500000000044
40
0.25000000000006
40
0.25000000000006
40
0.312500000000075
40
0.312500000000075
40
0.343750000000082
40
0.343750000000082
40
0.375000000000089
40
0.375000000000089
40
0.406250000000095
40
0.406250000000095
40
0.408203125000096
40
0.408203125000096
40
0.410156250000097
40
0.410156250000097
40
0.412109375000098
40
0.412109375000098
40
0.413085937500098
40
0.413085937500098
40
0.414062500000099
40
0.414062500000099
40
0.415039062500099
40
0.415039062500099
40
0.416015625000099
40
0.416015625000099
40
0.4169921875001
40
0.4169921875001
40
0.4179687500001
40
0.4179687500001
40
0.421875000000099
40
0.421875000000099
40
0.437500000000096
40
0.437500000000096
40
0.468750000000091
40
0.468750000000091
40
0.500000000000086
40
0.500000000000086
40
0.531250000000081
40
0.531250000000081
40
0.546875000000079
40
0.546875000000079
40
0.562500000000076
40
0.562500000000076
40
0.593750000000071
40
0.593750000000071
40
0.625000000000066
40
0.625000000000066
40
0.656250000000062
40
0.656250000000062
40
0.66406250000006
40
0.66406250000006
40
0.671875000000058
40
0.687500000000056
40
0.687500000000056
40
0.71875000000005
40
0.71875000000005
40
0.750000000000045
40
0.750000000000045
40
0.765625000000042
40
0.765625000000042
40
0.773437500000041
40
0.773437500000041
40
0.781250000000039
40
0.781250000000039
40
0.812500000000034
40
0.812500000000034
40
0.828125000000031
40
0.828125000000031
40
0.835937500000029
40
0.835937500000029
40
0.843750000000028
40
0.843750000000028
40
0.875000000000023
40
0.875000000000023
40
0.906250000000018
40
0.906250000000018
40
0.921875000000015
40
0.921875000000015
40
0.937500000000013
40
0.937500000000013
40
0.968750000000006
40
0.968750000000006
40
1
40
1
40
1
40
1
41
1
10
9.4180561548288
20
5.05807290225704
30
0
41
1
10
9.18512475613835
20
5.1073427799881
30
0
41
1
10
8.95104152273979
20
5.15167711661312
30
0
41
1
10
8.47988105259802
20
5.23106146833626
30
0
41
1
10
8.2428028368696
20
5.26611188745397
30
0
41
1
10
7.88446194776466
20
5.31232607868856
30
0
41
1
10
7.7645616796481
20
5.32667225926454
30
0
41
1
10
7.52378084024636
20
5.35336536062349
30
0
41
1
10
7.40285421507954
20
5.36571626496689
30
0
41
1
10
7.03886296558517
20
5.39992984042894
30
0
41
1
10
6.79467728381536
20
5.41894677188975
30
0
41
1
10
6.30288557982496
20
5.45062932604341
30
0
41
1
10
6.05527979815074
20
5.46329703052967
30
0
41
1
10
5.68108512902376
20
5.478490761887
30
0
41
1
10
5.55588935690744
20
5.48292068211171
30
0
41
1
10
5.30454278945069
20
5.49066960350731
30
0
41
1
10
5.17836863653216
20
5.49398885382229
30
0
41
1
10
4.92529788190942
20
5.49966570960609
30
0
41
1
10
4.79836627453963
20
5.50202447179515
30
0
41
1
10
4.66310350876145
20
5.50410151450552
30
0
41
1
10
4.65515243300533
20
5.5042262857572
30
0
41
1
10
4.6391778774539
20
5.50444498599248
30
0
41
1
10
4.63116016833516
20
5.50453475494814
30
0
41
1
10
4.61502389419587
20
5.50465320481169
30
0
41
1
10
4.60690222921536
20
5.50468011861011
30
0
41
1
10
4.59463914473068
20
5.5046726265108
30
0
41
1
10
4.59053823235908
20
5.50466226413772
30
0
41
1
10
4.58230553638376
20
5.50462309408658
30
0
41
1
10
4.57816466331948
20
5.50459292564264
30
0
41
1
10
4.56999164057729
20
5.5045178521064
30
0
41
1
10
4.56594795114077
20
5.50447150142841
30
0
41
1
10
4.55799918538321
20
5.50434980117436
30
0
41
1
10
4.55409483797163
20
5.5042742851108
30
0
41
1
10
4.54641142010982
20
5.50409600068005
30
0
41
1
10
4.54260654078269
20
5.50399534541293
30
0
41
1
10
4.53519090369502
20
5.50376705852986
30
0
41
1
10
4.53159582424178
20
5.50363946180508
30
0
41
1
10
4.51380440745851
20
5.50297713296129
30
0
41
1
10
4.49961403861076
20
5.50242257509308
30
0
41
1
10
4.42869375475547
20
5.49954221618364
30
0
41
1
10
4.37225317627284
20
5.49687492762118
30
0
41
1
10
4.20391905417819
20
5.48769495830885
30
0
41
1
10
4.09293783191237
20
5.48000092381295
30
0
41
1
10
3.87461939254294
20
5.46096367341073
30
0
41
1
10
3.76720925048664
20
5.44962017338986
30
0
41
1
10
3.55640726340906
20
5.42259330442391
30
0
41
1
10
3.453012818286
20
5.40691329104041
30
0
41
1
10
3.30145670306021
20
5.3794491315044
30
0
41
1
10
3.25152888232375
20
5.36963493917571
30
0
41
1
10
3.15296735900924
20
5.34853967417035
30
0
41
1
10
3.10426540050773
20
5.33723944387938
30
0
41
1
10
2.9611904190829
20
5.30111056921092
30
0
41
1
10
2.8696246430338
20
5.27403120771615
30
0
41
1
10
2.69544725054621
20
5.21265414368614
30
0
41
1
10
2.61282421680505
20
5.17836532290411
30
0
41
1
10
2.45837083205689
20
5.10085274253032
30
0
41
1
10
2.38652167572764
20
5.0576461406188
30
0
41
1
10
2.30520071937201
20
4.99644273249564
30
0
41
1
10
2.28934169592767
20
4.98381798696482
30
0
41
1
10
2.25878416418763
20
4.95800799242338
30
0
41
1
10
2.21460386672717
20
4.91839366008773
30
0
41
1
10
2.17553484149295
20
4.8759860924701
30
0
41
1
10
2.10466133364844
20
4.78715176395789
30
0
41
1
10
2.06706089465024
20
4.72259283448193
30
0
41
1
10
2.01429749454303
20
4.58077755325729
30
0
41
1
10
2.00003910615686
20
4.50581910590395
30
0
41
1
10
1.99645661677508
20
4.38738336604936
30
0
41
1
10
1.99823155396908
20
4.34689782665097
30
0
41
1
10
2.00532795901347
20
4.28464579671095
30
0
41
1
10
2.00843265002254
20
4.26364110440318
30
0
41
1
10
2.01611989188496
20
4.22112071031603
30
0
41
1
10
2.02071754670945
20
4.19954949151744
30
0
41
1
10
2.04716162704651
20
4.09133408952371
30
0
41
1
10
2.07930012430643
20
4.00338051893817
30
0
41
1
10
2.14151794814379
20
3.86958585432876
30
0
41
1
10
2.16460236121679
20
3.82467617057495
30
0
41
1
10
2.20251389000816
20
3.75686481812684
30
0
41
1
10
2.21572428316662
20
3.73414599238805
30
0
41
1
10
2.24303351168962
20
3.68884439013246
30
0
41
1
10
2.25713892883905
20
3.6662461391476
30
0
41
1
10
2.32978470434074
20
3.55349880500648
30
0
41
1
10
2.39463533221826
20
3.46407464423217
30
0
41
1
10
2.53517942412887
20
3.28641731850112
30
0
41
1
10
2.61088860328826
20
3.19818651301378
30
0
41
1
10
2.73128955510421
20
3.06656651277225
30
0
41
1
10
2.77258076550822
20
3.02280197669421
30
0
41
1
10
2.85723384226924
20
2.93554922709512
30
0
41
1
10
2.90034422205699
20
2.89231866402503
30
0
41
1
10
3.03178936420866
20
2.76369230724473
30
0
41
1
10
3.12222803662308
20
2.67935651105989
30
0
41
1
10
3.30777378196132
20
2.51303219227026
30
0
41
1
10
3.40288524501676
20
2.43104599432101
30
0
41
1
10
3.50000000000003
20
2.35006779532844
30
0
0
SPLINE
5
F7
100
AcDbEntity
8
1
62
256
6
ByLayer
370
18
48
1
60
0
100
AcDbSpline
70
4
71
3
72
39
73
35
40
0
40
0
40
0
40
0
40
0.062500000000001
40
0.062500000000001
40
0.125000000000002
40
0.125000000000002
40
0.250000000000004
40
0.250000000000004
40
0.312500000000004
40
0.312500000000004
40
0.343750000000004
40
0.343750000000004
40
0.375000000000004
40
0.375000000000004
40
0.437500000000002
40
0.437500000000002
40
0.500000000000001
40
0.500000000000001
40
0.624999999999999
40
0.624999999999999
40
0.687499999999998
40
0.687499999999998
40
0.749999999999997
40
0.749999999999997
40
0.812499999999996
40
0.812499999999996
40
0.874999999999995
40
0.874999999999995
40
0.890624999999995
40
0.890624999999995
40
0.906249999999996
40
0.937499999999997
40
0.937499999999997
40
1
40
1
40
1
40
1
41
1
10
24.2200000000121
20
-1.44513276085607
30
0
41
1
10
23.912359386721
20
-1.28719315079033
30
0
41
1
10
23.605217179719
20
-1.12761704530092
30
0
41
1
10
22.9914983671333
20
-0.806014640977196
30
0
41
1
10
22.6848687345682
20
-0.644088593095347
30
0
41
1
10
21.7647814096034
20
-0.156636317734922
30
0
41
1
10
21.1511668673528
20
0.170640483626272
30
0
41
1
10
20.227702470672
20
0.659838626325751
30
0
41
1
10
19.9193269613294
20
0.822527923311469
30
0
41
1
10
19.4554741091694
20
1.06511230159279
30
0
41
1
10
19.3006445506568
20
1.14573796408155
30
0
41
1
10
18.9905025828837
20
1.30640445233817
30
0
41
1
10
18.8351547090737
20
1.38646413955874
30
0
41
1
10
18.3685082854474
20
1.62546301604274
30
0
41
1
10
18.0584957174341
20
1.78226085410896
30
0
41
1
10
17.4401845312022
20
2.09006001493313
30
0
41
1
10
17.1318335267134
20
2.24096043133494
30
0
41
1
10
16.2082848512356
20
2.68320725255623
30
0
41
1
10
15.5946261980359
20
2.96418100891123
30
0
41
1
10
14.6744951139104
20
3.36061853207829
30
0
41
1
10
14.3677976257592
20
3.48851611701991
30
0
41
1
10
13.7538342791359
20
3.73491202662905
30
0
41
1
10
13.4465834129262
20
3.85343436475259
30
0
41
1
10
12.8310714553095
20
4.08040758904252
30
0
41
1
10
12.5228090480148
20
4.18885749292269
30
0
41
1
10
11.9048320366672
20
4.39498583129469
30
0
41
1
10
11.5950665592453
20
4.49259747505738
30
0
41
1
10
11.2065020973968
20
4.60724212153488
30
0
41
1
10
11.1286951636607
20
4.62981109363332
30
0
41
1
10
10.9731271150751
20
4.67414938890573
30
0
41
1
10
10.7398141756008
20
4.73946710511805
30
0
41
1
10
10.5065866165932
20
4.80118775230366
30
0
41
1
10
10.0401444394234
20
4.91974293862353
30
0
41
1
10
9.72919418200027
20
4.99226279394367
30
0
41
1
10
9.41805632193362
20
5.05807287840324
30
0
0
SPLINE
5
F8
100
AcDbEntity
8
1
62
256
6
ByLayer
370
18
48
1
60
0
100
AcDbSpline
70
4
71
3
72
39
73
35
40
0
40
0
40
0
40
0
40
0.104177515962626
40
0.104177515962626
40
0.156266273943939
40
0.156266273943939
40
0.208355031925252
40
0.208355031925252
40
0.312532547887876
40
0.312532547887876
40
0.364621305869187
40
0.390665684859842
40
0.390665684859842
40
0.416710063850497
40
0.416710063850497
40
0.520887579813118
40
0.520887579813118
40
0.62506509577574
40
0.62506509577574
40
0.651109474766393
40
0.651109474766393
40
0.677153853757047
40
0.677153853757047
40
0.729242611738354
40
0.729242611738354
40
0.833420127700971
40
0.833420127700971
40
0.885508885682281
40
0.885508885682281
40
0.911553264672935
40
0.911553264672935
40
0.93759764366359
40
0.93759764366359
40
1
40
1
40
1
40
1
41
1
10
24.22
20
-1.2059122282765
30
0
41
1
10
24.7085793479229
20
-1.45933051590495
30
0
41
1
10
25.1966868037453
20
-1.70846483746831
30
0
41
1
10
25.9296571683896
20
-2.07299695640427
30
0
41
1
10
26.1742504116916
20
-2.19303787147806
30
0
41
1
10
26.6626249245551
20
-2.42890496728006
30
0
41
1
10
26.906548816598
20
-2.54479539614877
30
0
41
1
10
27.6379096436835
20
-2.88573106127106
30
0
41
1
10
28.1249197642607
20
-3.1040662551226
30
0
41
1
10
28.8561374312882
20
-3.41565415013787
30
0
41
1
10
29.2219246409465
20
-3.56746506316111
30
0
41
1
10
29.5882939499597
20
-3.71280533785
30
0
41
1
10
29.8327060048383
20
-3.80820444511656
30
0
41
1
10
29.9548901031641
20
-3.85511552631584
30
0
41
1
10
30.5653328780095
20
-4.08544055656682
30
0
41
1
10
31.0526288234901
20
-4.25633618451272
30
0
41
1
10
32.0271103221131
20
-4.56911950965898
30
0
41
1
10
32.5143008148579
20
-4.7109949713001
30
0
41
1
10
33.1245937460847
20
-4.86867796302059
30
0
41
1
10
33.2467164580452
20
-4.8992328805503
30
0
41
1
10
33.4911202312318
20
-4.958345634707
30
0
41
1
10
33.6133471242455
20
-4.98688944595074
30
0
41
1
10
33.9796693795527
20
-5.06933837224122
30
0
41
1
10
34.2235929469383
20
-5.12010684800256
30
0
41
1
10
34.954881840952
20
-5.25958633290133
30
0
41
1
10
35.4417607802012
20
-5.33546662889174
30
0
41
1
10
36.1727813661996
20
-5.42270235160575
30
0
41
1
10
36.4165762457627
20
-5.44735019695554
30
0
41
1
10
36.7826494013318
20
-5.47757827148726
30
0
41
1
10
36.9047364988644
20
-5.48653062997928
30
0
41
1
10
37.1490674633005
20
-5.50217215523213
30
0
41
1
10
37.2712970105331
20
-5.50885909475133
30
0
41
1
10
37.6859534989477
20
-5.52767370456758
30
0
41
1
10
37.9780872479817
20
-5.5343850527864
30
0
41
1
10
38.2700333611005
20
-5.53455533825252
30
0
0
SPLINE
5
F9
100
AcDbEntity
8
1
62
256
6
ByLayer
370
18
48
1
60
0
100
AcDbSpline
70
4
71
3
72
22
73
18
40
0
40
0
40
0
40
0
40
0.0454372096357434
40
0.0454372096357434
40
0.236349767708595
40
0.236349767708595
40
0.427262325781445
40
0.427262325781445
40
0.474990465299658
40
0.474990465299658
40
0.522718604817871
40
0.522718604817871
40
0.618174883854297
40
0.618174883854297
40
0.809087441927148
40
0.809087441927148
40
1
40
1
40
1
40
1
41
1
10
63.3269855303286
20
4.12715001861477
30
0
41
1
10
63.4431526018493
20
4.16863809291976
30
0
41
1
10
63.5592449648565
20
4.20933183347438
30
0
41
1
10
64.1628030356123
20
4.41679990491971
30
0
41
1
10
64.6492454443795
20
4.57010696719112
30
0
41
1
10
65.6221466171673
20
4.84587773333655
30
0
41
1
10
66.1086245529239
20
4.96832166456272
30
0
41
1
10
66.7181336613228
20
5.10073446989239
30
0
41
1
10
66.8401042072377
20
5.12618674625352
30
0
41
1
10
67.0842139339798
20
5.17500005699716
30
0
41
1
10
67.2063753400991
20
5.19836394092749
30
0
41
1
10
67.5724216971256
20
5.26514294356193
30
0
41
1
10
67.8161077116979
20
5.30529529589543
30
0
41
1
10
68.5465386586846
20
5.41249919905391
30
0
41
1
10
69.0326763565384
20
5.46628767828798
30
0
41
1
10
70.0053772852547
20
5.53782267832597
30
0
41
1
10
70.4919281879437
20
5.55556715285556
30
0
41
1
10
70.9797744593016
20
5.55496641874095
30
0
0
SPLINE
5
FA
100
AcDbEntity
8
1
62
256
6
ByLayer
370
18
48
1
60
0
100
AcDbSpline
70
4
71
3
72
85
73
81
40
0
40
0
40
0
40
0
40
0.0127994976485056
40
0.0127994976485056
40
0.0420889356756138
40
0.0420889356756138
40
0.071378373702722
40
0.071378373702722
40
0.086023092716276
40
0.0933454522230525
40
0.0933454522230525
40
0.100667811729829
40
0.100667811729829
40
0.159246687784044
40
0.159246687784044
40
0.217825563838258
40
0.217825563838258
40
0.276404439892472
40
0.276404439892472
40
0.291049158906026
40
0.291049158906026
40
0.298371518412803
40
0.298371518412803
40
0.30569387791958
40
0.30569387791958
40
0.334983315946691
40
0.334983315946691
40
0.393562192000911
40
0.393562192000911
40
0.408206911014466
40
0.408206911014466
40
0.422851630028021
40
0.452141068055132
40
0.452141068055132
40
0.510719944109356
40
0.510719944109356
40
0.540009382136468
40
0.540009382136468
40
0.569298820163579
40
0.569298820163579
40
0.598588258190691
40
0.598588258190691
40
0.613232977204247
40
0.613232977204247
40
0.620555336711024
40
0.620555336711024
40
0.627877696217801
40
0.627877696217801
40
0.657167134244913
40
0.657167134244913
40
0.686456572272024
40
0.686456572272024
40
0.715746010299136
40
0.715746010299136
40
0.723068369805913
40
0.723068369805913
40
0.730390729312691
40
0.745035448326246
40
0.745035448326246
40
0.774324886353357
40
0.774324886353357
40
0.803614324380468
40
0.803614324380468
40
0.832903762407578
40
0.832903762407578
40
0.862193200434689
40
0.862193200434689
40
0.8914826384618
40
0.8914826384618
40
0.920772076488911
40
0.920772076488911
40
0.928094435995689
40
0.928094435995689
40
0.935416795502466
40
0.935416795502466
40
0.950061514516022
40
0.950061514516022
40
0.979350952543133
40
0.979350952543133
40
1
40
1
40
1
40
1
41
1
10
42.9956729872768
20
-5.26945998944129
30
0
41
1
10
42.8416471802464
20
-5.29459415774926
30
0
41
1
10
42.6877369637109
20
-5.31797207472488
30
0
41
1
10
42.1818924702747
20
-5.38903124421481
30
0
41
1
10
41.830293641733
20
-5.42922025003281
30
0
41
1
10
41.1271664618597
20
-5.49084865545649
30
0
41
1
10
40.7756398237123
20
-5.51228635269263
30
0
41
1
10
40.2477826296175
20
-5.53020476969289
30
0
41
1
10
39.9837119393069
20
-5.53560495349609
30
0
41
1
10
39.7193103846718
20
-5.53563915588293
30
0
41
1
10
39.5429581715391
20
-5.5344667241479
30
0
41
1
10
39.454747992849
20
-5.53328216940693
30
0
41
1
10
38.6619913394629
20
-5.5172752411406
30
0
41
1
10
37.9626452259359
20
-5.4649908212798
30
0
41
1
10
36.5679978806569
20
-5.28841325131717
30
0
41
1
10
35.8728517129563
20
-5.16405042567985
30
0
41
1
10
34.4805043822899
20
-4.84767037434719
30
0
41
1
10
33.783473013722
20
-4.65551137170269
30
0
41
1
10
32.9070307121487
20
-4.376026057665
30
0
41
1
10
32.7314868454863
20
-4.31816438934294
30
0
41
1
10
32.4677279166814
20
-4.22846608444945
30
0
41
1
10
32.3797342439201
20
-4.19808248150744
30
0
41
1
10
32.2035838888579
20
-4.1363600342373
30
0
41
1
10
32.1153922626149
20
-4.10500856011456
30
0
41
1
10
31.6744058420814
20
-3.94604672259916
30
0
41
1
10
31.322301555575
20
-3.81209228110188
30
0
41
1
10
30.2667707865665
20
-3.39175908226758
30
0
41
1
10
29.5642419224594
20
-3.08674173580118
30
0
41
1
10
28.6835215597667
20
-2.68049778341694
30
0
41
1
10
28.5072024893279
20
-2.59797855424432
30
0
41
1
10
28.1543806440407
20
-2.43072963107315
30
0
41
1
10
27.6261574420074
20
-2.17714519111018
30
0
41
1
10
27.1005832132587
20
-1.91615326893231
30
0
41
1
10
26.0518194132706
20
-1.38647247609981
30
0
41
1
10
25.3557605369105
20
-1.02320353954676
30
0
41
1
10
24.3116653164624
20
-0.472005818782662
30
0
41
1
10
23.9636799353308
20
-0.287133839215301
30
0
41
1
10
23.266970790506
20
0.0833016711767414
30
0
41
1
10
22.9182155144063
20
0.268803927104642
30
0
41
1
10
22.2191887684081
20
0.639007083969688
30
0
41
1
10
21.8689642818098
20
0.823800272144211
30
0
41
1
10
21.3419017557041
20
1.09926107691874
30
0
41
1
10
21.1659192583271
20
1.19077853804785
30
0
41
1
10
20.9014297722199
20
1.32745936758485
30
0
41
1
10
20.8131547973274
20
1.37293348486276
30
0
41
1
10
20.6367582585884
20
1.46348618222171
30
0
41
1
10
20.5485986450922
20
1.50858430700896
30
0
41
1
10
20.1079643119498
20
1.73313302903759
30
0
41
1
10
19.7560238840057
20
1.90983687564901
30
0
41
1
10
19.0525054415638
20
2.25602480901895
30
0
41
1
10
18.7009017705557
20
2.42546246443834
30
0
41
1
10
17.9971272410441
20
2.75551994706763
30
0
41
1
10
17.6449642256109
20
2.91615517420459
30
0
41
1
10
17.2039701713475
20
3.1106930005628
30
0
41
1
10
17.115692908975
20
3.14930344387912
30
0
41
1
10
16.9393564874691
20
3.22573925029488
30
0
41
1
10
16.6751043969599
20
3.33924962162911
30
0
41
1
10
16.411546420373
20
3.44925095328381
30
0
41
1
10
15.8851965503019
20
3.66438534033594
30
0
41
1
10
15.5353232040796
20
3.80132689383427
30
0
41
1
10
14.8369169580279
20
4.06143974077108
30
0
41
1
10
14.4883754551329
20
4.18459548737863
30
0
41
1
10
13.7917794347979
20
4.41615697180785
30
0
41
1
10
13.4437330293566
20
4.52457612573753
30
0
41
1
10
12.7474484468961
20
4.72592789620896
30
0
41
1
10
12.3992022201831
20
4.81884872459241
30
0
41
1
10
11.7016794045705
20
4.98830989573977
30
0
41
1
10
11.3524086995982
20
5.06485847525246
30
0
41
1
10
10.6521267923156
20
5.20082814445996
30
0
41
1
10
10.3011101958678
20
5.260242719291
30
0
41
1
10
9.86072440201426
20
5.32328315726011
30
0
41
1
10
9.77256680669799
20
5.33533015119883
30
0
41
1
10
9.59607968117271
20
5.35829027724418
30
0
41
1
10
9.50783990169458
20
5.36919135129557
30
0
41
1
10
9.24341568846739
20
5.40011850090616
30
0
41
1
10
9.06740063976073
20
5.41838423206792
30
0
41
1
10
8.53999658426812
20
5.46612096600273
30
0
41
1
10
8.18924633467552
20
5.48852938334045
30
0
41
1
10
7.59196692734275
20
5.51071703193523
30
0
41
1
10
7.34522267648853
20
5.51522481677304
30
0
41
1
10
7.09858438891183
20
5.51507449566233
30
0
0
SPLINE
5
FB
100
AcDbEntity
8
SK1
62
256
6
ByLayer
370
18
48
1
60
0
100
AcDbSpline
70
4
71
3
72
21
73
17
40
0
40
0
40
0
40
0
40
0.193854773094947
40
0.193854773094947
40
0.290782159642421
40
0.290782159642421
40
0.387709546189895
40
0.387709546189895
40
0.581564319284842
40
0.581564319284842
40
0.678491705832315
40
0.678491705832315
40
0.775419092379789
40
0.775419092379789
40
0.969273865474736
40
1
40
1
40
1
40
1
41
1
10
-45
20
3.60363947591478
30
0
41
1
10
-45
20
3.58429643810879
30
0
41
1
10
-45
20
3.56302940860473
30
0
41
1
10
-45
20
3.52814740351624
30
0
41
1
10
-45
20
3.51602260520426
30
0
41
1
10
-45
20
3.49112408272586
30
0
41
1
10
-45
20
3.47830894447031
30
0
41
1
10
-45
20
3.43878524940922
30
0
41
1
10
-45
20
3.41100264693793
30
0
41
1
10
-45
20
3.36717699997999
30
0
41
1
10
-45
20
3.3522087693016
30
0
41
1
10
-45
20
3.32153949951382
30
0
41
1
10
-45
20
3.30578014618862
30
0
41
1
10
-45
20
3.25793715425129
30
0
41
1
10
-45
20
3.22006937916615
30
0
41
1
10
-45
20
3.18117162240469
30
0
41
1
10
-45
20
3.17583047591387
30
0
0
SPLINE
5
FC
100
AcDbEntity
8
SK1
62
256
6
ByLayer
370
18
48
1
60
0
100
AcDbSpline
70
4
71
3
72
16
73
12
40
0
40
0
40
0
40
0
40
0.181418410357864
40
0.181418410357864
40
0.386063807768398
40
0.386063807768398
40
0.590709205178932
40
0.590709205178932
40
0.795354602589466
40
0.795354602589466
40
1
40
1
40
1
40
1
41
1
10
-44.7239817956736
20
3.42057900543554
30
0
41
1
10
-44.7372176129578
20
3.43496950503933
30
0
41
1
10
-44.7515350642977
20
3.44861829946666
30
0
41
1
10
-44.7838270115407
20
3.47641258955565
30
0
41
1
10
-44.8017832561453
20
3.49017868026775
30
0
41
1
10
-44.8388273915644
20
3.51617636261642
30
0
41
1
10
-44.8579414143406
20
3.52842277849464
30
0
41
1
10
-44.8971041186593
20
3.55172757936234
30
0
41
1
10
-44.9171544075951
20
3.5627839212184
30
0
41
1
10
-44.9580277964626
20
3.58391429634904
30
0
41
1
10
-44.9788763920262
20
3.5939984840505
30
0
41
1
10
-44.9999999999999
20
3.60363947591489
30
0
0
SPLINE
5
FD
100
AcDbEntity
8
SK1
62
256
6
ByLayer
370
18
48
1
60
0
100
AcDbSpline
70
4
71
3
72
8
73
4
40
0
40
0
40
0
40
0
40
1
40
1
40
1
40
1
41
1
10
-44.25
20
4.79422298285138
30
0
41
1
10
-44.5004726515395
20
4.56896436397466
30
0
41
1
10
-44.7505581436688
20
4.34337383664845
30
0
41
1
10
-45
20
4.11723152585998
30
0
0
SPLINE
5
FE
100
AcDbEntity
8
SK1
62
256
6
ByLayer
370
18
48
1
60
0
100
AcDbSpline
70
4
71
3
72
20
73
16
40
0
40
0
40
0
40
0
40
0.0624999999999992
40
0.0624999999999992
40
0.124999999999998
40
0.124999999999998
40
0.25
40
0.25
40
0.375000000000001
40
0.375000000000001
40
0.500000000000002
40
0.500000000000002
40
0.750000000000001
40
0.750000000000001
40
1
40
1
40
1
40
1
41
1
10
-44.15
20
4.85353639296366
30
0
41
1
10
-44.15
20
4.85484266538145
30
0
41
1
10
-44.1502569146169
20
4.85589223286877
30
0
41
1
10
-44.1512466991598
20
4.85751537774007
30
0
41
1
10
-44.1519837129547
20
4.85808308375249
30
0
41
1
10
-44.1547653438365
20
4.85909142090165
30
0
41
1
10
-44.1574101181635
20
4.85887242814149
30
0
41
1
10
-44.1638373738149
20
4.85703304197656
30
0
41
1
10
-44.1675465419207
20
4.85544218377311
30
0
41
1
10
-44.1757372414659
20
4.85122057542918
30
0
41
1
10
-44.1802613014627
20
4.84855780412346
30
0
41
1
10
-44.1944507164524
20
4.83945614944884
30
0
41
1
10
-44.2047953517104
20
4.83190814181108
30
0
41
1
10
-44.226908544871
20
4.81440506416524
30
0
41
1
10
-44.2382901766631
20
4.80475402732253
30
0
41
1
10
-44.25
20
4.79422298285141
30
0
0
SPLINE
5
FF
100
AcDbEntity
8
SK1
62
256
6
ByLayer
370
18
48
1
60
0
100
AcDbSpline
70
4
71
3
72
20
73
16
40
0
40
0
40
0
40
0
40
0.249999999999996
40
0.249999999999996
40
0.374999999999996
40
0.374999999999996
40
0.499999999999997
40
0.499999999999997
40
0.624999999999998
40
0.624999999999998
40
0.749999999999998
40
0.749999999999998
40
0.874999999999999
40
0.874999999999999
40
1
40
1
40
1
40
1
41
1
10
-44.25
20
3.8487379453538
30
0
41
1
10
-44.2382877407461
20
3.85927118052834
30
0
41
1
10
-44.226914977972
20
3.87080017903324
30
0
41
1
10
-44.2103576071414
20
3.88959019730996
30
0
41
1
10
-44.2049751381096
20
3.89605500522134
30
0
41
1
10
-44.1946946812026
20
3.9091553207877
30
0
41
1
10
-44.1897650588918
20
3.91582551333295
30
0
41
1
10
-44.1803754339179
20
3.92943289049333
30
0
41
1
10
-44.1758982216171
20
3.93639541714387
30
0
41
1
10
-44.1675998620729
20
3.95054458673161
30
0
41
1
10
-44.1638730040088
20
3.95756523620898
30
0
41
1
10
-44.1574568338975
20
3.97147092687351
30
0
41
1
10
-44.1547730646344
20
3.9783796787452
30
0
41
1
10
-44.1510607548749
20
3.99125109315907
30
0
41
1
10
-44.15
20
3.99737790553999
30
0
41
1
10
-44.15
20
4.00259985921582
30
0
0
SPLINE
5
100
100
AcDbEntity
8
SK1
62
256
6
ByLayer
370
18
48
1
60
0
100
AcDbSpline
70
4
71
3
72
8
73
4
40
0
40
0
40
0
40
0
40
1
40
1
40
1
40
1
41
1
10
-45
20
3.17174648836237
30
0
41
1
10
-44.7505637605652
20
3.39788370691031
30
0
41
1
10
-44.5004704941051
20
3.62348126673154
30
0
41
1
10
-44.25
20
3.8487379453538
30
0
0
SPLINE
5
101
100
AcDbEntity
8
1
62
256
6
ByLayer
370
18
48
1
60
0
100
AcDbSpline
70
4
71
3
72
34
73
30
40
0
40
0
40
0
40
0
40
1.38896149908E-05
40
6.17326099258E-05
40
8.68296442462E-05
40
0.0001938772301081
40
0.0002849681697981
40
0.0004486522728307
40
0.0007452819618474
40
0.0025844072092255
40
0.0049344648287711
40
0.0216588661231019
40
0.0878096720760173
40
0.165360201008968
40
0.219247388871466
40
0.27822523608786
40
0.344303446436726
40
0.410464373154857
40
0.475011270801533
40
0.534912212472011
40
0.583213007113559
40
0.638367430886486
40
0.708759442335929
40
0.751432842063882
40
0.788652175683382
40
0.820573236291091
40
0.864841200373548
40
0.933715237690342
40
1
40
1
40
1
40
1
41
1
10
41.4829736291443
20
0.173519704293
30
0
41
1
10
41.4829852847058
20
0.173516815154642
30
0
41
1
10
41.4830316880341
20
0.173505418204598
30
0
41
1
10
41.4830728634491
20
0.173495811814036
30
0
41
1
10
41.4829915008744
20
0.173522956846341
30
0
41
1
10
41.4828874937024
20
0.173557518041122
30
0
41
1
10
41.4827619405116
20
0.173600792117043
30
0
41
1
10
41.4824949930349
20
0.173686715116418
30
0
41
1
10
41.4810535802196
20
0.17412778887811
30
0
41
1
10
41.4752032118405
20
0.175760038973209
30
0
41
1
10
41.4368327302291
20
0.186109067367511
30
0
41
1
10
41.2409338998757
20
0.238249181371856
30
0
41
1
10
40.884413605912
20
0.336273993831867
30
0
41
1
10
40.4349994222183
20
0.4657438952419
30
0
41
1
10
40.0048148141015
20
0.595136570869784
30
0
41
1
10
39.6013060798831
20
0.720755208815007
30
0
41
1
10
39.1716866643085
20
0.859516178523762
30
0
41
1
10
38.7306694662484
20
1.00731693670949
30
0
41
1
10
38.3047275493518
20
1.15512494571476
30
0
41
1
10
37.9197401339386
20
1.2930186594995
30
0
41
1
10
37.5565019726304
20
1.42660517238298
30
0
41
1
10
37.170912731211
20
1.57191644099075
30
0
41
1
10
36.7989096321631
20
1.71615908661835
30
0
41
1
10
36.4674483258197
20
1.84786029983604
30
0
41
1
10
36.2213113819108
20
1.9473212706225
30
0
41
1
10
35.9721182321523
20
2.04944414016015
30
0
41
1
10
35.6539162279179
20
2.18190423907726
30
0
41
1
10
35.2612444074997
20
2.34868716696556
30
0
41
1
10
34.9666684681427
20
2.47785936680134
30
0
41
1
10
34.822462297239
20
2.54198695558659
30
0
0
SPLINE
5
102
100
AcDbEntity
8
1
62
256
6
ByLayer
370
18
48
1
60
0
100
AcDbSpline
70
4
71
3
72
16
73
12
40
0
40
0
40
0
40
0
40
0.03484547145794
40
0.148844064528059
40
0.283338245466564
40
0.387519519797831
40
0.45093384191482
40
0.527271405845065
40
0.619111242409664
40
0.800817580293593
40
1
40
1
40
1
40
1
41
1
10
71.3210696995243
20
1.0276119949657
30
0
41
1
10
71.2757400074235
20
1.04300761054162
30
0
41
1
10
71.0821337874774
20
1.10921106950329
30
0
41
1
10
70.713524440552
20
1.23983713390209
30
0
41
1
10
70.2557262886619
20
1.40709938861752
30
0
41
1
10
69.8643438845654
20
1.55507659647913
30
0
41
1
10
69.5487073913596
20
1.67703729565764
30
0
41
1
10
69.2497830192881
20
1.79461800790236
30
0
41
1
10
68.7992576558084
20
1.97560102981211
30
0
41
1
10
68.1927489113579
20
2.22700340396031
30
0
41
1
10
67.7069807204586
20
2.43807939706983
30
0
41
1
10
67.4537090705998
20
2.55071757196069
30
0
0
SPLINE
5
103
100
AcDbEntity
8
1
62
256
6
ByLayer
370
18
48
1
60
0
100
AcDbSpline
70
4
71
3
72
35
73
31
40
0
40
0
40
0
40
0
40
0.0487433149081582
40
0.0918403493284961
40
0.124673952050739
40
0.151458376429258
40
0.173387604713962
40
0.193939385947049
40
0.224158055212857
40
0.259052850293117
40
0.288541791198322
40
0.312107479143814
40
0.344899982269961
40
0.384884079745792
40
0.423034400325392
40
0.457971520084507
40
0.491818739360737
40
0.528025308540635
40
0.582751817189678
40
0.641414756962149
40
0.692465260067947
40
0.735740529456939
40
0.777206323414847
40
0.821377196673095
40
0.858280603265296
40
0.889709548824661
40
0.926393673469089
40
0.95291090642043
40
0.987828967579589
40
1
40
1
40
1
40
1
41
1
10
39.9513005753158
20
-5.25795473243875
30
0
41
1
10
40.2177084177053
20
-5.2579008683154
30
0
41
1
10
40.7198906616109
20
-5.25800488525556
30
0
41
1
10
41.408032337514
20
-5.25786983249606
30
0
41
1
10
41.9668795584918
20
-5.2592805781494
30
0
41
1
10
42.4118949477894
20
-5.25943348898736
30
0
41
1
10
42.7936569441751
20
-5.25973097079827
30
0
41
1
10
43.191583841726
20
-5.26009729611647
30
0
41
1
10
43.662944048471
20
-5.26010139910684
30
0
41
1
10
44.182796044441
20
-5.26029018297933
30
0
41
1
10
44.6663173494046
20
-5.2610357049798
30
0
41
1
10
45.1380694677763
20
-5.26126252447261
30
0
41
1
10
45.6677209706942
20
-5.26116253103828
30
0
41
1
10
46.2773925813243
20
-5.26124203381804
30
0
41
1
10
46.8989272471552
20
-5.26250509383613
30
0
41
1
10
47.486742945045
20
-5.26248204098601
30
0
41
1
10
48.063861210474
20
-5.2619512573427
30
0
41
1
10
48.7498213318648
20
-5.26371801626158
30
0
41
1
10
49.5712696982215
20
-5.26347023578415
30
0
41
1
10
50.4735426499948
20
-5.26214679824628
30
0
41
1
10
51.3153371687754
20
-5.26400785744309
30
0
41
1
10
52.0602173142005
20
-5.26368236522043
30
0
41
1
10
52.766936069
20
-5.26576133287136
30
0
41
1
10
53.4407384153946
20
-5.26648708142713
30
0
41
1
10
54.0592135658104
20
-5.26559593812465
30
0
41
1
10
54.635770597149
20
-5.26558365654299
30
0
41
1
10
55.1562372611955
20
-5.26644175216782
30
0
41
1
10
55.6937786721761
20
-5.26611283310368
30
0
41
1
10
56.0987976726204
20
-5.26588404171915
30
0
41
1
10
56.3575851294427
20
-5.26668260312564
30
0
41
1
10
56.4244858661876
20
-5.2669255040924
30
0
0
SPLINE
5
104
100
AcDbEntity
8
1
62
256
6
ByLayer
370
18
48
1
60
0
100
AcDbSpline
70
4
71
3
72
37
73
33
40
0
40
0
40
0
40
0
40
0.0026818303010693
40
0.0467827718175183
40
0.0664479872003906
40
0.0853901941249355
40
0.12459737510797
40
0.162735629712904
40
0.199148033092458
40
0.234017523581326
40
0.254493298831016
40
0.272838843024379
40
0.289102256926502
40
0.308696141459493
40
0.337918524622035
40
0.371458211846866
40
0.390181174536191
40
0.406291883447989
40
0.425816304516419
40
0.448754514524685
40
0.475107065097001
40
0.50487452995839
40
0.53806306692495
40
0.614426535805419
40
0.666167918381895
40
0.717711310885138
40
0.773770225664323
40
0.821025265003673
40
0.870282551917751
40
0.924094590222353
40
0.986612557864747
40
1
40
1
40
1
40
1
41
1
10
24.5744305397176
20
5.23295349907747
30
0
41
1
10
24.5639640251636
20
5.23265713876074
30
0
41
1
10
24.3802772320263
20
5.22741589547385
30
0
41
1
10
24.0714274677076
20
5.20668485439191
30
0
41
1
10
23.6775459832598
20
5.19860522222695
30
0
41
1
10
23.2987755490341
20
5.20176135232478
30
0
41
1
10
22.875421151076
20
5.22708048930167
30
0
41
1
10
22.3611376771754
20
5.24066459700612
30
0
41
1
10
21.8551784104753
20
5.24656054346067
30
0
41
1
10
21.4220382281694
20
5.24715515987052
30
0
41
1
10
21.0706485942831
20
5.24756302435804
30
0
41
1
10
20.806706403799
20
5.24772233096368
30
0
41
1
10
20.5458621971821
20
5.24785287013799
30
0
41
1
10
20.2326813458795
20
5.24798238936506
30
0
41
1
10
19.8363723902052
20
5.2475738301693
30
0
41
1
10
19.4442399899339
20
5.24650355815285
30
0
41
1
10
19.1152140284545
20
5.24628897491769
30
0
41
1
10
18.8536377656077
20
5.24621879469402
30
0
41
1
10
18.5717642013931
20
5.24618403101354
30
0
41
1
10
18.2406049793505
20
5.24595007565895
30
0
41
1
10
17.8601533277602
20
5.24543595760218
30
0
41
1
10
17.4303731205204
20
5.24489516174742
30
0
41
1
10
16.7599292446992
20
5.24483827903529
30
0
41
1
10
15.9837200067115
20
5.24432767958649
30
0
41
1
10
15.1192656995246
20
5.24323647225276
30
0
41
1
10
14.3524300062941
20
5.24343157545098
30
0
41
1
10
13.6072553791828
20
5.2424124265697
30
0
41
1
10
12.8729873442243
20
5.241928603422
30
0
41
1
10
12.1497435679719
20
5.24172572526732
30
0
41
1
10
11.3522166207852
20
5.24092533981542
30
0
41
1
10
10.7401280396778
20
5.2384552354967
30
0
41
1
10
10.3792438182566
20
5.23558386314608
30
0
41
1
10
10.3155152966514
20
5.23506149373733
30
0
0
SPLINE
5
105
100
AcDbEntity
8
1
62
256
6
ByLayer
370
18
48
1
60
0
100
AcDbSpline
70
4
71
3
72
33
73
29
40
0
40
0
40
0
40
0
40
0.0486705881293241
40
0.0933322312949009
40
0.131675114976909
40
0.167936848789346
40
0.202178530109717
40
0.234215708046394
40
0.26419135739422
40
0.293044840047778
40
0.318762317411578
40
0.345334663973478
40
0.39163843827328
40
0.438169374572965
40
0.480073324030439
40
0.532048109145615
40
0.574122935581607
40
0.615439990485362
40
0.660520184008474
40
0.708844563306168
40
0.748879651766062
40
0.778524035473395
40
0.805830543118573
40
0.835310903399529
40
0.870904379648614
40
0.912527675601369
40
0.959764759995105
40
1
40
1
40
1
40
1
41
1
10
7.26346383178938
20
-5.2366240720288
30
0
41
1
10
7.4965216901505
20
-5.23436804117543
30
0
41
1
10
7.95870115826815
20
-5.22887896627893
30
0
41
1
10
8.64571310340861
20
-5.20600627058704
30
0
41
1
10
9.31189034283781
20
-5.20292607886699
30
0
41
1
10
9.87183702036626
20
-5.22585821149258
30
0
41
1
10
10.4047657283349
20
-5.23551085055172
30
0
41
1
10
10.9145969328357
20
-5.23968774928881
30
0
41
1
10
11.4031329350786
20
-5.24089833635668
30
0
41
1
10
11.8623949888497
20
-5.24134854695069
30
0
41
1
10
12.3053763700308
20
-5.24171071435919
30
0
41
1
10
12.8427000704241
20
-5.24197079458426
30
0
41
1
10
13.4941539418738
20
-5.24225257777115
30
0
41
1
10
14.2290331601787
20
-5.24333809696501
30
0
41
1
10
14.9949101668431
20
-5.24329520283754
30
0
41
1
10
15.7364644151138
20
-5.24388534675199
30
0
41
1
10
16.4748197944274
20
-5.24491912738915
30
0
41
1
10
17.1755693159068
20
-5.24470253220164
30
0
41
1
10
17.9104064624337
20
-5.24548871871716
30
0
41
1
10
18.6382531835953
20
-5.24635603827255
30
0
41
1
10
19.2819035709967
20
-5.24613907275133
30
0
41
1
10
19.8109112139283
20
-5.24750761948181
30
0
41
1
10
20.2823475677383
20
-5.2480439877115
30
0
41
1
10
20.7862462346721
20
-5.24775923736496
30
0
41
1
10
21.3649493661299
20
-5.24691212789114
30
0
41
1
10
22.0338280840859
20
-5.24659109379803
30
0
41
1
10
22.7163727114614
20
-5.23579112715726
30
0
41
1
10
23.1969802939425
20
-5.23383401187823
30
0
41
1
10
23.416589790544
20
-5.23424913850778
30
0
0
SPLINE
5
106
100
AcDbEntity
8
1
62
256
6
ByLayer
370
18
48
1
60
0
100
AcDbSpline
70
4
71
3
72
8
73
4
40
0
40
0
40
0
40
0
40
1
40
1
40
1
40
1
41
1
10
23.9413805016489
20
-5.23782911824176
30
0
41
1
10
24.0574503947979
20
-5.23919774890086
30
0
41
1
10
24.1731297901316
20
-5.24094347051045
30
0
41
1
10
24.2887075583946
20
-5.24305640044372
30
0
0
SPLINE
5
107
100
AcDbEntity
8
1
62
256
6
ByLayer
370
18
48
1
60
0
100
AcDbSpline
70
4
71
3
72
29
73
25
40
0
40
0
40
0
40
0
40
0.013522287466215
40
0.0528339313126003
40
0.0883497738604455
40
0.120410585996344
40
0.166241068104151
40
0.222725620964206
40
0.289235591784752
40
0.376941146392172
40
0.448661058872059
40
0.509426258343606
40
0.566814012420794
40
0.614867069278178
40
0.656167908891024
40
0.706393312737673
40
0.764749843583676
40
0.812598016877161
40
0.847431751750913
40
0.892079467992004
40
0.93557168783365
40
0.974367983686147
40
0.993067608940933
40
1
40
1
40
1
40
1
41
1
10
56.6832649486298
20
5.2653018893767
30
0
41
1
10
56.6212687749096
20
5.26497024119027
30
0
41
1
10
56.3796604617449
20
5.26392275769518
30
0
41
1
10
55.9869196818579
20
5.26625083672511
30
0
41
1
10
55.5021017725241
20
5.26618878634346
30
0
41
1
10
54.9837453571778
20
5.26636455077167
30
0
41
1
10
54.3702711858575
20
5.26526950800877
30
0
41
1
10
53.5991685823324
20
5.2664989609562
30
0
41
1
10
52.6371499819788
20
5.26523780164766
30
0
41
1
10
51.6055334294274
20
5.26460023485782
30
0
41
1
10
50.599733415586
20
5.26353109738974
30
0
41
1
10
49.7331030343864
20
5.26313027344958
30
0
41
1
10
48.9739700761254
20
5.26419553976876
30
0
41
1
10
48.3038086708901
20
5.26220738828678
30
0
41
1
10
47.6663379247353
20
5.26229318904336
30
0
41
1
10
46.9818156331735
20
5.26268479481698
30
0
41
1
10
46.2673902390535
20
5.26113421679892
30
0
41
1
10
45.6232637000202
20
5.26121843932029
30
0
41
1
10
45.0417413972184
20
5.2612849038924
30
0
41
1
10
44.4801167120394
20
5.26079575533328
30
0
41
1
10
43.9003873363543
20
5.26005274229206
30
0
41
1
10
43.4391788276052
20
5.260127076206
30
0
41
1
10
43.1449332747525
20
5.26001110864513
30
0
41
1
10
43.0278704327617
20
5.25995449521142
30
0
41
1
10
42.9962097955957
20
5.25993833545945
30
0
0
SPLINE
5
108
100
AcDbEntity
8
1
62
256
6
ByLayer
370
18
48
1
60
0
100
AcDbSpline
70
4
71
2
72
6
73
3
40
0
40
0
40
0
40
1
40
1
40
1
41
1
10
56.0757442651062
20
-0.0009699819106004
30
0
41
1
10
56.0757341027335
20
-0.0009631400825754
30
0
41
1
10
56.0757239403017
20
-0.000956151333213
30
0
0
LINE
5
82
100
AcDbEntity
8
81
62
256
6
ByLayer
370
18
48
1
60
0
100
AcDbLine
10
73
20
0
30
0
11
76
21
0
31
0
39
0
210
0
220
0
230
1
0
LINE
5
83
100
AcDbEntity
8
80
62
256
6
ByLayer
370
18
48
1
60
0
100
AcDbLine
10
0
20
0
30
0
11
-3
21
0
31
0
39
0
210
0
220
0
230
1
0
LINE
5
84
100
AcDbEntity
8
SK4
62
256
6
ByLayer
370
18
48
0.05
60
0
100
AcDbLine
10
-48
20
0
30
0
11
76
21
0
31
0
39
0
210
0
220
0
230
1
0
LINE
5
86
100
AcDbEntity
8
4
62
256
6
ByLayer
370
18
48
0.05
60
0
100
AcDbLine
10
0
20
0
30
0
11
73
21
0
31
0
39
0
210
0
220
0
230
1
0
LINE
5
88
100
AcDbEntity
8
1
62
256
6
ByLayer
370
13
48
1
60
0
100
AcDbLine
10
72.922535
20
0.066873
30
0
11
71.572042
21
1.557584
31
0
39
0
210
0
220
0
230
1
0
LINE
5
89
100
AcDbEntity
8
1
62
256
6
ByLayer
370
13
48
1
60
0
100
AcDbLine
10
0.579035
20
5.752103
30
0
11
0.579035
21
-5.752103
31
0
39
0
210
0
220
0
230
1
0
LINE
5
8A
100
AcDbEntity
8
1
62
256
6
ByLayer
370
18
48
1
60
0
100
AcDbLine
10
0
20
6
30
0
11
0
21
-6
31
0
39
0
210
0
220
0
230
1
0
LINE
5
8B
100
AcDbEntity
8
1
62
256
6
ByLayer
370
13
48
1
60
0
100
AcDbLine
10
0.572045
20
5.759254
30
0
11
0.572045
21
-5.759254
31
0
39
0
210
0
220
0
230
1
0
LINE
5
8C
100
AcDbEntity
8
1
62
256
6
ByLayer
370
13
48
1
60
0
100
AcDbLine
10
1.15158
20
5.511357
30
0
11
1.15158
21
-5.511357
31
0
39
0
210
0
220
0
230
1
0
LINE
5
8D
100
AcDbEntity
8
1
62
256
6
ByLayer
370
18
48
1
60
0
100
AcDbLine
10
3.5
20
-5.132676
30
0
11
3.5
21
2.350068
31
0
39
0
210
0
220
0
230
1
0
LINE
5
8E
100
AcDbEntity
8
1
62
256
6
ByLayer
370
18
48
1
60
0
100
AcDbLine
10
24.22
20
-1.205912
30
0
11
24.22
21
-1.445133
31
0
39
0
210
0
220
0
230
1
0
LINE
5
8F
100
AcDbEntity
8
SK1
62
256
6
ByLayer
370
18
48
1
60
0
100
AcDbLine
10
-45
20
4.117232
30
0
11
-45
21
3.603639
31
0
39
0
210
0
220
0
230
1
0
LINE
5
91
100
AcDbEntity
8
SK1
62
256
6
ByLayer
370
13
48
1
60
0
100
AcDbLine
10
-44.25
20
3.848629
30
0
11
-44.25
21
4.794223
31
0
39
0
210
0
220
0
230
1
0
LINE
5
92
100
AcDbEntity
8
SK1
62
256
6
ByLayer
370
18
48
1
60
0
100
AcDbLine
10
-44.15
20
4.0026
30
0
11
-44.15
21
4.853536
31
0
39
0
210
0
220
0
230
1
0
LINE
5
93
100
AcDbEntity
8
SK1
62
256
6
ByLayer
370
18
48
1
60
0
100
AcDbLine
10
-45
20
-4.255
30
0
11
-45
21
3.171746
31
0
39
0
210
0
220
0
230
1
0
LINE
5
94
100
AcDbEntity
8
SK1
62
256
6
ByLayer
370
18
48
1
60
0
100
AcDbLine
10
-45
20
4.117232
30
0
11
-45
21
4.255
31
0
39
0
210
0
220
0
230
1
0
LINE
5
95
100
AcDbEntity
8
SK1
62
256
6
ByLayer
370
18
48
1
60
0
100
AcDbLine
10
-43.255
20
-6
30
0
11
-43.255
21
6
31
0
39
0
210
0
220
0
230
1
0
LINE
5
96
100
AcDbEntity
8
SK1
62
256
6
ByLayer
370
18
48
1
60
0
100
AcDbLine
10
0
20
6
30
0
11
0
21
-6
31
0
39
0
210
0
220
0
230
1
0
LINE
5
97
100
AcDbEntity
8
1
62
256
6
ByLayer
370
18
48
1
60
0
100
AcDbLine
10
0.579035
20
5.752103
30
0
11
0.572045
21
5.759254
31
0
39
0
210
0
220
0
230
1
0
LINE
5
98
100
AcDbEntity
8
1
62
256
6
ByLayer
370
18
48
1
60
0
100
AcDbLine
10
0.572045
20
-5.759254
30
0
11
0.579035
21
-5.752103
31
0
39
0
210
0
220
0
230
1
0
LINE
5
99
100
AcDbEntity
8
1
62
256
6
ByLayer
370
18
48
1
60
0
100
AcDbLine
10
1.15158
20
-5.511357
30
0
11
7.098058
21
-5.515074
31
0
39
0
210
0
220
0
230
1
0
LINE
5
9A
100
AcDbEntity
8
1
62
256
6
ByLayer
370
18
48
1
60
0
100
AcDbLine
10
38.269348
20
-5.534556
30
0
11
39.748276
21
-5.53548
31
0
39
0
210
0
220
0
230
1
0
LINE
5
9B
100
AcDbEntity
8
1
62
256
6
ByLayer
370
18
48
1
60
0
100
AcDbLine
10
39.748276
20
5.53548
30
0
11
38.269348
21
5.534556
31
0
39
0
210
0
220
0
230
1
0
LINE
5
9C
100
AcDbEntity
8
1
62
256
6
ByLayer
370
18
48
1
60
0
100
AcDbLine
10
7.098058
20
5.515074
30
0
11
1.15158
21
5.511357
31
0
39
0
210
0
220
0
230
1
0
LINE
5
9D
100
AcDbEntity
8
SK1
62
256
6
ByLayer
370
18
48
1
60
0
100
AcDbLine
10
-45
20
-4.255
30
0
11
-43.255
21
-6
31
0
39
0
210
0
220
0
230
1
0
LINE
5
9E
100
AcDbEntity
8
SK1
62
256
6
ByLayer
370
18
48
1
60
0
100
AcDbLine
10
-43.255
20
6
30
0
11
-45
21
4.255
31
0
39
0
210
0
220
0
230
1
0
LINE
5
9F
100
AcDbEntity
8
SK1
62
256
6
ByLayer
370
18
48
1
60
0
100
AcDbLine
10
-43.255
20
-6
30
0
11
0
21
-6
31
0
39
0
210
0
220
0
230
1
0
LINE
5
A0
100
AcDbEntity
8
SK1
62
256
6
ByLayer
370
18
48
1
60
0
100
AcDbLine
10
0
20
6
30
0
11
-43.255
21
6
31
0
39
0
210
0
220
0
230
1
0
LINE
5
A1
100
AcDbEntity
8
2
62
256
6
ByLayer
370
13
48
1
60
0
100
AcDbLine
10
86.75
20
-5.555
30
0
11
86.75
21
23.635398
31
0
39
0
210
0
220
0
230
1
0
LINE
5
A3
100
AcDbEntity
8
2
62
256
6
ByLayer
370
13
48
1
60
0
100
AcDbLine
10
74.5875
20
5.555
30
0
11
88.75
21
5.555
31
0
39
0
210
0
220
0
230
1
0
LINE
5
A4
100
AcDbEntity
8
2
62
256
6
ByLayer
370
13
48
1
60
0
100
AcDbLine
10
74.5875
20
-5.555
30
0
11
88.75
21
-5.555
31
0
39
0
210
0
220
0
230
1
0
LINE
5
A5
100
AcDbEntity
8
1
62
256
6
ByLayer
370
18
48
1
60
1
100
AcDbLine
10
86.75
20
5.555
30
0
11
87.210784
21
2.055002
31
0
39
0
210
0
220
0
230
1
0
LINE
5
A6
100
AcDbEntity
8
1
62
256
6
ByLayer
370
18
48
1
60
1
100
AcDbLine
10
87.210784
20
2.055002
30
0
11
86.289216
21
2.054998
31
0
39
0
210
0
220
0
230
1
0
LINE
5
A7
100
AcDbEntity
8
1
62
256
6
ByLayer
370
18
48
1
60
1
100
AcDbLine
10
86.289216
20
2.054998
30
0
11
86.75
21
5.555
31
0
39
0
210
0
220
0
230
1
0
LINE
5
A8
100
AcDbEntity
8
1
62
256
6
ByLayer
370
18
48
1
60
1
100
AcDbLine
10
86.75
20
-5.555
30
0
11
86.289216
21
-2.055002
31
0
39
0
210
0
220
0
230
1
0
LINE
5
A9
100
AcDbEntity
8
1
62
256
6
ByLayer
370
18
48
1
60
1
100
AcDbLine
10
86.289216
20
-2.055002
30
0
11
87.210784
21
-2.054998
31
0
39
0
210
0
220
0
230
1
0
LINE
5
AA
100
AcDbEntity
8
1
62
256
6
ByLayer
370
18
48
1
60
1
100
AcDbLine
10
87.210784
20
-2.054998
30
0
11
86.75
21
-5.555
31
0
39
0
210
0
220
0
230
1
0
LINE
5
AB
100
AcDbEntity
8
SK2
62
256
6
ByLayer
370
13
48
1
60
0
100
AcDbLine
10
-53.25
20
-6
30
0
11
-53.25
21
22.056066
31
0
39
0
210
0
220
0
230
1
0
LINE
5
AD
100
AcDbEntity
8
SK2
62
256
6
ByLayer
370
13
48
1
60
0
100
AcDbLine
10
-46.5875
20
6
30
0
11
-55.25
21
6
31
0
39
0
210
0
220
0
230
1
0
LINE
5
AE
100
AcDbEntity
8
SK2
62
256
6
ByLayer
370
13
48
1
60
0
100
AcDbLine
10
-46.5875
20
-6
30
0
11
-55.25
21
-6
31
0
39
0
210
0
220
0
230
1
0
LINE
5
AF
100
AcDbEntity
8
1
62
256
6
ByLayer
370
18
48
1
60
1
100
AcDbLine
10
-53.25
20
6
30
0
11
-52.789216
21
2.500002
31
0
39
0
210
0
220
0
230
1
0
LINE
5
B0
100
AcDbEntity
8
1
62
256
6
ByLayer
370
18
48
1
60
1
100
AcDbLine
10
-52.789216
20
2.500002
30
0
11
-53.710784
21
2.499998
31
0
39
0
210
0
220
0
230
1
0
LINE
5
B1
100
AcDbEntity
8
1
62
256
6
ByLayer
370
18
48
1
60
1
100
AcDbLine
10
-53.710784
20
2.499998
30
0
11
-53.25
21
6
31
0
39
0
210
0
220
0
230
1
0
LINE
5
B2
100
AcDbEntity
8
1
62
256
6
ByLayer
370
18
48
1
60
1
100
AcDbLine
10
-53.25
20
-6
30
0
11
-53.710784
21
-2.500002
31
0
39
0
210
0
220
0
230
1
0
LINE
5
B3
100
AcDbEntity
8
1
62
256
6
ByLayer
370
18
48
1
60
1
100
AcDbLine
10
-53.710784
20
-2.500002
30
0
11
-52.789216
21
-2.499998
31
0
39
0
210
0
220
0
230
1
0
LINE
5
B4
100
AcDbEntity
8
1
62
256
6
ByLayer
370
18
48
1
60
1
100
AcDbLine
10
-52.789216
20
-2.499998
30
0
11
-53.25
21
-6
31
0
39
0
210
0
220
0
230
1
0
LINE
5
B5
100
AcDbEntity
8
SK2
62
256
6
ByLayer
370
13
48
1
60
0
100
AcDbLine
10
73.542991
20
1.491749
30
0
11
85.154616
21
33.392132
31
0
39
0
210
0
220
0
230
1
0
LINE
5
B6
100
AcDbEntity
8
SK2
62
256
6
ByLayer
370
13
48
1
60
0
100
AcDbLine
10
73.542991
20
-1.491749
30
0
11
85.154616
21
-33.392132
31
0
39
0
210
0
220
0
230
1
0
LINE
5
B7
100
AcDbEntity
8
1
62
256
6
ByLayer
370
18
48
1
60
1
100
AcDbLine
10
84.470532
20
31.512762
30
0
11
87.895945
21
30.659034
31
0
39
0
210
0
220
0
230
1
0
LINE
5
B8
100
AcDbEntity
8
1
62
256
6
ByLayer
370
18
48
1
60
1
100
AcDbLine
10
87.895945
20
30.659034
30
0
11
87.558269
21
29.80156
31
0
39
0
210
0
220
0
230
1
0
LINE
5
B9
100
AcDbEntity
8
1
62
256
6
ByLayer
370
18
48
1
60
1
100
AcDbLine
10
87.558269
20
29.80156
30
0
11
84.470532
21
31.512762
31
0
39
0
210
0
220
0
230
1
0
LINE
5
BA
100
AcDbEntity
8
1
62
256
6
ByLayer
370
18
48
1
60
1
100
AcDbLine
10
84.470532
20
-31.512762
30
0
11
87.558266
21
-29.801561
31
0
39
0
210
0
220
0
230
1
0
LINE
5
BB
100
AcDbEntity
8
1
62
256
6
ByLayer
370
18
48
1
60
1
100
AcDbLine
10
87.558266
20
-29.801561
30
0
11
87.895949
21
-30.659032
31
0
39
0
210
0
220
0
230
1
0
LINE
5
BC
100
AcDbEntity
8
1
62
256
6
ByLayer
370
18
48
1
60
1
100
AcDbLine
10
87.895949
20
-30.659032
30
0
11
84.470532
21
-31.512762
31
0
39
0
210
0
220
0
230
1
0
LINE
5
109
100
AcDbEntity
8
1
62
256
6
ByLayer
370
13
48
0.05
60
0
100
AcDbLine
10
-51.5
20
0
30
0
11
77.540609
21
0
31
0
39
0
210
0
220
0
230
1
0
LINE
5
10E
100
AcDbEntity
8
1
62
256
6
ByLayer
370
18
48
1
60
1
100
AcDbLine
10
86.75
20
5.555
30
0
11
87.210784
21
2.055002
31
0
39
0
210
0
220
0
230
1
0
LINE
5
10F
100
AcDbEntity
8
1
62
256
6
ByLayer
370
18
48
1
60
1
100
AcDbLine
10
87.210784
20
2.055002
30
0
11
86.289216
21
2.054998
31
0
39
0
210
0
220
0
230
1
0
LINE
5
110
100
AcDbEntity
8
1
62
256
6
ByLayer
370
18
48
1
60
1
100
AcDbLine
10
86.289216
20
2.054998
30
0
11
86.75
21
5.555
31
0
39
0
210
0
220
0
230
1
0
LINE
5
112
100
AcDbEntity
8
1
62
256
6
ByLayer
370
18
48
1
60
1
100
AcDbLine
10
86.75
20
-5.555
30
0
11
86.289216
21
-2.055002
31
0
39
0
210
0
220
0
230
1
0
LINE
5
113
100
AcDbEntity
8
1
62
256
6
ByLayer
370
18
48
1
60
1
100
AcDbLine
10
86.289216
20
-2.055002
30
0
11
87.210784
21
-2.054998
31
0
39
0
210
0
220
0
230
1
0
LINE
5
114
100
AcDbEntity
8
1
62
256
6
ByLayer
370
18
48
1
60
1
100
AcDbLine
10
87.210784
20
-2.054998
30
0
11
86.75
21
-5.555
31
0
39
0
210
0
220
0
230
1
0
LINE
5
118
100
AcDbEntity
8
1
62
256
6
ByLayer
370
18
48
1
60
1
100
AcDbLine
10
-53.25
20
6
30
0
11
-52.789216
21
2.500002
31
0
39
0
210
0
220
0
230
1
0
LINE
5
119
100
AcDbEntity
8
1
62
256
6
ByLayer
370
18
48
1
60
1
100
AcDbLine
10
-52.789216
20
2.500002
30
0
11
-53.710784
21
2.499998
31
0
39
0
210
0
220
0
230
1
0
LINE
5
11A
100
AcDbEntity
8
1
62
256
6
ByLayer
370
18
48
1
60
1
100
AcDbLine
10
-53.710784
20
2.499998
30
0
11
-53.25
21
6
31
0
39
0
210
0
220
0
230
1
0
LINE
5
11C
100
AcDbEntity
8
1
62
256
6
ByLayer
370
18
48
1
60
1
100
AcDbLine
10
-53.25
20
-6
30
0
11
-53.710784
21
-2.500002
31
0
39
0
210
0
220
0
230
1
0
LINE
5
11D
100
AcDbEntity
8
1
62
256
6
ByLayer
370
18
48
1
60
1
100
AcDbLine
10
-53.710784
20
-2.500002
30
0
11
-52.789216
21
-2.499998
31
0
39
0
210
0
220
0
230
1
0
LINE
5
11E
100
AcDbEntity
8
1
62
256
6
ByLayer
370
18
48
1
60
1
100
AcDbLine
10
-52.789216
20
-2.499998
30
0
11
-53.25
21
-6
31
0
39
0
210
0
220
0
230
1
0
LINE
5
121
100
AcDbEntity
8
1
62
256
6
ByLayer
370
18
48
1
60
1
100
AcDbLine
10
84.470532
20
31.512762
30
0
11
87.895945
21
30.659034
31
0
39
0
210
0
220
0
230
1
0
LINE
5
122
100
AcDbEntity
8
1
62
256
6
ByLayer
370
18
48
1
60
1
100
AcDbLine
10
87.895945
20
30.659034
30
0
11
87.558269
21
29.80156
31
0
39
0
210
0
220
0
230
1
0
LINE
5
123
100
AcDbEntity
8
1
62
256
6
ByLayer
370
18
48
1
60
1
100
AcDbLine
10
87.558269
20
29.80156
30
0
11
84.470532
21
31.512762
31
0
39
0
210
0
220
0
230
1
0
LINE
5
125
100
AcDbEntity
8
1
62
256
6
ByLayer
370
18
48
1
60
1
100
AcDbLine
10
84.470532
20
-31.512762
30
0
11
87.558266
21
-29.801561
31
0
39
0
210
0
220
0
230
1
0
LINE
5
126
100
AcDbEntity
8
1
62
256
6
ByLayer
370
18
48
1
60
1
100
AcDbLine
10
87.558266
20
-29.801561
30
0
11
87.895949
21
-30.659032
31
0
39
0
210
0
220
0
230
1
0
LINE
5
127
100
AcDbEntity
8
1
62
256
6
ByLayer
370
18
48
1
60
1
100
AcDbLine
10
87.895949
20
-30.659032
30
0
11
84.470532
21
-31.512762
31
0
39
0
210
0
220
0
230
1
0
MTEXT
5
10A
100
AcDbEntity
8
2
62
256
6
ByLayer
370
18
48
1
60
0
100
AcDbMText
10
85.185366
20
9.489844
30
0
210
0
220
0
230
1
1
%%c
40
3.5
41
0
44
1.084337
50
90
71
7
72
5
7
iso_b_vert
0
MTEXT
5
10D
100
AcDbEntity
8
2
62
256
6
ByLayer
370
18
48
1
60
0
100
AcDbMText
10
85.185366
20
16.4625
30
0
210
0
220
0
230
1
1
\W0.5428;11.11
40
3.5
41
0
44
1.084337
50
90
71
7
72
5
7
iso_b_vert
0
MTEXT
5
116
100
AcDbEntity
8
SK2
62
256
6
ByLayer
370
18
48
1
60
0
100
AcDbMText
10
-54.814634
20
11.934844
30
0
210
0
220
0
230
1
1
%%c
40
3.5
41
0
44
1.084337
50
90
71
7
72
5
7
iso_b_vert
0
MTEXT
5
117
100
AcDbEntity
8
SK2
62
256
6
ByLayer
370
18
48
1
60
0
100
AcDbMText
10
-54.814634
20
18.9075
30
0
210
0
220
0
230
1
1
\W0.5321;12
40
3.5
41
0
44
1.084337
50
90
71
7
72
5
7
iso_b_vert
0
MTEXT
5
120
100
AcDbEntity
8
SK2
62
256
6
ByLayer
370
18
48
1
60
0
100
AcDbMText
10
102.463814
20
-2.467366
30
0
210
0
220
0
230
1
1
\W0.7825;140%%d
40
3.5
41
0
44
1.084337
50
0
71
7
72
5
7
iso_b_vert
0
MTEXT
5
129
100
AcDbEntity
8
SK6
62
256
6
ByLayer
370
18
48
1
60
0
100
AcDbMText
10
-13.247631
20
-103.723278
30
0
210
0
220
0
230
1
1
\W0.7081;860.1-1111-056A1-MM M2BM
40
3.5
41
0
44
1.084337
50
0
71
7
72
5
7
iso_b_vert
0
HATCH
5
111
100
AcDbEntity
8
2
62
256
6
ByLayer
370
13
48
1
60
0
100
AcDbHatch
10
0
20
0
30
0
210
0
220
0
230
1
2
ANSI31
70
0
71
0
91
1
92
5
93
3
72
1
10
86.75
20
5.55499999999998
11
87.2107837415528
21
2.05500169255316
72
1
10
87.2107837415528
20
2.05500169255316
11
86.2892162584472
21
2.0549983074468
72
1
10
86.2892162584472
20
2.0549983074468
11
86.75
21
5.55499999999998
97
0
75
0
76
1
52
0
41
0.0062
77
0
78
1
53
45
43
0
44
0
45
-0.0139193969876572
46
0.0139193969876572
79
0
47
0
98
1
10
0
20
0
0
HATCH
5
115
100
AcDbEntity
8
2
62
256
6
ByLayer
370
13
48
1
60
0
100
AcDbHatch
10
0
20
0
30
0
210
0
220
0
230
1
2
ANSI31
70
0
71
0
91
1
92
5
93
3
72
1
10
86.75
20
-5.55500000000001
11
86.2892162584472
21
-2.05500169255319
72
1
10
86.2892162584472
20
-2.05500169255319
11
87.2107837415528
21
-2.05499830744682
72
1
10
87.2107837415528
20
-2.05499830744682
11
86.75
21
-5.55500000000001
97
0
75
0
76
1
52
0
41
0.0062
77
0
78
1
53
45
43
0
44
0
45
-0.0139193969876572
46
0.0139193969876572
79
0
47
0
98
1
10
0
20
0
0
HATCH
5
11B
100
AcDbEntity
8
SK2
62
256
6
ByLayer
370
13
48
1
60
0
100
AcDbHatch
10
0
20
0
30
0
210
0
220
0
230
1
2
ANSI31
70
0
71
0
91
1
92
5
93
3
72
1
10
-53.25
20
6
11
-52.7892162584472
21
2.50000169255318
72
1
10
-52.7892162584472
20
2.50000169255318
11
-53.7107837415528
21
2.49999830744682
72
1
10
-53.7107837415528
20
2.49999830744682
11
-53.25
21
6
97
0
75
0
76
1
52
0
41
0.0062
77
0
78
1
53
45
43
0
44
0
45
-0.0139193969876572
46
0.0139193969876572
79
0
47
0
98
1
10
0
20
0
0
HATCH
5
11F
100
AcDbEntity
8
SK2
62
256
6
ByLayer
370
13
48
1
60
0
100
AcDbHatch
10
0
20
0
30
0
210
0
220
0
230
1
2
ANSI31
70
0
71
0
91
1
92
5
93
3
72
1
10
-53.25
20
-6
11
-53.7107837415528
21
-2.50000169255318
72
1
10
-53.7107837415528
20
-2.50000169255318
11
-52.7892162584472
21
-2.49999830744682
72
1
10
-52.7892162584472
20
-2.49999830744682
11
-53.25
21
-6
97
0
75
0
76
1
52
0
41
0.0062
77
0
78
1
53
45
43
0
44
0
45
-0.0139193969876572
46
0.0139193969876572
79
0
47
0
98
1
10
0
20
0
0
HATCH
5
124
100
AcDbEntity
8
SK2
62
256
6
ByLayer
370
13
48
1
60
0
100
AcDbHatch
10
0
20
0
30
0
210
0
220
0
230
1
2
ANSI31
70
0
71
0
91
1
92
5
93
3
72
1
10
84.4705320053563
20
31.5127622600155
11
87.8959454619352
21
30.6590336965375
72
1
10
87.8959454619352
20
30.6590336965375
11
87.5582690527069
21
29.8015599251721
72
1
10
87.5582690527069
20
29.8015599251721
11
84.4705320053563
21
31.5127622600155
97
0
75
0
76
1
52
0
41
0.0062
77
0
78
1
53
45
43
0
44
0
45
-0.0139193969876572
46
0.0139193969876572
79
0
47
0
98
1
10
0
20
0
0
HATCH
5
128
100
AcDbEntity
8
SK2
62
256
6
ByLayer
370
13
48
1
60
0
100
AcDbHatch
10
0
20
0
30
0
210
0
220
0
230
1
2
ANSI31
70
0
71
0
91
1
92
5
93
3
72
1
10
84.4705320053559
20
-31.5127622600156
11
87.5582659030341
21
-29.8015611655386
72
1
10
87.5582659030341
20
-29.8015611655386
11
87.8959486116073
21
-30.6590324561714
72
1
10
87.8959486116073
20
-30.6590324561714
11
84.4705320053559
21
-31.5127622600156
97
0
75
0
76
1
52
0
41
0.0062
77
0
78
1
53
45
43
0
44
0
45
-0.0139193969876572
46
0.0139193969876572
79
0
47
0
98
1
10
0
20
0
0
DIMENSION
5
12C
100
AcDbEntity
8
2
62
256
6
ByLayer
370
18
48
1
60
0
100
AcDbDimension
2
_U0
10
73
20
-81.478634
30
0
11
14
21
-81.478634
31
0
70
32
71
1
72
1
41
1
210
0
220
0
230
1
3
Standard
100
AcDbAlignedDimension
13
-45
23
-6
33
0
14
73
24
-5.555
34
0
50
0
100
AcDbRotatedDimension
1001
ACAD
1000
DSTYLE
1002
{
1070
   371
1070
    13
1070
   372
1070
    13
1070
     3
1000

1070
   170
1070
     0
1070
   144
1040
1.0
1070
   277
1070
     2
1070
   284
1070
     8
1070
   278
1070
    46
1070
   146
1040
1.0
1070
   345
1005
16
1070
   347
1005
16
1070
   346
1005
16
1070
   344
1005
0
1070
   343
1005
0
1070
   172
1070
     1
1070
    76
1070
     0
1070
    75
1070
     0
1070
   282
1070
     0
1070
   281
1070
     0
1070
    71
1070
     0
1070
    74
1070
     0
1070
   279
1070
     0
1070
   173
1070
     1
1070
   340
1005
10B
1070
   271
1070
     2
1070
   272
1070
     2
1070
    77
1070
     1
1070
    73
1070
     1
1070
   171
1070
     3
1070
   274
1070
     4
1070
   177
1070
     2
1070
   176
1070
     2
1070
   178
1070
     2
1070
    78
1070
     8
1070
    48
1040
-0.1
1070
    41
1040
3.5
1070
   147
1040
1.75
1070
    42
1040
1.5875
1070
    44
1040
2.0
1070
   140
1040
3.5
1002
}
1001
ACAD_DSTYLE_DIM_LINETYPE
1070
   380
1005
16
1001
ACAD_DSTYLE_DIM_EXT1_LINETYPE
1070
   381
1005
16
1001
ACAD_DSTYLE_DIM_EXT2_LINETYPE
1070
   382
1005
16
0
DIMENSION
5
145
100
AcDbEntity
8
SK2
62
256
6
ByLayer
370
18
48
1
60
0
100
AcDbDimension
2
_U1
10
2
20
-61.478634
30
0
11
37.5
21
-61.478634
31
0
70
32
71
1
72
1
41
1
210
0
220
0
230
1
3
Standard
100
AcDbAlignedDimension
13
73
23
-5.555
33
0
14
2
24
-5.555
34
0
50
0
100
AcDbRotatedDimension
1001
ACAD
1000
DSTYLE
1002
{
1070
   371
1070
    13
1070
   372
1070
    13
1070
     3
1000

1070
   170
1070
     0
1070
   144
1040
1.0
1070
   277
1070
     2
1070
   284
1070
     8
1070
   278
1070
    46
1070
   146
1040
1.0
1070
   345
1005
16
1070
   347
1005
16
1070
   346
1005
16
1070
   344
1005
0
1070
   343
1005
0
1070
   172
1070
     1
1070
    76
1070
     0
1070
    75
1070
     0
1070
   282
1070
     0
1070
   281
1070
     0
1070
    71
1070
     0
1070
    74
1070
     0
1070
   279
1070
     0
1070
   173
1070
     1
1070
   340
1005
10B
1070
   271
1070
     2
1070
   272
1070
     2
1070
    77
1070
     1
1070
    73
1070
     1
1070
   171
1070
     3
1070
   274
1070
     4
1070
   177
1070
     2
1070
   176
1070
     2
1070
   178
1070
     2
1070
    78
1070
     8
1070
    48
1040
-0.1
1070
    41
1040
3.5
1070
   147
1040
1.75
1070
    42
1040
1.5875
1070
    44
1040
2.0
1070
   140
1040
3.5
1002
}
1001
ACAD_DSTYLE_DIM_LINETYPE
1070
   380
1005
16
1001
ACAD_DSTYLE_DIM_EXT1_LINETYPE
1070
   381
1005
16
1001
ACAD_DSTYLE_DIM_EXT2_LINETYPE
1070
   382
1005
16
0
DIMENSION
5
15D
100
AcDbEntity
8
SK2
62
256
6
ByLayer
370
18
48
1
60
0
100
AcDbDimension
2
_U2
10
17
20
-51.478634
30
0
11
45
21
-51.478634
31
0
70
32
71
1
72
1
41
1
210
0
220
0
230
1
3
Standard
100
AcDbAlignedDimension
13
73
23
-5.555
33
0
14
17
24
-5.555
34
0
50
0
100
AcDbRotatedDimension
1001
ACAD
1000
DSTYLE
1002
{
1070
   371
1070
    13
1070
   372
1070
    13
1070
     3
1000

1070
   170
1070
     0
1070
   144
1040
1.0
1070
   277
1070
     2
1070
   284
1070
     8
1070
   278
1070
    46
1070
   146
1040
1.0
1070
   345
1005
16
1070
   347
1005
16
1070
   346
1005
16
1070
   344
1005
0
1070
   343
1005
0
1070
   172
1070
     1
1070
    76
1070
     0
1070
    75
1070
     0
1070
   282
1070
     0
1070
   281
1070
     0
1070
    71
1070
     0
1070
    74
1070
     0
1070
   279
1070
     0
1070
   173
1070
     1
1070
   340
1005
10B
1070
   271
1070
     2
1070
   272
1070
     2
1070
    77
1070
     1
1070
    73
1070
     1
1070
   171
1070
     3
1070
   274
1070
     4
1070
   177
1070
     2
1070
   176
1070
     2
1070
   178
1070
     2
1070
    78
1070
     8
1070
    48
1040
-0.1
1070
    41
1040
3.5
1070
   147
1040
1.75
1070
    42
1040
1.5875
1070
    44
1040
2.0
1070
   140
1040
3.5
1002
}
1001
ACAD_DSTYLE_DIM_LINETYPE
1070
   380
1005
16
1001
ACAD_DSTYLE_DIM_EXT1_LINETYPE
1070
   381
1005
16
1001
ACAD_DSTYLE_DIM_EXT2_LINETYPE
1070
   382
1005
16
0
DIMENSION
5
177
100
AcDbEntity
8
SK2
62
256
6
ByLayer
370
18
48
1
60
0
100
AcDbDimension
2
_U3
10
0
20
-61.478634
30
0
11
-22.5
21
-61.478634
31
0
70
32
71
1
72
1
41
1
210
0
220
0
230
1
3
Standard
100
AcDbAlignedDimension
13
-45
23
-6
33
0
14
0
24
-6
34
0
50
0
100
AcDbRotatedDimension
1001
ACAD
1000
DSTYLE
1002
{
1070
   371
1070
    13
1070
   372
1070
    13
1070
     3
1000

1070
   170
1070
     0
1070
   144
1040
1.0
1070
   277
1070
     2
1070
   284
1070
     8
1070
   278
1070
    46
1070
   146
1040
1.0
1070
   345
1005
16
1070
   347
1005
16
1070
   346
1005
16
1070
   344
1005
0
1070
   343
1005
0
1070
   172
1070
     1
1070
    76
1070
     0
1070
    75
1070
     0
1070
   282
1070
     0
1070
   281
1070
     0
1070
    71
1070
     0
1070
    74
1070
     0
1070
   279
1070
     0
1070
   173
1070
     1
1070
   340
1005
10B
1070
   271
1070
     2
1070
   272
1070
     2
1070
    77
1070
     1
1070
    73
1070
     1
1070
   171
1070
     3
1070
   274
1070
     4
1070
   177
1070
     2
1070
   176
1070
     2
1070
   178
1070
     2
1070
    78
1070
     8
1070
    48
1040
-0.1
1070
    41
1040
3.5
1070
   147
1040
1.75
1070
    42
1040
1.5875
1070
    44
1040
2.0
1070
   140
1040
3.5
1002
}
1001
ACAD_DSTYLE_DIM_LINETYPE
1070
   380
1005
16
1001
ACAD_DSTYLE_DIM_EXT1_LINETYPE
1070
   381
1005
16
1001
ACAD_DSTYLE_DIM_EXT2_LINETYPE
1070
   382
1005
16
0
DIMENSION
5
18F
100
AcDbEntity
8
SK2
62
256
6
ByLayer
370
18
48
1
60
0
100
AcDbDimension
2
_U4
10
73
20
-71.478634
30
0
11
36.5
21
-71.478634
31
0
70
32
71
1
72
1
41
1
210
0
220
0
230
1
3
Standard
100
AcDbAlignedDimension
13
0
23
-6
33
0
14
73
24
-5.555
34
0
50
0
100
AcDbRotatedDimension
1001
ACAD
1000
DSTYLE
1002
{
1070
   371
1070
    13
1070
   372
1070
    13
1070
     3
1000

1070
   170
1070
     0
1070
   144
1040
1.0
1070
   277
1070
     2
1070
   284
1070
     8
1070
   278
1070
    46
1070
   146
1040
1.0
1070
   345
1005
16
1070
   347
1005
16
1070
   346
1005
16
1070
   344
1005
0
1070
   343
1005
0
1070
   172
1070
     1
1070
    76
1070
     0
1070
    75
1070
     0
1070
   282
1070
     0
1070
   281
1070
     0
1070
    71
1070
     0
1070
    74
1070
     0
1070
   279
1070
     0
1070
   173
1070
     1
1070
   340
1005
10B
1070
   271
1070
     2
1070
   272
1070
     2
1070
    77
1070
     1
1070
    73
1070
     1
1070
   171
1070
     3
1070
   274
1070
     4
1070
   177
1070
     2
1070
   176
1070
     2
1070
   178
1070
     2
1070
    78
1070
     8
1070
    48
1040
-0.1
1070
    41
1040
3.5
1070
   147
1040
1.75
1070
    42
1040
1.5875
1070
    44
1040
2.0
1070
   140
1040
3.5
1002
}
1001
ACAD_DSTYLE_DIM_LINETYPE
1070
   380
1005
16
1001
ACAD_DSTYLE_DIM_EXT1_LINETYPE
1070
   381
1005
16
1001
ACAD_DSTYLE_DIM_EXT2_LINETYPE
1070
   382
1005
16
0
ENDSEC
0
SECTION
2
OBJECTS
0
DICTIONARY
5
217
330
0
100
AcDbDictionary
280
0
281
1
3
ACAD_GROUP
350
218
3
ACAD_MLINESTYLE
350
219
0
DICTIONARY
5
218
330
0
100
AcDbDictionary
280
0
281
1
0
DICTIONARY
5
219
330
0
100
AcDbDictionary
280
0
281
1
3
Standard
350
18
0
MLINESTYLE
5
18
330
219
100
AcDbMlineStyle
2
Standard
70
0
3

62
256
51
90
52
90
71
2
49
-0.5
62
256
6
ByLayer
49
0.5
62
256
6
ByLayer
0
RASTERVARIABLES
5
205
330

100
AcDbRasterVariables
90
0
70
1
71
1
72
1
0
ENDSEC
0
EOF
