0
SECTION
2
HEADER
9
$ACADVER
1
AC1015
9
$DWGCODEPAGE
3
ANSI_1252
9
$HANDSEED
5
227
9
$ANGBASE
50
0
9
$ANGDIR
70
0
9
$ATTMODE
70
1
9
$AUNITS
70
0
9
$AUPREC
70
0
9
$CECOLOR
62
256
9
$CELTSCALE
40
1
9
$CELTYPE
6
ByLayer
9
$CELWEIGHT
370
18
9
$CLAYER
8
0
9
$CMLJUST
70
0
9
$CMLSCALE
40
1
9
$CMLSTYLE
2
Standard
9
$DIMSTYLE
2
Standard
9
$TEXTSIZE
40
0.2
9
$TEXTSTYLE
7
Standard
9
$LUNITS
70
2
9
$LUPREC
70
4
9
$EXTNAMES
290
1
9
$INSUNITS
70
4
9
$LTSCALE
40
1
9
$LWDISPLAY
290
1
9
$PDMODE
70
0
9
$PDSIZE
40
0
9
$PLINEGEN
70
0
0
ENDSEC
0
SECTION
2
CLASSES
0
CLASS
1
RASTERVARIABLES
2
AcDbRasterVariables
3
ISM
90
0
280
0
281
0
0
ENDSEC
0
SECTION
2
TABLES
0
TABLE
2
VPORT
5
21d
100
AcDbSymbolTable
0
VPORT
5
1
100
AcDbSymbolTableRecord
100
AcDbViewportTableRecord
2
*Active
70
0
10
0
20
0
11
1
21
1
12
-1
22
1
13
0
23
0
14
0.5
24
0.5
15
10
25
10
16
0
26
0
36
1
17
0
27
0
37
0
0
ENDTAB
0
TABLE
2
LTYPE
5
21e
100
AcDbSymbolTable
0
LTYPE
5
14
100
AcDbSymbolTableRecord
100
AcDbLinetypeTableRecord
70
0
2
ByBlock
3

72
65
73
0
40
0
0
LTYPE
5
15
100
AcDbSymbolTableRecord
100
AcDbLinetypeTableRecord
70
0
2
ByLayer
3

72
65
73
0
40
0
0
LTYPE
5
16
100
AcDbSymbolTableRecord
100
AcDbLinetypeTableRecord
70
0
2
Continuous
3
Solid line
72
65
73
0
40
0
0
LTYPE
5
6E
100
AcDbSymbolTableRecord
100
AcDbLinetypeTableRecord
70
0
2
CENTER
3
____ _ ____ _ ____ _ ____
72
65
73
4
40
47.5
49
22
74
0
49
-8.5
74
0
49
8.5
74
0
49
-8.5
74
0
0
LTYPE
5
6F
100
AcDbSymbolTableRecord
100
AcDbLinetypeTableRecord
70
0
2
DASHED
3
__ __ __ __ __ __ __ __ __
72
65
73
2
40
25.72
49
12.86
74
0
49
-12.86
74
0
0
ENDTAB
0
TABLE
2
LAYER
5
21f
100
AcDbSymbolTable
0
LAYER
5
10
100
AcDbSymbolTableRecord
100
AcDbLayerTableRecord
2
0
70
0
62
7
6
Continuous
290
1
370
-3
390
0
0
LAYER
5
71
100
AcDbSymbolTableRecord
100
AcDbLayerTableRecord
2
80
70
0
62
-6
6
Continuous
290
1
370
-3
390
0
0
LAYER
5
73
100
AcDbSymbolTableRecord
100
AcDbLayerTableRecord
2
81
70
0
62
-3
6
Continuous
290
1
370
-3
390
0
0
LAYER
5
75
100
AcDbSymbolTableRecord
100
AcDbLayerTableRecord
2
1
70
0
62
4
6
Continuous
290
1
370
-3
390
0
0
LAYER
5
87
100
AcDbSymbolTableRecord
100
AcDbLayerTableRecord
2
4
70
0
62
-2
6
CENTER
290
1
370
-3
390
0
0
LAYER
5
A2
100
AcDbSymbolTableRecord
100
AcDbLayerTableRecord
2
2
70
0
62
7
6
Continuous
290
1
370
-3
390
0
0
LAYER
5
132
100
AcDbSymbolTableRecord
100
AcDbLayerTableRecord
2
Defpoints
70
0
62
7
6
Continuous
290
0
370
-3
390
0
0
LAYER
5
209
100
AcDbSymbolTableRecord
100
AcDbLayerTableRecord
2
SK4
70
0
62
2
6
CENTER
290
1
370
-3
390
0
0
LAYER
5
20a
100
AcDbSymbolTableRecord
100
AcDbLayerTableRecord
2
SK1
70
0
62
4
6
Continuous
290
1
370
-3
390
0
0
LAYER
5
20b
100
AcDbSymbolTableRecord
100
AcDbLayerTableRecord
2
SK2
70
0
62
7
6
Continuous
290
1
370
-3
390
0
0
LAYER
5
20c
100
AcDbSymbolTableRecord
100
AcDbLayerTableRecord
2
SK6
70
0
62
5
6
Continuous
290
1
370
-3
390
0
0
ENDTAB
0
TABLE
2
STYLE
5
220
100
AcDbSymbolTable
0
STYLE
5
11
100
AcDbSymbolTableRecord
100
AcDbTextStyleTableRecord
2
Standard
3
txt
70
0
71
0
40
0
41
1
42
0
50
0
0
STYLE
5
10E
100
AcDbSymbolTableRecord
100
AcDbTextStyleTableRecord
2
iso_b_vert
3
simplex.shx
70
0
71
0
40
0
41
1
42
0
50
0
0
STYLE
5
10F
100
AcDbSymbolTableRecord
100
AcDbTextStyleTableRecord
2
DWGDirectTextStyle
3
simplex
70
0
71
0
40
0
41
1
42
0
50
0
0
ENDTAB
0
TABLE
2
DIMSTYLE
5
221
100
AcDbSymbolTable
100
AcDbDimStyleTable
0
DIMSTYLE
105
27
100
AcDbSymbolTableRecord
100
AcDbDimStyleTableRecord
2
Standard
70
0
3
<>
41
0.18
42
0.0625
44
0.18
140
0.18
147
0.09
73
0
74
0
77
1
271
2
275
0
278
52
280
0
340
11
0
ENDTAB
0
TABLE
2
VIEW
5
222
100
AcDbSymbolTable
0
ENDTAB
0
TABLE
2
UCS
5
223
100
AcDbSymbolTable
0
ENDTAB
0
TABLE
2
APPID
5
224
100
AcDbSymbolTable
0
APPID
5
12
100
AcDbSymbolTableRecord
100
AcDbRegAppTableRecord
2
ACAD
70
0
0
APPID
5
12E
100
AcDbSymbolTableRecord
100
AcDbRegAppTableRecord
2
ACAD_DSTYLE_DIMBREAK
70
0
0
APPID
5
1C8
100
AcDbSymbolTableRecord
100
AcDbRegAppTableRecord
2
ACAD_DSTYLE_DIM_LINETYPE
70
0
0
APPID
5
1C9
100
AcDbSymbolTableRecord
100
AcDbRegAppTableRecord
2
ACAD_DSTYLE_DIM_EXT1_LINETYPE
70
0
0
APPID
5
1CA
100
AcDbSymbolTableRecord
100
AcDbRegAppTableRecord
2
ACAD_DSTYLE_DIM_EXT2_LINETYPE
70
0
0
APPID
5
205
100
AcDbSymbolTableRecord
100
AcDbRegAppTableRecord
2
ACAD_MLEADERVER
70
0
0
ENDTAB
0
TABLE
2
BLOCK_RECORD
5
225
100
AcDbSymbolTable
0
BLOCK_RECORD
5
1F
100
AcDbSymbolTableRecord
100
AcDbBlockTableRecord
2
*Model_Space
340
0
70
0
0
BLOCK_RECORD
5
1B
100
AcDbSymbolTableRecord
100
AcDbBlockTableRecord
2
*Paper_Space
340
0
70
0
0
BLOCK_RECORD
5
23
100
AcDbSymbolTableRecord
100
AcDbBlockTableRecord
2
*Paper_Space0
340
0
70
0
0
BLOCK_RECORD
5
133
100
AcDbSymbolTableRecord
100
AcDbBlockTableRecord
2
*D1
340
0
70
0
0
BLOCK_RECORD
5
13F
100
AcDbSymbolTableRecord
100
AcDbBlockTableRecord
2
_U0
340
0
70
0
0
BLOCK_RECORD
5
14B
100
AcDbSymbolTableRecord
100
AcDbBlockTableRecord
2
*D3
340
0
70
0
0
BLOCK_RECORD
5
157
100
AcDbSymbolTableRecord
100
AcDbBlockTableRecord
2
_U1
340
0
70
0
0
BLOCK_RECORD
5
163
100
AcDbSymbolTableRecord
100
AcDbBlockTableRecord
2
*D5
340
0
70
0
0
BLOCK_RECORD
5
16F
100
AcDbSymbolTableRecord
100
AcDbBlockTableRecord
2
_U2
340
0
70
0
0
BLOCK_RECORD
5
17D
100
AcDbSymbolTableRecord
100
AcDbBlockTableRecord
2
*D7
340
0
70
0
0
BLOCK_RECORD
5
189
100
AcDbSymbolTableRecord
100
AcDbBlockTableRecord
2
_U3
340
0
70
0
0
BLOCK_RECORD
5
195
100
AcDbSymbolTableRecord
100
AcDbBlockTableRecord
2
*D9
340
0
70
0
0
BLOCK_RECORD
5
1A1
100
AcDbSymbolTableRecord
100
AcDbBlockTableRecord
2
_U4
340
0
70
0
0
ENDTAB
0
ENDSEC
0
SECTION
2
BLOCKS
0
BLOCK
5
20
100
AcDbEntity
8
0
100
AcDbBlockBegin
2
*Model_Space
70
0
10
0
20
0
30
0
3
*Model_Space
0
ENDBLK
5
21
100
AcDbEntity
8
0
100
AcDbBlockEnd
0
BLOCK
5
1C
100
AcDbEntity
8
0
100
AcDbBlockBegin
2
*Paper_Space
70
0
10
0
20
0
30
0
3
*Paper_Space
0
ENDBLK
5
1D
100
AcDbEntity
8
0
100
AcDbBlockEnd
0
BLOCK
5
24
100
AcDbEntity
8
0
100
AcDbBlockBegin
2
*Paper_Space0
70
0
10
0
20
0
30
0
3
*Paper_Space0
0
ENDBLK
5
25
100
AcDbEntity
8
0
100
AcDbBlockEnd
0
BLOCK
5
134
100
AcDbEntity
8
0
100
AcDbBlockBegin
2
*D1
70
1
10
0
20
0
30
0
3
*D1
0
LINE
5
136
100
AcDbEntity
8
0
62
256
6
ByLayer
370
-2
48
1
60
0
100
AcDbLine
10
-45
20
-7.5875
30
0
11
-45
21
-86.053452
31
0
39
0
210
0
220
0
230
1
0
LINE
5
137
100
AcDbEntity
8
0
62
256
6
ByLayer
370
-2
48
1
60
0
100
AcDbLine
10
73
20
-6.7875
30
0
11
73
21
-86.053452
31
0
39
0
210
0
220
0
230
1
0
LINE
5
138
100
AcDbEntity
8
0
62
256
6
ByLayer
370
-2
48
1
60
0
100
AcDbLine
10
-41.5
20
-84.053452
30
0
11
69.5
21
-84.053452
31
0
39
0
210
0
220
0
230
1
0
SOLID
5
139
100
AcDbEntity
8
0
62
256
6
ByLayer
370
-1
48
1
60
0
100
AcDbTrace
10
-41.5
20
-83.470119
30
0
11
-41.5
21
-84.636786
31
0
12
-45
22
-84.053452
32
0
13
-45
23
-84.053452
33
0
39
0
210
0
220
0
230
1
0
SOLID
5
13A
100
AcDbEntity
8
0
62
256
6
ByLayer
370
-1
48
1
60
0
100
AcDbTrace
10
69.5
20
-84.636786
30
0
11
69.5
21
-83.470119
31
0
12
73
22
-84.053452
32
0
13
73
23
-84.053452
33
0
39
0
210
0
220
0
230
1
0
MTEXT
5
13B
100
AcDbEntity
8
0
62
256
6
ByLayer
370
18
48
1
60
0
100
AcDbMText
10
14
20
-77.053452
30
0
210
0
220
0
230
1
1
\A1;118
40
3.5
41
0
44
1
50
0
71
5
72
5
7
iso_b_vert
0
POINT
5
13C
100
AcDbEntity
8
Defpoints
62
0
6
ByLayer
370
-1
48
1
60
0
100
AcDbPoint
10
-45
20
-6
30
0
39
0
210
0
220
0
230
1
50
360
0
POINT
5
13D
100
AcDbEntity
8
Defpoints
62
0
6
ByLayer
370
-1
48
1
60
0
100
AcDbPoint
10
73
20
-5.2
30
0
39
0
210
0
220
0
230
1
50
360
0
POINT
5
13E
100
AcDbEntity
8
Defpoints
62
0
6
ByLayer
370
-1
48
1
60
0
100
AcDbPoint
10
73
20
-84.053452
30
0
39
0
210
0
220
0
230
1
50
360
0
ENDBLK
5
135
100
AcDbEntity
8
0
100
AcDbBlockEnd
0
BLOCK
5
146
100
AcDbEntity
8
0
100
AcDbBlockBegin
2
_U0
70
0
10
0
20
0
30
0
3
_U0
0
MTEXT
5
140
100
AcDbEntity
8
2
62
256
6
ByLayer
370
18
48
1
60
0
100
AcDbMText
10
11.662167
20
-83.020819
30
0
210
0
220
0
230
1
1
\W0.5296;118
40
3.5
41
0
44
1.084337
50
0
71
7
72
5
7
iso_b_vert
0
LINE
5
141
100
AcDbEntity
8
2
62
256
6
ByLayer
370
13
48
1
60
0
100
AcDbLine
10
-45
20
-7.5875
30
0
11
-45
21
-86.053452
31
0
39
0
210
0
220
0
230
1
0
LINE
5
142
100
AcDbEntity
8
2
62
256
6
ByLayer
370
13
48
1
60
0
100
AcDbLine
10
73
20
-6.7875
30
0
11
73
21
-86.053452
31
0
39
0
210
0
220
0
230
1
0
LINE
5
143
100
AcDbEntity
8
2
62
256
6
ByLayer
370
13
48
1
60
0
100
AcDbLine
10
-45
20
-84.053452
30
0
11
73
21
-84.053452
31
0
39
0
210
0
220
0
230
1
0
SOLID
5
144
100
AcDbEntity
8
2
62
256
6
ByLayer
370
18
48
1
60
0
100
AcDbTrace
10
-45
20
-84.053452
30
0
11
-41.500002
21
-83.592669
31
0
12
-41.499998
22
-84.514236
32
0
13
-41.499998
23
-84.514236
33
0
39
0
210
0
220
0
230
1
0
SOLID
5
145
100
AcDbEntity
8
2
62
256
6
ByLayer
370
18
48
1
60
0
100
AcDbTrace
10
73
20
-84.053452
30
0
11
69.500002
21
-84.514236
31
0
12
69.499998
22
-83.592669
32
0
13
69.499998
23
-83.592669
33
0
39
0
210
0
220
0
230
1
0
ENDBLK
5
147
100
AcDbEntity
8
0
100
AcDbBlockEnd
0
BLOCK
5
14C
100
AcDbEntity
8
0
100
AcDbBlockBegin
2
*D3
70
1
10
0
20
0
30
0
3
*D3
0
LINE
5
14E
100
AcDbEntity
8
0
62
256
6
ByLayer
370
-2
48
1
60
0
100
AcDbLine
10
73
20
-6.7875
30
0
11
73
21
-66.053452
31
0
39
0
210
0
220
0
230
1
0
LINE
5
14F
100
AcDbEntity
8
0
62
256
6
ByLayer
370
-2
48
1
60
0
100
AcDbLine
10
2
20
-6.7875
30
0
11
2
21
-66.053452
31
0
39
0
210
0
220
0
230
1
0
LINE
5
150
100
AcDbEntity
8
0
62
256
6
ByLayer
370
-2
48
1
60
0
100
AcDbLine
10
69.5
20
-64.053452
30
0
11
5.5
21
-64.053452
31
0
39
0
210
0
220
0
230
1
0
SOLID
5
151
100
AcDbEntity
8
0
62
256
6
ByLayer
370
-1
48
1
60
0
100
AcDbTrace
10
69.5
20
-64.636786
30
0
11
69.5
21
-63.470119
31
0
12
73
22
-64.053452
32
0
13
73
23
-64.053452
33
0
39
0
210
0
220
0
230
1
0
SOLID
5
152
100
AcDbEntity
8
0
62
256
6
ByLayer
370
-1
48
1
60
0
100
AcDbTrace
10
5.5
20
-63.470119
30
0
11
5.5
21
-64.636786
31
0
12
2
22
-64.053452
32
0
13
2
23
-64.053452
33
0
39
0
210
0
220
0
230
1
0
MTEXT
5
153
100
AcDbEntity
8
0
62
256
6
ByLayer
370
18
48
1
60
0
100
AcDbMText
10
37.5
20
-57.053452
30
0
210
0
220
0
230
1
1
\A1;71
40
3.5
41
0
44
1
50
0
71
5
72
5
7
iso_b_vert
0
POINT
5
154
100
AcDbEntity
8
Defpoints
62
0
6
ByLayer
370
-1
48
1
60
0
100
AcDbPoint
10
73
20
-5.2
30
0
39
0
210
0
220
0
230
1
50
360
0
POINT
5
155
100
AcDbEntity
8
Defpoints
62
0
6
ByLayer
370
-1
48
1
60
0
100
AcDbPoint
10
2
20
-5.2
30
0
39
0
210
0
220
0
230
1
50
360
0
POINT
5
156
100
AcDbEntity
8
Defpoints
62
0
6
ByLayer
370
-1
48
1
60
0
100
AcDbPoint
10
2
20
-64.053452
30
0
39
0
210
0
220
0
230
1
50
360
0
ENDBLK
5
14D
100
AcDbEntity
8
0
100
AcDbBlockEnd
0
BLOCK
5
15E
100
AcDbEntity
8
0
100
AcDbBlockBegin
2
_U1
70
0
10
0
20
0
30
0
3
_U1
0
MTEXT
5
158
100
AcDbEntity
8
SK2
62
256
6
ByLayer
370
18
48
1
60
0
100
AcDbMText
10
36.032467
20
-63.020819
30
0
210
0
220
0
230
1
1
\W0.6351;71
40
3.5
41
0
44
1.084337
50
0
71
7
72
5
7
iso_b_vert
0
LINE
5
159
100
AcDbEntity
8
SK2
62
256
6
ByLayer
370
13
48
1
60
0
100
AcDbLine
10
73
20
-6.7875
30
0
11
73
21
-66.053452
31
0
39
0
210
0
220
0
230
1
0
LINE
5
15A
100
AcDbEntity
8
SK2
62
256
6
ByLayer
370
13
48
1
60
0
100
AcDbLine
10
2
20
-6.7875
30
0
11
2
21
-66.053452
31
0
39
0
210
0
220
0
230
1
0
LINE
5
15B
100
AcDbEntity
8
SK2
62
256
6
ByLayer
370
13
48
1
60
0
100
AcDbLine
10
73
20
-64.053452
30
0
11
2
21
-64.053452
31
0
39
0
210
0
220
0
230
1
0
SOLID
5
15C
100
AcDbEntity
8
SK2
62
256
6
ByLayer
370
18
48
1
60
0
100
AcDbTrace
10
73
20
-64.053452
30
0
11
69.500002
21
-64.514236
31
0
12
69.499998
22
-63.592669
32
0
13
69.499998
23
-63.592669
33
0
39
0
210
0
220
0
230
1
0
SOLID
5
15D
100
AcDbEntity
8
SK2
62
256
6
ByLayer
370
18
48
1
60
0
100
AcDbTrace
10
2
20
-64.053452
30
0
11
5.499998
21
-63.592669
31
0
12
5.500002
22
-64.514236
32
0
13
5.500002
23
-64.514236
33
0
39
0
210
0
220
0
230
1
0
ENDBLK
5
15F
100
AcDbEntity
8
0
100
AcDbBlockEnd
0
BLOCK
5
164
100
AcDbEntity
8
0
100
AcDbBlockBegin
2
*D5
70
1
10
0
20
0
30
0
3
*D5
0
LINE
5
166
100
AcDbEntity
8
0
62
256
6
ByLayer
370
-2
48
1
60
0
100
AcDbLine
10
73
20
-6.7875
30
0
11
73
21
-56.053452
31
0
39
0
210
0
220
0
230
1
0
LINE
5
167
100
AcDbEntity
8
0
62
256
6
ByLayer
370
-2
48
1
60
0
100
AcDbLine
10
17
20
-6.7875
30
0
11
17
21
-56.053452
31
0
39
0
210
0
220
0
230
1
0
LINE
5
168
100
AcDbEntity
8
0
62
256
6
ByLayer
370
-2
48
1
60
0
100
AcDbLine
10
69.5
20
-54.053452
30
0
11
20.5
21
-54.053452
31
0
39
0
210
0
220
0
230
1
0
SOLID
5
169
100
AcDbEntity
8
0
62
256
6
ByLayer
370
-1
48
1
60
0
100
AcDbTrace
10
69.5
20
-54.636786
30
0
11
69.5
21
-53.470119
31
0
12
73
22
-54.053452
32
0
13
73
23
-54.053452
33
0
39
0
210
0
220
0
230
1
0
SOLID
5
16A
100
AcDbEntity
8
0
62
256
6
ByLayer
370
-1
48
1
60
0
100
AcDbTrace
10
20.5
20
-53.470119
30
0
11
20.5
21
-54.636786
31
0
12
17
22
-54.053452
32
0
13
17
23
-54.053452
33
0
39
0
210
0
220
0
230
1
0
MTEXT
5
16B
100
AcDbEntity
8
0
62
256
6
ByLayer
370
18
48
1
60
0
100
AcDbMText
10
45
20
-47.053452
30
0
210
0
220
0
230
1
1
\A1;56
40
3.5
41
0
44
1
50
0
71
5
72
5
7
iso_b_vert
0
POINT
5
16C
100
AcDbEntity
8
Defpoints
62
0
6
ByLayer
370
-1
48
1
60
0
100
AcDbPoint
10
73
20
-5.2
30
0
39
0
210
0
220
0
230
1
50
360
0
POINT
5
16D
100
AcDbEntity
8
Defpoints
62
0
6
ByLayer
370
-1
48
1
60
0
100
AcDbPoint
10
17
20
-5.2
30
0
39
0
210
0
220
0
230
1
50
360
0
POINT
5
16E
100
AcDbEntity
8
Defpoints
62
0
6
ByLayer
370
-1
48
1
60
0
100
AcDbPoint
10
17
20
-54.053452
30
0
39
0
210
0
220
0
230
1
50
360
0
ENDBLK
5
165
100
AcDbEntity
8
0
100
AcDbBlockEnd
0
BLOCK
5
178
100
AcDbEntity
8
0
100
AcDbBlockBegin
2
_U2
70
0
10
0
20
0
30
0
3
_U2
0
MTEXT
5
170
100
AcDbEntity
8
SK2
62
256
6
ByLayer
370
18
48
1
60
0
100
AcDbMText
10
43.095034
20
-53.020819
30
0
210
0
220
0
230
1
1
\W0.6740;56
40
3.5
41
0
44
1.084337
50
0
71
7
72
5
7
iso_b_vert
0
MTEXT
5
171
100
AcDbEntity
8
SK2
62
256
6
ByLayer
370
18
48
1
60
0
100
AcDbMText
10
39.227034
20
-53.020819
30
0
210
0
220
0
230
1
1
\W0.1790;(
40
3.5
41
0
44
1.084337
50
0
71
7
72
5
7
iso_b_vert
0
MTEXT
5
172
100
AcDbEntity
8
SK2
62
256
6
ByLayer
370
18
48
1
60
0
100
AcDbMText
10
50.775966
20
-53.020819
30
0
210
0
220
0
230
1
1
\W0.1969;)
40
3.5
41
0
44
1.084337
50
0
71
7
72
5
7
iso_b_vert
0
LINE
5
173
100
AcDbEntity
8
SK2
62
256
6
ByLayer
370
13
48
1
60
0
100
AcDbLine
10
73
20
-6.7875
30
0
11
73
21
-56.053452
31
0
39
0
210
0
220
0
230
1
0
LINE
5
174
100
AcDbEntity
8
SK2
62
256
6
ByLayer
370
13
48
1
60
0
100
AcDbLine
10
17
20
-6.7875
30
0
11
17
21
-56.053452
31
0
39
0
210
0
220
0
230
1
0
LINE
5
175
100
AcDbEntity
8
SK2
62
256
6
ByLayer
370
13
48
1
60
0
100
AcDbLine
10
73
20
-54.053452
30
0
11
17
21
-54.053452
31
0
39
0
210
0
220
0
230
1
0
SOLID
5
176
100
AcDbEntity
8
SK2
62
256
6
ByLayer
370
18
48
1
60
0
100
AcDbTrace
10
73
20
-54.053452
30
0
11
69.500002
21
-54.514236
31
0
12
69.499998
22
-53.592669
32
0
13
69.499998
23
-53.592669
33
0
39
0
210
0
220
0
230
1
0
SOLID
5
177
100
AcDbEntity
8
SK2
62
256
6
ByLayer
370
18
48
1
60
0
100
AcDbTrace
10
17
20
-54.053452
30
0
11
20.499998
21
-53.592669
31
0
12
20.500002
22
-54.514236
32
0
13
20.500002
23
-54.514236
33
0
39
0
210
0
220
0
230
1
0
ENDBLK
5
179
100
AcDbEntity
8
0
100
AcDbBlockEnd
0
BLOCK
5
17E
100
AcDbEntity
8
0
100
AcDbBlockBegin
2
*D7
70
1
10
0
20
0
30
0
3
*D7
0
LINE
5
180
100
AcDbEntity
8
0
62
256
6
ByLayer
370
-2
48
1
60
0
100
AcDbLine
10
-45
20
-7.5875
30
0
11
-45
21
-66.053452
31
0
39
0
210
0
220
0
230
1
0
LINE
5
181
100
AcDbEntity
8
0
62
256
6
ByLayer
370
-2
48
1
60
0
100
AcDbLine
10
0
20
-7.5875
30
0
11
0
21
-66.053452
31
0
39
0
210
0
220
0
230
1
0
LINE
5
182
100
AcDbEntity
8
0
62
256
6
ByLayer
370
-2
48
1
60
0
100
AcDbLine
10
-41.5
20
-64.053452
30
0
11
-3.5
21
-64.053452
31
0
39
0
210
0
220
0
230
1
0
SOLID
5
183
100
AcDbEntity
8
0
62
256
6
ByLayer
370
-1
48
1
60
0
100
AcDbTrace
10
-41.5
20
-63.470119
30
0
11
-41.5
21
-64.636786
31
0
12
-45
22
-64.053452
32
0
13
-45
23
-64.053452
33
0
39
0
210
0
220
0
230
1
0
SOLID
5
184
100
AcDbEntity
8
0
62
256
6
ByLayer
370
-1
48
1
60
0
100
AcDbTrace
10
-3.5
20
-64.636786
30
0
11
-3.5
21
-63.470119
31
0
12
0
22
-64.053452
32
0
13
0
23
-64.053452
33
0
39
0
210
0
220
0
230
1
0
MTEXT
5
185
100
AcDbEntity
8
0
62
256
6
ByLayer
370
18
48
1
60
0
100
AcDbMText
10
-22.5
20
-57.053452
30
0
210
0
220
0
230
1
1
\A1;45
40
3.5
41
0
44
1
50
0
71
5
72
5
7
iso_b_vert
0
POINT
5
186
100
AcDbEntity
8
Defpoints
62
0
6
ByLayer
370
-1
48
1
60
0
100
AcDbPoint
10
-45
20
-6
30
0
39
0
210
0
220
0
230
1
50
360
0
POINT
5
187
100
AcDbEntity
8
Defpoints
62
0
6
ByLayer
370
-1
48
1
60
0
100
AcDbPoint
10
0
20
-6
30
0
39
0
210
0
220
0
230
1
50
360
0
POINT
5
188
100
AcDbEntity
8
Defpoints
62
0
6
ByLayer
370
-1
48
1
60
0
100
AcDbPoint
10
0
20
-64.053452
30
0
39
0
210
0
220
0
230
1
50
360
0
ENDBLK
5
17F
100
AcDbEntity
8
0
100
AcDbBlockEnd
0
BLOCK
5
190
100
AcDbEntity
8
0
100
AcDbBlockBegin
2
_U3
70
0
10
0
20
0
30
0
3
_U3
0
MTEXT
5
18A
100
AcDbEntity
8
SK2
62
256
6
ByLayer
370
18
48
1
60
0
100
AcDbMText
10
-24.589233
20
-63.020819
30
0
210
0
220
0
230
1
1
\W0.7361;45
40
3.5
41
0
44
1.084337
50
0
71
7
72
5
7
iso_b_vert
0
LINE
5
18B
100
AcDbEntity
8
SK2
62
256
6
ByLayer
370
13
48
1
60
0
100
AcDbLine
10
-45
20
-7.5875
30
0
11
-45
21
-66.053452
31
0
39
0
210
0
220
0
230
1
0
LINE
5
18C
100
AcDbEntity
8
SK2
62
256
6
ByLayer
370
13
48
1
60
0
100
AcDbLine
10
0
20
-7.5875
30
0
11
0
21
-66.053452
31
0
39
0
210
0
220
0
230
1
0
LINE
5
18D
100
AcDbEntity
8
SK2
62
256
6
ByLayer
370
13
48
1
60
0
100
AcDbLine
10
-45
20
-64.053452
30
0
11
0
21
-64.053452
31
0
39
0
210
0
220
0
230
1
0
SOLID
5
18E
100
AcDbEntity
8
SK2
62
256
6
ByLayer
370
18
48
1
60
0
100
AcDbTrace
10
-45
20
-64.053452
30
0
11
-41.500002
21
-63.592669
31
0
12
-41.499998
22
-64.514236
32
0
13
-41.499998
23
-64.514236
33
0
39
0
210
0
220
0
230
1
0
SOLID
5
18F
100
AcDbEntity
8
SK2
62
256
6
ByLayer
370
18
48
1
60
0
100
AcDbTrace
10
0
20
-64.053452
30
0
11
-3.499998
21
-64.514236
31
0
12
-3.500002
22
-63.592669
32
0
13
-3.500002
23
-63.592669
33
0
39
0
210
0
220
0
230
1
0
ENDBLK
5
191
100
AcDbEntity
8
0
100
AcDbBlockEnd
0
BLOCK
5
196
100
AcDbEntity
8
0
100
AcDbBlockBegin
2
*D9
70
1
10
0
20
0
30
0
3
*D9
0
LINE
5
198
100
AcDbEntity
8
0
62
256
6
ByLayer
370
-2
48
1
60
0
100
AcDbLine
10
0
20
-7.5875
30
0
11
0
21
-76.053452
31
0
39
0
210
0
220
0
230
1
0
LINE
5
199
100
AcDbEntity
8
0
62
256
6
ByLayer
370
-2
48
1
60
0
100
AcDbLine
10
73
20
-6.7875
30
0
11
73
21
-76.053452
31
0
39
0
210
0
220
0
230
1
0
LINE
5
19A
100
AcDbEntity
8
0
62
256
6
ByLayer
370
-2
48
1
60
0
100
AcDbLine
10
3.5
20
-74.053452
30
0
11
69.5
21
-74.053452
31
0
39
0
210
0
220
0
230
1
0
SOLID
5
19B
100
AcDbEntity
8
0
62
256
6
ByLayer
370
-1
48
1
60
0
100
AcDbTrace
10
3.5
20
-73.470119
30
0
11
3.5
21
-74.636786
31
0
12
0
22
-74.053452
32
0
13
0
23
-74.053452
33
0
39
0
210
0
220
0
230
1
0
SOLID
5
19C
100
AcDbEntity
8
0
62
256
6
ByLayer
370
-1
48
1
60
0
100
AcDbTrace
10
69.5
20
-74.636786
30
0
11
69.5
21
-73.470119
31
0
12
73
22
-74.053452
32
0
13
73
23
-74.053452
33
0
39
0
210
0
220
0
230
1
0
MTEXT
5
19D
100
AcDbEntity
8
0
62
256
6
ByLayer
370
18
48
1
60
0
100
AcDbMText
10
36.5
20
-67.053452
30
0
210
0
220
0
230
1
1
\A1;73
40
3.5
41
0
44
1
50
0
71
5
72
5
7
iso_b_vert
0
POINT
5
19E
100
AcDbEntity
8
Defpoints
62
0
6
ByLayer
370
-1
48
1
60
0
100
AcDbPoint
10
0
20
-6
30
0
39
0
210
0
220
0
230
1
50
360
0
POINT
5
19F
100
AcDbEntity
8
Defpoints
62
0
6
ByLayer
370
-1
48
1
60
0
100
AcDbPoint
10
73
20
-5.2
30
0
39
0
210
0
220
0
230
1
50
360
0
POINT
5
1A0
100
AcDbEntity
8
Defpoints
62
0
6
ByLayer
370
-1
48
1
60
0
100
AcDbPoint
10
73
20
-74.053452
30
0
39
0
210
0
220
0
230
1
50
360
0
ENDBLK
5
197
100
AcDbEntity
8
0
100
AcDbBlockEnd
0
BLOCK
5
1A8
100
AcDbEntity
8
0
100
AcDbBlockBegin
2
_U4
70
0
10
0
20
0
30
0
3
_U4
0
MTEXT
5
1A2
100
AcDbEntity
8
SK2
62
256
6
ByLayer
370
18
48
1
60
0
100
AcDbMText
10
34.595034
20
-73.020819
30
0
210
0
220
0
230
1
1
\W0.6740;73
40
3.5
41
0
44
1.084337
50
0
71
7
72
5
7
iso_b_vert
0
LINE
5
1A3
100
AcDbEntity
8
SK2
62
256
6
ByLayer
370
13
48
1
60
0
100
AcDbLine
10
0
20
-7.5875
30
0
11
0
21
-76.053452
31
0
39
0
210
0
220
0
230
1
0
LINE
5
1A4
100
AcDbEntity
8
SK2
62
256
6
ByLayer
370
13
48
1
60
0
100
AcDbLine
10
73
20
-6.7875
30
0
11
73
21
-76.053452
31
0
39
0
210
0
220
0
230
1
0
LINE
5
1A5
100
AcDbEntity
8
SK2
62
256
6
ByLayer
370
13
48
1
60
0
100
AcDbLine
10
0
20
-74.053452
30
0
11
73
21
-74.053452
31
0
39
0
210
0
220
0
230
1
0
SOLID
5
1A6
100
AcDbEntity
8
SK2
62
256
6
ByLayer
370
18
48
1
60
0
100
AcDbTrace
10
0
20
-74.053452
30
0
11
3.499998
21
-73.592669
31
0
12
3.500002
22
-74.514236
32
0
13
3.500002
23
-74.514236
33
0
39
0
210
0
220
0
230
1
0
SOLID
5
1A7
100
AcDbEntity
8
SK2
62
256
6
ByLayer
370
18
48
1
60
0
100
AcDbTrace
10
73
20
-74.053452
30
0
11
69.500002
21
-74.514236
31
0
12
69.499998
22
-73.592669
32
0
13
69.499998
23
-73.592669
33
0
39
0
210
0
220
0
230
1
0
ENDBLK
5
1A9
100
AcDbEntity
8
0
100
AcDbBlockEnd
0
ENDSEC
0
SECTION
2
ENTITIES
0
ARC
5
BD
100
AcDbEntity
8
1
62
256
6
ByLayer
370
18
48
1
60
0
100
AcDbCircle
39
0
10
1.40993
20
5.956438
30
0
40
0.80000000000001
210
0
220
0
230
1
100
AcDbArc
50
208.572
51
270.03581
0
ARC
5
BE
100
AcDbEntity
8
1
62
256
6
ByLayer
370
18
48
1
60
0
100
AcDbCircle
39
0
10
1.40993
20
-5.956438
30
0
40
0.80000000000001
210
0
220
0
230
1
100
AcDbArc
50
89.96419
51
151.428
0
ARC
5
BF
100
AcDbEntity
8
1
62
256
6
ByLayer
370
18
48
1
60
0
100
AcDbCircle
39
0
10
0
20
5.2
30
0
40
0.799999999999987
210
0
220
0
230
1
100
AcDbArc
50
28.572
51
90
0
ARC
5
C0
100
AcDbEntity
8
1
62
256
6
ByLayer
370
18
48
1
60
0
100
AcDbCircle
39
0
10
0
20
-5.2
30
0
40
0.799999999999987
210
0
220
0
230
1
100
AcDbArc
50
270
51
331.428
0
ARC
5
C1
100
AcDbEntity
8
SK2
62
256
6
ByLayer
370
13
48
1
60
0
100
AcDbCircle
39
0
10
73
20
0
30
0
40
33.672576451143
210
0
220
0
230
1
100
AcDbArc
50
5.53868
51
69.996548
0
ARC
5
C2
100
AcDbEntity
8
SK2
62
256
6
ByLayer
370
13
48
1
60
0
100
AcDbCircle
39
0
10
73
20
0
30
0
40
33.672576451143
210
0
220
0
230
1
100
AcDbArc
50
290.003452
51
354.46132
0
ELLIPSE
5
C3
100
AcDbEntity
8
1
62
256
6
ByLayer
370
13
48
1
60
0
100
AcDbEllipse
10
3.684821
20
-4.686657
30
0
11
0.027234033271465
21
-0.0962200988971054
31
0
210
0
220
0
230
1
40
0.50877
41
-2.76149111320839
42
-1.39546706573741
0
ELLIPSE
5
C4
100
AcDbEntity
8
1
62
256
6
ByLayer
370
13
48
1
60
0
100
AcDbEllipse
10
3.750195
20
-4.683692
30
0
11
-0.0166645887585969
21
-0.098601680926376
31
0
210
0
220
0
230
1
40
0.405867
41
-2.75001806485337
42
-1.19494202625966
0
POINT
5
70
100
AcDbEntity
8
80
62
256
6
ByLayer
370
18
48
1
60
0
100
AcDbPoint
10
0
20
0
30
0
39
0
210
0
220
0
230
1
50
360
0
POINT
5
72
100
AcDbEntity
8
81
62
256
6
ByLayer
370
18
48
1
60
0
100
AcDbPoint
10
73
20
0
30
0
39
0
210
0
220
0
230
1
50
360
0
POINT
5
74
100
AcDbEntity
8
1
62
256
6
ByLayer
370
18
48
1
60
0
100
AcDbPoint
10
-203.838712
20
-207.363074
30
0
39
0
210
0
220
0
230
1
50
360
0
POINT
5
76
100
AcDbEntity
8
1
62
256
6
ByLayer
370
13
48
1
60
1
100
AcDbPoint
10
-46.5
20
0
30
0
39
0
210
0
220
0
230
1
50
360
0
POINT
5
77
100
AcDbEntity
8
1
62
256
6
ByLayer
370
13
48
1
60
1
100
AcDbPoint
10
72.665795
20
0
30
0
39
0
210
0
220
0
230
1
50
360
0
POINT
5
78
100
AcDbEntity
8
1
62
256
6
ByLayer
370
18
48
1
60
1
100
AcDbPoint
10
-45
20
-6
30
0
39
0
210
0
220
0
230
1
50
360
0
POINT
5
79
100
AcDbEntity
8
1
62
256
6
ByLayer
370
18
48
1
60
1
100
AcDbPoint
10
73
20
-5.2
30
0
39
0
210
0
220
0
230
1
50
360
0
POINT
5
7A
100
AcDbEntity
8
1
62
256
6
ByLayer
370
18
48
1
60
1
100
AcDbPoint
10
73
20
-5.2
30
0
39
0
210
0
220
0
230
1
50
360
0
POINT
5
7B
100
AcDbEntity
8
1
62
256
6
ByLayer
370
18
48
1
60
1
100
AcDbPoint
10
2
20
-5.2
30
0
39
0
210
0
220
0
230
1
50
360
0
POINT
5
7C
100
AcDbEntity
8
1
62
256
6
ByLayer
370
18
48
1
60
1
100
AcDbPoint
10
73
20
-5.2
30
0
39
0
210
0
220
0
230
1
50
360
0
POINT
5
7D
100
AcDbEntity
8
1
62
256
6
ByLayer
370
18
48
1
60
1
100
AcDbPoint
10
17
20
-5.2
30
0
39
0
210
0
220
0
230
1
50
360
0
POINT
5
7E
100
AcDbEntity
8
1
62
256
6
ByLayer
370
18
48
1
60
1
100
AcDbPoint
10
-45
20
-6
30
0
39
0
210
0
220
0
230
1
50
360
0
POINT
5
7F
100
AcDbEntity
8
1
62
256
6
ByLayer
370
18
48
1
60
1
100
AcDbPoint
10
0
20
-6
30
0
39
0
210
0
220
0
230
1
50
360
0
POINT
5
80
100
AcDbEntity
8
1
62
256
6
ByLayer
370
18
48
1
60
1
100
AcDbPoint
10
0
20
-6
30
0
39
0
210
0
220
0
230
1
50
360
0
POINT
5
81
100
AcDbEntity
8
1
62
256
6
ByLayer
370
18
48
1
60
1
100
AcDbPoint
10
73
20
-5.2
30
0
39
0
210
0
220
0
230
1
50
360
0
SPLINE
5
C5
100
AcDbEntity
8
1
62
256
6
ByLayer
370
18
48
1
60
0
100
AcDbSpline
70
4
71
3
72
54
73
50
40
0
40
0
40
0
40
0
40
0.0625000000000001
40
0.0625000000000001
40
0.0937500000000002
40
0.0937500000000002
40
0.125
40
0.125
40
0.1875
40
0.25
40
0.25
40
0.28125
40
0.28125
40
0.296875
40
0.296875
40
0.3125
40
0.3125
40
0.375
40
0.4375
40
0.4375
40
0.46875
40
0.484375
40
0.484375
40
0.5
40
0.5
40
0.515625
40
0.515625
40
0.53125
40
0.53125
40
0.5625
40
0.5625
40
0.625
40
0.6875
40
0.6875
40
0.71875
40
0.71875
40
0.734375
40
0.734375
40
0.75
40
0.75
40
0.8125
40
0.875
40
0.875
40
0.90625
40
0.921875
40
0.921875
40
0.9375
40
0.9375
40
1
40
1
40
1
40
1
41
1
10
3.50000000000003
20
-4.76429748991336
30
0
41
1
10
3.50000000000003
20
-4.69702846990523
30
0
41
1
10
3.50000000000003
20
-4.62149239998391
30
0
41
1
10
3.5
20
-4.49583612356778
30
0
41
1
10
3.50000000000003
20
-4.45181704177776
30
0
41
1
10
3.50000000000003
20
-4.36034024449765
30
0
41
1
10
3.5
20
-4.31281988018523
30
0
41
1
10
3.50000000000003
20
-4.16500842084017
30
0
41
1
10
3.5
20
-3.95395244980244
30
0
41
1
10
3.50000000000006
20
-3.71528654708186
30
0
41
1
10
3.50000000000006
20
-3.52573244958106
30
0
41
1
10
3.50000000000003
20
-3.46078519154318
30
0
41
1
10
3.50000000000006
20
-3.36066239547975
30
0
41
1
10
3.50000000000003
20
-3.3269165497112
30
0
41
1
10
3.50000000000003
20
-3.2588841735043
30
0
41
1
10
3.50000000000003
20
-3.22456750668823
30
0
41
1
10
3.50000000000003
20
-3.05149725999971
30
0
41
1
10
3.50000000000003
20
-2.76509240865732
30
0
41
1
10
3.5
20
-2.4601027922763
30
0
41
1
10
3.50000000000003
20
-2.22431981004365
30
0
41
1
10
3.50000000000003
20
-2.10466478551851
30
0
41
1
10
3.50000000000003
20
-1.98231900134377
30
0
41
1
10
3.50000000000003
20
-1.90014976005628
30
0
41
1
10
3.50000000000003
20
-1.85877251472559
30
0
41
1
10
3.50000000000003
20
-1.77568917551909
30
0
41
1
10
3.50000000000003
20
-1.73394902147928
30
0
41
1
10
3.50000000000003
20
-1.65007159264326
30
0
41
1
10
3.50000000000006
20
-1.60793431591475
30
0
41
1
10
3.50000000000003
20
-1.48135687228157
30
0
41
1
10
3.50000000000006
20
-1.3966089131342
30
0
41
1
10
3.50000000000006
20
-1.14129708133944
30
0
41
1
10
3.49999999999997
20
-0.798038919397214
30
0
41
1
10
3.50000000000006
20
-0.449180674621516
30
0
41
1
10
3.50000000000003
20
-0.185402234824266
30
0
41
1
10
3.50000000000003
20
-0.097119605890299
30
0
41
1
10
3.50000000000003
20
0.0358499911885417
30
0
41
1
10
3.50000000000003
20
0.080311556815758
30
0
41
1
10
3.50000000000003
20
0.168926772905792
30
0
41
1
10
3.50000000000006
20
0.213130881151557
30
0
41
1
10
3.50000000000003
20
0.43363963843683
30
0
41
1
10
3.50000000000011
20
0.783186481270064
30
0
41
1
10
3.50000000000003
20
1.12635504432285
30
0
41
1
10
3.5
20
1.38132183249837
30
0
41
1
10
3.50000000000003
20
1.50820168390854
30
0
41
1
10
3.50000000000006
20
1.63416200697154
30
0
41
1
10
3.50000000000003
20
1.71792883077424
30
0
41
1
10
3.50000000000003
20
1.75975563344329
30
0
41
1
10
3.5
20
1.9676438386488
30
0
41
1
10
3.49999999999997
20
2.13004860082293
30
0
41
1
10
3.49999999999997
20
2.28858368453203
30
0
0
SPLINE
5
C6
100
AcDbEntity
8
1
62
256
6
ByLayer
370
18
48
1
60
0
100
AcDbSpline
70
4
71
3
72
8
73
4
40
0
40
0
40
0
40
0
40
1
40
1
40
1
40
1
41
1
10
72.5160930513988
20
1.68167901480069
30
0
41
1
10
72.6804338471197
20
1.21848212634578
30
0
41
1
10
72.8401622118523
20
0.753627464693096
30
0
41
1
10
72.9952047368303
20
0.287088645689636
30
0
0
SPLINE
5
C7
100
AcDbEntity
8
1
62
256
6
ByLayer
370
13
48
1
60
0
100
AcDbSpline
70
4
71
3
72
22
73
18
40
0
40
0
40
0
40
0
40
0.249999999999929
40
0.249999999999929
40
0.312499999999934
40
0.312499999999934
40
0.374999999999938
40
0.499999999999951
40
0.624999999999964
40
0.624999999999964
40
0.749999999999977
40
0.749999999999977
40
0.87499999999999
40
0.87499999999999
40
0.937499999999995
40
0.937499999999995
40
1
40
1
40
1
40
1
41
1
10
3.64136783885149
20
-4.71708441920828
30
0
41
1
10
3.61857562431433
20
-4.71947006144228
30
0
41
1
10
3.59850330436083
20
-4.72246221240295
30
0
41
1
10
3.57633796855259
20
-4.7268294276673
30
0
41
1
10
3.57203918509836
20
-4.72773880367688
30
0
41
1
10
3.56385924525404
20
-4.72959367973297
30
0
41
1
10
3.55218632091041
20
-4.73243483524919
30
0
41
1
10
3.53553970588175
20
-4.73744212447551
30
0
41
1
10
3.52503822119084
20
-4.74171210848161
30
0
41
1
10
3.51594055709268
20
-4.74611015738148
30
0
41
1
10
3.51215499374104
20
-4.74834516567481
30
0
41
1
10
3.50609566466446
20
-4.75285387513438
30
0
41
1
10
3.50380959271902
20
-4.75513833920078
30
0
41
1
10
3.50152376475273
20
-4.75857445249284
30
0
41
1
10
3.5009519187503
20
-4.75972144659053
30
0
41
1
10
3.50018956173713
20
-4.76201498338381
30
0
41
1
10
3.50000000000003
20
-4.7631680115295
30
0
41
1
10
3.50000000000003
20
-4.76429748991336
30
0
0
SPLINE
5
C8
100
AcDbEntity
8
1
62
256
6
ByLayer
370
18
48
1
60
0
100
AcDbSpline
70
4
71
3
72
8
73
4
40
0
40
0
40
0
40
0
40
1
40
1
40
1
40
1
41
1
10
3.5
20
2.28858368453203
30
0
41
1
10
3.5
20
2.28601645489672
30
0
41
1
10
3.50000000000006
20
2.28345054748166
30
0
41
1
10
3.50000000000006
20
2.28088596261671
30
0
0
SPLINE
5
C9
100
AcDbEntity
8
1
62
256
6
ByLayer
370
18
48
1
60
0
100
AcDbSpline
70
4
71
3
72
24
73
20
40
0
40
0
40
0
40
0
40
0.500000000000026
40
0.500000000000026
40
0.750000000000039
40
0.750000000000039
40
0.875000000000065
40
0.875000000000065
40
0.9375000000001
40
0.9375000000001
40
0.968750000000095
40
0.968750000000095
40
0.984375000000071
40
0.984375000000071
40
0.992187500000038
40
0.992187500000038
40
0.996093750000019
40
0.996093750000019
40
1
40
1
40
1
40
1
41
1
10
71.1090232188541
20
5.19996245414447
30
0
41
1
10
71.1277769447606
20
5.15704628469896
30
0
41
1
10
71.1468871836743
20
5.1141373533693
30
0
41
1
10
71.1760823972778
20
5.04977217372081
30
0
41
1
10
71.1859011344752
20
5.02832121613889
30
0
41
1
10
71.2007625852878
20
4.99613521763811
30
0
41
1
10
71.2057457833499
20
4.98537592260902
30
0
41
1
10
71.2132457600075
20
4.96926698981827
30
0
41
1
10
71.2157475507479
20
4.96391202068534
30
0
41
1
10
71.2194911531544
20
4.95594956925061
30
0
41
1
10
71.220737285221
20
4.95330800810626
30
0
41
1
10
71.2226217537909
20
4.9492919305641
30
0
41
1
10
71.223253036477
20
4.94794174924235
30
0
41
1
10
71.2242088598794
20
4.94588131453429
30
0
41
1
10
71.2245294563675
20
4.94518645571159
30
0
41
1
10
71.2250109771225
20
4.94414183665458
30
0
41
1
10
71.2251721990642
20
4.94379267714089
30
0
41
1
10
71.2254750267187
20
4.94316717247395
30
0
41
1
10
71.2256208570147
20
4.94288570032961
30
0
41
1
10
71.2257035154741
20
4.94279374724164
30
0
0
SPLINE
5
CA
100
AcDbEntity
8
1
62
256
6
ByLayer
370
18
48
1
60
0
100
AcDbSpline
70
2053
71
3
72
128
73
124
40
0
40
0
40
0
40
0
40
0.0312500000000182
40
0.0312500000000182
40
0.0468750000000273
40
0.0468750000000273
40
0.0625000000000363
40
0.0625000000000363
40
0.0937500000000545
40
0.0937500000000545
40
0.109375000000064
40
0.109375000000064
40
0.117187500000067
40
0.117187500000067
40
0.12500000000007
40
0.12500000000007
40
0.156250000000084
40
0.156250000000084
40
0.171875000000092
40
0.171875000000092
40
0.179687500000096
40
0.179687500000096
40
0.1875000000001
40
0.1875000000001
40
0.218750000000117
40
0.218750000000117
40
0.234375000000126
40
0.234375000000126
40
0.24218750000013
40
0.24218750000013
40
0.250000000000134
40
0.250000000000134
40
0.281250000000148
40
0.281250000000148
40
0.296875000000156
40
0.296875000000156
40
0.304687500000159
40
0.304687500000159
40
0.312500000000163
40
0.312500000000163
40
0.343750000000177
40
0.343750000000177
40
0.351562500000181
40
0.351562500000181
40
0.359375000000185
40
0.359375000000185
40
0.375000000000192
40
0.390625000000199
40
0.390625000000199
40
0.398437500000202
40
0.398437500000202
40
0.406250000000205
40
0.406250000000205
40
0.437500000000217
40
0.437500000000217
40
0.445312500000218
40
0.445312500000218
40
0.45312500000022
40
0.468750000000223
40
0.484375000000225
40
0.484375000000225
40
0.492187500000225
40
0.492187500000225
40
0.500000000000225
40
0.500000000000225
40
0.531250000000231
40
0.531250000000231
40
0.546875000000232
40
0.546875000000232
40
0.562500000000234
40
0.562500000000234
40
0.593750000000236
40
0.593750000000236
40
0.601562500000236
40
0.601562500000236
40
0.609375000000235
40
0.625000000000231
40
0.625000000000231
40
0.656250000000221
40
0.656250000000221
40
0.664062500000217
40
0.664062500000217
40
0.671875000000213
40
0.671875000000213
40
0.687500000000204
40
0.687500000000204
40
0.718750000000188
40
0.718750000000188
40
0.726562500000183
40
0.726562500000183
40
0.734375000000179
40
0.750000000000171
40
0.765625000000162
40
0.765625000000162
40
0.781250000000153
40
0.781250000000153
40
0.812500000000136
40
0.812500000000136
40
0.820312500000132
40
0.820312500000132
40
0.828125000000128
40
0.828125000000128
40
0.843750000000119
40
0.859375000000111
40
0.859375000000111
40
0.867187500000105
40
0.867187500000105
40
0.8750000000001
40
0.8750000000001
40
0.906250000000077
40
0.906250000000077
40
0.921875000000064
40
0.921875000000064
40
0.937500000000051
40
0.937500000000051
40
0.953125000000038
40
0.953125000000038
40
0.968750000000026
40
0.984375000000013
40
0.984375000000013
40
0.992187500000006
40
0.992187500000006
40
1
40
1
40
1
40
1
41
1
10
71.4762489356125
20
-2.56614211537433
30
0
41
1
10
71.456475504339
20
-2.59439997756789
30
0
41
1
10
71.4374170265415
20
-2.6177999106767
30
0
41
1
10
71.4096786298197
20
-2.64610888656105
30
0
41
1
10
71.4005746039408
20
-2.65440464673114
30
0
41
1
10
71.3826177022608
20
-2.66870291604474
30
0
41
1
10
71.3737483749221
20
-2.67471445413429
30
0
41
1
10
71.3475737966777
20
-2.68914434972351
30
0
41
1
10
71.3310545965747
20
-2.69380803780709
30
0
41
1
10
71.3073633955184
20
-2.69362605288921
30
0
41
1
10
71.2996488870408
20
-2.69236169326987
30
0
41
1
10
71.2883220726113
20
-2.68862638475397
30
0
41
1
10
71.284587349285
20
-2.68707437276123
30
0
41
1
10
71.2771954981331
20
-2.68334532455907
30
0
41
1
10
71.2735297100323
20
-2.68116185833259
30
0
41
1
10
71.2555089608444
20
-2.66873353479465
30
0
41
1
10
71.2420874216541
20
-2.65403839542171
30
0
41
1
10
71.2231826460581
20
-2.6249861445242
30
0
41
1
10
71.2170876030885
20
-2.61412693262653
30
0
41
1
10
71.2082385622947
20
-2.59602555310656
30
0
41
1
10
71.2053379158812
20
-2.5896891985785
30
0
41
1
10
71.199633395179
20
-2.57639690933974
30
0
41
1
10
71.1968223467969
20
-2.56942137504285
30
0
41
1
10
71.1831120342236
20
-2.53322740873952
30
0
41
1
10
71.1732418238249
20
-2.50016662649509
30
0
41
1
10
71.1599925417277
20
-2.4444228084831
30
0
41
1
10
71.1558382780686
20
-2.42480949597803
30
0
41
1
10
71.1500162395749
20
-2.39377580100702
30
0
41
1
10
71.1481439890227
20
-2.38316178129128
30
0
41
1
10
71.1445417565221
20
-2.36137707413113
30
0
41
1
10
71.1428081217154
20
-2.35017780316497
30
0
41
1
10
71.1346033916803
20
-2.29338107196998
30
0
41
1
10
71.1294348264003
20
-2.24506275383453
30
0
41
1
10
71.1239871189664
20
-2.16815489574262
30
0
41
1
10
71.1225593713156
20
-2.14177508866189
30
0
41
1
10
71.1210702594182
20
-2.10101742830676
30
0
41
1
10
71.1206824561517
20
-2.08720354383368
30
0
41
1
10
71.1201440954968
20
-2.05929170294857
30
0
41
1
10
71.1199946637235
20
-2.04527732043763
30
0
41
1
10
71.1198580549997
20
-1.97491666630742
30
0
41
1
10
71.1216759345614
20
-1.9177141772887
30
0
41
1
10
71.1268000384782
20
-1.84502645050537
30
0
41
1
10
71.1279691919804
20
-1.83042903228164
30
0
41
1
10
71.1306150360362
20
-1.80111061828722
30
0
41
1
10
71.1320974534853
20
-1.78634589237404
30
0
41
1
10
71.1369637960579
20
-1.7425002685512
30
0
41
1
10
71.1445913601693
20
-1.68489704497529
30
0
41
1
10
71.1545707985127
20
-1.62898831396868
30
0
41
1
10
71.1629897439611
20
-1.58770490948754
30
0
41
1
10
71.1659520454321
20
-1.57405200857616
30
0
41
1
10
71.1722007152641
20
-1.54696742912466
30
0
41
1
10
71.1754897504399
20
-1.53353231604311
30
0
41
1
10
71.1925204219402
20
-1.46786471018973
30
0
41
1
10
71.2081811995533
20
-1.4193238210693
30
0
41
1
10
71.2302699943296
20
-1.36331442591285
30
0
41
1
10
71.2348257737753
20
-1.35232180541996
30
0
41
1
10
71.2441357997915
20
-1.33093563405379
30
0
41
1
10
71.2583572929312
20
-1.29984647248318
30
0
41
1
10
71.2832903794116
20
-1.25273781363458
30
0
41
1
10
71.3044699408585
20
-1.21975801011638
30
0
41
1
10
71.3207946232388
20
-1.19672413633899
30
0
41
1
10
71.3263172555197
20
-1.18932201225277
30
0
41
1
10
71.3374048282491
20
-1.17520408711579
30
0
41
1
10
71.3429810230361
20
-1.16847132484006
30
0
41
1
10
71.3710120164494
20
-1.13637045468047
30
0
41
1
10
71.3939152534245
20
-1.11564565595791
30
0
41
1
10
71.4287823675434
20
-1.0912950474017
30
0
41
1
10
71.4405132357831
20
-1.08430709182895
30
0
41
1
10
71.4637597402063
20
-1.07271767847007
30
0
41
1
10
71.4753177499949
20
-1.06808191261973
30
0
41
1
10
71.5097571940661
20
-1.05748304065529
30
0
41
1
10
71.5324070427369
20
-1.05480018893792
30
0
41
1
10
71.5601647829935
20
-1.05683009826095
30
0
41
1
10
71.5656956929525
20
-1.05750965979357
30
0
41
1
10
71.5766169154577
20
-1.05940100498299
30
0
41
1
10
71.5928131675925
20
-1.06303864043474
30
0
41
1
10
71.6084429752898
20
-1.06903248745138
30
0
41
1
10
71.6389029412783
20
-1.08413186226468
30
0
41
1
10
71.6581511479867
20
-1.09831640463273
30
0
41
1
10
71.6806401820328
20
-1.12153044647479
30
0
41
1
10
71.6850588126784
20
-1.12644986808579
30
0
41
1
10
71.6937287343605
20
-1.1368609938759
30
0
41
1
10
71.6979774440685
20
-1.14235185000501
30
0
41
1
10
71.7103484254149
20
-1.15955189675563
30
0
41
1
10
71.7181351230635
20
-1.17203160308543
30
0
41
1
10
71.7400475978299
20
-1.21257969350398
30
0
41
1
10
71.7527409950102
20
-1.24371813111853
30
0
41
1
10
71.7658064076495
20
-1.28850440604543
30
0
41
1
10
71.7682839886849
20
-1.29778258085753
30
0
41
1
10
71.77291128633
20
-1.31683746765671
30
0
41
1
10
71.779349580735
20
-1.34611350704429
30
0
41
1
10
71.7875461997806
20
-1.39840429170002
30
0
41
1
10
71.7913013510328
20
-1.44413255543191
30
0
41
1
10
71.7935677202344
20
-1.49196206888121
30
0
41
1
10
71.7939454416861
20
-1.51705568017354
30
0
41
1
10
71.7927336117961
20
-1.5936416512418
30
0
41
1
10
71.7888728451056
20
-1.64696271382258
30
0
41
1
10
71.7802576596239
20
-1.71663934765442
30
0
41
1
10
71.7783436642295
20
-1.73072748316537
30
0
41
1
10
71.7741279811832
20
-1.75922106284904
30
0
41
1
10
71.7718375820055
20
-1.77354391225484
30
0
41
1
10
71.7644965660631
20
-1.81638127496626
30
0
41
1
10
71.7534162295176
20
-1.8734441031221
30
0
41
1
10
71.739945368281
20
-1.93042964357107
30
0
41
1
10
71.7289884136862
20
-1.97315015432861
30
0
41
1
10
71.725180128033
20
-1.98743432526854
30
0
41
1
10
71.7173633595317
20
-2.01570793566114
30
0
41
1
10
71.71335499082
20
-2.02970173760696
30
0
41
1
10
71.6928484787444
20
-2.09898541940314
30
0
41
1
10
71.6749770454446
20
-2.1522443611575
30
0
41
1
10
71.6463692620441
20
-2.22912221392971
30
0
41
1
10
71.6366660789374
20
-2.2538720416847
30
0
41
1
10
71.6170500403782
20
-2.30157328495628
30
0
41
1
10
71.6071254957282
20
-2.32455501180129
30
0
41
1
10
71.5870763872275
20
-2.36885253752743
30
0
41
1
10
71.5769430057926
20
-2.39018559304827
30
0
41
1
10
71.5565275768425
20
-2.43112609494096
30
0
41
1
10
71.5362183535785
20
-2.4698364362327
30
0
41
1
10
71.5161180581784
20
-2.50433477025811
30
0
41
1
10
71.5011153407815
20
-2.52866910565265
30
0
41
1
10
71.4961264730046
20
-2.53652346029989
30
0
41
1
10
71.4861712788674
20
-2.55171868660159
30
0
41
1
10
71.4811922934308
20
-2.55907764982595
30
0
41
1
10
71.4762489356125
20
-2.56614211537433
30
0
0
SPLINE
5
CB
100
AcDbEntity
8
1
62
256
6
ByLayer
370
18
48
1
60
0
100
AcDbSpline
70
4
71
3
72
8
73
4
40
0
40
0
40
0
40
0
40
1
40
1
40
1
40
1
41
1
10
72.5160930513989
20
-1.68167901480069
30
0
41
1
10
72.6804338471221
20
-1.21848212633893
30
0
41
1
10
72.8401622118569
20
-0.75362746467934
30
0
41
1
10
72.9952047368371
20
-0.287088645668945
30
0
0
SPLINE
5
CC
100
AcDbEntity
8
1
62
256
6
ByLayer
370
18
48
1
60
0
100
AcDbSpline
70
4
71
3
72
8
73
4
40
0
40
0
40
0
40
0
40
1
40
1
40
1
40
1
41
1
10
72.9952047368322
20
0.287088645687646
30
0
41
1
10
73.0016050679727
20
0.095497242291998
30
0
41
1
10
73.0015917879248
20
-0.0958947753125869
30
0
41
1
10
72.9952047368327
20
-0.287088645673123
30
0
0
SPLINE
5
CD
100
AcDbEntity
8
1
62
256
6
ByLayer
370
18
48
1
60
0
100
AcDbSpline
70
4
71
3
72
8
73
4
40
0
40
0
40
0
40
0
40
1
40
1
40
1
40
1
41
1
10
72.9952047368339
20
0.287088645688499
30
0
41
1
10
72.9727436798917
20
0.212224203222121
30
0
41
1
10
72.9501705142381
20
0.137394472877503
30
0
41
1
10
72.9274856565188
20
0.0625993256489892
30
0
0
SPLINE
5
CE
100
AcDbEntity
8
1
62
256
6
ByLayer
370
18
48
1
60
0
100
AcDbSpline
70
4
71
3
72
52
73
48
40
0
40
0
40
0
40
0
40
0.0624999999999816
40
0.0624999999999816
40
0.124999999999963
40
0.124999999999963
40
0.156249999999958
40
0.156249999999958
40
0.187499999999953
40
0.187499999999953
40
0.249999999999942
40
0.249999999999942
40
0.312499999999931
40
0.312499999999931
40
0.343749999999926
40
0.343749999999926
40
0.37499999999992
40
0.37499999999992
40
0.4374999999999
40
0.4374999999999
40
0.46874999999989
40
0.46874999999989
40
0.484374999999889
40
0.484374999999889
40
0.499999999999889
40
0.499999999999889
40
0.562499999999897
40
0.562499999999897
40
0.593749999999901
40
0.593749999999901
40
0.624999999999905
40
0.624999999999905
40
0.687499999999912
40
0.687499999999912
40
0.71874999999992
40
0.71874999999992
40
0.749999999999928
40
0.749999999999928
40
0.812499999999943
40
0.812499999999943
40
0.874999999999958
40
0.874999999999958
40
0.906249999999969
40
0.906249999999969
40
0.937499999999979
40
0.937499999999979
40
1
40
1
40
1
40
1
41
1
10
72.9274856565188
20
0.0625993256489892
30
0
41
1
10
72.9148999983622
20
0.0211026512399997
30
0
41
1
10
72.9013625520304
20
-0.0199145950350328
30
0
41
1
10
72.8723871012185
20
-0.100976211480003
30
0
41
1
10
72.8569499070698
20
-0.14102103048657
30
0
41
1
10
72.832312624927
20
-0.200317635785552
30
0
41
1
10
72.8238526015602
20
-0.219954375607756
30
0
41
1
10
72.8064176132986
20
-0.258957927054723
30
0
41
1
10
72.7974573977316
20
-0.278284872806353
30
0
41
1
10
72.7702300295515
20
-0.334916078279889
30
0
41
1
10
72.7514849855047
20
-0.371179325494978
30
0
41
1
10
72.712835408446
20
-0.440631418273341
30
0
41
1
10
72.692931671459
20
-0.47382228229057
30
0
41
1
10
72.6621618300909
20
-0.521098608432141
30
0
41
1
10
72.6516999156192
20
-0.536507186400115
30
0
41
1
10
72.6308376666994
20
-0.565896204334763
30
0
41
1
10
72.6204133556294
20
-0.579920442673597
30
0
41
1
10
72.5891610627042
20
-0.620005695478739
30
0
41
1
10
72.5683549496856
20
-0.64408901786274
30
0
41
1
10
72.5371681357536
20
-0.676171573674793
30
0
41
1
10
72.5267759594924
20
-0.686189626234409
30
0
41
1
10
72.51118726159
20
-0.700168887035517
30
0
41
1
10
72.5059901454491
20
-0.704653348979889
30
0
41
1
10
72.4956969506248
20
-0.713184479999228
30
0
41
1
10
72.4905878771082
20
-0.717243110816867
30
0
41
1
10
72.4652231330026
20
-0.73652102503226
30
0
41
1
10
72.4455077919322
20
-0.748708860846989
30
0
41
1
10
72.4166860480325
20
-0.762328852079605
30
0
41
1
10
72.4072043198025
20
-0.766089055463027
30
0
41
1
10
72.3884759676829
20
-0.772050142077376
30
0
41
1
10
72.3792416818958
20
-0.774239874553047
30
0
41
1
10
72.3522909566463
20
-0.778431379141267
30
0
41
1
10
72.3351716566004
20
-0.778119563622454
30
0
41
1
10
72.310562298111
20
-0.773355963541576
30
0
41
1
10
72.3025382309329
20
-0.771049500095614
30
0
41
1
10
72.2868223167308
20
-0.765033170737127
30
0
41
1
10
72.2791127712463
20
-0.761308853631959
30
0
41
1
10
72.256731780825
20
-0.748248752711646
30
0
41
1
10
72.2427149667555
20
-0.737015301409258
30
0
41
1
10
72.2161681819204
20
-0.710051164151423
30
0
41
1
10
72.2036397507095
20
-0.694317273984609
30
0
41
1
10
72.1858001525357
20
-0.667594358033938
30
0
41
1
10
72.1800131084962
20
-0.658164996525613
30
0
41
1
10
72.1687372648895
20
-0.638291147855341
30
0
41
1
10
72.1632486408053
20
-0.627843348857624
30
0
41
1
10
72.1473142569651
20
-0.595254188839675
30
0
41
1
10
72.1373557222185
20
-0.571800307980055
30
0
41
1
10
72.1279729958196
20
-0.546754190693378
30
0
0
SPLINE
5
CF
100
AcDbEntity
8
1
62
256
6
ByLayer
370
18
48
1
60
0
100
AcDbSpline
70
4
71
3
72
9
73
5
40
0
40
0
40
0
40
0
40
0.5
40
1
40
1
40
1
40
1
41
1
10
72.1279729958195
20
-0.546754190693378
30
0
41
1
10
72.0483931497417
20
-0.334324873906496
30
0
41
1
10
71.8703948016039
20
0.102876137483008
30
0
41
1
10
71.6548766142141
20
0.564658734313952
30
0
41
1
10
71.5378686191293
20
0.801609564547533
30
0
0
SPLINE
5
D0
100
AcDbEntity
8
1
62
256
6
ByLayer
370
18
48
1
60
0
100
AcDbSpline
70
4
71
3
72
24
73
20
40
0
40
0
40
0
40
0
40
0.500000000000067
40
0.500000000000067
40
0.750000000000078
40
0.750000000000078
40
0.875000000000065
40
0.875000000000065
40
0.937500000000038
40
0.937500000000038
40
0.968750000000022
40
0.968750000000022
40
0.984375000000031
40
0.984375000000031
40
0.992187500000036
40
0.992187500000036
40
0.996093750000018
40
0.996093750000018
40
1
40
1
40
1
40
1
41
1
10
71.1090232188493
20
-5.19996245415527
30
0
41
1
10
71.1277769447566
20
-5.15704628470769
30
0
41
1
10
71.1468871836712
20
-5.11413735337598
30
0
41
1
10
71.1760823972761
20
-5.04977217372439
30
0
41
1
10
71.185901134474
20
-5.02832121614145
30
0
41
1
10
71.2007625852873
20
-4.99613521763916
30
0
41
1
10
71.2057457833496
20
-4.98537592260951
30
0
41
1
10
71.2132457600077
20
-4.96926698981798
30
0
41
1
10
71.2157475507481
20
-4.96391202068483
30
0
41
1
10
71.2194911531547
20
-4.9559495692497
30
0
41
1
10
71.2207372852215
20
-4.95330800810527
30
0
41
1
10
71.2226217537916
20
-4.94929193056291
30
0
41
1
10
71.2232530364775
20
-4.94794174924104
30
0
41
1
10
71.2242088598801
20
-4.94588131453287
30
0
41
1
10
71.2245294563682
20
-4.94518645571014
30
0
41
1
10
71.2250109771232
20
-4.94414183665307
30
0
41
1
10
71.2251721990649
20
-4.94379267713938
30
0
41
1
10
71.2254750267194
20
-4.94316717247267
30
0
41
1
10
71.2256208570153
20
-4.94288570032862
30
0
41
1
10
71.2257035154745
20
-4.94279374724124
30
0
0
SPLINE
5
D1
100
AcDbEntity
8
1
62
256
6
ByLayer
370
18
48
1
60
0
100
AcDbSpline
70
4
71
3
72
26
73
22
40
0
40
0
40
0
40
0
40
0.124999999999986
40
0.124999999999986
40
0.249999999999971
40
0.249999999999971
40
0.312499999999969
40
0.312499999999969
40
0.374999999999967
40
0.374999999999967
40
0.499999999999974
40
0.499999999999974
40
0.62499999999998
40
0.62499999999998
40
0.749999999999987
40
0.749999999999987
40
0.874999999999993
40
0.874999999999993
40
0.937499999999997
40
0.937499999999997
40
1
40
1
40
1
40
1
41
1
10
70.5808729563963
20
1.00107428836418
30
0
41
1
10
70.6217382727955
20
1.00142859939652
30
0
41
1
10
70.6626119350455
20
1.00070422890622
30
0
41
1
10
70.7442922765094
20
0.997030257953213
30
0
41
1
10
70.7850981647627
20
0.994048387162849
30
0
41
1
10
70.8461944980643
20
0.987984048814639
30
0
41
1
10
70.8665411386816
20
0.985696525588935
30
0
41
1
10
70.907190712459
20
0.980706355224584
30
0
41
1
10
70.927495108926
20
0.978048147430684
30
0
41
1
10
70.9883330075956
20
0.969468322891885
30
0
41
1
10
71.0287883376254
20
0.962831618722362
30
0
41
1
10
71.1093869625722
20
0.947140246766054
30
0
41
1
10
71.1494819715216
20
0.938105948712206
30
0
41
1
10
71.2290324792292
20
0.91751653943092
30
0
41
1
10
71.2685055458517
20
0.905953193193255
30
0
41
1
10
71.3467052566265
20
0.880007303291706
30
0
41
1
10
71.3854109853587
20
0.865502314641049
30
0
41
1
10
71.4429356345882
20
0.842290764720872
30
0
41
1
10
71.4620459243529
20
0.834459623543694
30
0
41
1
10
71.5001067556978
20
0.818453677187421
30
0
41
1
10
71.5190448915288
20
0.810203733312676
30
0
41
1
10
71.5378686191293
20
0.801609564547562
30
0
0
SPLINE
5
D2
100
AcDbEntity
8
1
62
256
6
ByLayer
370
18
48
1
60
0
100
AcDbSpline
70
4
71
3
72
28
73
24
40
0
40
0
40
0
40
0
40
0.233406311880333
40
0.233406311880333
40
0.291757889850425
40
0.291757889850425
40
0.350109467820517
40
0.350109467820517
40
0.466812623760701
40
0.466812623760701
40
0.525164201730793
40
0.525164201730793
40
0.583515779700886
40
0.583515779700886
40
0.70021893564107
40
0.70021893564107
40
0.816922091581254
40
0.816922091581254
40
0.875273669551356
40
0.875273669551356
40
0.933625247521459
40
0.933625247521459
40
1
40
1
40
1
40
1
41
1
10
71.6413151267973
20
1.48230841580613
30
0
41
1
10
71.559630260078
20
1.46852160623553
30
0
41
1
10
71.4809535776558
20
1.44710582895488
30
0
41
1
10
71.3864851559854
20
1.41145409280711
30
0
41
1
10
71.3677480795281
20
1.40386490277592
30
0
41
1
10
71.3308289652234
20
1.38789345659444
30
0
41
1
10
71.3127939734145
20
1.37957737311098
30
0
41
1
10
71.2599105629579
20
1.3537529902114
30
0
41
1
10
71.2262802636132
20
1.33537136514118
30
0
41
1
10
71.1781223440562
20
1.30645968687068
30
0
41
1
10
71.1624517630375
20
1.29659859093624
30
0
41
1
10
71.131861127054
20
1.27648759354639
30
0
41
1
10
71.116897098754
20
1.26620590942474
30
0
41
1
10
71.0734347772857
20
1.23508243710282
30
0
41
1
10
71.0466076662088
20
1.21415950594522
30
0
41
1
10
70.9968588271792
20
1.17238896501286
30
0
41
1
10
70.9739388928847
20
1.15153859229872
30
0
41
1
10
70.9423908355218
20
1.1205511117102
30
0
41
1
10
70.9323176525383
20
1.11023516489851
30
0
41
1
10
70.9133472317039
20
1.08997851771963
30
0
41
1
10
70.9044313123814
20
1.08002257055938
30
0
41
1
10
70.8865426166876
20
1.05912705382607
30
0
41
1
10
70.8777299429512
20
1.04823834356586
30
0
41
1
10
70.8696052350299
20
1.03759768211975
30
0
0
SPLINE
5
D3
100
AcDbEntity
8
1
62
256
6
ByLayer
370
18
48
1
60
0
100
AcDbSpline
70
4
71
3
72
12
73
8
40
0
40
0
40
0
40
0
40
0.250000000000011
40
0.250000000000011
40
0.500000000000023
40
0.500000000000023
40
1
40
1
40
1
40
1
41
1
10
72.5160930513989
20
1.68167901480069
30
0
41
1
10
72.4445923377362
20
1.65959862096554
30
0
41
1
10
72.3726145031791
20
1.63938450749811
30
0
41
1
10
72.2279404247549
20
1.60176637168789
30
0
41
1
10
72.155243207922
20
1.58436615514609
30
0
41
1
10
71.9363033295469
20
1.5354833879513
30
0
41
1
10
71.789224235018
20
1.50727258347484
30
0
41
1
10
71.6413151267974
20
1.4823084158059
30
0
0
SPLINE
5
D4
100
AcDbEntity
8
1
62
256
6
ByLayer
370
18
48
1
60
0
100
AcDbSpline
70
4
71
3
72
27
73
23
40
0
40
0
40
0
40
0
40
0.0625000000000111
40
0.0625000000000111
40
0.093750000000014
40
0.093750000000014
40
0.125000000000017
40
0.125000000000017
40
0.250000000000018
40
0.375000000000019
40
0.375000000000019
40
0.43750000000002
40
0.43750000000002
40
0.46875000000002
40
0.46875000000002
40
0.50000000000002
40
0.50000000000002
40
0.750000000000012
40
0.750000000000012
40
0.875000000000006
40
0.875000000000006
40
1
40
1
40
1
40
1
41
1
10
72.5160930513989
20
1.68167901480069
30
0
41
1
10
72.4822623110163
20
1.73992843398429
30
0
41
1
10
72.4489438414898
20
1.79959084416279
30
0
41
1
10
72.3996928366502
20
1.89128960960898
30
0
41
1
10
72.38339676911
20
1.92222310062039
30
0
41
1
10
72.3510379343125
20
1.98484084884578
30
0
41
1
10
72.334994373041
20
2.01649061066968
30
0
41
1
10
72.2559515595412
20
2.17537837975783
30
0
41
1
10
72.1360429884772
20
2.43555076380068
30
0
41
1
10
72.0266441945155
20
2.70656876000373
30
0
41
1
10
71.9474705974397
20
2.91349674535598
30
0
41
1
10
71.9215576486056
20
2.98308337630971
30
0
41
1
10
71.88326135577
20
3.08832494019615
30
0
41
1
10
71.8706029579697
20
3.12351992223463
30
0
41
1
10
71.8455582281649
20
3.19386587670519
30
0
41
1
10
71.8331801120908
20
3.22905673751282
30
0
41
1
10
71.7215944606081
20
3.54571484981781
30
0
41
1
10
71.6230329266551
20
3.82684241922101
30
0
41
1
10
71.4747760136395
20
4.24700614416696
30
0
41
1
10
71.42525764388
20
4.38686656121499
30
0
41
1
10
71.3258530167954
20
4.66559915559259
30
0
41
1
10
71.2759641025279
20
4.80448162003978
30
0
41
1
10
71.2257035157227
20
4.94279374696413
30
0
0
SPLINE
5
D5
100
AcDbEntity
8
1
62
256
6
ByLayer
370
18
48
1
60
0
100
AcDbSpline
70
4
71
3
72
28
73
24
40
0
40
0
40
0
40
0
40
0.0981257943757218
40
0.0981257943757218
40
0.196251588751444
40
0.196251588751444
40
0.294377383127166
40
0.294377383127166
40
0.392503177502888
40
0.392503177502888
40
0.588754766254329
40
0.588754766254329
40
0.686880560630046
40
0.686880560630046
40
0.735943457817903
40
0.735943457817903
40
0.78500635500576
40
0.78500635500576
40
0.883132149381477
40
0.883132149381477
40
0.981257943757194
40
0.981257943757194
40
1
40
1
40
1
40
1
41
1
10
71.2257035157243
20
4.94279374696163
30
0
41
1
10
70.973040259804
20
4.94852403815489
30
0
41
1
10
70.7204025028269
20
4.94986892855832
30
0
41
1
10
70.2149660380657
20
4.94376606147529
30
0
41
1
10
69.962179375531
20
4.93631271516475
30
0
41
1
10
69.4567280221254
20
4.91269398494018
30
0
41
1
10
69.2042871106314
20
4.89654879430393
30
0
41
1
10
68.6998101571937
20
4.85573321880099
30
0
41
1
10
68.4477562187165
20
4.83106098790648
30
0
41
1
10
67.6918286353558
20
4.74447315250907
30
0
41
1
10
67.188204757402
20
4.66999617783128
30
0
41
1
10
66.4320666209271
20
4.5333527266568
30
0
41
1
10
66.1798504611122
20
4.48371347026858
30
0
41
1
10
65.8010687917076
20
4.40329523431086
30
0
41
1
10
65.674684150251
20
4.37548430381059
30
0
41
1
10
65.4219845916456
20
4.31796054726757
30
0
41
1
10
65.2957104241762
20
4.28825765082703
30
0
41
1
10
64.9170741569477
20
4.196383538265
30
0
41
1
10
64.6648943979194
20
4.13145380610956
30
0
41
1
10
64.1608408860756
20
3.9944412721712
30
0
41
1
10
63.9089931051256
20
3.92232044216004
30
0
41
1
10
63.6090202745348
20
3.83243661282936
30
0
41
1
10
63.5609129307311
20
3.81789984980455
30
0
41
1
10
63.5128040408996
20
3.80324199919443
30
0
0
SPLINE
5
D6
100
AcDbEntity
8
1
62
256
6
ByLayer
370
18
48
1
60
0
100
AcDbSpline
70
4
71
3
72
18
73
14
40
0
40
0
40
0
40
0
40
0.111242836494433
40
0.111242836494433
40
0.407495224329622
40
0.407495224329622
40
0.555621418247217
40
0.555621418247217
40
0.703747612164811
40
0.703747612164811
40
0.851873806082405
40
0.851873806082405
40
1
40
1
40
1
40
1
41
1
10
27.9166238888513
20
-2.7658981577994
30
0
41
1
10
27.7270345603628
20
-2.69098164151026
30
0
41
1
10
27.5373806277271
20
-2.61465369000504
30
0
41
1
10
26.8421254574361
20
-2.3303860254548
30
0
41
1
10
26.3368294392502
20
-2.11505284816184
30
0
41
1
10
25.5785100880492
20
-1.78168645678511
30
0
41
1
10
25.3257267023697
20
-1.66881728908837
30
0
41
1
10
24.8205979881944
20
-1.44040130157791
30
0
41
1
10
24.5681444755915
20
-1.32490682586769
30
0
41
1
10
24.0632062767927
20
-1.09184371820612
30
0
41
1
10
23.8107250322973
20
-0.974268801972585
30
0
41
1
10
23.3055281816591
20
-0.737462459765055
30
0
41
1
10
23.0527349140147
20
-0.618203491278564
30
0
41
1
10
22.7999999999998
20
-0.498468073934475
30
0
0
SPLINE
5
D7
100
AcDbEntity
8
1
62
256
6
ByLayer
370
18
48
1
60
0
100
AcDbSpline
70
4
71
3
72
76
73
72
40
0
40
0
40
0
40
0
40
0.0052580447427017
40
0.0052580447427017
40
0.0233288915096118
40
0.0233288915096118
40
0.0413997382765219
40
0.0413997382765219
40
0.077541431810342
40
0.077541431810342
40
0.0956122785772521
40
0.0956122785772521
40
0.104647701960707
40
0.104647701960707
40
0.109165413652435
40
0.111424269498298
40
0.111988983459764
40
0.112130161950131
40
0.112130161950131
40
0.112271340440497
40
0.112271340440497
40
0.11255369742123
40
0.11255369742123
40
0.113683125344162
40
0.113683125344162
40
0.11820083703589
40
0.11820083703589
40
0.122718548727617
40
0.122718548727617
40
0.131753972111072
40
0.131753972111072
40
0.149824818877982
40
0.149824818877982
40
0.185966512411801
40
0.185966512411801
40
0.25824989947944
40
0.25824989947944
40
0.402816673614718
40
0.402816673614718
40
0.547383447749996
40
0.547383447749996
40
0.583525141283816
40
0.583525141283816
40
0.588042852975543
40
0.588042852975543
40
0.590301708821407
40
0.590301708821407
40
0.591431136744339
40
0.591431136744339
40
0.592560564667271
40
0.592560564667271
40
0.592701743157637
40
0.592701743157637
40
0.592842921648003
40
0.592842921648003
40
0.593125278628736
40
0.593689992590203
40
0.594819420513135
40
0.597078276358999
40
0.601595988050727
40
0.619666834817639
40
0.619666834817639
40
0.691950221885287
40
0.691950221885287
40
0.764233608952936
40
0.764233608952936
40
0.836516996020584
40
0.836516996020584
40
0.981083770155881
40
0.981083770155881
40
1
40
1
40
1
40
1
41
1
10
8.57392496278774
20
4.90492707431375
30
0
41
1
10
8.56515160037299
20
4.88049661480059
30
0
41
1
10
8.55621853680128
20
4.85595605318304
30
0
41
1
10
8.5159425959275
20
4.7465537328406
30
0
41
1
10
8.48303074388517
20
4.66042586735418
30
0
41
1
10
8.41463789047785
20
4.48496152308232
30
0
41
1
10
8.37957658694774
20
4.39539687880608
30
0
41
1
10
8.2680765839427
20
4.12318843878145
30
0
41
1
10
8.18506974390718
20
3.93720640415577
30
0
41
1
10
8.05050514122036
20
3.64947817391805
30
0
41
1
10
8.00355198650266
20
3.55264437474975
30
0
41
1
10
7.93087082015648
20
3.40633261324496
30
0
41
1
10
7.90625063734981
20
3.35735029744529
30
0
41
1
10
7.86880070797173
20
3.28353452308613
30
0
41
1
10
7.84995107587153
20
3.24655159430182
30
0
41
1
10
7.82934040592832
20
3.20635756951492
30
0
41
1
10
7.82098637046755
20
3.19010404426191
30
0
41
1
10
7.818995512653
20
3.18623287646233
30
0
41
1
10
7.81819902598525
20
3.18468430725849
30
0
41
1
10
7.81763440429953
20
3.18384022106199
30
0
41
1
10
7.81878559919025
20
3.18129923730737
30
0
41
1
10
7.82041696078565
20
3.18012925302915
30
0
41
1
10
7.82756726457254
20
3.17406379303176
30
0
41
1
10
7.8337832845649
20
3.1698723302498
30
0
41
1
10
7.8645599761434
20
3.14864966046238
30
0
41
1
10
7.88975329935514
20
3.13260220243478
30
0
41
1
10
7.94005423451668
20
3.10041050268785
30
0
41
1
10
7.96527877528556
20
3.08444901493093
30
0
41
1
10
8.04102853305278
20
3.03671002933766
30
0
41
1
10
8.09163135037346
20
3.00507589069824
30
0
41
1
10
8.24349672284481
20
2.9103677659935
30
0
41
1
10
8.34484013204829
20
2.84752000175877
30
0
41
1
10
8.64891306187511
20
2.6593537394354
30
0
41
1
10
8.85169536787933
20
2.53443343571138
30
0
41
1
10
9.45999582043638
20
2.16076720142803
30
0
41
1
10
9.86555664908357
20
1.91327339068687
30
0
41
1
10
11.0815918055839
20
1.1743170711097
30
0
41
1
10
11.8911382024357
20
0.685995689337688
30
0
41
1
10
13.5094145790961
20
-0.279476447901032
30
0
41
1
10
14.3188792751679
20
-0.756283661503574
30
0
41
1
10
15.3274853565505
20
-1.3456833241724
30
0
41
1
10
15.5293561795643
20
-1.46296542128064
30
0
41
1
10
15.755061359124
20
-1.5956834204103
30
0
41
1
10
15.7801123274681
20
-1.61044952090563
30
0
41
1
10
15.8175299006735
20
-1.63272863400644
30
0
41
1
10
15.8299787733411
20
-1.64017429139292
30
0
41
1
10
15.8485364895838
20
-1.65144325911126
30
0
41
1
10
15.8547057038205
20
-1.65521560079483
30
0
41
1
10
15.8669281877215
20
-1.66285127382403
30
0
41
1
10
15.8732320084589
20
-1.66657150867025
30
0
41
1
10
15.8793613217373
20
-1.6713720638447
30
0
41
1
10
15.8800855504595
20
-1.67191272162086
30
0
41
1
10
15.8809254231976
20
-1.67315379956554
30
0
41
1
10
15.8796889119098
20
-1.67318913132368
30
0
41
1
10
15.8769967036357
20
-1.67304015679116
30
0
41
1
10
15.8716123440477
20
-1.67274179440446
30
0
41
1
10
15.8590492373186
20
-1.67204272215531
30
0
41
1
10
15.8339247475003
20
-1.67063301063683
30
0
41
1
10
15.7836826197882
20
-1.66776731125708
30
0
41
1
10
15.6258216321341
20
-1.65846986243844
30
0
41
1
10
15.4824400950645
20
-1.64913540423635
30
0
41
1
10
14.9093073494093
20
-1.60896780060207
30
0
41
1
10
14.4521757617209
20
-1.56777875412664
30
0
41
1
10
13.5412575951782
20
-1.46731496915939
30
0
41
1
10
13.087326868319
20
-1.40804848354031
30
0
41
1
10
12.1819536451615
20
-1.27120266132519
30
0
41
1
10
11.7301537346188
20
-1.19357810866597
30
0
41
1
10
10.381349106367
20
-0.934313635444994
30
0
41
1
10
9.49059528129837
20
-0.726187422916212
30
0
41
1
10
8.4904642683193
20
-0.453365834413603
30
0
41
1
10
8.37485031163027
20
-0.421232940563186
30
0
41
1
10
8.25934142484707
20
-0.388541387121307
30
0
0
SPLINE
5
D8
100
AcDbEntity
8
1
62
256
6
ByLayer
370
18
48
1
60
0
100
AcDbSpline
70
4
71
3
72
27
73
23
40
0
40
0
40
0
40
0
40
0.0624999999999995
40
0.0624999999999995
40
0.0937500000000019
40
0.0937500000000019
40
0.125000000000004
40
0.125000000000004
40
0.250000000000004
40
0.375000000000005
40
0.375000000000005
40
0.437500000000003
40
0.437500000000003
40
0.468750000000001
40
0.468750000000001
40
0.5
40
0.5
40
0.75
40
0.75
40
0.875
40
0.875
40
1
40
1
40
1
40
1
41
1
10
72.5160930513989
20
-1.68167901480069
30
0
41
1
10
72.4822623110163
20
-1.73992843398423
30
0
41
1
10
72.4489438414899
20
-1.79959084416268
30
0
41
1
10
72.3996928366504
20
-1.89128960960878
30
0
41
1
10
72.3833967691101
20
-1.92222310062016
30
0
41
1
10
72.3510379343128
20
-1.98484084884549
30
0
41
1
10
72.3349943730411
20
-2.01649061066934
30
0
41
1
10
72.2559515595414
20
-2.17537837975732
30
0
41
1
10
72.1360429884776
20
-2.43555076379994
30
0
41
1
10
72.0266441945158
20
-2.70656876000271
30
0
41
1
10
71.9474705974402
20
-2.91349674535476
30
0
41
1
10
71.921557648606
20
-2.9830833763084
30
0
41
1
10
71.8832613557705
20
-3.08832494019472
30
0
41
1
10
71.8706029579702
20
-3.12351992223319
30
0
41
1
10
71.8455582281655
20
-3.19386587670368
30
0
41
1
10
71.8331801120914
20
-3.22905673751129
30
0
41
1
10
71.7215944606088
20
-3.54571484981597
30
0
41
1
10
71.6230329266558
20
-3.82684241921888
30
0
41
1
10
71.4747760136403
20
-4.24700614416443
30
0
41
1
10
71.4252576438809
20
-4.38686656121237
30
0
41
1
10
71.3258530167965
20
-4.66559915558969
30
0
41
1
10
71.275964102529
20
-4.80448162003677
30
0
41
1
10
71.2257035157238
20
-4.942793746961
30
0
0
SPLINE
5
D9
100
AcDbEntity
8
1
62
256
6
ByLayer
370
18
48
1
60
0
100
AcDbSpline
70
4
71
3
72
90
73
86
40
0
40
0
40
0
40
0
40
0.0010922714343796
40
0.0010922714343796
40
0.0518949544303007
40
0.0518949544303007
40
0.0772962959282609
40
0.0772962959282609
40
0.102697637426221
40
0.102697637426221
40
0.115398308175202
40
0.115398308175202
40
0.128098978924182
40
0.128098978924182
40
0.153500320422141
40
0.153500320422141
40
0.178901661920101
40
0.178901661920101
40
0.20430300341806
40
0.20430300341806
40
0.229704344916019
40
0.229704344916019
40
0.242405015664999
40
0.242405015664999
40
0.255105686413979
40
0.255105686413979
40
0.280507027911938
40
0.280507027911938
40
0.305908369409897
40
0.305908369409897
40
0.331309710907857
40
0.331309710907857
40
0.356711052405816
40
0.356711052405816
40
0.369411723154795
40
0.369411723154795
40
0.382112393903774
40
0.382112393903774
40
0.407513735401733
40
0.407513735401733
40
0.432915076899693
40
0.432915076899693
40
0.458316418397652
40
0.458316418397652
40
0.509119101393571
40
0.509119101393571
40
0.53452044289153
40
0.53452044289153
40
0.559921784389489
40
0.559921784389489
40
0.57262245513847
40
0.57262245513847
40
0.58532312588745
40
0.58532312588745
40
0.610724467385409
40
0.610724467385409
40
0.636125808883369
40
0.636125808883369
40
0.661527150381328
40
0.661527150381328
40
0.712329833377247
40
0.712329833377247
40
0.737731174875206
40
0.737731174875206
40
0.750431845624186
40
0.750431845624186
40
0.763132516373167
40
0.763132516373167
40
0.81393519936909
40
0.81393519936909
40
0.839336540867052
40
0.839336540867052
40
0.864737882365013
40
0.864737882365013
40
0.890139223862975
40
0.890139223862975
40
0.902839894611956
40
0.902839894611956
40
0.915540565360937
40
0.915540565360937
40
0.966343248356861
40
0.966343248356861
40
0.991744589854824
40
0.991744589854824
40
1
40
1
40
1
40
1
41
1
10
60.6626680304818
20
-2.80381320536748
30
0
41
1
10
60.6518269414845
20
-2.7995565100147
30
0
41
1
10
60.6409861092367
20
-2.79529546017153
30
0
41
1
10
60.1259383252182
20
-2.59264300586415
30
0
41
1
10
59.6223034510426
20
-2.38484024328517
30
0
41
1
10
58.8664375593135
20
-2.06153312512487
30
0
41
1
10
58.6144305358921
20
-1.95178474751364
30
0
41
1
10
58.110075928453
20
-1.7287345991578
30
0
41
1
10
57.8576848527306
20
-1.61552677751979
30
0
41
1
10
57.4785802487802
20
-1.44357400167542
30
0
41
1
10
57.3522343664734
20
-1.38594584484124
30
0
41
1
10
57.0997250379203
20
-1.2701989524293
30
0
41
1
10
56.9735360433674
20
-1.21206747229752
30
0
41
1
10
56.5951271595262
20
-1.03698008418328
30
0
41
1
10
56.3430618560588
20
-0.919338702328702
30
0
41
1
10
55.8391627872621
20
-0.682599762039814
30
0
41
1
10
55.5873536573952
20
-0.563450607393094
30
0
41
1
10
55.0836174390733
20
-0.324433658354934
30
0
41
1
10
54.8316897255206
20
-0.204565788504141
30
0
41
1
10
54.3274867277723
20
0.0354019199339461
30
0
41
1
10
54.0752135388018
20
0.155505231502843
30
0
41
1
10
53.6963892075507
20
0.335508017253346
30
0
41
1
10
53.5699941074884
20
0.395507936626785
30
0
41
1
10
53.3173077799679
20
0.515283741768798
30
0
41
1
10
53.1910481522565
20
0.575044263896672
30
0
41
1
10
52.8124890244934
20
0.753882180357635
30
0
41
1
10
52.5603933421824
20
0.872483715152924
30
0
41
1
10
52.0563805147367
20
1.10765527933361
30
0
41
1
10
51.8044797342237
20
1.22426034613434
30
0
41
1
10
51.3006754018348
20
1.45507712972508
30
0
41
1
10
51.048773392858
20
1.56929277252684
30
0
41
1
10
50.5447662756381
20
1.79490749671197
30
0
41
1
10
50.2926749898516
20
1.90632903778203
30
0
41
1
10
49.9142146690771
20
2.07101169570746
30
0
41
1
10
49.7879993514949
20
2.1254820381676
30
0
41
1
10
49.5354021075292
20
2.23348900471007
30
0
41
1
10
49.4089868358643
20
2.28704320408372
30
0
41
1
10
49.0302100596867
20
2.44591853764129
30
0
41
1
10
48.778083093951
20
2.54954996113332
30
0
41
1
10
48.2743989264449
20
2.75192852505148
30
0
41
1
10
48.0228382462917
20
2.85066964535673
30
0
41
1
10
47.5201013140571
20
3.04293450433548
30
0
41
1
10
47.2689501922784
20
3.13649773441435
30
0
41
1
10
46.5155624359001
20
3.40855793222528
30
0
41
1
10
46.0133768163688
20
3.57838470037109
30
0
41
1
10
45.2589520008444
20
3.81393237032472
30
0
41
1
10
45.0072855777903
20
3.88924504214654
30
0
41
1
10
44.5034015409644
20
4.03314155445045
30
0
41
1
10
44.2511728847346
20
4.1017175193665
30
0
41
1
10
43.8721112438562
20
4.19912463544327
30
0
41
1
10
43.7457272730691
20
4.23066773552867
30
0
41
1
10
43.4930295481031
20
4.29183527522935
30
0
41
1
10
43.3666906189914
20
4.32146614329975
30
0
41
1
10
42.9876651675977
20
4.40746671984306
30
0
41
1
10
42.7349392765183
20
4.46095297096056
30
0
41
1
10
42.2293944872794
20
4.559944089673
30
0
41
1
10
41.976591533583
20
4.60544462341471
30
0
41
1
10
41.4717866880584
20
4.68805257469512
30
0
41
1
10
41.2196330598271
20
4.72516128413452
30
0
41
1
10
40.4635073404832
20
4.82377034874841
30
0
41
1
10
39.9598737034062
20
4.87261981874005
30
0
41
1
10
39.2038790163796
20
4.92034814923312
30
0
41
1
10
38.9518206107876
20
4.9319942944081
30
0
41
1
10
38.5733578736597
20
4.94292755141132
30
0
41
1
10
38.447140408573
20
4.94548168169231
30
0
41
1
10
38.1945510762687
20
4.94839197397459
30
0
41
1
10
38.0681289648896
20
4.94874731270656
30
0
41
1
10
37.4365232721449
20
4.94499746059151
30
0
41
1
10
36.9323927225092
20
4.92441574833535
30
0
41
1
10
36.176738687687
20
4.86761110197449
30
0
41
1
10
35.9249385886741
20
4.84435471515101
30
0
41
1
10
35.421130459057
20
4.78927281705259
30
0
41
1
10
35.1691383947035
20
4.75744212658338
30
0
41
1
10
34.6647517788327
20
4.68540724474673
30
0
41
1
10
34.4123588037313
20
4.64520577388626
30
0
41
1
10
34.0333117907564
20
4.5787429669596
30
0
41
1
10
33.9069349213812
20
4.55556847633457
30
0
41
1
10
33.6544282656043
20
4.50725786945085
30
0
41
1
10
33.5282548144048
20
4.48211112533039
30
0
41
1
10
32.8976654485486
20
4.35153673086077
30
0
41
1
10
32.393963435081
20
4.23165996383526
30
0
41
1
10
31.6382411924423
20
4.03000741577873
30
0
41
1
10
31.3863049214138
20
3.95916653513359
30
0
41
1
10
31.0523228237861
20
3.86066786947512
30
0
41
1
10
30.9703922612191
20
3.8361350994073
30
0
41
1
10
30.8884443999564
20
3.81123765642548
30
0
0
SPLINE
5
DA
100
AcDbEntity
8
1
62
256
6
ByLayer
370
18
48
1
60
0
100
AcDbSpline
70
4
71
3
72
159
73
155
40
0
40
0
40
0
40
0
40
0.0028369097532074
40
0.0028369097532074
40
0.0153896310655424
40
0.0153896310655424
40
0.0404950736902123
40
0.0404950736902123
40
0.0530477950025473
40
0.0530477950025473
40
0.0656005163148823
40
0.0656005163148823
40
0.0781532376272173
40
0.0781532376272173
40
0.0907059589395523
40
0.0907059589395523
40
0.115811401564222
40
0.115811401564222
40
0.140916844188892
40
0.140916844188892
40
0.153469565501227
40
0.153469565501227
40
0.166022286813562
40
0.166022286813562
40
0.17229864746973
40
0.17229864746973
40
0.178575008125897
40
0.178575008125897
40
0.191127729438232
40
0.191127729438232
40
0.203680450750567
40
0.203680450750567
40
0.216233172062902
40
0.216233172062902
40
0.228785893375237
40
0.228785893375237
40
0.241338614687572
40
0.241338614687572
40
0.266444057312241
40
0.266444057312241
40
0.278996778624575
40
0.278996778624575
40
0.291549499936909
40
0.291549499936909
40
0.316654942561577
40
0.316654942561577
40
0.329207663873911
40
0.329207663873911
40
0.341760385186244
40
0.341760385186244
40
0.354313106498578
40
0.354313106498578
40
0.366865827810911
40
0.366865827810911
40
0.379418549123245
40
0.379418549123245
40
0.385694909779412
40
0.385694909779412
40
0.391971270435579
40
0.391971270435579
40
0.417076713060245
40
0.417076713060245
40
0.429629434372578
40
0.429629434372578
40
0.442182155684911
40
0.442182155684911
40
0.467287598309578
40
0.467287598309578
40
0.479840319621911
40
0.479840319621911
40
0.492393040934244
40
0.492393040934244
40
0.504945762246577
40
0.504945762246577
40
0.51749848355891
40
0.51749848355891
40
0.530051204871244
40
0.530051204871244
40
0.542603926183577
40
0.542603926183577
40
0.55515664749591
40
0.55515664749591
40
0.567709368808243
40
0.567709368808243
40
0.580262090120576
40
0.580262090120576
40
0.59281481143291
40
0.59281481143291
40
0.605367532745243
40
0.605367532745243
40
0.617920254057576
40
0.617920254057576
40
0.630472975369909
40
0.630472975369909
40
0.643025696682242
40
0.643025696682242
40
0.655578417994575
40
0.655578417994575
40
0.668131139306908
40
0.680683860619241
40
0.680683860619241
40
0.686960221275407
40
0.686960221275407
40
0.693236581931574
40
0.693236581931574
40
0.705789303243906
40
0.705789303243906
40
0.718342024556238
40
0.718342024556238
40
0.743447467180902
40
0.743447467180902
40
0.756000188493234
40
0.756000188493234
40
0.768552909805566
40
0.768552909805566
40
0.781105631117897
40
0.781105631117897
40
0.793658352430229
40
0.793658352430229
40
0.806211073742561
40
0.806211073742561
40
0.818763795054893
40
0.818763795054893
40
0.831316516367225
40
0.831316516367225
40
0.843869237679557
40
0.843869237679557
40
0.850145598335723
40
0.850145598335723
40
0.856421958991889
40
0.856421958991889
40
0.868974680304223
40
0.868974680304223
40
0.894080122928889
40
0.894080122928889
40
0.900356483585056
40
0.900356483585056
40
0.906632844241223
40
0.906632844241223
40
0.919185565553558
40
0.919185565553558
40
0.931738286865893
40
0.931738286865893
40
0.944291008178227
40
0.944291008178227
40
0.956843729490562
40
0.956843729490562
40
0.969396450802896
40
0.969396450802896
40
0.981949172115231
40
0.981949172115231
40
0.994501893427565
40
0.994501893427565
40
1
40
1
40
1
40
1
41
1
10
63.3960100170312
20
-3.85169887767111
30
0
41
1
10
63.3594111215525
20
-3.86258362154851
30
0
41
1
10
63.3228160564475
20
-3.87339620663047
30
0
41
1
10
63.1243086124809
20
-3.93164866486123
30
0
41
1
10
62.9624423666682
20
-3.97771695355289
30
0
41
1
10
62.476808357215
20
-4.11139000953011
30
0
41
1
10
62.1530227675926
20
-4.19453958876312
30
0
41
1
10
61.6670090419301
20
-4.30970875802689
30
0
41
1
10
61.5049471562052
20
-4.34648595434092
30
0
41
1
10
61.1807037353708
20
-4.41663018472855
30
0
41
1
10
61.018515232722
20
-4.45001275740554
30
0
41
1
10
60.6940544719464
20
-4.51365776670849
30
0
41
1
10
60.5316869582284
20
-4.54390867809229
30
0
41
1
10
60.2071390767154
20
-4.60118418510677
30
0
41
1
10
60.0449183594027
20
-4.62823685377163
30
0
41
1
10
59.5583637838098
20
-4.70447521801165
30
0
41
1
10
59.2341580436261
20
-4.74875186252055
30
0
41
1
10
58.5858525058869
20
-4.82340203593654
30
0
41
1
10
58.2617170887387
20
-4.8537924426297
30
0
41
1
10
57.7758074569425
20
-4.88843688182075
30
0
41
1
10
57.6138253361431
20
-4.89813553809674
30
0
41
1
10
57.2897097212878
20
-4.91361001495355
30
0
41
1
10
57.1275791018067
20
-4.91934734314896
30
0
41
1
10
56.8842061684736
20
-4.92499939141774
30
0
41
1
10
56.8030513988877
20
-4.92639716646835
30
0
41
1
10
56.6406562317169
20
-4.92835733810287
30
0
41
1
10
56.559397741417
20
-4.9289256581263
30
0
41
1
10
56.3157012736174
20
-4.92940670687292
30
0
41
1
10
56.1532922450365
20
-4.92810746501715
30
0
41
1
10
55.828569650498
20
-4.92220837157413
30
0
41
1
10
55.6662645842968
20
-4.91758498031305
30
0
41
1
10
55.3418764270451
20
-4.90469066939733
30
0
41
1
10
55.1798405740651
20
-4.89639383437128
30
0
41
1
10
54.8558880876227
20
-4.87595523922832
30
0
41
1
10
54.6939527532434
20
-4.86387325691672
30
0
41
1
10
54.3699668410116
20
-4.83644401788055
30
0
41
1
10
54.2079285070813
20
-4.82106869805384
30
0
41
1
10
53.7216265083964
20
-4.76990514356814
30
0
41
1
10
53.3971849828238
20
-4.72904259674127
30
0
41
1
10
52.9100475820825
20
-4.65604935655611
30
0
41
1
10
52.7475843397226
20
-4.62973084772202
30
0
41
1
10
52.4225206543675
20
-4.57383895902322
30
0
41
1
10
52.2601471432531
20
-4.5443538062647
30
0
41
1
10
51.7731669818111
20
-4.45140717488934
30
0
41
1
10
51.4487455680371
20
-4.38341324977551
30
0
41
1
10
50.9623874712757
20
-4.27128057182188
30
0
41
1
10
50.800325637378
20
-4.2321432210899
30
0
41
1
10
50.4761695928091
20
-4.15084303455768
30
0
41
1
10
50.3140487723019
20
-4.10880209196196
30
0
41
1
10
49.9897193270213
20
-4.02209805693838
30
0
41
1
10
49.8275306662151
20
-3.97736269195136
30
0
41
1
10
49.5031949184815
20
-3.88477010237875
30
0
41
1
10
49.34099074681
20
-3.83698321123674
30
0
41
1
10
49.0163826314913
20
-3.73838369544697
30
0
41
1
10
48.8539803057257
20
-3.68754617613942
30
0
41
1
10
48.610173961732
20
-3.6090362005969
30
0
41
1
10
48.5288634852355
20
-3.58250707952723
30
0
41
1
10
48.3663249715653
20
-3.52889627991524
30
0
41
1
10
48.2850729010006
20
-3.50181323962323
30
0
41
1
10
47.8788616015052
20
-3.36513120754023
30
0
41
1
10
47.5540672825888
20
-3.25159314992007
30
0
41
1
10
47.0673980801276
20
-3.07382564396752
30
0
41
1
10
46.9053110502683
20
-3.01324846787008
30
0
41
1
10
46.5812491455331
20
-2.88960114382817
30
0
41
1
10
46.419256137587
20
-2.82655900244552
30
0
41
1
10
45.933017088282
20
-2.63500372589354
30
0
41
1
10
45.6085415447142
20
-2.50406203396699
30
0
41
1
10
45.1212979691338
20
-2.3020182553511
30
0
41
1
10
44.958786373563
20
-2.23375894376946
30
0
41
1
10
44.6335397951739
20
-2.09537433395525
30
0
41
1
10
44.4707832977674
20
-2.02518878154626
30
0
41
1
10
44.1457748780336
20
-1.88340379629162
30
0
41
1
10
43.9834292445801
20
-1.81179195838237
30
0
41
1
10
43.6587975148108
20
-1.66763123225701
30
0
41
1
10
43.4965379960454
20
-1.59501644770108
30
0
41
1
10
43.1720835444604
20
-1.44876789768355
30
0
41
1
10
43.0098918210883
20
-1.37513035888455
30
0
41
1
10
42.6855396614736
20
-1.22688275550323
30
0
41
1
10
42.5233851527854
20
-1.15225209294258
30
0
41
1
10
42.1990254592812
20
-1.00220459935756
30
0
41
1
10
42.0367970853505
20
-0.926856969060594
30
0
41
1
10
41.7122067646662
20
-0.775669395198918
30
0
41
1
10
41.5498629142769
20
-0.699773815173359
30
0
41
1
10
41.2251983785678
20
-0.547042980259846
30
0
41
1
10
41.0628199229712
20
-0.470333206740605
30
0
41
1
10
40.737806146688
20
-0.316546566345949
30
0
41
1
10
40.5750803195298
20
-0.239424324026288
30
0
41
1
10
40.249934406718
20
-0.0852278702521971
30
0
41
1
10
40.0874753896178
20
-0.0081549745045209
30
0
41
1
10
39.7626030474496
20
0.145628588571896
30
0
41
1
10
39.6001979768282
20
0.222354083881243
30
0
41
1
10
39.2754770069067
20
0.375486260320571
30
0
41
1
10
39.1131579603696
20
0.451886466008062
30
0
41
1
10
38.7886806822512
20
0.604485536134462
30
0
41
1
10
38.6265612838979
20
0.680763560840774
30
0
41
1
10
38.3023718932423
20
0.832902367529726
30
0
41
1
10
38.1402760184863
20
0.908708180584114
30
0
41
1
10
37.8159046169789
20
1.05946254343147
30
0
41
1
10
37.4913520997127
20
1.20936678270653
30
0
41
1
10
37.1663981408376
20
1.35745169049702
30
0
41
1
10
36.9225194939517
20
1.46777386895155
30
0
41
1
10
36.8411995372757
20
1.50442424637805
30
0
41
1
10
36.6785001099916
20
1.57746169460691
30
0
41
1
10
36.5970963103414
20
1.61385667839605
30
0
41
1
10
36.3530059078211
20
1.72252499495394
30
0
41
1
10
36.1904167435883
20
1.79428911007869
30
0
41
1
10
35.8655045682144
20
1.93658573879307
30
0
41
1
10
35.7032038504365
20
2.00718025749146
30
0
41
1
10
35.216350605812
20
2.21650004863452
30
0
41
1
10
34.891933827823
20
2.35280358496814
30
0
41
1
10
34.4053262144321
20
2.55141104462513
30
0
41
1
10
34.2431150628681
20
2.61664938058723
30
0
41
1
10
33.9185694926292
20
2.74514263386445
30
0
41
1
10
33.7562283381707
20
2.80838725103243
30
0
41
1
10
33.431388915898
20
2.93293192605179
30
0
41
1
10
33.268896398801
20
2.99423064876552
30
0
41
1
10
32.9438920411721
20
3.11496495365719
30
0
41
1
10
32.7813335193077
20
3.17431576516739
30
0
41
1
10
32.4559520640173
20
3.29049288845965
30
0
41
1
10
32.2934078037096
20
3.34721693241116
30
0
41
1
10
31.9684364364103
20
3.45807449733698
30
0
41
1
10
31.8059979950143
20
3.51222894624749
30
0
41
1
10
31.4811867973478
20
3.61790565019325
30
0
41
1
10
31.318815014201
20
3.66942730061683
30
0
41
1
10
30.9941062772336
20
3.7697383697313
30
0
41
1
10
30.8317593571541
20
3.81854158883832
30
0
41
1
10
30.5883403541847
20
3.88955557721377
30
0
41
1
10
30.5072180080841
20
3.91285486216719
30
0
41
1
10
30.3450291106971
20
3.95871943857742
30
0
41
1
10
30.2639626159575
20
3.98129451446582
30
0
41
1
10
30.0207368051217
20
4.04792688161842
30
0
41
1
10
29.8585433941832
20
4.09093534134493
30
0
41
1
10
29.3716171634674
20
4.21567054735527
30
0
41
1
10
29.0465812617808
20
4.29306467696469
30
0
41
1
10
28.6396400959684
20
4.38166635719193
30
0
41
1
10
28.5582061050549
20
4.39897157277971
30
0
41
1
10
28.3954680686819
20
4.43264536350679
30
0
41
1
10
28.3141455970287
20
4.44900760213923
30
0
41
1
10
28.0702767088788
20
4.49675597057325
30
0
41
1
10
27.9078134512985
20
4.52684666848245
30
0
41
1
10
27.5830209322854
20
4.58413942742177
30
0
41
1
10
27.4207515754217
20
4.61130620606679
30
0
41
1
10
27.0962452005734
20
4.66230924441911
30
0
41
1
10
26.934016698927
20
4.68615573060177
30
0
41
1
10
26.6095391585795
20
4.73032730397497
30
0
41
1
10
26.4473006119685
20
4.75064532989856
30
0
41
1
10
26.1228354346365
20
4.7873000759644
30
0
41
1
10
25.9605997821405
20
4.8036527686786
30
0
41
1
10
25.6359212120916
20
4.83313126828583
30
0
41
1
10
25.473472829103
20
4.84627548377173
30
0
41
1
10
25.1483962257569
20
4.86919208210571
30
0
41
1
10
24.9857669906656
20
4.87896429834362
30
0
41
1
10
24.7518665061124
20
4.89045570819852
30
0
41
1
10
24.6806001557359
20
4.89361375364317
30
0
41
1
10
24.6093391605568
20
4.89641287628635
30
0
0
SPLINE
5
DB
100
AcDbEntity
8
1
62
256
6
ByLayer
370
18
48
1
60
0
100
AcDbSpline
70
4
71
3
72
56
73
52
40
0
40
0
40
0
40
0
40
0.0698958541142641
40
0.0698958541142641
40
0.104843781171395
40
0.104843781171395
40
0.139791708228526
40
0.139791708228526
40
0.174739635285657
40
0.174739635285657
40
0.209687562342787
40
0.209687562342787
40
0.244635489399918
40
0.244635489399918
40
0.279583416457049
40
0.279583416457049
40
0.31453134351418
40
0.31453134351418
40
0.349479270571311
40
0.349479270571311
40
0.419375124685573
40
0.419375124685573
40
0.454323051742705
40
0.454323051742705
40
0.489270978799837
40
0.489270978799837
40
0.524218905856969
40
0.524218905856969
40
0.559166832914101
40
0.559166832914101
40
0.629062687028365
40
0.629062687028365
40
0.664010614085497
40
0.664010614085497
40
0.69895854114263
40
0.69895854114263
40
0.733906468199762
40
0.733906468199762
40
0.768854395256894
40
0.768854395256894
40
0.838750249371158
40
0.838750249371158
40
0.908646103485422
40
0.908646103485422
40
0.943594030542554
40
0.943594030542554
40
0.978541957599686
40
0.978541957599686
40
0.996015921128252
40
0.996015921128252
40
1
40
1
40
1
40
1
41
1
10
70.5808729563963
20
1.00107428836421
30
0
41
1
10
70.2569857607882
20
1.15201921656779
30
0
41
1
10
69.932967514356
20
1.30112512168563
30
0
41
1
10
69.4465411471789
20
1.52165653409258
30
0
41
1
10
69.2843424605257
20
1.59466283285678
30
0
41
1
10
68.9599401730884
20
1.73986444335671
30
0
41
1
10
68.7976926182168
20
1.81197305971204
30
0
41
1
10
68.4729139668961
20
1.95481681279262
30
0
41
1
10
68.3105560688701
20
2.02548629209227
30
0
41
1
10
67.9860867494423
20
2.16509071791728
30
0
41
1
10
67.8239396153534
20
2.23404785354063
30
0
41
1
10
67.4997822252608
20
2.37015440246228
30
0
41
1
10
67.3377775146069
20
2.43730259735588
30
0
41
1
10
67.0138920433303
20
2.56962610999597
30
0
41
1
10
66.8519944509835
20
2.63479450508066
30
0
41
1
10
66.5282151182681
20
2.76328799070868
30
0
41
1
10
66.3663620348569
20
2.826658668059
30
0
41
1
10
66.0427050965791
20
2.95149570801482
30
0
41
1
10
65.880856863426
20
3.01288502353731
30
0
41
1
10
65.3950918030044
20
3.19356108910134
30
0
41
1
10
65.0709582021595
20
3.30931488390587
30
0
41
1
10
64.5838559607368
20
3.47564298784857
30
0
41
1
10
64.4213313117455
20
3.52987757760118
30
0
41
1
10
64.0966261302271
20
3.63563121969114
30
0
41
1
10
63.9343656865361
20
3.68718113721752
30
0
41
1
10
63.610099808636
20
3.78764956889654
30
0
41
1
10
63.4481381587416
20
3.83662015237579
30
0
41
1
10
63.1243086124808
20
3.93164866486126
30
0
41
1
10
62.9624423666682
20
3.97771695355289
30
0
41
1
10
62.476808357215
20
4.11139000953014
30
0
41
1
10
62.1530227675926
20
4.19453958876315
30
0
41
1
10
61.66700904193
20
4.30970875802691
30
0
41
1
10
61.5049471562051
20
4.34648595434095
30
0
41
1
10
61.1807037353707
20
4.41663018472858
30
0
41
1
10
61.0185152327219
20
4.45001275740554
30
0
41
1
10
60.6940544719463
20
4.51365776670849
30
0
41
1
10
60.5316869582283
20
4.54390867809229
30
0
41
1
10
60.2071390767154
20
4.60118418510677
30
0
41
1
10
60.0449183594025
20
4.62823685377165
30
0
41
1
10
59.5583637838098
20
4.70447521801168
30
0
41
1
10
59.234158043626
20
4.74875186252055
30
0
41
1
10
58.5858525058869
20
4.82340203593654
30
0
41
1
10
58.2617170887387
20
4.8537924426297
30
0
41
1
10
57.7758074569425
20
4.88843688182075
30
0
41
1
10
57.613825336143
20
4.89813553809674
30
0
41
1
10
57.2897097212877
20
4.91361001495355
30
0
41
1
10
57.1275791018067
20
4.91934734314896
30
0
41
1
10
56.8842061684736
20
4.92499939141774
30
0
41
1
10
56.8030513988876
20
4.92639716646835
30
0
41
1
10
56.7033406956731
20
4.92760071270376
30
0
41
1
10
56.6848244098452
20
4.92780276772569
30
0
41
1
10
56.6663059918423
20
4.92798346233582
30
0
0
SPLINE
5
DC
100
AcDbEntity
8
1
62
256
6
ByLayer
370
18
48
1
60
0
100
AcDbSpline
70
4
71
3
72
104
73
100
40
0
40
0
40
0
40
0
40
0.0040271792599924
40
0.0040271792599924
40
0.0148529707897765
40
0.0148529707897765
40
0.0256787623195609
40
0.0256787623195609
40
0.0473303453791279
40
0.0473303453791279
40
0.0906335114982601
40
0.0906335114982601
40
0.101459303028043
40
0.101459303028043
40
0.112285094557826
40
0.112285094557826
40
0.133936677617393
40
0.133936677617393
40
0.155588260676959
40
0.155588260676959
40
0.177239843736525
40
0.177239843736525
40
0.198891426796091
40
0.198891426796091
40
0.220543009855657
40
0.220543009855657
40
0.242194592915223
40
0.242194592915223
40
0.263846175974789
40
0.263846175974789
40
0.285497759034356
40
0.285497759034356
40
0.307149342093922
40
0.307149342093922
40
0.328800925153488
40
0.328800925153488
40
0.350452508213054
40
0.350452508213054
40
0.37210409127262
40
0.37210409127262
40
0.382929882802402
40
0.382929882802402
40
0.393755674332185
40
0.393755674332185
40
0.415407257391749
40
0.415407257391749
40
0.437058840451314
40
0.437058840451314
40
0.458710423510878
40
0.458710423510878
40
0.480362006570443
40
0.480362006570443
40
0.502013589630008
40
0.502013589630008
40
0.523665172689572
40
0.523665172689572
40
0.545316755749137
40
0.545316755749137
40
0.566968338808701
40
0.566968338808701
40
0.588619921868266
40
0.588619921868266
40
0.610271504927831
40
0.610271504927831
40
0.621097296457613
40
0.621097296457613
40
0.631923087987395
40
0.631923087987395
40
0.653574671046959
40
0.653574671046959
40
0.675226254106522
40
0.675226254106522
40
0.696877837166086
40
0.696877837166086
40
0.740181003285215
40
0.740181003285215
40
0.761832586344779
40
0.761832586344779
40
0.783484169404344
40
0.783484169404344
40
0.805135752463908
40
0.805135752463908
40
0.81596154399369
40
0.81596154399369
40
0.826787335523473
40
0.826787335523473
40
0.848438918583039
40
0.848438918583039
40
0.870090501642605
40
0.870090501642605
40
0.891742084702171
40
0.891742084702171
40
0.913393667761736
40
0.913393667761736
40
0.935045250821302
40
0.935045250821302
40
0.956696833880868
40
0.956696833880868
40
1
40
1
40
1
40
1
41
1
10
30.7600381768881
20
-3.83931625276946
30
0
41
1
10
30.7298500450372
20
-3.84822231590294
30
0
41
1
10
30.6996638643668
20
-3.8570785464087
30
0
41
1
10
30.5883403541848
20
-3.88955557721377
30
0
41
1
10
30.5072180080841
20
-3.91285486216719
30
0
41
1
10
30.3450291106971
20
-3.95871943857742
30
0
41
1
10
30.2639626159575
20
-3.98129451446582
30
0
41
1
10
30.0207368051217
20
-4.04792688161842
30
0
41
1
10
29.8585433941832
20
-4.09093534134493
30
0
41
1
10
29.3716171634674
20
-4.21567054735524
30
0
41
1
10
29.0465812617809
20
-4.29306467696469
30
0
41
1
10
28.6396400959685
20
-4.38166635719193
30
0
41
1
10
28.5582061050549
20
-4.39897157277971
30
0
41
1
10
28.3954680686819
20
-4.43264536350679
30
0
41
1
10
28.3141455970287
20
-4.44900760213923
30
0
41
1
10
28.0702767088788
20
-4.49675597057325
30
0
41
1
10
27.9078134512985
20
-4.52684666848245
30
0
41
1
10
27.5830209322854
20
-4.58413942742177
30
0
41
1
10
27.4207515754217
20
-4.61130620606679
30
0
41
1
10
27.0962452005734
20
-4.66230924441911
30
0
41
1
10
26.934016698927
20
-4.68615573060177
30
0
41
1
10
26.6095391585795
20
-4.73032730397497
30
0
41
1
10
26.4473006119685
20
-4.75064532989856
30
0
41
1
10
26.1228354346365
20
-4.7873000759644
30
0
41
1
10
25.9605997821405
20
-4.8036527686786
30
0
41
1
10
25.6359212120916
20
-4.83313126828583
30
0
41
1
10
25.473472829103
20
-4.84627548377173
30
0
41
1
10
25.148396225757
20
-4.86919208210571
30
0
41
1
10
24.9857669906656
20
-4.87896429834362
30
0
41
1
10
24.6604536459083
20
-4.89494677475025
30
0
41
1
10
24.4976794922329
20
-4.90115466614455
30
0
41
1
10
24.1725601268288
20
-4.90960397129118
30
0
41
1
10
24.0101548630316
20
-4.91177159609768
30
0
41
1
10
23.6854348855182
20
-4.9125454404159
30
0
41
1
10
23.5231019366705
20
-4.9112507557661
30
0
41
1
10
23.1984381378304
20
-4.90536765519073
30
0
41
1
10
23.0361169059896
20
-4.9007397119758
30
0
41
1
10
22.7114881226367
20
-4.88791617537359
30
0
41
1
10
22.5491740278335
20
-4.87972795085474
30
0
41
1
10
22.3057512220704
20
-4.86460128925282
30
0
41
1
10
22.2246174205922
20
-4.85908393880246
30
0
41
1
10
22.0623868066246
20
-4.84705547330182
30
0
41
1
10
21.9812963309114
20
-4.84053419963823
30
0
41
1
10
21.7380023697777
20
-4.8195952267761
30
0
41
1
10
21.5757618916175
20
-4.80385041975342
30
0
41
1
10
21.2510048684869
20
-4.76930478947475
30
0
41
1
10
21.0885004404117
20
-4.75043070399744
30
0
41
1
10
20.7632285236457
20
-4.70925037118067
30
0
41
1
10
20.6003689902434
20
-4.68692928129423
30
0
41
1
10
20.274931408216
20
-4.63874918196112
30
0
41
1
10
20.112339232251
20
-4.61288973692834
30
0
41
1
10
19.7873751960128
20
-4.55754593532674
30
0
41
1
10
19.624995162182
20
-4.52810243674708
30
0
41
1
10
19.3003694061559
20
-4.46620751219925
30
0
41
1
10
19.1381740126122
20
-4.4336923124462
30
0
41
1
10
18.8138096340644
20
-4.36549428668695
30
0
41
1
10
18.6516452963848
20
-4.32980901150643
30
0
41
1
10
18.3272718263773
20
-4.25517141046635
30
0
41
1
10
18.165070547756
20
-4.21619912554431
30
0
41
1
10
17.8405446665737
20
-4.13521404981543
30
0
41
1
10
17.6782192944356
20
-4.0932039496918
30
0
41
1
10
17.3533668673207
20
-4.00638521484916
30
0
41
1
10
17.1908321809211
20
-3.96160615831084
30
0
41
1
10
16.9468754039845
20
-3.89227638473991
30
0
41
1
10
16.8655323509828
20
-3.86880240958706
30
0
41
1
10
16.7028051547695
20
-3.82109374401998
30
0
41
1
10
16.6213979532817
20
-3.79685180290679
30
0
41
1
10
16.3773485865721
20
-3.72296244664827
30
0
41
1
10
16.214863878411
20
-3.6721769546505
30
0
41
1
10
15.8900615353919
20
-3.56798537136854
30
0
41
1
10
15.7277469144377
20
-3.51458728180089
30
0
41
1
10
15.4031719306234
20
-3.40549119088578
30
0
41
1
10
15.2409116528741
20
-3.34980561668584
30
0
41
1
10
14.7541397769181
20
-3.17946250123086
30
0
41
1
10
14.4296382436623
20
-3.06144028973054
30
0
41
1
10
13.9428830404711
20
-2.87723684855359
30
0
41
1
10
13.7806524368184
20
-2.81462925867862
30
0
41
1
10
13.4561838087919
20
-2.68717360069377
30
0
41
1
10
13.293891943954
20
-2.62242194315621
30
0
41
1
10
12.9690460240646
20
-2.49121001270146
30
0
41
1
10
12.8064939710711
20
-2.42473446680529
30
0
41
1
10
12.5624508982812
20
-2.32367077014638
30
0
41
1
10
12.481044398496
20
-2.28974855919711
30
0
41
1
10
12.3183146436322
20
-2.22151996177968
30
0
41
1
10
12.236982587321
20
-2.1872100468859
30
0
41
1
10
11.9930795888546
20
-2.08369706541907
30
0
41
1
10
11.8306001321756
20
-2.01391449372318
30
0
41
1
10
11.5057739917011
20
-1.87308757505198
30
0
41
1
10
11.3434299983558
20
-1.80203847201352
30
0
41
1
10
11.0188918819071
20
-1.65869517841918
30
0
41
1
10
10.8567387570152
20
-1.58632371310324
30
0
41
1
10
10.5324827952643
20
-1.4404821462609
30
0
41
1
10
10.3703901429437
20
-1.36699071828403
30
0
41
1
10
10.0462479910781
20
-1.21886050541534
30
0
41
1
10
9.88419882886811
20
-1.14420825799135
30
0
41
1
10
9.559928526818
20
-0.994243860971523
30
0
41
1
10
9.39769020205748
20
-0.918983493035739
30
0
41
1
10
8.91056254335101
20
-0.692640564225286
30
0
41
1
10
8.58528585813198
20
-0.54093105535091
30
0
41
1
10
8.2593414248484
20
-0.388541387121677
30
0
0
SPLINE
5
DD
100
AcDbEntity
8
1
62
256
6
ByLayer
370
18
48
1
60
0
100
AcDbSpline
70
4
71
3
72
28
73
24
40
0
40
0
40
0
40
0
40
0.124999999999998
40
0.124999999999998
40
0.187499999999998
40
0.187499999999998
40
0.249999999999997
40
0.249999999999997
40
0.374999999999995
40
0.374999999999995
40
0.499999999999993
40
0.499999999999993
40
0.624999999999992
40
0.624999999999992
40
0.687499999999992
40
0.687499999999992
40
0.749999999999993
40
0.749999999999993
40
0.874999999999995
40
0.874999999999995
40
0.937499999999997
40
0.937499999999997
40
1
40
1
40
1
40
1
41
1
10
8.25934333959466
20
-0.38854228269841
30
0
41
1
10
8.05778320640016
20
-0.293719702785353
30
0
41
1
10
7.85751046183461
20
-0.196896408401528
30
0
41
1
10
7.55907729283521
20
-0.0486144431443449
30
0
41
1
10
7.45992062070945
20
0.0013089296228657
30
0
41
1
10
7.26222768507998
20
0.102114343007628
30
0
41
1
10
7.16369038989203
20
0.152994925816302
30
0
41
1
10
6.86906990008885
20
0.307158034814648
30
0
41
1
10
6.67398025373998
20
0.411964846014342
30
0
41
1
10
6.28679107976402
20
0.626113455323747
30
0
41
1
10
6.09468641379354
20
0.735447826847206
30
0
41
1
10
5.71387398381935
20
0.959221516043385
30
0
41
1
10
5.52516248004608
20
1.07365533091064
30
0
41
1
10
5.24508256260171
20
1.24976129531905
30
0
41
1
10
5.15222215000935
20
1.30920829457497
30
0
41
1
10
4.96760068356011
20
1.42973667839823
30
0
41
1
10
4.87571992667282
20
1.49090112048361
30
0
41
1
10
4.60332377513421
20
1.67614564927257
30
0
41
1
10
4.42575612007315
20
1.80212611164484
30
0
41
1
10
4.16682145762175
20
1.99560381704029
30
0
41
1
10
4.08175179284791
20
2.06085119700688
30
0
41
1
10
3.9144288456165
20
2.19305096228882
30
0
41
1
10
3.83217408306859
20
2.26000241959048
30
0
41
1
10
3.7515483215777
20
2.32793822170609
30
0
0
SPLINE
5
DE
100
AcDbEntity
8
1
62
256
6
ByLayer
370
18
48
1
60
0
100
AcDbSpline
70
4
71
3
72
49
73
45
40
0
40
0
40
0
40
0
40
0.0624999999999996
40
0.0624999999999996
40
0.124999999999999
40
0.124999999999999
40
0.156249999999999
40
0.156249999999999
40
0.171874999999999
40
0.171874999999999
40
0.187499999999999
40
0.187499999999999
40
0.25
40
0.25
40
0.3125
40
0.3125
40
0.375000000000001
40
0.375000000000001
40
0.437500000000002
40
0.437500000000002
40
0.500000000000002
40
0.562500000000003
40
0.562500000000003
40
0.578125000000003
40
0.578125000000003
40
0.593750000000003
40
0.593750000000003
40
0.625000000000003
40
0.625000000000003
40
0.687500000000003
40
0.687500000000003
40
0.750000000000003
40
0.750000000000003
40
0.781250000000002
40
0.781250000000002
40
0.796875000000002
40
0.796875000000002
40
0.812500000000002
40
0.812500000000002
40
0.875000000000001
40
0.875000000000001
40
0.937500000000001
40
0.937500000000001
40
1
40
1
40
1
40
1
41
1
10
70.5808729563963
20
1.00107428836418
30
0
41
1
10
70.5645301754418
20
0.836497845727848
30
0
41
1
10
70.5544771051467
20
0.671363054754039
30
0
41
1
10
70.5447167929929
20
0.340021861560103
30
0
41
1
10
70.5450134025438
20
0.173815369574697
30
0
41
1
10
70.5517598912198
20
-0.0762889870059951
30
0
41
1
10
70.5550608207538
20
-0.159789788468799
30
0
41
1
10
70.5614212748817
20
-0.285241122366443
30
0
41
1
10
70.5637763515674
20
-0.327091604925471
30
0
41
1
10
70.5689290649394
20
-0.410859694804628
30
0
41
1
10
70.5717301902705
20
-0.452825221419374
30
0
41
1
10
70.5867345351543
20
-0.662260828457761
30
0
41
1
10
70.60181745226
20
-0.827334937892317
30
0
41
1
10
70.6360299980039
20
-1.15293036096963
30
0
41
1
10
70.6551646151499
20
-1.31345051231187
30
0
41
1
10
70.6957664884821
20
-1.63013894241928
30
0
41
1
10
70.7172433466386
20
-1.78635380935239
30
0
41
1
10
70.7610557176587
20
-2.09427271551488
30
0
41
1
10
70.7830440118543
20
-2.24359643208541
30
0
41
1
10
70.8259932677556
20
-2.53340875876145
30
0
41
1
10
70.8679195666009
20
-2.81438268819673
30
0
41
1
10
70.9060881082135
20
-3.07786989108269
30
0
41
1
10
70.9284114648028
20
-3.2369414360987
30
0
41
1
10
70.9328002148717
20
-3.26847453208137
30
0
41
1
10
70.9414196655701
20
-3.33097135325895
30
0
41
1
10
70.9456391985814
20
-3.36185467521943
30
0
41
1
10
70.9579919624493
20
-3.45317296485411
30
0
41
1
10
70.9658331709227
20
-3.51238143715889
30
0
41
1
10
70.9881918042738
20
-3.68507841899279
30
0
41
1
10
71.0015349647851
20
-3.79365114719164
30
0
41
1
10
71.0254110974647
20
-3.99779899832626
30
0
41
1
10
71.0359430556055
20
-4.09337412708206
30
0
41
1
10
71.0501011428006
20
-4.2267723072265
30
0
41
1
10
71.0545497001909
20
-4.26957444972504
30
0
41
1
10
71.06089978102
20
-4.33122458664772
30
0
41
1
10
71.0629653685209
20
-4.35137334011679
30
0
41
1
10
71.0669842320318
20
-4.39059852172593
30
0
41
1
10
71.0689395895439
20
-4.40969491291753
30
0
41
1
10
71.0784957791048
20
-4.50262400461347
30
0
41
1
10
71.0854269992266
20
-4.5688176404019
30
0
41
1
10
71.0992558917719
20
-4.68530176306479
30
0
41
1
10
71.1061518313383
20
-4.73559010752257
30
0
41
1
10
71.1215304683616
20
-4.820188529099
30
0
41
1
10
71.1300095923966
20
-4.8545007574383
30
0
41
1
10
71.1402453471312
20
-4.88055285711496
30
0
0
SPLINE
5
DF
100
AcDbEntity
8
1
62
256
6
ByLayer
370
18
48
1
60
0
100
AcDbSpline
70
4
71
3
72
38
73
34
40
0
40
0
40
0
40
0
40
0.0624999999999734
40
0.0624999999999734
40
0.124999999999947
40
0.124999999999947
40
0.18749999999992
40
0.18749999999992
40
0.218749999999907
40
0.218749999999907
40
0.249999999999893
40
0.249999999999893
40
0.312499999999867
40
0.312499999999867
40
0.343749999999873
40
0.343749999999873
40
0.374999999999878
40
0.374999999999878
40
0.437499999999892
40
0.437499999999892
40
0.468749999999898
40
0.468749999999898
40
0.499999999999903
40
0.499999999999903
40
0.562499999999913
40
0.562499999999913
40
0.624999999999924
40
0.624999999999924
40
0.749999999999949
40
0.749999999999949
40
0.874999999999974
40
0.874999999999974
40
1
40
1
40
1
40
1
41
1
10
3.75154832157739
20
2.32793822170635
30
0
41
1
10
3.74370635914633
20
2.33454591133386
30
0
41
1
10
3.73561137820829
20
2.34101194291134
30
0
41
1
10
3.71876912769258
20
2.35357766774348
30
0
41
1
10
3.70996337281628
20
2.3597171168656
30
0
41
1
10
3.69173861378542
20
2.37130427410486
30
0
41
1
10
3.68240711028639
20
2.376702907593
30
0
41
1
10
3.66797832321686
20
2.38402307621965
30
0
41
1
10
3.66305939439494
20
2.3863477799382
30
0
41
1
10
3.65326124512566
20
2.39059940410792
30
0
41
1
10
3.64838896007896
20
2.39252635377756
30
0
41
1
10
3.63385691219972
20
2.39767948064727
30
0
41
1
10
3.62415560913044
20
2.40028491460706
30
0
41
1
10
3.6106217025806
20
2.40267273553067
30
0
41
1
10
3.60625179809904
20
2.40323046108017
30
0
41
1
10
3.59777806414763
20
2.40389870085991
30
0
41
1
10
3.59365884633778
20
2.40400632607745
30
0
41
1
10
3.58197965819428
20
2.40371377403122
30
0
41
1
10
3.57497950618742
20
2.40272170995291
30
0
41
1
10
3.56537522386086
20
2.40032977852778
30
0
41
1
10
3.56231378716959
20
2.39937498763175
30
0
41
1
10
3.55654358666987
20
2.39722497368462
30
0
41
1
10
3.55382736331649
20
2.39602950283936
30
0
41
1
10
3.54611118347427
20
2.39213548260054
30
0
41
1
10
3.54153990275077
20
2.38913208792422
30
0
41
1
10
3.53328888764904
20
2.38249508536651
30
0
41
1
10
3.52960112945027
20
2.37884723550832
30
0
41
1
10
3.5197269261144
20
2.36720608108135
30
0
41
1
10
3.51476047232853
20
2.35862130334382
30
0
41
1
10
3.50707508361469
20
2.34032010232878
30
0
41
1
10
3.50437435439946
20
2.3305941266666
30
0
41
1
10
3.50083150740213
20
2.31021400526583
30
0
41
1
10
3.49999999999946
20
2.299553282316
30
0
41
1
10
3.50000000000003
20
2.2885836845204
30
0
0
SPLINE
5
E0
100
AcDbEntity
8
1
62
256
6
ByLayer
370
18
48
1
60
0
100
AcDbSpline
70
4
71
3
72
22
73
18
40
0
40
0
40
0
40
0
40
0.250000000000012
40
0.250000000000012
40
0.312500000000029
40
0.312500000000029
40
0.375000000000046
40
0.500000000000036
40
0.625000000000025
40
0.625000000000025
40
0.750000000000015
40
0.750000000000015
40
0.875000000000004
40
0.875000000000004
40
0.937500000000002
40
0.937500000000002
40
1
40
1
40
1
40
1
41
1
10
3.64136783885149
20
-4.60244523880021
30
0
41
1
10
3.6185846878773
20
-4.61046661252917
30
0
41
1
10
3.59850618149815
20
-4.62055376327913
30
0
41
1
10
3.57632999442944
20
-4.63535512405414
30
0
41
1
10
3.57202876276534
20
-4.63844065563595
30
0
41
1
10
3.56384461080492
20
-4.64474143929451
30
0
41
1
10
3.55216603324916
20
-4.65440309605694
30
0
41
1
10
3.53551408756462
20
-4.67148883307118
30
0
41
1
10
3.52501306993131
20
-4.68612970538521
30
0
41
1
10
3.51591791903576
20
-4.70124946684695
30
0
41
1
10
3.51213562742134
20
-4.70895067253582
30
0
41
1
10
3.50608345285994
20
-4.72452558637769
30
0
41
1
10
3.50380137679915
20
-4.7324362031456
30
0
41
1
10
3.50152000408727
20
-4.74436676720086
30
0
41
1
10
3.50094949028249
20
-4.74835403716085
30
0
41
1
10
3.50018899629902
20
-4.75633750229537
30
0
41
1
10
3.50000000000003
20
-4.760356931926
30
0
41
1
10
3.50000000000003
20
-4.76429748991336
30
0
0
SPLINE
5
E1
100
AcDbEntity
8
1
62
256
6
ByLayer
370
13
48
1
60
0
100
AcDbSpline
70
4
71
3
72
12
73
8
40
0
40
0
40
0
40
0
40
0.500000000000001
40
0.500000000000001
40
0.75
40
0.75
40
1
40
1
40
1
40
1
41
1
10
3.75032536103254
20
-4.58997184434631
30
0
41
1
10
3.731430806368
20
-4.58808467701414
30
0
41
1
10
3.71289149649769
20
-4.58821487302492
30
0
41
1
10
3.685603057024
20
-4.59131305059847
30
0
41
1
10
3.6765944564911
20
-4.59283416084389
30
0
41
1
10
3.65876016943057
20
-4.59688888924291
30
0
41
1
10
3.64994499724284
20
-4.599425437322
30
0
41
1
10
3.64136783885149
20
-4.60244523880019
30
0
0
SPLINE
5
E2
100
AcDbEntity
8
1
62
256
6
ByLayer
370
13
48
1
60
0
100
AcDbSpline
70
4
71
3
72
56
73
52
40
0
40
0
40
0
40
0
40
0.0624999999999991
40
0.0624999999999991
40
0.0781249999999989
40
0.0781249999999989
40
0.0937499999999988
40
0.0937499999999988
40
0.124999999999999
40
0.124999999999999
40
0.187499999999998
40
0.249999999999998
40
0.249999999999998
40
0.281249999999998
40
0.281249999999998
40
0.296874999999998
40
0.296874999999998
40
0.312499999999998
40
0.312499999999998
40
0.374999999999998
40
0.437499999999998
40
0.437499999999998
40
0.468749999999998
40
0.468749999999998
40
0.484374999999998
40
0.484374999999998
40
0.499999999999998
40
0.499999999999998
40
0.515624999999998
40
0.515624999999998
40
0.531249999999998
40
0.531249999999998
40
0.562499999999998
40
0.562499999999998
40
0.624999999999998
40
0.687499999999998
40
0.687499999999998
40
0.703124999999998
40
0.703124999999998
40
0.718749999999998
40
0.718749999999998
40
0.749999999999998
40
0.749999999999998
40
0.812499999999998
40
0.874999999999999
40
0.874999999999999
40
0.906249999999999
40
0.906249999999999
40
0.937499999999999
40
0.937499999999999
40
1
40
1
40
1
40
1
41
1
10
3.75154832157742
20
2.32793822172297
30
0
41
1
10
3.75155305990037
20
2.17335697815307
30
0
41
1
10
3.75155464061865
20
2.01485213026965
30
0
41
1
10
3.75155301904255
20
1.8118374083364
30
0
41
1
10
3.7515525143169
20
1.77098961919924
30
0
41
1
10
3.75155115068901
20
1.68880221372336
30
0
41
1
10
3.75155029072479
20
1.64743291041773
30
0
41
1
10
3.75154720368445
20
1.52312236268767
30
0
41
1
10
3.75154446840938
20
1.43982284457888
30
0
41
1
10
3.75153436486025
20
1.18867289002364
30
0
41
1
10
3.75151584687208
20
0.850476168427804
30
0
41
1
10
3.75148829049701
20
0.50571992122056
30
0
41
1
10
3.75146446529612
20
0.244646320003113
30
0
41
1
10
3.75145599572008
20
0.157203171284948
30
0
41
1
10
3.75144251390961
20
0.0253962588126342
30
0
41
1
10
3.7514379020997
20
-0.0185289972868361
30
0
41
1
10
3.75142847523571
20
-0.106116874936248
30
0
41
1
10
3.75142365629713
20
-0.149817591418213
30
0
41
1
10
3.75139905060658
20
-0.367859989612839
30
0
41
1
10
3.75135642830563
20
-0.713784203871001
30
0
41
1
10
3.75130786010425
20
-1.05394217994288
30
0
41
1
10
3.75126925694352
20
-1.30686936088219
30
0
41
1
10
3.75125602485747
20
-1.39081245060407
30
0
41
1
10
3.7512356220744
20
-1.51616727431227
30
0
41
1
10
3.75122872292863
20
-1.55789242220115
30
0
41
1
10
3.75121476572843
20
-1.64098248259842
30
0
41
1
10
3.75120771197359
20
-1.68232303025496
30
0
41
1
10
3.7511934535589
20
-1.7645953800463
30
0
41
1
10
3.75118624269274
20
-1.80556165788593
30
0
41
1
10
3.75117170187994
20
-1.88690004331639
30
0
41
1
10
3.75116437476242
20
-1.92725763771673
30
0
41
1
10
3.75114222297773
20
-2.04740678005172
30
0
41
1
10
3.75112722819887
20
-2.12627536997474
30
0
41
1
10
3.75108154884632
20
-2.3592521487117
30
0
41
1
10
3.75101879975364
20
-2.66023065925546
30
0
41
1
10
3.75095196870205
20
-2.9420671852312
30
0
41
1
10
3.75090869428172
20
-3.11208155982081
30
0
41
1
10
3.75089996367265
20
-3.14577691041154
30
0
41
1
10
3.75088234333953
20
-3.21254528649604
30
0
41
1
10
3.75087344980679
20
-3.2456300497029
30
0
41
1
10
3.75084668242974
20
-3.34334956952029
30
0
41
1
10
3.75082866940542
20
-3.40665308967834
30
0
41
1
10
3.75077405848609
20
-3.59114577876176
30
0
41
1
10
3.75069972527766
20
-3.82271845626622
30
0
41
1
10
3.75062149435155
20
-4.02587018284569
30
0
41
1
10
3.75056095404116
20
-4.16736595696148
30
0
41
1
10
3.75054046167747
20
-4.21271605552846
30
0
41
1
10
3.75049877108083
20
-4.29970194584465
30
0
41
1
10
3.75047770483209
20
-4.34106077919586
30
0
41
1
10
3.75041378569514
20
-4.45871321472788
30
0
41
1
10
3.75037019826391
20
-4.52863552358929
30
0
41
1
10
3.75032536103257
20
-4.58997184434631
30
0
0
SPLINE
5
E3
100
AcDbEntity
8
1
62
256
6
ByLayer
370
18
48
1
60
0
100
AcDbSpline
70
4
71
3
72
95
73
91
40
0
40
0
40
0
40
0
40
0.0087714284702571
40
0.0274738543481766
40
0.0274738543481766
40
0.0648787061040147
40
0.0648787061040147
40
0.0835811319819338
40
0.0835811319819338
40
0.0929323449208937
40
0.0929323449208937
40
0.102283557859854
40
0.102283557859854
40
0.139688409615693
40
0.139688409615693
40
0.177093261371533
40
0.177093261371533
40
0.195795687249453
40
0.195795687249453
40
0.214498113127373
40
0.214498113127373
40
0.251902964883213
40
0.251902964883213
40
0.270605390761132
40
0.270605390761132
40
0.279956603700092
40
0.279956603700092
40
0.289307816639052
40
0.289307816639052
40
0.326712668394892
40
0.326712668394892
40
0.364117520150733
40
0.364117520150733
40
0.373468733089693
40
0.373468733089693
40
0.382819946028654
40
0.382819946028654
40
0.401522371906574
40
0.401522371906574
40
0.438927223662413
40
0.438927223662413
40
0.457629649540333
40
0.457629649540333
40
0.466980862479292
40
0.466980862479292
40
0.476332075418252
40
0.476332075418252
40
0.551141778929933
40
0.551141778929933
40
0.588546630685773
40
0.588546630685773
40
0.625951482441612
40
0.625951482441612
40
0.663356334197452
40
0.663356334197452
40
0.672707547136412
40
0.672707547136412
40
0.682058760075372
40
0.70076118595329
40
0.70076118595329
40
0.738166037709127
40
0.738166037709127
40
0.756868463587045
40
0.756868463587045
40
0.766219676526004
40
0.766219676526004
40
0.775570889464963
40
0.775570889464963
40
0.812975741220802
40
0.812975741220802
40
0.822326954159762
40
0.822326954159762
40
0.831678167098722
40
0.831678167098722
40
0.850380592976642
40
0.850380592976642
40
0.887785444732482
40
0.887785444732482
40
0.897136657671442
40
0.897136657671442
40
0.906487870610402
40
0.925190296488321
40
0.925190296488321
40
0.934541509427281
40
0.934541509427281
40
0.943892722366241
40
0.943892722366241
40
0.96259514824416
40
0.96259514824416
40
1
40
1
40
1
40
1
41
1
10
30.7603399429718
20
3.84275901801215
30
0
41
1
10
30.8786628304393
20
3.88224072636632
30
0
41
1
10
31.2490692244887
20
4.00350501367816
30
0
41
1
10
31.6189700482982
20
4.11709330400217
30
0
41
1
10
32.3740919047292
20
4.33792691064963
30
0
41
1
10
32.8771325605286
20
4.47028521265074
30
0
41
1
10
33.632577961916
20
4.64494687783844
30
0
41
1
10
33.8845418098463
20
4.69918619206763
30
0
41
1
10
34.2629099497675
20
4.77436097780114
30
0
41
1
10
34.3891586759935
20
4.79839834774532
30
0
41
1
10
34.6415262701755
20
4.84432137685229
30
0
41
1
10
34.7676281643938
20
4.86620508568754
30
0
41
1
10
35.3978157811419
20
4.9701902535422
30
0
41
1
10
35.9009530151637
20
5.03597334644582
30
0
41
1
10
36.9073279256254
20
5.13183028045344
30
0
41
1
10
37.4105399211607
20
5.16191132938903
30
0
41
1
10
38.1670296148465
20
5.1797033217087
30
0
41
1
10
38.4196497868339
20
5.18107355262626
30
0
41
1
10
38.9240013721693
20
5.17467866575541
30
0
41
1
10
39.1758967926956
20
5.1669232269312
30
0
41
1
10
39.9311163973071
20
5.13008485389625
30
0
41
1
10
40.4339679064157
20
5.08741841313858
30
0
41
1
10
41.1889387041591
20
4.99678692983571
30
0
41
1
10
41.4407129460605
20
4.96214030993826
30
0
41
1
10
41.8187649021216
20
4.90360893064755
30
0
41
1
10
41.9448478112893
20
4.88300543179378
30
0
41
1
10
42.1971771646995
20
4.83962749136313
30
0
41
1
10
42.3234172331136
20
4.81685252527251
30
0
41
1
10
42.9539689162312
20
4.69780893049443
30
0
41
1
10
43.457228369711
20
4.5858721487198
30
0
41
1
10
44.4634591814194
20
4.33069022509778
30
0
41
1
10
44.9664518114359
20
4.18746567285709
30
0
41
1
10
45.5963540866699
20
3.99031935241689
30
0
41
1
10
45.7223916285156
20
3.94998338761843
30
0
41
1
10
45.9746129650008
20
3.86753350585869
30
0
41
1
10
46.1008519442895
20
3.82540046608162
30
0
41
1
10
46.4792798785893
20
3.69658202864579
30
0
41
1
10
46.73124492061
20
3.60745903814771
30
0
41
1
10
47.4865831486407
20
3.33098643934485
30
0
41
1
10
47.9894116810577
20
3.13454937432982
30
0
41
1
10
48.7441194545987
20
2.82420582813506
30
0
41
1
10
48.9957638732054
20
2.71814000386604
30
0
41
1
10
49.3735422420394
20
2.55543820894036
30
0
41
1
10
49.4995204250547
20
2.50060399339037
30
0
41
1
10
49.751615129494
20
2.38979154399203
30
0
41
1
10
49.877772283922
20
2.33379510331372
30
0
41
1
10
51.0131747730754
20
1.82529489115654
30
0
41
1
10
52.0118485514479
20
1.3460250175365
30
0
41
1
10
53.5061423566058
20
0.610942436890525
30
0
41
1
10
54.0036320098762
20
0.363242708473393
30
0
41
1
10
54.9993655797475
20
-0.133469865602677
30
0
41
1
10
55.4976047293846
20
-0.382493045049244
30
0
41
1
10
56.496945305624
20
-0.877524925368789
30
0
41
1
10
56.9980394093156
20
-1.12354811547689
30
0
41
1
10
57.6274262750403
20
-1.42666073991882
30
0
41
1
10
57.7534888950039
20
-1.48707693351412
30
0
41
1
10
58.0058083080206
20
-1.60732750586425
30
0
41
1
10
58.3840295987551
20
-1.78657084520998
30
0
41
1
10
58.7616341901357
20
-1.96212955991047
30
0
41
1
10
59.5163991192455
20
-2.3076493207528
30
0
41
1
10
60.0189747500125
20
-2.53054383038878
30
0
41
1
10
60.7735659137523
20
-2.85079190563098
30
0
41
1
10
61.0252193410793
20
-2.95519004432401
30
0
41
1
10
61.4030972680675
20
-3.10788914371142
30
0
41
1
10
61.529123359114
20
-3.15813847610838
30
0
41
1
10
61.7813388635621
20
-3.25728467874339
30
0
41
1
10
61.9075237959024
20
-3.30617944423017
30
0
41
1
10
62.5380739062115
20
-3.54682083290621
30
0
41
1
10
63.0419906373944
20
-3.7273526293227
30
0
41
1
10
63.672546314322
20
-3.93613502537465
30
0
41
1
10
63.7987061135159
20
-3.97705140289168
30
0
41
1
10
64.050964452266
20
-4.0570950630937
30
0
41
1
10
64.177080050335
20
-4.09622818304618
30
0
41
1
10
64.5554386776441
20
-4.21089667472819
30
0
41
1
10
64.8077646187001
20
-4.28372053975312
30
0
41
1
10
65.5642329803464
20
-4.49055577370817
30
0
41
1
10
66.0680826896462
20
-4.61300209806907
30
0
41
1
10
66.6987039125616
20
-4.74538759265835
30
0
41
1
10
66.8248493741912
20
-4.77082661060351
30
0
41
1
10
67.0770329366567
20
-4.81956577695513
30
0
41
1
10
67.455224332528
20
-4.88948411076453
30
0
41
1
10
67.8332902356382
20
-4.94974942890744
30
0
41
1
10
68.2114566937351
20
-5.00345629763345
30
0
41
1
10
68.3375291124048
20
-5.02026537865416
30
0
41
1
10
68.5897404814507
20
-5.05167564733048
30
0
41
1
10
68.7158922904242
20
-5.06627753211265
30
0
41
1
10
69.0940850669735
20
-5.10669885389151
30
0
41
1
10
69.3459963856123
20
-5.12915127728823
30
0
41
1
10
70.1014961113623
20
-5.18290920292662
30
0
41
1
10
70.6048651414087
20
-5.20060509190401
30
0
41
1
10
71.1090232188448
20
-5.19996245413358
30
0
0
SPLINE
5
E4
100
AcDbEntity
8
1
62
256
6
ByLayer
370
18
48
1
60
0
100
AcDbSpline
70
4
71
3
72
8
73
4
40
0
40
0
40
0
40
0
40
1
40
1
40
1
40
1
41
1
10
71.1090232188575
20
-5.19996245413364
30
0
41
1
10
71.0875939856474
20
-5.20090553571245
30
0
41
1
10
71.0730134164151
20
-5.18365284088347
30
0
41
1
10
71.0619962202809
20
-5.14850959922927
30
0
0
SPLINE
5
E5
100
AcDbEntity
8
1
62
256
6
ByLayer
370
18
48
1
60
0
100
AcDbSpline
70
4
71
3
72
19
73
15
40
0
40
0
40
0
40
0
40
0.249999999999957
40
0.249999999999957
40
0.374999999999964
40
0.374999999999964
40
0.499999999999971
40
0.499999999999971
40
0.624999999999978
40
0.624999999999978
40
0.749999999999986
40
0.874999999999993
40
0.874999999999993
40
1
40
1
40
1
40
1
41
1
10
3.63878828132889
20
-4.85377212237614
30
0
41
1
10
3.61789354690248
20
-4.8502491321577
30
0
41
1
10
3.59891230881394
20
-4.84581110880688
30
0
41
1
10
3.57323934589564
20
-4.83773218525215
30
0
41
1
10
3.56513311434912
20
-4.83478267312717
30
0
41
1
10
3.55037213315691
20
-4.82855984584035
30
0
41
1
10
3.54364970627225
20
-4.82526857603531
30
0
41
1
10
3.53150961139119
20
-4.81831531640884
30
0
41
1
10
3.52606808753333
20
-4.81463352155035
30
0
41
1
10
3.51666192435363
20
-4.80695749938559
30
0
41
1
10
3.50883134230057
20
-4.79906596208929
30
0
41
1
10
3.50404670620108
20
-4.79073900690921
30
0
41
1
10
3.50082124452425
20
-4.78218301873983
30
0
41
1
10
3.50000000000006
20
-4.77779409369708
30
0
41
1
10
3.50000000000003
20
-4.7733753162712
30
0
0
SPLINE
5
E6
100
AcDbEntity
8
1
62
256
6
ByLayer
370
18
48
1
60
0
100
AcDbSpline
70
4
71
3
72
103
73
99
40
0
40
0
40
0
40
0
40
0.125000000000022
40
0.125000000000022
40
0.187500000000033
40
0.187500000000033
40
0.218750000000037
40
0.218750000000037
40
0.250000000000041
40
0.250000000000041
40
0.312500000000048
40
0.312500000000048
40
0.343750000000052
40
0.343750000000052
40
0.359375000000053
40
0.367187500000054
40
0.369140625000054
40
0.369140625000054
40
0.371093750000055
40
0.371093750000055
40
0.373046875000055
40
0.373046875000055
40
0.375000000000055
40
0.375000000000055
40
0.376953125000055
40
0.376953125000055
40
0.378906250000056
40
0.378906250000056
40
0.379882812500056
40
0.379882812500056
40
0.380859375000056
40
0.380859375000056
40
0.381835937500056
40
0.381835937500056
40
0.382812500000056
40
0.382812500000056
40
0.390625000000055
40
0.390625000000055
40
0.406250000000054
40
0.406250000000054
40
0.43750000000005
40
0.43750000000005
40
0.468750000000046
40
0.468750000000046
40
0.500000000000042
40
0.500000000000042
40
0.531250000000037
40
0.531250000000037
40
0.546875000000036
40
0.546875000000036
40
0.562500000000035
40
0.562500000000035
40
0.593750000000032
40
0.593750000000032
40
0.625000000000029
40
0.625000000000029
40
0.632812500000028
40
0.632812500000028
40
0.640625000000028
40
0.640625000000028
40
0.656250000000026
40
0.656250000000026
40
0.687500000000023
40
0.687500000000023
40
0.695312500000022
40
0.695312500000022
40
0.703125000000021
40
0.703125000000021
40
0.718750000000019
40
0.718750000000019
40
0.750000000000015
40
0.750000000000015
40
0.757812500000014
40
0.757812500000014
40
0.765625000000013
40
0.765625000000013
40
0.781250000000012
40
0.781250000000012
40
0.812500000000009
40
0.812500000000009
40
0.820312500000008
40
0.820312500000008
40
0.828125000000007
40
0.843750000000006
40
0.843750000000006
40
0.875000000000004
40
0.875000000000004
40
0.890625000000003
40
0.890625000000003
40
0.898437500000003
40
0.898437500000003
40
0.906250000000003
40
0.906250000000003
40
0.937500000000002
40
0.937500000000002
40
0.968750000000001
40
0.968750000000001
40
1
40
1
40
1
40
1
41
1
10
8.57393327248465
20
4.90492162152955
30
0
41
1
10
8.14283393718918
20
4.97134752838818
30
0
41
1
10
7.70755421086031
20
5.02168645936493
30
0
41
1
10
7.04559725904502
20
5.07761948636445
30
0
41
1
10
6.82344112206948
20
5.09301835716948
30
0
41
1
10
6.48768365554321
20
5.1119558989607
30
0
41
1
10
6.37534987622033
20
5.11757497462614
30
0
41
1
10
6.15004130772823
20
5.12754336931977
30
0
41
1
10
6.0370371404901
20
5.13189437263037
30
0
41
1
10
5.69692745937346
20
5.14324561538012
30
0
41
1
10
5.46868440422728
20
5.14854482644563
30
0
41
1
10
5.12437146184928
20
5.15387809435106
30
0
41
1
10
5.00925900951111
20
5.1552204335249
30
0
41
1
10
4.8360772390908
20
5.15667794391752
30
0
41
1
10
4.74936840114108
20
5.15726757944481
30
0
41
1
10
4.65523983175129
20
5.15769974227672
30
0
41
1
10
4.61900527497104
20
5.15783437941289
30
0
41
1
10
4.60450894262507
20
5.15788573812591
30
0
41
1
10
4.59726663695108
20
5.15791093594927
30
0
41
1
10
4.58272000029925
20
5.15795318999943
30
0
41
1
10
4.57541017347131
20
5.15796971096293
30
0
41
1
10
4.56066988797906
20
5.15799085557862
30
0
41
1
10
4.55323672060976
20
5.15799529612679
30
0
41
1
10
4.53823120472205
20
5.15799189123695
30
0
41
1
10
4.53060986095571
20
5.15798449363541
30
0
41
1
10
4.51566870421752
20
5.15795515906652
30
0
41
1
10
4.50828898869935
20
5.15793484267982
30
0
41
1
10
4.4974652582836
20
5.15788660378675
30
0
41
1
10
4.49389714070745
20
5.15786758723669
30
0
41
1
10
4.48683025574317
20
5.15782359145749
30
0
41
1
10
4.483345996693
20
5.15779904651023
30
0
41
1
10
4.47660828934542
20
5.15774233461107
30
0
41
1
10
4.47332087879789
20
5.15771074413792
30
0
41
1
10
4.46679404301611
20
5.15764382265331
30
0
41
1
10
4.46353582878527
20
5.15760910159884
30
0
41
1
10
4.43420284048923
20
5.15728694027956
30
0
41
1
10
4.40818880731527
20
5.15692796640568
30
0
41
1
10
4.33033636654895
20
5.15562477837366
30
0
41
1
10
4.27869401225863
20
5.15445459986222
30
0
41
1
10
4.12459146885411
20
5.14996675562256
30
0
41
1
10
4.02289602211869
20
5.14566987379092
30
0
41
1
10
3.82268930156999
20
5.13405787507742
30
0
41
1
10
3.72410391885469
20
5.12674348132279
30
0
41
1
10
3.53039088498292
20
5.10855936211053
30
0
41
1
10
3.43526137854892
20
5.09769194059669
30
0
41
1
10
3.24901665100432
20
5.07169667209661
30
0
41
1
10
3.15789824370529
20
5.05657283029322
30
0
41
1
10
3.02480630865782
20
5.02996772794017
30
0
41
1
10
2.98102001186911
20
5.0204385716531
30
0
41
1
10
2.89486243606487
20
4.9999323850048
30
0
41
1
10
2.8526731598291
20
4.9889990981805
30
0
41
1
10
2.72898589659664
20
4.95396611353158
30
0
41
1
10
2.65035201618912
20
4.92764786999169
30
0
41
1
10
2.50218884679677
20
4.86777079633109
30
0
41
1
10
2.43264760176058
20
4.83422263297823
30
0
41
1
10
2.35272707959555
20
4.78658082134029
30
0
41
1
10
2.33709541717514
20
4.77676518730976
30
0
41
1
10
2.30658007415309
20
4.75652063861207
30
0
41
1
10
2.29173539593862
20
4.74611583826632
30
0
41
1
10
2.24867496141079
20
4.71415280371477
30
0
41
1
10
2.2218533253031
20
4.69179546403558
30
0
41
1
10
2.14741984316163
20
4.62132741248143
30
0
41
1
10
2.1058087717432
20
4.56983949855865
30
0
41
1
10
2.06544018799778
20
4.49877690492406
30
0
41
1
10
2.05795122569825
20
4.48422776052644
30
0
41
1
10
2.04419320018241
20
4.45442320550214
30
0
41
1
10
2.03795445931129
20
4.43922599436152
30
0
41
1
10
2.02127876745922
20
4.39302424056123
30
0
41
1
10
2.0128287056321
20
4.36129753317428
30
0
41
1
10
1.99542462664212
20
4.26332168858184
30
0
41
1
10
1.99440472403097
20
4.19428045709546
30
0
41
1
10
2.00635252981769
20
4.10320836643686
30
0
41
1
10
2.0094041652969
20
4.08475513715379
30
0
41
1
10
2.01683525782451
20
4.04736699745462
30
0
41
1
10
2.02121009080594
20
4.02847148179922
30
0
41
1
10
2.03614462459569
20
3.97164566974882
30
0
41
1
10
2.04854502533718
20
3.93340176531638
30
0
41
1
10
2.09251499069245
20
3.81764857113288
30
0
41
1
10
2.1308296936426
20
3.739120031163
30
0
41
1
10
2.18854111211866
20
3.63941351172937
30
0
41
1
10
2.20058199282977
20
3.61938852902421
30
0
41
1
10
2.22542995524501
20
3.57948061423895
30
0
41
1
10
2.26391532606351
20
3.51971959804922
30
0
41
1
10
2.30582297819549
20
3.46023810979611
30
0
41
1
10
2.39372499935331
20
3.34159864980893
30
0
41
1
10
2.45775458103222
20
3.26293467832738
30
0
41
1
10
2.56053658382797
20
3.14544323795903
30
0
41
1
10
2.59592612440579
20
3.10636422229757
30
0
41
1
10
2.65057134601295
20
3.04786059249685
30
0
41
1
10
2.66904681760994
20
3.02837855933066
30
0
41
1
10
2.70649916307158
20
2.98945109826266
30
0
41
1
10
2.72549378823496
20
2.96998780314269
30
0
41
1
10
2.82145923438301
20
2.87297712932943
30
0
41
1
10
2.90107907063722
20
2.79664459437987
30
0
41
1
10
3.06498012712876
20
2.64606102416306
30
0
41
1
10
3.14926661905685
20
2.5718124889427
30
0
41
1
10
3.32179366872901
20
2.42508050665231
30
0
41
1
10
3.41003709658571
20
2.35259841591684
30
0
41
1
10
3.50000000000003
20
2.28088596261674
30
0
0
SPLINE
5
E7
100
AcDbEntity
8
1
62
256
6
ByLayer
370
18
48
1
60
0
100
AcDbSpline
70
4
71
3
72
38
73
34
40
0
40
0
40
0
40
0
40
0.0625000000000025
40
0.0625000000000025
40
0.125000000000005
40
0.125000000000005
40
0.156250000000005
40
0.156250000000005
40
0.187500000000005
40
0.187500000000005
40
0.250000000000005
40
0.250000000000005
40
0.375000000000006
40
0.375000000000006
40
0.437500000000004
40
0.437500000000004
40
0.500000000000003
40
0.500000000000003
40
0.562500000000002
40
0.562500000000002
40
0.625000000000001
40
0.625000000000001
40
0.6875
40
0.6875
40
0.71875
40
0.71875
40
0.750000000000001
40
0.750000000000001
40
0.812500000000001
40
0.812500000000001
40
0.875000000000001
40
0.875000000000001
40
1
40
1
40
1
40
1
41
1
10
22.8
20
-0.592772826521724
30
0
41
1
10
22.5037585714441
20
-0.446284018655291
30
0
41
1
10
22.2077562771041
20
-0.29903454171972
30
0
41
1
10
21.6155478421115
20
-0.0043898980600261
30
0
41
1
10
21.319362558093
20
0.143046985935001
30
0
41
1
10
20.8746900695004
20
0.363822238309211
30
0
41
1
10
20.7264004907406
20
0.437351351940293
30
0
41
1
10
20.4296425925054
20
0.584187519596185
30
0
41
1
10
20.2811039599329
20
0.657529427430404
30
0
41
1
10
19.8357202232556
20
0.876824682787714
30
0
41
1
10
19.539280817905
20
1.02205396350792
30
0
41
1
10
18.6504132404442
20
1.45287068091841
30
0
41
1
10
18.0584482766125
20
1.7336262075512
30
0
41
1
10
17.1692379393887
20
2.14089436284055
30
0
41
1
10
16.8726315212572
20
2.27443336315474
30
0
41
1
10
16.2786219745624
20
2.53582792783825
30
0
41
1
10
15.9820471119005
20
2.6632799710338
30
0
41
1
10
15.3893698492581
20
2.91108815637497
30
0
41
1
10
15.0932724908834
20
3.03145320958077
30
0
41
1
10
14.5011943304609
20
3.26452194943317
30
0
41
1
10
14.2052465268151
20
3.37727597916916
30
0
41
1
10
13.6130217346849
20
3.59440208874153
30
0
41
1
10
13.3166958229106
20
3.69870308358568
30
0
41
1
10
12.8715922604848
20
3.84832026600262
30
0
41
1
10
12.7230664793969
20
3.89707289241756
30
0
41
1
10
12.4260262571085
20
3.99215214405464
30
0
41
1
10
12.2776230088201
20
4.03844237930761
30
0
41
1
10
11.83269552063
20
4.17349398636486
30
0
41
1
10
11.5364712396303
20
4.25845773715878
30
0
41
1
10
10.9443935374434
20
4.41778247742522
30
0
41
1
10
10.6484725034393
20
4.49206897582991
30
0
41
1
10
9.76043210933094
20
4.6982136714096
30
0
41
1
10
9.1680381475939
20
4.81338732834229
30
0
41
1
10
8.5739249633171
20
4.90492707578804
30
0
0
SPLINE
5
E8
100
AcDbEntity
8
1
62
256
6
ByLayer
370
18
48
1
60
0
100
AcDbSpline
70
4
71
3
72
43
73
39
40
0
40
0
40
0
40
0
40
0.0242341986457278
40
0.0242341986457278
40
0.0484683972914557
40
0.0484683972914557
40
0.0969367945829135
40
0.0969367945829135
40
0.193873589165829
40
0.193873589165829
40
0.290810383748745
40
0.290810383748745
40
0.339278781040204
40
0.339278781040204
40
0.363512979685933
40
0.363512979685933
40
0.387747178331663
40
0.387747178331663
40
0.484683972914584
40
0.484683972914584
40
0.508918171560314
40
0.508918171560314
40
0.533152370206044
40
0.581620767497504
40
0.581620767497504
40
0.678557562080422
40
0.678557562080422
40
0.727025959371882
40
0.727025959371882
40
0.75126015801761
40
0.75126015801761
40
0.775494356663339
40
0.775494356663339
40
0.872431151246257
40
0.872431151246257
40
0.969367945829174
40
0.969367945829174
40
1
40
1
40
1
40
1
41
1
10
22.8
20
-0.369909265107481
30
0
41
1
10
22.9262169410113
20
-0.432538529099702
30
0
41
1
10
23.0524295448691
20
-0.495082078465515
30
0
41
1
10
23.3048853214758
20
-0.619919199189752
30
0
41
1
10
23.4311557520541
20
-0.682224289628635
30
0
41
1
10
23.809888376605
20
-0.86856981690164
30
0
41
1
10
24.0619987920058
20
-0.991914380228678
30
0
41
1
10
24.8175497758832
20
-1.35861729338106
30
0
41
1
10
25.320204020425
20
-1.59865557210873
30
0
41
1
10
26.3254249492628
20
-2.06603953649824
30
0
41
1
10
26.8279907733331
20
-2.29338630190509
30
0
41
1
10
27.5833024924893
20
-2.6219900236056
30
0
41
1
10
27.8353183740278
20
-2.72945271235829
30
0
41
1
10
28.2139139528606
20
-2.88715803791493
30
0
41
1
10
28.3401795766233
20
-2.93913253687847
30
0
41
1
10
28.5925363932305
20
-3.04169485856025
30
0
41
1
10
28.7186752396729
20
-3.09230261897767
30
0
41
1
10
29.3492588778
20
-3.34183750552515
30
0
41
1
10
29.8533868129829
20
-3.53022494058487
30
0
41
1
10
30.4844506033931
20
-3.74963590763792
30
0
41
1
10
30.6107227404989
20
-3.79272050428739
30
0
41
1
10
30.8630291327036
20
-3.87711919456788
30
0
41
1
10
31.2412631573146
20
-4.00110794460622
30
0
41
1
10
31.6189700482995
20
-4.11709330400254
30
0
41
1
10
32.3740919047306
20
-4.33792691065
30
0
41
1
10
32.87713256053
20
-4.47028521265111
30
0
41
1
10
33.6325779619176
20
-4.64494687783881
30
0
41
1
10
33.884541809848
20
-4.69918619206794
30
0
41
1
10
34.2629099497692
20
-4.77436097780148
30
0
41
1
10
34.3891586759952
20
-4.79839834774563
30
0
41
1
10
34.6415262701773
20
-4.84432137685258
30
0
41
1
10
34.7676281643955
20
-4.86620508568782
30
0
41
1
10
35.3978157811437
20
-4.97019025354248
30
0
41
1
10
35.9009530151655
20
-5.03597334644604
30
0
41
1
10
36.9073279256275
20
-5.13183028045358
30
0
41
1
10
37.4105399211628
20
-5.16191132938911
30
0
41
1
10
38.0742336866576
20
-5.17752084063139
30
0
41
1
10
38.2337835031233
20
-5.17944747397354
30
0
41
1
10
38.3932883068075
20
-5.17955072969357
30
0
0
SPLINE
5
E9
100
AcDbEntity
8
1
62
256
6
ByLayer
370
18
48
1
60
0
100
AcDbSpline
70
4
71
3
72
29
73
25
40
0
40
0
40
0
40
0
40
0.0195116737964961
40
0.0195116737964961
40
0.0685360901066697
40
0.0685360901066697
40
0.117560506416844
40
0.117560506416844
40
0.215609339037196
40
0.215609339037196
40
0.411707004277901
40
0.411707004277901
40
0.460731420588079
40
0.460731420588079
40
0.509755836898256
40
0.607804669518611
40
0.607804669518611
40
0.656829085828787
40
0.656829085828787
40
0.705853502138963
40
0.705853502138963
40
0.803902334759308
40
0.803902334759308
40
1
40
1
40
1
40
1
41
1
10
63.3958734628614
20
3.84412179100411
30
0
41
1
10
63.4460561664385
20
3.86100675250705
30
0
41
1
10
63.4962430599749
20
3.87775950482794
30
0
41
1
10
63.6725463143278
20
3.93613502537659
30
0
41
1
10
63.7987061135218
20
3.97705140289358
30
0
41
1
10
64.0509644522719
20
4.05709506309555
30
0
41
1
10
64.177080050341
20
4.09622818304803
30
0
41
1
10
64.5554386776501
20
4.21089667472998
30
0
41
1
10
64.8077646187062
20
4.28372053975485
30
0
41
1
10
65.5642329803526
20
4.49055577370973
30
0
41
1
10
66.0680826896524
20
4.61300209807052
30
0
41
1
10
66.698703912568
20
4.74538759265965
30
0
41
1
10
66.8248493741976
20
4.77082661060476
30
0
41
1
10
67.0770329366631
20
4.81956577695632
30
0
41
1
10
67.4552243325345
20
4.88948411076564
30
0
41
1
10
67.8332902356447
20
4.94974942890843
30
0
41
1
10
68.2114566937416
20
5.00345629763433
30
0
41
1
10
68.3375291124113
20
5.02026537865501
30
0
41
1
10
68.5897404814573
20
5.05167564733125
30
0
41
1
10
68.7158922904308
20
5.06627753211339
30
0
41
1
10
69.0940850669803
20
5.10669885389214
30
0
41
1
10
69.345996385619
20
5.1291512772888
30
0
41
1
10
70.1014961113691
20
5.18290920292694
30
0
41
1
10
70.6048651414157
20
5.20060509190418
30
0
41
1
10
71.1090232188518
20
5.19996245413358
30
0
0
SPLINE
5
EA
100
AcDbEntity
8
1
62
256
6
ByLayer
370
13
48
1
60
0
100
AcDbSpline
70
4
71
3
72
53
73
49
40
0
40
0
40
0
40
0
40
0.0146877233585965
40
0.0146877233585965
40
0.0873991315019074
40
0.0873991315019074
40
0.123754835573563
40
0.141932687609391
40
0.141932687609391
40
0.160110539645219
40
0.160110539645219
40
0.196466243716875
40
0.196466243716875
40
0.23282194778853
40
0.23282194778853
40
0.305533355931844
40
0.305533355931844
40
0.3418890600035
40
0.3418890600035
40
0.378244764075156
40
0.378244764075156
40
0.450956172218466
40
0.450956172218466
40
0.487311876290122
40
0.487311876290122
40
0.523667580361778
40
0.523667580361778
40
0.596378988505089
40
0.596378988505089
40
0.632734692576746
40
0.632734692576746
40
0.669090396648403
40
0.669090396648403
40
0.705446100720059
40
0.705446100720059
40
0.723623952755888
40
0.723623952755888
40
0.741801804791716
40
0.741801804791716
40
0.778157508863375
40
0.778157508863375
40
0.814513212935034
40
0.814513212935034
40
0.887224621078351
40
0.887224621078351
40
0.959936029221669
40
0.959936029221669
40
1
40
1
40
1
40
1
41
1
10
19.3337661737765
20
2.03652751812393
30
0
41
1
10
19.4045001374981
20
2.00614422235756
30
0
41
1
10
19.4752562278985
20
1.97560810018268
30
0
41
1
10
19.8964376258487
20
1.7930241547356
30
0
41
1
10
20.2474706163584
20
1.63759817627826
30
0
41
1
10
20.7754320624498
20
1.39999790045926
30
0
41
1
10
21.0397603385981
20
1.28006318612228
30
0
41
1
10
21.3047022466193
20
1.15860301777641
30
0
41
1
10
21.4814769943546
20
1.07731002063358
30
0
41
1
10
21.5699897808836
20
1.03647917145528
30
0
41
1
10
21.8353169411103
20
0.913747467648506
30
0
41
1
10
22.0118908268832
20
0.831626871688485
30
0
41
1
10
22.3645381727992
20
0.667042293330184
30
0
41
1
10
22.5406070194764
20
0.584569833566576
30
0
41
1
10
23.0681130399616
20
0.336767188285734
30
0
41
1
10
23.4188588702177
20
0.171068497551118
30
0
41
1
10
23.9440761749605
20
-0.0771659398794213
30
0
41
1
10
24.119001953629
20
-0.159852587688221
30
0
41
1
10
24.4686746734332
20
-0.324875096319062
30
0
41
1
10
24.6434172605522
20
-0.407218352274185
30
0
41
1
10
25.167429523994
20
-0.653583507672494
30
0
41
1
10
25.5164908387889
20
-0.816928880370654
30
0
41
1
10
26.0401359036179
20
-1.05957552526471
30
0
41
1
10
26.2146962155884
20
-1.14005815234754
30
0
41
1
10
26.5639520402936
20
-1.30000463065835
30
0
41
1
10
26.7386441256626
20
-1.37947338877828
30
0
41
1
10
27.2629834135406
20
-1.61619196510873
30
0
41
1
10
27.6128986267026
20
-1.77174782459491
30
0
41
1
10
28.1387925149886
20
-2.00065327062674
30
0
41
1
10
28.3142625848555
20
-2.07621530707149
30
0
41
1
10
28.6656491281671
20
-2.22566522482643
30
0
41
1
10
28.8415632478469
20
-2.29955523298361
30
0
41
1
10
29.1938854428729
20
-2.44553416649555
30
0
41
1
10
29.370295103265
20
-2.51762136606348
30
0
41
1
10
29.6353515253087
20
-2.62425665369798
30
0
41
1
10
29.7238193189965
20
-2.6595690205792
30
0
41
1
10
29.9007141168253
20
-2.7295916969756
30
0
41
1
10
29.9890834162642
20
-2.76427939834917
30
0
41
1
10
30.2539767991655
20
-2.86734480261649
30
0
41
1
10
30.4302883609327
20
-2.93472794197666
30
0
41
1
10
30.7824551583163
20
-3.06673447665568
30
0
41
1
10
30.9583044431678
20
-3.13135550164543
30
0
41
1
10
31.4851881925436
20
-3.32091050330106
30
0
41
1
10
31.8355738215786
20
-3.44154081623725
30
0
41
1
10
32.5353325300464
20
-3.67036029617304
30
0
41
1
10
32.8847417538575
20
-3.7785928098734
30
0
41
1
10
33.426385634909
20
-3.93621500625676
30
0
41
1
10
33.6187438262057
20
-3.99019730579133
30
0
41
1
10
33.8110965193257
20
-4.04210248637537
30
0
0
SPLINE
5
EB
100
AcDbEntity
8
1
62
256
6
ByLayer
370
18
48
1
60
0
100
AcDbSpline
70
4
71
3
72
24
73
20
40
0
40
0
40
0
40
0
40
0.0755002917914188
40
0.0755002917914188
40
0.243652311624576
40
0.243652311624576
40
0.411804331457731
40
0.411804331457731
40
0.579956351290887
40
0.579956351290887
40
0.621994356249177
40
0.621994356249177
40
0.664032361207466
40
0.664032361207466
40
0.748108371124044
40
0.748108371124044
40
0.916260390957206
40
0.916260390957206
40
1
40
1
40
1
40
1
41
1
10
33.811096519661
20
-4.04210248646581
30
0
41
1
10
33.9678414047571
20
-4.08439912101872
30
0
41
1
10
34.124582638878
20
-4.12531647829536
30
0
41
1
10
34.6305024437654
20
-4.25280187224314
30
0
41
1
10
34.9798010542566
20
-4.33380387022044
30
0
41
1
10
35.679299164686
20
-4.48104264348552
30
0
41
1
10
36.0294879542472
20
-4.54723792563686
30
0
41
1
10
36.731402852805
20
-4.6641393224769
30
0
41
1
10
37.083138803359
20
-4.71489728393846
30
0
41
1
10
37.5241887167922
20
-4.76823554939435
30
0
41
1
10
37.6124675342836
20
-4.77839667765448
30
0
41
1
10
37.7891728475002
20
-4.79769292761068
30
0
41
1
10
37.877630881672
20
-4.80683069420351
30
0
41
1
10
38.1429954161795
20
-4.83266415367939
30
0
41
1
10
38.3198177399886
20
-4.84777679785478
30
0
41
1
10
38.8501610558654
20
-4.88678904687811
30
0
41
1
10
39.2035675392833
20
-4.90439743743349
30
0
41
1
10
39.7332422412856
20
-4.9180101644904
30
0
41
1
10
39.9093722373222
20
-4.9204151709674
30
0
41
1
10
40.085584405265
20
-4.92068140598604
30
0
0
SPLINE
5
EC
100
AcDbEntity
8
1
62
256
6
ByLayer
370
13
48
1
60
0
100
AcDbSpline
70
4
71
3
72
33
73
29
40
0
40
0
40
0
40
0
40
0.021921840085034
40
0.021921840085034
40
0.128338782491555
40
0.181547253694816
40
0.181547253694816
40
0.234755724898076
40
0.234755724898076
40
0.341172667304594
40
0.341172667304594
40
0.394381138507853
40
0.394381138507853
40
0.420985374109481
40
0.420985374109481
40
0.447589609711109
40
0.447589609711109
40
0.55400655211761
40
0.55400655211761
40
0.660423494524111
40
0.660423494524111
40
0.766840436930612
40
0.766840436930612
40
0.873257379337113
40
0.873257379337113
40
0.979674321743613
40
0.979674321743613
40
1
40
1
40
1
40
1
41
1
10
41.8769342128491
20
-4.92818859344311
30
0
41
1
10
41.8046695247019
20
-4.93482494904663
30
0
41
1
10
41.7323743996026
20
-4.94110557140721
30
0
41
1
10
41.3089355078716
20
-4.97577809280773
30
0
41
1
10
40.7811192214934
20
-5.00629158177685
30
0
41
1
10
40.2507883482543
20
-5.01744079546728
30
0
41
1
10
39.8965775006165
20
-5.02049170455498
30
0
41
1
10
39.7195316518912
20
-5.01981523002087
30
0
41
1
10
39.1885730651263
20
-5.01121910491639
30
0
41
1
10
38.834802574012
20
-4.99675960690757
30
0
41
1
10
38.3039286131422
20
-4.96214936786117
30
0
41
1
10
38.1269306135922
20
-4.94845142139673
30
0
41
1
10
37.8612981816693
20
-4.92466213933778
30
0
41
1
10
37.7727271770778
20
-4.91619072914452
30
0
41
1
10
37.5958076254611
20
-4.8981987054193
30
0
41
1
10
37.5074244567392
20
-4.88867557059368
30
0
41
1
10
37.0658672476285
20
-4.83845533694321
30
0
41
1
10
36.7137778315852
20
-4.78995296610782
30
0
41
1
10
36.0112415526517
20
-4.67708527015597
30
0
41
1
10
35.6607723136972
20
-4.61268393446289
30
0
41
1
10
34.9607457326476
20
-4.46857931372674
30
0
41
1
10
34.6112124750589
20
-4.38889924115915
30
0
41
1
10
33.9124760332822
20
-4.21508730109284
30
0
41
1
10
33.5632529197311
20
-4.12093757991693
30
0
41
1
10
32.864377370057
20
-3.91891145482597
30
0
41
1
10
32.5147610163584
20
-3.8110309636628
30
0
41
1
10
32.0978028700154
20
-3.67488000934443
30
0
41
1
10
32.0309162434855
20
-3.65281004161486
30
0
41
1
10
31.9640078703078
20
-3.63050788104727
30
0
0
SPLINE
5
ED
100
AcDbEntity
8
1
62
256
6
ByLayer
370
18
48
1
60
0
100
AcDbSpline
70
4
71
3
72
36
73
32
40
0
40
0
40
0
40
0
40
0.101175534162275
40
0.101175534162275
40
0.163706797326427
40
0.163706797326427
40
0.226238060490578
40
0.226238060490578
40
0.257503692072653
40
0.257503692072653
40
0.288769323654727
40
0.288769323654727
40
0.351300586818874
40
0.351300586818874
40
0.413831849983022
40
0.413831849983022
40
0.47636311314717
40
0.47636311314717
40
0.601425639475466
40
0.601425639475466
40
0.663956902639614
40
0.663956902639614
40
0.726488165803762
40
0.726488165803762
40
0.851550692132054
40
0.851550692132054
40
0.914081955296202
40
0.914081955296202
40
0.97661321846035
40
0.97661321846035
40
1
40
1
40
1
40
1
41
1
10
31.964007870504
20
-3.63050788111264
30
0
41
1
10
31.6806113531648
20
-3.53604504583959
30
0
41
1
10
31.3968246958998
20
-3.43741661697388
30
0
41
1
10
30.9366959635253
20
-3.27149490284864
30
0
41
1
10
30.7607116265758
20
-3.20662209599672
30
0
41
1
10
30.4082690707294
20
-3.07395709479286
30
0
41
1
10
30.2318184101019
20
-3.00616494168077
30
0
41
1
10
29.9667005947495
20
-2.90239581400175
30
0
41
1
10
29.8782536275425
20
-2.86745884504319
30
0
41
1
10
29.7011977855727
20
-2.79690627703928
30
0
41
1
10
29.6126145003993
20
-2.76130067907448
30
0
41
1
10
29.3472490982866
20
-2.65375873913726
30
0
41
1
10
29.1706436558287
20
-2.58101507102956
30
0
41
1
10
28.8179481911277
20
-2.43361956163136
30
0
41
1
10
28.6418561097417
20
-2.35897018604174
30
0
41
1
10
28.2901445357173
20
-2.20786795287822
30
0
41
1
10
28.1145287070975
20
-2.13141081411649
30
0
41
1
10
27.5882101614012
20
-1.89968297533804
30
0
41
1
10
27.2380279055359
20
-1.74206152213017
30
0
41
1
10
26.7133123053253
20
-1.50195029022984
30
0
41
1
10
26.5384983695188
20
-1.4213025118182
30
0
41
1
10
26.189015939312
20
-1.25887672783261
30
0
41
1
10
26.0143521665063
20
-1.17709148826717
30
0
41
1
10
25.4903935133393
20
-0.930409517196409
30
0
41
1
10
25.1411170218882
20
-0.764205192347305
30
0
41
1
10
24.6167756266898
20
-0.513274046334317
30
0
41
1
10
24.4419219887197
20
-0.429363131410696
30
0
41
1
10
24.092030702256
20
-0.261095953205171
30
0
41
1
10
23.9169984994079
20
-0.176730237169863
30
0
41
1
10
23.6762939200198
20
-0.0606775362929284
30
0
41
1
10
23.6107524652281
20
-0.0290754292159932
30
0
41
1
10
23.5451869277971
20
0.0025348835839338
30
0
0
SPLINE
5
EE
100
AcDbEntity
8
1
62
256
6
ByLayer
370
18
48
1
60
0
100
AcDbSpline
70
4
71
3
72
95
73
91
40
0
40
0
40
0
40
0
40
0.0117965339705039
40
0.0117965339705039
40
0.0265054447876401
40
0.0265054447876401
40
0.0338599001962077
40
0.0338599001962077
40
0.0412143556047753
40
0.100049998873316
40
0.100049998873316
40
0.129467820507586
40
0.129467820507586
40
0.136822275916154
40
0.136822275916154
40
0.144176731324721
40
0.144176731324721
40
0.158885642141856
40
0.158885642141856
40
0.217721285410397
40
0.217721285410397
40
0.247139107044668
40
0.247139107044668
40
0.261848017861804
40
0.261848017861804
40
0.276556928678938
40
0.276556928678938
40
0.305974750313208
40
0.305974750313208
40
0.335392571947477
40
0.335392571947477
40
0.350101482764612
40
0.350101482764612
40
0.357455938173178
40
0.357455938173178
40
0.364810393581745
40
0.394228215216015
40
0.394228215216015
40
0.408937126033151
40
0.408937126033151
40
0.423646036850286
40
0.423646036850286
40
0.453063858484555
40
0.453063858484555
40
0.46777276930169
40
0.46777276930169
40
0.482481680118825
40
0.482481680118825
40
0.511899501753095
40
0.511899501753095
40
0.541317323387366
40
0.541317323387366
40
0.570735145021636
40
0.570735145021636
40
0.585444055838772
40
0.585444055838772
40
0.600152966655907
40
0.600152966655907
40
0.62957078829018
40
0.62957078829018
40
0.658988609924452
40
0.658988609924452
40
0.673697520741587
40
0.681051976150155
40
0.681051976150155
40
0.688406431558723
40
0.688406431558723
40
0.717824253192993
40
0.717824253192993
40
0.747242074827263
40
0.747242074827263
40
0.776659896461533
40
0.776659896461533
40
0.806077718095803
40
0.806077718095803
40
0.835495539730073
40
0.835495539730073
40
0.864913361364343
40
0.864913361364343
40
0.894331182998613
40
0.894331182998613
40
0.901685638407181
40
0.901685638407181
40
0.909040093815748
40
0.909040093815748
40
0.923749004632883
40
0.923749004632883
40
0.982584647901421
40
0.982584647901421
40
1
40
1
40
1
40
1
41
1
10
43.0539320082214
20
-4.94197577949649
30
0
41
1
10
42.9132345226419
20
-4.96301784836578
30
0
41
1
10
42.7723859888259
20
-4.98272313959896
30
0
41
1
10
42.4555217361892
20
-5.02394181329333
30
0
41
1
10
42.2794081266456
20
-5.04470071102705
30
0
41
1
10
42.0147600836309
20
-5.07260316391853
30
0
41
1
10
41.9264234644064
20
-5.08136827195992
30
0
41
1
10
41.7498467768337
20
-5.09778584770263
30
0
41
1
10
40.9556092434824
20
-5.16667676548522
30
0
41
1
10
40.164144046631
20
-5.19054667541096
30
0
41
1
10
39.1077009982269
20
-5.16884844972657
30
0
41
1
10
38.7553931585458
20
-5.15269889207323
30
0
41
1
10
38.3143406798039
20
-5.12137631585904
30
0
41
1
10
38.2260961170351
20
-5.1145553458293
30
0
41
1
10
38.0495261267933
20
-5.0998019269972
30
0
41
1
10
37.9611829225289
20
-5.09186747619253
30
0
41
1
10
37.6963341136137
20
-5.06643220644426
30
0
41
1
10
37.5199153484329
20
-5.04729280277476
30
0
41
1
10
36.6383591539311
20
-4.94082340957692
30
0
41
1
10
35.9349123533497
20
-4.821091735914
30
0
41
1
10
34.8778678302325
20
-4.592942096733
30
0
41
1
10
34.5252421538419
20
-4.50877955682776
30
0
41
1
10
33.9953446920962
20
-4.37078531926605
30
0
41
1
10
33.818776795743
20
-4.322890291081
30
0
41
1
10
33.4659730831408
20
-4.2235224183417
30
0
41
1
10
33.2896887080106
20
-4.17203654959516
30
0
41
1
10
32.7610601307305
20
-4.01234647091471
30
0
41
1
10
32.4089796427334
20
-3.89885981654683
30
0
41
1
10
31.7047475610818
20
-3.65882626419449
30
0
41
1
10
31.3525685868771
20
-3.53231664224782
30
0
41
1
10
30.8236297114886
20
-3.33363547798453
30
0
41
1
10
30.6472080990873
20
-3.26591880956175
30
0
41
1
10
30.3823855184276
20
-3.16213954607221
30
0
41
1
10
30.2940529889047
20
-3.1271700722296
30
0
41
1
10
30.1174212673165
20
-3.05656921504615
30
0
41
1
10
29.6762561543336
20
-2.87854749901109
30
0
41
1
10
29.2369742847385
20
-2.69328125988918
30
0
41
1
10
28.7110664105631
20
-2.46512891268407
30
0
41
1
10
28.5359720347448
20
-2.38810050739218
30
0
41
1
10
28.1861573011713
20
-2.23217447604128
30
0
41
1
10
28.0114326272925
20
-2.1532845215973
30
0
41
1
10
27.4876030612261
20
-1.91422811436064
30
0
41
1
10
27.1388519945773
20
-1.75165834266204
30
0
41
1
10
26.6159509651016
20
-1.50395454328685
30
0
41
1
10
26.4416897154898
20
-1.42074227101011
30
0
41
1
10
26.0931966198914
20
-1.25312485265957
30
0
41
1
10
25.9189615254552
20
-1.16872576591197
30
0
41
1
10
25.3960836984162
20
-0.914169928461519
30
0
41
1
10
25.0472768802454
20
-0.742638714113468
30
0
41
1
10
24.3485916539146
20
-0.397185374129322
30
0
41
1
10
23.99875929489
20
-0.223166595022065
30
0
41
1
10
23.297329129206
20
0.125867719634272
30
0
41
1
10
22.945700567267
20
0.300816555385495
30
0
41
1
10
22.4163945113095
20
0.562883914281457
30
0
41
1
10
22.2395526259824
20
0.650229469568842
30
0
41
1
10
21.8864731841528
20
0.824051159180414
30
0
41
1
10
21.7100876610511
20
0.910592655659315
30
0
41
1
10
21.1811882892906
20
1.16870396312083
30
0
41
1
10
20.8289404944666
20
1.33877958742062
30
0
41
1
10
20.1244945044307
20
1.67367488154329
30
0
41
1
10
19.7723346348038
20
1.83856728021735
30
0
41
1
10
19.2435947307339
20
2.08092594217212
30
0
41
1
10
18.9790929934607
20
2.20084805528455
30
0
41
1
10
18.7142935511728
20
2.3186941594731
30
0
41
1
10
18.5376831728033
20
2.39677555985827
30
0
41
1
10
18.4493011366282
20
2.43559144977405
30
0
41
1
10
18.0076571131719
20
2.62819952510549
30
0
41
1
10
17.6556240811085
20
2.77739727832647
30
0
41
1
10
16.9534659311453
20
3.06506822508132
30
0
41
1
10
16.6033343020939
20
3.20352597703953
30
0
41
1
10
15.904185337794
20
3.46856178380472
30
0
41
1
10
15.5551756786569
20
3.59515630308746
30
0
41
1
10
14.857668636213
20
3.83565958994609
30
0
41
1
10
14.5091639775005
20
3.94955421267724
30
0
41
1
10
13.8119002485868
20
4.16363210870054
30
0
41
1
10
13.4631478457151
20
4.26382734798207
30
0
41
1
10
12.7647783133398
20
4.44972203275356
30
0
41
1
10
12.4151544726248
20
4.5354105903927
30
0
41
1
10
11.7142729762398
20
4.69134997551919
30
0
41
1
10
11.3630205321124
20
4.76160886589255
30
0
41
1
10
10.9225291387526
20
4.8392940757663
30
0
41
1
10
10.8343593059544
20
4.85432395979311
30
0
41
1
10
10.6578644824993
20
4.88335564580942
30
0
41
1
10
10.5695012243209
20
4.89736323318925
30
0
41
1
10
10.3044270853808
20
4.93778322992702
30
0
41
1
10
10.1280001950031
20
4.96255367460674
30
0
41
1
10
9.2470763389064
20
5.07549146880629
30
0
41
1
10
8.54627600303402
20
5.13091540956071
30
0
41
1
10
7.63935849173006
20
5.1572538390848
30
0
41
1
10
7.4323122868874
20
5.16019834987506
30
0
41
1
10
7.22529462444405
20
5.1600730189752
30
0
0
SPLINE
5
EF
100
AcDbEntity
8
1
62
256
6
ByLayer
370
18
48
1
60
0
100
AcDbSpline
70
4
71
3
72
16
73
12
40
0
40
0
40
0
40
0
40
0.293599509151195
40
0.293599509151195
40
0.44039926372679
40
0.44039926372679
40
0.587199018302385
40
0.587199018302385
40
0.880798527453576
40
0.880798527453576
40
1
40
1
40
1
40
1
41
1
10
3.75032536103254
20
-4.58997184434631
30
0
41
1
10
4.1043101369915
20
-4.64859966832472
30
0
41
1
10
4.4581156344733
20
-4.6990398622425
30
0
41
1
10
4.98898888059361
20
-4.76229737903077
30
0
41
1
10
5.16599591050823
20
-4.78131662725096
30
0
41
1
10
5.52005774626701
20
-4.81517539898425
30
0
41
1
10
5.69677079774209
20
-4.82998190105718
30
0
41
1
10
6.22608360199706
20
-4.86806548432781
30
0
41
1
10
6.57786390339919
20
-4.88502204608204
30
0
41
1
10
7.07148141015412
20
-4.8971751186096
30
0
41
1
10
7.21390298793898
20
-4.89930340911653
30
0
41
1
10
7.35622454351022
20
-4.9000514617712
30
0
0
SPLINE
5
F0
100
AcDbEntity
8
1
62
256
6
ByLayer
370
13
48
1
60
0
100
AcDbSpline
70
4
71
3
72
39
73
35
40
0
40
0
40
0
40
0
40
0.0054745808947918
40
0.0054745808947918
40
0.153436405020928
40
0.153436405020928
40
0.227417317083997
40
0.227417317083997
40
0.264407773115532
40
0.2829030011313
40
0.2829030011313
40
0.301398229147068
40
0.301398229147068
40
0.37537914121014
40
0.37537914121014
40
0.449360053273211
40
0.449360053273211
40
0.597321877399356
40
0.597321877399356
40
0.671302789462429
40
0.671302789462429
40
0.745283701525502
40
0.745283701525502
40
0.819264613588575
40
0.819264613588575
40
0.856255069620112
40
0.856255069620112
40
0.874750297635882
40
0.874750297635882
40
0.893245525651652
40
0.893245525651652
40
0.967226437714727
40
0.967226437714727
40
1
40
1
40
1
40
1
41
1
10
52.1072939764948
20
1.99125533655285
30
0
41
1
10
52.133120046761
20
1.9800597880818
30
0
41
1
10
52.15894585752
20
1.96884584382931
30
0
41
1
10
52.8827637090392
20
1.65404362973567
30
0
41
1
10
53.5806972629439
20
1.33714529712819
30
0
41
1
10
54.6312573857905
20
0.849553455621816
30
0
41
1
10
54.9820730478972
20
0.685016726408577
30
0
41
1
10
55.5097043123642
20
0.436135152601366
30
0
41
1
10
55.7738716075204
20
0.311177502302513
30
0
41
1
10
56.038658932971
20
0.185641194970088
30
0
41
1
10
56.2153322161127
20
0.101843786729489
30
0
41
1
10
56.3037920845255
20
0.0598682088532598
30
0
41
1
10
56.7455935154299
20
-0.149792180798983
30
0
41
1
10
57.0978113913721
20
-0.3169662355931
30
0
41
1
10
57.8004791435368
20
-0.648777909708713
30
0
41
1
10
58.1509444476747
20
-0.813395200233174
30
0
41
1
10
59.2005721537394
20
-1.301640870759
30
0
41
1
10
59.8979734522947
20
-1.61965246869369
30
0
41
1
10
60.944407684703
20
-2.07751397048685
30
0
41
1
10
61.2933180976701
20
-2.22688100291822
30
0
41
1
10
61.991911261686
20
-2.51790428653624
30
0
41
1
10
62.3415995706257
20
-2.65955980165256
30
0
41
1
10
63.0424019525208
20
-2.93391817956103
30
0
41
1
10
63.3935116054467
20
-3.06662746100426
30
0
41
1
10
63.9217098038749
20
-3.25806434333779
30
0
41
1
10
64.0980330450633
20
-3.32060336773554
30
0
41
1
10
64.3629708766142
20
-3.41237420915098
30
0
41
1
10
64.4514044004156
20
-3.44264004800527
30
0
41
1
10
64.6281434656435
20
-3.50237342148665
30
0
41
1
10
64.7164569070526
20
-3.53184389370955
30
0
41
1
10
65.1577682972145
20
-3.67718614381854
30
0
41
1
10
65.5099974571239
20
-3.78703009203542
30
0
41
1
10
66.0175209839958
20
-3.93573392268627
30
0
41
1
10
66.1732305023606
20
-3.98004969581811
30
0
41
1
10
66.3288711817743
20
-4.02299394803171
30
0
0
SPLINE
5
F1
100
AcDbEntity
8
1
62
256
6
ByLayer
370
18
48
1
60
0
100
AcDbSpline
70
4
71
3
72
21
73
17
40
0
40
0
40
0
40
0
40
0.122229489531869
40
0.122229489531869
40
0.341672117148901
40
0.341672117148901
40
0.561114744765932
40
0.561114744765932
40
0.780557372382962
40
0.780557372382962
40
0.890278686191481
40
0.890278686191481
40
0.94513934309574
40
0.972569671547871
40
0.972569671547871
40
1
40
1
40
1
40
1
41
1
10
66.3288711815018
20
-4.02299394795654
30
0
41
1
10
66.5245636687393
20
-4.07698926306435
30
0
41
1
10
66.7201473290625
20
-4.12881635238054
30
0
41
1
10
67.2667372237814
20
-4.26743325169565
30
0
41
1
10
67.6176865839477
20
-4.34929133930706
30
0
41
1
10
68.3198679479086
20
-4.49797511291945
30
0
41
1
10
68.6711047051031
20
-4.56480248889483
30
0
41
1
10
69.3746100712608
20
-4.68274137465275
30
0
41
1
10
69.7268735603263
20
-4.733851387306
30
0
41
1
10
70.2564812383186
20
-4.79822491807215
30
0
41
1
10
70.4333098326491
20
-4.81764312300328
30
0
41
1
10
70.6984356357007
20
-4.84360302236036
30
0
41
1
10
70.8309822881809
20
-4.85579359702115
30
0
41
1
10
70.9635150510552
20
-4.86679583280539
30
0
41
1
10
71.0518682856951
20
-4.87386610463395
30
0
41
1
10
71.0960334762043
20
-4.87723168038048
30
0
41
1
10
71.1402453471322
20
-4.88055285711496
30
0
0
SPLINE
5
F2
100
AcDbEntity
8
1
62
256
6
ByLayer
370
18
48
1
60
0
100
AcDbSpline
70
4
71
3
72
26
73
22
40
0
40
0
40
0
40
0
40
0.124999999999977
40
0.124999999999977
40
0.249999999999953
40
0.249999999999953
40
0.37499999999993
40
0.37499999999993
40
0.437499999999937
40
0.437499999999937
40
0.499999999999944
40
0.499999999999944
40
0.624999999999914
40
0.624999999999914
40
0.687499999999928
40
0.687499999999928
40
0.749999999999943
40
0.749999999999943
40
0.874999999999971
40
0.874999999999971
40
1
40
1
40
1
40
1
41
1
10
71.1402453471312
20
-4.88055285711491
30
0
41
1
10
71.1406590771686
20
-4.88160588509888
30
0
41
1
10
71.1409005271424
20
-4.88316474108927
30
0
41
1
10
71.1410150818075
20
-4.88735115929791
30
0
41
1
10
71.1408855899932
20
-4.89000569058507
30
0
41
1
10
71.1402059888603
20
-4.8964353647232
30
0
41
1
10
71.1396646812779
20
-4.90015056827519
30
0
41
1
10
71.1385288817108
20
-4.90652509092834
30
0
41
1
10
71.1380959758546
20
-4.9087844177977
30
0
41
1
10
71.137112847349
20
-4.91359380813506
30
0
41
1
10
71.1365599101057
20
-4.91615388283893
30
0
41
1
10
71.1347673843768
20
-4.92405788695754
30
0
41
1
10
71.1333824219959
20
-4.9296908381084
30
0
41
1
10
71.1310128545336
20
-4.93870580536216
30
0
41
1
10
71.1301673712847
20
-4.94182884292138
30
0
41
1
10
71.1284193713584
20
-4.9481119065826
30
0
41
1
10
71.1275149326704
20
-4.95128066568734
30
0
41
1
10
71.1247148380462
20
-4.96086590563951
30
0
41
1
10
71.1227080925085
20
-4.96743808971289
30
0
41
1
10
71.1186103345439
20
-4.98035432699521
30
0
41
1
10
71.1165246860543
20
-4.98668911938123
30
0
41
1
10
71.1144077940739
20
-4.99291041401031
30
0
0
SPLINE
5
F3
100
AcDbEntity
8
1
62
256
6
ByLayer
370
18
48
1
60
0
100
AcDbSpline
70
4
71
3
72
8
73
4
40
0
40
0
40
0
40
0
40
1
40
1
40
1
40
1
41
1
10
71.1144077940739
20
-4.99291041401028
30
0
41
1
10
71.0967599854622
20
-5.04477523183908
30
0
41
1
10
71.0792873815822
20
-5.09663984868575
30
0
41
1
10
71.0619962202764
20
-5.1485095992436
30
0
0
SPLINE
5
F4
100
AcDbEntity
8
1
62
256
6
ByLayer
370
13
48
1
60
0
100
AcDbSpline
70
4
71
3
72
22
73
18
40
0
40
0
40
0
40
0
40
0.0202134529741493
40
0.0202134529741493
40
0.0404269059482998
40
0.080853811896603
40
0.161707623793218
40
0.161707623793218
40
0.323415247586444
40
0.323415247586444
40
0.485122871379671
40
0.485122871379671
40
0.646830495172898
40
0.646830495172898
40
0.970245742759351
40
0.970245742759351
40
1
40
1
40
1
40
1
41
1
10
71.1144077940739
20
-4.99291041401031
30
0
41
1
10
71.0704947368123
20
-4.98990988169925
30
0
41
1
10
71.0265797108625
20
-4.98691718540604
30
0
41
1
10
70.9387826860541
20
-4.98057957043278
30
0
41
1
10
70.8071232842595
20
-4.97067445402294
30
0
41
1
10
70.5001585951872
20
-4.94478156521518
30
0
41
1
10
70.2374158632398
20
-4.91785417983849
30
0
41
1
10
69.7123078333567
20
-4.85777726230464
30
0
41
1
10
69.3627384393289
20
-4.80942501510629
30
0
41
1
10
68.6640240293305
20
-4.69667303823033
30
0
41
1
10
68.3148855829444
20
-4.63227332976996
30
0
41
1
10
67.6163062249416
20
-4.48802851782466
30
0
41
1
10
67.2668564359156
20
-4.40817796777552
30
0
41
1
10
66.2173294213707
20
-4.14625385158635
30
0
41
1
10
65.5157745607981
20
-3.94175323036652
30
0
41
1
10
64.7446316781394
20
-3.68881916534812
30
0
41
1
10
64.6796247505155
20
-3.66727966044013
30
0
41
1
10
64.6145770274016
20
-3.64551215944306
30
0
0
SPLINE
5
F5
100
AcDbEntity
8
1
62
256
6
ByLayer
370
18
48
1
60
0
100
AcDbSpline
70
4
71
3
72
26
73
22
40
0
40
0
40
0
40
0
40
0.0082935090854918
40
0.0082935090854918
40
0.0397084389684806
40
0.0397084389684806
40
0.102538298734457
40
0.102538298734457
40
0.228198018266416
40
0.228198018266416
40
0.353857737798375
40
0.353857737798375
40
0.479517457330333
40
0.479517457330333
40
0.730836896394254
40
0.730836896394254
40
0.856496615926217
40
0.856496615926217
40
0.982156335458179
40
0.982156335458179
40
1
40
1
40
1
40
1
41
1
10
64.6145771111109
20
-3.64551218745544
30
0
41
1
10
64.5912449095279
20
-3.63770432435715
30
0
41
1
10
64.5679074591527
20
-3.62986712703238
30
0
41
1
10
64.456144644655
20
-3.59220345513762
30
0
41
1
10
64.367601230451
20
-3.56197024189476
30
0
41
1
10
64.1023046893515
20
-3.47023480895822
30
0
41
1
10
63.925756754078
20
-3.40765533357029
30
0
41
1
10
63.3969231961578
20
-3.21590886997239
30
0
41
1
10
63.0454412998688
20
-3.08274292128402
30
0
41
1
10
62.343971859293
20
-2.80698394478418
30
0
41
1
10
61.9939881623491
20
-2.66438504985368
30
0
41
1
10
61.2948677755105
20
-2.37098884699276
30
0
41
1
10
60.9457272764093
20
-2.22018875038572
30
0
41
1
10
59.8986650420273
20
-1.75728405609036
30
0
41
1
10
59.2008839305026
20
-1.43500297911427
30
0
41
1
10
58.1506389205269
20
-0.939033850621172
30
0
41
1
10
57.7999585682459
20
-0.771624829821832
30
0
41
1
10
57.0968474938201
20
-0.433746988586904
30
0
41
1
10
56.7444069652197
20
-0.263286873077845
30
0
41
1
10
56.3404773294652
20
-0.0677599182614586
30
0
41
1
10
56.2902096979479
20
-0.04342486696072
30
0
41
1
10
56.2399430026909
20
-0.0190906400030428
30
0
0
SPLINE
5
F6
100
AcDbEntity
8
1
62
256
6
ByLayer
370
13
48
1
60
0
100
AcDbSpline
70
4
71
3
72
20
73
16
40
0
40
0
40
0
40
0
40
0.0933816138828914
40
0.0933816138828914
40
0.274705291106313
40
0.274705291106313
40
0.456028968329734
40
0.456028968329734
40
0.637352645553155
40
0.637352645553155
40
0.728014484164868
40
0.728014484164868
40
0.818676322776579
40
0.818676322776579
40
1
40
1
40
1
40
1
41
1
10
9.53023837192012
20
-4.87832328681088
30
0
41
1
10
9.35022211987965
20
-4.89726275991157
30
0
41
1
10
9.17022084300785
20
-4.91400396904706
30
0
41
1
10
8.64062130636748
20
-4.9567366954725
30
0
41
1
10
8.29093970712043
20
-4.97660418833894
30
0
41
1
10
7.59064658929501
20
-4.99934598617875
30
0
41
1
10
7.24002961056934
20
-5.00218903597465
30
0
41
1
10
6.53731516755502
20
-4.99073249973429
30
0
41
1
10
6.18523232080764
20
-4.97649629138206
30
0
41
1
10
5.65540680583266
20
-4.94220075471273
30
0
41
1
10
5.47851305903137
20
-4.92860836824738
30
0
41
1
10
5.12406954850752
20
-4.89707636233078
30
0
41
1
10
4.94686670401831
20
-4.87916787480742
30
0
41
1
10
4.41541590601946
20
-4.81908276011808
30
0
41
1
10
4.06122748263718
20
-4.77054393692271
30
0
41
1
10
3.70685257978428
20
-4.71359357046705
30
0
0
SPLINE
5
F7
100
AcDbEntity
8
1
62
256
6
ByLayer
370
13
48
1
60
0
100
AcDbSpline
70
4
71
3
72
10
73
6
40
0
40
0
40
0
40
0
40
0.5
40
0.5
40
1
40
1
40
1
40
1
41
1
10
3.70685257978428
20
-4.71359357046705
30
0
41
1
10
3.69554537057886
20
-4.7117764279362
30
0
41
1
10
3.68442600098839
20
-4.71117243549091
30
0
41
1
10
3.66256079641252
20
-4.71231054246894
30
0
41
1
10
3.65173990182421
20
-4.7140789499731
30
0
41
1
10
3.64136783885149
20
-4.71708441920828
30
0
0
SPLINE
5
F8
100
AcDbEntity
8
1
62
256
6
ByLayer
370
13
48
1
60
0
100
AcDbSpline
70
4
71
3
72
8
73
4
40
0
40
0
40
0
40
0
40
1
40
1
40
1
40
1
41
1
10
3.63878828132889
20
-4.85377212237597
30
0
41
1
10
3.63964091515751
20
-4.80821243070974
30
0
41
1
10
3.64050077082061
20
-4.76264989904388
30
0
41
1
10
3.64136783885149
20
-4.71708441920828
30
0
0
SPLINE
5
F9
100
AcDbEntity
8
1
62
256
6
ByLayer
370
18
48
1
60
0
100
AcDbSpline
70
4
71
3
72
74
73
70
40
0
40
0
40
0
40
0
40
0.0337757963727433
40
0.0337757963727433
40
0.0506636945591149
40
0.0506636945591149
40
0.0591076436523013
40
0.0591076436523013
40
0.0675515927454877
40
0.10132738911823
40
0.10132738911823
40
0.135103185490972
40
0.135103185490972
40
0.168878981863714
40
0.168878981863714
40
0.185766880050085
40
0.185766880050085
40
0.202654778236456
40
0.202654778236456
40
0.270206370981938
40
0.270206370981938
40
0.287094269168308
40
0.295538218261493
40
0.295538218261493
40
0.303982167354678
40
0.303982167354678
40
0.337757963727418
40
0.337757963727418
40
0.405309556472901
40
0.405309556472901
40
0.439085352845642
40
0.439085352845642
40
0.472861149218383
40
0.472861149218383
40
0.540412741963865
40
0.540412741963865
40
0.548856691057051
40
0.548856691057051
40
0.557300640150236
40
0.557300640150236
40
0.574188538336607
40
0.574188538336607
40
0.60796433470935
40
0.60796433470935
40
0.675515927454833
40
0.675515927454833
40
0.683959876548019
40
0.683959876548019
40
0.692403825641206
40
0.709291723827577
40
0.709291723827577
40
0.743067520200321
40
0.743067520200321
40
0.776843316573064
40
0.776843316573064
40
0.810619112945807
40
0.810619112945807
40
0.84439490931855
40
0.84439490931855
40
0.878170705691294
40
0.878170705691294
40
0.911946502064037
40
0.911946502064037
40
0.928834400250409
40
0.928834400250409
40
0.937278349343595
40
0.937278349343595
40
0.945722298436781
40
1
40
1
40
1
40
1
41
1
10
71.0619962202767
20
-5.14850959922936
30
0
41
1
10
70.7093494908583
20
-5.12348778696352
30
0
41
1
10
70.3568324330738
20
-5.0895869538852
30
0
41
1
10
69.8277712320638
20
-5.02566373257258
30
0
41
1
10
69.6513695122702
20
-5.00217727416768
30
0
41
1
10
69.3866371922029
20
-4.96370640505626
30
0
41
1
10
69.2983573619975
20
-4.95034013578538
30
0
41
1
10
69.1219110706511
20
-4.92255875401517
30
0
41
1
10
68.6809868074639
20
-4.85047257544392
30
0
41
1
10
68.2409048401327
20
-4.76531861018452
30
0
41
1
10
67.5370538807214
20
-4.61306444883905
30
0
41
1
10
67.1852790424795
20
-4.5289302329393
30
0
41
1
10
66.4814325401242
20
-4.34519639677453
30
0
41
1
10
66.1293067502238
20
-4.24564889750997
30
0
41
1
10
65.6002481864452
20
-4.08538422989807
30
0
41
1
10
65.4236465257371
20
-4.03010612240629
30
0
41
1
10
65.0708349827874
20
-3.91625119345605
30
0
41
1
10
64.8945731012811
20
-3.85766028363054
30
0
41
1
10
64.0137675628381
20
-3.55671221710406
30
0
41
1
10
63.3107260141048
20
-3.29037002959814
30
0
41
1
10
62.4302901790744
20
-2.93104663623922
30
0
41
1
10
62.166040193415
20
-2.8212661444868
30
0
41
1
10
61.9015135128431
20
-2.70866319680303
30
0
41
1
10
61.7250898003576
20
-2.63298478390607
30
0
41
1
10
61.6368096287006
20
-2.59482683199411
30
0
41
1
10
61.1955744081595
20
-2.40272282252971
30
0
41
1
10
60.8439092890372
20
-2.24515865074645
30
0
41
1
10
59.791776487884
20
-1.76303495988495
30
0
41
1
10
59.093983660387
20
-1.42940999192513
30
0
41
1
10
58.048645413502
20
-0.918941882200244
30
0
41
1
10
57.7004285399894
20
-0.747106731292149
30
0
41
1
10
57.0038630169372
20
-0.401273798634349
30
0
41
1
10
56.6555145825683
20
-0.227274575354301
30
0
41
1
10
55.6090681158435
20
0.295518962537102
30
0
41
1
10
54.909555487834
20
0.645079836979534
30
0
41
1
10
54.1174355706896
20
1.03324477858214
30
0
41
1
10
54.0293491762896
20
1.07630075078831
30
0
41
1
10
53.8530186454334
20
1.16224182562996
30
0
41
1
10
53.7647396985757
20
1.20514408745029
30
0
41
1
10
53.4999052017034
20
1.33343888730604
30
0
41
1
10
53.3235103462583
20
1.41834300932618
30
0
41
1
10
52.7946834837995
20
1.67094229254715
30
0
41
1
10
52.442612683434
20
1.8365299258611
30
0
41
1
10
51.3866946083866
20
2.32272937220131
30
0
41
1
10
50.6831393467887
20
2.6327716730629
30
0
41
1
10
49.8889009848034
20
2.95993909495184
30
0
41
1
10
49.8005738845503
20
2.99600781368912
30
0
41
1
10
49.6241018222427
20
3.0674158647476
30
0
41
1
10
49.3596361120607
20
3.17344713481037
30
0
41
1
10
49.0958403806392
20
3.27615823029356
30
0
41
1
10
48.5689906531024
20
3.47695616308695
30
0
41
1
10
48.2187353478255
20
3.60463994701141
30
0
41
1
10
47.5195571454202
20
3.84691437489593
30
0
41
1
10
47.1706494752622
20
3.96152252412685
30
0
41
1
10
46.4734320804405
20
4.17675460955579
30
0
41
1
10
46.1251131767311
20
4.27737038171327
30
0
41
1
10
45.4284167147621
20
4.46388621597649
30
0
41
1
10
45.0800507149078
20
4.54979601813204
30
0
41
1
10
44.3825395069275
20
4.70610952343239
30
0
41
1
10
44.0333867074156
20
4.77650895091162
30
0
41
1
10
43.3336334577529
20
4.9011118828187
30
0
41
1
10
42.9830429384003
20
4.95532023758742
30
0
41
1
10
42.4555217361893
20
5.02394181329333
30
0
41
1
10
42.2794081266456
20
5.04470071102705
30
0
41
1
10
42.0147600836309
20
5.07260316391853
30
0
41
1
10
41.9264234644064
20
5.08136827195992
30
0
41
1
10
41.7498467768337
20
5.09778584770263
30
0
41
1
10
41.0943360994995
20
5.15464381560463
30
0
41
1
10
40.4407138685953
20
5.18083459661423
30
0
41
1
10
39.8749640864192
20
5.18047601300114
30
0
0
SPLINE
5
FA
100
AcDbEntity
8
1
62
256
6
ByLayer
370
18
48
1
60
0
100
AcDbSpline
70
4
71
3
72
18
73
14
40
0
40
0
40
0
40
0
40
0.0109555641293817
40
0.0109555641293817
40
0.0870359053501995
40
0.0870359053501995
40
0.391357270233465
40
0.391357270233465
40
0.5435179526751
40
0.5435179526751
40
0.695678635116733
40
0.695678635116733
40
1
40
1
40
1
40
1
41
1
10
10.5574829001923
20
-4.89906329311435
30
0
41
1
10
10.5320378217193
20
-4.90303161639062
30
0
41
1
10
10.5065902837172
20
-4.90695624752158
30
0
41
1
10
10.3044270853808
20
-4.93778322992702
30
0
41
1
10
10.1280001950031
20
-4.96255367460674
30
0
41
1
10
9.24707633890645
20
-5.07549146880629
30
0
41
1
10
8.54627600303411
20
-5.13091540956071
30
0
41
1
10
7.49660298082298
20
-5.16139970231532
30
0
41
1
10
7.1469667546138
20
-5.16279830366753
30
0
41
1
10
6.44761825833544
20
-5.14808156150693
30
0
41
1
10
6.0979021435036
20
-5.13195860269136
30
0
41
1
10
5.04740291361034
20
-5.05741750402362
30
0
41
1
10
4.34524271837805
20
-4.97288500606837
30
0
41
1
10
3.638788281329
20
-4.85377212237617
30
0
0
SPLINE
5
FB
100
AcDbEntity
8
SK1
62
256
6
ByLayer
370
18
48
1
60
0
100
AcDbSpline
70
4
71
3
72
21
73
17
40
0
40
0
40
0
40
0
40
0.174121339554428
40
0.174121339554428
40
0.261182009331642
40
0.261182009331642
40
0.348242679108856
40
0.348242679108856
40
0.522364018663284
40
0.522364018663284
40
0.609424688440497
40
0.609424688440497
40
0.69648535821771
40
0.69648535821771
40
0.870606697772138
40
1
40
1
40
1
40
1
41
1
10
-45
20
3.58765831439462
30
0
41
1
10
-45
20
3.56889534004568
30
0
41
1
10
-45
20
3.54818613874502
30
0
41
1
10
-45
20
3.51410639988009
30
0
41
1
10
-45
20
3.50224321307709
30
0
41
1
10
-45
20
3.47784887182831
30
0
41
1
10
-45
20
3.46527729760393
30
0
41
1
10
-45
20
3.42645915897359
30
0
41
1
10
-45
20
3.39911351211649
30
0
41
1
10
-45
20
3.35589311111255
30
0
41
1
10
-45
20
3.34111823982357
30
0
41
1
10
-45
20
3.31081859135867
30
0
41
1
10
-45
20
3.29523608745836
30
0
41
1
10
-45
20
3.24789190342383
30
0
41
1
10
-45
20
3.19142150573563
30
0
41
1
10
-45
20
3.13249614083941
30
0
41
1
10
-45
20
3.10692331439503
30
0
0
SPLINE
5
FC
100
AcDbEntity
8
SK1
62
256
6
ByLayer
370
18
48
1
60
0
100
AcDbSpline
70
4
71
3
72
18
73
14
40
0
40
0
40
0
40
0
40
0.0720562437883959
40
0.0720562437883959
40
0.257644995030717
40
0.257644995030717
40
0.443233746273038
40
0.443233746273038
40
0.628822497515358
40
0.628822497515358
40
0.814411248757679
40
0.814411248757679
40
1
40
1
40
1
40
1
41
1
10
-44.7025836718399
20
3.38158207035428
30
0
41
1
10
-44.7078044798306
20
3.38821426147498
30
0
41
1
10
-44.7132696786691
20
3.39468155787333
30
0
41
1
10
-44.7335579630866
20
3.41728021681863
30
0
41
1
10
-44.7495851202068
20
3.43259983163068
30
0
41
1
10
-44.7838207553728
20
3.46175883099926
30
0
41
1
10
-44.8017776811994
20
3.47538140727318
30
0
41
1
10
-44.8388229688159
20
3.50110785573071
30
0
41
1
10
-44.8579375667812
20
3.51322648555217
30
0
41
1
10
-44.8971014024722
20
3.53628810087304
30
0
41
1
10
-44.9171522477643
20
3.54722906428222
30
0
41
1
10
-44.9580267212229
20
3.56813893980419
30
0
41
1
10
-44.9788757721731
20
3.57811786769372
30
0
41
1
10
-44.9999999999999
20
3.58765831439476
30
0
0
SPLINE
5
FD
100
AcDbEntity
8
SK1
62
256
6
ByLayer
370
18
48
1
60
0
100
AcDbSpline
70
4
71
3
72
8
73
4
40
0
40
0
40
0
40
0
40
1
40
1
40
1
40
1
41
1
10
-44.25
20
4.76582434436432
30
0
41
1
10
-44.5004726641886
20
4.54292103087317
30
0
41
1
10
-44.7505581585444
20
4.31968928855432
30
0
41
1
10
-45
20
4.09591154768506
30
0
0
SPLINE
5
FE
100
AcDbEntity
8
SK1
62
256
6
ByLayer
370
18
48
1
60
0
100
AcDbSpline
70
4
71
3
72
20
73
16
40
0
40
0
40
0
40
0
40
0.0624999999999986
40
0.0624999999999986
40
0.124999999999997
40
0.124999999999997
40
0.249999999999998
40
0.249999999999998
40
0.374999999999999
40
0.374999999999999
40
0.499999999999999
40
0.499999999999999
40
0.75
40
0.75
40
1
40
1
40
1
40
1
41
1
10
-44.15
20
4.82234456780685
30
0
41
1
10
-44.15
20
4.82372731773665
30
0
41
1
10
-44.1502569146169
20
4.82485452602833
30
0
41
1
10
-44.1512466991598
20
4.82663510990741
30
0
41
1
10
-44.1519837129547
20
4.82728253158186
30
0
41
1
10
-44.1547653438365
20
4.82852533527748
30
0
41
1
10
-44.1574101181634
20
4.82846034073273
30
0
41
1
10
-44.1638373738148
20
4.82691848287919
30
0
41
1
10
-44.1675465419207
20
4.82546825687945
30
0
41
1
10
-44.1757372414657
20
4.82151526651808
30
0
41
1
10
-44.1802613014624
20
4.81898127753252
30
0
41
1
10
-44.1944507164524
20
4.81023858428622
30
0
41
1
10
-44.2047953517096
20
4.8028975522175
30
0
41
1
10
-44.2269085448708
20
4.78575207037693
30
0
41
1
10
-44.238290176663
20
4.77624527564905
30
0
41
1
10
-44.25
20
4.76582434436435
30
0
0
SPLINE
5
FF
100
AcDbEntity
8
SK1
62
256
6
ByLayer
370
18
48
1
60
0
100
AcDbSpline
70
4
71
3
72
20
73
16
40
0
40
0
40
0
40
0
40
0.25
40
0.25
40
0.375000000000002
40
0.375000000000002
40
0.500000000000003
40
0.500000000000003
40
0.625000000000005
40
0.625000000000005
40
0.750000000000007
40
0.750000000000007
40
0.875000000000004
40
0.875000000000004
40
1
40
1
40
1
40
1
41
1
10
-44.25
20
3.78676530386355
30
0
41
1
10
-44.2382877407461
20
3.79718840294547
30
0
41
1
10
-44.226914977972
20
3.80864020481303
30
0
41
1
10
-44.2103576071414
20
3.82736436592728
30
0
41
1
10
-44.2049751381096
20
3.83381604396359
30
0
41
1
10
-44.1946946812026
20
3.84690892756697
30
0
41
1
10
-44.1897650588918
20
3.85358466260149
30
0
41
1
10
-44.1803754339179
20
3.86722395430701
30
0
41
1
10
-44.1758982216171
20
3.87421291953703
30
0
41
1
10
-44.1675998620729
20
3.88844076872906
30
0
41
1
10
-44.1638730040088
20
3.89551264212392
30
0
41
1
10
-44.1574568338975
20
3.90955011531855
30
0
41
1
10
-44.1547730646344
20
3.9165401708984
30
0
41
1
10
-44.1510607548749
20
3.92960363540999
30
0
41
1
10
-44.15
20
3.9358441248788
30
0
41
1
10
-44.15
20
3.94119143135614
30
0
0
SPLINE
5
100
100
AcDbEntity
8
SK1
62
256
6
ByLayer
370
18
48
1
60
0
100
AcDbSpline
70
4
71
3
72
8
73
4
40
0
40
0
40
0
40
0
40
1
40
1
40
1
40
1
41
1
10
-45
20
3.11685250718426
30
0
41
1
10
-44.7505596725852
20
3.34062888978644
30
0
41
1
10
-44.5004694148648
20
3.56386488204532
30
0
41
1
10
-44.25
20
3.78676530386355
30
0
0
SPLINE
5
101
100
AcDbEntity
8
1
62
256
6
ByLayer
370
18
48
1
60
0
100
AcDbSpline
70
4
71
3
72
14
73
10
40
0
40
0
40
0
40
0
40
0.0421963149460759
40
0.167512710523549
40
0.309413859224247
40
0.467859638912747
40
0.642800539665784
40
0.834206526676449
40
1
40
1
40
1
40
1
41
1
10
63.4371385050104
20
3.8263408393137
30
0
41
1
10
63.5457849926973
20
3.86090327604563
30
0
41
1
10
63.9772369056155
20
3.99550767044451
30
0
41
1
10
64.7751011244496
20
4.2245841426834
30
0
41
1
10
65.8741204092825
20
4.49420870684605
30
0
41
1
10
67.1026366696785
20
4.73525089657514
30
0
41
1
10
68.460340733244
20
4.92207781710076
30
0
41
1
10
69.8380566692058
20
5.02728091195348
30
0
41
1
10
70.7634617924429
20
5.02819273737623
30
0
41
1
10
71.1931221353309
20
5.0146942678931
30
0
0
SPLINE
5
102
100
AcDbEntity
8
1
62
256
6
ByLayer
370
18
48
1
60
0
100
AcDbSpline
70
4
71
3
72
9
73
5
40
0
40
0
40
0
40
0
40
0.364313888776653
40
1
40
1
40
1
40
1
41
1
10
28.4898788359333
20
-2.99748460024168
30
0
41
1
10
28.4498478362901
20
-2.98165522037024
30
0
41
1
10
28.340661097331
20
-2.93809739091057
30
0
41
1
10
28.2339058433823
20
-2.89430735026599
30
0
41
1
10
28.1666455140363
20
-2.86633049991744
30
0
0
SPLINE
5
103
100
AcDbEntity
8
1
62
256
6
ByLayer
370
18
48
1
60
0
100
AcDbSpline
70
4
71
3
72
15
73
11
40
0
40
0
40
0
40
0
40
0.0858522230444504
40
0.188062903314747
40
0.299307512760323
40
0.451311467656261
40
0.622073071558058
40
0.811456152954946
40
0.96558326883677
40
1
40
1
40
1
40
1
41
1
10
30.8084393627488
20
3.82046849415968
30
0
41
1
10
31.0602173289637
20
3.90024671343991
30
0
41
1
10
31.6120216911587
20
4.06753917665373
30
0
41
1
10
32.4903648404159
20
4.30609679513898
30
0
41
1
10
33.5628869499749
20
4.55618359901035
30
0
41
1
10
34.8362367451082
20
4.78821182595422
30
0
41
1
10
36.3389021240284
20
4.96570783751866
30
0
41
1
10
37.8482299127969
20
5.02062700582263
30
0
41
1
10
38.9574613545447
20
5.00055533816854
30
0
41
1
10
39.511115739514
20
4.94528890222855
30
0
41
1
10
39.6121848277967
20
4.93412293450953
30
0
0
SPLINE
5
104
100
AcDbEntity
8
1
62
256
6
ByLayer
370
18
48
1
60
0
100
AcDbSpline
70
4
71
3
72
9
73
5
40
0
40
0
40
0
40
0
40
0.172905144552396
40
1
40
1
40
1
40
1
41
1
10
61.5875821099476
20
-3.17814615101773
30
0
41
1
10
61.5620622800318
20
-3.16814247051715
30
0
41
1
10
61.4145100803744
20
-3.10999291517112
30
0
41
1
10
61.2672162975257
20
-3.0500932818247
30
0
41
1
10
61.1455134411677
20
-2.9995586337721
30
0
0
SPLINE
5
105
100
AcDbEntity
8
1
62
256
6
ByLayer
370
18
48
1
60
0
100
AcDbSpline
70
4
71
1
72
4
73
2
40
0
40
0
40
1
40
1
41
1
10
61.1455134411677
20
-2.9995586337721
30
0
41
1
10
60.664461113998
20
-2.80422899755669
30
0
0
SPLINE
5
106
100
AcDbEntity
8
1
62
256
6
ByLayer
370
18
48
1
60
0
100
AcDbSpline
70
4
71
3
72
15
73
11
40
0
40
0
40
0
40
0
40
0.0724746766589683
40
0.200192593758714
40
0.331771968416455
40
0.484207037948723
40
0.60149448713369
40
0.716214492891596
40
0.854968593772483
40
1
40
1
40
1
40
1
41
1
10
71.3183169068038
20
0.890462699892026
30
0
41
1
10
71.23710647825
20
0.917483684727273
30
0
41
1
10
71.0128842070995
20
0.993092435500756
30
0
41
1
10
70.6414045417502
20
1.12418324664827
30
0
41
1
10
70.1820029472376
20
1.29061747984025
30
0
41
1
10
69.736504089077
20
1.45789229195017
30
0
41
1
10
69.31077166029
20
1.62263584866847
30
0
41
1
10
68.9012841872676
20
1.78523387649088
30
0
41
1
10
68.4624227691229
20
1.96393868507636
30
0
41
1
10
68.1511865619632
20
2.09500263348912
30
0
41
1
10
67.9924387859481
20
2.16292082218166
30
0
0
SPLINE
5
107
100
AcDbEntity
8
1
62
256
6
ByLayer
370
18
48
1
60
0
100
AcDbSpline
70
4
71
3
72
31
73
27
40
0
40
0
40
0
40
0
40
2.09821714111E-05
40
3.99692017771E-05
40
7.5584671436E-05
40
0.0002323463865384
40
0.00034945155152
40
0.0005667328781029
40
0.0009810136517944
40
0.002049675070172
40
0.0171645866403527
40
0.0716644437884991
40
0.130651025541093
40
0.187088143411387
40
0.254971727101112
40
0.332845339738592
40
0.412590131663112
40
0.490557944519672
40
0.550721860992821
40
0.607970092224744
40
0.68326203223193
40
0.743142828353419
40
0.798775518303489
40
0.853537485234908
40
0.929343374998634
40
1
40
1
40
1
40
1
41
1
10
41.3265321891896
20
0.0884311597314422
30
0
41
1
10
41.326542994979
20
0.0884286848994975
30
0
41
1
10
41.3265547379408
20
0.0884263201547526
30
0
41
1
10
41.3265363601269
20
0.0884325597673694
30
0
41
1
10
41.3263192586328
20
0.0884932805221581
30
0
41
1
10
41.3257343521731
20
0.0886523860899899
30
0
41
1
10
41.3249363975685
20
0.0888708605540387
30
0
41
1
10
41.323655287661
20
0.0892201932437615
30
0
41
1
10
41.32072620528
20
0.090016943672623
30
0
41
1
10
41.2909453557939
20
0.0980693204577676
30
0
41
1
10
41.1507888935127
20
0.135436694504762
30
0
41
1
10
40.8940995179247
20
0.205202661041398
30
0
41
1
10
40.5527968663412
20
0.301119813143544
30
0
41
1
10
40.1825228112686
20
0.408816139230225
30
0
41
1
10
39.7753199885834
20
0.531551937401048
30
0
41
1
10
39.3225386431847
20
0.673574186200938
30
0
41
1
10
38.8510680967716
20
0.827637118854142
30
0
41
1
10
38.4166080929031
20
0.975239845475102
30
0
41
1
10
38.0274150011603
20
1.11181243076513
30
0
41
1
10
37.6444225348531
20
1.24982389270141
30
0
41
1
10
37.2640001042289
20
1.39091838418071
30
0
41
1
10
36.8876646044735
20
1.53447312386049
30
0
41
1
10
36.5525590529354
20
1.66527394852136
30
0
41
1
10
36.1868546801311
20
1.81116547164567
30
0
41
1
10
35.7925428669161
20
1.9720246415269
30
0
41
1
10
35.5066570133165
20
2.09261431322457
30
0
41
1
10
35.3689691645859
20
2.15153432407521
30
0
0
SPLINE
5
108
100
AcDbEntity
8
1
62
256
6
ByLayer
370
18
48
1
60
0
100
AcDbSpline
70
4
71
3
72
36
73
32
40
0
40
0
40
0
40
0
40
0.0515208963685281
40
0.0963411900551279
40
0.131742793109752
40
0.16676812961144
40
0.202638999984471
40
0.238398276455928
40
0.269975591029492
40
0.296128899518685
40
0.318094168296939
40
0.348759658083268
40
0.389191091889486
40
0.427495099321498
40
0.461577638433998
40
0.491107296805305
40
0.51872767302907
40
0.550756244750499
40
0.606765246774427
40
0.661722985651824
40
0.709321032527928
40
0.750203871237318
40
0.791408968288018
40
0.835017473188274
40
0.859041284140028
40
0.880288774166703
40
0.900771167112412
40
0.924502738556195
40
0.951982929078272
40
0.988519213878118
40
1
40
1
40
1
40
1
41
1
10
40.0858913538135
20
-4.92058978236292
30
0
41
1
10
40.3646578869284
20
-4.92065537819241
30
0
41
1
10
40.8867165496223
20
-4.92042196226748
30
0
41
1
10
41.6012702290068
20
-4.91813238652136
30
0
41
1
10
42.2299034533034
20
-4.91712574481664
30
0
41
1
10
42.8100826837495
20
-4.91826122765869
30
0
41
1
10
43.3907708509128
20
-4.92040068847331
30
0
41
1
10
43.9473208362448
20
-4.92241572348982
30
0
41
1
10
44.4537878702033
20
-4.92332350340575
30
0
41
1
10
44.8879971617272
20
-4.92372527806191
30
0
41
1
10
45.317986767325
20
-4.92392863496676
30
0
41
1
10
45.8256449351631
20
-4.92379941971188
30
0
41
1
10
46.4225898608429
20
-4.92404998165429
30
0
41
1
10
47.0381382051392
20
-4.92516128223906
30
0
41
1
10
47.5942191548547
20
-4.92509584734446
30
0
41
1
10
48.091997318087
20
-4.92477467260647
30
0
41
1
10
48.5785983653957
20
-4.92548431737771
30
0
41
1
10
49.2094334233222
20
-4.92681408357146
30
0
41
1
10
49.9882068601675
20
-4.92491947392759
30
0
41
1
10
50.8527083197423
20
-4.92580934572936
30
0
41
1
10
51.6361402663153
20
-4.92642350539705
30
0
41
1
10
52.3411940704267
20
-4.92659441583547
30
0
41
1
10
53.0261819276865
20
-4.9288884762598
30
0
41
1
10
53.6201221289139
20
-4.92883784917649
30
0
41
1
10
54.1050659519172
20
-4.92837732906949
30
0
41
1
10
54.4636319508561
20
-4.9282409654335
30
0
41
1
10
54.820691788166
20
-4.92844534799576
30
0
41
1
10
55.2119521839502
20
-4.92890368452615
30
0
41
1
10
55.689504105619
20
-4.92878339802803
30
0
41
1
10
56.1016854197668
20
-4.92836924310299
30
0
41
1
10
56.3636413215726
20
-4.92912940462509
30
0
41
1
10
56.4262834410319
20
-4.92934072696738
30
0
0
SPLINE
5
109
100
AcDbEntity
8
1
62
256
6
ByLayer
370
18
48
1
60
0
100
AcDbSpline
70
4
71
3
72
28
73
24
40
0
40
0
40
0
40
0
40
0.046935014692046
40
0.0885606537877147
40
0.143087738443158
40
0.193045816677211
40
0.238509989417795
40
0.292780491955083
40
0.352129846757397
40
0.410115780822637
40
0.467112445598238
40
0.527548348460842
40
0.593178675401573
40
0.642617462901357
40
0.677755374422759
40
0.719250866316833
40
0.771880195547138
40
0.813763547835647
40
0.850048914541129
40
0.891824487046108
40
0.935340322847739
40
0.984211116915198
40
1
40
1
40
1
40
1
41
1
10
24.6084392270531
20
4.89636457144243
30
0
41
1
10
24.4036865008623
20
4.88512628002755
30
0
41
1
10
24.0109222009954
20
4.87169136485656
30
0
41
1
10
23.313013720186
20
4.86953977282155
30
0
41
1
10
22.681836984528
20
4.90335647172174
30
0
41
1
10
21.9962393805976
20
4.90972140001693
30
0
41
1
10
21.2988479904114
20
4.91024150222333
30
0
41
1
10
20.5471565480389
20
4.91084554650513
30
0
41
1
10
19.7356825517705
20
4.91006154305543
30
0
41
1
10
18.9116390414487
20
4.90901733433901
30
0
41
1
10
18.0822715254711
20
4.90865995380096
30
0
41
1
10
17.2167576167351
20
4.90735763467868
30
0
41
1
10
16.3869774278188
20
4.90777440352508
30
0
41
1
10
15.6767953307583
20
4.90664288091241
30
0
41
1
10
15.0807508583811
20
4.90617632676751
30
0
41
1
10
14.4695911739341
20
4.90620358236865
30
0
41
1
10
13.8265704228681
20
4.90557172483233
30
0
41
1
10
13.208138571746
20
4.90485538558414
30
0
41
1
10
12.6411074029882
20
4.90467621274189
30
0
41
1
10
12.0660400436967
20
4.90443983221903
30
0
41
1
10
11.4337300270491
20
4.90335734881097
30
0
41
1
10
10.9274204826096
20
4.90192540580787
30
0
41
1
10
10.6275750405101
20
4.89926612410639
30
0
41
1
10
10.5543796052437
20
4.89856431580233
30
0
0
SPLINE
5
10A
100
AcDbEntity
8
1
62
256
6
ByLayer
370
18
48
1
60
0
100
AcDbSpline
70
4
71
3
72
37
73
33
40
0
40
0
40
0
40
0
40
0.0468233331688264
40
0.0868459585411536
40
0.121620386055561
40
0.155132852179171
40
0.186823426428852
40
0.216364183146627
40
0.243870948758137
40
0.270922363249404
40
0.296749568201331
40
0.323564467705123
40
0.362981861020288
40
0.407179573040807
40
0.447165978773537
40
0.481350307665577
40
0.511381082860183
40
0.538580860338782
40
0.566801405612797
40
0.599340724878335
40
0.638673837290419
40
0.683845835154161
40
0.713316322842775
40
0.734466336774606
40
0.754246552252898
40
0.774818765398226
40
0.796379789870181
40
0.839305679805452
40
0.888277565038336
40
0.941764222208227
40
0.998746672834474
40
1
40
1
40
1
40
1
41
1
10
7.35454949992129
20
-4.90026102044052
30
0
41
1
10
7.58370571505804
20
-4.89762355494415
30
0
41
1
10
8.02680067190497
20
-4.89129541877108
30
0
41
1
10
8.68777734901403
20
-4.86552590245887
30
0
41
1
10
9.3231623156675
20
-4.86164601764128
30
0
41
1
10
9.86339438716365
20
-4.88579851802191
30
0
41
1
10
10.3797328041842
20
-4.89662547160822
30
0
41
1
10
10.8721562025585
20
-4.90171850995714
30
0
41
1
10
11.3456288848496
20
-4.90344114296263
30
0
41
1
10
11.8032300886279
20
-4.90409276969336
30
0
41
1
10
12.2593517768024
20
-4.90446519551432
30
0
41
1
10
12.7861612562186
20
-4.90472862612427
30
0
41
1
10
13.418208871594
20
-4.90498068095323
30
0
41
1
10
14.1256346491873
20
-4.90602432751209
30
0
41
1
10
14.8031191378949
20
-4.90618726347844
30
0
41
1
10
15.3995170500114
20
-4.9063383458321
30
0
41
1
10
15.9227300056362
20
-4.9070463803663
30
0
41
1
10
16.411808347162
20
-4.90759766354748
30
0
41
1
10
16.9152454427557
20
-4.90762860883751
30
0
41
1
10
17.4881233974648
20
-4.90764634164773
30
0
41
1
10
18.1580402972693
20
-4.90871538330418
30
0
41
1
10
18.8103261958072
20
-4.90911712409954
30
0
41
1
10
19.3587250516721
20
-4.90928764286599
30
0
41
1
10
19.7611627779972
20
-4.91006438913936
30
0
41
1
10
20.1132145575913
20
-4.91061133884591
30
0
41
1
10
20.4675652438605
20
-4.91063910177311
30
0
41
1
10
20.9534272041215
20
-4.91044797272005
30
0
41
1
10
21.5988951189929
20
-4.91017767330541
30
0
41
1
10
22.4142308871289
20
-4.9074686683162
30
0
41
1
10
23.3179833385767
20
-4.8946477088725
30
0
41
1
10
23.9672654853012
20
-4.90395923378125
30
0
41
1
10
24.2902309464871
20
-4.90611535028589
30
0
41
1
10
24.2971790650879
20
-4.90616227346064
30
0
0
SPLINE
5
10B
100
AcDbEntity
8
1
62
256
6
ByLayer
370
18
48
1
60
0
100
AcDbSpline
70
4
71
3
72
30
73
26
40
0
40
0
40
0
40
0
40
0.0072696735144777
40
0.0478574136893766
40
0.0838220907723152
40
0.115871894810951
40
0.165711666013439
40
0.228171567912571
40
0.298839404180247
40
0.369973471043034
40
0.431025847186105
40
0.483779576755795
40
0.533587838284176
40
0.580803296640133
40
0.619638690111552
40
0.654372783612891
40
0.697884628789059
40
0.749647893639963
40
0.791069226075368
40
0.826408041993069
40
0.867397366124143
40
0.902503178652725
40
0.939314780214181
40
0.977960612202684
40
1
40
1
40
1
40
1
41
1
10
56.6664925808964
20
4.92800322856911
30
0
41
1
10
56.6334115353609
20
4.92787203113565
30
0
41
1
10
56.4158918234173
20
4.92710739692501
30
0
41
1
10
56.0450600922461
20
4.92896051578319
30
0
41
1
10
55.5532267074598
20
4.92871864696374
30
0
41
1
10
55.0177663070436
20
4.9288864298083
30
0
41
1
10
54.3624875958978
20
4.92788616586859
30
0
41
1
10
53.5316069129699
20
4.92945816130663
30
0
41
1
10
52.6043108849583
20
4.92702799627946
30
0
41
1
10
51.6832925269547
20
4.92722291630204
30
0
41
1
10
50.8433871862032
20
4.92678644607926
30
0
41
1
10
50.1007727216821
20
4.92544030989086
30
0
41
1
10
49.4206799766214
20
4.9265570207177
30
0
41
1
10
48.8037555328556
20
4.92617430194943
30
0
41
1
10
48.2552897638315
20
4.92477051350542
30
0
41
1
10
47.7236377085808
20
4.92502978689902
30
0
41
1
10
47.1332822901993
20
4.92522442500638
30
0
41
1
10
46.5125629653341
20
4.92423972757237
30
0
41
1
10
45.9289546243746
20
4.923738968816
30
0
41
1
10
45.3942927606427
20
4.92395908524631
30
0
41
1
10
44.8881881289685
20
4.92381667658461
30
0
41
1
10
44.3761167832498
20
4.92312040771972
30
0
41
1
10
43.8773824200959
20
4.92213866233573
30
0
41
1
10
43.4430558593792
20
4.91999193808488
30
0
41
1
10
43.1719543058776
20
4.91741114392133
30
0
41
1
10
43.0732007306301
20
4.9165361675947
30
0
0
LINE
5
82
100
AcDbEntity
8
81
62
256
6
ByLayer
370
18
48
1
60
0
100
AcDbLine
10
73
20
0
30
0
11
76
21
0
31
0
39
0
210
0
220
0
230
1
0
LINE
5
83
100
AcDbEntity
8
80
62
256
6
ByLayer
370
18
48
1
60
0
100
AcDbLine
10
0
20
0
30
0
11
-3
21
0
31
0
39
0
210
0
220
0
230
1
0
LINE
5
84
100
AcDbEntity
8
SK4
62
256
6
ByLayer
370
18
48
0.05
60
0
100
AcDbLine
10
-48
20
0
30
0
11
76
21
0
31
0
39
0
210
0
220
0
230
1
0
LINE
5
86
100
AcDbEntity
8
4
62
256
6
ByLayer
370
18
48
0.05
60
0
100
AcDbLine
10
0
20
0
30
0
11
73
21
0
31
0
39
0
210
0
220
0
230
1
0
LINE
5
88
100
AcDbEntity
8
1
62
256
6
ByLayer
370
13
48
1
60
0
100
AcDbLine
10
72.927486
20
0.062599
30
0
11
71.641315
21
1.482308
31
0
39
0
210
0
220
0
230
1
0
LINE
5
89
100
AcDbEntity
8
1
62
256
6
ByLayer
370
13
48
1
60
0
100
AcDbLine
10
0.707356
20
5.573828
30
0
11
0.707356
21
-5.573828
31
0
39
0
210
0
220
0
230
1
0
LINE
5
8A
100
AcDbEntity
8
1
62
256
6
ByLayer
370
13
48
1
60
0
100
AcDbLine
10
1.41043
20
5.156438
30
0
11
1.41043
21
-5.156438
31
0
39
0
210
0
220
0
230
1
0
LINE
5
8B
100
AcDbEntity
8
1
62
256
6
ByLayer
370
18
48
1
60
0
100
AcDbLine
10
3.5
20
-4.773375
30
0
11
3.5
21
2.280886
31
0
39
0
210
0
220
0
230
1
0
LINE
5
8C
100
AcDbEntity
8
1
62
256
6
ByLayer
370
18
48
1
60
0
100
AcDbLine
10
22.8
20
-0.369909
30
0
11
22.8
21
-0.592773
31
0
39
0
210
0
220
0
230
1
0
LINE
5
8D
100
AcDbEntity
8
1
62
256
6
ByLayer
370
13
48
1
60
0
100
AcDbLine
10
0.702573
20
5.58261
30
0
11
0.702573
21
-5.58261
31
0
39
0
210
0
220
0
230
1
0
LINE
5
8E
100
AcDbEntity
8
1
62
256
6
ByLayer
370
18
48
1
60
0
100
AcDbLine
10
0
20
6
30
0
11
0
21
-6
31
0
39
0
210
0
220
0
230
1
0
LINE
5
8F
100
AcDbEntity
8
SK1
62
256
6
ByLayer
370
18
48
1
60
0
100
AcDbLine
10
-45
20
4.095912
30
0
11
-45
21
3.587658
31
0
39
0
210
0
220
0
230
1
0
LINE
5
91
100
AcDbEntity
8
SK1
62
256
6
ByLayer
370
13
48
1
60
0
100
AcDbLine
10
-44.25
20
3.786686
30
0
11
-44.25
21
4.765824
31
0
39
0
210
0
220
0
230
1
0
LINE
5
92
100
AcDbEntity
8
SK1
62
256
6
ByLayer
370
18
48
1
60
0
100
AcDbLine
10
-44.15
20
3.941191
30
0
11
-44.15
21
4.822345
31
0
39
0
210
0
220
0
230
1
0
LINE
5
93
100
AcDbEntity
8
SK1
62
256
6
ByLayer
370
18
48
1
60
0
100
AcDbLine
10
-45
20
-4.255
30
0
11
-45
21
3.116853
31
0
39
0
210
0
220
0
230
1
0
LINE
5
94
100
AcDbEntity
8
SK1
62
256
6
ByLayer
370
18
48
1
60
0
100
AcDbLine
10
-45
20
4.095912
30
0
11
-45
21
4.255
31
0
39
0
210
0
220
0
230
1
0
LINE
5
95
100
AcDbEntity
8
SK1
62
256
6
ByLayer
370
18
48
1
60
0
100
AcDbLine
10
-43.255
20
-6
30
0
11
-43.255
21
6
31
0
39
0
210
0
220
0
230
1
0
LINE
5
96
100
AcDbEntity
8
SK1
62
256
6
ByLayer
370
18
48
1
60
0
100
AcDbLine
10
0
20
6
30
0
11
0
21
-6
31
0
39
0
210
0
220
0
230
1
0
LINE
5
97
100
AcDbEntity
8
1
62
256
6
ByLayer
370
18
48
1
60
0
100
AcDbLine
10
0.707356
20
5.573828
30
0
11
0.702573
21
5.58261
31
0
39
0
210
0
220
0
230
1
0
LINE
5
98
100
AcDbEntity
8
1
62
256
6
ByLayer
370
18
48
1
60
0
100
AcDbLine
10
0.702573
20
-5.58261
30
0
11
0.707356
21
-5.573828
31
0
39
0
210
0
220
0
230
1
0
LINE
5
99
100
AcDbEntity
8
1
62
256
6
ByLayer
370
18
48
1
60
0
100
AcDbLine
10
1.41043
20
-5.156438
30
0
11
7.224645
21
-5.160072
31
0
39
0
210
0
220
0
230
1
0
LINE
5
9A
100
AcDbEntity
8
1
62
256
6
ByLayer
370
18
48
1
60
0
100
AcDbLine
10
38.393351
20
-5.179553
30
0
11
39.875637
21
-5.180479
31
0
39
0
210
0
220
0
230
1
0
LINE
5
9B
100
AcDbEntity
8
1
62
256
6
ByLayer
370
18
48
1
60
0
100
AcDbLine
10
39.875637
20
5.180479
30
0
11
38.393351
21
5.179553
31
0
39
0
210
0
220
0
230
1
0
LINE
5
9C
100
AcDbEntity
8
1
62
256
6
ByLayer
370
18
48
1
60
0
100
AcDbLine
10
7.224645
20
5.160072
30
0
11
1.41043
21
5.156438
31
0
39
0
210
0
220
0
230
1
0
LINE
5
9D
100
AcDbEntity
8
SK1
62
256
6
ByLayer
370
18
48
1
60
0
100
AcDbLine
10
-45
20
-4.255
30
0
11
-43.255
21
-6
31
0
39
0
210
0
220
0
230
1
0
LINE
5
9E
100
AcDbEntity
8
SK1
62
256
6
ByLayer
370
18
48
1
60
0
100
AcDbLine
10
-43.255
20
6
30
0
11
-45
21
4.255
31
0
39
0
210
0
220
0
230
1
0
LINE
5
9F
100
AcDbEntity
8
SK1
62
256
6
ByLayer
370
18
48
1
60
0
100
AcDbLine
10
-43.255
20
-6
30
0
11
0
21
-6
31
0
39
0
210
0
220
0
230
1
0
LINE
5
A0
100
AcDbEntity
8
SK1
62
256
6
ByLayer
370
18
48
1
60
0
100
AcDbLine
10
0
20
6
30
0
11
-43.255
21
6
31
0
39
0
210
0
220
0
230
1
0
LINE
5
A1
100
AcDbEntity
8
2
62
256
6
ByLayer
370
13
48
1
60
0
100
AcDbLine
10
86.75
20
-5.2
30
0
11
86.75
21
23.658065
31
0
39
0
210
0
220
0
230
1
0
LINE
5
A3
100
AcDbEntity
8
2
62
256
6
ByLayer
370
13
48
1
60
0
100
AcDbLine
10
74.5875
20
5.2
30
0
11
88.75
21
5.2
31
0
39
0
210
0
220
0
230
1
0
LINE
5
A4
100
AcDbEntity
8
2
62
256
6
ByLayer
370
13
48
1
60
0
100
AcDbLine
10
74.5875
20
-5.2
30
0
11
88.75
21
-5.2
31
0
39
0
210
0
220
0
230
1
0
LINE
5
A5
100
AcDbEntity
8
1
62
256
6
ByLayer
370
18
48
1
60
1
100
AcDbLine
10
86.75
20
5.2
30
0
11
87.210784
21
1.700002
31
0
39
0
210
0
220
0
230
1
0
LINE
5
A6
100
AcDbEntity
8
1
62
256
6
ByLayer
370
18
48
1
60
1
100
AcDbLine
10
87.210784
20
1.700002
30
0
11
86.289216
21
1.699998
31
0
39
0
210
0
220
0
230
1
0
LINE
5
A7
100
AcDbEntity
8
1
62
256
6
ByLayer
370
18
48
1
60
1
100
AcDbLine
10
86.289216
20
1.699998
30
0
11
86.75
21
5.2
31
0
39
0
210
0
220
0
230
1
0
LINE
5
A8
100
AcDbEntity
8
1
62
256
6
ByLayer
370
18
48
1
60
1
100
AcDbLine
10
86.75
20
-5.2
30
0
11
86.289216
21
-1.700002
31
0
39
0
210
0
220
0
230
1
0
LINE
5
A9
100
AcDbEntity
8
1
62
256
6
ByLayer
370
18
48
1
60
1
100
AcDbLine
10
86.289216
20
-1.700002
30
0
11
87.210784
21
-1.699998
31
0
39
0
210
0
220
0
230
1
0
LINE
5
AA
100
AcDbEntity
8
1
62
256
6
ByLayer
370
18
48
1
60
1
100
AcDbLine
10
87.210784
20
-1.699998
30
0
11
86.75
21
-5.2
31
0
39
0
210
0
220
0
230
1
0
LINE
5
AB
100
AcDbEntity
8
SK2
62
256
6
ByLayer
370
13
48
1
60
0
100
AcDbLine
10
-53.25
20
-6
30
0
11
-53.25
21
22.056066
31
0
39
0
210
0
220
0
230
1
0
LINE
5
AD
100
AcDbEntity
8
SK2
62
256
6
ByLayer
370
13
48
1
60
0
100
AcDbLine
10
-46.5875
20
6
30
0
11
-55.25
21
6
31
0
39
0
210
0
220
0
230
1
0
LINE
5
AE
100
AcDbEntity
8
SK2
62
256
6
ByLayer
370
13
48
1
60
0
100
AcDbLine
10
-46.5875
20
-6
30
0
11
-55.25
21
-6
31
0
39
0
210
0
220
0
230
1
0
LINE
5
AF
100
AcDbEntity
8
1
62
256
6
ByLayer
370
18
48
1
60
1
100
AcDbLine
10
-53.25
20
6
30
0
11
-52.789216
21
2.500002
31
0
39
0
210
0
220
0
230
1
0
LINE
5
B0
100
AcDbEntity
8
1
62
256
6
ByLayer
370
18
48
1
60
1
100
AcDbLine
10
-52.789216
20
2.500002
30
0
11
-53.710784
21
2.499998
31
0
39
0
210
0
220
0
230
1
0
LINE
5
B1
100
AcDbEntity
8
1
62
256
6
ByLayer
370
18
48
1
60
1
100
AcDbLine
10
-53.710784
20
2.499998
30
0
11
-53.25
21
6
31
0
39
0
210
0
220
0
230
1
0
LINE
5
B2
100
AcDbEntity
8
1
62
256
6
ByLayer
370
18
48
1
60
1
100
AcDbLine
10
-53.25
20
-6
30
0
11
-53.710784
21
-2.500002
31
0
39
0
210
0
220
0
230
1
0
LINE
5
B3
100
AcDbEntity
8
1
62
256
6
ByLayer
370
18
48
1
60
1
100
AcDbLine
10
-53.710784
20
-2.500002
30
0
11
-52.789216
21
-2.499998
31
0
39
0
210
0
220
0
230
1
0
LINE
5
B4
100
AcDbEntity
8
1
62
256
6
ByLayer
370
18
48
1
60
1
100
AcDbLine
10
-52.789216
20
-2.499998
30
0
11
-53.25
21
-6
31
0
39
0
210
0
220
0
230
1
0
LINE
5
B5
100
AcDbEntity
8
SK2
62
256
6
ByLayer
370
13
48
1
60
0
100
AcDbLine
10
73.543047
20
1.491729
30
0
11
85.202759
21
33.520522
31
0
39
0
210
0
220
0
230
1
0
LINE
5
B6
100
AcDbEntity
8
SK2
62
256
6
ByLayer
370
13
48
1
60
0
100
AcDbLine
10
73.543047
20
-1.491729
30
0
11
85.202759
21
-33.520522
31
0
39
0
210
0
220
0
230
1
0
LINE
5
B7
100
AcDbEntity
8
1
62
256
6
ByLayer
370
18
48
1
60
1
100
AcDbLine
10
84.518606
20
31.641178
30
0
11
87.944078
21
30.787685
31
0
39
0
210
0
220
0
230
1
0
LINE
5
B8
100
AcDbEntity
8
1
62
256
6
ByLayer
370
18
48
1
60
1
100
AcDbLine
10
87.944078
20
30.787685
30
0
11
87.60646
21
29.930188
31
0
39
0
210
0
220
0
230
1
0
LINE
5
B9
100
AcDbEntity
8
1
62
256
6
ByLayer
370
18
48
1
60
1
100
AcDbLine
10
87.60646
20
29.930188
30
0
11
84.518606
21
31.641178
31
0
39
0
210
0
220
0
230
1
0
LINE
5
BA
100
AcDbEntity
8
1
62
256
6
ByLayer
370
18
48
1
60
1
100
AcDbLine
10
84.518606
20
-31.641178
30
0
11
87.606457
21
-29.930189
31
0
39
0
210
0
220
0
230
1
0
LINE
5
BB
100
AcDbEntity
8
1
62
256
6
ByLayer
370
18
48
1
60
1
100
AcDbLine
10
87.606457
20
-29.930189
30
0
11
87.944081
21
-30.787684
31
0
39
0
210
0
220
0
230
1
0
LINE
5
BC
100
AcDbEntity
8
1
62
256
6
ByLayer
370
18
48
1
60
1
100
AcDbLine
10
87.944081
20
-30.787684
30
0
11
84.518606
21
-31.641178
31
0
39
0
210
0
220
0
230
1
0
LINE
5
10C
100
AcDbEntity
8
1
62
256
6
ByLayer
370
13
48
0.05
60
0
100
AcDbLine
10
-51.5
20
0
30
0
11
77.665795
21
0
31
0
39
0
210
0
220
0
230
1
0
LINE
5
111
100
AcDbEntity
8
1
62
256
6
ByLayer
370
18
48
1
60
1
100
AcDbLine
10
86.75
20
5.2
30
0
11
87.210784
21
1.700002
31
0
39
0
210
0
220
0
230
1
0
LINE
5
112
100
AcDbEntity
8
1
62
256
6
ByLayer
370
18
48
1
60
1
100
AcDbLine
10
87.210784
20
1.700002
30
0
11
86.289216
21
1.699998
31
0
39
0
210
0
220
0
230
1
0
LINE
5
113
100
AcDbEntity
8
1
62
256
6
ByLayer
370
18
48
1
60
1
100
AcDbLine
10
86.289216
20
1.699998
30
0
11
86.75
21
5.2
31
0
39
0
210
0
220
0
230
1
0
LINE
5
115
100
AcDbEntity
8
1
62
256
6
ByLayer
370
18
48
1
60
1
100
AcDbLine
10
86.75
20
-5.2
30
0
11
86.289216
21
-1.700002
31
0
39
0
210
0
220
0
230
1
0
LINE
5
116
100
AcDbEntity
8
1
62
256
6
ByLayer
370
18
48
1
60
1
100
AcDbLine
10
86.289216
20
-1.700002
30
0
11
87.210784
21
-1.699998
31
0
39
0
210
0
220
0
230
1
0
LINE
5
117
100
AcDbEntity
8
1
62
256
6
ByLayer
370
18
48
1
60
1
100
AcDbLine
10
87.210784
20
-1.699998
30
0
11
86.75
21
-5.2
31
0
39
0
210
0
220
0
230
1
0
LINE
5
11B
100
AcDbEntity
8
1
62
256
6
ByLayer
370
18
48
1
60
1
100
AcDbLine
10
-53.25
20
6
30
0
11
-52.789216
21
2.500002
31
0
39
0
210
0
220
0
230
1
0
LINE
5
11C
100
AcDbEntity
8
1
62
256
6
ByLayer
370
18
48
1
60
1
100
AcDbLine
10
-52.789216
20
2.500002
30
0
11
-53.710784
21
2.499998
31
0
39
0
210
0
220
0
230
1
0
LINE
5
11D
100
AcDbEntity
8
1
62
256
6
ByLayer
370
18
48
1
60
1
100
AcDbLine
10
-53.710784
20
2.499998
30
0
11
-53.25
21
6
31
0
39
0
210
0
220
0
230
1
0
LINE
5
11F
100
AcDbEntity
8
1
62
256
6
ByLayer
370
18
48
1
60
1
100
AcDbLine
10
-53.25
20
-6
30
0
11
-53.710784
21
-2.500002
31
0
39
0
210
0
220
0
230
1
0
LINE
5
120
100
AcDbEntity
8
1
62
256
6
ByLayer
370
18
48
1
60
1
100
AcDbLine
10
-53.710784
20
-2.500002
30
0
11
-52.789216
21
-2.499998
31
0
39
0
210
0
220
0
230
1
0
LINE
5
121
100
AcDbEntity
8
1
62
256
6
ByLayer
370
18
48
1
60
1
100
AcDbLine
10
-52.789216
20
-2.499998
30
0
11
-53.25
21
-6
31
0
39
0
210
0
220
0
230
1
0
LINE
5
124
100
AcDbEntity
8
1
62
256
6
ByLayer
370
18
48
1
60
1
100
AcDbLine
10
84.518606
20
31.641178
30
0
11
87.944078
21
30.787685
31
0
39
0
210
0
220
0
230
1
0
LINE
5
125
100
AcDbEntity
8
1
62
256
6
ByLayer
370
18
48
1
60
1
100
AcDbLine
10
87.944078
20
30.787685
30
0
11
87.60646
21
29.930188
31
0
39
0
210
0
220
0
230
1
0
LINE
5
126
100
AcDbEntity
8
1
62
256
6
ByLayer
370
18
48
1
60
1
100
AcDbLine
10
87.60646
20
29.930188
30
0
11
84.518606
21
31.641178
31
0
39
0
210
0
220
0
230
1
0
LINE
5
128
100
AcDbEntity
8
1
62
256
6
ByLayer
370
18
48
1
60
1
100
AcDbLine
10
84.518606
20
-31.641178
30
0
11
87.606457
21
-29.930189
31
0
39
0
210
0
220
0
230
1
0
LINE
5
129
100
AcDbEntity
8
1
62
256
6
ByLayer
370
18
48
1
60
1
100
AcDbLine
10
87.606457
20
-29.930189
30
0
11
87.944081
21
-30.787684
31
0
39
0
210
0
220
0
230
1
0
LINE
5
12A
100
AcDbEntity
8
1
62
256
6
ByLayer
370
18
48
1
60
1
100
AcDbLine
10
87.944081
20
-30.787684
30
0
11
84.518606
21
-31.641178
31
0
39
0
210
0
220
0
230
1
0
MTEXT
5
10D
100
AcDbEntity
8
2
62
256
6
ByLayer
370
18
48
1
60
0
100
AcDbMText
10
85.185366
20
9.134844
30
0
210
0
220
0
230
1
1
%%c
40
3.5
41
0
44
1.084337
50
90
71
7
72
5
7
iso_b_vert
0
MTEXT
5
110
100
AcDbEntity
8
2
62
256
6
ByLayer
370
18
48
1
60
0
100
AcDbMText
10
85.185366
20
16.1075
30
0
210
0
220
0
230
1
1
\W0.6756;10.4
40
3.5
41
0
44
1.084337
50
90
71
7
72
5
7
iso_b_vert
0
MTEXT
5
119
100
AcDbEntity
8
SK2
62
256
6
ByLayer
370
18
48
1
60
0
100
AcDbMText
10
-54.814634
20
11.934844
30
0
210
0
220
0
230
1
1
%%c
40
3.5
41
0
44
1.084337
50
90
71
7
72
5
7
iso_b_vert
0
MTEXT
5
11A
100
AcDbEntity
8
SK2
62
256
6
ByLayer
370
18
48
1
60
0
100
AcDbMText
10
-54.814634
20
18.9075
30
0
210
0
220
0
230
1
1
\W0.5321;12
40
3.5
41
0
44
1.084337
50
90
71
7
72
5
7
iso_b_vert
0
MTEXT
5
123
100
AcDbEntity
8
SK2
62
256
6
ByLayer
370
18
48
1
60
0
100
AcDbMText
10
102.600927
20
-2.467366
30
0
210
0
220
0
230
1
1
\W0.7825;140%%d
40
3.5
41
0
44
1.084337
50
0
71
7
72
5
7
iso_b_vert
0
MTEXT
5
12C
100
AcDbEntity
8
SK6
62
256
6
ByLayer
370
18
48
1
60
0
100
AcDbMText
10
-14.67564
20
-104.830441
30
0
210
0
220
0
230
1
1
\W0.7442;860.1-1040-056A1-MM M2BM
40
3.5
41
0
44
1.084337
50
0
71
7
72
5
7
iso_b_vert
0
HATCH
5
114
100
AcDbEntity
8
2
62
256
6
ByLayer
370
13
48
1
60
0
100
AcDbHatch
10
0
20
0
30
0
210
0
220
0
230
1
2
ANSI31
70
0
71
0
91
1
92
5
93
3
72
1
10
86.75
20
5.19999999999999
11
87.2107837415528
21
1.70000169255317
72
1
10
87.2107837415528
20
1.70000169255317
11
86.2892162584472
21
1.69999830744681
72
1
10
86.2892162584472
20
1.69999830744681
11
86.75
21
5.19999999999999
97
0
75
0
76
1
52
0
41
0.0062
77
0
78
1
53
45
43
0
44
0
45
-0.0139193969876572
46
0.0139193969876572
79
0
47
0
98
1
10
0
20
0
0
HATCH
5
118
100
AcDbEntity
8
2
62
256
6
ByLayer
370
13
48
1
60
0
100
AcDbHatch
10
0
20
0
30
0
210
0
220
0
230
1
2
ANSI31
70
0
71
0
91
1
92
5
93
3
72
1
10
86.75
20
-5.20000000000002
11
86.2892162584472
21
-1.7000016925532
72
1
10
86.2892162584472
20
-1.7000016925532
11
87.2107837415528
21
-1.69999830744683
72
1
10
87.2107837415528
20
-1.69999830744683
11
86.75
21
-5.20000000000002
97
0
75
0
76
1
52
0
41
0.0062
77
0
78
1
53
45
43
0
44
0
45
-0.0139193969876572
46
0.0139193969876572
79
0
47
0
98
1
10
0
20
0
0
HATCH
5
11E
100
AcDbEntity
8
SK2
62
256
6
ByLayer
370
13
48
1
60
0
100
AcDbHatch
10
0
20
0
30
0
210
0
220
0
230
1
2
ANSI31
70
0
71
0
91
1
92
5
93
3
72
1
10
-53.25
20
6
11
-52.7892162584472
21
2.50000169255318
72
1
10
-52.7892162584472
20
2.50000169255318
11
-53.7107837415528
21
2.49999830744682
72
1
10
-53.7107837415528
20
2.49999830744682
11
-53.25
21
6
97
0
75
0
76
1
52
0
41
0.0062
77
0
78
1
53
45
43
0
44
0
45
-0.0139193969876572
46
0.0139193969876572
79
0
47
0
98
1
10
0
20
0
0
HATCH
5
122
100
AcDbEntity
8
SK2
62
256
6
ByLayer
370
13
48
1
60
0
100
AcDbHatch
10
0
20
0
30
0
210
0
220
0
230
1
2
ANSI31
70
0
71
0
91
1
92
5
93
3
72
1
10
-53.25
20
-6
11
-53.7107837415528
21
-2.50000169255318
72
1
10
-53.7107837415528
20
-2.50000169255318
11
-52.7892162584472
21
-2.49999830744682
72
1
10
-52.7892162584472
20
-2.49999830744682
11
-53.25
21
-6
97
0
75
0
76
1
52
0
41
0.0062
77
0
78
1
53
45
43
0
44
0
45
-0.0139193969876572
46
0.0139193969876572
79
0
47
0
98
1
10
0
20
0
0
HATCH
5
127
100
AcDbEntity
8
SK2
62
256
6
ByLayer
370
13
48
1
60
0
100
AcDbHatch
10
0
20
0
30
0
210
0
220
0
230
1
2
ANSI31
70
0
71
0
91
1
92
5
93
3
72
1
10
84.5186056637077
20
31.6411777344344
11
87.9440778630356
21
30.7876848989396
72
1
10
87.9440778630356
20
30.7876848989396
11
87.6064604632001
21
29.9301878917977
72
1
10
87.6064604632001
20
29.9301878917977
11
84.5186056637077
21
31.6411777344344
97
0
75
0
76
1
52
0
41
0.0062
77
0
78
1
53
45
43
0
44
0
45
-0.0139193969876572
46
0.0139193969876572
79
0
47
0
98
1
10
0
20
0
0
HATCH
5
12B
100
AcDbEntity
8
SK2
62
256
6
ByLayer
370
13
48
1
60
0
100
AcDbHatch
10
0
20
0
30
0
210
0
220
0
230
1
2
ANSI31
70
0
71
0
91
1
92
5
93
3
72
1
10
84.5186056637074
20
-31.6411777344345
11
87.6064573134421
21
-29.9301891319474
72
1
10
87.6064573134421
20
-29.9301891319474
11
87.9440810127932
21
-30.7876836587902
72
1
10
87.9440810127932
20
-30.7876836587902
11
84.5186056637074
21
-31.6411777344345
97
0
75
0
76
1
52
0
41
0.0062
77
0
78
1
53
45
43
0
44
0
45
-0.0139193969876572
46
0.0139193969876572
79
0
47
0
98
1
10
0
20
0
0
DIMENSION
5
12F
100
AcDbEntity
8
2
62
256
6
ByLayer
370
18
48
1
60
0
100
AcDbDimension
2
_U0
10
73
20
-84.053452
30
0
11
14
21
-84.053452
31
0
70
32
71
1
72
1
41
1
210
0
220
0
230
1
3
Standard
100
AcDbAlignedDimension
13
-45
23
-6
33
0
14
73
24
-5.2
34
0
50
0
100
AcDbRotatedDimension
1001
ACAD
1000
DSTYLE
1002
{
1070
   371
1070
    13
1070
   372
1070
    13
1070
     3
1000

1070
   170
1070
     0
1070
   144
1040
1.0
1070
   277
1070
     2
1070
   284
1070
     8
1070
   278
1070
    46
1070
   146
1040
1.0
1070
   345
1005
16
1070
   347
1005
16
1070
   346
1005
16
1070
   344
1005
0
1070
   343
1005
0
1070
   172
1070
     1
1070
    76
1070
     0
1070
    75
1070
     0
1070
   282
1070
     0
1070
   281
1070
     0
1070
    71
1070
     0
1070
    74
1070
     0
1070
   279
1070
     0
1070
   173
1070
     1
1070
   340
1005
10E
1070
   271
1070
     2
1070
   272
1070
     2
1070
    77
1070
     1
1070
    73
1070
     1
1070
   171
1070
     3
1070
   274
1070
     4
1070
   177
1070
     2
1070
   176
1070
     2
1070
   178
1070
     2
1070
    78
1070
     8
1070
    48
1040
-0.1
1070
    41
1040
3.5
1070
   147
1040
1.75
1070
    42
1040
1.5875
1070
    44
1040
2.0
1070
   140
1040
3.5
1002
}
1001
ACAD_DSTYLE_DIM_LINETYPE
1070
   380
1005
16
1001
ACAD_DSTYLE_DIM_EXT1_LINETYPE
1070
   381
1005
16
1001
ACAD_DSTYLE_DIM_EXT2_LINETYPE
1070
   382
1005
16
0
DIMENSION
5
148
100
AcDbEntity
8
SK2
62
256
6
ByLayer
370
18
48
1
60
0
100
AcDbDimension
2
_U1
10
2
20
-64.053452
30
0
11
37.5
21
-64.053452
31
0
70
32
71
1
72
1
41
1
210
0
220
0
230
1
3
Standard
100
AcDbAlignedDimension
13
73
23
-5.2
33
0
14
2
24
-5.2
34
0
50
0
100
AcDbRotatedDimension
1001
ACAD
1000
DSTYLE
1002
{
1070
   371
1070
    13
1070
   372
1070
    13
1070
     3
1000

1070
   170
1070
     0
1070
   144
1040
1.0
1070
   277
1070
     2
1070
   284
1070
     8
1070
   278
1070
    46
1070
   146
1040
1.0
1070
   345
1005
16
1070
   347
1005
16
1070
   346
1005
16
1070
   344
1005
0
1070
   343
1005
0
1070
   172
1070
     1
1070
    76
1070
     0
1070
    75
1070
     0
1070
   282
1070
     0
1070
   281
1070
     0
1070
    71
1070
     0
1070
    74
1070
     0
1070
   279
1070
     0
1070
   173
1070
     1
1070
   340
1005
10E
1070
   271
1070
     2
1070
   272
1070
     2
1070
    77
1070
     1
1070
    73
1070
     1
1070
   171
1070
     3
1070
   274
1070
     4
1070
   177
1070
     2
1070
   176
1070
     2
1070
   178
1070
     2
1070
    78
1070
     8
1070
    48
1040
-0.1
1070
    41
1040
3.5
1070
   147
1040
1.75
1070
    42
1040
1.5875
1070
    44
1040
2.0
1070
   140
1040
3.5
1002
}
1001
ACAD_DSTYLE_DIM_LINETYPE
1070
   380
1005
16
1001
ACAD_DSTYLE_DIM_EXT1_LINETYPE
1070
   381
1005
16
1001
ACAD_DSTYLE_DIM_EXT2_LINETYPE
1070
   382
1005
16
0
DIMENSION
5
160
100
AcDbEntity
8
SK2
62
256
6
ByLayer
370
18
48
1
60
0
100
AcDbDimension
2
_U2
10
17
20
-54.053452
30
0
11
45
21
-54.053452
31
0
70
32
71
1
72
1
41
1
210
0
220
0
230
1
3
Standard
100
AcDbAlignedDimension
13
73
23
-5.2
33
0
14
17
24
-5.2
34
0
50
0
100
AcDbRotatedDimension
1001
ACAD
1000
DSTYLE
1002
{
1070
   371
1070
    13
1070
   372
1070
    13
1070
     3
1000

1070
   170
1070
     0
1070
   144
1040
1.0
1070
   277
1070
     2
1070
   284
1070
     8
1070
   278
1070
    46
1070
   146
1040
1.0
1070
   345
1005
16
1070
   347
1005
16
1070
   346
1005
16
1070
   344
1005
0
1070
   343
1005
0
1070
   172
1070
     1
1070
    76
1070
     0
1070
    75
1070
     0
1070
   282
1070
     0
1070
   281
1070
     0
1070
    71
1070
     0
1070
    74
1070
     0
1070
   279
1070
     0
1070
   173
1070
     1
1070
   340
1005
10E
1070
   271
1070
     2
1070
   272
1070
     2
1070
    77
1070
     1
1070
    73
1070
     1
1070
   171
1070
     3
1070
   274
1070
     4
1070
   177
1070
     2
1070
   176
1070
     2
1070
   178
1070
     2
1070
    78
1070
     8
1070
    48
1040
-0.1
1070
    41
1040
3.5
1070
   147
1040
1.75
1070
    42
1040
1.5875
1070
    44
1040
2.0
1070
   140
1040
3.5
1002
}
1001
ACAD_DSTYLE_DIM_LINETYPE
1070
   380
1005
16
1001
ACAD_DSTYLE_DIM_EXT1_LINETYPE
1070
   381
1005
16
1001
ACAD_DSTYLE_DIM_EXT2_LINETYPE
1070
   382
1005
16
0
DIMENSION
5
17A
100
AcDbEntity
8
SK2
62
256
6
ByLayer
370
18
48
1
60
0
100
AcDbDimension
2
_U3
10
0
20
-64.053452
30
0
11
-22.5
21
-64.053452
31
0
70
32
71
1
72
1
41
1
210
0
220
0
230
1
3
Standard
100
AcDbAlignedDimension
13
-45
23
-6
33
0
14
0
24
-6
34
0
50
0
100
AcDbRotatedDimension
1001
ACAD
1000
DSTYLE
1002
{
1070
   371
1070
    13
1070
   372
1070
    13
1070
     3
1000

1070
   170
1070
     0
1070
   144
1040
1.0
1070
   277
1070
     2
1070
   284
1070
     8
1070
   278
1070
    46
1070
   146
1040
1.0
1070
   345
1005
16
1070
   347
1005
16
1070
   346
1005
16
1070
   344
1005
0
1070
   343
1005
0
1070
   172
1070
     1
1070
    76
1070
     0
1070
    75
1070
     0
1070
   282
1070
     0
1070
   281
1070
     0
1070
    71
1070
     0
1070
    74
1070
     0
1070
   279
1070
     0
1070
   173
1070
     1
1070
   340
1005
10E
1070
   271
1070
     2
1070
   272
1070
     2
1070
    77
1070
     1
1070
    73
1070
     1
1070
   171
1070
     3
1070
   274
1070
     4
1070
   177
1070
     2
1070
   176
1070
     2
1070
   178
1070
     2
1070
    78
1070
     8
1070
    48
1040
-0.1
1070
    41
1040
3.5
1070
   147
1040
1.75
1070
    42
1040
1.5875
1070
    44
1040
2.0
1070
   140
1040
3.5
1002
}
1001
ACAD_DSTYLE_DIM_LINETYPE
1070
   380
1005
16
1001
ACAD_DSTYLE_DIM_EXT1_LINETYPE
1070
   381
1005
16
1001
ACAD_DSTYLE_DIM_EXT2_LINETYPE
1070
   382
1005
16
0
DIMENSION
5
192
100
AcDbEntity
8
SK2
62
256
6
ByLayer
370
18
48
1
60
0
100
AcDbDimension
2
_U4
10
73
20
-74.053452
30
0
11
36.5
21
-74.053452
31
0
70
32
71
1
72
1
41
1
210
0
220
0
230
1
3
Standard
100
AcDbAlignedDimension
13
0
23
-6
33
0
14
73
24
-5.2
34
0
50
0
100
AcDbRotatedDimension
1001
ACAD
1000
DSTYLE
1002
{
1070
   371
1070
    13
1070
   372
1070
    13
1070
     3
1000

1070
   170
1070
     0
1070
   144
1040
1.0
1070
   277
1070
     2
1070
   284
1070
     8
1070
   278
1070
    46
1070
   146
1040
1.0
1070
   345
1005
16
1070
   347
1005
16
1070
   346
1005
16
1070
   344
1005
0
1070
   343
1005
0
1070
   172
1070
     1
1070
    76
1070
     0
1070
    75
1070
     0
1070
   282
1070
     0
1070
   281
1070
     0
1070
    71
1070
     0
1070
    74
1070
     0
1070
   279
1070
     0
1070
   173
1070
     1
1070
   340
1005
10E
1070
   271
1070
     2
1070
   272
1070
     2
1070
    77
1070
     1
1070
    73
1070
     1
1070
   171
1070
     3
1070
   274
1070
     4
1070
   177
1070
     2
1070
   176
1070
     2
1070
   178
1070
     2
1070
    78
1070
     8
1070
    48
1040
-0.1
1070
    41
1040
3.5
1070
   147
1040
1.75
1070
    42
1040
1.5875
1070
    44
1040
2.0
1070
   140
1040
3.5
1002
}
1001
ACAD_DSTYLE_DIM_LINETYPE
1070
   380
1005
16
1001
ACAD_DSTYLE_DIM_EXT1_LINETYPE
1070
   381
1005
16
1001
ACAD_DSTYLE_DIM_EXT2_LINETYPE
1070
   382
1005
16
0
ENDSEC
0
SECTION
2
OBJECTS
0
DICTIONARY
5
21a
330
0
100
AcDbDictionary
280
0
281
1
3
ACAD_GROUP
350
21b
3
ACAD_MLINESTYLE
350
21c
0
DICTIONARY
5
21b
330
0
100
AcDbDictionary
280
0
281
1
0
DICTIONARY
5
21c
330
0
100
AcDbDictionary
280
0
281
1
3
Standard
350
18
0
MLINESTYLE
5
18
330
21c
100
AcDbMlineStyle
2
Standard
70
0
3

62
256
51
90
52
90
71
2
49
-0.5
62
256
6
ByLayer
49
0.5
62
256
6
ByLayer
0
RASTERVARIABLES
5
208
330

100
AcDbRasterVariables
90
0
70
1
71
1
72
1
0
ENDSEC
0
EOF
