0
SECTION
2
HEADER
9
$ACADVER
1
AC1015
9
$DWGCODEPAGE
3
ANSI_1252
9
$HANDSEED
5
22b
9
$ANGBASE
50
0
9
$ANGDIR
70
0
9
$ATTMODE
70
1
9
$AUNITS
70
0
9
$AUPREC
70
0
9
$CECOLOR
62
256
9
$CELTSCALE
40
1
9
$CELTYPE
6
ByLayer
9
$CELWEIGHT
370
18
9
$CLAYER
8
0
9
$CMLJUST
70
0
9
$CMLSCALE
40
1
9
$CMLSTYLE
2
Standard
9
$DIMSTYLE
2
Standard
9
$TEXTSIZE
40
0.2
9
$TEXTSTYLE
7
Standard
9
$LUNITS
70
2
9
$LUPREC
70
4
9
$EXTNAMES
290
1
9
$INSUNITS
70
4
9
$LTSCALE
40
1
9
$LWDISPLAY
290
1
9
$PDMODE
70
0
9
$PDSIZE
40
0
9
$PLINEGEN
70
0
0
ENDSEC
0
SECTION
2
CLASSES
0
CLASS
1
RASTERVARIABLES
2
AcDbRasterVariables
3
ISM
90
0
280
0
281
0
0
ENDSEC
0
SECTION
2
TABLES
0
TABLE
2
VPORT
5
221
100
AcDbSymbolTable
0
VPORT
5
1
100
AcDbSymbolTableRecord
100
AcDbViewportTableRecord
2
*Active
70
0
10
0
20
0
11
1
21
1
12
-1
22
1
13
0
23
0
14
0.5
24
0.5
15
10
25
10
16
0
26
0
36
1
17
0
27
0
37
0
0
ENDTAB
0
TABLE
2
LTYPE
5
222
100
AcDbSymbolTable
0
LTYPE
5
14
100
AcDbSymbolTableRecord
100
AcDbLinetypeTableRecord
70
0
2
ByBlock
3

72
65
73
0
40
0
0
LTYPE
5
15
100
AcDbSymbolTableRecord
100
AcDbLinetypeTableRecord
70
0
2
ByLayer
3

72
65
73
0
40
0
0
LTYPE
5
16
100
AcDbSymbolTableRecord
100
AcDbLinetypeTableRecord
70
0
2
Continuous
3
Solid line
72
65
73
0
40
0
0
LTYPE
5
6E
100
AcDbSymbolTableRecord
100
AcDbLinetypeTableRecord
70
0
2
CENTER
3
____ _ ____ _ ____ _ ____
72
65
73
4
40
47.5
49
22
74
0
49
-8.5
74
0
49
8.5
74
0
49
-8.5
74
0
0
LTYPE
5
6F
100
AcDbSymbolTableRecord
100
AcDbLinetypeTableRecord
70
0
2
DASHED
3
__ __ __ __ __ __ __ __ __
72
65
73
2
40
25.72
49
12.86
74
0
49
-12.86
74
0
0
ENDTAB
0
TABLE
2
LAYER
5
223
100
AcDbSymbolTable
0
LAYER
5
10
100
AcDbSymbolTableRecord
100
AcDbLayerTableRecord
2
0
70
0
62
7
6
Continuous
290
1
370
-3
390
0
0
LAYER
5
71
100
AcDbSymbolTableRecord
100
AcDbLayerTableRecord
2
81
70
0
62
-3
6
Continuous
290
1
370
-3
390
0
0
LAYER
5
73
100
AcDbSymbolTableRecord
100
AcDbLayerTableRecord
2
80
70
0
62
-6
6
Continuous
290
1
370
-3
390
0
0
LAYER
5
75
100
AcDbSymbolTableRecord
100
AcDbLayerTableRecord
2
1
70
0
62
4
6
Continuous
290
1
370
-3
390
0
0
LAYER
5
87
100
AcDbSymbolTableRecord
100
AcDbLayerTableRecord
2
4
70
0
62
-2
6
CENTER
290
1
370
-3
390
0
0
LAYER
5
A3
100
AcDbSymbolTableRecord
100
AcDbLayerTableRecord
2
2
70
0
62
7
6
Continuous
290
1
370
-3
390
0
0
LAYER
5
136
100
AcDbSymbolTableRecord
100
AcDbLayerTableRecord
2
Defpoints
70
0
62
7
6
Continuous
290
0
370
-3
390
0
0
LAYER
5
20d
100
AcDbSymbolTableRecord
100
AcDbLayerTableRecord
2
SK4
70
0
62
2
6
CENTER
290
1
370
-3
390
0
0
LAYER
5
20e
100
AcDbSymbolTableRecord
100
AcDbLayerTableRecord
2
SK1
70
0
62
4
6
Continuous
290
1
370
-3
390
0
0
LAYER
5
20f
100
AcDbSymbolTableRecord
100
AcDbLayerTableRecord
2
SK2
70
0
62
7
6
Continuous
290
1
370
-3
390
0
0
LAYER
5
210
100
AcDbSymbolTableRecord
100
AcDbLayerTableRecord
2
SK6
70
0
62
5
6
Continuous
290
1
370
-3
390
0
0
ENDTAB
0
TABLE
2
STYLE
5
224
100
AcDbSymbolTable
0
STYLE
5
11
100
AcDbSymbolTableRecord
100
AcDbTextStyleTableRecord
2
Standard
3
txt
70
0
71
0
40
0
41
1
42
0
50
0
0
STYLE
5
112
100
AcDbSymbolTableRecord
100
AcDbTextStyleTableRecord
2
iso_b_vert
3
simplex.shx
70
0
71
0
40
0
41
1
42
0
50
0
0
STYLE
5
113
100
AcDbSymbolTableRecord
100
AcDbTextStyleTableRecord
2
DWGDirectTextStyle
3
simplex
70
0
71
0
40
0
41
1
42
0
50
0
0
ENDTAB
0
TABLE
2
DIMSTYLE
5
225
100
AcDbSymbolTable
100
AcDbDimStyleTable
0
DIMSTYLE
105
27
100
AcDbSymbolTableRecord
100
AcDbDimStyleTableRecord
2
Standard
70
0
3
<>
41
0.18
42
0.0625
44
0.18
140
0.18
147
0.09
73
0
74
0
77
1
271
2
275
0
278
52
280
0
340
11
0
ENDTAB
0
TABLE
2
VIEW
5
226
100
AcDbSymbolTable
0
ENDTAB
0
TABLE
2
UCS
5
227
100
AcDbSymbolTable
0
ENDTAB
0
TABLE
2
APPID
5
228
100
AcDbSymbolTable
0
APPID
5
12
100
AcDbSymbolTableRecord
100
AcDbRegAppTableRecord
2
ACAD
70
0
0
APPID
5
132
100
AcDbSymbolTableRecord
100
AcDbRegAppTableRecord
2
ACAD_DSTYLE_DIMBREAK
70
0
0
APPID
5
1CC
100
AcDbSymbolTableRecord
100
AcDbRegAppTableRecord
2
ACAD_DSTYLE_DIM_LINETYPE
70
0
0
APPID
5
1CD
100
AcDbSymbolTableRecord
100
AcDbRegAppTableRecord
2
ACAD_DSTYLE_DIM_EXT1_LINETYPE
70
0
0
APPID
5
1CE
100
AcDbSymbolTableRecord
100
AcDbRegAppTableRecord
2
ACAD_DSTYLE_DIM_EXT2_LINETYPE
70
0
0
APPID
5
209
100
AcDbSymbolTableRecord
100
AcDbRegAppTableRecord
2
ACAD_MLEADERVER
70
0
0
ENDTAB
0
TABLE
2
BLOCK_RECORD
5
229
100
AcDbSymbolTable
0
BLOCK_RECORD
5
1F
100
AcDbSymbolTableRecord
100
AcDbBlockTableRecord
2
*Model_Space
340
0
70
0
0
BLOCK_RECORD
5
1B
100
AcDbSymbolTableRecord
100
AcDbBlockTableRecord
2
*Paper_Space
340
0
70
0
0
BLOCK_RECORD
5
23
100
AcDbSymbolTableRecord
100
AcDbBlockTableRecord
2
*Paper_Space0
340
0
70
0
0
BLOCK_RECORD
5
137
100
AcDbSymbolTableRecord
100
AcDbBlockTableRecord
2
*D1
340
0
70
0
0
BLOCK_RECORD
5
143
100
AcDbSymbolTableRecord
100
AcDbBlockTableRecord
2
_U0
340
0
70
0
0
BLOCK_RECORD
5
14F
100
AcDbSymbolTableRecord
100
AcDbBlockTableRecord
2
*D3
340
0
70
0
0
BLOCK_RECORD
5
15B
100
AcDbSymbolTableRecord
100
AcDbBlockTableRecord
2
_U1
340
0
70
0
0
BLOCK_RECORD
5
167
100
AcDbSymbolTableRecord
100
AcDbBlockTableRecord
2
*D5
340
0
70
0
0
BLOCK_RECORD
5
173
100
AcDbSymbolTableRecord
100
AcDbBlockTableRecord
2
_U2
340
0
70
0
0
BLOCK_RECORD
5
181
100
AcDbSymbolTableRecord
100
AcDbBlockTableRecord
2
*D7
340
0
70
0
0
BLOCK_RECORD
5
18D
100
AcDbSymbolTableRecord
100
AcDbBlockTableRecord
2
_U3
340
0
70
0
0
BLOCK_RECORD
5
199
100
AcDbSymbolTableRecord
100
AcDbBlockTableRecord
2
*D9
340
0
70
0
0
BLOCK_RECORD
5
1A5
100
AcDbSymbolTableRecord
100
AcDbBlockTableRecord
2
_U4
340
0
70
0
0
ENDTAB
0
ENDSEC
0
SECTION
2
BLOCKS
0
BLOCK
5
20
100
AcDbEntity
8
0
100
AcDbBlockBegin
2
*Model_Space
70
0
10
0
20
0
30
0
3
*Model_Space
0
ENDBLK
5
21
100
AcDbEntity
8
0
100
AcDbBlockEnd
0
BLOCK
5
1C
100
AcDbEntity
8
0
100
AcDbBlockBegin
2
*Paper_Space
70
0
10
0
20
0
30
0
3
*Paper_Space
0
ENDBLK
5
1D
100
AcDbEntity
8
0
100
AcDbBlockEnd
0
BLOCK
5
24
100
AcDbEntity
8
0
100
AcDbBlockBegin
2
*Paper_Space0
70
0
10
0
20
0
30
0
3
*Paper_Space0
0
ENDBLK
5
25
100
AcDbEntity
8
0
100
AcDbBlockEnd
0
BLOCK
5
138
100
AcDbEntity
8
0
100
AcDbBlockBegin
2
*D1
70
1
10
0
20
0
30
0
3
*D1
0
LINE
5
13A
100
AcDbEntity
8
0
62
256
6
ByLayer
370
-2
48
1
60
0
100
AcDbLine
10
-40
20
-6.5875
30
0
11
-40
21
-66.488145
31
0
39
0
210
0
220
0
230
1
0
LINE
5
13B
100
AcDbEntity
8
0
62
256
6
ByLayer
370
-2
48
1
60
0
100
AcDbLine
10
63
20
-6.5475
30
0
11
63
21
-66.488145
31
0
39
0
210
0
220
0
230
1
0
LINE
5
13C
100
AcDbEntity
8
0
62
256
6
ByLayer
370
-2
48
1
60
0
100
AcDbLine
10
-36.5
20
-64.488145
30
0
11
59.5
21
-64.488145
31
0
39
0
210
0
220
0
230
1
0
SOLID
5
13D
100
AcDbEntity
8
0
62
256
6
ByLayer
370
-1
48
1
60
0
100
AcDbTrace
10
-36.5
20
-63.904811
30
0
11
-36.5
21
-65.071478
31
0
12
-40
22
-64.488145
32
0
13
-40
23
-64.488145
33
0
39
0
210
0
220
0
230
1
0
SOLID
5
13E
100
AcDbEntity
8
0
62
256
6
ByLayer
370
-1
48
1
60
0
100
AcDbTrace
10
59.5
20
-65.071478
30
0
11
59.5
21
-63.904811
31
0
12
63
22
-64.488145
32
0
13
63
23
-64.488145
33
0
39
0
210
0
220
0
230
1
0
MTEXT
5
13F
100
AcDbEntity
8
0
62
256
6
ByLayer
370
18
48
1
60
0
100
AcDbMText
10
11.5
20
-57.488145
30
0
210
0
220
0
230
1
1
\A1;103
40
3.5
41
0
44
1
50
0
71
5
72
5
7
iso_b_vert
0
POINT
5
140
100
AcDbEntity
8
Defpoints
62
0
6
ByLayer
370
-1
48
1
60
0
100
AcDbPoint
10
-40
20
-5
30
0
39
0
210
0
220
0
230
1
50
360
0
POINT
5
141
100
AcDbEntity
8
Defpoints
62
0
6
ByLayer
370
-1
48
1
60
0
100
AcDbPoint
10
63
20
-4.96
30
0
39
0
210
0
220
0
230
1
50
360
0
POINT
5
142
100
AcDbEntity
8
Defpoints
62
0
6
ByLayer
370
-1
48
1
60
0
100
AcDbPoint
10
63
20
-64.488145
30
0
39
0
210
0
220
0
230
1
50
360
0
ENDBLK
5
139
100
AcDbEntity
8
0
100
AcDbBlockEnd
0
BLOCK
5
14A
100
AcDbEntity
8
0
100
AcDbBlockBegin
2
_U0
70
0
10
0
20
0
30
0
3
_U0
0
MTEXT
5
144
100
AcDbEntity
8
2
62
256
6
ByLayer
370
18
48
1
60
0
100
AcDbMText
10
8.724734
20
-63.455511
30
0
210
0
220
0
230
1
1
\W0.6217;103
40
3.5
41
0
44
1.084337
50
0
71
7
72
5
7
iso_b_vert
0
LINE
5
145
100
AcDbEntity
8
2
62
256
6
ByLayer
370
13
48
1
60
0
100
AcDbLine
10
-40
20
-6.5875
30
0
11
-40
21
-66.488145
31
0
39
0
210
0
220
0
230
1
0
LINE
5
146
100
AcDbEntity
8
2
62
256
6
ByLayer
370
13
48
1
60
0
100
AcDbLine
10
63
20
-6.5475
30
0
11
63
21
-66.488145
31
0
39
0
210
0
220
0
230
1
0
LINE
5
147
100
AcDbEntity
8
2
62
256
6
ByLayer
370
13
48
1
60
0
100
AcDbLine
10
-40
20
-64.488145
30
0
11
63
21
-64.488145
31
0
39
0
210
0
220
0
230
1
0
SOLID
5
148
100
AcDbEntity
8
2
62
256
6
ByLayer
370
18
48
1
60
0
100
AcDbTrace
10
-40
20
-64.488145
30
0
11
-36.500002
21
-64.027361
31
0
12
-36.499998
22
-64.948928
32
0
13
-36.499998
23
-64.948928
33
0
39
0
210
0
220
0
230
1
0
SOLID
5
149
100
AcDbEntity
8
2
62
256
6
ByLayer
370
18
48
1
60
0
100
AcDbTrace
10
63
20
-64.488145
30
0
11
59.500002
21
-64.948928
31
0
12
59.499998
22
-64.027361
32
0
13
59.499998
23
-64.027361
33
0
39
0
210
0
220
0
230
1
0
ENDBLK
5
14B
100
AcDbEntity
8
0
100
AcDbBlockEnd
0
BLOCK
5
150
100
AcDbEntity
8
0
100
AcDbBlockBegin
2
*D3
70
1
10
0
20
0
30
0
3
*D3
0
LINE
5
152
100
AcDbEntity
8
0
62
256
6
ByLayer
370
-2
48
1
60
0
100
AcDbLine
10
63
20
-6.5475
30
0
11
63
21
-46.488145
31
0
39
0
210
0
220
0
230
1
0
LINE
5
153
100
AcDbEntity
8
0
62
256
6
ByLayer
370
-2
48
1
60
0
100
AcDbLine
10
2
20
-6.5475
30
0
11
2
21
-46.488145
31
0
39
0
210
0
220
0
230
1
0
LINE
5
154
100
AcDbEntity
8
0
62
256
6
ByLayer
370
-2
48
1
60
0
100
AcDbLine
10
59.5
20
-44.488145
30
0
11
5.5
21
-44.488145
31
0
39
0
210
0
220
0
230
1
0
SOLID
5
155
100
AcDbEntity
8
0
62
256
6
ByLayer
370
-1
48
1
60
0
100
AcDbTrace
10
59.5
20
-45.071478
30
0
11
59.5
21
-43.904811
31
0
12
63
22
-44.488145
32
0
13
63
23
-44.488145
33
0
39
0
210
0
220
0
230
1
0
SOLID
5
156
100
AcDbEntity
8
0
62
256
6
ByLayer
370
-1
48
1
60
0
100
AcDbTrace
10
5.5
20
-43.904811
30
0
11
5.5
21
-45.071478
31
0
12
2
22
-44.488145
32
0
13
2
23
-44.488145
33
0
39
0
210
0
220
0
230
1
0
MTEXT
5
157
100
AcDbEntity
8
0
62
256
6
ByLayer
370
18
48
1
60
0
100
AcDbMText
10
32.5
20
-37.488145
30
0
210
0
220
0
230
1
1
\A1;61
40
3.5
41
0
44
1
50
0
71
5
72
5
7
iso_b_vert
0
POINT
5
158
100
AcDbEntity
8
Defpoints
62
0
6
ByLayer
370
-1
48
1
60
0
100
AcDbPoint
10
63
20
-4.96
30
0
39
0
210
0
220
0
230
1
50
360
0
POINT
5
159
100
AcDbEntity
8
Defpoints
62
0
6
ByLayer
370
-1
48
1
60
0
100
AcDbPoint
10
2
20
-4.96
30
0
39
0
210
0
220
0
230
1
50
360
0
POINT
5
15A
100
AcDbEntity
8
Defpoints
62
0
6
ByLayer
370
-1
48
1
60
0
100
AcDbPoint
10
2
20
-44.488145
30
0
39
0
210
0
220
0
230
1
50
360
0
ENDBLK
5
151
100
AcDbEntity
8
0
100
AcDbBlockEnd
0
BLOCK
5
162
100
AcDbEntity
8
0
100
AcDbBlockBegin
2
_U1
70
0
10
0
20
0
30
0
3
_U1
0
MTEXT
5
15C
100
AcDbEntity
8
SK2
62
256
6
ByLayer
370
18
48
1
60
0
100
AcDbMText
10
31.032467
20
-43.455511
30
0
210
0
220
0
230
1
1
\W0.6351;61
40
3.5
41
0
44
1.084337
50
0
71
7
72
5
7
iso_b_vert
0
LINE
5
15D
100
AcDbEntity
8
SK2
62
256
6
ByLayer
370
13
48
1
60
0
100
AcDbLine
10
63
20
-6.5475
30
0
11
63
21
-46.488145
31
0
39
0
210
0
220
0
230
1
0
LINE
5
15E
100
AcDbEntity
8
SK2
62
256
6
ByLayer
370
13
48
1
60
0
100
AcDbLine
10
2
20
-6.5475
30
0
11
2
21
-46.488145
31
0
39
0
210
0
220
0
230
1
0
LINE
5
15F
100
AcDbEntity
8
SK2
62
256
6
ByLayer
370
13
48
1
60
0
100
AcDbLine
10
63
20
-44.488145
30
0
11
2
21
-44.488145
31
0
39
0
210
0
220
0
230
1
0
SOLID
5
160
100
AcDbEntity
8
SK2
62
256
6
ByLayer
370
18
48
1
60
0
100
AcDbTrace
10
63
20
-44.488145
30
0
11
59.500002
21
-44.948928
31
0
12
59.499998
22
-44.027361
32
0
13
59.499998
23
-44.027361
33
0
39
0
210
0
220
0
230
1
0
SOLID
5
161
100
AcDbEntity
8
SK2
62
256
6
ByLayer
370
18
48
1
60
0
100
AcDbTrace
10
2
20
-44.488145
30
0
11
5.499998
21
-44.027361
31
0
12
5.500002
22
-44.948928
32
0
13
5.500002
23
-44.948928
33
0
39
0
210
0
220
0
230
1
0
ENDBLK
5
163
100
AcDbEntity
8
0
100
AcDbBlockEnd
0
BLOCK
5
168
100
AcDbEntity
8
0
100
AcDbBlockBegin
2
*D5
70
1
10
0
20
0
30
0
3
*D5
0
LINE
5
16A
100
AcDbEntity
8
0
62
256
6
ByLayer
370
-2
48
1
60
0
100
AcDbLine
10
63
20
-6.5475
30
0
11
63
21
-36.488145
31
0
39
0
210
0
220
0
230
1
0
LINE
5
16B
100
AcDbEntity
8
0
62
256
6
ByLayer
370
-2
48
1
60
0
100
AcDbLine
10
14
20
-6.5475
30
0
11
14
21
-36.488145
31
0
39
0
210
0
220
0
230
1
0
LINE
5
16C
100
AcDbEntity
8
0
62
256
6
ByLayer
370
-2
48
1
60
0
100
AcDbLine
10
59.5
20
-34.488145
30
0
11
17.5
21
-34.488145
31
0
39
0
210
0
220
0
230
1
0
SOLID
5
16D
100
AcDbEntity
8
0
62
256
6
ByLayer
370
-1
48
1
60
0
100
AcDbTrace
10
59.5
20
-35.071478
30
0
11
59.5
21
-33.904811
31
0
12
63
22
-34.488145
32
0
13
63
23
-34.488145
33
0
39
0
210
0
220
0
230
1
0
SOLID
5
16E
100
AcDbEntity
8
0
62
256
6
ByLayer
370
-1
48
1
60
0
100
AcDbTrace
10
17.5
20
-33.904811
30
0
11
17.5
21
-35.071478
31
0
12
14
22
-34.488145
32
0
13
14
23
-34.488145
33
0
39
0
210
0
220
0
230
1
0
MTEXT
5
16F
100
AcDbEntity
8
0
62
256
6
ByLayer
370
18
48
1
60
0
100
AcDbMText
10
38.5
20
-27.488145
30
0
210
0
220
0
230
1
1
\A1;49
40
3.5
41
0
44
1
50
0
71
5
72
5
7
iso_b_vert
0
POINT
5
170
100
AcDbEntity
8
Defpoints
62
0
6
ByLayer
370
-1
48
1
60
0
100
AcDbPoint
10
63
20
-4.96
30
0
39
0
210
0
220
0
230
1
50
360
0
POINT
5
171
100
AcDbEntity
8
Defpoints
62
0
6
ByLayer
370
-1
48
1
60
0
100
AcDbPoint
10
14
20
-4.96
30
0
39
0
210
0
220
0
230
1
50
360
0
POINT
5
172
100
AcDbEntity
8
Defpoints
62
0
6
ByLayer
370
-1
48
1
60
0
100
AcDbPoint
10
14
20
-34.488145
30
0
39
0
210
0
220
0
230
1
50
360
0
ENDBLK
5
169
100
AcDbEntity
8
0
100
AcDbBlockEnd
0
BLOCK
5
17C
100
AcDbEntity
8
0
100
AcDbBlockBegin
2
_U2
70
0
10
0
20
0
30
0
3
_U2
0
MTEXT
5
174
100
AcDbEntity
8
SK2
62
256
6
ByLayer
370
18
48
1
60
0
100
AcDbMText
10
36.410767
20
-33.455511
30
0
210
0
220
0
230
1
1
\W0.7565;49
40
3.5
41
0
44
1.084337
50
0
71
7
72
5
7
iso_b_vert
0
MTEXT
5
175
100
AcDbEntity
8
SK2
62
256
6
ByLayer
370
18
48
1
60
0
100
AcDbMText
10
32.542768
20
-33.455511
30
0
210
0
220
0
230
1
1
\W0.1790;(
40
3.5
41
0
44
1.084337
50
0
71
7
72
5
7
iso_b_vert
0
MTEXT
5
176
100
AcDbEntity
8
SK2
62
256
6
ByLayer
370
18
48
1
60
0
100
AcDbMText
10
44.460233
20
-33.455511
30
0
210
0
220
0
230
1
1
\W0.1969;)
40
3.5
41
0
44
1.084337
50
0
71
7
72
5
7
iso_b_vert
0
LINE
5
177
100
AcDbEntity
8
SK2
62
256
6
ByLayer
370
13
48
1
60
0
100
AcDbLine
10
63
20
-6.5475
30
0
11
63
21
-36.488145
31
0
39
0
210
0
220
0
230
1
0
LINE
5
178
100
AcDbEntity
8
SK2
62
256
6
ByLayer
370
13
48
1
60
0
100
AcDbLine
10
14
20
-6.5475
30
0
11
14
21
-36.488145
31
0
39
0
210
0
220
0
230
1
0
LINE
5
179
100
AcDbEntity
8
SK2
62
256
6
ByLayer
370
13
48
1
60
0
100
AcDbLine
10
63
20
-34.488145
30
0
11
14
21
-34.488145
31
0
39
0
210
0
220
0
230
1
0
SOLID
5
17A
100
AcDbEntity
8
SK2
62
256
6
ByLayer
370
18
48
1
60
0
100
AcDbTrace
10
63
20
-34.488145
30
0
11
59.500002
21
-34.948928
31
0
12
59.499998
22
-34.027361
32
0
13
59.499998
23
-34.027361
33
0
39
0
210
0
220
0
230
1
0
SOLID
5
17B
100
AcDbEntity
8
SK2
62
256
6
ByLayer
370
18
48
1
60
0
100
AcDbTrace
10
14
20
-34.488145
30
0
11
17.499998
21
-34.027361
31
0
12
17.500002
22
-34.948928
32
0
13
17.500002
23
-34.948928
33
0
39
0
210
0
220
0
230
1
0
ENDBLK
5
17D
100
AcDbEntity
8
0
100
AcDbBlockEnd
0
BLOCK
5
182
100
AcDbEntity
8
0
100
AcDbBlockBegin
2
*D7
70
1
10
0
20
0
30
0
3
*D7
0
LINE
5
184
100
AcDbEntity
8
0
62
256
6
ByLayer
370
-2
48
1
60
0
100
AcDbLine
10
-40
20
-6.5875
30
0
11
-40
21
-46.488145
31
0
39
0
210
0
220
0
230
1
0
LINE
5
185
100
AcDbEntity
8
0
62
256
6
ByLayer
370
-2
48
1
60
0
100
AcDbLine
10
0
20
-6.5875
30
0
11
0
21
-46.488145
31
0
39
0
210
0
220
0
230
1
0
LINE
5
186
100
AcDbEntity
8
0
62
256
6
ByLayer
370
-2
48
1
60
0
100
AcDbLine
10
-36.5
20
-44.488145
30
0
11
-3.5
21
-44.488145
31
0
39
0
210
0
220
0
230
1
0
SOLID
5
187
100
AcDbEntity
8
0
62
256
6
ByLayer
370
-1
48
1
60
0
100
AcDbTrace
10
-36.5
20
-43.904811
30
0
11
-36.5
21
-45.071478
31
0
12
-40
22
-44.488145
32
0
13
-40
23
-44.488145
33
0
39
0
210
0
220
0
230
1
0
SOLID
5
188
100
AcDbEntity
8
0
62
256
6
ByLayer
370
-1
48
1
60
0
100
AcDbTrace
10
-3.5
20
-45.071478
30
0
11
-3.5
21
-43.904811
31
0
12
0
22
-44.488145
32
0
13
0
23
-44.488145
33
0
39
0
210
0
220
0
230
1
0
MTEXT
5
189
100
AcDbEntity
8
0
62
256
6
ByLayer
370
18
48
1
60
0
100
AcDbMText
10
-20
20
-37.488145
30
0
210
0
220
0
230
1
1
\A1;40
40
3.5
41
0
44
1
50
0
71
5
72
5
7
iso_b_vert
0
POINT
5
18A
100
AcDbEntity
8
Defpoints
62
0
6
ByLayer
370
-1
48
1
60
0
100
AcDbPoint
10
-40
20
-5
30
0
39
0
210
0
220
0
230
1
50
360
0
POINT
5
18B
100
AcDbEntity
8
Defpoints
62
0
6
ByLayer
370
-1
48
1
60
0
100
AcDbPoint
10
0
20
-5
30
0
39
0
210
0
220
0
230
1
50
360
0
POINT
5
18C
100
AcDbEntity
8
Defpoints
62
0
6
ByLayer
370
-1
48
1
60
0
100
AcDbPoint
10
0
20
-44.488145
30
0
39
0
210
0
220
0
230
1
50
360
0
ENDBLK
5
183
100
AcDbEntity
8
0
100
AcDbBlockEnd
0
BLOCK
5
194
100
AcDbEntity
8
0
100
AcDbBlockBegin
2
_U3
70
0
10
0
20
0
30
0
3
_U3
0
MTEXT
5
18E
100
AcDbEntity
8
SK2
62
256
6
ByLayer
370
18
48
1
60
0
100
AcDbMText
10
-22.089233
20
-43.455511
30
0
210
0
220
0
230
1
1
\W0.7361;40
40
3.5
41
0
44
1.084337
50
0
71
7
72
5
7
iso_b_vert
0
LINE
5
18F
100
AcDbEntity
8
SK2
62
256
6
ByLayer
370
13
48
1
60
0
100
AcDbLine
10
-40
20
-6.5875
30
0
11
-40
21
-46.488145
31
0
39
0
210
0
220
0
230
1
0
LINE
5
190
100
AcDbEntity
8
SK2
62
256
6
ByLayer
370
13
48
1
60
0
100
AcDbLine
10
0
20
-6.5875
30
0
11
0
21
-46.488145
31
0
39
0
210
0
220
0
230
1
0
LINE
5
191
100
AcDbEntity
8
SK2
62
256
6
ByLayer
370
13
48
1
60
0
100
AcDbLine
10
-40
20
-44.488145
30
0
11
0
21
-44.488145
31
0
39
0
210
0
220
0
230
1
0
SOLID
5
192
100
AcDbEntity
8
SK2
62
256
6
ByLayer
370
18
48
1
60
0
100
AcDbTrace
10
-40
20
-44.488145
30
0
11
-36.500002
21
-44.027361
31
0
12
-36.499998
22
-44.948928
32
0
13
-36.499998
23
-44.948928
33
0
39
0
210
0
220
0
230
1
0
SOLID
5
193
100
AcDbEntity
8
SK2
62
256
6
ByLayer
370
18
48
1
60
0
100
AcDbTrace
10
0
20
-44.488145
30
0
11
-3.499998
21
-44.948928
31
0
12
-3.500002
22
-44.027361
32
0
13
-3.500002
23
-44.027361
33
0
39
0
210
0
220
0
230
1
0
ENDBLK
5
195
100
AcDbEntity
8
0
100
AcDbBlockEnd
0
BLOCK
5
19A
100
AcDbEntity
8
0
100
AcDbBlockBegin
2
*D9
70
1
10
0
20
0
30
0
3
*D9
0
LINE
5
19C
100
AcDbEntity
8
0
62
256
6
ByLayer
370
-2
48
1
60
0
100
AcDbLine
10
0
20
-6.5875
30
0
11
0
21
-56.488145
31
0
39
0
210
0
220
0
230
1
0
LINE
5
19D
100
AcDbEntity
8
0
62
256
6
ByLayer
370
-2
48
1
60
0
100
AcDbLine
10
63
20
-6.5475
30
0
11
63
21
-56.488145
31
0
39
0
210
0
220
0
230
1
0
LINE
5
19E
100
AcDbEntity
8
0
62
256
6
ByLayer
370
-2
48
1
60
0
100
AcDbLine
10
3.5
20
-54.488145
30
0
11
59.5
21
-54.488145
31
0
39
0
210
0
220
0
230
1
0
SOLID
5
19F
100
AcDbEntity
8
0
62
256
6
ByLayer
370
-1
48
1
60
0
100
AcDbTrace
10
3.5
20
-53.904811
30
0
11
3.5
21
-55.071478
31
0
12
0
22
-54.488145
32
0
13
0
23
-54.488145
33
0
39
0
210
0
220
0
230
1
0
SOLID
5
1A0
100
AcDbEntity
8
0
62
256
6
ByLayer
370
-1
48
1
60
0
100
AcDbTrace
10
59.5
20
-55.071478
30
0
11
59.5
21
-53.904811
31
0
12
63
22
-54.488145
32
0
13
63
23
-54.488145
33
0
39
0
210
0
220
0
230
1
0
MTEXT
5
1A1
100
AcDbEntity
8
0
62
256
6
ByLayer
370
18
48
1
60
0
100
AcDbMText
10
31.5
20
-47.488145
30
0
210
0
220
0
230
1
1
\A1;63
40
3.5
41
0
44
1
50
0
71
5
72
5
7
iso_b_vert
0
POINT
5
1A2
100
AcDbEntity
8
Defpoints
62
0
6
ByLayer
370
-1
48
1
60
0
100
AcDbPoint
10
0
20
-5
30
0
39
0
210
0
220
0
230
1
50
360
0
POINT
5
1A3
100
AcDbEntity
8
Defpoints
62
0
6
ByLayer
370
-1
48
1
60
0
100
AcDbPoint
10
63
20
-4.96
30
0
39
0
210
0
220
0
230
1
50
360
0
POINT
5
1A4
100
AcDbEntity
8
Defpoints
62
0
6
ByLayer
370
-1
48
1
60
0
100
AcDbPoint
10
63
20
-54.488145
30
0
39
0
210
0
220
0
230
1
50
360
0
ENDBLK
5
19B
100
AcDbEntity
8
0
100
AcDbBlockEnd
0
BLOCK
5
1AC
100
AcDbEntity
8
0
100
AcDbBlockBegin
2
_U4
70
0
10
0
20
0
30
0
3
_U4
0
MTEXT
5
1A6
100
AcDbEntity
8
SK2
62
256
6
ByLayer
370
18
48
1
60
0
100
AcDbMText
10
29.595034
20
-53.455511
30
0
210
0
220
0
230
1
1
\W0.6740;63
40
3.5
41
0
44
1.084337
50
0
71
7
72
5
7
iso_b_vert
0
LINE
5
1A7
100
AcDbEntity
8
SK2
62
256
6
ByLayer
370
13
48
1
60
0
100
AcDbLine
10
0
20
-6.5875
30
0
11
0
21
-56.488145
31
0
39
0
210
0
220
0
230
1
0
LINE
5
1A8
100
AcDbEntity
8
SK2
62
256
6
ByLayer
370
13
48
1
60
0
100
AcDbLine
10
63
20
-6.5475
30
0
11
63
21
-56.488145
31
0
39
0
210
0
220
0
230
1
0
LINE
5
1A9
100
AcDbEntity
8
SK2
62
256
6
ByLayer
370
13
48
1
60
0
100
AcDbLine
10
0
20
-54.488145
30
0
11
63
21
-54.488145
31
0
39
0
210
0
220
0
230
1
0
SOLID
5
1AA
100
AcDbEntity
8
SK2
62
256
6
ByLayer
370
18
48
1
60
0
100
AcDbTrace
10
0
20
-54.488145
30
0
11
3.499998
21
-54.027361
31
0
12
3.500002
22
-54.948928
32
0
13
3.500002
23
-54.948928
33
0
39
0
210
0
220
0
230
1
0
SOLID
5
1AB
100
AcDbEntity
8
SK2
62
256
6
ByLayer
370
18
48
1
60
0
100
AcDbTrace
10
63
20
-54.488145
30
0
11
59.500002
21
-54.948928
31
0
12
59.499998
22
-54.027361
32
0
13
59.499998
23
-54.027361
33
0
39
0
210
0
220
0
230
1
0
ENDBLK
5
1AD
100
AcDbEntity
8
0
100
AcDbBlockEnd
0
ENDSEC
0
SECTION
2
ENTITIES
0
ARC
5
BE
100
AcDbEntity
8
1
62
256
6
ByLayer
370
18
48
1
60
0
100
AcDbCircle
39
0
10
0.237655
20
5.121901
30
0
40
0.200000000000001
210
0
220
0
230
1
100
AcDbArc
50
234.994159
51
270.03581
0
ARC
5
BF
100
AcDbEntity
8
1
62
256
6
ByLayer
370
18
48
1
60
0
100
AcDbCircle
39
0
10
0.237655
20
-5.121901
30
0
40
0.200000000000001
210
0
220
0
230
1
100
AcDbArc
50
89.96419
51
125.005841
0
ARC
5
C0
100
AcDbEntity
8
1
62
256
6
ByLayer
370
18
48
1
60
0
100
AcDbCircle
39
0
10
0
20
4.8
30
0
40
0.199999999999994
210
0
220
0
230
1
100
AcDbArc
50
54.994159
51
90
0
ARC
5
C1
100
AcDbEntity
8
1
62
256
6
ByLayer
370
18
48
1
60
0
100
AcDbCircle
39
0
10
0
20
-4.8
30
0
40
0.199999999999994
210
0
220
0
230
1
100
AcDbArc
50
270
51
305.005841
0
ARC
5
C2
100
AcDbEntity
8
SK2
62
256
6
ByLayer
370
13
48
1
60
0
100
AcDbCircle
39
0
10
63
20
0
30
0
40
33.2813737937735
210
0
220
0
230
1
100
AcDbArc
50
5.603991
51
70.002982
0
ARC
5
C3
100
AcDbEntity
8
SK2
62
256
6
ByLayer
370
13
48
1
60
0
100
AcDbCircle
39
0
10
63
20
0
30
0
40
33.2813737937735
210
0
220
0
230
1
100
AcDbArc
50
289.997018
51
354.396009
0
ELLIPSE
5
C4
100
AcDbEntity
8
1
62
256
6
ByLayer
370
13
48
1
60
0
100
AcDbEllipse
10
3.677319
20
-4.160854
30
0
11
0.0205977694714327
21
-0.097855668679958
31
0
210
0
220
0
230
1
40
0.590241
41
-2.57307803023334
42
-1.25363402070322
0
ELLIPSE
5
C5
100
AcDbEntity
8
1
62
256
6
ByLayer
370
13
48
1
60
0
100
AcDbEllipse
10
3.750205
20
-4.164217
30
0
11
-0.0261829119890697
21
-0.0965114248147474
31
0
210
0
220
0
230
1
40
0.420654
41
-2.57161632948273
42
-1.01628566293129
0
POINT
5
70
100
AcDbEntity
8
81
62
256
6
ByLayer
370
18
48
1
60
0
100
AcDbPoint
10
63
20
0
30
0
39
0
210
0
220
0
230
1
50
360
0
POINT
5
72
100
AcDbEntity
8
80
62
256
6
ByLayer
370
18
48
1
60
0
100
AcDbPoint
10
0
20
0
30
0
39
0
210
0
220
0
230
1
50
360
0
POINT
5
74
100
AcDbEntity
8
1
62
256
6
ByLayer
370
18
48
1
60
0
100
AcDbPoint
10
-206.534313
20
-200
30
0
39
0
210
0
220
0
230
1
50
360
0
POINT
5
76
100
AcDbEntity
8
1
62
256
6
ByLayer
370
13
48
1
60
1
100
AcDbPoint
10
-41.5
20
0
30
0
39
0
210
0
220
0
230
1
50
360
0
POINT
5
77
100
AcDbEntity
8
1
62
256
6
ByLayer
370
13
48
1
60
1
100
AcDbPoint
10
62.751305
20
0
30
0
39
0
210
0
220
0
230
1
50
360
0
POINT
5
78
100
AcDbEntity
8
1
62
256
6
ByLayer
370
18
48
1
60
1
100
AcDbPoint
10
-40
20
-5
30
0
39
0
210
0
220
0
230
1
50
360
0
POINT
5
79
100
AcDbEntity
8
1
62
256
6
ByLayer
370
18
48
1
60
1
100
AcDbPoint
10
63
20
-4.96
30
0
39
0
210
0
220
0
230
1
50
360
0
POINT
5
7A
100
AcDbEntity
8
1
62
256
6
ByLayer
370
18
48
1
60
1
100
AcDbPoint
10
63
20
-4.96
30
0
39
0
210
0
220
0
230
1
50
360
0
POINT
5
7B
100
AcDbEntity
8
1
62
256
6
ByLayer
370
18
48
1
60
1
100
AcDbPoint
10
2
20
-4.96
30
0
39
0
210
0
220
0
230
1
50
360
0
POINT
5
7C
100
AcDbEntity
8
1
62
256
6
ByLayer
370
18
48
1
60
1
100
AcDbPoint
10
63
20
-4.96
30
0
39
0
210
0
220
0
230
1
50
360
0
POINT
5
7D
100
AcDbEntity
8
1
62
256
6
ByLayer
370
18
48
1
60
1
100
AcDbPoint
10
14
20
-4.96
30
0
39
0
210
0
220
0
230
1
50
360
0
POINT
5
7E
100
AcDbEntity
8
1
62
256
6
ByLayer
370
18
48
1
60
1
100
AcDbPoint
10
-40
20
-5
30
0
39
0
210
0
220
0
230
1
50
360
0
POINT
5
7F
100
AcDbEntity
8
1
62
256
6
ByLayer
370
18
48
1
60
1
100
AcDbPoint
10
0
20
-5
30
0
39
0
210
0
220
0
230
1
50
360
0
POINT
5
80
100
AcDbEntity
8
1
62
256
6
ByLayer
370
18
48
1
60
1
100
AcDbPoint
10
0
20
-5
30
0
39
0
210
0
220
0
230
1
50
360
0
POINT
5
81
100
AcDbEntity
8
1
62
256
6
ByLayer
370
18
48
1
60
1
100
AcDbPoint
10
63
20
-4.96
30
0
39
0
210
0
220
0
230
1
50
360
0
SPLINE
5
C6
100
AcDbEntity
8
1
62
256
6
ByLayer
370
18
48
1
60
0
100
AcDbSpline
70
4
71
3
72
8
73
4
40
0
40
0
40
0
40
0
40
1
40
1
40
1
40
1
41
1
10
62.544649127967
20
1.58651917006981
30
0
41
1
10
62.6992152403026
20
1.15050711225476
30
0
41
1
10
62.8494966484492
20
0.712954918880712
30
0
41
1
10
62.9954260566653
20
0.273838400514876
30
0
0
SPLINE
5
C7
100
AcDbEntity
8
1
62
256
6
ByLayer
370
13
48
1
60
0
100
AcDbSpline
70
4
71
3
72
17
73
13
40
0
40
0
40
0
40
0
40
0.249999999999965
40
0.249999999999965
40
0.374999999999971
40
0.374999999999971
40
0.499999999999977
40
0.624999999999982
40
0.624999999999982
40
0.749999999999988
40
0.749999999999988
40
1
40
1
40
1
40
1
41
1
10
3.62886552201002
20
-4.20292402188807
30
0
41
1
10
3.60822965837929
20
-4.20333257955511
30
0
41
1
10
3.5901223229657
20
-4.20381196068311
30
0
41
1
10
3.5662101359203
20
-4.20459509986557
30
0
41
1
10
3.5587518012147
20
-4.20486901869424
30
0
41
1
10
3.54530639954589
20
-4.20541844044925
30
0
41
1
10
3.53323303580825
20
-4.20597197854624
30
0
41
1
10
3.5237101089607
20
-4.20652582611942
30
0
41
1
10
3.51543526314157
20
-4.20707678796842
30
0
41
1
10
3.51191039928528
20
-4.20735213729535
30
0
41
1
10
3.5033799492864
20
-4.20815775365568
30
0
41
1
10
3.50035651909107
20
-4.20867069686275
30
0
41
1
10
3.50002969439379
20
-4.20914421037753
30
0
0
SPLINE
5
C8
100
AcDbEntity
8
1
62
256
6
ByLayer
370
18
48
1
60
0
100
AcDbSpline
70
4
71
3
72
20
73
16
40
0
40
0
40
0
40
0
40
0.499999999999981
40
0.499999999999981
40
0.74999999999999
40
0.874999999999978
40
0.937499999999989
40
0.968750000000015
40
0.984375000000028
40
0.984375000000028
40
0.992187500000034
40
0.992187500000034
40
0.996093750000017
40
0.996093750000017
40
1
40
1
40
1
40
1
41
1
10
61.1964732243285
20
4.9599560601294
30
0
41
1
10
61.2144936156954
20
4.91898946153091
30
0
41
1
10
61.2328709040548
20
4.87801930896558
30
0
41
1
10
61.2609661363035
20
4.81654937168844
30
0
41
1
10
61.2751455217631
20
4.78581194403128
30
0
41
1
10
61.2919176607249
20
4.74994449432666
30
0
41
1
10
61.3003608727454
20
4.73200881990019
30
0
41
1
10
61.304596678012
20
4.7230406955031
30
0
41
1
10
61.3064142620746
20
4.7192003604431
30
0
41
1
10
61.3073233714115
20
4.71728094099038
30
0
41
1
10
61.3076243091613
20
4.71665002237185
30
0
41
1
10
61.3080828902028
20
4.71567493428134
30
0
41
1
10
61.3082411977951
20
4.71532763911341
30
0
41
1
10
61.3085521696952
20
4.71465661975813
30
0
41
1
10
61.3087330653055
20
4.71425340655699
30
0
41
1
10
61.3088183632703
20
4.71414855854337
30
0
0
SPLINE
5
C9
100
AcDbEntity
8
1
62
256
6
ByLayer
370
18
48
1
60
0
100
AcDbSpline
70
2053
71
3
72
116
73
112
40
0
40
0
40
0
40
0
40
0.0312500000000088
40
0.0312500000000088
40
0.0625000000000176
40
0.0625000000000176
40
0.0937500000000264
40
0.0937500000000264
40
0.125000000000035
40
0.125000000000035
40
0.140625000000039
40
0.140625000000039
40
0.156250000000044
40
0.156250000000044
40
0.187500000000053
40
0.187500000000053
40
0.195312500000055
40
0.195312500000055
40
0.203125000000058
40
0.218750000000064
40
0.218750000000064
40
0.250000000000075
40
0.250000000000075
40
0.265625000000081
40
0.265625000000081
40
0.281250000000087
40
0.296875000000093
40
0.296875000000093
40
0.304687500000095
40
0.304687500000095
40
0.312500000000098
40
0.312500000000098
40
0.343750000000109
40
0.343750000000109
40
0.351562500000112
40
0.351562500000112
40
0.359375000000114
40
0.359375000000114
40
0.375000000000119
40
0.390625000000123
40
0.390625000000123
40
0.406250000000128
40
0.406250000000128
40
0.437500000000135
40
0.437500000000135
40
0.445312500000135
40
0.445312500000135
40
0.453125000000135
40
0.468750000000135
40
0.484375000000135
40
0.484375000000135
40
0.492187500000135
40
0.492187500000135
40
0.500000000000135
40
0.500000000000135
40
0.531250000000134
40
0.531250000000134
40
0.546875000000132
40
0.546875000000132
40
0.56250000000013
40
0.56250000000013
40
0.593750000000125
40
0.593750000000125
40
0.609375000000123
40
0.609375000000123
40
0.62500000000012
40
0.62500000000012
40
0.656250000000116
40
0.656250000000116
40
0.671875000000113
40
0.671875000000113
40
0.687500000000109
40
0.687500000000109
40
0.718750000000099
40
0.718750000000099
40
0.726562500000097
40
0.726562500000097
40
0.734375000000094
40
0.734375000000094
40
0.750000000000088
40
0.765625000000083
40
0.765625000000083
40
0.77343750000008
40
0.77343750000008
40
0.781250000000077
40
0.781250000000077
40
0.812500000000066
40
0.812500000000066
40
0.820312500000063
40
0.820312500000063
40
0.828125000000061
40
0.828125000000061
40
0.843750000000055
40
0.859375000000049
40
0.859375000000049
40
0.867187500000048
40
0.867187500000048
40
0.875000000000046
40
0.875000000000046
40
0.906250000000038
40
0.906250000000038
40
0.937500000000029
40
0.937500000000029
40
0.953125000000022
40
0.953125000000022
40
0.968750000000016
40
0.98437500000001
40
0.98437500000001
40
0.992187500000005
40
0.992187500000005
40
1
40
1
40
1
40
1
41
1
10
61.767680386329
20
-1.91012578252462
30
0
41
1
10
61.7506095641857
20
-1.93017328390309
30
0
41
1
10
61.7340922515933
20
-1.94655702501783
30
0
41
1
10
61.7019640775383
20
-1.97250064736795
30
0
41
1
10
61.6863544266672
20
-1.98205687097121
30
0
41
1
10
61.6558946712869
20
-1.99411433361192
30
0
41
1
10
61.6414362922928
20
-1.99645229589004
30
0
41
1
10
61.6138981258873
20
-1.99397458204618
30
0
41
1
10
61.600803464621
20
-1.98916601557576
30
0
41
1
10
61.5820751241097
20
-1.97627267448445
30
0
41
1
10
61.57605236918
20
-1.9710641408206
30
0
41
1
10
61.5644858488986
20
-1.95891152176102
30
0
41
1
10
61.5589303907299
20
-1.95195946685286
30
0
41
1
10
61.5429175281636
20
-1.92846587826918
30
0
41
1
10
61.5331060039055
20
-1.90931320530913
30
0
41
1
10
61.521928856677
20
-1.88062479208642
30
0
41
1
10
61.5197492543347
20
-1.87464699257185
30
0
41
1
10
61.5155479618941
20
-1.86233896918603
30
0
41
1
10
61.5094649743892
20
-1.84329958380474
30
0
41
1
10
61.5040272056468
20
-1.8225430302692
30
0
41
1
10
61.4940158731395
20
-1.77871148217943
30
0
41
1
10
61.4884793712337
20
-1.74642865075017
30
0
41
1
10
61.482121506904
20
-1.69284709607888
30
0
41
1
10
61.4803619694962
20
-1.6743623542159
30
0
41
1
10
61.4776071843319
20
-1.63646066369574
30
0
41
1
10
61.4756050370898
20
-1.59752920857773
30
0
41
1
10
61.4751852170655
20
-1.55649423328163
30
0
41
1
10
61.4755201449946
20
-1.52488394659608
30
0
41
1
10
61.4757403897402
20
-1.51420786075624
30
0
41
1
10
61.4764117685412
20
-1.49256510518603
30
0
41
1
10
61.4768634094217
20
-1.4816153591226
30
0
41
1
10
61.4796841475522
20
-1.42694782668366
30
0
41
1
10
61.4837357836621
20
-1.38284966982982
30
0
41
1
10
61.4912965157648
20
-1.32728352807686
30
0
41
1
10
61.4929348630273
20
-1.31614789358892
30
0
41
1
10
61.496476297155
20
-1.29383113348325
30
0
41
1
10
61.4983859417912
20
-1.28261821452935
30
0
41
1
10
61.5044426708603
20
-1.24939030720421
30
0
41
1
10
61.5134262242381
20
-1.20591926363457
30
0
41
1
10
61.5242333345745
20
-1.1640694555754
30
0
41
1
10
61.5359813149441
20
-1.12303407656526
30
0
41
1
10
61.542368154014
20
-1.10281651376644
30
0
41
1
10
61.5625111207043
20
-1.04480960495141
30
0
41
1
10
61.5773219888443
20
-1.00926874448692
30
0
41
1
10
61.5974968208614
20
-0.968457545986979
30
0
41
1
10
61.6016254313703
20
-0.960460366031981
30
0
41
1
10
61.6099676823869
20
-0.944978716163092
30
0
41
1
10
61.6226281773183
20
-0.922483932273877
30
0
41
1
10
61.6444348272258
20
-0.888462161050541
30
0
41
1
10
61.6625857747844
20
-0.864722265921984
30
0
41
1
10
61.6764503687405
20
-0.848177255917619
30
0
41
1
10
61.6811190953229
20
-0.842867990709266
30
0
41
1
10
61.690458040758
20
-0.832750255752131
30
0
41
1
10
61.6951376083862
20
-0.827930002830868
30
0
41
1
10
61.718580596919
20
-0.80497610833612
30
0
41
1
10
61.7374797150833
20
-0.790252396520089
30
0
41
1
10
61.7659422509974
20
-0.773175560935073
30
0
41
1
10
61.7754840161546
20
-0.768312281938222
30
0
41
1
10
61.7943503107335
20
-0.76035113475217
30
0
41
1
10
61.8036856726105
20
-0.757239473034645
30
0
41
1
10
61.8313818079534
20
-0.75039786416221
30
0
41
1
10
61.8494357957338
20
-0.749140433580834
30
0
41
1
10
61.8757815222243
20
-0.75216452811398
30
0
41
1
10
61.8844736126167
20
-0.754009662637799
30
0
41
1
10
61.9013619445299
20
-0.75932645588972
30
0
41
1
10
61.9095672582073
20
-0.762791065930344
30
0
41
1
10
61.9334425569196
20
-0.775578911121187
30
0
41
1
10
61.9483788049593
20
-0.787273168268086
30
0
41
1
10
61.9691046766457
20
-0.809864067812612
30
0
41
1
10
61.9757319872963
20
-0.818241318356797
30
0
41
1
10
61.9883647900114
20
-0.836818778128475
30
0
41
1
10
61.994317507776
20
-0.846951179339442
30
0
41
1
10
62.0108624200947
20
-0.879653115946411
30
0
41
1
10
62.0202299331212
20
-0.904607399941909
30
0
41
1
10
62.0295648499144
20
-0.940237722566962
30
0
41
1
10
62.0313120764741
20
-0.947587937541726
30
0
41
1
10
62.0345548448684
20
-0.962759487157712
30
0
41
1
10
62.0360477686743
20
-0.970574624223076
30
0
41
1
10
62.0400867432215
20
-0.994473730811052
30
0
41
1
10
62.0443378792351
20
-1.02771809997449
30
0
41
1
10
62.0462620494569
20
-1.0638123251245
30
0
41
1
10
62.0467857793586
20
-1.0920242323806
30
0
41
1
10
62.0468068563066
20
-1.1016188170654
30
0
41
1
10
62.0465304736028
20
-1.12120705224083
30
0
41
1
10
62.0462323618515
20
-1.13116768375022
30
0
41
1
10
62.0439639508329
20
-1.18128904590813
30
0
41
1
10
62.0396767542817
20
-1.22286482509105
30
0
41
1
10
62.0312779136971
20
-1.27677311384707
30
0
41
1
10
62.0294448122067
20
-1.28765270759394
30
0
41
1
10
62.0254675331502
20
-1.30961438109213
30
0
41
1
10
62.0233326001967
20
-1.32064089475918
30
0
41
1
10
62.016562388722
20
-1.35355698381304
30
0
41
1
10
62.0065204003854
20
-1.39725498780621
30
0
41
1
10
61.9945908023536
20
-1.44060422444065
30
0
41
1
10
61.9849639990697
20
-1.47299246598325
30
0
41
1
10
61.9816312681983
20
-1.48379865185723
30
0
41
1
10
61.9748205996647
20
-1.50512495964634
30
0
41
1
10
61.9713374400866
20
-1.51566507789258
30
0
41
1
10
61.9535565695343
20
-1.56777552927312
30
0
41
1
10
61.9381748518435
20
-1.60760692084534
30
0
41
1
10
61.9054609213927
20
-1.68376193106519
30
0
41
1
10
61.88865067964
20
-1.71887702482067
30
0
41
1
10
61.8629148905515
20
-1.76760817662833
30
0
41
1
10
61.8542391234488
20
-1.78320264945134
30
0
41
1
10
61.8367533721952
20
-1.81301523140866
30
0
41
1
10
61.8193365039152
20
-1.84111052578973
30
0
41
1
10
61.8020505877669
20
-1.86596032275673
30
0
41
1
10
61.7891303866213
20
-1.88341232896309
30
0
41
1
10
61.7848310018875
20
-1.88903172227006
30
0
41
1
10
61.7762458261524
20
-1.89987549847882
30
0
41
1
10
61.7719480918648
20
-1.90511390718001
30
0
41
1
10
61.767680386329
20
-1.91012578252462
30
0
0
SPLINE
5
CA
100
AcDbEntity
8
1
62
256
6
ByLayer
370
18
48
1
60
0
100
AcDbSpline
70
4
71
3
72
8
73
4
40
0
40
0
40
0
40
0
40
1
40
1
40
1
40
1
41
1
10
62.544649127967
20
-1.58651917006981
30
0
41
1
10
62.6992152403068
20
-1.15050711224274
30
0
41
1
10
62.8494966484574
20
-0.71295491885661
30
0
41
1
10
62.9954260566773
20
-0.27383840047861
30
0
0
SPLINE
5
CB
100
AcDbEntity
8
1
62
256
6
ByLayer
370
18
48
1
60
0
100
AcDbSpline
70
4
71
3
72
8
73
4
40
0
40
0
40
0
40
0
40
1
40
1
40
1
40
1
41
1
10
62.9954260566707
20
0.273838400509362
30
0
41
1
10
63.0015315506284
20
0.0910728325955006
30
0
41
1
10
63.0015177605102
20
-0.0914856343563883
30
0
41
1
10
62.9954260566715
20
-0.27383840048401
30
0
0
SPLINE
5
CC
100
AcDbEntity
8
1
62
256
6
ByLayer
370
18
48
1
60
0
100
AcDbSpline
70
4
71
3
72
8
73
4
40
0
40
0
40
0
40
0
40
1
40
1
40
1
40
1
41
1
10
62.9954260566755
20
0.273838400511693
30
0
41
1
10
62.9740016382323
20
0.202429154453398
30
0
41
1
10
62.952470310769
20
0.13105310415321
30
0
41
1
10
62.9308324723722
20
0.0597101260033241
30
0
0
SPLINE
5
CD
100
AcDbEntity
8
1
62
256
6
ByLayer
370
18
48
1
60
0
100
AcDbSpline
70
4
71
3
72
52
73
48
40
0
40
0
40
0
40
0
40
0.0624999999999856
40
0.0624999999999856
40
0.124999999999971
40
0.124999999999971
40
0.156249999999964
40
0.156249999999964
40
0.187499999999957
40
0.187499999999957
40
0.249999999999951
40
0.249999999999951
40
0.312499999999945
40
0.312499999999945
40
0.343749999999942
40
0.343749999999942
40
0.374999999999939
40
0.374999999999939
40
0.437499999999934
40
0.437499999999934
40
0.468749999999931
40
0.468749999999931
40
0.484374999999929
40
0.484374999999929
40
0.499999999999928
40
0.499999999999928
40
0.562499999999932
40
0.562499999999932
40
0.593749999999933
40
0.593749999999933
40
0.624999999999935
40
0.624999999999935
40
0.687499999999939
40
0.687499999999939
40
0.718749999999941
40
0.718749999999941
40
0.749999999999943
40
0.749999999999943
40
0.812499999999954
40
0.812499999999954
40
0.874999999999966
40
0.874999999999966
40
0.906249999999974
40
0.906249999999974
40
0.937499999999983
40
0.937499999999983
40
1
40
1
40
1
40
1
41
1
10
62.9308324723722
20
0.0597101260033241
30
0
41
1
10
62.9188276907458
20
0.0201286827208946
30
0
41
1
10
62.9059150496294
20
-0.0189954598799034
30
0
41
1
10
62.8782769273165
20
-0.0963157709504969
30
0
41
1
10
62.8635522190517
20
-0.13451236754139
30
0
41
1
10
62.8400520422384
20
-0.191072206441959
30
0
41
1
10
62.8319824814885
20
-0.209802635195473
30
0
41
1
10
62.8153521849929
20
-0.247006022729522
30
0
41
1
10
62.8068055178366
20
-0.265440955600298
30
0
41
1
10
62.7808347974188
20
-0.319458413128899
30
0
41
1
10
62.7629549092511
20
-0.354047972011045
30
0
41
1
10
62.7260891588259
20
-0.420294583584251
30
0
41
1
10
62.7071040558537
20
-0.451953561569951
30
0
41
1
10
62.6777543610102
20
-0.497047903428097
30
0
41
1
10
62.6677753041295
20
-0.51174531625901
30
0
41
1
10
62.6478759282368
20
-0.539777917981326
30
0
41
1
10
62.6379327392163
20
-0.553154883781502
30
0
41
1
10
62.6081228598107
20
-0.591390047995674
30
0
41
1
10
62.5882770289314
20
-0.614361832423555
30
0
41
1
10
62.5585296064117
20
-0.644963654890461
30
0
41
1
10
62.5486170690548
20
-0.654519335793481
30
0
41
1
10
62.5337478495172
20
-0.66785339994226
30
0
41
1
10
62.5287906002752
20
-0.672130886719913
30
0
41
1
10
62.5189724759813
20
-0.680268273230695
30
0
41
1
10
62.5140992058576
20
-0.684139582626017
30
0
41
1
10
62.4899051422493
20
-0.702527746954587
30
0
41
1
10
62.4710997399972
20
-0.714153067270672
30
0
41
1
10
62.4436082304315
20
-0.727144443523372
30
0
41
1
10
62.4345641204277
20
-0.73073109905792
30
0
41
1
10
62.4167001537906
20
-0.736417058597794
30
0
41
1
10
62.4078920658089
20
-0.738505726497664
30
0
41
1
10
62.3821852201864
20
-0.74250377702802
30
0
41
1
10
62.3658560416811
20
-0.742206352994771
30
0
41
1
10
62.3423824997373
20
-0.737662611379193
30
0
41
1
10
62.3347287741213
20
-0.735462600092291
30
0
41
1
10
62.3197382098055
20
-0.729723947473474
30
0
41
1
10
62.3123844894972
20
-0.726171521927057
30
0
41
1
10
62.2910364678646
20
-0.713714194895402
30
0
41
1
10
62.2776665836752
20
-0.702999210576195
30
0
41
1
10
62.2523450350633
20
-0.677279571961094
30
0
41
1
10
62.2403948391391
20
-0.662271861340429
30
0
41
1
10
62.223378607035
20
-0.636782310741353
30
0
41
1
10
62.2178586573359
20
-0.627788150533405
30
0
41
1
10
62.2071032372801
20
-0.608831556417158
30
0
41
1
10
62.2018679343075
20
-0.598865963527061
30
0
41
1
10
62.1866689835676
20
-0.567780918586891
30
0
41
1
10
62.1771700735016
20
-0.545409524536154
30
0
41
1
10
62.1682203960135
20
-0.521519381893484
30
0
0
SPLINE
5
CE
100
AcDbEntity
8
1
62
256
6
ByLayer
370
18
48
1
60
0
100
AcDbSpline
70
4
71
3
72
9
73
5
40
0
40
0
40
0
40
0
40
0.5
40
1
40
1
40
1
40
1
41
1
10
62.1682203960135
20
-0.521519381893285
30
0
41
1
10
62.0841039829269
20
-0.296980217227002
30
0
41
1
10
61.89379312604
20
0.166577989639848
30
0
41
1
10
61.6595457693048
20
0.658951952102882
30
0
41
1
10
61.5316240814016
20
0.912220808421779
30
0
0
SPLINE
5
CF
100
AcDbEntity
8
1
62
256
6
ByLayer
370
18
48
1
60
0
100
AcDbSpline
70
4
71
3
72
20
73
16
40
0
40
0
40
0
40
0
40
0.500000000000058
40
0.500000000000058
40
0.750000000000089
40
0.875000000000082
40
0.937500000000062
40
0.968750000000051
40
0.984375000000046
40
0.984375000000046
40
0.992187500000043
40
0.992187500000043
40
0.996093750000022
40
0.996093750000022
40
1
40
1
40
1
40
1
41
1
10
61.1964732243285
20
-4.9599560601294
30
0
41
1
10
61.2144936156955
20
-4.91898946153071
30
0
41
1
10
61.2328709040549
20
-4.87801930896512
30
0
41
1
10
61.2609661363038
20
-4.81654937168773
30
0
41
1
10
61.2751455217636
20
-4.78581194403037
30
0
41
1
10
61.2919176607254
20
-4.74994449432566
30
0
41
1
10
61.300360872746
20
-4.73200881989905
30
0
41
1
10
61.3045966780126
20
-4.72304069550191
30
0
41
1
10
61.3064142620751
20
-4.71920036044187
30
0
41
1
10
61.3073233714121
20
-4.71728094098916
30
0
41
1
10
61.3076243091618
20
-4.71665002237074
30
0
41
1
10
61.3080828902035
20
-4.71567493428006
30
0
41
1
10
61.3082411977957
20
-4.7153276391121
30
0
41
1
10
61.3085521696958
20
-4.71465661975691
30
0
41
1
10
61.3087330653061
20
-4.71425340655543
30
0
41
1
10
61.3088183632706
20
-4.71414855854297
30
0
0
SPLINE
5
D0
100
AcDbEntity
8
1
62
256
6
ByLayer
370
18
48
1
60
0
100
AcDbSpline
70
4
71
3
72
30
73
26
40
0
40
0
40
0
40
0
40
0.25
40
0.25
40
0.375
40
0.375
40
0.5
40
0.5
40
0.625
40
0.625
40
0.640625
40
0.640625
40
0.656249999999999
40
0.656249999999999
40
0.687499999999999
40
0.687499999999999
40
0.749999999999999
40
0.749999999999999
40
0.875
40
0.875
40
0.9375
40
0.9375
40
0.96875
40
0.96875
40
1
40
1
40
1
40
1
41
1
10
61.3088183632822
20
-4.71414855851037
30
0
41
1
10
61.404860115118
20
-4.45051953511046
30
0
41
1
10
61.4999559228219
20
-4.18459565232101
30
0
41
1
10
61.6436234868395
20
-3.78366643236339
30
0
41
1
10
61.6916680415362
20
-3.64970627212648
30
0
41
1
10
61.7881726881345
20
-3.38184173144401
30
0
41
1
10
61.8366774201241
20
-3.24784258147861
30
0
41
1
10
61.9343538509728
20
-2.97999111968247
30
0
41
1
10
61.9835200538614
20
-2.84617568614354
30
0
41
1
10
62.0392868223723
20
-2.6957913547642
30
0
41
1
10
62.0454793873173
20
-2.67908068490317
30
0
41
1
10
62.0579440448678
20
-2.64568697171632
30
0
41
1
10
62.0642140386802
20
-2.62900320438519
30
0
41
1
10
62.0831484275034
20
-2.5789952463104
30
0
41
1
10
62.0959491932633
20
-2.54568742943516
30
0
41
1
10
62.1346903126046
20
-2.44649584520889
30
0
41
1
10
62.1610320377536
20
-2.38118217514909
30
0
41
1
10
62.2418943953745
20
-2.18779567257687
30
0
41
1
10
62.2982721898288
20
-2.06229408575342
30
0
41
1
10
62.3873261061807
20
-1.87919686687113
30
0
41
1
10
62.4177647166385
20
-1.81903681755401
30
0
41
1
10
62.4646960125387
20
-1.73019364396384
30
0
41
1
10
62.4805426323031
20
-1.70083205833066
30
0
41
1
10
62.5124131518926
20
-1.64305747571314
30
0
41
1
10
62.5284687880662
20
-1.61458392677145
30
0
41
1
10
62.544649127967
20
-1.58651917006986
30
0
0
SPLINE
5
D1
100
AcDbEntity
8
1
62
256
6
ByLayer
370
18
48
1
60
0
100
AcDbSpline
70
4
71
3
72
83
73
79
40
0
40
0
40
0
40
0
40
0.0056675396691199
40
0.0056675396691199
40
0.0305252292899131
40
0.0305252292899131
40
0.0429540741003097
40
0.0429540741003097
40
0.0553829189107063
40
0.0553829189107063
40
0.0802406085315009
40
0.0802406085315009
40
0.105098298152295
40
0.105098298152295
40
0.12995598777309
40
0.12995598777309
40
0.154813677393884
40
0.154813677393884
40
0.179671367014679
40
0.179671367014679
40
0.204529056635473
40
0.204529056635473
40
0.229386746256268
40
0.229386746256268
40
0.254244435877063
40
0.254244435877063
40
0.279102125497857
40
0.279102125497857
40
0.303959815118652
40
0.303959815118652
40
0.328817504739446
40
0.353675194360241
40
0.353675194360241
40
0.378532883981035
40
0.378532883981035
40
0.40339057360183
40
0.40339057360183
40
0.428248263222624
40
0.428248263222624
40
0.453105952843419
40
0.453105952843419
40
0.477963642464213
40
0.477963642464213
40
0.502821332085008
40
0.502821332085008
40
0.527679021705802
40
0.527679021705802
40
0.552536711326596
40
0.552536711326596
40
0.577394400947391
40
0.577394400947391
40
0.627109780188979
40
0.627109780188979
40
0.651967469809772
40
0.651967469809772
40
0.676825159430566
40
0.676825159430566
40
0.726540538672153
40
0.726540538672153
40
0.751398228292945
40
0.751398228292945
40
0.776255917913738
40
0.776255917913738
40
0.80111360753453
40
0.80111360753453
40
0.825971297155323
40
0.825971297155323
40
0.850828986776115
40
0.850828986776115
40
0.875686676396908
40
0.875686676396908
40
0.925402055638494
40
0.925402055638494
40
0.950259745259287
40
0.950259745259287
40
0.975117434880081
40
0.975117434880081
40
1
40
1
40
1
40
1
41
1
10
52.2256550140563
20
-2.55464014930709
30
0
41
1
10
52.1789477024776
20
-2.53320732978221
30
0
41
1
10
52.1322185928822
20
-2.51165169846442
30
0
41
1
10
51.8804087157219
20
-2.39490761836902
30
0
41
1
10
51.6748726353167
20
-2.29756292519264
30
0
41
1
10
51.3657217046921
20
-2.1483276111189
30
0
41
1
10
51.2625543018696
20
-2.09806107758041
30
0
41
1
10
51.0564832963383
20
-1.99679530215349
30
0
41
1
10
50.9535089881995
20
-1.9457613017023
30
0
41
1
10
50.6447215516772
20
-1.79154226785778
30
0
41
1
10
50.4390368223214
20
-1.68725401077864
30
0
41
1
10
50.0278350396725
20
-1.47604404488618
30
0
41
1
10
49.8223405884731
20
-1.36907916414398
30
0
41
1
10
49.4112036035369
20
-1.15304867056332
30
0
41
1
10
49.2055600864159
20
-1.0439825268902
30
0
41
1
10
48.7939494380389
20
-0.824069615027042
30
0
41
1
10
48.5879740530878
20
-0.713237355193485
30
0
41
1
10
48.1754431643125
20
-0.490249389617929
30
0
41
1
10
47.9691217216235
20
-0.378241004538012
30
0
41
1
10
47.5566069350427
20
-0.153678571359251
30
0
41
1
10
47.3503539273492
20
-0.0410861495330153
30
0
41
1
10
46.9380622745763
20
0.183691670188097
30
0
41
1
10
46.7320086013401
20
0.295937282265953
30
0
41
1
10
46.3198749276586
20
0.519760585077989
30
0
41
1
10
46.1137910074011
20
0.631330945822896
30
0
41
1
10
45.701343553369
20
0.853341550261717
30
0
41
1
10
45.4950139037977
20
0.963754657135837
30
0
41
1
10
45.0825228078531
20
1.18281948978108
30
0
41
1
10
44.8762613418965
20
1.29148766215764
30
0
41
1
10
44.4639527661926
20
1.5061545351131
30
0
41
1
10
44.0518565057777
20
1.71829870238503
30
0
41
1
10
43.6397188058485
20
1.92462713811642
30
0
41
1
10
43.227317073252
20
2.12763675994961
30
0
41
1
10
43.0209822365294
20
2.22749363910199
30
0
41
1
10
42.6085033669323
20
2.42329212472149
30
0
41
1
10
42.4022369123288
20
2.51922846197778
30
0
41
1
10
41.9899744433753
20
2.70640677889298
30
0
41
1
10
41.7839438943123
20
2.79772084218877
30
0
41
1
10
41.3718339148359
20
2.97546247005926
30
0
41
1
10
41.1657544093092
20
3.06189119801093
30
0
41
1
10
40.753305209138
20
3.22953577852479
30
0
41
1
10
40.5469963400728
20
3.31075120001111
30
0
41
1
10
40.1345318390424
20
3.46742537573837
30
0
41
1
10
39.9282835822352
20
3.54286393523219
30
0
41
1
10
39.5160583222442
20
3.68745101020249
30
0
41
1
10
39.3100260360316
20
3.75663902646767
30
0
41
1
10
38.8978927623418
20
3.88847295574473
30
0
41
1
10
38.6917672069347
20
3.95112221623668
30
0
41
1
10
38.2792753984631
20
4.06965306652802
30
0
41
1
10
38.0736386522223
20
4.12535482506155
30
0
41
1
10
37.4580948731017
20
4.28163218545038
30
0
41
1
10
37.04948076902
20
4.37118823251299
30
0
41
1
10
36.4379271712974
20
4.48321632978769
30
0
41
1
10
36.2342952139115
20
4.51682794859562
30
0
41
1
10
35.8272796042847
20
4.5764544534741
30
0
41
1
10
35.6239218838587
20
4.60247472069602
30
0
41
1
10
35.013814671268
20
4.66905079459505
30
0
41
1
10
34.606982829487
20
4.69804799043879
30
0
41
1
10
33.9953786681943
20
4.71820140550932
30
0
41
1
10
33.7912718260596
20
4.72102087977046
30
0
41
1
10
33.3823948644572
20
4.71872794508869
30
0
41
1
10
33.1776473008666
20
4.71360718485025
30
0
41
1
10
32.7671814317353
20
4.69543274168979
30
0
41
1
10
32.5614231412566
20
4.68236023474702
30
0
41
1
10
32.1488692607194
20
4.64823815198235
30
0
41
1
10
31.9425875214697
20
4.62722993554772
30
0
41
1
10
31.5300179113939
20
4.57741722336169
30
0
41
1
10
31.3237212320216
20
4.54862098815937
30
0
41
1
10
30.9111856008188
20
4.48327586405486
30
0
41
1
10
30.7049300653301
20
4.44671887222506
30
0
41
1
10
30.0864422204787
20
4.32579760358624
30
0
41
1
10
29.6745497482445
20
4.23016339212325
30
0
41
1
10
29.0559558729768
20
4.06557701370801
30
0
41
1
10
28.8496280396133
20
4.00719856282186
30
0
41
1
10
28.4371447768165
20
3.88367011681714
30
0
41
1
10
28.2308973582571
20
3.8185089545307
30
0
41
1
10
27.8183875189798
20
3.68190842556956
30
0
41
1
10
27.6121278835124
20
3.61043071106226
30
0
41
1
10
27.4058502589845
20
3.53595131315402
30
0
0
SPLINE
5
D2
100
AcDbEntity
8
1
62
256
6
ByLayer
370
18
48
1
60
0
100
AcDbSpline
70
4
71
3
72
71
73
67
40
0
40
0
40
0
40
0
40
9.81694638417E-05
40
9.81694638417E-05
40
0.0172016631283728
40
0.0172016631283728
40
0.0514086504574351
40
0.0514086504574351
40
0.0685121441219662
40
0.0685121441219662
40
0.0856156377864973
40
0.0856156377864973
40
0.11982262511556
40
0.11982262511556
40
0.128374371947825
40
0.128374371947825
40
0.132650245363958
40
0.133719213717991
40
0.134253697895008
40
0.134253697895008
40
0.134387318939262
40
0.134387318939262
40
0.134520939983516
40
0.134520939983516
40
0.134788182072024
40
0.134788182072024
40
0.136926118780091
40
0.136926118780091
40
0.145477865612357
40
0.145477865612357
40
0.154029612444624
40
0.154029612444624
40
0.188236599773689
40
0.188236599773689
40
0.256650574431819
40
0.256650574431819
40
0.393478523748081
40
0.393478523748081
40
0.461892498406211
40
0.461892498406211
40
0.496099485735276
40
0.496099485735276
40
0.513202979399809
40
0.513202979399809
40
0.521754726232075
40
0.521754726232075
40
0.526030599648208
40
0.526030599648208
40
0.528168536356275
40
0.528168536356275
40
0.528435778444783
40
0.528435778444783
40
0.528569399489037
40
0.528569399489037
40
0.528703020533291
40
0.528703020533291
40
0.529237504710308
40
0.529237504710308
40
0.530306473064341
40
0.667134422380534
40
0.667134422380534
40
0.803962371696728
40
0.803962371696728
40
0.940790321012921
40
0.940790321012921
40
1
40
1
40
1
40
1
41
1
10
9.47437515692965
20
4.60951645986842
30
0
41
1
10
9.47416914411261
20
4.60912703268005
30
0
41
1
10
9.47396312851816
20
4.60873748540735
30
0
41
1
10
9.43786372041953
20
4.54045834735342
30
0
41
1
10
9.40220525078098
20
4.46916252918953
30
0
41
1
10
9.28929019383213
20
4.25192450427636
30
0
41
1
10
9.20858140320166
20
4.10014010671173
30
0
41
1
10
9.08279697236804
20
3.86004891245463
30
0
41
1
10
9.04005415899735
20
3.77795613482846
30
0
41
1
10
8.95326111856042
20
3.60934310608678
30
0
41
1
10
8.90859897524268
20
3.52322236897078
30
0
41
1
10
8.76845930741618
20
3.26085066258844
30
0
41
1
10
8.66931492013615
20
3.07996309178316
30
0
41
1
10
8.53804299396649
20
2.8510399836718
30
0
41
1
10
8.51145027968246
20
2.8050602356698
30
0
41
1
10
8.47114124140467
20
2.73581100418102
30
0
41
1
10
8.45425749946443
20
2.70689762646586
30
0
41
1
10
8.43557571265274
20
2.67501261144409
30
0
41
1
10
8.43047189235676
20
2.66631008051334
30
0
41
1
10
8.42834409734431
20
2.66268311050263
30
0
41
1
10
8.42780402824198
20
2.66187886796999
30
0
41
1
10
8.42842368854974
20
2.66017460099889
30
0
41
1
10
8.42904962090068
20
2.65949407349766
30
0
41
1
10
8.43087536953342
20
2.65754788405855
30
0
41
1
10
8.43224082552589
20
2.65639734999812
30
0
41
1
10
8.44460237512789
20
2.6463046261849
30
0
41
1
10
8.45657484094812
20
2.63877364866704
30
0
41
1
10
8.51552321940878
20
2.60002550705696
30
0
41
1
10
8.56352056823062
20
2.57049203785206
30
0
41
1
10
8.65933898133289
20
2.5112119293064
30
0
41
1
10
8.70734954918015
20
2.48177490826797
30
0
41
1
10
8.94759214510322
20
2.33504456427613
30
0
41
1
10
9.14028854042388
20
2.21895294795132
30
0
41
1
10
9.71825862512389
20
1.87155798718891
30
0
41
1
10
10.1037268201758
20
1.64175732749061
30
0
41
1
10
11.2592602649483
20
0.95678052031576
30
0
41
1
10
12.0283791496646
20
0.505591968300536
30
0
41
1
10
13.1818951809084
20
-0.160304085971376
30
0
41
1
10
13.5664456334876
20
-0.380485579739854
30
0
41
1
10
14.1426440359461
20
-0.708284493465499
30
0
41
1
10
14.3346474955098
20
-0.817113549286773
30
0
41
1
10
14.6222860516037
20
-0.979922146530271
30
0
41
1
10
14.718116534139
20
-1.03411020119032
30
0
41
1
10
14.861490344675
20
-1.11553137951094
30
0
41
1
10
14.9092299786579
20
-1.14268349966477
30
0
41
1
10
14.9805284911203
20
-1.18361597396881
30
0
41
1
10
15.0042682997007
20
-1.19727382322742
30
0
41
1
10
15.0395153868253
20
-1.2180394671482
30
0
41
1
10
15.0513723284941
20
-1.22490221041204
30
0
41
1
10
15.0638581267544
20
-1.23317603707682
30
0
41
1
10
15.0652311283802
20
-1.234104720343
30
0
41
1
10
15.0671856080604
20
-1.23556668779472
30
0
41
1
10
15.0678285947565
20
-1.23606282019048
30
0
41
1
10
15.0688983489014
20
-1.23711520889512
30
0
41
1
10
15.0689712875507
20
-1.23777677023094
30
0
41
1
10
15.0648356894762
20
-1.2376127474304
30
0
41
1
10
15.0613322554467
20
-1.23680386399806
30
0
41
1
10
15.051096249997
20
-1.23532836083993
30
0
41
1
10
14.1708338366863
20
-1.10828334941652
30
0
41
1
10
13.2949869432938
20
-0.961632672088825
30
0
41
1
10
11.5668613773836
20
-0.632328746681139
30
0
41
1
10
10.7087224431462
20
-0.448728259174885
30
0
41
1
10
9.00336380426938
20
-0.0439902903550546
30
0
41
1
10
8.15614580540085
20
0.177116967616342
30
0
41
1
10
6.94953893832411
20
0.520205257949698
30
0
41
1
10
6.58598408650158
20
0.627291866190262
30
0
41
1
10
6.22337921402271
20
0.737765523249323
30
0
0
SPLINE
5
D3
100
AcDbEntity
8
1
62
256
6
ByLayer
370
18
48
1
60
0
100
AcDbSpline
70
4
71
3
72
22
73
18
40
0
40
0
40
0
40
0
40
0.124999999999998
40
0.124999999999998
40
0.249999999999995
40
0.249999999999995
40
0.312499999999994
40
0.312499999999994
40
0.374999999999992
40
0.374999999999992
40
0.499999999999989
40
0.499999999999989
40
0.749999999999994
40
0.749999999999994
40
0.874999999999997
40
0.874999999999997
40
1
40
1
40
1
40
1
41
1
10
61.5316240814015
20
0.912220808421836
30
0
41
1
10
61.4953240230505
20
0.915612153069418
30
0
41
1
10
61.4589176461869
20
0.917072664246888
30
0
41
1
10
61.3860317629355
20
0.91613807614462
30
0
41
1
10
61.3495562616879
20
0.913861472508614
30
0
41
1
10
61.294889936571
20
0.908283653851413
30
0
41
1
10
61.2766755334682
20
0.90607227702526
30
0
41
1
10
61.2402743167261
20
0.901120850655332
30
0
41
1
10
61.2220871430246
20
0.898376642110719
30
0
41
1
10
61.1675821828141
20
0.889078668300101
30
0
41
1
10
61.1313218442732
20
0.881432153805122
30
0
41
1
10
61.022920224144
20
0.854265487392468
30
0
41
1
10
60.9511561735614
20
0.830358023048717
30
0
41
1
10
60.8449215251873
20
0.78511155345663
30
0
41
1
10
60.8097376826684
20
0.768510945657141
30
0
41
1
10
60.739970215412
20
0.732359281695238
30
0
41
1
10
60.7055289948226
20
0.712875445325096
30
0
41
1
10
60.6715673238198
20
0.692042731306145
30
0
0
SPLINE
5
D4
100
AcDbEntity
8
1
62
256
6
ByLayer
370
18
48
1
60
0
100
AcDbSpline
70
4
71
3
72
18
73
14
40
0
40
0
40
0
40
0
40
0.243976923796334
40
0.243976923796334
40
0.487953847592668
40
0.487953847592668
40
0.731930771389001
40
0.731930771389001
40
0.853919233287168
40
0.853919233287168
40
0.975907695185335
40
0.975907695185335
40
1
40
1
40
1
40
1
41
1
10
61.5316240814015
20
0.912220808421779
30
0
41
1
10
61.5094542528695
20
0.923714582434769
30
0
41
1
10
61.4876678911438
20
0.934575414361575
30
0
41
1
10
61.4448527299771
20
0.955046662155667
30
0
41
1
10
61.4238103370749
20
0.964679515098425
30
0
41
1
10
61.3825702759813
20
0.982550936493595
30
0
41
1
10
61.3624047736591
20
0.990736412651984
30
0
41
1
10
61.3324936047016
20
1.00245824240102
30
0
41
1
10
61.322588592404
20
1.00625760852418
30
0
41
1
10
61.3029975195206
20
1.01349494377078
30
0
41
1
10
61.2933017869033
20
1.01692790243484
30
0
41
1
10
61.2819144811941
20
1.02073767298762
30
0
41
1
10
61.2800437229084
20
1.02135648619952
30
0
41
1
10
61.2781805138482
20
1.02196544699359
30
0
0
SPLINE
5
D5
100
AcDbEntity
8
1
62
256
6
ByLayer
370
18
48
1
60
0
100
AcDbSpline
70
4
71
3
72
22
73
18
40
0
40
0
40
0
40
0
40
0.125683375156384
40
0.125683375156384
40
0.198543093893359
40
0.198543093893359
40
0.271402812630335
40
0.271402812630335
40
0.417122250104285
40
0.417122250104285
40
0.562841687578235
40
0.562841687578235
40
0.635701406315188
40
0.635701406315188
40
0.708561125052141
40
0.708561125052141
40
1
40
1
40
1
40
1
41
1
10
61.066700880308
20
1.08621648737912
30
0
41
1
10
61.08685209018
20
1.10016271303044
30
0
41
1
10
61.108160456108
20
1.1145421258052
30
0
41
1
10
61.1438002979427
20
1.13774899210921
30
0
41
1
10
61.1573412777985
20
1.14639192278494
30
0
41
1
10
61.1851441172601
20
1.16371541097431
30
0
41
1
10
61.199342414235
20
1.17236207515648
30
0
41
1
10
61.2428227935828
20
1.1982116739982
30
0
41
1
10
61.2729705839117
20
1.21535651224948
30
0
41
1
10
61.3358238834341
20
1.24886864234548
30
0
41
1
10
61.36854436946
20
1.26521036218463
30
0
41
1
10
61.4198670794284
20
1.28848429665547
30
0
41
1
10
61.4373453192377
20
1.29602760568224
30
0
41
1
10
61.472521362815
20
1.31036320248197
30
0
41
1
10
61.4902876245498
20
1.31718668728311
30
0
41
1
10
61.5800292837602
20
1.3494375348717
30
0
41
1
10
61.6546926488463
20
1.36937446818905
30
0
41
1
10
61.7321966708205
20
1.38279606517423
30
0
0
SPLINE
5
D6
100
AcDbEntity
8
1
62
256
6
ByLayer
370
18
48
1
60
0
100
AcDbSpline
70
4
71
3
72
16
73
12
40
0
40
0
40
0
40
0
40
0.25
40
0.25
40
0.5
40
0.5
40
0.75
40
0.75
40
0.875
40
0.875
40
1
40
1
40
1
40
1
41
1
10
61.7321966708205
20
1.38279606517423
30
0
41
1
10
61.801109727812
20
1.39472993975775
30
0
41
1
10
61.8698890662896
20
1.40757921851011
30
0
41
1
10
62.0068613997063
20
1.43551718628078
30
0
41
1
10
62.0750848739515
20
1.45061595260057
30
0
41
1
10
62.2108670255946
20
1.4836726300787
30
0
41
1
10
62.2784275507567
20
1.50162259441058
30
0
41
1
10
62.379139288698
20
1.53125294557699
30
0
41
1
10
62.4125885711314
20
1.54156942596299
30
0
41
1
10
62.478988171872
20
1.56320550684472
30
0
41
1
10
62.5119615103691
20
1.57453787909901
30
0
41
1
10
62.544649127967
20
1.58651917006978
30
0
0
SPLINE
5
D7
100
AcDbEntity
8
1
62
256
6
ByLayer
370
18
48
1
60
0
100
AcDbSpline
70
4
71
3
72
30
73
26
40
0
40
0
40
0
40
0
40
0.250000000000011
40
0.250000000000011
40
0.375000000000018
40
0.375000000000018
40
0.500000000000026
40
0.500000000000026
40
0.625000000000033
40
0.625000000000033
40
0.640625000000033
40
0.640625000000033
40
0.656250000000033
40
0.656250000000033
40
0.687500000000029
40
0.687500000000029
40
0.750000000000025
40
0.750000000000025
40
0.875000000000018
40
0.875000000000018
40
0.937500000000012
40
0.937500000000012
40
0.968750000000006
40
0.968750000000006
40
1
40
1
40
1
40
1
41
1
10
61.3088183632703
20
4.71414855854334
30
0
41
1
10
61.4048601151072
20
4.45051953514087
30
0
41
1
10
61.499955922812
20
4.1845956523488
30
0
41
1
10
61.643623486831
20
3.78366643238718
30
0
41
1
10
61.6916680415282
20
3.6497062721489
30
0
41
1
10
61.7881726881274
20
3.38184173146365
30
0
41
1
10
61.8366774201175
20
3.24784258149686
30
0
41
1
10
61.9343538509672
20
2.9799911196979
30
0
41
1
10
61.9835200538563
20
2.84617568615758
30
0
41
1
10
62.0392868223677
20
2.69579135477667
30
0
41
1
10
62.0454793873127
20
2.67908068491548
30
0
41
1
10
62.0579440448632
20
2.64568697172825
30
0
41
1
10
62.0642140386758
20
2.62900320439698
30
0
41
1
10
62.0831484274991
20
2.57899524632168
30
0
41
1
10
62.0959491932591
20
2.54568742944605
30
0
41
1
10
62.1346903126007
20
2.44649584521852
30
0
41
1
10
62.16103203775
20
2.3811821751579
30
0
41
1
10
62.2418943953716
20
2.1877956725834
30
0
41
1
10
62.2982721898264
20
2.06229408575854
30
0
41
1
10
62.3873261061791
20
1.87919686687428
30
0
41
1
10
62.4177647166372
20
1.81903681755654
30
0
41
1
10
62.4646960125378
20
1.73019364396546
30
0
41
1
10
62.4805426323024
20
1.70083205833197
30
0
41
1
10
62.5124131518922
20
1.64305747571379
30
0
41
1
10
62.5284687880659
20
1.61458392677176
30
0
41
1
10
62.5446491279671
20
1.58651917006986
30
0
0
SPLINE
5
D8
100
AcDbEntity
8
1
62
256
6
ByLayer
370
18
48
1
60
0
100
AcDbSpline
70
4
71
3
72
24
73
20
40
0
40
0
40
0
40
0
40
0.183301251878409
40
0.183301251878409
40
0.274951877817613
40
0.274951877817613
40
0.366602503756817
40
0.366602503756817
40
0.549903755635221
40
0.549903755635221
40
0.595729068604823
40
0.595729068604823
40
0.641554381574426
40
0.641554381574426
40
0.73320500751363
40
0.73320500751363
40
0.916506259392039
40
0.916506259392039
40
1
40
1
40
1
40
1
41
1
10
61.3088183632815
20
4.7141485585114
30
0
41
1
10
60.896567848246
20
4.72538374710729
30
0
41
1
10
60.4847135823524
20
4.72057349396999
30
0
41
1
10
59.8660915157352
20
4.68940848581033
30
0
41
1
10
59.6597904352096
20
4.67501825065452
30
0
41
1
10
59.247358145248
20
4.63831658677017
30
0
41
1
10
59.0411128169549
20
4.6160060211165
30
0
41
1
10
58.4227811086422
20
4.53747392254411
30
0
41
1
10
58.0109201171334
20
4.46966240022462
30
0
41
1
10
57.4953888262158
20
4.36579946921984
30
0
41
1
10
57.3922733931673
20
4.34406942368307
30
0
41
1
10
57.1864573307212
20
4.29882377836489
30
0
41
1
10
57.0836934568853
20
4.27530007860997
30
0
41
1
10
56.7757535298058
20
4.20214543214584
30
0
41
1
10
56.570913161885
20
4.14993158333573
30
0
41
1
10
55.9574392769138
20
3.98336161687592
30
0
41
1
10
55.5498542651736
20
3.85912467373467
30
0
41
1
10
54.9573520587305
20
3.66076986680858
30
0
41
1
10
54.7720584657886
20
3.59615892535604
30
0
41
1
10
54.5867932129733
20
3.52911506774439
30
0
0
SPLINE
5
D9
100
AcDbEntity
8
1
62
256
6
ByLayer
370
18
48
1
60
0
100
AcDbSpline
70
4
71
3
72
16
73
12
40
0
40
0
40
0
40
0
40
0.233422773406365
40
0.233422773406365
40
0.425067080054774
40
0.425067080054774
40
0.616711386703185
40
0.616711386703185
40
0.808355693351595
40
0.808355693351595
40
1
40
1
40
1
40
1
41
1
10
25.0672854539978
20
-2.57351141262728
30
0
41
1
10
24.8162952265791
20
-2.45881917986958
30
0
41
1
10
24.5652808329222
20
-2.34088114591302
30
0
41
1
10
24.1077652293116
20
-2.12081462111971
30
0
41
1
10
23.9015182215758
20
-2.01968985213068
30
0
41
1
10
23.4890493645598
20
-1.81407227492824
30
0
41
1
10
23.282945276182
20
-1.70971403514773
30
0
41
1
10
22.870802117821
20
-1.49837406109745
30
0
41
1
10
22.6647680125207
20
-1.39136575202517
30
0
41
1
10
22.2525346105352
20
-1.17509713528648
30
0
41
1
10
22.0462711266946
20
-1.06580657638415
30
0
41
1
10
21.839999999982
20
-0.95569960280497
30
0
0
SPLINE
5
DA
100
AcDbEntity
8
1
62
256
6
ByLayer
370
18
48
1
60
0
100
AcDbSpline
70
4
71
3
72
163
73
159
40
0
40
0
40
0
40
0
40
0.0012634859019725
40
0.0012634859019725
40
0.007709775402326
40
0.007709775402326
40
0.0141560649026797
40
0.0270486439033864
40
0.0270486439033864
40
0.0399412229040931
40
0.0399412229040931
40
0.0463875124044459
40
0.0463875124044459
40
0.0528338019047989
40
0.0528338019047989
40
0.0657263809055045
40
0.0657263809055045
40
0.0786189599062102
40
0.0786189599062102
40
0.0915115389069159
40
0.0915115389069159
40
0.0979578284072684
40
0.0979578284072684
40
0.104404117907621
40
0.104404117907621
40
0.117296696908326
40
0.117296696908326
40
0.13018927590903
40
0.13018927590903
40
0.143081854909735
40
0.143081854909735
40
0.15597443391044
40
0.15597443391044
40
0.168867012911145
40
0.168867012911145
40
0.18175959191185
40
0.18175959191185
40
0.188205881412202
40
0.188205881412202
40
0.194652170912554
40
0.194652170912554
40
0.207544749913258
40
0.207544749913258
40
0.220437328913962
40
0.220437328913962
40
0.233329907914666
40
0.233329907914666
40
0.24622248691537
40
0.24622248691537
40
0.259115065916073
40
0.259115065916073
40
0.28490022391748
40
0.28490022391748
40
0.297792802918183
40
0.297792802918183
40
0.310685381918886
40
0.310685381918886
40
0.323577960919589
40
0.323577960919589
40
0.336470539920292
40
0.336470539920292
40
0.349363118920995
40
0.349363118920995
40
0.362255697921697
40
0.362255697921697
40
0.368701987422048
40
0.368701987422048
40
0.375148276922399
40
0.375148276922399
40
0.388040855923102
40
0.388040855923102
40
0.400933434923805
40
0.400933434923805
40
0.413826013924508
40
0.413826013924508
40
0.439611171925912
40
0.439611171925912
40
0.452503750926615
40
0.452503750926615
40
0.465396329927318
40
0.465396329927318
40
0.491181487928724
40
0.491181487928724
40
0.504074066929426
40
0.504074066929426
40
0.516966645930129
40
0.516966645930129
40
0.542751803931533
40
0.542751803931533
40
0.555644382932236
40
0.555644382932236
40
0.562090672432587
40
0.562090672432587
40
0.568536961932938
40
0.568536961932938
40
0.581429540933641
40
0.581429540933641
40
0.594322119934343
40
0.594322119934343
40
0.607214698935046
40
0.607214698935046
40
0.620107277935748
40
0.620107277935748
40
0.63299985693645
40
0.63299985693645
40
0.645892435937153
40
0.645892435937153
40
0.658785014937855
40
0.658785014937855
40
0.671677593938558
40
0.671677593938558
40
0.68457017293926
40
0.68457017293926
40
0.697462751939963
40
0.697462751939963
40
0.723247909941368
40
0.723247909941368
40
0.736140488942071
40
0.736140488942071
40
0.749033067942774
40
0.749033067942774
40
0.761925646943477
40
0.761925646943477
40
0.774818225944179
40
0.774818225944179
40
0.787710804944882
40
0.787710804944882
40
0.800603383945585
40
0.800603383945585
40
0.813495962946288
40
0.813495962946288
40
0.826388541946991
40
0.826388541946991
40
0.832834831447342
40
0.832834831447342
40
0.839281120947693
40
0.839281120947693
40
0.852173699948395
40
0.852173699948395
40
0.877958857949798
40
0.877958857949798
40
0.8908514369505
40
0.8908514369505
40
0.903744015951202
40
0.903744015951202
40
0.916636594951904
40
0.916636594951904
40
0.929529173952606
40
0.929529173952606
40
0.942421752953308
40
0.942421752953308
40
0.95531433195401
40
0.95531433195401
40
0.968206910954711
40
0.968206910954711
40
0.981099489955413
40
0.981099489955413
40
1
40
1
40
1
40
1
41
1
10
21.4887239280792
20
4.68622009357571
30
0
41
1
10
21.5027224640598
20
4.68594522201184
30
0
41
1
10
21.5167224657478
20
4.68565100073869
30
0
41
1
10
21.6021590352918
20
4.68373856877469
30
0
41
1
10
21.673645232338
20
4.68164675512764
30
0
41
1
10
21.8165008392822
20
4.67652232021086
30
0
41
1
10
22.030667979364
20
4.66741745908121
30
0
41
1
10
22.2445151775269
20
4.6541671174549
30
0
41
1
10
22.5294105481061
20
4.63302472168616
30
0
41
1
10
22.6717399470214
20
4.62080364819275
30
0
41
1
10
22.8852512052169
20
4.59955353166106
30
0
41
1
10
22.9564243519313
20
4.59196763151257
30
0
41
1
10
23.0988257440619
20
4.5757114808728
30
0
41
1
10
23.1700502544608
20
4.56705490177171
30
0
41
1
10
23.3837744087839
20
4.53962337506161
30
0
41
1
10
23.5263099831365
20
4.51941956728774
30
0
41
1
10
23.8113964748198
20
4.47550323032726
30
0
41
1
10
23.9539563338182
20
4.45176562308629
30
0
41
1
10
24.239066322641
20
4.40084923196895
30
0
41
1
10
24.3815917494706
20
4.37371849884883
30
0
41
1
10
24.5955059418981
20
4.33035532189427
30
0
41
1
10
24.6668640057154
20
4.31543702173002
30
0
41
1
10
24.8095755477344
20
4.28463815920557
30
0
41
1
10
24.8809212164778
20
4.26875450995348
30
0
41
1
10
25.0949562247884
20
4.21975435405173
30
0
41
1
10
25.2376328475521
20
4.18530395216956
30
0
41
1
10
25.522799622526
20
4.11312582896312
30
0
41
1
10
25.6653162779948
20
4.07539521752133
30
0
41
1
10
25.9502049251151
20
3.99683123962322
30
0
41
1
10
26.0925638788733
20
3.9560121435363
30
0
41
1
10
26.3771131706116
20
3.87130647573971
30
0
41
1
10
26.5193337345675
20
3.82735229745958
30
0
41
1
10
26.8040688346249
20
3.73596758096221
30
0
41
1
10
26.9465513961313
20
3.68860350898282
30
0
41
1
10
27.2316311302393
20
3.59093502720515
30
0
41
1
10
27.3742613693904
20
3.54063806705534
30
0
41
1
10
27.58839743546
20
3.4631088737205
30
0
41
1
10
27.6598296076947
20
3.43689940336333
30
0
41
1
10
27.8025971621329
20
3.38382149288626
30
0
41
1
10
27.8739076931703
20
3.35696549801202
30
0
41
1
10
28.0876359229178
20
3.27547466744124
30
0
41
1
10
28.2298494566025
20
3.21990638781293
30
0
41
1
10
28.5139408328656
20
3.10626817780135
30
0
41
1
10
28.6558206116384
20
3.04820847453044
30
0
41
1
10
28.9391920586644
20
2.9297771924501
30
0
41
1
10
29.0806804044321
20
2.86940125639592
30
0
41
1
10
29.36329758081
20
2.74650702251318
30
0
41
1
10
29.5044103527782
20
2.68397207073184
30
0
41
1
10
29.7864721796549
20
2.55696566564933
30
0
41
1
10
29.9274438453844
20
2.49253062894385
30
0
41
1
10
30.3502626002178
20
2.29636972117021
30
0
41
1
10
30.6321560737488
20
2.16194294547938
30
0
41
1
10
31.0548779863197
20
1.95531688673253
30
0
41
1
10
31.1957501897265
20
1.88558821573355
30
0
41
1
10
31.4773982222338
20
1.74444221463233
30
0
41
1
10
31.6182424077302
20
1.67306403094904
30
0
41
1
10
31.9002376825824
20
1.52898645830086
30
0
41
1
10
32.0413826237018
20
1.45628654309343
30
0
41
1
10
32.3240979759112
20
1.3098831729412
30
0
41
1
10
32.4656279218059
20
1.23611828525296
30
0
41
1
10
32.7489427762132
20
1.08741074031732
30
0
41
1
10
32.8907285130701
20
1.01248275271072
30
0
41
1
10
33.1746083413487
20
0.861544759996463
30
0
41
1
10
33.316718680937
20
0.785545855536242
30
0
41
1
10
33.5302697813103
20
0.67088509205837
30
0
41
1
10
33.6015165656604
20
0.632553080718452
30
0
41
1
10
33.7441619249206
20
0.555698510172988
30
0
41
1
10
33.8155952747924
20
0.51716207404877
30
0
41
1
10
34.0295743910006
20
0.401608753747382
30
0
41
1
10
34.171961370471
20
0.324553544710142
30
0
41
1
10
34.4562822777531
20
0.170470576280849
30
0
41
1
10
34.598237289535
20
0.0934737029283497
30
0
41
1
10
34.8817087504555
20
-0.0605269469103007
30
0
41
1
10
35.0232269425082
20
-0.137503760779083
30
0
41
1
10
35.4474607937846
20
-0.367561031428863
30
0
41
1
10
35.7298084604459
20
-0.519914337842636
30
0
41
1
10
36.15271898122
20
-0.746918150166721
30
0
41
1
10
36.2935831116983
20
-0.822345534140851
30
0
41
1
10
36.5750883290351
20
-0.972816995765015
30
0
41
1
10
36.7157325117199
20
-1.047842027662
30
0
41
1
10
37.1379417713835
20
-1.27096191855693
30
0
41
1
10
37.4196793560157
20
-1.41732399016792
30
0
41
1
10
37.8427293243771
20
-1.63340243412298
30
0
41
1
10
37.9838261046359
20
-1.7048392665283
30
0
41
1
10
38.2660537248389
20
-1.84684412701856
30
0
41
1
10
38.4071625399496
20
-1.91745785161288
30
0
41
1
10
38.8309943725083
20
-2.12696166510122
30
0
41
1
10
39.1143226249957
20
-2.26329170077304
30
0
41
1
10
39.5409963208846
20
-2.46209011953826
30
0
41
1
10
39.6834672904639
20
-2.52746250019243
30
0
41
1
10
39.897466752326
20
-2.62436986863156
30
0
41
1
10
39.9688743074016
20
-2.65650257751452
30
0
41
1
10
40.111564785939
20
-2.7202690489876
30
0
41
1
10
40.1828671742532
20
-2.75190141195677
30
0
41
1
10
40.3966917620492
20
-2.84587862154828
30
0
41
1
10
40.5391514758538
20
-2.90722442912829
30
0
41
1
10
40.823951195239
20
-3.02723024581741
30
0
41
1
10
40.9662815585449
20
-3.08592281307762
30
0
41
1
10
41.2508685331735
20
-3.20073301808628
30
0
41
1
10
41.3931213373188
20
-3.25684705231407
30
0
41
1
10
41.677602230749
20
-3.36663674700569
30
0
41
1
10
41.8198191583569
20
-3.42039374242899
30
0
41
1
10
42.1042767002226
20
-3.52527441937829
30
0
41
1
10
42.2465774665193
20
-3.57622594145042
30
0
41
1
10
42.531525300721
20
-3.67473505322096
30
0
41
1
10
42.6741466492308
20
-3.7223690499558
30
0
41
1
10
42.9596393593769
20
-3.81461859692078
30
0
41
1
10
43.1025526852742
20
-3.8592426695497
30
0
41
1
10
43.3878566579305
20
-3.94553534416286
30
0
41
1
10
43.5303192103704
20
-3.98730813225987
30
0
41
1
10
43.814967283418
20
-4.06793984272488
30
0
41
1
10
43.9571960247137
20
-4.10663304393751
30
0
41
1
10
44.241831208377
20
-4.17996969240602
30
0
41
1
10
44.384178804467
20
-4.21474365346847
30
0
41
1
10
44.8112650362281
20
-4.31379173519395
30
0
41
1
10
45.0961095613062
20
-4.37278322578192
30
0
41
1
10
45.5231426798193
20
-4.45234157330088
30
0
41
1
10
45.6654774310212
20
-4.47724367029204
30
0
41
1
10
45.9505849197039
20
-4.52276080654536
30
0
41
1
10
46.0934104129563
20
-4.54346729392526
30
0
41
1
10
46.3787696488796
20
-4.58089895501269
30
0
41
1
10
46.521403490164
20
-4.59762720678845
30
0
41
1
10
46.8064859905102
20
-4.62749182431963
30
0
41
1
10
46.948927843151
20
-4.64062413349225
30
0
41
1
10
47.2336353829123
20
-4.66346801945838
30
0
41
1
10
47.3758975908596
20
-4.6731659003058
30
0
41
1
10
47.660496636081
20
-4.68841808513579
30
0
41
1
10
47.8028364978421
20
-4.69397071390614
30
0
41
1
10
48.0875619350727
20
-4.70121424346087
30
0
41
1
10
48.2299535977365
20
-4.70290424961419
30
0
41
1
10
48.5147824798068
20
-4.70271885276711
30
0
41
1
10
48.6572102095627
20
-4.70084768104815
30
0
41
1
10
48.8709532533525
20
-4.69549924577351
30
0
41
1
10
48.9422088968417
20
-4.69330569774354
30
0
41
1
10
49.0847784148115
20
-4.68796339902818
30
0
41
1
10
49.1560768743614
20
-4.68480197267428
30
0
41
1
10
49.3696989928252
20
-4.67376265406301
30
0
41
1
10
49.5118932708488
20
-4.66430487542542
30
0
41
1
10
49.9379072764201
20
-4.62996472954683
30
0
41
1
10
50.2211212547887
20
-4.5991841169508
30
0
41
1
10
50.6449965808345
20
-4.54213378527697
30
0
41
1
10
50.7861407797427
20
-4.52129612314522
30
0
41
1
10
51.0682283289125
20
-4.4761256023101
30
0
41
1
10
51.2091981753637
20
-4.45180836763203
30
0
41
1
10
51.4910182370956
20
-4.39984130622537
30
0
41
1
10
51.6318411482134
20
-4.37217383338629
30
0
41
1
10
51.913354379358
20
-4.31359613354192
30
0
41
1
10
52.0540349674281
20
-4.2827026662163
30
0
41
1
10
52.335305052193
20
-4.21764292057156
30
0
41
1
10
52.4758997695384
20
-4.18346141180646
30
0
41
1
10
52.7571525345157
20
-4.11162669845939
30
0
41
1
10
52.8978222318569
20
-4.07395849108445
30
0
41
1
10
53.1794290322616
20
-3.99516261644743
30
0
41
1
10
53.3203452610812
20
-3.95404543874247
30
0
41
1
10
53.602526038023
20
-3.86865041512851
30
0
41
1
10
53.7438011417037
20
-3.82439421752139
30
0
41
1
10
54.0925265470385
20
-3.71141781990215
30
0
41
1
10
54.3001900562226
20
-3.64093354823427
30
0
41
1
10
54.5083309333455
20
-3.56716510270783
30
0
0
SPLINE
5
DB
100
AcDbEntity
8
1
62
256
6
ByLayer
370
18
48
1
60
0
100
AcDbSpline
70
4
71
3
72
107
73
103
40
0
40
0
40
0
40
0
40
0.0201037350606801
40
0.0201037350606801
40
0.0402074701213602
40
0.0402074701213602
40
0.0603112051820403
40
0.0603112051820403
40
0.0804149402427203
40
0.0804149402427203
40
0.1005186753034
40
0.1005186753034
40
0.120622410364081
40
0.120622410364081
40
0.140726145424761
40
0.140726145424761
40
0.160829880485441
40
0.160829880485441
40
0.180933615546121
40
0.180933615546121
40
0.201037350606801
40
0.201037350606801
40
0.221141085667481
40
0.221141085667481
40
0.241244820728161
40
0.241244820728161
40
0.261348555788841
40
0.261348555788841
40
0.281452290849521
40
0.281452290849521
40
0.291504158379861
40
0.291504158379861
40
0.3015560259102
40
0.3015560259102
40
0.32165976097088
40
0.32165976097088
40
0.341763496031559
40
0.341763496031559
40
0.361867231092238
40
0.361867231092238
40
0.402074701213597
40
0.402074701213597
40
0.442282171334956
40
0.442282171334956
40
0.482489641456314
40
0.482489641456314
40
0.522697111577673
40
0.522697111577673
40
0.542800846638352
40
0.542800846638352
40
0.562904581699031
40
0.562904581699031
40
0.583008316759711
40
0.583008316759711
40
0.59306018429005
40
0.59306018429005
40
0.60311205182039
40
0.60311205182039
40
0.623215786881069
40
0.623215786881069
40
0.643319521941747
40
0.643319521941747
40
0.663423257002426
40
0.663423257002426
40
0.683526992063104
40
0.683526992063104
40
0.703630727123783
40
0.703630727123783
40
0.723734462184461
40
0.723734462184461
40
0.7337863297148
40
0.7337863297148
40
0.743838197245139
40
0.763941932305817
40
0.763941932305817
40
0.784045667366495
40
0.784045667366495
40
0.794097534896833
40
0.794097534896833
40
0.804149402427171
40
0.804149402427171
40
0.824253137487846
40
0.824253137487846
40
0.844356872548521
40
0.844356872548521
40
0.864460607609196
40
0.864460607609196
40
0.874512475139532
40
0.874512475139532
40
0.884564342669869
40
0.884564342669869
40
0.904668077730543
40
0.904668077730543
40
0.924771812791218
40
0.924771812791218
40
0.944875547851893
40
0.944875547851893
40
0.964979282912568
40
0.964979282912568
40
0.985083017973243
40
0.985083017973243
40
1
40
1
40
1
40
1
41
1
10
6.22344778365738
20
0.737744632403718
30
0
41
1
10
6.3665681847059
20
0.66181987586674
30
0
41
1
10
6.50937508288376
20
0.585659970441895
30
0
41
1
10
6.79438177375167
20
0.432867095300452
30
0
41
1
10
6.93656603801051
20
0.356190357987515
30
0
41
1
10
7.22041290682512
20
0.202574834283098
30
0
41
1
10
7.36209532582245
20
0.125694821525997
30
0
41
1
10
7.64512789981177
20
-0.0278789654826994
30
0
41
1
10
7.78647826529527
20
-0.104583075522328
30
0
41
1
10
8.06898759956363
20
-0.257607696839216
30
0
41
1
10
8.21014446270866
20
-0.33393548995403
30
0
41
1
10
8.49233439740428
20
-0.486121146011726
30
0
41
1
10
8.63335525426919
20
-0.561996800646057
30
0
41
1
10
8.91528809828645
20
-0.713210894224716
30
0
41
1
10
9.0562191995665
20
-0.788512370418118
30
0
41
1
10
9.33812908051721
20
-0.938254715004092
30
0
41
1
10
9.47910127744143
20
-1.01271196372343
30
0
41
1
10
9.76106113160597
20
-1.16086802349315
30
0
41
1
10
9.90204314218741
20
-1.23457714485232
30
0
41
1
10
10.1840211716419
20
-1.3812737266847
30
0
41
1
10
10.3250188694459
20
-1.45425741854186
30
0
41
1
10
10.6072047286273
20
-1.59914413918901
30
0
41
1
10
10.7484191610257
20
-1.67099992484376
30
0
41
1
10
11.0312549072591
20
-1.81320186018976
30
0
41
1
10
11.1728543496318
20
-1.88358340703104
30
0
41
1
10
11.4564535917927
20
-2.02286788163269
30
0
41
1
10
11.5984530890897
20
-2.09177197031727
30
0
41
1
10
11.8828168147175
20
-2.22819600413857
30
0
41
1
10
12.0251680780526
20
-2.29574342878681
30
0
41
1
10
12.2390095857442
20
-2.39593813250141
30
0
41
1
10
12.3103434969209
20
-2.42914651724939
30
0
41
1
10
12.4531436975454
20
-2.49513360626199
30
0
41
1
10
12.5245328984294
20
-2.52787640452789
30
0
41
1
10
12.7384177414287
20
-2.62515082399602
30
0
41
1
10
12.8807424208395
20
-2.68876384392524
30
0
41
1
10
13.1650448486147
20
-2.81332534117408
30
0
41
1
10
13.3070337016156
20
-2.87426985073742
30
0
41
1
10
13.5906037856304
20
-2.99379765773981
30
0
41
1
10
13.7321938936708
20
-3.05238562573786
30
0
41
1
10
14.1564871420732
20
-3.22445670856141
30
0
41
1
10
14.4387136094963
20
-3.33414869650812
30
0
41
1
10
15.0026136866673
20
-3.54171163530856
30
0
41
1
10
15.284248599255
20
-3.63980238935915
30
0
41
1
10
15.8476532607246
20
-3.8246616388044
30
0
41
1
10
16.1293248287399
20
-3.91140850925046
30
0
41
1
10
16.693591448941
20
-4.0714633800707
30
0
41
1
10
16.9761005446338
20
-4.14501044331146
30
0
41
1
10
17.4002506268563
20
-4.24667018724404
30
0
41
1
10
17.5417296168783
20
-4.27902180550052
30
0
41
1
10
17.8253058799621
20
-4.33977348486758
30
0
41
1
10
17.9674143285571
20
-4.36821180838734
30
0
41
1
10
18.2521467743628
20
-4.42154999484598
30
0
41
1
10
18.3947645574785
20
-4.44644783088145
30
0
41
1
10
18.6090664207072
20
-4.48125086588055
30
0
41
1
10
18.6805471538191
20
-4.49242628282235
30
0
41
1
10
18.8233611057621
20
-4.51391987967654
30
0
41
1
10
18.8947264458732
20
-4.52424366724424
30
0
41
1
10
19.1086869603515
20
-4.55399505362197
30
0
41
1
10
19.2511435219602
20
-4.57219276450934
30
0
41
1
10
19.5359887573073
20
-4.60435259595437
30
0
41
1
10
19.6783934716289
20
-4.61829802504735
30
0
41
1
10
19.9631768415935
20
-4.64233028394301
30
0
41
1
10
20.1055459996724
20
-4.6524232376197
30
0
41
1
10
20.3903819468822
20
-4.66893240824444
30
0
41
1
10
20.5328263676631
20
-4.67535640571003
30
0
41
1
10
20.8176700812193
20
-4.68476231006434
30
0
41
1
10
20.9600615819921
20
-4.68780003033632
30
0
41
1
10
21.2451323454454
20
-4.68973558381742
30
0
41
1
10
21.3878536246445
20
-4.6885356307304
30
0
41
1
10
21.6021590352917
20
-4.68373856877469
30
0
41
1
10
21.6736452323379
20
-4.68164675512764
30
0
41
1
10
21.8165008392822
20
-4.67652232021086
30
0
41
1
10
22.030667979364
20
-4.66741745908121
30
0
41
1
10
22.2445151775269
20
-4.6541671174549
30
0
41
1
10
22.529410548106
20
-4.63302472168618
30
0
41
1
10
22.6717399470213
20
-4.62080364819275
30
0
41
1
10
22.8852512052168
20
-4.59955353166109
30
0
41
1
10
22.9564243519313
20
-4.59196763151257
30
0
41
1
10
23.0988257440618
20
-4.57571148087283
30
0
41
1
10
23.1700502544607
20
-4.56705490177171
30
0
41
1
10
23.3837744087839
20
-4.53962337506164
30
0
41
1
10
23.5263099831364
20
-4.51941956728774
30
0
41
1
10
23.8113964748198
20
-4.47550323032726
30
0
41
1
10
23.9539563338181
20
-4.45176562308632
30
0
41
1
10
24.2390663226409
20
-4.40084923196898
30
0
41
1
10
24.3815917494705
20
-4.37371849884883
30
0
41
1
10
24.595505941898
20
-4.3303553218943
30
0
41
1
10
24.6668640057154
20
-4.31543702173005
30
0
41
1
10
24.8095755477344
20
-4.2846381592056
30
0
41
1
10
24.8809212164777
20
-4.26875450995351
30
0
41
1
10
25.0949562247883
20
-4.21975435405173
30
0
41
1
10
25.237632847552
20
-4.18530395216959
30
0
41
1
10
25.5227996225259
20
-4.11312582896315
30
0
41
1
10
25.6653162779947
20
-4.07539521752136
30
0
41
1
10
25.9502049251151
20
-3.99683123962325
30
0
41
1
10
26.0925638788732
20
-3.95601214353633
30
0
41
1
10
26.3771131706115
20
-3.87130647573971
30
0
41
1
10
26.5193337345675
20
-3.82735229745961
30
0
41
1
10
26.8040688346249
20
-3.73596758096221
30
0
41
1
10
26.9465513961312
20
-3.68860350898285
30
0
41
1
10
27.1948559197789
20
-3.6035342355774
30
0
41
1
10
27.3006703320665
20
-3.56649388134781
30
0
41
1
10
27.4065495197247
20
-3.52867825221694
30
0
0
SPLINE
5
DC
100
AcDbEntity
8
1
62
256
6
ByLayer
370
18
48
1
60
0
100
AcDbSpline
70
4
71
3
72
58
73
54
40
0
40
0
40
0
40
0
40
0.0235056002107543
40
0.0235056002107543
40
0.0409430002069915
40
0.0409430002069915
40
0.0583804002032282
40
0.0583804002032282
40
0.0932552001957022
40
0.0932552001957022
40
0.163004800180649
40
0.163004800180649
40
0.197879600173122
40
0.197879600173122
40
0.232754400165594
40
0.232754400165594
40
0.267629200158067
40
0.267629200158067
40
0.302504000150538
40
0.302504000150538
40
0.337378800143011
40
0.337378800143011
40
0.372253600135483
40
0.372253600135483
40
0.407128400127956
40
0.407128400127956
40
0.442003200120428
40
0.442003200120428
40
0.511752800105373
40
0.511752800105373
40
0.546627600097845
40
0.546627600097845
40
0.581502400090317
40
0.581502400090317
40
0.61637720008279
40
0.61637720008279
40
0.651252000075262
40
0.651252000075262
40
0.721001600060209
40
0.721001600060209
40
0.755876400052683
40
0.755876400052683
40
0.790751200045157
40
0.790751200045157
40
0.82562600003763
40
0.82562600003763
40
0.860500800030103
40
0.860500800030103
40
0.930250400015051
40
0.930250400015051
40
0.965125200007525
40
0.965125200007525
40
1
40
1
40
1
40
1
41
1
10
48.5116556653092
20
4.70215677445282
30
0
41
1
10
48.6076526697568
20
4.70131876716454
30
0
41
1
10
48.7036637589703
20
4.6996852862498
30
0
41
1
10
48.8709532533524
20
4.69549924577353
30
0
41
1
10
48.9422088968416
20
4.69330569774357
30
0
41
1
10
49.0847784148115
20
4.68796339902818
30
0
41
1
10
49.1560768743614
20
4.68480197267428
30
0
41
1
10
49.3696989928251
20
4.67376265406301
30
0
41
1
10
49.5118932708488
20
4.66430487542542
30
0
41
1
10
49.93790727642
20
4.62996472954686
30
0
41
1
10
50.2211212547887
20
4.5991841169508
30
0
41
1
10
50.6449965808345
20
4.54213378527697
30
0
41
1
10
50.7861407797427
20
4.52129612314522
30
0
41
1
10
51.0682283289125
20
4.4761256023101
30
0
41
1
10
51.2091981753637
20
4.45180836763203
30
0
41
1
10
51.4910182370956
20
4.39984130622537
30
0
41
1
10
51.6318411482134
20
4.37217383338629
30
0
41
1
10
51.913354379358
20
4.31359613354192
30
0
41
1
10
52.0540349674281
20
4.28270266621632
30
0
41
1
10
52.335305052193
20
4.21764292057156
30
0
41
1
10
52.4758997695384
20
4.18346141180649
30
0
41
1
10
52.7571525345157
20
4.11162669845942
30
0
41
1
10
52.8978222318569
20
4.07395849108445
30
0
41
1
10
53.1794290322616
20
3.99516261644746
30
0
41
1
10
53.3203452610812
20
3.95404543874247
30
0
41
1
10
53.602526038023
20
3.86865041512854
30
0
41
1
10
53.7438011417037
20
3.82439421752139
30
0
41
1
10
54.1680414378977
20
3.68695329794488
30
0
41
1
10
54.4515225799194
20
3.58914402363396
30
0
41
1
10
54.8782049698781
20
3.43329933840684
30
0
41
1
10
55.0207160391715
20
3.37980445588028
30
0
41
1
10
55.3060082443466
20
3.26992784749336
30
0
41
1
10
55.4483584811171
20
3.21372413854988
30
0
41
1
10
55.7325469294705
20
3.09896114063102
30
0
41
1
10
55.8743946263419
20
3.04041141669987
30
0
41
1
10
56.1577768314423
20
2.92120321581839
30
0
41
1
10
56.2992768866899
20
2.86049370073221
30
0
41
1
10
56.7233397949923
20
2.67518226077223
30
0
41
1
10
57.0055342201519
20
2.54749428626556
30
0
41
1
10
57.4280762383099
20
2.35018098410245
30
0
41
1
10
57.5687757752139
20
2.28342548524026
30
0
41
1
10
57.850099670439
20
2.14814411802925
30
0
41
1
10
57.9907436418312
20
2.0796217049477
30
0
41
1
10
58.2721352458142
20
1.9410817014714
30
0
41
1
10
58.4128979439219
20
1.87110882242047
30
0
41
1
10
58.6945073485155
20
1.7297407337108
30
0
41
1
10
58.8353491218389
20
1.65833135300821
30
0
41
1
10
59.2580920669448
20
1.44215062925974
30
0
41
1
10
59.5401856323737
20
1.29539938434311
30
0
41
1
10
59.9638613591592
20
1.07158476198626
30
0
41
1
10
60.1051828806891
20
0.996375485549549
30
0
41
1
10
60.388112802131
20
0.844915457473377
30
0
41
1
10
60.5297138294249
20
0.768648843647298
30
0
41
1
10
60.6715673238198
20
0.692042731306145
30
0
0
SPLINE
5
DD
100
AcDbEntity
8
1
62
256
6
ByLayer
370
18
48
1
60
0
100
AcDbSpline
70
4
71
3
72
18
73
14
40
0
40
0
40
0
40
0
40
0.125000000000003
40
0.125000000000003
40
0.250000000000005
40
0.250000000000005
40
0.500000000000005
40
0.500000000000005
40
0.625000000000006
40
0.625000000000006
40
0.750000000000006
40
0.750000000000006
40
1
40
1
40
1
40
1
41
1
10
3.75144255633666
20
2.30862306287423
30
0
41
1
10
3.84323046654384
20
2.23512997103299
30
0
41
1
10
3.93702686230802
20
2.16298830112856
30
0
41
1
10
4.12801149886749
20
2.02101002564004
30
0
41
1
10
4.22520241320507
20
1.95117518920804
30
0
41
1
10
4.52119799178129
20
1.74471135059488
30
0
41
1
10
4.72440154896111
20
1.61110674199602
30
0
41
1
10
5.03616669188452
20
1.41562656913098
30
0
41
1
10
5.14125751884546
20
1.35129370184066
30
0
41
1
10
5.35355564465962
20
1.22415115297784
30
0
41
1
10
5.46082154550905
20
1.1613103936059
30
0
41
1
10
5.78435612236601
20
0.975569528191045
30
0
41
1
10
6.00271801963521
20
0.855216707138823
30
0
41
1
10
6.22330199368974
20
0.737811537150805
30
0
0
SPLINE
5
DE
100
AcDbEntity
8
1
62
256
6
ByLayer
370
18
48
1
60
0
100
AcDbSpline
70
4
71
3
72
52
73
48
40
0
40
0
40
0
40
0
40
0.0624999999999997
40
0.0624999999999997
40
0.124999999999999
40
0.124999999999999
40
0.156249999999999
40
0.156249999999999
40
0.171874999999999
40
0.171874999999999
40
0.187499999999999
40
0.187499999999999
40
0.249999999999999
40
0.249999999999999
40
0.312499999999999
40
0.312499999999999
40
0.343749999999999
40
0.343749999999999
40
0.359374999999999
40
0.359374999999999
40
0.374999999999999
40
0.374999999999999
40
0.437499999999998
40
0.437499999999998
40
0.499999999999997
40
0.562499999999995
40
0.562499999999995
40
0.578124999999995
40
0.578124999999995
40
0.593749999999995
40
0.624999999999995
40
0.624999999999995
40
0.687499999999995
40
0.687499999999995
40
0.749999999999995
40
0.749999999999995
40
0.781249999999995
40
0.781249999999995
40
0.796874999999996
40
0.796874999999996
40
0.812499999999996
40
0.812499999999996
40
0.874999999999997
40
0.874999999999997
40
0.937499999999999
40
0.937499999999999
40
1
40
1
40
1
40
1
41
1
10
60.6715673238198
20
0.692042731306174
30
0
41
1
10
60.6626640824343
20
0.539962805645445
30
0
41
1
10
60.6587861929695
20
0.387468448835165
30
0
41
1
10
60.6592841840499
20
0.0816687379045504
30
0
41
1
10
60.6636627081139
20
-0.071636622747576
30
0
41
1
10
60.6752259300514
20
-0.302206856460941
30
0
41
1
10
60.6799142089132
20
-0.379165811876419
30
0
41
1
10
60.688057362738
20
-0.494759745530388
30
0
41
1
10
60.6909550645575
20
-0.53328299993683
30
0
41
1
10
60.6970601388763
20
-0.609947492844697
30
0
41
1
10
60.7002710890172
20
-0.648140791064662
30
0
41
1
10
60.7170440806381
20
-0.838427733584581
30
0
41
1
10
60.7327474872143
20
-0.988489293784767
30
0
41
1
10
60.7670668616798
20
-1.28455520148626
30
0
41
1
10
60.7856861219195
20
-1.43055891390057
30
0
41
1
10
60.8147716412164
20
-1.64661382373978
30
0
41
1
10
60.8246614602463
20
-1.71813920985744
30
0
41
1
10
60.8396739134253
20
-1.82468928476288
30
0
41
1
10
60.844712219138
20
-1.86011385257831
30
0
41
1
10
60.8548100586964
20
-1.93057536142939
30
0
41
1
10
60.8598599617072
20
-1.96554583940119
30
0
41
1
10
60.8850709185579
20
-2.13911588893379
30
0
41
1
10
60.9051048303699
20
-2.27387998807214
30
0
41
1
10
60.9439846807995
20
-2.53551909849273
30
0
41
1
10
60.9816797816398
20
-2.7892674196325
30
0
41
1
10
61.0156918760716
20
-3.02727105166866
30
0
41
1
10
61.0355341858029
20
-3.1709456463407
30
0
41
1
10
61.039436670984
20
-3.19945768962674
30
0
41
1
10
61.047057800491
20
-3.25567504749438
30
0
41
1
10
61.0582259861181
20
-3.33887581735226
30
0
41
1
10
61.0686051391534
20
-3.41873650531448
30
0
41
1
10
61.0883373423287
20
-3.5740666230387
30
0
41
1
10
61.1001163322928
20
-3.67177546827378
30
0
41
1
10
61.1212461122845
20
-3.85557151204162
30
0
41
1
10
61.1305959602933
20
-3.94165884957704
30
0
41
1
10
61.1432344433775
20
-4.06187086541308
30
0
41
1
10
61.1472183136639
20
-4.1004524023287
30
0
41
1
10
61.1529259376105
20
-4.15604048101733
30
0
41
1
10
61.1547852121284
20
-4.17420133750545
30
0
41
1
10
61.1584094885757
20
-4.20955862793255
30
0
41
1
10
61.1601770060891
20
-4.22677947954742
30
0
41
1
10
61.1688348930406
20
-4.31061776964756
30
0
41
1
10
61.1751796688454
20
-4.37045336375445
30
0
41
1
10
61.1879166776214
20
-4.47597743905189
30
0
41
1
10
61.1943076605192
20
-4.52166373665847
30
0
41
1
10
61.2085343641175
20
-4.59882592089161
30
0
41
1
10
61.2163672358967
20
-4.63030353470208
30
0
41
1
10
61.2257465321449
20
-4.6544518931837
30
0
0
SPLINE
5
DF
100
AcDbEntity
8
1
62
256
6
ByLayer
370
13
48
1
60
0
100
AcDbSpline
70
4
71
3
72
23
73
19
40
0
40
0
40
0
40
0
40
0.250000000000038
40
0.250000000000038
40
0.375000000000034
40
0.375000000000034
40
0.50000000000003
40
0.625000000000025
40
0.625000000000025
40
0.750000000000021
40
0.750000000000021
40
0.875000000000017
40
0.875000000000017
40
0.937500000000008
40
0.937500000000008
40
0.968750000000004
40
0.968750000000004
40
1
40
1
40
1
40
1
41
1
10
3.62886552200999
20
-4.0849366557328
30
0
41
1
10
3.60811425442074
20
-4.09160895324663
30
0
41
1
10
3.58990885269395
20
-4.09963208873532
30
0
41
1
10
3.56588454766524
20
-4.11336248822204
30
0
41
1
10
3.55839666255687
20
-4.11826224704819
30
0
41
1
10
3.54491606476978
20
-4.12833028306608
30
0
41
1
10
3.53282362199673
20
-4.13871325415778
30
0
41
1
10
3.52331318078757
20
-4.14966920470127
30
0
41
1
10
3.51506719249721
20
-4.16090044723103
30
0
41
1
10
3.51156587775333
20
-4.16668242201877
30
0
41
1
10
3.50594699559539
20
-4.17832870270658
30
0
41
1
10
3.50381471042081
20
-4.18420357473812
30
0
41
1
10
3.50162363483179
20
-4.19308297660049
30
0
41
1
10
3.50106360798029
20
-4.19604582123117
30
0
41
1
10
3.50047779070124
20
-4.20049452870538
30
0
41
1
10
3.5003249613757
20
-4.20197804000958
30
0
41
1
10
3.50010436231548
20
-4.20494392753557
30
0
41
1
10
3.50003632493292
20
-4.20644361379507
30
0
41
1
10
3.5000113238199
20
-4.2079055616307
30
0
0
SPLINE
5
E0
100
AcDbEntity
8
1
62
256
6
ByLayer
370
13
48
1
60
0
100
AcDbSpline
70
4
71
3
72
10
73
6
40
0
40
0
40
0
40
0
40
0.5
40
0.5
40
1
40
1
40
1
40
1
41
1
10
3.75034156520619
20
-4.07701907167001
30
0
41
1
10
3.72912257103693
20
-4.07362702534815
30
0
41
1
10
3.70835089305481
20
-4.0726259594403
30
0
41
1
10
3.66769231591195
20
-4.07522018374635
30
0
41
1
10
3.64765892608375
20
-4.07889388351441
30
0
41
1
10
3.62886552200999
20
-4.08493665573278
30
0
0
SPLINE
5
E1
100
AcDbEntity
8
1
62
256
6
ByLayer
370
13
48
1
60
0
100
AcDbSpline
70
4
71
3
72
50
73
46
40
0
40
0
40
0
40
0
40
0.0156250000000001
40
0.0156250000000001
40
0.0312500000000002
40
0.0312500000000002
40
0.0625000000000002
40
0.0625000000000002
40
0.125
40
0.1875
40
0.1875
40
0.21875
40
0.21875
40
0.25
40
0.25
40
0.3125
40
0.375
40
0.375
40
0.40625
40
0.421875
40
0.421875
40
0.4375
40
0.4375
40
0.5
40
0.5
40
0.5625
40
0.5625
40
0.625
40
0.625
40
0.640625
40
0.640625
40
0.65625
40
0.6875
40
0.6875
40
0.75
40
0.812500000000001
40
0.812500000000001
40
0.84375
40
0.84375
40
0.859375
40
0.859375
40
0.875000000000001
40
0.875000000000001
40
0.9375
40
1
40
1
40
1
40
1
41
1
10
3.75144255633612
20
2.30862306287412
30
0
41
1
10
3.75144114740311
20
2.27498475547941
30
0
41
1
10
3.75143959120766
20
2.24107975392741
30
0
41
1
10
3.75143620820009
20
2.17301691239007
30
0
41
1
10
3.75143438004136
20
2.13882471129762
30
0
41
1
10
3.75142850360334
20
2.03577078284886
30
0
41
1
10
3.75142406374226
20
1.96643202937011
30
0
41
1
10
3.7514093068699
20
1.756536295068
30
0
41
1
10
3.75138580840866
20
1.47167226684294
30
0
41
1
10
3.75135577403776
20
1.17688864248098
30
0
41
1
10
3.75133109563106
20
0.952005200719611
30
0
41
1
10
3.75132250965984
20
0.876410280477927
30
0
41
1
10
3.7513046542868
20
0.723925624996525
30
0
41
1
10
3.75129545184674
20
0.647608298022107
30
0
41
1
10
3.75126714219286
20
0.41875185842224
30
0
41
1
10
3.75122750048087
20
0.113584190501967
30
0
41
1
10
3.75118469880485
20
-0.191633897925158
30
0
41
1
10
3.75115152940958
20
-0.420566521507766
30
0
41
1
10
3.75113467598913
20
-0.535037605917694
30
0
41
1
10
3.75111742527827
20
-0.649515956575755
30
0
41
1
10
3.75110583599991
20
-0.725836489513028
30
0
41
1
10
3.75109998980753
20
-0.76404416785175
30
0
41
1
10
3.75107062485799
20
-0.954503522405702
30
0
41
1
10
3.75104681055726
20
-1.10438173919624
30
0
41
1
10
3.75099849252646
20
-1.39931311359786
30
0
41
1
10
3.75097398872777
20
-1.54436587664844
30
0
41
1
10
3.75092411331764
20
-1.82965547042036
30
0
41
1
10
3.7508987422973
20
-1.96989259499429
30
0
41
1
10
3.75086628719433
20
-2.14209680774013
30
0
41
1
10
3.75085975108126
20
-2.17642230118199
30
0
41
1
10
3.75084663471887
20
-2.24456642944756
30
0
41
1
10
3.75082691928094
20
-2.34589293057744
30
0
41
1
10
3.75080705614678
20
-2.44458232875815
30
0
41
1
10
3.75076705939301
20
-2.63850426692767
30
0
41
1
10
3.75071301474705
20
-2.88786491689044
30
0
41
1
10
3.75065662835058
20
-3.11903987045466
30
0
41
1
10
3.75061304455085
20
-3.28548484926782
30
0
41
1
10
3.7505982999873
20
-3.33980839139113
30
0
41
1
10
3.75057579704046
20
-3.41952218777152
30
0
41
1
10
3.75056822430429
20
-3.44582211316842
30
0
41
1
10
3.75055300654103
20
-3.49759709627474
30
0
41
1
10
3.75054535535378
20
-3.5230949779685
30
0
41
1
10
3.75050686585075
20
-3.64864974242349
30
0
41
1
10
3.75044379167673
20
-3.83718395802097
30
0
41
1
10
3.75037655319886
20
-4.00123716095678
30
0
41
1
10
3.75034156520619
20
-4.07701907167004
30
0
0
SPLINE
5
E2
100
AcDbEntity
8
1
62
256
6
ByLayer
370
18
48
1
60
0
100
AcDbSpline
70
4
71
3
72
38
73
34
40
0
40
0
40
0
40
0
40
0.125000000000045
40
0.125000000000045
40
0.250000000000091
40
0.250000000000091
40
0.312500000000113
40
0.312500000000113
40
0.375000000000136
40
0.375000000000136
40
0.437500000000158
40
0.437500000000158
40
0.500000000000181
40
0.500000000000181
40
0.562500000000204
40
0.562500000000204
40
0.593750000000204
40
0.593750000000204
40
0.625000000000204
40
0.625000000000204
40
0.687500000000176
40
0.687500000000176
40
0.750000000000148
40
0.750000000000148
40
0.781250000000116
40
0.781250000000116
40
0.812500000000083
40
0.812500000000083
40
0.875000000000056
40
0.875000000000056
40
0.937500000000028
40
0.937500000000028
40
1
40
1
40
1
40
1
41
1
10
3.50002558956044
20
2.25759375162568
30
0
41
1
10
3.50019136945215
20
2.26850018728757
30
0
41
1
10
3.50115820170151
20
2.27904857678121
30
0
41
1
10
3.5048869725471
20
2.29934016664089
30
0
41
1
10
3.50764354281506
20
2.30908585555747
30
0
41
1
10
3.51343514504561
20
2.32295686358114
30
0
41
1
10
3.51564390248916
20
2.32745497225264
30
0
41
1
10
3.52071358934344
20
2.33615573555994
30
0
41
1
10
3.52358423887577
20
2.34036951267225
30
0
41
1
10
3.53004455849194
20
2.34834285633832
30
0
41
1
10
3.53363557730339
20
2.35211122165282
30
0
41
1
10
3.54170271417024
20
2.35911041009325
30
0
41
1
10
3.5462033227613
20
2.36235581236713
30
0
41
1
10
3.55619754970635
20
2.36805611935577
30
0
41
1
10
3.56168479105511
20
2.37051751307865
30
0
41
1
10
3.57087180608505
20
2.37344849625112
30
0
41
1
10
3.5740946362788
20
2.37429772946288
30
0
41
1
10
3.5809194907722
20
2.37569384270557
30
0
41
1
10
3.58454156320804
20
2.37624141882074
30
0
41
1
10
3.59584571184357
20
2.37731633234381
30
0
41
1
10
3.60399969563585
20
2.37729936979105
30
0
41
1
10
3.62189780967481
20
2.37537245054378
30
0
41
1
10
3.63128591783374
20
2.37348664192837
30
0
41
1
10
3.64587591512228
20
2.36925879490158
30
0
41
1
10
3.65087515322963
20
2.36759798126909
30
0
41
1
10
3.66081421153382
20
2.36389270680604
30
0
41
1
10
3.66575345687156
20
2.36185322101133
30
0
41
1
10
3.68048973902529
20
2.3552323849637
30
0
41
1
10
3.69027200323274
20
2.35010178164865
30
0
41
1
10
3.70886882976612
20
2.33922596175279
30
0
41
1
10
3.71779475070966
20
2.33343718701892
30
0
41
1
10
3.73509005277538
20
2.32133581536527
30
0
41
1
10
3.7434353118708
20
2.31503433372274
30
0
41
1
10
3.75144255634797
20
2.30862306286514
30
0
0
SPLINE
5
E3
100
AcDbEntity
8
1
62
256
6
ByLayer
370
13
48
1
60
0
100
AcDbSpline
70
4
71
3
72
51
73
47
40
0
40
0
40
0
40
0
40
0.0014784375625303
40
0.0014784375625303
40
0.0366797893321849
40
0.0542804652170127
40
0.0542804652170127
40
0.0718811411018405
40
0.0718811411018405
40
0.107082492871495
40
0.107082492871495
40
0.14228384464115
40
0.14228384464115
40
0.21268654818046
40
0.21268654818046
40
0.247887899950116
40
0.247887899950116
40
0.283089251719771
40
0.283089251719771
40
0.353491955259083
40
0.353491955259083
40
0.388693307028737
40
0.388693307028737
40
0.423894658798391
40
0.423894658798391
40
0.494297362337702
40
0.494297362337702
40
0.529498714107358
40
0.529498714107358
40
0.564700065877014
40
0.564700065877014
40
0.635102769416328
40
0.635102769416328
40
0.670304121185984
40
0.670304121185984
40
0.705505472955641
40
0.705505472955641
40
0.775908176494957
40
0.775908176494957
40
0.846310880034274
40
0.846310880034274
40
0.916713583573591
40
0.916713583573591
40
0.987116287112907
40
0.987116287112907
40
1
40
1
40
1
40
1
41
1
10
18.1139420109633
20
1.92584384716818
30
0
41
1
10
18.1202414870313
20
1.92273894863672
30
0
41
1
10
18.1265413439408
20
1.91963233325052
30
0
41
1
10
18.2828492696444
20
1.8425152357932
30
0
41
1
10
18.5081806813232
20
1.73002426357613
30
0
41
1
10
18.7340960274148
20
1.61547233714654
30
0
41
1
10
18.8848478268042
20
1.53866337333511
30
0
41
1
10
18.9603253573297
20
1.50002181419148
30
0
41
1
10
19.1867825471626
20
1.38357305022845
30
0
41
1
10
19.3374463991457
20
1.30542387010695
30
0
41
1
10
19.6382950527541
20
1.14834740812608
30
0
41
1
10
19.7884742242625
20
1.06940983876098
30
0
41
1
10
20.2383483213668
20
0.831537966365971
30
0
41
1
10
20.5373898769925
20
0.671562846264465
30
0
41
1
10
20.9851878550459
20
0.430542916115371
30
0
41
1
10
21.1343311620963
20
0.350035205121742
30
0
41
1
10
21.4324968252681
20
0.188916738224037
30
0
41
1
10
21.5815140767759
20
0.108296773575574
30
0
41
1
10
22.0284448348163
20
-0.133599043674479
30
0
41
1
10
22.3262447620426
20
-0.294897476454565
30
0
41
1
10
22.7732501219544
20
-0.535884236730197
30
0
41
1
10
22.922306719891
20
-0.61604618438389
30
0
41
1
10
23.2206463049215
20
-0.775819116274675
30
0
41
1
10
23.3699250922591
20
-0.855437455237933
30
0
41
1
10
23.8181705253405
20
-1.09332866956748
30
0
41
1
10
24.1175554326135
20
-1.25062190046478
30
0
41
1
10
24.5680955662966
20
-1.48342484595653
30
0
41
1
10
24.7185160833751
20
-1.56050922554346
30
0
41
1
10
25.0198916189934
20
-1.71354374374261
30
0
41
1
10
25.171014825537
20
-1.78956773144424
30
0
41
1
10
25.6231122834923
20
-2.01444731252761
30
0
41
1
10
25.9233756942366
20
-2.16041585651851
30
0
41
1
10
26.3726258825039
20
-2.37259980327301
30
0
41
1
10
26.5221899639483
20
-2.44220247694619
30
0
41
1
10
26.8210603248108
20
-2.57903869538933
30
0
41
1
10
26.9703600823246
20
-2.64627017467117
30
0
41
1
10
27.4179103205984
20
-2.8442283677297
30
0
41
1
10
27.7158263280263
20
-2.97122377777546
30
0
41
1
10
28.3115538377784
20
-3.21417772123812
30
0
41
1
10
28.6093938532443
20
-3.33017594828041
30
0
41
1
10
29.2056812676989
20
-3.55019471461171
30
0
41
1
10
29.5041158511452
20
-3.65418994984898
30
0
41
1
10
30.1023153021411
20
-3.84920113723743
30
0
41
1
10
30.4020841908611
20
-3.94024876832611
30
0
41
1
10
30.757909595612
20
-4.03968432116949
30
0
41
1
10
30.8129869319553
20
-4.05483184085702
30
0
41
1
10
30.8681011165519
20
-4.06974174235833
30
0
0
SPLINE
5
E4
100
AcDbEntity
8
1
62
256
6
ByLayer
370
18
48
1
60
0
100
AcDbSpline
70
4
71
3
72
24
73
20
40
0
40
0
40
0
40
0
40
0.0639241319628262
40
0.0639241319628262
40
0.164750920508403
40
0.164750920508403
40
0.366404497599557
40
0.366404497599557
40
0.467231286145138
40
0.467231286145138
40
0.517644680417928
40
0.517644680417928
40
0.568058074690717
40
0.568058074690717
40
0.769711651781894
40
0.769711651781894
40
0.971365228873069
40
0.971365228873069
40
1
40
1
40
1
40
1
41
1
10
30.8681011166354
20
-4.06974174238087
30
0
41
1
10
30.9635719238132
20
-4.09556921931201
30
0
41
1
10
31.0591532994669
20
-4.12068368875271
30
0
41
1
10
31.3058155991034
20
-4.18352923882122
30
0
41
1
10
31.4566932473523
20
-4.2200682927681
30
0
41
1
10
31.9090874952622
20
-4.32385629605682
30
0
41
1
10
32.2104166783199
20
-4.38529862666886
30
0
41
1
10
32.6625717258221
20
-4.46537332524474
30
0
41
1
10
32.8133164331582
20
-4.49004705553077
30
0
41
1
10
33.039541014498
20
-4.52397884635221
30
0
41
1
10
33.1149672039126
20
-4.53477726528195
30
0
41
1
10
33.2658674777554
20
-4.55534529638302
30
0
41
1
10
33.341364657734
20
-4.56511739301951
30
0
41
1
10
33.7185338768815
20
-4.61133986263857
30
0
41
1
10
34.0195036208905
20
-4.6399451601369
30
0
41
1
10
34.6206532217587
20
-4.68024405678571
30
0
41
1
10
34.9208322632598
20
-4.69189161263105
30
0
41
1
10
35.2635751206918
20
-4.69554008344605
30
0
41
1
10
35.3061918009727
20
-4.69582346685826
30
0
41
1
10
35.3488085611479
20
-4.69593649502525
30
0
0
SPLINE
5
E5
100
AcDbEntity
8
1
62
256
6
ByLayer
370
13
48
1
60
0
100
AcDbSpline
70
4
71
3
72
32
73
28
40
0
40
0
40
0
40
0
40
0.0992791400991114
40
0.0992791400991114
40
0.202265756805162
40
0.202265756805162
40
0.305252373511214
40
0.305252373511214
40
0.408238990217266
40
0.408238990217266
40
0.43398564439378
40
0.43398564439378
40
0.459732298570296
40
0.459732298570296
40
0.511225606923325
40
0.511225606923325
40
0.61421222362938
40
0.61421222362938
40
0.66570553198241
40
0.66570553198241
40
0.717198840335439
40
0.717198840335439
40
0.820185457041495
40
0.820185457041495
40
0.92317207374755
40
0.92317207374755
40
1
40
1
40
1
40
1
41
1
10
36.949065970981
20
-4.69583675731187
30
0
41
1
10
36.6584083696958
20
-4.72842681305244
30
0
41
1
10
36.3683993472735
20
-4.75300673292423
30
0
41
1
10
35.7782315495655
20
-4.78668601978654
30
0
41
1
10
35.4780911109125
20
-4.79519006143067
30
0
41
1
10
34.8777201336723
20
-4.79494552761923
30
0
41
1
10
34.5774840796037
20
-4.78618987303523
30
0
41
1
10
33.9761764012495
20
-4.75128576852399
30
0
41
1
10
33.6751218194236
20
-4.72517686617329
30
0
41
1
10
33.2978256722608
20
-4.68179976154409
30
0
41
1
10
33.2222989135015
20
-4.67258306482418
30
0
41
1
10
33.0713397270084
20
-4.65309790613824
30
0
41
1
10
32.9958847685116
20
-4.64282722832968
30
0
41
1
10
32.769574065176
20
-4.61043835391322
30
0
41
1
10
32.6187712639297
20
-4.5867403029695
30
0
41
1
10
32.1664450182251
20
-4.50942342126743
30
0
41
1
10
31.8650093758503
20
-4.44959138016273
30
0
41
1
10
31.4124606824814
20
-4.34784850484493
30
0
41
1
10
31.2615390828469
20
-4.3119316785494
30
0
41
1
10
30.9594946409159
20
-4.23612983438349
30
0
41
1
10
30.8087915695105
20
-4.19635506647626
30
0
41
1
10
30.357469901281
20
-4.07161382652427
30
0
41
1
10
30.0576424586712
20
-3.98122339509672
30
0
41
1
10
29.4593875166724
20
-3.78704172843561
30
0
41
1
10
29.1609420566123
20
-3.68323727914009
30
0
41
1
10
28.6403704913612
20
-3.49111161449628
30
0
41
1
10
28.4181334363713
20
-3.40555022772242
30
0
41
1
10
28.1959342767297
20
-3.31673190282575
30
0
0
SPLINE
5
E6
100
AcDbEntity
8
1
62
256
6
ByLayer
370
18
48
1
60
0
100
AcDbSpline
70
4
71
3
72
30
73
26
40
0
40
0
40
0
40
0
40
0.0344079962684989
40
0.0344079962684989
40
0.169872637810348
40
0.169872637810348
40
0.237604958581275
40
0.237604958581275
40
0.305337279352201
40
0.305337279352201
40
0.440801920894049
40
0.440801920894049
40
0.508534241664976
40
0.508534241664976
40
0.576266562435902
40
0.576266562435902
40
0.71173120397775
40
0.71173120397775
40
0.779463524748675
40
0.779463524748675
40
0.847195845519599
40
0.847195845519599
40
0.982660487061448
40
0.982660487061448
40
1
40
1
40
1
40
1
41
1
10
28.1959333478666
20
-3.3167315315369
30
0
41
1
10
28.1202783675837
20
-3.2864904211765
30
0
41
1
10
28.0446277804282
20
-3.25587173889596
30
0
41
1
10
27.6711333722793
20
-3.10288508696115
30
0
41
1
10
27.3732261770301
20
-2.97515171066379
30
0
41
1
10
26.9256624761245
20
-2.77575167669397
30
0
41
1
10
26.7763533438349
20
-2.70798480306445
30
0
41
1
10
26.4774711876769
20
-2.56992853954353
30
0
41
1
10
26.3279053180131
20
-2.49963953847473
30
0
41
1
10
25.8786175195536
20
-2.28523906922933
30
0
41
1
10
25.5782874967923
20
-2.13758131499867
30
0
41
1
10
25.1260371182634
20
-1.90979535969265
30
0
41
1
10
24.9748438642154
20
-1.83273434692836
30
0
41
1
10
24.6733569281782
20
-1.67752154280586
30
0
41
1
10
24.522894844109
20
-1.59929275415936
30
0
41
1
10
24.0722520395084
20
-1.36292406647809
30
0
41
1
10
23.7728240459102
20
-1.20308478489665
30
0
41
1
10
23.3245312902136
20
-0.961134860454678
30
0
41
1
10
23.1752395605887
20
-0.880123522366659
30
0
41
1
10
22.8768981827814
20
-0.717449360635896
30
0
41
1
10
22.7278532206846
20
-0.63577870639628
30
0
41
1
10
22.2808733800807
20
-0.390168885072967
30
0
41
1
10
21.9830813430473
20
-0.225651171385408
30
0
41
1
10
21.6469941340769
20
-0.039933284717165
30
0
41
1
10
21.6088537752949
20
-0.0188570681816884
30
0
41
1
10
21.5707103583775
20
0.0022203197823671
30
0
0
SPLINE
5
E7
100
AcDbEntity
8
1
62
256
6
ByLayer
370
18
48
1
60
0
100
AcDbSpline
70
4
71
3
72
8
73
4
40
0
40
0
40
0
40
0
40
1
40
1
40
1
40
1
41
1
10
61.1999764201821
20
-4.76710233062099
30
0
41
1
10
61.1835899741752
20
-4.81491863182833
30
0
41
1
10
61.1673742065107
20
-4.86272981434604
30
0
41
1
10
61.1513348833788
20
-4.91054155913389
30
0
0
SPLINE
5
E8
100
AcDbEntity
8
1
62
256
6
ByLayer
370
13
48
1
60
0
100
AcDbSpline
70
4
71
3
72
10
73
6
40
0
40
0
40
0
40
0
40
0.5
40
0.5
40
1
40
1
40
1
40
1
41
1
10
3.70190426869297
20
-4.20566893426965
30
0
41
1
10
3.68922720855022
20
-4.20234417142916
30
0
41
1
10
3.67677781921932
20
-4.2004595482255
30
0
41
1
10
3.65234148286712
20
-4.19949370776604
30
0
41
1
10
3.64027590092544
20
-4.20044370472374
30
0
41
1
10
3.62886552201002
20
-4.20292402188807
30
0
0
SPLINE
5
E9
100
AcDbEntity
8
1
62
256
6
ByLayer
370
13
48
1
60
0
100
AcDbSpline
70
4
71
3
72
8
73
4
40
0
40
0
40
0
40
0
40
1
40
1
40
1
40
1
41
1
10
3.62634559715053
20
-4.31600496875117
30
0
41
1
10
3.62717743943517
20
-4.27831517349063
30
0
41
1
10
3.6280174006925
20
-4.24062158106662
30
0
41
1
10
3.62886552200999
20
-4.20292402188807
30
0
0
SPLINE
5
EA
100
AcDbEntity
8
1
62
256
6
ByLayer
370
18
48
1
60
0
100
AcDbSpline
70
4
71
3
72
18
73
14
40
0
40
0
40
0
40
0
40
0.408163243138287
40
0.408163243138287
40
0.61224486470743
40
0.61224486470743
40
0.663265270099715
40
0.663265270099715
40
0.714285675492003
40
0.714285675492003
40
0.816326486276574
40
0.816326486276574
40
1
40
1
40
1
40
1
41
1
10
3.75034156520619
20
-4.07701907167001
30
0
41
1
10
4.3540114096416
20
-4.23735773030467
30
0
41
1
10
4.95547880517023
20
-4.3668316977226
30
0
41
1
10
5.85839506195924
20
-4.51281131153246
30
0
41
1
10
6.15950118899192
20
-4.55343129887862
30
0
41
1
10
6.53659182974562
20
-4.59392061939539
30
0
41
1
10
6.61204525711338
20
-4.60150288560496
30
0
41
1
10
6.76303529508746
20
-4.61562445303198
30
0
41
1
10
6.83860254209406
20
-4.6221655079074
30
0
41
1
10
7.06500169119542
20
-4.6401753473672
30
0
41
1
10
7.21564566116714
20
-4.6500454985779
30
0
41
1
10
7.63672619064803
20
-4.671741002831
30
0
41
1
10
7.90659138880844
20
-4.67881777751344
30
0
41
1
10
8.17591462171634
20
-4.67910059414868
30
0
0
SPLINE
5
EB
100
AcDbEntity
8
1
62
256
6
ByLayer
370
13
48
1
60
0
100
AcDbSpline
70
4
71
3
72
39
73
35
40
0
40
0
40
0
40
0
40
0.0039817022238296
40
0.0039817022238296
40
0.136704507622535
40
0.136704507622535
40
0.203065910321888
40
0.203065910321888
40
0.269427313021241
40
0.269427313021241
40
0.302608014370917
40
0.302608014370917
40
0.319198365045754
40
0.319198365045754
40
0.335788715720591
40
0.335788715720591
40
0.402150118419939
40
0.402150118419939
40
0.534872923818637
40
0.534872923818637
40
0.667595729217335
40
0.667595729217335
40
0.733957131916685
40
0.733957131916685
40
0.767137833266359
40
0.783728183941197
40
0.783728183941197
40
0.800318534616034
40
0.800318534616034
40
0.933041340014727
40
0.933041340014727
40
0.999402742714073
40
0.999402742714073
40
1
40
1
40
1
40
1
41
1
10
45.0526751902252
20
2.06101260816493
30
0
41
1
10
45.0705806223474
20
2.0522769630459
30
0
41
1
10
45.0884840320923
20
2.04352908933137
30
0
41
1
10
45.7030984320437
20
1.74277190024506
30
0
41
1
10
46.2976698592698
20
1.43728057733395
30
0
41
1
10
47.1904621971957
20
0.966422162818191
30
0
41
1
10
47.4882495696702
20
0.807416200006799
30
0
41
1
10
48.0848364396085
20
0.486425340283148
30
0
41
1
10
48.3836356286959
20
0.324449452594365
30
0
41
1
10
48.8331528312583
20
0.0802771701438019
30
0
41
1
10
48.9832167193161
20
-0.0013092118265661
30
0
41
1
10
49.2087284960552
20
-0.123827885601259
30
0
41
1
10
49.2839677270394
20
-0.164692286390846
30
0
41
1
10
49.4345931086263
20
-0.246455759712347
30
0
41
1
10
49.5100123558121
20
-0.287372073975206
30
0
41
1
10
49.8871393077928
20
-0.491771440143822
30
0
41
1
10
50.1876411866761
20
-0.65396653820585
30
0
41
1
10
51.08644507435
20
-1.13497968950114
30
0
41
1
10
51.6821147525044
20
-1.44811899637847
30
0
41
1
10
52.8722256602939
20
-2.04903741111579
30
0
41
1
10
53.4665954207924
20
-2.33701665062989
30
0
41
1
10
54.3615669097481
20
-2.74261609918611
30
0
41
1
10
54.6604670724177
20
-2.87342046239206
30
0
41
1
10
55.1102345229094
20
-3.06211845028375
30
0
41
1
10
55.3354710454042
20
-3.15459047989305
30
0
41
1
10
55.561334060188
20
-3.24407570438595
30
0
41
1
10
55.7120595404157
20
-3.30304959820154
30
0
41
1
10
55.7875279220158
20
-3.33220629295124
30
0
41
1
10
56.4655741692148
20
-3.59074166288133
30
0
41
1
10
57.0630162810389
20
-3.79423440366142
30
0
41
1
10
57.9558706378117
20
-4.05620017853269
30
0
41
1
10
58.2530022712549
20
-4.13634656488594
30
0
41
1
10
58.5525668479771
20
-4.20968797968919
30
0
41
1
10
58.5552388837656
20
-4.21034156613135
30
0
41
1
10
58.5579109020576
20
-4.21099454868494
30
0
0
SPLINE
5
EC
100
AcDbEntity
8
1
62
256
6
ByLayer
370
18
48
1
60
0
100
AcDbSpline
70
4
71
3
72
16
73
12
40
0
40
0
40
0
40
0
40
0.331327299687269
40
0.331327299687269
40
0.665663649843641
40
0.665663649843641
40
0.832831824921827
40
0.916415912460914
40
0.958207956230457
40
0.958207956230457
40
1
40
1
40
1
40
1
41
1
10
58.5579109016098
20
-4.21099454857546
30
0
41
1
10
58.8521274875464
20
-4.28289461684724
30
0
41
1
10
59.1461319405176
20
-4.34747297985032
30
0
41
1
10
59.7371326961456
20
-4.46196282090239
30
0
41
1
10
60.0341257821234
20
-4.51173084796338
30
0
41
1
10
60.4803211641604
20
-4.5743468977355
30
0
41
1
10
60.7035953661354
20
-4.60264879219258
30
0
41
1
10
60.9644950255953
20
-4.63033480643779
30
0
41
1
10
61.0764086104529
20
-4.64104959225395
30
0
41
1
10
61.1510409746776
20
-4.64793620294316
30
0
41
1
10
61.1883624211654
20
-4.65121297412895
30
0
41
1
10
61.2257465321474
20
-4.65445189318368
30
0
0
SPLINE
5
ED
100
AcDbEntity
8
1
62
256
6
ByLayer
370
13
48
1
60
0
100
AcDbSpline
70
4
71
3
72
22
73
18
40
0
40
0
40
0
40
0
40
0.0203318144073469
40
0.0203318144073469
40
0.0406636288146949
40
0.0813272576293841
40
0.162654515258769
40
0.162654515258769
40
0.325309030517534
40
0.325309030517534
40
0.487963545776299
40
0.487963545776299
40
0.650618061035063
40
0.650618061035063
40
0.975927091552597
40
0.975927091552597
40
1
40
1
40
1
40
1
41
1
10
61.1999764201823
20
-4.76710233062116
30
0
41
1
10
61.1624380981976
20
-4.76413808897547
30
0
41
1
10
61.1248950308905
20
-4.76119986404245
30
0
41
1
10
61.0498471051523
20
-4.75498329389632
30
0
41
1
10
60.9373185561946
20
-4.74525971245592
30
0
41
1
10
60.6750416226933
20
-4.71979085310494
30
0
41
1
10
60.4506822505469
20
-4.69322992786192
30
0
41
1
10
60.0024341741288
20
-4.63389511388849
30
0
41
1
10
59.7042289584771
20
-4.58604748746666
30
0
41
1
10
59.1084217131137
20
-4.47437351899239
30
0
41
1
10
58.810825960018
20
-4.41055071987503
30
0
41
1
10
58.2154542803835
20
-4.26753992296025
30
0
41
1
10
57.9176596226836
20
-4.18834677344393
30
0
41
1
10
57.0232041304822
20
-3.92848515389974
30
0
41
1
10
56.4251449997585
20
-3.72551456568652
30
0
41
1
10
55.7775695578671
20
-3.47834338405556
30
0
41
1
10
55.7329062674719
20
-3.46115708143526
30
0
41
1
10
55.6882455311084
20
-3.44383506223642
30
0
0
SPLINE
5
EE
100
AcDbEntity
8
1
62
256
6
ByLayer
370
18
48
1
60
0
100
AcDbSpline
70
4
71
3
72
25
73
21
40
0
40
0
40
0
40
0
40
0.0131885656618727
40
0.0131885656618727
40
0.0455133632194783
40
0.110162958334688
40
0.110162958334688
40
0.239462148565106
40
0.239462148565106
40
0.49806052902594
40
0.49806052902594
40
0.756658909486774
40
0.756658909486774
40
0.885958099717187
40
0.885958099717187
40
0.918282897274789
40
0.918282897274789
40
0.95060769483239
40
0.95060769483239
40
1
40
1
40
1
40
1
41
1
10
55.6882460926675
20
-3.44383528004158
30
0
41
1
10
55.6574663347293
20
-3.43189710870629
30
0
41
1
10
55.6266877898207
20
-3.41989447417799
30
0
41
1
10
55.5205291732186
20
-3.37827402007372
30
0
41
1
10
55.2945716349544
20
-3.28852766188891
30
0
41
1
10
55.0692620677854
20
-3.19566697596488
30
0
41
1
10
54.6193755859983
20
-3.00601961615143
30
0
41
1
10
54.3204347300819
20
-2.87434876139432
30
0
41
1
10
53.4254051371512
20
-2.46549181645133
30
0
41
1
10
52.831084487023
20
-2.17446335756952
30
0
41
1
10
51.6410859680399
20
-1.56565337824773
30
0
41
1
10
51.0454294411159
20
-1.24774907857329
30
0
41
1
10
50.1464868221046
20
-0.758328665226884
30
0
41
1
10
49.8459121877966
20
-0.593121418588424
30
0
41
1
10
49.4686615131789
20
-0.384661313769868
30
0
41
1
10
49.3932022669418
20
-0.342912109808367
30
0
41
1
10
49.2425167916822
20
-0.259472017586376
30
0
41
1
10
49.1672506461206
20
-0.217759562030665
30
0
41
1
10
48.9771612276617
20
-0.1123455040549
30
0
41
1
10
48.8624340166849
20
-0.0486630682468387
30
0
41
1
10
48.7478484534775
20
0.0149346614666683
30
0
0
SPLINE
5
EF
100
AcDbEntity
8
1
62
256
6
ByLayer
370
13
48
1
60
0
100
AcDbSpline
70
4
71
3
72
20
73
16
40
0
40
0
40
0
40
0
40
0.0937924568144394
40
0.0937924568144394
40
0.395861637876279
40
0.395861637876279
40
0.471378933141742
40
0.471378933141742
40
0.509137580774472
40
0.509137580774472
40
0.546896228407203
40
0.546896228407203
40
0.697930818938135
40
0.697930818938135
40
1
40
1
40
1
40
1
41
1
10
9.66999858156206
20
-4.68784868205955
30
0
41
1
10
9.4849653980728
20
-4.70761584272034
30
0
41
1
10
9.29991181618283
20
-4.72417745841759
30
0
41
1
10
8.51837603816952
20
-4.78036123174309
30
0
41
1
10
7.92083359220254
20
-4.78950607751352
30
0
41
1
10
7.16871109750602
20
-4.75760632548256
30
0
41
1
10
7.01802318845571
20
-4.74905768298285
30
0
41
1
10
6.79154126505489
20
-4.73295262821347
30
0
41
1
10
6.71594176779993
20
-4.72703372844472
30
0
41
1
10
6.56488865385811
20
-4.71412800544468
30
0
41
1
10
6.48940422783437
20
-4.70713971731723
30
0
41
1
10
6.11216174348672
20
-4.66954949794948
30
0
41
1
10
5.81094369842654
20
-4.63102169997313
30
0
41
1
10
4.90766451471731
20
-4.49066863777927
30
0
41
1
10
4.30592826571328
20
-4.36408393880987
30
0
41
1
10
3.70190426869297
20
-4.20566893426965
30
0
0
SPLINE
5
F0
100
AcDbEntity
8
1
62
256
6
ByLayer
370
18
48
1
60
0
100
AcDbSpline
70
4
71
3
72
22
73
18
40
0
40
0
40
0
40
0
40
0.125
40
0.125
40
0.25
40
0.25
40
0.375
40
0.375
40
0.5
40
0.5
40
0.625
40
0.625
40
0.75
40
0.75
40
0.875
40
0.875
40
1
40
1
40
1
40
1
41
1
10
61.2257465321449
20
-4.65445189318348
30
0
41
1
10
61.2261631024263
20
-4.65552441378884
30
0
41
1
10
61.2264150484614
20
-4.65708018351469
30
0
41
1
10
61.226563657051
20
-4.66122173371716
30
0
41
1
10
61.2264596444075
20
-4.66381935960197
30
0
41
1
10
61.2258346197509
20
-4.67017144411585
30
0
41
1
10
61.2253220316967
20
-4.67385086897863
30
0
41
1
10
61.2238543767889
20
-4.68231953998028
30
0
41
1
10
61.2228820902816
20
-4.687177496326
30
0
41
1
10
61.2205382927245
20
-4.69764645918235
30
0
41
1
10
61.2191641024558
20
-4.70328990177802
30
0
41
1
10
61.2159756992773
20
-4.71547647576591
30
0
41
1
10
61.2142070499712
20
-4.72183888324187
30
0
41
1
10
61.2104278211735
20
-4.73476774456265
30
0
41
1
10
61.2083827076721
20
-4.74144571639204
30
0
41
1
10
61.2042428761443
20
-4.75443705347863
30
0
41
1
10
61.2021164255559
20
-4.76085770982303
30
0
41
1
10
61.1999764201822
20
-4.76710233062082
30
0
0
SPLINE
5
F1
100
AcDbEntity
8
1
62
256
6
ByLayer
370
18
48
1
60
0
100
AcDbSpline
70
4
71
3
72
88
73
84
40
0
40
0
40
0
40
0
40
0.0022251110939106
40
0.0022251110939106
40
0.0623628274335482
40
0.0623628274335482
40
0.0698800419760029
40
0.0698800419760029
40
0.0773972565184576
40
0.092431685603367
40
0.092431685603367
40
0.122500543773187
40
0.122500543773187
40
0.182638260112827
40
0.182638260112827
40
0.242775976452466
40
0.242775976452466
40
0.257810405537377
40
0.265327620079831
40
0.265327620079831
40
0.272844834622286
40
0.272844834622286
40
0.302913692792103
40
0.302913692792103
40
0.363051409131738
40
0.363051409131738
40
0.378085838216646
40
0.378085838216646
40
0.393120267301556
40
0.393120267301556
40
0.423189125471374
40
0.423189125471374
40
0.453257983641193
40
0.453257983641193
40
0.460775198183649
40
0.460775198183649
40
0.468292412726104
40
0.468292412726104
40
0.483326841811014
40
0.483326841811014
40
0.498361270895925
40
0.498361270895925
40
0.513395699980835
40
0.513395699980835
40
0.543464558150655
40
0.543464558150655
40
0.573533416320477
40
0.573533416320477
40
0.603602274490297
40
0.603602274490297
40
0.633671132660118
40
0.633671132660118
40
0.663739990829939
40
0.663739990829939
40
0.671257205372394
40
0.671257205372394
40
0.678774419914849
40
0.678774419914849
40
0.693808848999758
40
0.693808848999758
40
0.723877707169577
40
0.723877707169577
40
0.753946565339395
40
0.753946565339395
40
0.768980994424304
40
0.768980994424304
40
0.784015423509214
40
0.784015423509214
40
0.814084281679032
40
0.814084281679032
40
0.844153139848851
40
0.844153139848851
40
0.859187568933761
40
0.859187568933761
40
0.874221998018671
40
0.874221998018671
40
0.904290856188489
40
0.904290856188489
40
0.934359714358308
40
0.934359714358308
40
0.964428572528127
40
0.964428572528127
40
1
40
1
40
1
40
1
41
1
10
37.8560899340608
20
-4.71015098456832
30
0
41
1
10
37.834035203142
20
-4.71397690106781
30
0
41
1
10
37.8119782601264
20
-4.71775738426462
30
0
41
1
10
37.1937258941734
20
-4.8224361109713
30
0
41
1
10
36.5957671943169
20
-4.89008345223843
30
0
41
1
10
35.9175034194536
20
-4.92620599596299
30
0
41
1
10
35.8420139615017
20
-4.92966573136783
30
0
41
1
10
35.6912464881757
20
-4.93545270762488
30
0
41
1
10
35.4653314288895
20
-4.94244112048861
30
0
41
1
10
35.240064482066
20
-4.94437813637325
30
0
41
1
10
34.790236407106
20
-4.94158521518236
30
0
41
1
10
34.4912856767465
20
-4.93083570963034
30
0
41
1
10
33.5961160890048
20
-4.8724631310069
30
0
41
1
10
33.0016355228687
20
-4.7986798146525
30
0
41
1
10
31.8108356320884
20
-4.58435563923879
30
0
41
1
10
31.2146332160216
20
-4.44376108526168
30
0
41
1
10
30.4644189338436
20
-4.22814124724363
30
0
41
1
10
30.2389740805082
20
-4.16047336918743
30
0
41
1
10
30.0128655186138
20
-4.08836936060479
30
0
41
1
10
29.8619651382473
20
-4.03932126157741
30
0
41
1
10
29.7865399258328
20
-4.0143419355104
30
0
41
1
10
29.40992465344
20
-3.88735390143489
30
0
41
1
10
29.1098317455169
20
-3.77894445352047
30
0
41
1
10
28.2119143521299
20
-3.43504709583647
30
0
41
1
10
27.6166606650581
20
-3.18060912973061
30
0
41
1
10
26.8725051972438
20
-2.83729020847125
30
0
41
1
10
26.7236717224895
20
-2.76736210222967
30
0
41
1
10
26.4259650072351
20
-2.62502590695905
30
0
41
1
10
26.2770913663699
20
-2.5526174715838
30
0
41
1
10
25.8301972857631
20
-2.33198175132372
30
0
41
1
10
25.5319055276976
20
-2.1803433703308
30
0
41
1
10
24.933855852689
20
-1.86905324470624
30
0
41
1
10
24.6340775291843
20
-1.70943474196946
30
0
41
1
10
24.2579140429662
20
-1.50568481651428
30
0
41
1
10
24.1826107712487
20
-1.4647208985447
30
0
41
1
10
24.0318491767677
20
-1.3823860271107
30
0
41
1
10
23.9563370279121
20
-1.34098538196847
30
0
41
1
10
23.7300676442594
20
-1.2164919627933
30
0
41
1
10
23.5795355077845
20
-1.13308612204128
30
0
41
1
10
23.2789879664434
20
-0.965653498108566
30
0
41
1
10
23.1289727876928
20
-0.881626233946974
30
0
41
1
10
22.8294110804649
20
-0.7130352235489
30
0
41
1
10
22.6798639479909
20
-0.628472697914106
30
0
41
1
10
22.2316866507483
20
-0.374410007283586
30
0
41
1
10
21.933522900788
20
-0.204530151644747
30
0
41
1
10
21.3377232567721
20
0.134966093605698
30
0
41
1
10
21.0401372193703
20
0.304671695364675
30
0
41
1
10
20.4447637214501
20
0.642515903212939
30
0
41
1
10
20.1469299451219
20
0.810572236241654
30
0
41
1
10
19.5502606369881
20
1.14369163293739
30
0
41
1
10
19.2514739362849
20
1.30884080670549
30
0
41
1
10
18.6521405274249
20
1.63479102355805
30
0
41
1
10
18.3515519596766
20
1.79551885916263
30
0
41
1
10
17.9741992060047
20
1.99279078073519
30
0
41
1
10
17.8986936562424
20
2.03203912904598
30
0
41
1
10
17.7478221035631
20
2.10999891790144
30
0
41
1
10
17.6724239230299
20
2.14872732862733
30
0
41
1
10
17.4463293030778
20
2.26413916578284
30
0
41
1
10
17.2957305149172
20
2.34004514552416
30
0
41
1
10
16.8441128040544
20
2.56433369994278
30
0
41
1
10
16.5432793702475
20
2.70929890914582
30
0
41
1
10
15.9413092472487
20
2.98895130441278
30
0
41
1
10
15.6401756145554
20
3.12364411017685
30
0
41
1
10
15.1877082293903
20
3.31717676633571
30
0
41
1
10
15.0366536339511
20
3.38030804546344
30
0
41
1
10
14.7349114347731
20
3.50326673543171
30
0
41
1
10
14.5841790175163
20
3.56311502621176
30
0
41
1
10
14.1322325613777
20
3.7375898928654
30
0
41
1
10
13.8312756980441
20
3.84715651541157
30
0
41
1
10
13.2293260351346
20
4.05202677609984
30
0
41
1
10
12.9283241670494
20
4.14731705012883
30
0
41
1
10
12.4761258478097
20
4.27884626932544
30
0
41
1
10
12.325279033712
20
4.32079060436021
30
0
41
1
10
12.023265656557
20
4.40078357240876
30
0
41
1
10
11.8725076075371
20
4.43872338143601
30
0
41
1
10
11.4211806073726
20
4.54624234330808
30
0
41
1
10
11.1213998868665
20
4.6095516479424
30
0
41
1
10
10.5231882459981
20
4.71917598900325
30
0
41
1
10
10.2247657384669
20
4.76550016734231
30
0
41
1
10
9.62858314543416
20
4.84099982997023
30
0
41
1
10
9.33081411724015
20
4.87016757661124
30
0
41
1
10
8.68058228198677
20
4.91487760853758
30
0
41
1
10
8.32809936603778
20
4.92695446774275
30
0
41
1
10
7.97486246123242
20
4.92673579773523
30
0
0
SPLINE
5
F2
100
AcDbEntity
8
1
62
256
6
ByLayer
370
18
48
1
60
0
100
AcDbSpline
70
4
71
3
72
35
73
31
40
0
40
0
40
0
40
0
40
0.0032148912049396
40
0.0032148912049396
40
0.241366803524532
40
0.241366803524532
40
0.300904781604423
40
0.31578927612439
40
0.31578927612439
40
0.323231523384375
40
0.323231523384375
40
0.330673770644358
40
0.330673770644358
40
0.345558265164314
40
0.345558265164314
40
0.360442759684269
40
0.360442759684269
40
0.375327254204225
40
0.375327254204225
40
0.390211748724182
40
0.390211748724182
40
0.405096243244137
40
0.405096243244137
40
0.419980737764093
40
0.479518715843915
40
0.717670628163204
40
0.717670628163204
40
0.955822540482493
40
0.955822540482493
40
1
40
1
40
1
40
1
41
1
10
4.10305466898276
20
-4.92431646188976
30
0
41
1
10
4.10453780665719
20
-4.92431710338494
30
0
41
1
10
4.10602118498693
20
-4.92431744404249
30
0
41
1
10
4.21740786138872
20
-4.92432048932972
30
0
41
1
10
4.32871197775796
20
-4.92267764162116
30
0
41
1
10
4.4692348875621
20
-4.91887700737911
30
0
41
1
10
4.50445379911179
20
-4.91781733739018
30
0
41
1
10
4.53977720632369
20
-4.91662609844727
30
0
41
1
10
4.5503804327156
20
-4.91626090745231
30
0
41
1
10
4.5539065062562
20
-4.9161365240991
30
0
41
1
10
4.56115002349097
20
-4.91590639128248
30
0
41
1
10
4.56490204949276
20
-4.91580260459523
30
0
41
1
10
4.57631649914723
20
-4.9155305949669
30
0
41
1
10
4.58416551069922
20
-4.91539932613236
30
0
41
1
10
4.60028632373351
20
-4.9152312463346
30
0
41
1
10
4.60853925323232
20
-4.91519219283452
30
0
41
1
10
4.62483386653852
20
-4.91518640649517
30
0
41
1
10
4.63295322586742
20
-4.91521670741392
30
0
41
1
10
4.64913195529709
20
-4.91534769014487
30
0
41
1
10
4.65721789524622
20
-4.91544888671922
30
0
41
1
10
4.67319118065171
20
-4.91569294321027
30
0
41
1
10
4.68109233286785
20
-4.91583326489803
30
0
41
1
10
4.69693798125627
20
-4.91610098655869
30
0
41
1
10
4.73654443010196
20
-4.91676496655077
30
0
41
1
10
4.90271035776627
20
-4.91943903997029
30
0
41
1
10
5.0602770615445
20
-4.92150986497708
30
0
41
1
10
5.31136764917176
20
-4.92400094822523
30
0
41
1
10
5.4364224510999
20
-4.92483584509006
30
0
41
1
10
5.58411227097483
20
-4.925207454972
30
0
41
1
10
5.60720815422366
20
-4.9252476315136
30
0
41
1
10
5.63028865521062
20
-4.92526912495009
30
0
0
SPLINE
5
F3
100
AcDbEntity
8
1
62
256
6
ByLayer
370
18
48
1
60
0
100
AcDbSpline
70
4
71
3
72
85
73
81
40
0
40
0
40
0
40
0
40
0.0019235636148545
40
0.0019235636148545
40
0.0109969857638096
40
0.0109969857638096
40
0.0200704079127647
40
0.0200704079127647
40
0.056364096508586
40
0.056364096508586
40
0.0926577851044073
40
0.0926577851044073
40
0.128951473700229
40
0.128951473700229
40
0.16524516229605
40
0.16524516229605
40
0.174318584445005
40
0.174318584445005
40
0.183392006593961
40
0.201538850891872
40
0.201538850891872
40
0.237832539487693
40
0.237832539487693
40
0.255979383785604
40
0.255979383785604
40
0.265052805934559
40
0.265052805934559
40
0.274126228083515
40
0.274126228083515
40
0.34671360527516
40
0.34671360527516
40
0.383007293870983
40
0.383007293870983
40
0.419300982466806
40
0.419300982466806
40
0.428374404615763
40
0.428374404615763
40
0.437447826764719
40
0.437447826764719
40
0.455594671062631
40
0.455594671062631
40
0.491888359658455
40
0.491888359658455
40
0.510035203956368
40
0.519108626105324
40
0.519108626105324
40
0.528182048254281
40
0.528182048254281
40
0.564475736850106
40
0.564475736850106
40
0.600769425445932
40
0.600769425445932
40
0.609842847594889
40
0.609842847594889
40
0.618916269743846
40
0.637063114041758
40
0.637063114041758
40
0.709650491233406
40
0.709650491233406
40
0.745944179829229
40
0.745944179829229
40
0.764091024127141
40
0.764091024127141
40
0.773164446276098
40
0.773164446276098
40
0.782237868425054
40
0.782237868425054
40
0.854825245616703
40
0.854825245616703
40
0.891118934212528
40
0.891118934212528
40
0.927412622808353
40
0.927412622808353
40
0.945559467106265
40
0.945559467106265
40
0.95463288925522
40
0.95463288925522
40
0.963706311404176
40
0.963706311404176
40
1
40
1
40
1
40
1
41
1
10
27.3119629767971
20
3.56249759846005
30
0
41
1
10
27.3337423179146
20
3.57110465070682
30
0
41
1
10
27.355526047086
20
3.57967985897909
30
0
41
1
10
27.4800892334023
20
3.62852090674133
30
0
41
1
10
27.5829651863313
20
3.66810520323566
30
0
41
1
10
27.7889515427144
20
3.74579836343778
30
0
41
1
10
27.8920919149514
20
3.78391804357582
30
0
41
1
10
28.4081490343174
20
3.97059000041617
30
0
41
1
10
28.818846840602
20
4.10616244180102
30
0
41
1
10
29.6379980972928
20
4.34834015205189
30
0
41
1
10
30.0464441186119
20
4.45494718296442
30
0
41
1
10
30.863200373082
20
4.63775741067838
30
0
41
1
10
31.2715238226109
20
4.71396432597126
30
0
41
1
10
32.0898434454231
20
4.83478555943
30
0
41
1
10
32.4998386860496
20
4.87939117140323
30
0
41
1
10
33.014671560157
20
4.91451974123157
30
0
41
1
10
33.1177705077642
20
4.92051463610397
30
0
41
1
10
33.3241775036649
20
4.93041675043904
30
0
41
1
10
33.6335601930484
20
4.94211311983261
30
0
41
1
10
33.9424179253119
20
4.94436049145966
30
0
41
1
10
34.5597933552377
20
4.93631285340214
30
0
41
1
10
34.970917825208
20
4.91422141116192
30
0
41
1
10
35.5884678673142
20
4.85620880339715
30
0
41
1
10
35.7944632769438
20
4.83272585337699
30
0
41
1
10
36.1038786658916
20
4.79131860998467
30
0
41
1
10
36.2071307197686
20
4.77647784933103
30
0
41
1
10
36.4132158639101
20
4.74483540746454
30
0
41
1
10
36.5161159176191
20
4.72802565906932
30
0
41
1
10
37.4410711286884
20
4.56797785769569
30
0
41
1
10
38.255055136176
20
4.36334005806245
30
0
41
1
10
39.4761877192652
20
3.97503702397174
30
0
41
1
10
39.8832593602663
20
3.83206707258208
30
0
41
1
10
40.6992432560028
20
3.52083861940068
30
0
41
1
10
41.1081579602209
20
3.35257529560744
30
0
41
1
10
41.6217454555633
20
3.12773473854807
30
0
41
1
10
41.724585715527
20
3.0820419152127
30
0
41
1
10
41.9305459957984
20
2.98924270271581
30
0
41
1
10
42.0337405744647
20
2.94210165491191
30
0
41
1
10
42.343178936258
20
2.79890031669052
30
0
41
1
10
42.549187438929
20
2.70110569306212
30
0
41
1
10
43.1667271313819
20
2.40131570095161
30
0
41
1
10
43.5777693215582
20
2.19290862030803
30
0
41
1
10
44.1948932689776
20
1.86988296809332
30
0
41
1
10
44.5035967907291
20
1.70576863182367
30
0
41
1
10
44.8128085899793
20
1.53821746416114
30
0
41
1
10
45.0190957617222
20
1.42580506468218
30
0
41
1
10
45.1222693407385
20
1.36926626062873
30
0
41
1
10
45.6375976912792
20
1.08546175532933
30
0
41
1
10
46.0488362397471
20
0.854471794528791
30
0
41
1
10
46.8713327699644
20
0.388201203717244
30
0
41
1
10
47.2825996789968
20
0.152936068413823
30
0
41
1
10
47.7980084448275
20
-0.141535651151713
30
0
41
1
10
47.9012308095726
20
-0.200493937230448
30
0
41
1
10
48.1073589878666
20
-0.31812511240156
30
0
41
1
10
48.4161127803223
20
-0.494164648508189
30
0
41
1
10
48.7236962640711
20
-0.668740298681428
30
0
41
1
10
49.747019829349
20
-1.24632744635639
30
0
41
1
10
50.559456535956
20
-1.69448042610478
30
0
41
1
10
51.7804883820984
20
-2.32635685375914
30
0
41
1
10
52.1879218776504
20
-2.53021233558718
30
0
41
1
10
52.80124190184
20
-2.82331383842714
30
0
41
1
10
53.0060378747135
20
-2.91890966400888
30
0
41
1
10
53.3139512198584
20
-3.05883982824039
30
0
41
1
10
53.4167090826866
20
-3.10490566496148
30
0
41
1
10
53.6224978864637
20
-3.19582811504736
30
0
41
1
10
53.7255845485385
20
-3.24070854782181
30
0
41
1
10
54.6536451511534
20
-3.63846889093375
30
0
41
1
10
55.469084319188
20
-3.94313527749111
30
0
41
1
10
56.6896058019921
20
-4.31655815345707
30
0
41
1
10
57.09602061882
20
-4.42707408607771
30
0
41
1
10
57.9101357147397
20
-4.61835777221182
30
0
41
1
10
58.3178295924568
20
-4.69914292114564
30
0
41
1
10
58.9316924491253
20
-4.79684224596156
30
0
41
1
10
59.1367033916992
20
-4.8254924378293
30
0
41
1
10
59.4450006985658
20
-4.86242620345041
30
0
41
1
10
59.5478967776507
20
-4.87373047178485
30
0
41
1
10
59.7539839935636
20
-4.8942967573372
30
0
41
1
10
59.8571574940952
20
-4.90355527707732
30
0
41
1
10
60.3725284959831
20
-4.94458740539073
30
0
41
1
10
60.7842660055082
20
-4.96069224983538
30
0
41
1
10
61.1964732243285
20
-4.9599560601294
30
0
0
SPLINE
5
F4
100
AcDbEntity
8
1
62
256
6
ByLayer
370
18
48
1
60
0
100
AcDbSpline
70
4
71
3
72
8
73
4
40
0
40
0
40
0
40
0
40
1
40
1
40
1
40
1
41
1
10
61.1964732243285
20
-4.9599560601294
30
0
41
1
10
61.1758861965727
20
-4.96095991918651
30
0
41
1
10
61.1618951010451
20
-4.94442065591409
30
0
41
1
10
61.1513348833846
20
-4.91054155911562
30
0
0
SPLINE
5
F5
100
AcDbEntity
8
1
62
256
6
ByLayer
370
18
48
1
60
0
100
AcDbSpline
70
4
71
3
72
73
73
69
40
0
40
0
40
0
40
0
40
0.0345948936316904
40
0.0345948936316904
40
0.0518923404475363
40
0.0605410638554586
40
0.0605410638554586
40
0.0691897872633809
40
0.0691897872633809
40
0.103784680895071
40
0.103784680895071
40
0.138379574526762
40
0.138379574526762
40
0.207569361790144
40
0.207569361790144
40
0.242164255421835
40
0.242164255421835
40
0.276759149053526
40
0.276759149053526
40
0.294056595869372
40
0.294056595869372
40
0.311354042685217
40
0.311354042685217
40
0.345948936316908
40
0.345948936316908
40
0.415138723580289
40
0.415138723580289
40
0.44973361721198
40
0.44973361721198
40
0.484328510843671
40
0.484328510843671
40
0.518923404475362
40
0.518923404475362
40
0.527572127883285
40
0.527572127883285
40
0.536220851291208
40
0.553518298107054
40
0.553518298107054
40
0.622708085370438
40
0.622708085370438
40
0.631356808778361
40
0.631356808778361
40
0.640005532186284
40
0.640005532186284
40
0.657302979002132
40
0.691897872633828
40
0.691897872633828
40
0.726492766265524
40
0.726492766265524
40
0.743790213081371
40
0.743790213081371
40
0.752438936489295
40
0.752438936489295
40
0.761087659897218
40
0.795682553528906
40
0.795682553528906
40
0.830277447160595
40
0.830277447160595
40
0.864872340792284
40
0.864872340792284
40
0.899467234423972
40
0.899467234423972
40
0.96865702168735
40
0.96865702168735
40
0.977305745095272
40
0.977305745095272
40
0.985954468503194
40
1
40
1
40
1
40
1
41
1
10
61.1513348833794
20
-4.91054155911581
30
0
41
1
10
60.8502442009798
20
-4.88601863517928
30
0
41
1
10
60.5493470021532
20
-4.85260618437667
30
0
41
1
10
60.0977598776927
20
-4.78941181827608
30
0
41
1
10
59.8719052040014
20
-4.7545452907527
30
0
41
1
10
59.6458628091546
20
-4.71481402049102
30
0
41
1
10
59.4951148396217
20
-4.6872495479453
30
0
41
1
10
59.4196820540926
20
-4.67292216571718
30
0
41
1
10
59.0430193962557
20
-4.59873702935167
30
0
41
1
10
58.7429514990361
20
-4.53117462600829
30
0
41
1
10
58.1444728457275
20
-4.38055666611757
30
0
41
1
10
57.8460638612564
20
-4.29750504365774
30
0
41
1
10
56.9523910872988
20
-4.02618640741255
30
0
41
1
10
56.358398023859
20
-3.8160025303699
30
0
41
1
10
55.4653928368936
20
-3.46209573493334
30
0
41
1
10
55.1673857215798
20
-3.33769543391691
30
0
41
1
10
54.5699944213182
20
-3.07681047187649
30
0
41
1
10
54.2706185937657
20
-2.94031178417177
30
0
41
1
10
53.8199154024393
20
-2.72717712184007
30
0
41
1
10
53.669355281151
20
-2.65471105947688
30
0
41
1
10
53.3677921307496
20
-2.50721414147145
30
0
41
1
10
53.2173352754437
20
-2.43245109363812
30
0
41
1
10
52.7667780769182
20
-2.20539703330323
30
0
41
1
10
52.4674878620488
20
-2.05034632562288
30
0
41
1
10
51.571623918029
20
-1.57630550981622
30
0
41
1
10
50.9770584978471
20
-1.24842503937975
30
0
41
1
10
50.0846293695142
20
-0.746863509384468
30
0
41
1
10
49.7870493598614
20
-0.578065715617925
30
0
41
1
10
49.1910597080259
20
-0.238328429181706
30
0
41
1
10
48.8926387994375
20
-0.0674075938044894
30
0
41
1
10
48.2940689956889
20
0.275006247408868
30
0
41
1
10
47.9938947605189
20
0.446452075263721
30
0
41
1
10
47.6170838338372
20
0.66021450166204
30
0
41
1
10
47.5416256177975
20
0.70294929957214
30
0
41
1
10
47.3908607586239
20
0.788162259729063
30
0
41
1
10
47.1648238549413
20
0.915661161788819
30
0
41
1
10
46.9390709871221
20
1.04211979019547
30
0
41
1
10
46.1869202626084
20
1.46087821836974
30
0
41
1
10
45.5862999550273
20
1.78694092933461
30
0
41
1
10
44.9083346722995
20
2.13782779722354
30
0
41
1
10
44.8329725818552
20
2.1765920736307
30
0
41
1
10
44.6821693698949
20
2.25365136174148
30
0
41
1
10
44.6067213808577
20
2.29194991425606
30
0
41
1
10
44.3805648091271
20
2.40594896552025
30
0
41
1
10
43.928681428725
20
2.63052420560058
30
0
41
1
10
43.4776448718415
20
2.84421379099047
30
0
41
1
10
42.8762578942693
20
3.11838847498214
30
0
41
1
10
42.575563691797
20
3.2501033297882
30
0
41
1
10
42.12384833958
20
3.43867737531602
30
0
41
1
10
41.9731618357645
20
3.50003316021426
30
0
41
1
10
41.7468926296072
20
3.58971941696174
30
0
41
1
10
41.6714500729322
20
3.61921537088088
30
0
41
1
10
41.5207947645437
20
3.67728941506675
30
0
41
1
10
41.1445366771292
20
3.82025499224815
30
0
41
1
10
40.7700535282317
20
3.95203534630949
30
0
41
1
10
40.1722791543052
20
4.14788149276902
30
0
41
1
10
39.8740849371909
20
4.23830098484117
30
0
41
1
10
39.2783754891273
20
4.40363156728523
30
0
41
1
10
38.9808603102127
20
4.47853902011204
30
0
41
1
10
38.3856819691602
20
4.61223289825512
30
0
41
1
10
38.0880154960104
20
4.67102043998869
30
0
41
1
10
37.1937258941733
20
4.8224361109713
30
0
41
1
10
36.5957671943169
20
4.89008345223846
30
0
41
1
10
35.9175034194535
20
4.92620599596299
30
0
41
1
10
35.8420139615017
20
4.92966573136786
30
0
41
1
10
35.6912464881757
20
4.93545270762488
30
0
41
1
10
35.4936460755505
20
4.94156524067085
30
0
41
1
10
35.2965414962407
20
4.94381324239697
30
0
41
1
10
35.1747146438075
20
4.9437364438138
30
0
0
SPLINE
5
F6
100
AcDbEntity
8
1
62
256
6
ByLayer
370
18
48
1
60
0
100
AcDbSpline
70
4
71
3
72
21
73
17
40
0
40
0
40
0
40
0
40
0.112913400433738
40
0.112913400433738
40
0.239640057514629
40
0.239640057514629
40
0.493093371676416
40
0.493093371676416
40
0.619820028757309
40
0.619820028757309
40
0.651501693027534
40
0.651501693027534
40
0.683183357297759
40
0.746546685838208
40
0.746546685838208
40
1
40
1
40
1
40
1
41
1
10
10.7245100013681
20
-4.68198481287104
30
0
41
1
10
10.4581358341892
20
-4.72917282461555
30
0
41
1
10
10.1922736671229
20
-4.76961491415517
30
0
41
1
10
9.62858314543416
20
-4.84099982997023
30
0
41
1
10
9.3308141172401
20
-4.87016757661124
30
0
41
1
10
8.43722893670966
20
-4.93161061859158
30
0
41
1
10
7.84118305750752
20
-4.93783945348792
30
0
41
1
10
6.94198321134076
20
-4.89404374301751
30
0
41
1
10
6.6414056778514
20
-4.8705902165942
30
0
41
1
10
6.26417227212528
20
-4.83006686449988
30
0
41
1
10
6.18862737512069
20
-4.82139878528423
30
0
41
1
10
6.03767847320572
20
-4.80297993954349
30
0
41
1
10
5.81136028613417
20
-4.7737172853862
30
0
41
1
10
5.58529025271065
20
-4.73959003947792
30
0
41
1
10
4.83198933374504
20
-4.61520027947
30
0
41
1
10
4.23014493666994
20
-4.48174536625348
30
0
41
1
10
3.62634559715053
20
-4.31600496875174
30
0
0
SPLINE
5
F7
100
AcDbEntity
8
1
62
256
6
ByLayer
370
18
48
1
60
0
100
AcDbSpline
70
4
71
3
72
19
73
15
40
0
40
0
40
0
40
0
40
0.249999999999957
40
0.249999999999957
40
0.374999999999964
40
0.374999999999964
40
0.499999999999971
40
0.624999999999978
40
0.624999999999978
40
0.749999999999986
40
0.749999999999986
40
0.874999999999993
40
0.874999999999993
40
1
40
1
40
1
40
1
41
1
10
3.6263455971505
20
-4.31600496875174
30
0
41
1
10
3.60737079449396
20
-4.31079646465281
30
0
41
1
10
3.59020290114057
20
-4.30449658058436
30
0
41
1
10
3.56708000533789
20
-4.29339025904761
30
0
41
1
10
3.55977159424333
20
-4.28937654761543
30
0
41
1
10
3.54642057095242
20
-4.28096215188066
30
0
41
1
10
3.53427573792217
20
-4.27214770364805
30
0
41
1
10
3.52449469862364
20
-4.26252739796035
30
0
41
1
10
3.51593169186498
20
-4.25248201870374
30
0
41
1
10
3.51229926532011
20
-4.24728069814202
30
0
41
1
10
3.50645095081757
20
-4.2367370468252
30
0
41
1
10
3.50420742374351
20
-4.23136357416772
30
0
41
1
10
3.50108089346037
20
-4.22040860817776
30
0
41
1
10
3.50019774413309
20
-4.21480690839175
30
0
41
1
10
3.50002969439382
20
-4.20914421037867
30
0
0
SPLINE
5
F8
100
AcDbEntity
8
1
62
256
6
ByLayer
370
18
48
1
60
0
100
AcDbSpline
70
4
71
3
72
8
73
4
40
0
40
0
40
0
40
0
40
1
40
1
40
1
40
1
41
1
10
3.50002969439393
20
-4.20914421037963
30
0
41
1
10
3.50001744738583
20
-4.20873152834528
30
0
41
1
10
3.50001132178636
20
-4.20831862368684
30
0
41
1
10
3.50001132381988
20
-4.20790556984034
30
0
0
SPLINE
5
F9
100
AcDbEntity
8
1
62
256
6
ByLayer
370
18
48
1
60
0
100
AcDbSpline
70
4
71
3
72
46
73
42
40
0
40
0
40
0
40
0
40
0.0312500000000002
40
0.0312500000000002
40
0.0468750000000001
40
0.0468750000000001
40
0.0625
40
0.125
40
0.187499999999999
40
0.249999999999999
40
0.249999999999999
40
0.265624999999999
40
0.265624999999999
40
0.281249999999999
40
0.312499999999999
40
0.312499999999999
40
0.374999999999999
40
0.437499999999999
40
0.437499999999999
40
0.468749999999999
40
0.484374999999999
40
0.484374999999999
40
0.499999999999999
40
0.499999999999999
40
0.562499999999999
40
0.562499999999999
40
0.624999999999999
40
0.687499999999999
40
0.687499999999999
40
0.703124999999999
40
0.703124999999999
40
0.718749999999999
40
0.718749999999999
40
0.749999999999999
40
0.749999999999999
40
0.8125
40
0.875
40
0.875
40
0.9375
40
0.9375
40
1
40
1
40
1
40
1
41
1
10
3.5000113238199
20
-4.2079055616307
30
0
41
1
10
3.50001149911086
20
-4.16761295399289
30
0
41
1
10
3.50001167363891
20
-4.12575996383001
30
0
41
1
10
3.50001193453363
20
-4.06063410807994
30
0
41
1
10
3.5000120213806
20
-4.03852534487629
30
0
41
1
10
3.50001219422992
20
-3.99367929145723
30
0
41
1
10
3.50001262460245
20
-3.87990223564094
30
0
41
1
10
3.50001338474573
20
-3.66035311629753
30
0
41
1
10
3.50001437856503
20
-3.33689225642271
30
0
41
1
10
3.50001503593316
20
-3.10071533973542
30
0
41
1
10
3.50001544780687
20
-2.94649832957944
30
0
41
1
10
3.50001553032541
20
-2.91528888059585
30
0
41
1
10
3.50001569509118
20
-2.8523689708739
30
0
41
1
10
3.50001594150049
20
-2.75736746209739
30
0
41
1
10
3.50001618601496
20
-2.66052241962558
30
0
41
1
10
3.50001667330591
20
-2.46441480108709
30
0
41
1
10
3.50001731843977
20
-2.19650164240647
30
0
41
1
10
3.50001796161888
20
-1.91588376620152
30
0
41
1
10
3.50001844537854
20
-1.70059323019453
30
0
41
1
10
3.50001868759284
20
-1.59173922595974
30
0
41
1
10
3.50001893061196
20
-1.48104175881204
30
0
41
1
10
3.50001909283023
20
-1.40682903665118
30
0
41
1
10
3.50001917393507
20
-1.36956389026525
30
0
41
1
10
3.50001957795195
20
-1.18316005987586
30
0
41
1
10
3.50001989785085
20
-1.03312297685196
30
0
41
1
10
3.50002053166651
20
-0.731273152811582
30
0
41
1
10
3.50002115949712
20
-0.427647338670369
30
0
41
1
10
3.50002177340627
20
-0.120479110867791
30
0
41
1
10
3.50002215097399
20
0.072634641496677
30
0
41
1
10
3.50002222617604
20
0.111314192747216
30
0
41
1
10
3.50002237589288
20
0.188788058957897
30
0
41
1
10
3.50002245050115
20
0.227631723248066
30
0
41
1
10
3.50002267217002
20
0.343804611404067
30
0
41
1
10
3.50002281724864
20
0.420860873559008
30
0
41
1
10
3.50002324364627
20
0.650875121035341
30
0
41
1
10
3.50002378872551
20
0.954487093237987
30
0
41
1
10
3.50002427613407
20
1.25206291959216
30
0
41
1
10
3.50002472720351
20
1.54659654746129
30
0
41
1
10
3.50002493460906
20
1.69236224110856
30
0
41
1
10
3.50002530305463
20
1.98066576824215
30
0
41
1
10
3.50002546120299
20
2.12098552758462
30
0
41
1
10
3.50002558956021
20
2.25759375163378
30
0
0
SPLINE
5
FA
100
AcDbEntity
8
1
62
256
6
ByLayer
370
18
48
1
60
0
100
AcDbSpline
70
4
71
3
72
98
73
94
40
0
40
0
40
0
40
0
40
0.0156249999999988
40
0.0156249999999988
40
0.0312499999999977
40
0.0312499999999977
40
0.0624999999999966
40
0.0624999999999966
40
0.0937499999999954
40
0.0937499999999954
40
0.109374999999994
40
0.109374999999994
40
0.124999999999993
40
0.124999999999993
40
0.15624999999999
40
0.15624999999999
40
0.171874999999989
40
0.171874999999989
40
0.179687499999988
40
0.179687499999988
40
0.187499999999988
40
0.187499999999988
40
0.218749999999988
40
0.218749999999988
40
0.226562499999988
40
0.226562499999988
40
0.234374999999988
40
0.234374999999988
40
0.249999999999988
40
0.249999999999988
40
0.281249999999987
40
0.281249999999987
40
0.285156249999987
40
0.285156249999987
40
0.289062499999987
40
0.296874999999987
40
0.312499999999986
40
0.312499999999986
40
0.343749999999986
40
0.343749999999986
40
0.351562499999986
40
0.351562499999986
40
0.359374999999986
40
0.374999999999986
40
0.374999999999986
40
0.406249999999987
40
0.406249999999987
40
0.437499999999988
40
0.437499999999988
40
0.453124999999989
40
0.453124999999989
40
0.46874999999999
40
0.46874999999999
40
0.499999999999991
40
0.499999999999991
40
0.531249999999992
40
0.531249999999992
40
0.562499999999993
40
0.562499999999993
40
0.570312499999993
40
0.572265624999992
40
0.572265624999992
40
0.573242187499992
40
0.573242187499992
40
0.574218749999992
40
0.574218749999992
40
0.576171874999992
40
0.576171874999992
40
0.578124999999992
40
0.578124999999992
40
0.580078124999992
40
0.580078124999992
40
0.582031249999992
40
0.582031249999992
40
0.583984374999992
40
0.583984374999992
40
0.585937499999991
40
0.593749999999991
40
0.624999999999991
40
0.624999999999991
40
0.656249999999991
40
0.656249999999991
40
0.687499999999991
40
0.687499999999991
40
0.749999999999993
40
0.749999999999993
40
0.812499999999995
40
0.812499999999995
40
0.874999999999997
40
0.874999999999997
40
0.937499999999998
40
0.937499999999998
40
1
40
1
40
1
40
1
41
1
10
3.5000255895481
20
2.25759375162008
30
0
41
1
10
3.44998000529253
20
2.29555080120878
30
0
41
1
10
3.40035038030743
20
2.33384505729731
30
0
41
1
10
3.30200103582689
20
2.41116785148287
30
0
41
1
10
3.25321564259204
20
2.45025121654811
30
0
41
1
10
3.10911874438278
20
2.56808710945421
30
0
41
1
10
3.01591270523167
20
2.64752514625752
30
0
41
1
10
2.83626495310483
20
2.80844886016368
30
0
41
1
10
2.74981455268988
20
2.88993190317098
30
0
41
1
10
2.62635240099382
20
3.01401338593385
30
0
41
1
10
2.58620319659263
20
3.05573049138337
30
0
41
1
10
2.50895495390353
20
3.13907248666317
30
0
41
1
10
2.47176620342304
20
3.18078396334931
30
0
41
1
10
2.36489928073459
20
3.30604722130073
30
0
41
1
10
2.29988001807089
20
3.38972602031754
30
0
41
1
10
2.2138410936289
20
3.51555441020608
30
0
41
1
10
2.18708524027056
20
3.5575492955445
30
0
41
1
10
2.15021643116927
20
3.62063166426728
30
0
41
1
10
2.13844553844081
20
3.64172604668335
30
0
41
1
10
2.11623890288854
20
3.68362141276754
30
0
41
1
10
2.10579612398777
20
3.70442862149486
30
0
41
1
10
2.05697106754622
20
3.8077457341094
30
0
41
1
10
2.02871269791055
20
3.88810558979716
30
0
41
1
10
2.00866190684769
20
3.98536119948233
30
0
41
1
10
2.00541817742047
20
4.00465216436947
30
0
41
1
10
2.00052027199737
20
4.04290363746756
30
0
41
1
10
1.99887021342084
20
4.06188744652721
30
0
41
1
10
1.9963975085949
20
4.11764969217347
30
0
41
1
10
1.99801192547682
20
4.15346578119897
30
0
41
1
10
2.01236566063204
20
4.25698103244142
30
0
41
1
10
2.03459583963394
20
4.32075428236061
30
0
41
1
10
2.0733107808469
20
4.38692701464285
30
0
41
1
10
2.07780711210984
20
4.39420695243135
30
0
41
1
10
2.08712659036192
20
4.40853422439599
30
0
41
1
10
2.10161205993148
20
4.42970529812382
30
0
41
1
10
2.13885781140513
20
4.47693150317414
30
0
41
1
10
2.17637741167061
20
4.51389825656329
30
0
41
1
10
2.25818584515457
20
4.5836187373788
30
0
41
1
10
2.32172050429824
20
4.62450133506738
30
0
41
1
10
2.410683137668
20
4.66978260003231
30
0
41
1
10
2.42891417705101
20
4.67852381131453
30
0
41
1
10
2.46604223248301
20
4.69534148508762
30
0
41
1
10
2.52280701193618
20
4.71960724885056
30
0
41
1
10
2.58258440497076
20
4.74118930220627
30
0
41
1
10
2.70571149813009
20
4.78120570134647
30
0
41
1
10
2.7925396768093
20
4.80370508499112
30
0
41
1
10
2.97395663036116
20
4.84202797233039
30
0
41
1
10
3.06855598314192
20
4.85784238585165
30
0
41
1
10
3.2153939123412
20
4.87742105323815
30
0
41
1
10
3.26513516409847
20
4.88324752447448
30
0
41
1
10
3.36566485121324
20
4.89358939232844
30
0
41
1
10
3.41651239112403
20
4.89811285606288
30
0
41
1
10
3.57065875595777
20
4.90992701689285
30
0
41
1
10
3.67555583539035
20
4.91546843199939
30
0
41
1
10
3.88901187803395
20
4.92266469566766
30
0
41
1
10
3.99760174385497
20
4.92431447987886
30
0
41
1
10
4.21740786138767
20
4.92432048932972
30
0
41
1
10
4.32871197775691
20
4.92267764162119
30
0
41
1
10
4.46923488756102
20
4.91887700737914
30
0
41
1
10
4.50445379911068
20
4.9178173373902
30
0
41
1
10
4.53977720632258
20
4.91662609844732
30
0
41
1
10
4.55038043271446
20
4.91626090745234
30
0
41
1
10
4.55390650625503
20
4.91613652409916
30
0
41
1
10
4.56115002348977
20
4.91590639128253
30
0
41
1
10
4.56490204949159
20
4.91580260459526
30
0
41
1
10
4.576316499146
20
4.91553059496692
30
0
41
1
10
4.58416551069797
20
4.91539932613236
30
0
41
1
10
4.60028632373223
20
4.9152312463346
30
0
41
1
10
4.60853925323102
20
4.91519219283452
30
0
41
1
10
4.62483386653724
20
4.91518640649517
30
0
41
1
10
4.63295322586617
20
4.91521670741392
30
0
41
1
10
4.64913195529584
20
4.91534769014484
30
0
41
1
10
4.65721789524491
20
4.91544888671919
30
0
41
1
10
4.67319118065049
20
4.91569294321025
30
0
41
1
10
4.68109233286663
20
4.915833264898
30
0
41
1
10
4.69693798125502
20
4.91610098655869
30
0
41
1
10
4.73654443010071
20
4.91676496655074
30
0
41
1
10
4.90271035776505
20
4.91943903997026
30
0
41
1
10
5.06027706154333
20
4.92150986497708
30
0
41
1
10
5.31136764917065
20
4.9240009482252
30
0
41
1
10
5.43642245109879
20
4.92483584509003
30
0
41
1
10
5.68558259199727
20
4.92546276961755
30
0
41
1
10
5.80975970108372
20
4.92525397909418
30
0
41
1
10
6.18036961152828
20
4.92272620855417
30
0
41
1
10
6.42475865192546
20
4.9185082529869
30
0
41
1
10
6.90859603530077
20
4.90328079770381
30
0
41
1
10
7.14805208798646
20
4.89226735165954
30
0
41
1
10
7.62268969162145
20
4.8618411681806
30
0
41
1
10
7.85787596070159
20
4.84242660714031
30
0
41
1
10
8.32476358981722
20
4.79382503177268
30
0
41
1
10
8.55645468854726
20
4.7646310546331
30
0
41
1
10
9.0172088226237
20
4.69537676638887
30
0
41
1
10
9.24627377344595
20
4.65531545247018
30
0
41
1
10
9.47450544472258
20
4.60945972668409
30
0
0
SPLINE
5
FB
100
AcDbEntity
8
1
62
256
6
ByLayer
370
18
48
1
60
0
100
AcDbSpline
70
4
71
3
72
36
73
32
40
0
40
0
40
0
40
0
40
0.125
40
0.125
40
0.250000000000001
40
0.250000000000001
40
0.375000000000001
40
0.375000000000001
40
0.437500000000002
40
0.437500000000002
40
0.468750000000001
40
0.468750000000001
40
0.484375000000001
40
0.484375000000001
40
0.500000000000001
40
0.500000000000001
40
0.625
40
0.625
40
0.75
40
0.75
40
0.812499999999999
40
0.812499999999999
40
0.874999999999999
40
0.874999999999999
40
0.937499999999999
40
0.937499999999999
40
0.953125
40
0.953125
40
0.96875
40
0.96875
40
1
40
1
40
1
40
1
41
1
10
9.47436135583013
20
4.60949037140051
30
0
41
1
10
9.99438756020425
20
4.50506977939091
30
0
41
1
10
10.5106715494369
20
4.37651602658701
30
0
41
1
10
11.5395533411824
20
4.07560511786591
30
0
41
1
10
12.0520970121448
20
3.90317017086315
30
0
41
1
10
13.0776710043896
20
3.51923918829033
30
0
41
1
10
13.5906111531046
20
3.30765875030858
30
0
41
1
10
14.3630711304917
20
2.96408164401441
30
0
41
1
10
14.621104163347
20
2.8452405528657
30
0
41
1
10
15.0093581240685
20
2.66096898331915
30
0
41
1
10
15.1389725441302
20
2.59853685483301
30
0
41
1
10
15.3337350707184
20
2.5034297317824
30
0
41
1
10
15.3987528600927
20
2.47146447192608
30
0
41
1
10
15.5286814847334
20
2.40717207806125
30
0
41
1
10
15.5935862135952
20
2.37484812926016
30
0
41
1
10
16.177227037799
20
2.08239348722941
30
0
41
1
10
16.6924039798438
20
1.81140770523308
30
0
41
1
10
17.7199380637543
20
1.2551022879845
30
0
41
1
10
18.2322165703
20
0.969653178029631
30
0
41
1
10
19.00118827789
20
0.53543049353425
30
0
41
1
10
19.2576164223439
20
0.389701741722433
30
0
41
1
10
19.7712615259427
20
0.0972953088997031
30
0
41
1
10
20.02844627066
20
-0.0494399187948886
30
0
41
1
10
20.544018485814
20
-0.343132642182212
30
0
41
1
10
20.8024117155504
20
-0.490079468631649
30
0
41
1
10
21.126457082995
20
-0.673371530773011
30
0
41
1
10
21.1913178353831
20
-0.710012277661065
30
0
41
1
10
21.3211551818326
20
-0.783236018493596
30
0
41
1
10
21.3861655985041
20
-0.819837934929978
30
0
41
1
10
21.5809455955063
20
-0.929279985531878
30
0
41
1
10
21.7105707795943
20
-1.00181006917674
30
0
41
1
10
21.8399999999895
20
-1.07385894660982
30
0
0
SPLINE
5
FC
100
AcDbEntity
8
1
62
256
6
ByLayer
370
18
48
1
60
0
100
AcDbSpline
70
4
71
3
72
35
73
31
40
0
40
0
40
0
40
0
40
0.0508543532194535
40
0.0508543532194535
40
0.0762815298291809
40
0.0762815298291809
40
0.101708706438908
40
0.101708706438908
40
0.203417412877823
40
0.203417412877823
40
0.406834825755655
40
0.406834825755655
40
0.457689178975115
40
0.457689178975115
40
0.483116355584847
40
0.483116355584847
40
0.508543532194578
40
0.508543532194578
40
0.610252238633505
40
0.610252238633505
40
0.711960945072433
40
0.711960945072433
40
0.813669651511361
40
0.813669651511361
40
0.915378357950289
40
0.915378357950289
40
0.940805534560021
40
0.940805534560021
40
0.966232711169754
40
1
40
1
40
1
40
1
41
1
10
21.8400000000001
20
-0.855187785254145
30
0
41
1
10
22.0463887768614
20
-0.970981843291355
30
0
41
1
10
22.2527168801746
20
-1.0860350174685
30
0
41
1
10
22.5623095464666
20
-1.25717303618475
30
0
41
1
10
22.665548986649
20
-1.3139922402768
30
0
41
1
10
22.8719876220342
20
-1.42703327402017
30
0
41
1
10
22.9750724448242
20
-1.48319256176299
30
0
41
1
10
23.4899106518503
20
-1.7620507283801
30
0
41
1
10
23.8999336508309
20
-1.97888812008074
30
0
41
1
10
25.1274527818914
20
-2.60618680744577
30
0
41
1
10
25.9422934947604
20
-2.99357774797832
30
0
41
1
10
26.966618083316
20
-3.42417792518552
30
0
41
1
10
27.1717644620672
20
-3.50762720348609
30
0
41
1
10
27.4800892334023
20
-3.62852090674133
30
0
41
1
10
27.5829651863313
20
-3.66810520323566
30
0
41
1
10
27.7889515427144
20
-3.74579836343778
30
0
41
1
10
27.8920919149514
20
-3.78391804357582
30
0
41
1
10
28.4081490343174
20
-3.97059000041617
30
0
41
1
10
28.818846840602
20
-4.10616244180102
30
0
41
1
10
29.6379980972928
20
-4.34834015205189
30
0
41
1
10
30.046444118612
20
-4.45494718296442
30
0
41
1
10
30.863200373082
20
-4.63775741067838
30
0
41
1
10
31.2715238226109
20
-4.71396432597126
30
0
41
1
10
32.0898434454231
20
-4.83478555943
30
0
41
1
10
32.4998386860496
20
-4.87939117140323
30
0
41
1
10
33.0146715601569
20
-4.91451974123157
30
0
41
1
10
33.1177705077641
20
-4.92051463610395
30
0
41
1
10
33.3241775036649
20
-4.93041675043901
30
0
41
1
10
33.5642584637013
20
-4.93949313282664
30
0
41
1
10
33.8040233071772
20
-4.94287955586347
30
0
41
1
10
33.9407286307415
20
-4.94296525548012
30
0
0
SPLINE
5
FD
100
AcDbEntity
8
1
62
256
6
ByLayer
370
18
48
1
60
0
100
AcDbSpline
70
4
71
3
72
20
73
16
40
0
40
0
40
0
40
0
40
0.265987669564431
40
0.265987669564431
40
0.449490752173324
40
0.449490752173324
40
0.632993834782216
40
0.632993834782216
40
0.724745376086662
40
0.724745376086662
40
0.770621146738885
40
0.770621146738885
40
0.816496917391108
40
0.816496917391108
40
1
40
1
40
1
40
1
41
1
10
54.50790067307
20
3.56560415711434
30
0
41
1
10
55.1024114251522
20
3.8019664899827
30
0
41
1
10
55.6930501192035
20
4.01165840824967
30
0
41
1
10
56.6896058019921
20
4.31655815345704
30
0
41
1
10
57.09602061882
20
4.42707408607771
30
0
41
1
10
57.9101357147397
20
4.6183577722118
30
0
41
1
10
58.3178295924568
20
4.69914292114564
30
0
41
1
10
58.9316924491253
20
4.79684224596156
30
0
41
1
10
59.1367033916991
20
4.8254924378293
30
0
41
1
10
59.4450006985658
20
4.86242620345041
30
0
41
1
10
59.5478967776507
20
4.87373047178485
30
0
41
1
10
59.7539839935636
20
4.8942967573372
30
0
41
1
10
59.8571574940951
20
4.90355527707732
30
0
41
1
10
60.3725284959831
20
4.94458740539073
30
0
41
1
10
60.7842660055081
20
4.96069224983538
30
0
41
1
10
61.1964732243284
20
4.9599560601294
30
0
0
SPLINE
5
FE
100
AcDbEntity
8
SK1
62
256
6
ByLayer
370
18
48
1
60
0
100
AcDbSpline
70
4
71
3
72
20
73
16
40
0
40
0
40
0
40
0
40
0.250000000000006
40
0.250000000000006
40
0.375000000000005
40
0.375000000000005
40
0.500000000000004
40
0.500000000000004
40
0.625000000000003
40
0.625000000000003
40
0.750000000000002
40
0.750000000000002
40
0.875000000000001
40
0.875000000000001
40
1
40
1
40
1
40
1
41
1
10
-39.35
20
4.24510873435398
30
0
41
1
10
-39.338205186486
20
4.25721232607532
30
0
41
1
10
-39.326788992333
20
4.26928532735857
30
0
41
1
10
-39.3102132143741
20
4.28733493946771
30
0
41
1
10
-39.304833241342
20
4.2932858646771
30
0
41
1
10
-39.2945637817252
20
4.30483421079816
30
0
41
1
10
-39.289643923718
20
4.31046445505629
30
0
41
1
10
-39.2802807943173
20
4.32139934354339
30
0
41
1
10
-39.2758194796066
20
4.32672530058937
30
0
41
1
10
-39.267562331863
20
4.33687759480461
30
0
41
1
10
-39.2638525857023
20
4.34159666431975
30
0
41
1
10
-39.2574621956925
20
4.35015057476198
30
0
41
1
10
-39.2547834319691
20
4.35399095061584
30
0
41
1
10
-39.2510694001166
20
4.36008954794968
30
0
41
1
10
-39.25
20
4.3624153453587
30
0
41
1
10
-39.25
20
4.36364482061231
30
0
0
SPLINE
5
FF
100
AcDbEntity
8
SK1
62
256
6
ByLayer
370
18
48
1
60
0
100
AcDbSpline
70
4
71
3
72
8
73
4
40
0
40
0
40
0
40
0
40
1
40
1
40
1
40
1
41
1
10
-40
20
3.57468634439346
30
0
41
1
10
-39.7840044034767
20
3.79881602913247
30
0
41
1
10
-39.5672334567615
20
4.02218829006426
30
0
41
1
10
-39.35
20
4.24510873435395
30
0
0
SPLINE
5
100
100
AcDbEntity
8
SK1
62
256
6
ByLayer
370
18
48
1
60
0
100
AcDbSpline
70
4
71
3
72
8
73
4
40
0
40
0
40
0
40
0
40
1
40
1
40
1
40
1
41
1
10
-39.35
20
-4.12437032868965
30
0
41
1
10
-39.5672423041032
20
-3.90144080544232
30
0
41
1
10
-39.7840148179671
20
-3.67806681678283
30
0
41
1
10
-40
20
-3.45394793872916
30
0
0
SPLINE
5
101
100
AcDbEntity
8
SK1
62
256
6
ByLayer
370
18
48
1
60
0
100
AcDbSpline
70
4
71
3
72
20
73
16
40
0
40
0
40
0
40
0
40
0.125
40
0.125
40
0.1875
40
0.1875
40
0.25
40
0.25
40
0.375
40
0.375
40
0.5
40
0.5
40
0.75
40
0.75
40
1
40
1
40
1
40
1
41
1
10
-39.25
20
-4.25498025551445
30
0
41
1
10
-39.25
20
-4.25274350803718
30
0
41
1
10
-39.2510680086886
20
-4.24943619787129
30
0
41
1
10
-39.2538495157728
20
-4.24350913599781
30
0
41
1
10
-39.2549703876943
20
-4.2413697258695
30
0
41
1
10
-39.2575552869368
20
-4.23680110272119
30
0
41
1
10
-39.2590298143252
20
-4.23435622133252
30
0
41
1
10
-39.2638240044233
20
-4.22678345791684
30
0
41
1
10
-39.267515960107
20
-4.22140028701193
30
0
41
1
10
-39.275680748839
20
-4.21011168601075
30
0
41
1
10
-39.2801886771091
20
-4.20416631060718
30
0
41
1
10
-39.2943187548888
20
-4.1861978805386
30
0
41
1
10
-39.3046720301746
20
-4.17384874375739
30
0
41
1
10
-39.3267894589619
20
-4.14879028173971
30
0
41
1
10
-39.3382086330433
20
-4.13647038362581
30
0
41
1
10
-39.35
20
-4.12437032868965
30
0
0
SPLINE
5
102
100
AcDbEntity
8
SK1
62
256
6
ByLayer
370
18
48
1
60
0
100
AcDbSpline
70
4
71
3
72
20
73
16
40
0
40
0
40
0
40
0
40
0.250000000000008
40
0.250000000000008
40
0.375000000000006
40
0.375000000000006
40
0.500000000000005
40
0.500000000000005
40
0.625000000000004
40
0.625000000000004
40
0.750000000000003
40
0.750000000000003
40
0.875000000000001
40
0.875000000000001
40
1
40
1
40
1
40
1
41
1
10
-39.35
20
-4.24510873435398
30
0
41
1
10
-39.338205186486
20
-4.25721232607532
30
0
41
1
10
-39.326788992333
20
-4.26928532735857
30
0
41
1
10
-39.3102132143741
20
-4.28733493946771
30
0
41
1
10
-39.304833241342
20
-4.2932858646771
30
0
41
1
10
-39.2945637817252
20
-4.30483421079816
30
0
41
1
10
-39.289643923718
20
-4.31046445505629
30
0
41
1
10
-39.2802807943173
20
-4.32139934354339
30
0
41
1
10
-39.2758194796066
20
-4.32672530058937
30
0
41
1
10
-39.267562331863
20
-4.33687759480461
30
0
41
1
10
-39.2638525857023
20
-4.34159666431975
30
0
41
1
10
-39.2574621956925
20
-4.35015057476198
30
0
41
1
10
-39.2547834319691
20
-4.35399095061584
30
0
41
1
10
-39.2510694001166
20
-4.36008954794968
30
0
41
1
10
-39.25
20
-4.3624153453587
30
0
41
1
10
-39.25
20
-4.36364482061231
30
0
0
SPLINE
5
103
100
AcDbEntity
8
SK1
62
256
6
ByLayer
370
18
48
1
60
0
100
AcDbSpline
70
4
71
3
72
8
73
4
40
0
40
0
40
0
40
0
40
1
40
1
40
1
40
1
41
1
10
-40
20
-3.57468634439346
30
0
41
1
10
-39.7840044034767
20
-3.79881602913247
30
0
41
1
10
-39.5672334567615
20
-4.02218829006426
30
0
41
1
10
-39.35
20
-4.24510873435395
30
0
0
SPLINE
5
104
100
AcDbEntity
8
1
62
256
6
ByLayer
370
18
48
1
60
0
100
AcDbSpline
70
4
71
3
72
16
73
12
40
0
40
0
40
0
40
0
40
0.0699776623488219
40
0.192349896371577
40
0.307030456078453
40
0.419868462523775
40
0.532533730707566
40
0.667568946055663
40
0.802553132390987
40
0.938337808275449
40
1
40
1
40
1
40
1
41
1
10
27.340088739692
20
3.55529617081521
30
0
41
1
10
27.5791244992339
20
3.64457847260698
30
0
41
1
10
28.2373941037291
20
3.87631106703208
30
0
41
1
10
29.2923100548339
20
4.19446490192007
30
0
41
1
10
30.5021359918666
20
4.48256633189251
30
0
41
1
10
31.6789749702199
20
4.67957342479673
30
0
41
1
10
32.9263698099424
20
4.79639354093354
30
0
41
1
10
34.2508105499057
20
4.81207376018224
30
0
41
1
10
35.6558941514336
20
4.69859420906121
30
0
41
1
10
36.8060910715332
20
4.51394740938906
30
0
41
1
10
37.4874807770929
20
4.3296745400952
30
0
41
1
10
37.7001606457774
20
4.26623727739621
30
0
0
SPLINE
5
105
100
AcDbEntity
8
1
62
256
6
ByLayer
370
18
48
1
60
0
100
AcDbSpline
70
4
71
3
72
13
73
9
40
0
40
0
40
0
40
0
40
0.0743164975971866
40
0.234435782533846
40
0.41124407951598
40
0.604520117846666
40
0.814191743615435
40
1
40
1
40
1
40
1
41
1
10
54.5260739567059
20
3.55264420019731
30
0
41
1
10
54.6921108469881
20
3.61564249312238
30
0
41
1
10
55.2163182373032
20
3.80791854645185
30
0
41
1
10
56.1382437786257
20
4.10605399287823
30
0
41
1
10
57.3298657021535
20
4.41614991108298
30
0
41
1
10
58.6356014763216
20
4.65634171367776
30
0
41
1
10
59.9637231316769
20
4.79349595649188
30
0
41
1
10
60.8570691640468
20
4.79948823070472
30
0
41
1
10
61.2770722690118
20
4.78449417551727
30
0
0
SPLINE
5
106
100
AcDbEntity
8
1
62
256
6
ByLayer
370
18
48
1
60
0
100
AcDbSpline
70
4
71
3
72
8
73
4
40
0
40
0
40
0
40
0
40
1
40
1
40
1
40
1
41
1
10
35.5816450755755
20
-4.68843963244021
30
0
41
1
10
35.5560046602804
20
-4.69148575651133
30
0
41
1
10
35.5303643663158
20
-4.69446951322846
30
0
41
1
10
35.5047242025855
20
-4.69739068548407
30
0
0
SPLINE
5
107
100
AcDbEntity
8
1
62
256
6
ByLayer
370
18
48
1
60
0
100
AcDbSpline
70
4
71
3
72
9
73
5
40
0
40
0
40
0
40
0
40
0.36070629136307
40
1
40
1
40
1
40
1
41
1
10
53.4380444282245
20
-3.1101990031523
30
0
41
1
10
53.3655044830305
20
-3.07852815593554
30
0
41
1
10
53.1645805020945
20
-2.98939545589036
30
0
41
1
10
52.9642622256573
20
-2.89625243198571
30
0
41
1
10
52.836381224823
20
-2.8352750070174
30
0
0
SPLINE
5
108
100
AcDbEntity
8
1
62
256
6
ByLayer
370
18
48
1
60
0
100
AcDbSpline
70
4
71
1
72
4
73
2
40
0
40
0
40
1
40
1
41
1
10
52.836381224823
20
-2.8352750070174
30
0
41
1
10
52.4936738397052
20
-2.67613700618281
30
0
0
SPLINE
5
109
100
AcDbEntity
8
1
62
256
6
ByLayer
370
18
48
1
60
0
100
AcDbSpline
70
4
71
3
72
36
73
32
40
0
40
0
40
0
40
0
40
1.79923519985E-05
40
4.17180430817E-05
40
5.07097608016E-05
40
5.8425552047E-05
40
0.0001537656485385
40
0.0005774740802106
40
0.0009364078083356
40
0.0016256439315176
40
0.0030120480907273
40
0.0059905375645545
40
0.0216863202321966
40
0.0866397552531424
40
0.160746689441904
40
0.223249490684178
40
0.278691651241121
40
0.331820011675475
40
0.382700465286396
40
0.432950546029256
40
0.483239056720872
40
0.551090684448945
40
0.62246434850268
40
0.69468487574921
40
0.718800744993075
40
0.740978370615872
40
0.761550760019276
40
0.78980658850337
40
0.845995930794776
40
0.923359960149595
40
1
40
1
40
1
40
1
41
1
10
36.9169493094458
20
0.169351766442304
30
0
41
1
10
36.9169713975477
20
0.169346068751196
30
0
41
1
10
36.9170185861993
20
0.169333953810451
30
0
41
1
10
36.9170611269479
20
0.169323167179954
30
0
41
1
10
36.9170426443747
20
0.169329812792711
30
0
41
1
10
36.9168789709387
20
0.169377843845581
30
0
41
1
10
36.9157350307986
20
0.169705743500913
30
0
41
1
10
36.9133293397497
20
0.170386407732877
30
0
41
1
10
36.9097222188616
20
0.171409485481263
30
0
41
1
10
36.9034919878711
20
0.173168005214961
30
0
41
1
10
36.8904766969625
20
0.176825518085536
30
0
41
1
10
36.8376077265735
20
0.191595771011407
30
0
41
1
10
36.6102760570239
20
0.254692256412824
30
0
41
1
10
36.185011890424
20
0.374953943587997
30
0
41
1
10
35.6332338278057
20
0.536699414685415
30
0
41
1
10
35.1087131943347
20
0.695655252983727
30
0
41
1
10
34.6426561323745
20
0.840899885675867
30
0
41
1
10
34.2092073175324
20
0.979398192959536
30
0
41
1
10
33.7908082893883
20
1.11623878293017
30
0
41
1
10
33.3809586933868
20
1.25327617998747
30
0
41
1
10
32.9261068216753
20
1.40865471712544
30
0
41
1
10
32.4154467779522
20
1.58743389513296
30
0
41
1
10
31.8474205981398
20
1.79195831438551
30
0
41
1
10
31.3983159788903
20
1.95825957757867
30
0
41
1
10
31.0816440136696
20
2.07768520147184
30
0
41
1
10
30.9031677176217
20
2.14557889868419
30
0
41
1
10
30.7138236117564
20
2.21818079878648
30
0
41
1
10
30.4341529748944
20
2.32637707560508
30
0
41
1
10
30.0041444228121
20
2.49535291220462
30
0
41
1
10
29.4472200814912
20
2.71911980200682
30
0
41
1
10
29.0409966270494
20
2.88757648841798
30
0
41
1
10
28.8392567337681
20
2.97245024195851
30
0
0
SPLINE
5
10A
100
AcDbEntity
8
1
62
256
6
ByLayer
370
18
48
1
60
0
100
AcDbSpline
70
4
71
3
72
16
73
12
40
0
40
0
40
0
40
0
40
0.125937922971634
40
0.279709050722794
40
0.365013421860033
40
0.4332240053805
40
0.503258090142197
40
0.587342074561247
40
0.701973029554206
40
0.848181575685048
40
1
40
1
40
1
40
1
41
1
10
61.2809250361248
20
1.02143441720077
30
0
41
1
10
61.0561202670376
20
1.09437544951314
30
0
41
1
10
60.5578476992025
20
1.25910116136069
30
0
41
1
10
59.9106587826881
20
1.48223191314565
30
0
41
1
10
59.3678382149873
20
1.67539335664398
30
0
41
1
10
58.9735803700607
20
1.81857767719916
30
0
41
1
10
58.5822538531956
20
1.9632544495858
30
0
41
1
10
58.1103202860886
20
2.14115616246445
30
0
41
1
10
57.5063763932624
20
2.37452494497381
30
0
41
1
10
56.7866377903546
20
2.66112494514854
30
0
41
1
10
56.2696039377903
20
2.8749723176926
30
0
41
1
10
56.0069009062449
20
2.98562489854319
30
0
0
SPLINE
5
10B
100
AcDbEntity
8
1
62
256
6
ByLayer
370
18
48
1
60
0
100
AcDbSpline
70
4
71
3
72
30
73
26
40
0
40
0
40
0
40
0
40
0.0404769529119419
40
0.0748988048920868
40
0.123237076496088
40
0.175448554737441
40
0.229531412358385
40
0.274846949597552
40
0.313759783400768
40
0.362887011104696
40
0.413019898154696
40
0.460821913086156
40
0.513333422647587
40
0.563014743069684
40
0.610495206229923
40
0.662887568204963
40
0.719984017764163
40
0.779180627423636
40
0.816466025233508
40
0.848100081477467
40
0.883331013105914
40
0.908396730210127
40
0.944519460503568
40
0.993775669587789
40
1
40
1
40
1
40
1
41
1
10
35.2970001982546
20
-4.69593214340256
30
0
41
1
10
35.4629687815566
20
-4.69546937584892
30
0
41
1
10
35.7748249311413
20
-4.69427647230799
30
0
41
1
10
36.303155482418
20
-4.68823099424608
30
0
41
1
10
36.8972924501545
20
-4.68842179046086
30
0
41
1
10
37.5708588568946
20
-4.69322116631119
30
0
41
1
10
38.21839976279
20
-4.69755266519741
30
0
41
1
10
38.8202719573634
20
-4.69837723827973
30
0
41
1
10
39.4041912678706
20
-4.69846036540434
30
0
41
1
10
40.008360873094
20
-4.69827183746492
30
0
41
1
10
40.6516764044524
20
-4.69971887546507
30
0
41
1
10
41.3097083779013
20
-4.69919021591281
30
0
41
1
10
41.9658467940304
20
-4.6998758458891
30
0
41
1
10
42.6203213398976
20
-4.70101447522822
30
0
41
1
10
43.2747301606572
20
-4.69962756551956
30
0
41
1
10
43.9587688812431
20
-4.7011289242017
30
0
41
1
10
44.6976924764444
20
-4.70099364608632
30
0
41
1
10
45.3681037988102
20
-4.70127794167902
30
0
41
1
10
45.9282779508439
20
-4.70313742965473
30
0
41
1
10
46.3838227283377
20
-4.70271607196659
30
0
41
1
10
46.7859449085971
20
-4.70223683752127
30
0
41
1
10
47.2075370227799
20
-4.70238414787448
30
0
41
1
10
47.6906912170583
20
-4.70349221321115
30
0
41
1
10
48.0913167941646
20
-4.70240031219862
30
0
41
1
10
48.3339915517906
20
-4.70292028498912
30
0
41
1
10
48.3612170617416
20
-4.70298181168985
30
0
0
SPLINE
5
10C
100
AcDbEntity
8
1
62
256
6
ByLayer
370
18
48
1
60
0
100
AcDbSpline
70
4
71
3
72
29
73
25
40
0
40
0
40
0
40
0
40
0.0090272886168032
40
0.0562158792258002
40
0.116202624974299
40
0.177039641333195
40
0.23385285132947
40
0.2842956465722
40
0.328694890599226
40
0.367854640037088
40
0.402082225311146
40
0.445479824472974
40
0.496026361642555
40
0.535767491928985
40
0.567451756935163
40
0.611557819368008
40
0.666207771728899
40
0.719535328026194
40
0.769168170413453
40
0.815955900054881
40
0.86226493250968
40
0.931348115300759
40
0.99295410462567
40
1
40
1
40
1
40
1
41
1
10
21.4885294435068
20
4.68554725878667
30
0
41
1
10
21.4586472071463
20
4.68532793326077
30
0
41
1
10
21.2713012971603
20
4.68383377353126
30
0
41
1
10
20.8590378975969
20
4.6747925378541
30
0
41
1
10
20.2471487735188
20
4.67128839110001
30
0
41
1
10
19.6192688103473
20
4.68334095160918
30
0
41
1
10
19.0271860157305
20
4.68588727679105
30
0
41
1
10
18.4847177462542
20
4.68638351858752
30
0
41
1
10
18.0013848173936
20
4.68694222606109
30
0
41
1
10
17.5761658083903
20
4.6869613774945
30
0
41
1
10
17.1544765114655
20
4.68565034466462
30
0
41
1
10
16.6916925961886
20
4.68534938930415
30
0
41
1
10
16.2089736720108
20
4.68517430790536
30
0
41
1
10
15.768632139435
20
4.68448390310263
30
0
41
1
10
15.3512757805004
20
4.68403083156693
30
0
41
1
10
14.881650306747
20
4.68398481926923
30
0
41
1
10
14.3377099200158
20
4.68239110139228
30
0
41
1
10
13.7686922677611
20
4.68040103623756
30
0
41
1
10
13.2270660905864
20
4.68107571789582
30
0
41
1
10
12.7180115211336
20
4.68266446181175
30
0
41
1
10
12.1342068864438
20
4.68201858813035
30
0
41
1
10
11.4946236337133
20
4.68161047735106
30
0
41
1
10
10.9974408485803
20
4.68139130152218
30
0
41
1
10
10.7495362620205
20
4.68116706212484
30
0
41
1
10
10.7240933492579
20
4.68114313345163
30
0
0
SPLINE
5
10D
100
AcDbEntity
8
1
62
256
6
ByLayer
370
18
48
1
60
0
100
AcDbSpline
70
4
71
3
72
34
73
30
40
0
40
0
40
0
40
0
40
0.0518968817479283
40
0.0977168355836642
40
0.131580592294006
40
0.172307404201819
40
0.201765416558878
40
0.229243621128208
40
0.259215265177435
40
0.290741121826773
40
0.322227943411577
40
0.353738160124155
40
0.389259627943498
40
0.427079981681472
40
0.467527460152886
40
0.507965143028319
40
0.540615281399065
40
0.574770440835482
40
0.622643677425077
40
0.671238168508949
40
0.707686958200401
40
0.747979861778315
40
0.786683211416673
40
0.830632518234389
40
0.879887196750626
40
0.917285477026987
40
0.954498165771823
40
0.992693199931608
40
1
40
1
40
1
40
1
41
1
10
8.17553314466454
20
-4.67909508683741
30
0
41
1
10
8.40696820475623
20
-4.67931755601404
30
0
41
1
10
8.84277501295429
20
-4.67969441282617
30
0
41
1
10
9.42961882229582
20
-4.68005305063363
30
0
41
1
10
9.96684997525978
20
-4.68036896019129
30
0
41
1
10
10.4302837925196
20
-4.68083769406488
30
0
41
1
10
10.8660773584974
20
-4.68129874925998
30
0
41
1
10
11.2537355170753
20
-4.6815480345164
30
0
41
1
10
11.650642704407
20
-4.68167235644921
30
0
41
1
10
12.0654971606256
20
-4.68196769270813
30
0
41
1
10
12.4866021654443
20
-4.68245180057468
30
0
41
1
10
12.9224724648552
20
-4.68223670135288
30
0
41
1
10
13.3865353080254
20
-4.68062873863815
30
0
41
1
10
13.8952693016702
20
-4.68072688995483
30
0
41
1
10
14.4238601400289
20
-4.68275603532743
30
0
41
1
10
14.9255911756265
20
-4.68397410821737
30
0
41
1
10
15.4027836327285
20
-4.68404591998717
30
0
41
1
10
15.9146708515694
20
-4.68471133035143
30
0
41
1
10
16.4972450732896
20
-4.68542559657067
30
0
41
1
10
17.0902233163908
20
-4.6854053197159
30
0
41
1
10
17.6492827181401
20
-4.68720059352756
30
0
41
1
10
18.1644438211917
20
-4.68678931735377
30
0
41
1
10
18.7105440491386
20
-4.68596521391251
30
0
41
1
10
19.2914229496533
20
-4.68615191697123
30
0
41
1
10
19.8530504933777
20
-4.67790389998146
30
0
41
1
10
20.4050024620039
20
-4.67185674928544
30
0
41
1
10
20.9081422444858
20
-4.67590625184428
30
0
41
1
10
21.2713319042029
20
-4.68383258728915
30
0
41
1
10
21.4586472071464
20
-4.68532793326074
30
0
41
1
10
21.4885294435068
20
-4.68554725878667
30
0
0
SPLINE
5
10E
100
AcDbEntity
8
1
62
256
6
ByLayer
370
18
48
1
60
0
100
AcDbSpline
70
4
71
3
72
28
73
24
40
0
40
0
40
0
40
0
40
0.0096036435115344
40
0.063996304385289
40
0.109641068079872
40
0.146525994081153
40
0.176637388476929
40
0.243973046792687
40
0.313219637626044
40
0.360111328779813
40
0.407769810512969
40
0.460049694253591
40
0.517822454637913
40
0.576980869285955
40
0.628765842590742
40
0.669964931878617
40
0.713298120245745
40
0.769420683170678
40
0.8187705204634
40
0.857410268611052
40
0.900444402644362
40
0.949835308973894
40
1
40
1
40
1
40
1
41
1
10
48.5112585051889
20
4.70219901788664
30
0
41
1
10
48.4773199187941
20
4.70204544130709
30
0
41
1
10
48.2510862785252
20
4.70113668450668
30
0
41
1
10
47.8536142205601
20
4.70216431524327
30
0
41
1
10
47.376280208202
20
4.70307242811637
30
0
41
1
10
46.9738044063672
20
4.70200824934639
30
0
41
1
10
46.4938176054312
20
4.702592710273
30
0
41
1
10
45.8991158802934
20
4.70326902176723
30
0
41
1
10
45.2386555518173
20
4.70150252191718
30
0
41
1
10
44.6793214157503
20
4.69721620171819
30
0
41
1
10
44.1557640067162
20
4.69242667422569
30
0
41
1
10
43.5908199451205
20
4.69551455658538
30
0
41
1
10
43.0110019692013
20
4.70071964436715
30
0
41
1
10
42.4062477550478
20
4.70091166292877
30
0
41
1
10
41.8627536629975
20
4.69952982475911
30
0
41
1
10
41.3753677806761
20
4.69926840674518
30
0
41
1
10
40.8725769560972
20
4.69960611574305
30
0
41
1
10
40.3406188868863
20
4.69914279176311
30
0
41
1
10
39.8254533410054
20
4.69824788893322
30
0
41
1
10
39.3572197083762
20
4.69841310319424
30
0
41
1
10
38.888587974167
20
4.69846200300236
30
0
41
1
10
38.3815979336157
20
4.69753916387688
30
0
41
1
10
38.0318005648406
20
4.6964420636732
30
0
41
1
10
37.8592188851732
20
4.69432886159748
30
0
0
SPLINE
5
10F
100
AcDbEntity
8
1
62
256
6
ByLayer
370
18
48
1
60
0
100
AcDbSpline
70
4
71
1
72
4
73
2
40
0
40
0
40
1
40
1
41
1
10
48.7751622479568
20
-0.0002244546796533
30
0
41
1
10
48.7751494026552
20
-0.0002178032451354
30
0
0
LINE
5
82
100
AcDbEntity
8
80
62
256
6
ByLayer
370
18
48
1
60
0
100
AcDbLine
10
0
20
0
30
0
11
-3
21
0
31
0
39
0
210
0
220
0
230
1
0
LINE
5
83
100
AcDbEntity
8
81
62
256
6
ByLayer
370
18
48
1
60
0
100
AcDbLine
10
63
20
0
30
0
11
66
21
0
31
0
39
0
210
0
220
0
230
1
0
LINE
5
84
100
AcDbEntity
8
SK4
62
256
6
ByLayer
370
18
48
0.05
60
0
100
AcDbLine
10
-43
20
0
30
0
11
66
21
0
31
0
39
0
210
0
220
0
230
1
0
LINE
5
86
100
AcDbEntity
8
4
62
256
6
ByLayer
370
18
48
0.05
60
0
100
AcDbLine
10
0
20
0
30
0
11
63
21
0
31
0
39
0
210
0
220
0
230
1
0
LINE
5
88
100
AcDbEntity
8
1
62
256
6
ByLayer
370
13
48
1
60
0
100
AcDbLine
10
62.930832
20
0.05971
30
0
11
61.732197
21
1.382796
31
0
39
0
210
0
220
0
230
1
0
LINE
5
89
100
AcDbEntity
8
1
62
256
6
ByLayer
370
13
48
1
60
0
100
AcDbLine
10
0.122923
20
4.958082
30
0
11
0.122923
21
-4.958082
31
0
39
0
210
0
220
0
230
1
0
LINE
5
8A
100
AcDbEntity
8
1
62
256
6
ByLayer
370
13
48
1
60
0
100
AcDbLine
10
0.114732
20
4.963819
30
0
11
0.114732
21
-4.963819
31
0
39
0
210
0
220
0
230
1
0
LINE
5
8B
100
AcDbEntity
8
1
62
256
6
ByLayer
370
18
48
1
60
0
100
AcDbLine
10
0
20
5
30
0
11
0
21
-5
31
0
39
0
210
0
220
0
230
1
0
LINE
5
8C
100
AcDbEntity
8
1
62
256
6
ByLayer
370
18
48
1
60
0
100
AcDbLine
10
21.84
20
-0.855188
30
0
11
21.84
21
-1.073859
31
0
39
0
210
0
220
0
230
1
0
LINE
5
8D
100
AcDbEntity
8
1
62
256
6
ByLayer
370
13
48
1
60
0
100
AcDbLine
10
0.23778
20
4.921901
30
0
11
0.23778
21
-4.921901
31
0
39
0
210
0
220
0
230
1
0
LINE
5
8E
100
AcDbEntity
8
SK1
62
256
6
ByLayer
370
18
48
1
60
0
100
AcDbLine
10
-40
20
-3.453882
30
0
11
-40
21
-3.574686
31
0
39
0
210
0
220
0
230
1
0
LINE
5
90
100
AcDbEntity
8
SK1
62
256
6
ByLayer
370
13
48
1
60
0
100
AcDbLine
10
-39.35
20
-4.245109
30
0
11
-39.35
21
-4.124274
31
0
39
0
210
0
220
0
230
1
0
LINE
5
91
100
AcDbEntity
8
SK1
62
256
6
ByLayer
370
18
48
1
60
0
100
AcDbLine
10
0
20
5
30
0
11
0
21
-5
31
0
39
0
210
0
220
0
230
1
0
LINE
5
92
100
AcDbEntity
8
SK1
62
256
6
ByLayer
370
18
48
1
60
0
100
AcDbLine
10
-39.25
20
4.41
30
0
11
-39.25
21
4.363645
31
0
39
0
210
0
220
0
230
1
0
LINE
5
93
100
AcDbEntity
8
SK1
62
256
6
ByLayer
370
18
48
1
60
0
100
AcDbLine
10
-40
20
3.574686
30
0
11
-40
21
-3.453948
31
0
39
0
210
0
220
0
230
1
0
LINE
5
94
100
AcDbEntity
8
SK1
62
256
6
ByLayer
370
18
48
1
60
0
100
AcDbLine
10
-39.25
20
-4.41
30
0
11
-39.25
21
-4.25498
31
0
39
0
210
0
220
0
230
1
0
LINE
5
95
100
AcDbEntity
8
SK1
62
256
6
ByLayer
370
18
48
1
60
0
100
AcDbLine
10
-38.66
20
-5
30
0
11
-38.66
21
5
31
0
39
0
210
0
220
0
230
1
0
LINE
5
96
100
AcDbEntity
8
1
62
256
6
ByLayer
370
18
48
1
60
0
100
AcDbLine
10
0.122923
20
4.958082
30
0
11
0.114732
21
4.963819
31
0
39
0
210
0
220
0
230
1
0
LINE
5
97
100
AcDbEntity
8
1
62
256
6
ByLayer
370
18
48
1
60
0
100
AcDbLine
10
0.114732
20
-4.963819
30
0
11
0.122923
21
-4.958082
31
0
39
0
210
0
220
0
230
1
0
LINE
5
98
100
AcDbEntity
8
1
62
256
6
ByLayer
370
18
48
1
60
0
100
AcDbLine
10
0.23778
20
-4.921901
30
0
11
4.104031
21
-4.924317
31
0
39
0
210
0
220
0
230
1
0
LINE
5
99
100
AcDbEntity
8
1
62
256
6
ByLayer
370
18
48
1
60
0
100
AcDbLine
10
5.62895
20
-4.92527
30
0
11
7.974355
21
-4.926736
31
0
39
0
210
0
220
0
230
1
0
LINE
5
9A
100
AcDbEntity
8
1
62
256
6
ByLayer
370
18
48
1
60
0
100
AcDbLine
10
33.940695
20
-4.942965
30
0
11
35.174706
21
-4.943736
31
0
39
0
210
0
220
0
230
1
0
LINE
5
9B
100
AcDbEntity
8
1
62
256
6
ByLayer
370
18
48
1
60
0
100
AcDbLine
10
35.174706
20
4.943736
30
0
11
33.940695
21
4.942965
31
0
39
0
210
0
220
0
230
1
0
LINE
5
9C
100
AcDbEntity
8
1
62
256
6
ByLayer
370
18
48
1
60
0
100
AcDbLine
10
7.974355
20
4.926736
30
0
11
5.62895
21
4.92527
31
0
39
0
210
0
220
0
230
1
0
LINE
5
9D
100
AcDbEntity
8
1
62
256
6
ByLayer
370
18
48
1
60
0
100
AcDbLine
10
4.104031
20
4.924317
30
0
11
0.23778
21
4.921901
31
0
39
0
210
0
220
0
230
1
0
LINE
5
9E
100
AcDbEntity
8
SK1
62
256
6
ByLayer
370
18
48
1
60
0
100
AcDbLine
10
-38.66
20
-5
30
0
11
0
21
-5
31
0
39
0
210
0
220
0
230
1
0
LINE
5
9F
100
AcDbEntity
8
SK1
62
256
6
ByLayer
370
18
48
1
60
0
100
AcDbLine
10
0
20
5
30
0
11
-38.66
21
5
31
0
39
0
210
0
220
0
230
1
0
LINE
5
A0
100
AcDbEntity
8
SK1
62
256
6
ByLayer
370
18
48
1
60
0
100
AcDbLine
10
-39.25
20
-4.41
30
0
11
-38.66
21
-5
31
0
39
0
210
0
220
0
230
1
0
LINE
5
A1
100
AcDbEntity
8
SK1
62
256
6
ByLayer
370
18
48
1
60
0
100
AcDbLine
10
-38.66
20
5
30
0
11
-39.25
21
4.41
31
0
39
0
210
0
220
0
230
1
0
LINE
5
A2
100
AcDbEntity
8
2
62
256
6
ByLayer
370
13
48
1
60
0
100
AcDbLine
10
76.75
20
-4.96
30
0
11
76.75
21
23.924398
31
0
39
0
210
0
220
0
230
1
0
LINE
5
A4
100
AcDbEntity
8
2
62
256
6
ByLayer
370
13
48
1
60
0
100
AcDbLine
10
64.5875
20
4.96
30
0
11
78.75
21
4.96
31
0
39
0
210
0
220
0
230
1
0
LINE
5
A5
100
AcDbEntity
8
2
62
256
6
ByLayer
370
13
48
1
60
0
100
AcDbLine
10
64.5875
20
-4.96
30
0
11
78.75
21
-4.96
31
0
39
0
210
0
220
0
230
1
0
LINE
5
A6
100
AcDbEntity
8
1
62
256
6
ByLayer
370
18
48
1
60
1
100
AcDbLine
10
76.75
20
4.96
30
0
11
77.210784
21
1.460002
31
0
39
0
210
0
220
0
230
1
0
LINE
5
A7
100
AcDbEntity
8
1
62
256
6
ByLayer
370
18
48
1
60
1
100
AcDbLine
10
77.210784
20
1.460002
30
0
11
76.289216
21
1.459998
31
0
39
0
210
0
220
0
230
1
0
LINE
5
A8
100
AcDbEntity
8
1
62
256
6
ByLayer
370
18
48
1
60
1
100
AcDbLine
10
76.289216
20
1.459998
30
0
11
76.75
21
4.96
31
0
39
0
210
0
220
0
230
1
0
LINE
5
A9
100
AcDbEntity
8
1
62
256
6
ByLayer
370
18
48
1
60
1
100
AcDbLine
10
76.75
20
-4.96
30
0
11
76.289216
21
-1.460002
31
0
39
0
210
0
220
0
230
1
0
LINE
5
AA
100
AcDbEntity
8
1
62
256
6
ByLayer
370
18
48
1
60
1
100
AcDbLine
10
76.289216
20
-1.460002
30
0
11
77.210784
21
-1.459998
31
0
39
0
210
0
220
0
230
1
0
LINE
5
AB
100
AcDbEntity
8
1
62
256
6
ByLayer
370
18
48
1
60
1
100
AcDbLine
10
77.210784
20
-1.459998
30
0
11
76.75
21
-4.96
31
0
39
0
210
0
220
0
230
1
0
LINE
5
AC
100
AcDbEntity
8
SK2
62
256
6
ByLayer
370
13
48
1
60
0
100
AcDbLine
10
-48.25
20
-5
30
0
11
-48.25
21
22.056066
31
0
39
0
210
0
220
0
230
1
0
LINE
5
AE
100
AcDbEntity
8
SK2
62
256
6
ByLayer
370
13
48
1
60
0
100
AcDbLine
10
-41.5875
20
5
30
0
11
-50.25
21
5
31
0
39
0
210
0
220
0
230
1
0
LINE
5
AF
100
AcDbEntity
8
SK2
62
256
6
ByLayer
370
13
48
1
60
0
100
AcDbLine
10
-41.5875
20
-5
30
0
11
-50.25
21
-5
31
0
39
0
210
0
220
0
230
1
0
LINE
5
B0
100
AcDbEntity
8
1
62
256
6
ByLayer
370
18
48
1
60
1
100
AcDbLine
10
-48.25
20
5
30
0
11
-47.789216
21
1.500002
31
0
39
0
210
0
220
0
230
1
0
LINE
5
B1
100
AcDbEntity
8
1
62
256
6
ByLayer
370
18
48
1
60
1
100
AcDbLine
10
-47.789216
20
1.500002
30
0
11
-48.710784
21
1.499998
31
0
39
0
210
0
220
0
230
1
0
LINE
5
B2
100
AcDbEntity
8
1
62
256
6
ByLayer
370
18
48
1
60
1
100
AcDbLine
10
-48.710784
20
1.499998
30
0
11
-48.25
21
5
31
0
39
0
210
0
220
0
230
1
0
LINE
5
B3
100
AcDbEntity
8
1
62
256
6
ByLayer
370
18
48
1
60
1
100
AcDbLine
10
-48.25
20
-5
30
0
11
-48.710784
21
-1.500002
31
0
39
0
210
0
220
0
230
1
0
LINE
5
B4
100
AcDbEntity
8
1
62
256
6
ByLayer
370
18
48
1
60
1
100
AcDbLine
10
-48.710784
20
-1.500002
30
0
11
-47.789216
21
-1.499998
31
0
39
0
210
0
220
0
230
1
0
LINE
5
B5
100
AcDbEntity
8
1
62
256
6
ByLayer
370
18
48
1
60
1
100
AcDbLine
10
-47.789216
20
-1.499998
30
0
11
-48.25
21
-5
31
0
39
0
210
0
220
0
230
1
0
LINE
5
B6
100
AcDbEntity
8
SK2
62
256
6
ByLayer
370
13
48
1
60
0
100
AcDbLine
10
63.542879
20
1.49179
30
0
11
75.065215
21
33.154275
31
0
39
0
210
0
220
0
230
1
0
LINE
5
B7
100
AcDbEntity
8
SK2
62
256
6
ByLayer
370
13
48
1
60
0
100
AcDbLine
10
63.542879
20
-1.49179
30
0
11
75.065215
21
-33.154275
31
0
39
0
210
0
220
0
230
1
0
LINE
5
B8
100
AcDbEntity
8
1
62
256
6
ByLayer
370
18
48
1
60
1
100
AcDbLine
10
74.381272
20
31.274854
30
0
11
77.80658
21
30.420702
31
0
39
0
210
0
220
0
230
1
0
LINE
5
B9
100
AcDbEntity
8
1
62
256
6
ByLayer
370
18
48
1
60
1
100
AcDbLine
10
77.80658
20
30.420702
30
0
11
77.468798
21
29.56327
31
0
39
0
210
0
220
0
230
1
0
LINE
5
BA
100
AcDbEntity
8
1
62
256
6
ByLayer
370
18
48
1
60
1
100
AcDbLine
10
77.468798
20
29.56327
30
0
11
74.381272
21
31.274854
31
0
39
0
210
0
220
0
230
1
0
LINE
5
BB
100
AcDbEntity
8
1
62
256
6
ByLayer
370
18
48
1
60
1
100
AcDbLine
10
74.381272
20
-31.274854
30
0
11
77.468795
21
-29.563271
31
0
39
0
210
0
220
0
230
1
0
LINE
5
BC
100
AcDbEntity
8
1
62
256
6
ByLayer
370
18
48
1
60
1
100
AcDbLine
10
77.468795
20
-29.563271
30
0
11
77.806584
21
-30.420701
31
0
39
0
210
0
220
0
230
1
0
LINE
5
BD
100
AcDbEntity
8
1
62
256
6
ByLayer
370
18
48
1
60
1
100
AcDbLine
10
77.806584
20
-30.420701
30
0
11
74.381272
21
-31.274854
31
0
39
0
210
0
220
0
230
1
0
LINE
5
110
100
AcDbEntity
8
1
62
256
6
ByLayer
370
13
48
0.05
60
0
100
AcDbLine
10
-46.5
20
0
30
0
11
67.751305
21
0
31
0
39
0
210
0
220
0
230
1
0
LINE
5
115
100
AcDbEntity
8
1
62
256
6
ByLayer
370
18
48
1
60
1
100
AcDbLine
10
76.75
20
4.96
30
0
11
77.210784
21
1.460002
31
0
39
0
210
0
220
0
230
1
0
LINE
5
116
100
AcDbEntity
8
1
62
256
6
ByLayer
370
18
48
1
60
1
100
AcDbLine
10
77.210784
20
1.460002
30
0
11
76.289216
21
1.459998
31
0
39
0
210
0
220
0
230
1
0
LINE
5
117
100
AcDbEntity
8
1
62
256
6
ByLayer
370
18
48
1
60
1
100
AcDbLine
10
76.289216
20
1.459998
30
0
11
76.75
21
4.96
31
0
39
0
210
0
220
0
230
1
0
LINE
5
119
100
AcDbEntity
8
1
62
256
6
ByLayer
370
18
48
1
60
1
100
AcDbLine
10
76.75
20
-4.96
30
0
11
76.289216
21
-1.460002
31
0
39
0
210
0
220
0
230
1
0
LINE
5
11A
100
AcDbEntity
8
1
62
256
6
ByLayer
370
18
48
1
60
1
100
AcDbLine
10
76.289216
20
-1.460002
30
0
11
77.210784
21
-1.459998
31
0
39
0
210
0
220
0
230
1
0
LINE
5
11B
100
AcDbEntity
8
1
62
256
6
ByLayer
370
18
48
1
60
1
100
AcDbLine
10
77.210784
20
-1.459998
30
0
11
76.75
21
-4.96
31
0
39
0
210
0
220
0
230
1
0
LINE
5
11F
100
AcDbEntity
8
1
62
256
6
ByLayer
370
18
48
1
60
1
100
AcDbLine
10
-48.25
20
5
30
0
11
-47.789216
21
1.500002
31
0
39
0
210
0
220
0
230
1
0
LINE
5
120
100
AcDbEntity
8
1
62
256
6
ByLayer
370
18
48
1
60
1
100
AcDbLine
10
-47.789216
20
1.500002
30
0
11
-48.710784
21
1.499998
31
0
39
0
210
0
220
0
230
1
0
LINE
5
121
100
AcDbEntity
8
1
62
256
6
ByLayer
370
18
48
1
60
1
100
AcDbLine
10
-48.710784
20
1.499998
30
0
11
-48.25
21
5
31
0
39
0
210
0
220
0
230
1
0
LINE
5
123
100
AcDbEntity
8
1
62
256
6
ByLayer
370
18
48
1
60
1
100
AcDbLine
10
-48.25
20
-5
30
0
11
-48.710784
21
-1.500002
31
0
39
0
210
0
220
0
230
1
0
LINE
5
124
100
AcDbEntity
8
1
62
256
6
ByLayer
370
18
48
1
60
1
100
AcDbLine
10
-48.710784
20
-1.500002
30
0
11
-47.789216
21
-1.499998
31
0
39
0
210
0
220
0
230
1
0
LINE
5
125
100
AcDbEntity
8
1
62
256
6
ByLayer
370
18
48
1
60
1
100
AcDbLine
10
-47.789216
20
-1.499998
30
0
11
-48.25
21
-5
31
0
39
0
210
0
220
0
230
1
0
LINE
5
128
100
AcDbEntity
8
1
62
256
6
ByLayer
370
18
48
1
60
1
100
AcDbLine
10
74.381272
20
31.274854
30
0
11
77.80658
21
30.420702
31
0
39
0
210
0
220
0
230
1
0
LINE
5
129
100
AcDbEntity
8
1
62
256
6
ByLayer
370
18
48
1
60
1
100
AcDbLine
10
77.80658
20
30.420702
30
0
11
77.468798
21
29.56327
31
0
39
0
210
0
220
0
230
1
0
LINE
5
12A
100
AcDbEntity
8
1
62
256
6
ByLayer
370
18
48
1
60
1
100
AcDbLine
10
77.468798
20
29.56327
30
0
11
74.381272
21
31.274854
31
0
39
0
210
0
220
0
230
1
0
LINE
5
12C
100
AcDbEntity
8
1
62
256
6
ByLayer
370
18
48
1
60
1
100
AcDbLine
10
74.381272
20
-31.274854
30
0
11
77.468795
21
-29.563271
31
0
39
0
210
0
220
0
230
1
0
LINE
5
12D
100
AcDbEntity
8
1
62
256
6
ByLayer
370
18
48
1
60
1
100
AcDbLine
10
77.468795
20
-29.563271
30
0
11
77.806584
21
-30.420701
31
0
39
0
210
0
220
0
230
1
0
LINE
5
12E
100
AcDbEntity
8
1
62
256
6
ByLayer
370
18
48
1
60
1
100
AcDbLine
10
77.806584
20
-30.420701
30
0
11
74.381272
21
-31.274854
31
0
39
0
210
0
220
0
230
1
0
MTEXT
5
111
100
AcDbEntity
8
2
62
256
6
ByLayer
370
18
48
1
60
0
100
AcDbMText
10
75.185366
20
8.894844
30
0
210
0
220
0
230
1
1
%%c
40
3.5
41
0
44
1.084337
50
90
71
7
72
5
7
iso_b_vert
0
MTEXT
5
114
100
AcDbEntity
8
2
62
256
6
ByLayer
370
18
48
1
60
0
100
AcDbMText
10
75.185366
20
15.8675
30
0
210
0
220
0
230
1
1
\W0.7346;9.92
40
3.5
41
0
44
1.084337
50
90
71
7
72
5
7
iso_b_vert
0
MTEXT
5
11D
100
AcDbEntity
8
SK2
62
256
6
ByLayer
370
18
48
1
60
0
100
AcDbMText
10
-49.814634
20
11.934844
30
0
210
0
220
0
230
1
1
%%c
40
3.5
41
0
44
1.084337
50
90
71
7
72
5
7
iso_b_vert
0
MTEXT
5
11E
100
AcDbEntity
8
SK2
62
256
6
ByLayer
370
18
48
1
60
0
100
AcDbMText
10
-49.814634
20
18.9075
30
0
210
0
220
0
230
1
1
\W0.5321;10
40
3.5
41
0
44
1.084337
50
90
71
7
72
5
7
iso_b_vert
0
MTEXT
5
127
100
AcDbEntity
8
SK2
62
256
6
ByLayer
370
18
48
1
60
0
100
AcDbMText
10
92.209724
20
-2.467366
30
0
210
0
220
0
230
1
1
\W0.7825;140%%d
40
3.5
41
0
44
1.084337
50
0
71
7
72
5
7
iso_b_vert
0
MTEXT
5
130
100
AcDbEntity
8
SK6
62
256
6
ByLayer
370
18
48
1
60
0
100
AcDbMText
10
-17.808675
20
-97.467366
30
0
210
0
220
0
230
1
1
\W0.7547;860.1-0992-049A1-MM M2BM
40
3.5
41
0
44
1.084337
50
0
71
7
72
5
7
iso_b_vert
0
HATCH
5
118
100
AcDbEntity
8
2
62
256
6
ByLayer
370
13
48
1
60
0
100
AcDbHatch
10
0
20
0
30
0
210
0
220
0
230
1
2
ANSI31
70
0
71
0
91
1
92
5
93
3
72
1
10
76.75
20
4.96000000000001
11
77.2107837415528
21
1.46000169255319
72
1
10
77.2107837415528
20
1.46000169255319
11
76.2892162584472
21
1.45999830744682
72
1
10
76.2892162584472
20
1.45999830744682
11
76.75
21
4.96000000000001
97
0
75
0
76
1
52
0
41
0.0062
77
0
78
1
53
45
43
0
44
0
45
-0.0139193969876572
46
0.0139193969876572
79
0
47
0
98
1
10
0
20
0
0
HATCH
5
11C
100
AcDbEntity
8
2
62
256
6
ByLayer
370
13
48
1
60
0
100
AcDbHatch
10
0
20
0
30
0
210
0
220
0
230
1
2
ANSI31
70
0
71
0
91
1
92
5
93
3
72
1
10
76.75
20
-4.95999999999998
11
76.2892162584472
21
-1.46000169255316
72
1
10
76.2892162584472
20
-1.46000169255316
11
77.2107837415528
21
-1.4599983074468
72
1
10
77.2107837415528
20
-1.4599983074468
11
76.75
21
-4.95999999999998
97
0
75
0
76
1
52
0
41
0.0062
77
0
78
1
53
45
43
0
44
0
45
-0.0139193969876572
46
0.0139193969876572
79
0
47
0
98
1
10
0
20
0
0
HATCH
5
122
100
AcDbEntity
8
SK2
62
256
6
ByLayer
370
13
48
1
60
0
100
AcDbHatch
10
0
20
0
30
0
210
0
220
0
230
1
2
ANSI31
70
0
71
0
91
1
92
5
93
3
72
1
10
-48.25
20
5
11
-47.7892162584472
21
1.50000169255318
72
1
10
-47.7892162584472
20
1.50000169255318
11
-48.7107837415528
21
1.49999830744682
72
1
10
-48.7107837415528
20
1.49999830744682
11
-48.25
21
5
97
0
75
0
76
1
52
0
41
0.0062
77
0
78
1
53
45
43
0
44
0
45
-0.0139193969876572
46
0.0139193969876572
79
0
47
0
98
1
10
0
20
0
0
HATCH
5
126
100
AcDbEntity
8
SK2
62
256
6
ByLayer
370
13
48
1
60
0
100
AcDbHatch
10
0
20
0
30
0
210
0
220
0
230
1
2
ANSI31
70
0
71
0
91
1
92
5
93
3
72
1
10
-48.25
20
-5
11
-48.7107837415528
21
-1.50000169255318
72
1
10
-48.7107837415528
20
-1.50000169255318
11
-47.7892162584472
21
-1.49999830744682
72
1
10
-47.7892162584472
20
-1.49999830744682
11
-48.25
21
-5
97
0
75
0
76
1
52
0
41
0.0062
77
0
78
1
53
45
43
0
44
0
45
-0.0139193969876572
46
0.0139193969876572
79
0
47
0
98
1
10
0
20
0
0
HATCH
5
12B
100
AcDbEntity
8
SK2
62
256
6
ByLayer
370
13
48
1
60
0
100
AcDbHatch
10
0
20
0
30
0
210
0
220
0
230
1
2
ANSI31
70
0
71
0
91
1
92
5
93
3
72
1
10
74.3812724006153
20
31.2748537989207
11
77.8065803951382
21
30.4207022015634
72
1
10
77.8065803951382
20
30.4207022015634
11
77.4687980900166
21
29.563270139954
72
1
10
77.4687980900166
20
29.563270139954
11
74.3812724006153
21
31.2748537989207
97
0
75
0
76
1
52
0
41
0.0062
77
0
78
1
53
45
43
0
44
0
45
-0.0139193969876572
46
0.0139193969876572
79
0
47
0
98
1
10
0
20
0
0
HATCH
5
12F
100
AcDbEntity
8
SK2
62
256
6
ByLayer
370
13
48
1
60
0
100
AcDbHatch
10
0
20
0
30
0
210
0
220
0
230
1
2
ANSI31
70
0
71
0
91
1
92
5
93
3
72
1
10
74.3812724006156
20
-31.2748537989206
11
77.4687949404976
21
-29.5632713807091
72
1
10
77.4687949404976
20
-29.5632713807091
11
77.8065835446577
21
-30.4207009608079
72
1
10
77.8065835446577
20
-30.4207009608079
11
74.3812724006156
21
-31.2748537989206
97
0
75
0
76
1
52
0
41
0.0062
77
0
78
1
53
45
43
0
44
0
45
-0.0139193969876572
46
0.0139193969876572
79
0
47
0
98
1
10
0
20
0
0
DIMENSION
5
133
100
AcDbEntity
8
2
62
256
6
ByLayer
370
18
48
1
60
0
100
AcDbDimension
2
_U0
10
63
20
-64.488145
30
0
11
11.5
21
-64.488145
31
0
70
32
71
1
72
1
41
1
210
0
220
0
230
1
3
Standard
100
AcDbAlignedDimension
13
-40
23
-5
33
0
14
63
24
-4.96
34
0
50
0
100
AcDbRotatedDimension
1001
ACAD
1000
DSTYLE
1002
{
1070
   371
1070
    13
1070
   372
1070
    13
1070
     3
1000

1070
   170
1070
     0
1070
   144
1040
1.0
1070
   277
1070
     2
1070
   284
1070
     8
1070
   278
1070
    46
1070
   146
1040
1.0
1070
   345
1005
16
1070
   347
1005
16
1070
   346
1005
16
1070
   344
1005
0
1070
   343
1005
0
1070
   172
1070
     1
1070
    76
1070
     0
1070
    75
1070
     0
1070
   282
1070
     0
1070
   281
1070
     0
1070
    71
1070
     0
1070
    74
1070
     0
1070
   279
1070
     0
1070
   173
1070
     1
1070
   340
1005
112
1070
   271
1070
     2
1070
   272
1070
     2
1070
    77
1070
     1
1070
    73
1070
     1
1070
   171
1070
     3
1070
   274
1070
     4
1070
   177
1070
     2
1070
   176
1070
     2
1070
   178
1070
     2
1070
    78
1070
     8
1070
    48
1040
-0.1
1070
    41
1040
3.5
1070
   147
1040
1.75
1070
    42
1040
1.5875
1070
    44
1040
2.0
1070
   140
1040
3.5
1002
}
1001
ACAD_DSTYLE_DIM_LINETYPE
1070
   380
1005
16
1001
ACAD_DSTYLE_DIM_EXT1_LINETYPE
1070
   381
1005
16
1001
ACAD_DSTYLE_DIM_EXT2_LINETYPE
1070
   382
1005
16
0
DIMENSION
5
14C
100
AcDbEntity
8
SK2
62
256
6
ByLayer
370
18
48
1
60
0
100
AcDbDimension
2
_U1
10
2
20
-44.488145
30
0
11
32.5
21
-44.488145
31
0
70
32
71
1
72
1
41
1
210
0
220
0
230
1
3
Standard
100
AcDbAlignedDimension
13
63
23
-4.96
33
0
14
2
24
-4.96
34
0
50
0
100
AcDbRotatedDimension
1001
ACAD
1000
DSTYLE
1002
{
1070
   371
1070
    13
1070
   372
1070
    13
1070
     3
1000

1070
   170
1070
     0
1070
   144
1040
1.0
1070
   277
1070
     2
1070
   284
1070
     8
1070
   278
1070
    46
1070
   146
1040
1.0
1070
   345
1005
16
1070
   347
1005
16
1070
   346
1005
16
1070
   344
1005
0
1070
   343
1005
0
1070
   172
1070
     1
1070
    76
1070
     0
1070
    75
1070
     0
1070
   282
1070
     0
1070
   281
1070
     0
1070
    71
1070
     0
1070
    74
1070
     0
1070
   279
1070
     0
1070
   173
1070
     1
1070
   340
1005
112
1070
   271
1070
     2
1070
   272
1070
     2
1070
    77
1070
     1
1070
    73
1070
     1
1070
   171
1070
     3
1070
   274
1070
     4
1070
   177
1070
     2
1070
   176
1070
     2
1070
   178
1070
     2
1070
    78
1070
     8
1070
    48
1040
-0.1
1070
    41
1040
3.5
1070
   147
1040
1.75
1070
    42
1040
1.5875
1070
    44
1040
2.0
1070
   140
1040
3.5
1002
}
1001
ACAD_DSTYLE_DIM_LINETYPE
1070
   380
1005
16
1001
ACAD_DSTYLE_DIM_EXT1_LINETYPE
1070
   381
1005
16
1001
ACAD_DSTYLE_DIM_EXT2_LINETYPE
1070
   382
1005
16
0
DIMENSION
5
164
100
AcDbEntity
8
SK2
62
256
6
ByLayer
370
18
48
1
60
0
100
AcDbDimension
2
_U2
10
14
20
-34.488145
30
0
11
38.5
21
-34.488145
31
0
70
32
71
1
72
1
41
1
210
0
220
0
230
1
3
Standard
100
AcDbAlignedDimension
13
63
23
-4.96
33
0
14
14
24
-4.96
34
0
50
0
100
AcDbRotatedDimension
1001
ACAD
1000
DSTYLE
1002
{
1070
   371
1070
    13
1070
   372
1070
    13
1070
     3
1000

1070
   170
1070
     0
1070
   144
1040
1.0
1070
   277
1070
     2
1070
   284
1070
     8
1070
   278
1070
    46
1070
   146
1040
1.0
1070
   345
1005
16
1070
   347
1005
16
1070
   346
1005
16
1070
   344
1005
0
1070
   343
1005
0
1070
   172
1070
     1
1070
    76
1070
     0
1070
    75
1070
     0
1070
   282
1070
     0
1070
   281
1070
     0
1070
    71
1070
     0
1070
    74
1070
     0
1070
   279
1070
     0
1070
   173
1070
     1
1070
   340
1005
112
1070
   271
1070
     2
1070
   272
1070
     2
1070
    77
1070
     1
1070
    73
1070
     1
1070
   171
1070
     3
1070
   274
1070
     4
1070
   177
1070
     2
1070
   176
1070
     2
1070
   178
1070
     2
1070
    78
1070
     8
1070
    48
1040
-0.1
1070
    41
1040
3.5
1070
   147
1040
1.75
1070
    42
1040
1.5875
1070
    44
1040
2.0
1070
   140
1040
3.5
1002
}
1001
ACAD_DSTYLE_DIM_LINETYPE
1070
   380
1005
16
1001
ACAD_DSTYLE_DIM_EXT1_LINETYPE
1070
   381
1005
16
1001
ACAD_DSTYLE_DIM_EXT2_LINETYPE
1070
   382
1005
16
0
DIMENSION
5
17E
100
AcDbEntity
8
SK2
62
256
6
ByLayer
370
18
48
1
60
0
100
AcDbDimension
2
_U3
10
0
20
-44.488145
30
0
11
-20
21
-44.488145
31
0
70
32
71
1
72
1
41
1
210
0
220
0
230
1
3
Standard
100
AcDbAlignedDimension
13
-40
23
-5
33
0
14
0
24
-5
34
0
50
0
100
AcDbRotatedDimension
1001
ACAD
1000
DSTYLE
1002
{
1070
   371
1070
    13
1070
   372
1070
    13
1070
     3
1000

1070
   170
1070
     0
1070
   144
1040
1.0
1070
   277
1070
     2
1070
   284
1070
     8
1070
   278
1070
    46
1070
   146
1040
1.0
1070
   345
1005
16
1070
   347
1005
16
1070
   346
1005
16
1070
   344
1005
0
1070
   343
1005
0
1070
   172
1070
     1
1070
    76
1070
     0
1070
    75
1070
     0
1070
   282
1070
     0
1070
   281
1070
     0
1070
    71
1070
     0
1070
    74
1070
     0
1070
   279
1070
     0
1070
   173
1070
     1
1070
   340
1005
112
1070
   271
1070
     2
1070
   272
1070
     2
1070
    77
1070
     1
1070
    73
1070
     1
1070
   171
1070
     3
1070
   274
1070
     4
1070
   177
1070
     2
1070
   176
1070
     2
1070
   178
1070
     2
1070
    78
1070
     8
1070
    48
1040
-0.1
1070
    41
1040
3.5
1070
   147
1040
1.75
1070
    42
1040
1.5875
1070
    44
1040
2.0
1070
   140
1040
3.5
1002
}
1001
ACAD_DSTYLE_DIM_LINETYPE
1070
   380
1005
16
1001
ACAD_DSTYLE_DIM_EXT1_LINETYPE
1070
   381
1005
16
1001
ACAD_DSTYLE_DIM_EXT2_LINETYPE
1070
   382
1005
16
0
DIMENSION
5
196
100
AcDbEntity
8
SK2
62
256
6
ByLayer
370
18
48
1
60
0
100
AcDbDimension
2
_U4
10
63
20
-54.488145
30
0
11
31.5
21
-54.488145
31
0
70
32
71
1
72
1
41
1
210
0
220
0
230
1
3
Standard
100
AcDbAlignedDimension
13
0
23
-5
33
0
14
63
24
-4.96
34
0
50
0
100
AcDbRotatedDimension
1001
ACAD
1000
DSTYLE
1002
{
1070
   371
1070
    13
1070
   372
1070
    13
1070
     3
1000

1070
   170
1070
     0
1070
   144
1040
1.0
1070
   277
1070
     2
1070
   284
1070
     8
1070
   278
1070
    46
1070
   146
1040
1.0
1070
   345
1005
16
1070
   347
1005
16
1070
   346
1005
16
1070
   344
1005
0
1070
   343
1005
0
1070
   172
1070
     1
1070
    76
1070
     0
1070
    75
1070
     0
1070
   282
1070
     0
1070
   281
1070
     0
1070
    71
1070
     0
1070
    74
1070
     0
1070
   279
1070
     0
1070
   173
1070
     1
1070
   340
1005
112
1070
   271
1070
     2
1070
   272
1070
     2
1070
    77
1070
     1
1070
    73
1070
     1
1070
   171
1070
     3
1070
   274
1070
     4
1070
   177
1070
     2
1070
   176
1070
     2
1070
   178
1070
     2
1070
    78
1070
     8
1070
    48
1040
-0.1
1070
    41
1040
3.5
1070
   147
1040
1.75
1070
    42
1040
1.5875
1070
    44
1040
2.0
1070
   140
1040
3.5
1002
}
1001
ACAD_DSTYLE_DIM_LINETYPE
1070
   380
1005
16
1001
ACAD_DSTYLE_DIM_EXT1_LINETYPE
1070
   381
1005
16
1001
ACAD_DSTYLE_DIM_EXT2_LINETYPE
1070
   382
1005
16
0
ENDSEC
0
SECTION
2
OBJECTS
0
DICTIONARY
5
21e
330
0
100
AcDbDictionary
280
0
281
1
3
ACAD_GROUP
350
21f
3
ACAD_MLINESTYLE
350
220
0
DICTIONARY
5
21f
330
0
100
AcDbDictionary
280
0
281
1
0
DICTIONARY
5
220
330
0
100
AcDbDictionary
280
0
281
1
3
Standard
350
18
0
MLINESTYLE
5
18
330
220
100
AcDbMlineStyle
2
Standard
70
0
3

62
256
51
90
52
90
71
2
49
-0.5
62
256
6
ByLayer
49
0.5
62
256
6
ByLayer
0
RASTERVARIABLES
5
20c
330

100
AcDbRasterVariables
90
0
70
1
71
1
72
1
0
ENDSEC
0
EOF
