0
SECTION
2
HEADER
9
$ACADVER
1
AC1015
9
$DWGCODEPAGE
3
ANSI_1252
9
$HANDSEED
5
226
9
$ANGBASE
50
0
9
$ANGDIR
70
0
9
$ATTMODE
70
1
9
$AUNITS
70
0
9
$AUPREC
70
0
9
$CECOLOR
62
256
9
$CELTSCALE
40
1
9
$CELTYPE
6
ByLayer
9
$CELWEIGHT
370
18
9
$CLAYER
8
0
9
$CMLJUST
70
0
9
$CMLSCALE
40
1
9
$CMLSTYLE
2
Standard
9
$DIMSTYLE
2
Standard
9
$TEXTSIZE
40
0.2
9
$TEXTSTYLE
7
Standard
9
$LUNITS
70
2
9
$LUPREC
70
4
9
$EXTNAMES
290
1
9
$INSUNITS
70
4
9
$LTSCALE
40
1
9
$LWDISPLAY
290
1
9
$PDMODE
70
0
9
$PDSIZE
40
0
9
$PLINEGEN
70
0
0
ENDSEC
0
SECTION
2
CLASSES
0
CLASS
1
RASTERVARIABLES
2
AcDbRasterVariables
3
ISM
90
0
280
0
281
0
0
ENDSEC
0
SECTION
2
TABLES
0
TABLE
2
VPORT
5
21c
100
AcDbSymbolTable
0
VPORT
5
1
100
AcDbSymbolTableRecord
100
AcDbViewportTableRecord
2
*Active
70
0
10
0
20
0
11
1
21
1
12
-1
22
1
13
0
23
0
14
0.5
24
0.5
15
10
25
10
16
0
26
0
36
1
17
0
27
0
37
0
0
ENDTAB
0
TABLE
2
LTYPE
5
21d
100
AcDbSymbolTable
0
LTYPE
5
14
100
AcDbSymbolTableRecord
100
AcDbLinetypeTableRecord
70
0
2
ByBlock
3

72
65
73
0
40
0
0
LTYPE
5
15
100
AcDbSymbolTableRecord
100
AcDbLinetypeTableRecord
70
0
2
ByLayer
3

72
65
73
0
40
0
0
LTYPE
5
16
100
AcDbSymbolTableRecord
100
AcDbLinetypeTableRecord
70
0
2
Continuous
3
Solid line
72
65
73
0
40
0
0
LTYPE
5
6E
100
AcDbSymbolTableRecord
100
AcDbLinetypeTableRecord
70
0
2
CENTER
3
____ _ ____ _ ____ _ ____
72
65
73
4
40
47.5
49
22
74
0
49
-8.5
74
0
49
8.5
74
0
49
-8.5
74
0
0
LTYPE
5
6F
100
AcDbSymbolTableRecord
100
AcDbLinetypeTableRecord
70
0
2
DASHED
3
__ __ __ __ __ __ __ __ __
72
65
73
2
40
25.72
49
12.86
74
0
49
-12.86
74
0
0
ENDTAB
0
TABLE
2
LAYER
5
21e
100
AcDbSymbolTable
0
LAYER
5
10
100
AcDbSymbolTableRecord
100
AcDbLayerTableRecord
2
0
70
0
62
7
6
Continuous
290
1
370
-3
390
0
0
LAYER
5
71
100
AcDbSymbolTableRecord
100
AcDbLayerTableRecord
2
81
70
0
62
-3
6
Continuous
290
1
370
-3
390
0
0
LAYER
5
73
100
AcDbSymbolTableRecord
100
AcDbLayerTableRecord
2
80
70
0
62
-6
6
Continuous
290
1
370
-3
390
0
0
LAYER
5
75
100
AcDbSymbolTableRecord
100
AcDbLayerTableRecord
2
1
70
0
62
4
6
Continuous
290
1
370
-3
390
0
0
LAYER
5
83
100
AcDbSymbolTableRecord
100
AcDbLayerTableRecord
2
4
70
0
62
-2
6
CENTER
290
1
370
-3
390
0
0
LAYER
5
A1
100
AcDbSymbolTableRecord
100
AcDbLayerTableRecord
2
2
70
0
62
7
6
Continuous
290
1
370
-3
390
0
0
LAYER
5
131
100
AcDbSymbolTableRecord
100
AcDbLayerTableRecord
2
Defpoints
70
0
62
7
6
Continuous
290
0
370
-3
390
0
0
LAYER
5
208
100
AcDbSymbolTableRecord
100
AcDbLayerTableRecord
2
SK4
70
0
62
2
6
CENTER
290
1
370
-3
390
0
0
LAYER
5
209
100
AcDbSymbolTableRecord
100
AcDbLayerTableRecord
2
SK1
70
0
62
4
6
Continuous
290
1
370
-3
390
0
0
LAYER
5
20a
100
AcDbSymbolTableRecord
100
AcDbLayerTableRecord
2
SK2
70
0
62
7
6
Continuous
290
1
370
-3
390
0
0
LAYER
5
20b
100
AcDbSymbolTableRecord
100
AcDbLayerTableRecord
2
SK6
70
0
62
5
6
Continuous
290
1
370
-3
390
0
0
ENDTAB
0
TABLE
2
STYLE
5
21f
100
AcDbSymbolTable
0
STYLE
5
11
100
AcDbSymbolTableRecord
100
AcDbTextStyleTableRecord
2
Standard
3
txt
70
0
71
0
40
0
41
1
42
0
50
0
0
STYLE
5
10D
100
AcDbSymbolTableRecord
100
AcDbTextStyleTableRecord
2
iso_b_vert
3
simplex.shx
70
0
71
0
40
0
41
1
42
0
50
0
0
STYLE
5
10E
100
AcDbSymbolTableRecord
100
AcDbTextStyleTableRecord
2
DWGDirectTextStyle
3
simplex
70
0
71
0
40
0
41
1
42
0
50
0
0
ENDTAB
0
TABLE
2
DIMSTYLE
5
220
100
AcDbSymbolTable
100
AcDbDimStyleTable
0
DIMSTYLE
105
27
100
AcDbSymbolTableRecord
100
AcDbDimStyleTableRecord
2
Standard
70
0
3
<>
41
0.18
42
0.0625
44
0.18
140
0.18
147
0.09
73
0
74
0
77
1
271
2
275
0
278
52
280
0
340
11
0
ENDTAB
0
TABLE
2
VIEW
5
221
100
AcDbSymbolTable
0
ENDTAB
0
TABLE
2
UCS
5
222
100
AcDbSymbolTable
0
ENDTAB
0
TABLE
2
APPID
5
223
100
AcDbSymbolTable
0
APPID
5
12
100
AcDbSymbolTableRecord
100
AcDbRegAppTableRecord
2
ACAD
70
0
0
APPID
5
12D
100
AcDbSymbolTableRecord
100
AcDbRegAppTableRecord
2
ACAD_DSTYLE_DIMBREAK
70
0
0
APPID
5
1C7
100
AcDbSymbolTableRecord
100
AcDbRegAppTableRecord
2
ACAD_DSTYLE_DIM_LINETYPE
70
0
0
APPID
5
1C8
100
AcDbSymbolTableRecord
100
AcDbRegAppTableRecord
2
ACAD_DSTYLE_DIM_EXT1_LINETYPE
70
0
0
APPID
5
1C9
100
AcDbSymbolTableRecord
100
AcDbRegAppTableRecord
2
ACAD_DSTYLE_DIM_EXT2_LINETYPE
70
0
0
APPID
5
204
100
AcDbSymbolTableRecord
100
AcDbRegAppTableRecord
2
ACAD_MLEADERVER
70
0
0
ENDTAB
0
TABLE
2
BLOCK_RECORD
5
224
100
AcDbSymbolTable
0
BLOCK_RECORD
5
1F
100
AcDbSymbolTableRecord
100
AcDbBlockTableRecord
2
*Model_Space
340
0
70
0
0
BLOCK_RECORD
5
1B
100
AcDbSymbolTableRecord
100
AcDbBlockTableRecord
2
*Paper_Space
340
0
70
0
0
BLOCK_RECORD
5
23
100
AcDbSymbolTableRecord
100
AcDbBlockTableRecord
2
*Paper_Space0
340
0
70
0
0
BLOCK_RECORD
5
132
100
AcDbSymbolTableRecord
100
AcDbBlockTableRecord
2
*D1
340
0
70
0
0
BLOCK_RECORD
5
13E
100
AcDbSymbolTableRecord
100
AcDbBlockTableRecord
2
_U0
340
0
70
0
0
BLOCK_RECORD
5
14A
100
AcDbSymbolTableRecord
100
AcDbBlockTableRecord
2
*D3
340
0
70
0
0
BLOCK_RECORD
5
156
100
AcDbSymbolTableRecord
100
AcDbBlockTableRecord
2
_U1
340
0
70
0
0
BLOCK_RECORD
5
162
100
AcDbSymbolTableRecord
100
AcDbBlockTableRecord
2
*D5
340
0
70
0
0
BLOCK_RECORD
5
16E
100
AcDbSymbolTableRecord
100
AcDbBlockTableRecord
2
_U2
340
0
70
0
0
BLOCK_RECORD
5
17C
100
AcDbSymbolTableRecord
100
AcDbBlockTableRecord
2
*D7
340
0
70
0
0
BLOCK_RECORD
5
188
100
AcDbSymbolTableRecord
100
AcDbBlockTableRecord
2
_U3
340
0
70
0
0
BLOCK_RECORD
5
194
100
AcDbSymbolTableRecord
100
AcDbBlockTableRecord
2
*D9
340
0
70
0
0
BLOCK_RECORD
5
1A0
100
AcDbSymbolTableRecord
100
AcDbBlockTableRecord
2
_U4
340
0
70
0
0
ENDTAB
0
ENDSEC
0
SECTION
2
BLOCKS
0
BLOCK
5
20
100
AcDbEntity
8
0
100
AcDbBlockBegin
2
*Model_Space
70
0
10
0
20
0
30
0
3
*Model_Space
0
ENDBLK
5
21
100
AcDbEntity
8
0
100
AcDbBlockEnd
0
BLOCK
5
1C
100
AcDbEntity
8
0
100
AcDbBlockBegin
2
*Paper_Space
70
0
10
0
20
0
30
0
3
*Paper_Space
0
ENDBLK
5
1D
100
AcDbEntity
8
0
100
AcDbBlockEnd
0
BLOCK
5
24
100
AcDbEntity
8
0
100
AcDbBlockBegin
2
*Paper_Space0
70
0
10
0
20
0
30
0
3
*Paper_Space0
0
ENDBLK
5
25
100
AcDbEntity
8
0
100
AcDbBlockEnd
0
BLOCK
5
133
100
AcDbEntity
8
0
100
AcDbBlockBegin
2
*D1
70
1
10
0
20
0
30
0
3
*D1
0
LINE
5
135
100
AcDbEntity
8
0
62
256
6
ByLayer
370
-2
48
1
60
0
100
AcDbLine
10
-40
20
-6.5875
30
0
11
-40
21
-66.539642
31
0
39
0
210
0
220
0
230
1
0
LINE
5
136
100
AcDbEntity
8
0
62
256
6
ByLayer
370
-2
48
1
60
0
100
AcDbLine
10
63
20
-6.5875
30
0
11
63
21
-66.539642
31
0
39
0
210
0
220
0
230
1
0
LINE
5
137
100
AcDbEntity
8
0
62
256
6
ByLayer
370
-2
48
1
60
0
100
AcDbLine
10
-36.5
20
-64.539642
30
0
11
59.5
21
-64.539642
31
0
39
0
210
0
220
0
230
1
0
SOLID
5
138
100
AcDbEntity
8
0
62
256
6
ByLayer
370
-1
48
1
60
0
100
AcDbTrace
10
-36.5
20
-63.956309
30
0
11
-36.5
21
-65.122975
31
0
12
-40
22
-64.539642
32
0
13
-40
23
-64.539642
33
0
39
0
210
0
220
0
230
1
0
SOLID
5
139
100
AcDbEntity
8
0
62
256
6
ByLayer
370
-1
48
1
60
0
100
AcDbTrace
10
59.5
20
-65.122975
30
0
11
59.5
21
-63.956309
31
0
12
63
22
-64.539642
32
0
13
63
23
-64.539642
33
0
39
0
210
0
220
0
230
1
0
MTEXT
5
13A
100
AcDbEntity
8
0
62
256
6
ByLayer
370
18
48
1
60
0
100
AcDbMText
10
11.5
20
-57.539642
30
0
210
0
220
0
230
1
1
\A1;103
40
3.5
41
0
44
1
50
0
71
5
72
5
7
iso_b_vert
0
POINT
5
13B
100
AcDbEntity
8
Defpoints
62
0
6
ByLayer
370
-1
48
1
60
0
100
AcDbPoint
10
-40
20
-5
30
0
39
0
210
0
220
0
230
1
50
360
0
POINT
5
13C
100
AcDbEntity
8
Defpoints
62
0
6
ByLayer
370
-1
48
1
60
0
100
AcDbPoint
10
63
20
-5
30
0
39
0
210
0
220
0
230
1
50
360
0
POINT
5
13D
100
AcDbEntity
8
Defpoints
62
0
6
ByLayer
370
-1
48
1
60
0
100
AcDbPoint
10
63
20
-64.539642
30
0
39
0
210
0
220
0
230
1
50
360
0
ENDBLK
5
134
100
AcDbEntity
8
0
100
AcDbBlockEnd
0
BLOCK
5
145
100
AcDbEntity
8
0
100
AcDbBlockBegin
2
_U0
70
0
10
0
20
0
30
0
3
_U0
0
MTEXT
5
13F
100
AcDbEntity
8
2
62
256
6
ByLayer
370
18
48
1
60
0
100
AcDbMText
10
8.724734
20
-63.507008
30
0
210
0
220
0
230
1
1
\W0.6217;103
40
3.5
41
0
44
1.084337
50
0
71
7
72
5
7
iso_b_vert
0
LINE
5
140
100
AcDbEntity
8
2
62
256
6
ByLayer
370
13
48
1
60
0
100
AcDbLine
10
-40
20
-6.5875
30
0
11
-40
21
-66.539642
31
0
39
0
210
0
220
0
230
1
0
LINE
5
141
100
AcDbEntity
8
2
62
256
6
ByLayer
370
13
48
1
60
0
100
AcDbLine
10
63
20
-6.5875
30
0
11
63
21
-66.539642
31
0
39
0
210
0
220
0
230
1
0
LINE
5
142
100
AcDbEntity
8
2
62
256
6
ByLayer
370
13
48
1
60
0
100
AcDbLine
10
-40
20
-64.539642
30
0
11
63
21
-64.539642
31
0
39
0
210
0
220
0
230
1
0
SOLID
5
143
100
AcDbEntity
8
2
62
256
6
ByLayer
370
18
48
1
60
0
100
AcDbTrace
10
-40
20
-64.539642
30
0
11
-36.500002
21
-64.078858
31
0
12
-36.499998
22
-65.000426
32
0
13
-36.499998
23
-65.000426
33
0
39
0
210
0
220
0
230
1
0
SOLID
5
144
100
AcDbEntity
8
2
62
256
6
ByLayer
370
18
48
1
60
0
100
AcDbTrace
10
63
20
-64.539642
30
0
11
59.500002
21
-65.000426
31
0
12
59.499998
22
-64.078858
32
0
13
59.499998
23
-64.078858
33
0
39
0
210
0
220
0
230
1
0
ENDBLK
5
146
100
AcDbEntity
8
0
100
AcDbBlockEnd
0
BLOCK
5
14B
100
AcDbEntity
8
0
100
AcDbBlockBegin
2
*D3
70
1
10
0
20
0
30
0
3
*D3
0
LINE
5
14D
100
AcDbEntity
8
0
62
256
6
ByLayer
370
-2
48
1
60
0
100
AcDbLine
10
63
20
-6.5875
30
0
11
63
21
-46.539642
31
0
39
0
210
0
220
0
230
1
0
LINE
5
14E
100
AcDbEntity
8
0
62
256
6
ByLayer
370
-2
48
1
60
0
100
AcDbLine
10
2
20
-6.5875
30
0
11
2
21
-46.539642
31
0
39
0
210
0
220
0
230
1
0
LINE
5
14F
100
AcDbEntity
8
0
62
256
6
ByLayer
370
-2
48
1
60
0
100
AcDbLine
10
59.5
20
-44.539642
30
0
11
5.5
21
-44.539642
31
0
39
0
210
0
220
0
230
1
0
SOLID
5
150
100
AcDbEntity
8
0
62
256
6
ByLayer
370
-1
48
1
60
0
100
AcDbTrace
10
59.5
20
-45.122975
30
0
11
59.5
21
-43.956309
31
0
12
63
22
-44.539642
32
0
13
63
23
-44.539642
33
0
39
0
210
0
220
0
230
1
0
SOLID
5
151
100
AcDbEntity
8
0
62
256
6
ByLayer
370
-1
48
1
60
0
100
AcDbTrace
10
5.5
20
-43.956309
30
0
11
5.5
21
-45.122975
31
0
12
2
22
-44.539642
32
0
13
2
23
-44.539642
33
0
39
0
210
0
220
0
230
1
0
MTEXT
5
152
100
AcDbEntity
8
0
62
256
6
ByLayer
370
18
48
1
60
0
100
AcDbMText
10
32.5
20
-37.539642
30
0
210
0
220
0
230
1
1
\A1;61
40
3.5
41
0
44
1
50
0
71
5
72
5
7
iso_b_vert
0
POINT
5
153
100
AcDbEntity
8
Defpoints
62
0
6
ByLayer
370
-1
48
1
60
0
100
AcDbPoint
10
63
20
-5
30
0
39
0
210
0
220
0
230
1
50
360
0
POINT
5
154
100
AcDbEntity
8
Defpoints
62
0
6
ByLayer
370
-1
48
1
60
0
100
AcDbPoint
10
2
20
-5
30
0
39
0
210
0
220
0
230
1
50
360
0
POINT
5
155
100
AcDbEntity
8
Defpoints
62
0
6
ByLayer
370
-1
48
1
60
0
100
AcDbPoint
10
2
20
-44.539642
30
0
39
0
210
0
220
0
230
1
50
360
0
ENDBLK
5
14C
100
AcDbEntity
8
0
100
AcDbBlockEnd
0
BLOCK
5
15D
100
AcDbEntity
8
0
100
AcDbBlockBegin
2
_U1
70
0
10
0
20
0
30
0
3
_U1
0
MTEXT
5
157
100
AcDbEntity
8
SK2
62
256
6
ByLayer
370
18
48
1
60
0
100
AcDbMText
10
31.032467
20
-43.507008
30
0
210
0
220
0
230
1
1
\W0.6351;61
40
3.5
41
0
44
1.084337
50
0
71
7
72
5
7
iso_b_vert
0
LINE
5
158
100
AcDbEntity
8
SK2
62
256
6
ByLayer
370
13
48
1
60
0
100
AcDbLine
10
63
20
-6.5875
30
0
11
63
21
-46.539642
31
0
39
0
210
0
220
0
230
1
0
LINE
5
159
100
AcDbEntity
8
SK2
62
256
6
ByLayer
370
13
48
1
60
0
100
AcDbLine
10
2
20
-6.5875
30
0
11
2
21
-46.539642
31
0
39
0
210
0
220
0
230
1
0
LINE
5
15A
100
AcDbEntity
8
SK2
62
256
6
ByLayer
370
13
48
1
60
0
100
AcDbLine
10
63
20
-44.539642
30
0
11
2
21
-44.539642
31
0
39
0
210
0
220
0
230
1
0
SOLID
5
15B
100
AcDbEntity
8
SK2
62
256
6
ByLayer
370
18
48
1
60
0
100
AcDbTrace
10
63
20
-44.539642
30
0
11
59.500002
21
-45.000426
31
0
12
59.499998
22
-44.078858
32
0
13
59.499998
23
-44.078858
33
0
39
0
210
0
220
0
230
1
0
SOLID
5
15C
100
AcDbEntity
8
SK2
62
256
6
ByLayer
370
18
48
1
60
0
100
AcDbTrace
10
2
20
-44.539642
30
0
11
5.499998
21
-44.078858
31
0
12
5.500002
22
-45.000426
32
0
13
5.500002
23
-45.000426
33
0
39
0
210
0
220
0
230
1
0
ENDBLK
5
15E
100
AcDbEntity
8
0
100
AcDbBlockEnd
0
BLOCK
5
163
100
AcDbEntity
8
0
100
AcDbBlockBegin
2
*D5
70
1
10
0
20
0
30
0
3
*D5
0
LINE
5
165
100
AcDbEntity
8
0
62
256
6
ByLayer
370
-2
48
1
60
0
100
AcDbLine
10
63
20
-6.5875
30
0
11
63
21
-36.539642
31
0
39
0
210
0
220
0
230
1
0
LINE
5
166
100
AcDbEntity
8
0
62
256
6
ByLayer
370
-2
48
1
60
0
100
AcDbLine
10
14
20
-6.5875
30
0
11
14
21
-36.539642
31
0
39
0
210
0
220
0
230
1
0
LINE
5
167
100
AcDbEntity
8
0
62
256
6
ByLayer
370
-2
48
1
60
0
100
AcDbLine
10
59.5
20
-34.539642
30
0
11
17.5
21
-34.539642
31
0
39
0
210
0
220
0
230
1
0
SOLID
5
168
100
AcDbEntity
8
0
62
256
6
ByLayer
370
-1
48
1
60
0
100
AcDbTrace
10
59.5
20
-35.122975
30
0
11
59.5
21
-33.956309
31
0
12
63
22
-34.539642
32
0
13
63
23
-34.539642
33
0
39
0
210
0
220
0
230
1
0
SOLID
5
169
100
AcDbEntity
8
0
62
256
6
ByLayer
370
-1
48
1
60
0
100
AcDbTrace
10
17.5
20
-33.956309
30
0
11
17.5
21
-35.122975
31
0
12
14
22
-34.539642
32
0
13
14
23
-34.539642
33
0
39
0
210
0
220
0
230
1
0
MTEXT
5
16A
100
AcDbEntity
8
0
62
256
6
ByLayer
370
18
48
1
60
0
100
AcDbMText
10
38.5
20
-27.539642
30
0
210
0
220
0
230
1
1
\A1;49
40
3.5
41
0
44
1
50
0
71
5
72
5
7
iso_b_vert
0
POINT
5
16B
100
AcDbEntity
8
Defpoints
62
0
6
ByLayer
370
-1
48
1
60
0
100
AcDbPoint
10
63
20
-5
30
0
39
0
210
0
220
0
230
1
50
360
0
POINT
5
16C
100
AcDbEntity
8
Defpoints
62
0
6
ByLayer
370
-1
48
1
60
0
100
AcDbPoint
10
14
20
-5
30
0
39
0
210
0
220
0
230
1
50
360
0
POINT
5
16D
100
AcDbEntity
8
Defpoints
62
0
6
ByLayer
370
-1
48
1
60
0
100
AcDbPoint
10
14
20
-34.539642
30
0
39
0
210
0
220
0
230
1
50
360
0
ENDBLK
5
164
100
AcDbEntity
8
0
100
AcDbBlockEnd
0
BLOCK
5
177
100
AcDbEntity
8
0
100
AcDbBlockBegin
2
_U2
70
0
10
0
20
0
30
0
3
_U2
0
MTEXT
5
16F
100
AcDbEntity
8
SK2
62
256
6
ByLayer
370
18
48
1
60
0
100
AcDbMText
10
36.410767
20
-33.507008
30
0
210
0
220
0
230
1
1
\W0.7565;49
40
3.5
41
0
44
1.084337
50
0
71
7
72
5
7
iso_b_vert
0
MTEXT
5
170
100
AcDbEntity
8
SK2
62
256
6
ByLayer
370
18
48
1
60
0
100
AcDbMText
10
32.542768
20
-33.507008
30
0
210
0
220
0
230
1
1
\W0.1790;(
40
3.5
41
0
44
1.084337
50
0
71
7
72
5
7
iso_b_vert
0
MTEXT
5
171
100
AcDbEntity
8
SK2
62
256
6
ByLayer
370
18
48
1
60
0
100
AcDbMText
10
44.460233
20
-33.507008
30
0
210
0
220
0
230
1
1
\W0.1969;)
40
3.5
41
0
44
1.084337
50
0
71
7
72
5
7
iso_b_vert
0
LINE
5
172
100
AcDbEntity
8
SK2
62
256
6
ByLayer
370
13
48
1
60
0
100
AcDbLine
10
63
20
-6.5875
30
0
11
63
21
-36.539642
31
0
39
0
210
0
220
0
230
1
0
LINE
5
173
100
AcDbEntity
8
SK2
62
256
6
ByLayer
370
13
48
1
60
0
100
AcDbLine
10
14
20
-6.5875
30
0
11
14
21
-36.539642
31
0
39
0
210
0
220
0
230
1
0
LINE
5
174
100
AcDbEntity
8
SK2
62
256
6
ByLayer
370
13
48
1
60
0
100
AcDbLine
10
63
20
-34.539642
30
0
11
14
21
-34.539642
31
0
39
0
210
0
220
0
230
1
0
SOLID
5
175
100
AcDbEntity
8
SK2
62
256
6
ByLayer
370
18
48
1
60
0
100
AcDbTrace
10
63
20
-34.539642
30
0
11
59.500002
21
-35.000426
31
0
12
59.499998
22
-34.078858
32
0
13
59.499998
23
-34.078858
33
0
39
0
210
0
220
0
230
1
0
SOLID
5
176
100
AcDbEntity
8
SK2
62
256
6
ByLayer
370
18
48
1
60
0
100
AcDbTrace
10
14
20
-34.539642
30
0
11
17.499998
21
-34.078858
31
0
12
17.500002
22
-35.000426
32
0
13
17.500002
23
-35.000426
33
0
39
0
210
0
220
0
230
1
0
ENDBLK
5
178
100
AcDbEntity
8
0
100
AcDbBlockEnd
0
BLOCK
5
17D
100
AcDbEntity
8
0
100
AcDbBlockBegin
2
*D7
70
1
10
0
20
0
30
0
3
*D7
0
LINE
5
17F
100
AcDbEntity
8
0
62
256
6
ByLayer
370
-2
48
1
60
0
100
AcDbLine
10
-40
20
-6.5875
30
0
11
-40
21
-46.539642
31
0
39
0
210
0
220
0
230
1
0
LINE
5
180
100
AcDbEntity
8
0
62
256
6
ByLayer
370
-2
48
1
60
0
100
AcDbLine
10
0
20
-6.5875
30
0
11
0
21
-46.539642
31
0
39
0
210
0
220
0
230
1
0
LINE
5
181
100
AcDbEntity
8
0
62
256
6
ByLayer
370
-2
48
1
60
0
100
AcDbLine
10
-36.5
20
-44.539642
30
0
11
-3.5
21
-44.539642
31
0
39
0
210
0
220
0
230
1
0
SOLID
5
182
100
AcDbEntity
8
0
62
256
6
ByLayer
370
-1
48
1
60
0
100
AcDbTrace
10
-36.5
20
-43.956309
30
0
11
-36.5
21
-45.122975
31
0
12
-40
22
-44.539642
32
0
13
-40
23
-44.539642
33
0
39
0
210
0
220
0
230
1
0
SOLID
5
183
100
AcDbEntity
8
0
62
256
6
ByLayer
370
-1
48
1
60
0
100
AcDbTrace
10
-3.5
20
-45.122975
30
0
11
-3.5
21
-43.956309
31
0
12
0
22
-44.539642
32
0
13
0
23
-44.539642
33
0
39
0
210
0
220
0
230
1
0
MTEXT
5
184
100
AcDbEntity
8
0
62
256
6
ByLayer
370
18
48
1
60
0
100
AcDbMText
10
-20
20
-37.539642
30
0
210
0
220
0
230
1
1
\A1;40
40
3.5
41
0
44
1
50
0
71
5
72
5
7
iso_b_vert
0
POINT
5
185
100
AcDbEntity
8
Defpoints
62
0
6
ByLayer
370
-1
48
1
60
0
100
AcDbPoint
10
-40
20
-5
30
0
39
0
210
0
220
0
230
1
50
360
0
POINT
5
186
100
AcDbEntity
8
Defpoints
62
0
6
ByLayer
370
-1
48
1
60
0
100
AcDbPoint
10
0
20
-5
30
0
39
0
210
0
220
0
230
1
50
360
0
POINT
5
187
100
AcDbEntity
8
Defpoints
62
0
6
ByLayer
370
-1
48
1
60
0
100
AcDbPoint
10
0
20
-44.539642
30
0
39
0
210
0
220
0
230
1
50
360
0
ENDBLK
5
17E
100
AcDbEntity
8
0
100
AcDbBlockEnd
0
BLOCK
5
18F
100
AcDbEntity
8
0
100
AcDbBlockBegin
2
_U3
70
0
10
0
20
0
30
0
3
_U3
0
MTEXT
5
189
100
AcDbEntity
8
SK2
62
256
6
ByLayer
370
18
48
1
60
0
100
AcDbMText
10
-22.089233
20
-43.507008
30
0
210
0
220
0
230
1
1
\W0.7361;40
40
3.5
41
0
44
1.084337
50
0
71
7
72
5
7
iso_b_vert
0
LINE
5
18A
100
AcDbEntity
8
SK2
62
256
6
ByLayer
370
13
48
1
60
0
100
AcDbLine
10
-40
20
-6.5875
30
0
11
-40
21
-46.539642
31
0
39
0
210
0
220
0
230
1
0
LINE
5
18B
100
AcDbEntity
8
SK2
62
256
6
ByLayer
370
13
48
1
60
0
100
AcDbLine
10
0
20
-6.5875
30
0
11
0
21
-46.539642
31
0
39
0
210
0
220
0
230
1
0
LINE
5
18C
100
AcDbEntity
8
SK2
62
256
6
ByLayer
370
13
48
1
60
0
100
AcDbLine
10
-40
20
-44.539642
30
0
11
0
21
-44.539642
31
0
39
0
210
0
220
0
230
1
0
SOLID
5
18D
100
AcDbEntity
8
SK2
62
256
6
ByLayer
370
18
48
1
60
0
100
AcDbTrace
10
-40
20
-44.539642
30
0
11
-36.500002
21
-44.078858
31
0
12
-36.499998
22
-45.000426
32
0
13
-36.499998
23
-45.000426
33
0
39
0
210
0
220
0
230
1
0
SOLID
5
18E
100
AcDbEntity
8
SK2
62
256
6
ByLayer
370
18
48
1
60
0
100
AcDbTrace
10
0
20
-44.539642
30
0
11
-3.499998
21
-45.000426
31
0
12
-3.500002
22
-44.078858
32
0
13
-3.500002
23
-44.078858
33
0
39
0
210
0
220
0
230
1
0
ENDBLK
5
190
100
AcDbEntity
8
0
100
AcDbBlockEnd
0
BLOCK
5
195
100
AcDbEntity
8
0
100
AcDbBlockBegin
2
*D9
70
1
10
0
20
0
30
0
3
*D9
0
LINE
5
197
100
AcDbEntity
8
0
62
256
6
ByLayer
370
-2
48
1
60
0
100
AcDbLine
10
0
20
-6.5875
30
0
11
0
21
-56.539642
31
0
39
0
210
0
220
0
230
1
0
LINE
5
198
100
AcDbEntity
8
0
62
256
6
ByLayer
370
-2
48
1
60
0
100
AcDbLine
10
63
20
-6.5875
30
0
11
63
21
-56.539642
31
0
39
0
210
0
220
0
230
1
0
LINE
5
199
100
AcDbEntity
8
0
62
256
6
ByLayer
370
-2
48
1
60
0
100
AcDbLine
10
3.5
20
-54.539642
30
0
11
59.5
21
-54.539642
31
0
39
0
210
0
220
0
230
1
0
SOLID
5
19A
100
AcDbEntity
8
0
62
256
6
ByLayer
370
-1
48
1
60
0
100
AcDbTrace
10
3.5
20
-53.956309
30
0
11
3.5
21
-55.122975
31
0
12
0
22
-54.539642
32
0
13
0
23
-54.539642
33
0
39
0
210
0
220
0
230
1
0
SOLID
5
19B
100
AcDbEntity
8
0
62
256
6
ByLayer
370
-1
48
1
60
0
100
AcDbTrace
10
59.5
20
-55.122975
30
0
11
59.5
21
-53.956309
31
0
12
63
22
-54.539642
32
0
13
63
23
-54.539642
33
0
39
0
210
0
220
0
230
1
0
MTEXT
5
19C
100
AcDbEntity
8
0
62
256
6
ByLayer
370
18
48
1
60
0
100
AcDbMText
10
31.5
20
-47.539642
30
0
210
0
220
0
230
1
1
\A1;63
40
3.5
41
0
44
1
50
0
71
5
72
5
7
iso_b_vert
0
POINT
5
19D
100
AcDbEntity
8
Defpoints
62
0
6
ByLayer
370
-1
48
1
60
0
100
AcDbPoint
10
0
20
-5
30
0
39
0
210
0
220
0
230
1
50
360
0
POINT
5
19E
100
AcDbEntity
8
Defpoints
62
0
6
ByLayer
370
-1
48
1
60
0
100
AcDbPoint
10
63
20
-5
30
0
39
0
210
0
220
0
230
1
50
360
0
POINT
5
19F
100
AcDbEntity
8
Defpoints
62
0
6
ByLayer
370
-1
48
1
60
0
100
AcDbPoint
10
63
20
-54.539642
30
0
39
0
210
0
220
0
230
1
50
360
0
ENDBLK
5
196
100
AcDbEntity
8
0
100
AcDbBlockEnd
0
BLOCK
5
1A7
100
AcDbEntity
8
0
100
AcDbBlockBegin
2
_U4
70
0
10
0
20
0
30
0
3
_U4
0
MTEXT
5
1A1
100
AcDbEntity
8
SK2
62
256
6
ByLayer
370
18
48
1
60
0
100
AcDbMText
10
29.595034
20
-53.507008
30
0
210
0
220
0
230
1
1
\W0.6740;63
40
3.5
41
0
44
1.084337
50
0
71
7
72
5
7
iso_b_vert
0
LINE
5
1A2
100
AcDbEntity
8
SK2
62
256
6
ByLayer
370
13
48
1
60
0
100
AcDbLine
10
0
20
-6.5875
30
0
11
0
21
-56.539642
31
0
39
0
210
0
220
0
230
1
0
LINE
5
1A3
100
AcDbEntity
8
SK2
62
256
6
ByLayer
370
13
48
1
60
0
100
AcDbLine
10
63
20
-6.5875
30
0
11
63
21
-56.539642
31
0
39
0
210
0
220
0
230
1
0
LINE
5
1A4
100
AcDbEntity
8
SK2
62
256
6
ByLayer
370
13
48
1
60
0
100
AcDbLine
10
0
20
-54.539642
30
0
11
63
21
-54.539642
31
0
39
0
210
0
220
0
230
1
0
SOLID
5
1A5
100
AcDbEntity
8
SK2
62
256
6
ByLayer
370
18
48
1
60
0
100
AcDbTrace
10
0
20
-54.539642
30
0
11
3.499998
21
-54.078858
31
0
12
3.500002
22
-55.000426
32
0
13
3.500002
23
-55.000426
33
0
39
0
210
0
220
0
230
1
0
SOLID
5
1A6
100
AcDbEntity
8
SK2
62
256
6
ByLayer
370
18
48
1
60
0
100
AcDbTrace
10
63
20
-54.539642
30
0
11
59.500002
21
-55.000426
31
0
12
59.499998
22
-54.078858
32
0
13
59.499998
23
-54.078858
33
0
39
0
210
0
220
0
230
1
0
ENDBLK
5
1A8
100
AcDbEntity
8
0
100
AcDbBlockEnd
0
ENDSEC
0
SECTION
2
ENTITIES
0
ARC
5
BC
100
AcDbEntity
8
SK2
62
256
6
ByLayer
370
13
48
1
60
0
100
AcDbCircle
39
0
10
63
20
0
30
0
40
33.3473984166477
210
0
220
0
230
1
100
AcDbArc
50
5.59286
51
69.998494
0
ARC
5
BD
100
AcDbEntity
8
SK2
62
256
6
ByLayer
370
13
48
1
60
0
100
AcDbCircle
39
0
10
63
20
0
30
0
40
33.3473984166477
210
0
220
0
230
1
100
AcDbArc
50
290.001506
51
354.40714
0
ELLIPSE
5
BE
100
AcDbEntity
8
1
62
256
6
ByLayer
370
13
48
1
60
0
100
AcDbEllipse
10
3.676877
20
-4.198229
30
0
11
0.0208730018160394
21
-0.0977973302048048
31
0
210
0
220
0
230
1
40
0.592921
41
-2.5746588679219
42
-1.25798381270416
0
ELLIPSE
5
BF
100
AcDbEntity
8
1
62
256
6
ByLayer
370
13
48
1
60
0
100
AcDbEllipse
10
3.750205
20
-4.201578
30
0
11
-0.0262980180474705
21
-0.0964801235839534
31
0
210
0
220
0
230
1
40
0.423643
41
-2.57267739584825
42
-1.01715884535107
0
POINT
5
70
100
AcDbEntity
8
81
62
256
6
ByLayer
370
18
48
1
60
0
100
AcDbPoint
10
63
20
0
30
0
39
0
210
0
220
0
230
1
50
360
0
POINT
5
72
100
AcDbEntity
8
80
62
256
6
ByLayer
370
18
48
1
60
0
100
AcDbPoint
10
0
20
0
30
0
39
0
210
0
220
0
230
1
50
360
0
POINT
5
74
100
AcDbEntity
8
1
62
256
6
ByLayer
370
18
48
1
60
0
100
AcDbPoint
10
-206.501301
20
-200
30
0
39
0
210
0
220
0
230
1
50
360
0
POINT
5
76
100
AcDbEntity
8
1
62
256
6
ByLayer
370
13
48
1
60
1
100
AcDbPoint
10
-41.5
20
0
30
0
39
0
210
0
220
0
230
1
50
360
0
POINT
5
77
100
AcDbEntity
8
1
62
256
6
ByLayer
370
13
48
1
60
1
100
AcDbPoint
10
62.737176
20
0
30
0
39
0
210
0
220
0
230
1
50
360
0
POINT
5
78
100
AcDbEntity
8
1
62
256
6
ByLayer
370
18
48
1
60
1
100
AcDbPoint
10
-40
20
-5
30
0
39
0
210
0
220
0
230
1
50
360
0
POINT
5
79
100
AcDbEntity
8
1
62
256
6
ByLayer
370
18
48
1
60
1
100
AcDbPoint
10
63
20
-5
30
0
39
0
210
0
220
0
230
1
50
360
0
POINT
5
7A
100
AcDbEntity
8
1
62
256
6
ByLayer
370
18
48
1
60
1
100
AcDbPoint
10
63
20
-5
30
0
39
0
210
0
220
0
230
1
50
360
0
POINT
5
7B
100
AcDbEntity
8
1
62
256
6
ByLayer
370
18
48
1
60
1
100
AcDbPoint
10
2
20
-5
30
0
39
0
210
0
220
0
230
1
50
360
0
POINT
5
7C
100
AcDbEntity
8
1
62
256
6
ByLayer
370
18
48
1
60
1
100
AcDbPoint
10
63
20
-5
30
0
39
0
210
0
220
0
230
1
50
360
0
POINT
5
7D
100
AcDbEntity
8
1
62
256
6
ByLayer
370
18
48
1
60
1
100
AcDbPoint
10
14
20
-5
30
0
39
0
210
0
220
0
230
1
50
360
0
POINT
5
7E
100
AcDbEntity
8
1
62
256
6
ByLayer
370
18
48
1
60
1
100
AcDbPoint
10
-40
20
-5
30
0
39
0
210
0
220
0
230
1
50
360
0
POINT
5
7F
100
AcDbEntity
8
1
62
256
6
ByLayer
370
18
48
1
60
1
100
AcDbPoint
10
0
20
-5
30
0
39
0
210
0
220
0
230
1
50
360
0
POINT
5
80
100
AcDbEntity
8
1
62
256
6
ByLayer
370
18
48
1
60
1
100
AcDbPoint
10
0
20
-5
30
0
39
0
210
0
220
0
230
1
50
360
0
POINT
5
81
100
AcDbEntity
8
1
62
256
6
ByLayer
370
18
48
1
60
1
100
AcDbPoint
10
63
20
-5
30
0
39
0
210
0
220
0
230
1
50
360
0
SPLINE
5
C0
100
AcDbEntity
8
1
62
256
6
ByLayer
370
18
48
1
60
0
100
AcDbSpline
70
4
71
3
72
8
73
4
40
0
40
0
40
0
40
0
40
1
40
1
40
1
40
1
41
1
10
62.5417608721069
20
1.59710219707179
30
0
41
1
10
62.6972976955499
20
1.15830588039563
30
0
41
1
10
62.848529628072
20
0.717962160578765
30
0
41
1
10
62.9953891699996
20
0.276046774705208
30
0
0
SPLINE
5
C1
100
AcDbEntity
8
1
62
256
6
ByLayer
370
13
48
1
60
0
100
AcDbSpline
70
4
71
3
72
21
73
17
40
0
40
0
40
0
40
0
40
0.249999999999967
40
0.249999999999967
40
0.374999999999974
40
0.374999999999974
40
0.499999999999981
40
0.624999999999987
40
0.624999999999987
40
0.749999999999994
40
0.749999999999994
40
0.875000000000001
40
0.875000000000001
40
0.9375
40
0.9375
40
1
40
1
40
1
40
1
41
1
10
3.62812802553279
20
-4.24010035570927
30
0
41
1
10
3.60733610611521
20
-4.24053736294803
30
0
41
1
10
3.58912913134753
20
-4.24105059779356
30
0
41
1
10
3.56513768503496
20
-4.24189079250846
30
0
41
1
10
3.55766789169277
20
-4.24218485976454
30
0
41
1
10
3.54423277147316
20
-4.24277500039028
30
0
41
1
10
3.53219419430715
20
-4.24337019688863
30
0
41
1
10
3.52275411749469
20
-4.24396737318571
30
0
41
1
10
3.51458792949808
20
-4.24456246568389
30
0
41
1
10
3.51113177906464
20
-4.24486034503298
30
0
41
1
10
3.50561321265289
20
-4.24544197281719
30
0
41
1
10
3.50353521158399
20
-4.24572652675471
30
0
41
1
10
3.5014376230728
20
-4.24614210911878
30
0
41
1
10
3.50091015982639
20
-4.24627845810286
30
0
41
1
10
3.50019771538487
20
-4.24654674297506
30
0
41
1
10
3.50001372770976
20
-4.24667928404398
30
0
41
1
10
3.50000075377051
20
-4.24680711882374
30
0
0
SPLINE
5
C2
100
AcDbEntity
8
1
62
256
6
ByLayer
370
18
48
1
60
0
100
AcDbSpline
70
4
71
3
72
22
73
18
40
0
40
0
40
0
40
0
40
0.499999999999983
40
0.499999999999983
40
0.749999999999993
40
0.749999999999993
40
0.874999999999996
40
0.937499999999998
40
0.937499999999998
40
0.968750000000001
40
0.968750000000001
40
0.984375000000003
40
0.984375000000003
40
0.992187500000024
40
0.996093750000012
40
0.996093750000012
40
1
40
1
40
1
40
1
41
1
10
61.1818989110254
20
4.99995715258501
30
0
41
1
10
61.2000636949679
20
4.95867838220093
30
0
41
1
10
61.2185890494254
20
4.91739575747576
30
0
41
1
10
61.2469121741045
20
4.85545465949494
30
0
41
1
10
61.2564421443518
20
4.83480528457096
30
0
41
1
10
61.2708877418584
20
4.80375473240269
30
0
41
1
10
61.2781455677087
20
4.78822063962909
30
0
41
1
10
61.2854280385404
20
4.77278359094848
30
0
41
1
10
61.2890709005718
20
4.76509114874327
30
0
41
1
10
61.2902820179597
20
4.76254492519371
30
0
41
1
10
61.2921136724806
20
4.75867449933406
30
0
41
1
10
61.2927286857226
20
4.757368096721
30
0
41
1
10
61.2936575140764
20
4.75538558166289
30
0
41
1
10
61.2941218872488
20
4.7543949801348
30
0
41
1
10
61.2945712037378
20
4.75346457816102
30
0
41
1
10
61.2948640337995
20
4.75287099249377
30
0
41
1
10
61.2950206630721
20
4.75255217431234
30
0
41
1
10
61.295120441631
20
4.75241384469453
30
0
0
SPLINE
5
C3
100
AcDbEntity
8
1
62
256
6
ByLayer
370
18
48
1
60
0
100
AcDbSpline
70
2053
71
3
72
119
73
115
40
0
40
0
40
0
40
0
40
0.0312499999999889
40
0.0312499999999889
40
0.0624999999999777
40
0.0624999999999777
40
0.0937499999999666
40
0.0937499999999666
40
0.124999999999956
40
0.124999999999956
40
0.140624999999952
40
0.140624999999952
40
0.156249999999947
40
0.156249999999947
40
0.187499999999937
40
0.187499999999937
40
0.195312499999934
40
0.195312499999934
40
0.203124999999932
40
0.218749999999925
40
0.218749999999925
40
0.249999999999913
40
0.249999999999913
40
0.25781249999991
40
0.25781249999991
40
0.265624999999908
40
0.281249999999903
40
0.296874999999899
40
0.296874999999899
40
0.304687499999896
40
0.304687499999896
40
0.312499999999894
40
0.312499999999894
40
0.343749999999886
40
0.343749999999886
40
0.351562499999884
40
0.351562499999884
40
0.359374999999882
40
0.359374999999882
40
0.374999999999879
40
0.390624999999876
40
0.390624999999876
40
0.406249999999873
40
0.406249999999873
40
0.437499999999869
40
0.437499999999869
40
0.445312499999868
40
0.445312499999868
40
0.453124999999867
40
0.468749999999865
40
0.484374999999863
40
0.484374999999863
40
0.492187499999862
40
0.492187499999862
40
0.499999999999861
40
0.499999999999861
40
0.531249999999866
40
0.531249999999866
40
0.546874999999869
40
0.546874999999869
40
0.562499999999871
40
0.562499999999871
40
0.593749999999879
40
0.593749999999879
40
0.609374999999884
40
0.609374999999884
40
0.624999999999888
40
0.624999999999888
40
0.656249999999893
40
0.656249999999893
40
0.671874999999893
40
0.671874999999893
40
0.679687499999894
40
0.679687499999894
40
0.687499999999894
40
0.687499999999894
40
0.718749999999901
40
0.718749999999901
40
0.726562499999903
40
0.726562499999903
40
0.734374999999905
40
0.734374999999905
40
0.74999999999991
40
0.765624999999915
40
0.765624999999915
40
0.773437499999918
40
0.773437499999918
40
0.78124999999992
40
0.78124999999992
40
0.81249999999993
40
0.81249999999993
40
0.820312499999933
40
0.820312499999933
40
0.828124999999936
40
0.828124999999936
40
0.843749999999944
40
0.859374999999951
40
0.859374999999951
40
0.867187499999954
40
0.867187499999954
40
0.874999999999956
40
0.874999999999956
40
0.906249999999966
40
0.906249999999966
40
0.937499999999976
40
0.937499999999976
40
0.953124999999981
40
0.953124999999981
40
0.968749999999986
40
0.984374999999991
40
0.984374999999991
40
0.992187499999996
40
0.992187499999996
40
1
40
1
40
1
40
1
41
1
10
61.7649927224244
20
-1.90628133353506
30
0
41
1
10
61.7478621605139
20
-1.92621504099196
30
0
41
1
10
61.7312865891378
20
-1.94248529318935
30
0
41
1
10
61.6990450887733
20
-1.96820282708811
30
0
41
1
10
61.6833803677509
20
-1.97764645339851
30
0
41
1
10
61.6528149713221
20
-1.98948095207913
30
0
41
1
10
61.6383033385503
20
-1.99171219249794
30
0
41
1
10
61.6106708994756
20
-1.9890271516557
30
0
41
1
10
61.5975333158489
20
-1.98411859199666
30
0
41
1
10
61.5787489610208
20
-1.97108174342765
30
0
41
1
10
61.5727062516639
20
-1.9658244833364
30
0
41
1
10
61.5611062944458
20
-1.95357892729297
30
0
41
1
10
61.5555360098589
20
-1.94658170767798
30
0
41
1
10
61.5394847712502
20
-1.92295660750639
30
0
41
1
10
61.5296557321859
20
-1.90372154671402
30
0
41
1
10
61.5184690548103
20
-1.87493729741715
30
0
41
1
10
61.5162872196066
20
-1.86893812214765
30
0
41
1
10
61.5120830017831
20
-1.85658819515808
30
0
41
1
10
61.5059978514155
20
-1.83748722139836
30
0
41
1
10
61.5005646261851
20
-1.81667293659052
30
0
41
1
10
61.4905716492143
20
-1.77273129959559
30
0
41
1
10
61.4850596377426
20
-1.74038218126165
30
0
41
1
10
61.4798097653741
20
-1.69565831172926
30
0
41
1
10
61.4788473217188
20
-1.68652799805898
30
0
41
1
10
61.4771163284818
20
-1.66805791218931
30
0
41
1
10
61.4748037379608
20
-1.63996651121263
30
0
41
1
10
61.4723739075523
20
-1.59122882199833
30
0
41
1
10
61.4720267233115
20
-1.55014873268129
30
0
41
1
10
61.4724215690521
20
-1.51851027643164
30
0
41
1
10
61.4726626944882
20
-1.50782574745833
30
0
41
1
10
61.4733776791985
20
-1.48616812780162
30
0
41
1
10
61.4738522245263
20
-1.47520695931473
30
0
41
1
10
61.4767906548976
20
-1.42049330546902
30
0
41
1
10
61.4809478309594
20
-1.3763794958266
30
0
41
1
10
61.4886510941043
20
-1.32082175585788
30
0
41
1
10
61.4903184794793
20
-1.30968921489694
30
0
41
1
10
61.4939189622293
20
-1.28738156729292
30
0
41
1
10
61.4958587635035
20
-1.27617433758709
30
0
41
1
10
61.5020062852777
20
-1.24296654868019
30
0
41
1
10
61.5111116453457
20
-1.19953300252888
30
0
41
1
10
61.5220404694364
20
-1.15774089642187
30
0
41
1
10
61.5339091622292
20
-1.11677277898644
30
0
41
1
10
61.5403557637536
20
-1.09659528933238
30
0
41
1
10
61.5606701230566
20
-1.03872023129935
30
0
41
1
10
61.5755879594409
20
-1.00327717609267
30
0
41
1
10
61.595885673905
20
-0.962597424638432
30
0
41
1
10
61.6000381500527
20
-0.954627503821882
30
0
41
1
10
61.6084261488473
20
-0.939201315339403
30
0
41
1
10
61.6211533965944
20
-0.916790178268371
30
0
41
1
10
61.643061605781
20
-0.882905894052527
30
0
41
1
10
61.6612841205303
20
-0.859276008253062
30
0
41
1
10
61.6751988131923
20
-0.842813351646271
30
0
41
1
10
61.6798836578128
20
-0.837531536497607
30
0
41
1
10
61.6892536141538
20
-0.827467968443131
30
0
41
1
10
61.6939480800098
20
-0.822674524964384
30
0
41
1
10
61.7174626466987
20
-0.799853465086983
30
0
41
1
10
61.7364097629637
20
-0.785232207150926
30
0
41
1
10
61.7649319918648
20
-0.768305374949392
30
0
41
1
10
61.7744918412945
20
-0.763491461484563
30
0
41
1
10
61.7933928494363
20
-0.755626036626325
30
0
41
1
10
61.8027434848837
20
-0.752561446980195
30
0
41
1
10
61.830479633753
20
-0.745859173349146
30
0
41
1
10
61.8485525894835
20
-0.744692153306346
30
0
41
1
10
61.8749162319024
20
-0.747849380739353
30
0
41
1
10
61.8836129102422
20
-0.749738529128479
30
0
41
1
10
61.9005121329147
20
-0.755144116820134
30
0
41
1
10
61.9087208439535
20
-0.758652779066637
30
0
41
1
10
61.9326005723076
20
-0.771571670465249
30
0
41
1
10
61.9475321284912
20
-0.783351843945582
30
0
41
1
10
61.9682402535261
20
-0.806068699085529
30
0
41
1
10
61.9748598540704
20
-0.814487441671986
30
0
41
1
10
61.9843202031173
20
-0.828481845089499
30
0
41
1
10
61.9873926014349
20
-0.833373005819766
30
0
41
1
10
61.9933150780947
20
-0.843527028469765
30
0
41
1
10
61.9961728342881
20
-0.848800821379314
30
0
41
1
10
62.0099346124136
20
-0.876164767904584
30
0
41
1
10
62.019273105986
20
-0.901205778251381
30
0
41
1
10
62.028562023059
20
-0.936937607570826
30
0
41
1
10
62.0302995594693
20
-0.944307772694202
30
0
41
1
10
62.0335219739143
20
-0.959518413907603
30
0
41
1
10
62.0350049306569
20
-0.96735621511101
30
0
41
1
10
62.0390122100939
20
-0.991320273801762
30
0
41
1
10
62.04321709541
20
-1.02464673019475
30
0
41
1
10
62.0450879369399
20
-1.06081259006947
30
0
41
1
10
62.045569254782
20
-1.08907359270555
30
0
41
1
10
62.0455757907935
20
-1.09868376872299
30
0
41
1
10
62.0452695475145
20
-1.11830148879747
30
0
41
1
10
62.0449560499592
20
-1.12827990571819
30
0
41
1
10
62.0426095308805
20
-1.17847918268464
30
0
41
1
10
62.0382555001205
20
-1.22010056488185
30
0
41
1
10
62.0297696554081
20
-1.27404262988546
30
0
41
1
10
62.0279189730678
20
-1.2849278063477
30
0
41
1
10
62.0239061966332
20
-1.30689819085191
30
0
41
1
10
62.0217531967974
20
-1.31792904532085
30
0
41
1
10
62.0149291878309
20
-1.35085329287284
30
0
41
1
10
62.0048155939179
20
-1.39455259184294
30
0
41
1
10
61.9928145964035
20
-1.43788465619826
30
0
41
1
10
61.9831342392339
20
-1.47025309883165
30
0
41
1
10
61.9797836557199
20
-1.4810513280066
30
0
41
1
10
61.9729377887828
20
-1.50235927024781
30
0
41
1
10
61.969437164135
20
-1.5128892432478
30
0
41
1
10
61.9515695212408
20
-1.56494434393264
30
0
41
1
10
61.9361193605704
20
-1.60471853498731
30
0
41
1
10
61.9032725647742
20
-1.68072484782744
30
0
41
1
10
61.8863979564943
20
-1.71575586696625
30
0
41
1
10
61.8605667092478
20
-1.76434789536816
30
0
41
1
10
61.8518592304407
20
-1.77989385339996
30
0
41
1
10
61.8343106115616
20
-1.80960533650949
30
0
41
1
10
61.8168315169505
20
-1.83759655866828
30
0
41
1
10
61.7994843022488
20
-1.86233848527155
30
0
41
1
10
61.7865183919054
20
-1.87970810276158
30
0
41
1
10
61.7822038154995
20
-1.88529978559055
30
0
41
1
10
61.773588339331
20
-1.89608766117806
30
0
41
1
10
61.769275362902
20
-1.90129790667083
30
0
41
1
10
61.7649927224244
20
-1.90628133353506
30
0
0
SPLINE
5
C4
100
AcDbEntity
8
1
62
256
6
ByLayer
370
18
48
1
60
0
100
AcDbSpline
70
4
71
3
72
8
73
4
40
0
40
0
40
0
40
0
40
1
40
1
40
1
40
1
41
1
10
62.5417608721069
20
-1.59710219707179
30
0
41
1
10
62.6972976955521
20
-1.15830588038958
30
0
41
1
10
62.8485296280761
20
-0.717962160566657
30
0
41
1
10
62.9953891700056
20
-0.276046774686961
30
0
0
SPLINE
5
C5
100
AcDbEntity
8
1
62
256
6
ByLayer
370
18
48
1
60
0
100
AcDbSpline
70
4
71
3
72
8
73
4
40
0
40
0
40
0
40
0
40
1
40
1
40
1
40
1
41
1
10
62.9953891699996
20
0.276046774705208
30
0
41
1
10
63.0015438037655
20
0.0918102258902707
30
0
41
1
10
63.0015300980896
20
-0.0922204999160101
30
0
41
1
10
62.9953891700001
20
-0.276046774692276
30
0
0
SPLINE
5
C6
100
AcDbEntity
8
1
62
256
6
ByLayer
370
18
48
1
60
0
100
AcDbSpline
70
4
71
3
72
8
73
4
40
0
40
0
40
0
40
0
40
1
40
1
40
1
40
1
41
1
10
62.9953891699996
20
0.276046774705208
30
0
41
1
10
62.9737919782388
20
0.204061661795009
30
0
41
1
10
62.9520870110788
20
0.132109998165589
30
0
41
1
10
62.9302746697055
20
0.0601916593044791
30
0
0
SPLINE
5
C7
100
AcDbEntity
8
1
62
256
6
ByLayer
370
18
48
1
60
0
100
AcDbSpline
70
4
71
3
72
52
73
48
40
0
40
0
40
0
40
0
40
0.06249999999997
40
0.06249999999997
40
0.12499999999994
40
0.12499999999994
40
0.156249999999929
40
0.156249999999929
40
0.187499999999918
40
0.187499999999918
40
0.249999999999905
40
0.249999999999905
40
0.312499999999892
40
0.312499999999892
40
0.343749999999885
40
0.343749999999885
40
0.374999999999878
40
0.374999999999878
40
0.437499999999875
40
0.437499999999875
40
0.468749999999868
40
0.468749999999868
40
0.48437499999987
40
0.48437499999987
40
0.499999999999872
40
0.499999999999872
40
0.562499999999888
40
0.562499999999888
40
0.593749999999901
40
0.593749999999901
40
0.624999999999914
40
0.624999999999914
40
0.687499999999939
40
0.687499999999939
40
0.718749999999948
40
0.718749999999948
40
0.749999999999957
40
0.749999999999957
40
0.812499999999968
40
0.812499999999968
40
0.874999999999979
40
0.874999999999979
40
0.906249999999984
40
0.906249999999984
40
0.93749999999999
40
0.93749999999999
40
1
40
1
40
1
40
1
41
1
10
62.9302746697055
20
0.0601916593044791
30
0
41
1
10
62.9181730753246
20
0.0202910108340575
30
0
41
1
10
62.905156300006
20
-0.0191486490460306
30
0
41
1
10
62.8772952896106
20
-0.0970925110128178
30
0
41
1
10
62.8624518336987
20
-0.135597144673199
30
0
41
1
10
62.8387621393312
20
-0.192613111307253
30
0
41
1
10
62.8306275014786
20
-0.211494591905676
30
0
41
1
10
62.8138630896889
20
-0.248998006758796
30
0
41
1
10
62.8052474977977
20
-0.26758160844318
30
0
41
1
10
62.7790673360866
20
-0.322034690629721
30
0
41
1
10
62.7610432552727
20
-0.356903197567647
30
0
41
1
10
62.723880200409
20
-0.423684056008966
30
0
41
1
10
62.7047419917681
20
-0.455598348333524
30
0
41
1
10
62.6751556058374
20
-0.501056354239324
30
0
41
1
10
62.6650960726916
20
-0.515872294593265
30
0
41
1
10
62.6450362179613
20
-0.544130965684587
30
0
41
1
10
62.6350128419326
20
-0.557615810241344
30
0
41
1
10
62.6049625602739
20
-0.596159322554428
30
0
41
1
10
62.5849566823715
20
-0.61931636330857
30
0
41
1
10
62.5549693612832
20
-0.650164974666637
30
0
41
1
10
62.5449768841089
20
-0.659797717512504
30
0
41
1
10
62.5299877515105
20
-0.673239314436813
30
0
41
1
10
62.5249905244521
20
-0.677551297075667
30
0
41
1
10
62.5150932217364
20
-0.685754307671289
30
0
41
1
10
62.5101806510473
20
-0.689656837303744
30
0
41
1
10
62.4857914740227
20
-0.708193293280289
30
0
41
1
10
62.466834415301
20
-0.719912366179528
30
0
41
1
10
62.4391212000128
20
-0.733008511595614
30
0
41
1
10
62.4300041536379
20
-0.736624091771631
30
0
41
1
10
62.4119961227537
20
-0.742355905823899
30
0
41
1
10
62.4031170018046
20
-0.744461417819707
30
0
41
1
10
62.3772028429108
20
-0.748491710692946
30
0
41
1
10
62.360741977482
20
-0.748191888078679
30
0
41
1
10
62.3370791327805
20
-0.743611503385381
30
0
41
1
10
62.3293636835707
20
-0.741393750071865
30
0
41
1
10
62.3142522276071
20
-0.735608817996251
30
0
41
1
10
62.3068392031026
20
-0.732027743856662
30
0
41
1
10
62.285319020005
20
-0.719469954509975
30
0
41
1
10
62.2718413141689
20
-0.708668559026705
30
0
41
1
10
62.2463155595195
20
-0.68274150397076
30
0
41
1
10
62.2342689910474
20
-0.667612763425524
30
0
41
1
10
62.2171155312648
20
-0.641917651934165
30
0
41
1
10
62.211551065842
20
-0.63285095817605
30
0
41
1
10
62.2007089085276
20
-0.613741488300576
30
0
41
1
10
62.1954313853696
20
-0.603695527725762
30
0
41
1
10
62.1801098624461
20
-0.572359796938969
30
0
41
1
10
62.1705343482664
20
-0.5498079884199
30
0
41
1
10
62.1615124959595
20
-0.525725183336363
30
0
0
SPLINE
5
C8
100
AcDbEntity
8
1
62
256
6
ByLayer
370
18
48
1
60
0
100
AcDbSpline
70
4
71
3
72
9
73
5
40
0
40
0
40
0
40
0
40
0.5
40
1
40
1
40
1
40
1
41
1
10
62.1615124959596
20
-0.525725183336192
30
0
41
1
10
62.0762857786649
20
-0.298222188307477
30
0
41
1
10
61.8833496112808
20
0.17152726435819
30
0
41
1
10
61.6456755801793
20
0.670614388156224
30
0
41
1
10
61.5158459222343
20
0.927366576052208
30
0
0
SPLINE
5
C9
100
AcDbEntity
8
1
62
256
6
ByLayer
370
18
48
1
60
0
100
AcDbSpline
70
4
71
3
72
22
73
18
40
0
40
0
40
0
40
0
40
0.499999999999982
40
0.499999999999982
40
0.749999999999973
40
0.749999999999973
40
0.874999999999949
40
0.937499999999937
40
0.937499999999937
40
0.968749999999948
40
0.968749999999948
40
0.984374999999951
40
0.984374999999951
40
0.992187499999973
40
0.996093749999986
40
0.996093749999986
40
1
40
1
40
1
40
1
41
1
10
61.1818989110253
20
-4.99995715258507
30
0
41
1
10
61.2000636949408
20
-4.95867838226258
30
0
41
1
10
61.2185890493701
20
-4.91739575759905
30
0
41
1
10
61.2469121740054
20
-4.85545465971072
30
0
41
1
10
61.2564421442376
20
-4.834805284818
30
0
41
1
10
61.2708877417213
20
-4.80375473269638
30
0
41
1
10
61.2781455675605
20
-4.78822063994548
30
0
41
1
10
61.2854280383809
20
-4.77278359128607
30
0
41
1
10
61.2890709004069
20
-4.76509114909118
30
0
41
1
10
61.2902820177932
20
-4.76254492554355
30
0
41
1
10
61.2921136723095
20
-4.75867449969644
30
0
41
1
10
61.2927286855486
20
-4.75736809709292
30
0
41
1
10
61.2936575139013
20
-4.75538558203624
30
0
41
1
10
61.2941218870745
20
-4.75439498050335
30
0
41
1
10
61.2945712035677
20
-4.75346457851145
30
0
41
1
10
61.2948640336351
20
-4.75287099282122
30
0
41
1
10
61.2950206628964
20
-4.75255217465531
30
0
41
1
10
61.2951204415166
20
-4.75241384485312
30
0
0
SPLINE
5
CA
100
AcDbEntity
8
1
62
256
6
ByLayer
370
18
48
1
60
0
100
AcDbSpline
70
4
71
3
72
30
73
26
40
0
40
0
40
0
40
0
40
0.25
40
0.25
40
0.374999999999998
40
0.374999999999998
40
0.499999999999996
40
0.499999999999996
40
0.624999999999993
40
0.624999999999993
40
0.656249999999994
40
0.656249999999994
40
0.687499999999994
40
0.687499999999994
40
0.749999999999995
40
0.749999999999995
40
0.812499999999997
40
0.812499999999997
40
0.874999999999998
40
0.874999999999998
40
0.937499999999999
40
0.937499999999999
40
0.968749999999999
40
0.968749999999999
40
1
40
1
40
1
40
1
41
1
10
61.2951204414851
20
-4.75241384489419
30
0
41
1
10
61.3919740254528
20
-4.4865120183191
30
0
41
1
10
61.4878797805034
20
-4.21827001270285
30
0
41
1
10
61.6328653812812
20
-3.81381461884297
30
0
41
1
10
61.6813732515688
20
-3.67867189773563
30
0
41
1
10
61.7788218074561
20
-3.40846136165126
30
0
41
1
10
61.8277996381415
20
-3.27329266557123
30
0
41
1
10
61.9264760894257
20
-3.00312101332452
30
0
41
1
10
61.9761575104354
20
-2.8681530917234
30
0
41
1
10
62.0387827132074
20
-2.6996276073088
30
0
41
1
10
62.0512979948512
20
-2.66591906615483
30
0
41
1
10
62.0767087710034
20
-2.59863594940799
30
0
41
1
10
62.0895890330348
20
-2.56502577777613
30
0
41
1
10
62.1285840993302
20
-2.46493772757694
30
0
41
1
10
62.155104314838
20
-2.39902886484884
30
0
41
1
10
62.2093909306618
20
-2.26891891696869
30
0
41
1
10
62.23716131579
20
-2.20472369643616
30
0
41
1
10
62.294091623263
20
-2.07804754856193
30
0
41
1
10
62.3232439660353
20
-2.01555553362056
30
0
41
1
10
62.3830886415969
20
-1.89233004042867
30
0
41
1
10
62.4137860666757
20
-1.83160440271598
30
0
41
1
10
62.4611391107757
20
-1.74193265444609
30
0
41
1
10
62.4771134654662
20
-1.71233269931869
30
0
41
1
10
62.5092503238058
20
-1.65408774158559
30
0
41
1
10
62.5254421042371
20
-1.62538881889262
30
0
41
1
10
62.5417608721069
20
-1.59710219707188
30
0
0
SPLINE
5
CB
100
AcDbEntity
8
1
62
256
6
ByLayer
370
18
48
1
60
0
100
AcDbSpline
70
4
71
3
72
95
73
91
40
0
40
0
40
0
40
0
40
0.0052904808335693
40
0.0052904808335693
40
0.0300123592359296
40
0.0300123592359296
40
0.0547342376382898
40
0.0547342376382898
40
0.0794561160406501
40
0.0794561160406501
40
0.10417799444301
40
0.10417799444301
40
0.128899872845371
40
0.128899872845371
40
0.141260812046551
40
0.141260812046551
40
0.153621751247731
40
0.153621751247731
40
0.17834362965009
40
0.17834362965009
40
0.203065508052449
40
0.203065508052449
40
0.227787386454808
40
0.227787386454808
40
0.277231143259526
40
0.277231143259526
40
0.301953021661885
40
0.301953021661885
40
0.326674900064244
40
0.326674900064244
40
0.351396778466603
40
0.351396778466603
40
0.376118656868962
40
0.376118656868962
40
0.388479596070141
40
0.388479596070141
40
0.400840535271321
40
0.400840535271321
40
0.425562413673678
40
0.425562413673678
40
0.475006170478395
40
0.475006170478395
40
0.487367109679574
40
0.487367109679574
40
0.499728048880753
40
0.499728048880753
40
0.524449927283112
40
0.524449927283112
40
0.573893684087828
40
0.573893684087828
40
0.598615562490187
40
0.598615562490187
40
0.610976501691366
40
0.610976501691366
40
0.623337440892545
40
0.623337440892545
40
0.648059319294903
40
0.648059319294903
40
0.67278119769726
40
0.67278119769726
40
0.722224954501976
40
0.722224954501976
40
0.734585893703155
40
0.734585893703155
40
0.746946832904333
40
0.746946832904333
40
0.771668711306692
40
0.771668711306692
40
0.784029650507872
40
0.784029650507872
40
0.796390589709052
40
0.82111246811141
40
0.82111246811141
40
0.84583434651377
40
0.84583434651377
40
0.870556224916129
40
0.870556224916129
40
0.882917164117308
40
0.882917164117308
40
0.895278103318488
40
0.895278103318488
40
0.919999981720847
40
0.919999981720847
40
0.944721860123206
40
0.944721860123206
40
0.957082799324386
40
0.957082799324386
40
0.969443738525566
40
0.969443738525566
40
1
40
1
40
1
40
1
41
1
10
52.2201211263358
20
-2.57907127746447
30
0
41
1
10
52.1763727640745
20
-2.55885837336825
30
0
41
1
10
52.1326174349463
20
-2.5385449608757
30
0
41
1
10
51.8843482028614
20
-2.42275413646854
30
0
41
1
10
51.6796556067276
20
-2.32522714878567
30
0
41
1
10
51.2697172952683
20
-2.12614571704197
30
0
41
1
10
51.0649984538052
20
-2.02485905774535
30
0
41
1
10
50.6559354974438
20
-1.81923207531619
30
0
41
1
10
50.4515691093556
20
-1.71488643130411
30
0
41
1
10
50.0429856595764
20
-1.50346497447188
30
0
41
1
10
49.8387706678294
20
-1.3963890383479
30
0
41
1
10
49.4301303575601
20
-1.18012712829253
30
0
41
1
10
49.225722582168
20
-1.07091567917661
30
0
41
1
10
48.9188286258534
20
-0.905753084251899
30
0
41
1
10
48.8164825111581
20
-0.850476150789632
30
0
41
1
10
48.611666186646
20
-0.739523932515283
30
0
41
1
10
48.5091712055648
20
-0.683836254932146
30
0
41
1
10
48.2017035732596
20
-0.516386346081703
30
0
41
1
10
47.9967128136136
20
-0.404220631078004
30
0
41
1
10
47.5868596821639
20
-0.179305201852372
30
0
41
1
10
47.3818871873114
20
-0.0665320262357341
30
0
41
1
10
46.9722536248645
20
0.158588616410498
30
0
41
1
10
46.7675914605433
20
0.271004000355617
30
0
41
1
10
46.1537361215023
20
0.607213917728444
30
0
41
1
10
45.7446401219831
20
0.829910654798539
30
0
41
1
10
45.1299750038865
20
1.15954391650939
30
0
41
1
10
44.9249931380415
20
1.26860770704448
30
0
41
1
10
44.5150672121448
20
1.48425511724676
30
0
41
1
10
44.310178765868
20
1.59087400999414
30
0
41
1
10
43.9004099840752
20
1.80125309424307
30
0
41
1
10
43.6954806868036
20
1.90503992746017
30
0
41
1
10
43.2855269962234
20
2.10928698435927
30
0
41
1
10
43.0805481330753
20
2.2097463389533
30
0
41
1
10
42.7731543937917
20
2.35756053105337
30
0
41
1
10
42.6707039570096
20
2.40634436567561
30
0
41
1
10
42.4657825887766
20
2.50285563224281
30
0
41
1
10
42.3632866219932
20
2.55059099842651
30
0
41
1
10
42.0559322816427
20
2.69209197973964
30
0
41
1
10
41.8512489754118
20
2.7841317082455
30
0
41
1
10
41.2374869031079
20
3.05291109053025
30
0
41
1
10
40.8286783011001
20
3.22229523490762
30
0
41
1
10
40.3170776271802
20
3.42037879809729
30
0
41
1
10
40.214723212153
20
3.4593049362615
30
0
41
1
10
40.0098996894181
20
3.53570351957706
30
0
41
1
10
39.9073889967803
20
3.57319561307514
30
0
41
1
10
39.6000578519719
20
3.68333605730268
30
0
41
1
10
39.3954424147003
20
3.75363662763391
30
0
41
1
10
38.7820798901453
20
3.95473948907073
30
0
41
1
10
38.3737994146739
20
4.07575708491717
30
0
41
1
10
37.7609711592757
20
4.23654951891282
30
0
41
1
10
37.5565869496087
20
4.28662812472112
30
0
41
1
10
37.2497060672004
20
4.3563303328813
30
0
41
1
10
37.1473614412128
20
4.37866020352988
30
0
41
1
10
36.9425393296956
20
4.42148696744925
30
0
41
1
10
36.840030147538
20
4.44199036717401
30
0
41
1
10
36.5328179623664
20
4.50061943806742
30
0
41
1
10
36.3282632436402
20
4.53589482353345
30
0
41
1
10
35.9194399503886
20
4.59881099696116
30
0
41
1
10
35.7151937589367
20
4.626475568085
30
0
41
1
10
35.1024849407049
20
4.69784002832097
30
0
41
1
10
34.69400761997
20
4.72988743990618
30
0
41
1
10
34.1823705366002
20
4.75013005237972
30
0
41
1
10
34.079988800684
20
4.75318597333683
30
0
41
1
10
33.8750877440475
20
4.75730752380895
30
0
41
1
10
33.7725764517428
20
4.75837244218769
30
0
41
1
10
33.4651300743664
20
4.75857547229799
30
0
41
1
10
33.2602425099751
20
4.75472718282356
30
0
41
1
10
32.9528466594382
20
4.74298259610356
30
0
41
1
10
32.8503449781105
20
4.7380680808848
30
0
41
1
10
32.6455020376129
20
4.72626109208386
30
0
41
1
10
32.3384111927498
20
4.70558413114554
30
0
41
1
10
32.0317125557929
20
4.67602835869207
30
0
41
1
10
31.6228968745303
20
4.62878041194207
30
0
41
1
10
31.4185372772307
20
4.60124973381031
30
0
41
1
10
31.0097311317501
20
4.5385307787798
30
0
41
1
10
30.8052935816113
20
4.50334146852228
30
0
41
1
10
30.4983108980118
20
4.4449244566415
30
0
41
1
10
30.3959298749709
20
4.42451303682481
30
0
41
1
10
30.1910469926205
20
4.38182733950924
30
0
41
1
10
30.0885416485192
20
4.35955188608256
30
0
41
1
10
29.7810841667304
20
4.29001924428911
30
0
41
1
10
29.5761095769335
20
4.24003806763878
30
0
41
1
10
29.166159207196
20
4.13303371438465
30
0
41
1
10
28.9611668733232
20
4.07600570494969
30
0
41
1
10
28.6537872050787
20
3.98534127856453
30
0
41
1
10
28.5513406062072
20
3.95426995893283
30
0
41
1
10
28.3464274443656
20
3.89047741363143
30
0
41
1
10
28.2439417538949
20
3.85775045868999
30
0
41
1
10
27.8883500830037
20
3.74143317817669
30
0
41
1
10
27.6355012987328
20
3.65382574006208
30
0
41
1
10
27.382761265015
20
3.56169202788956
30
0
0
SPLINE
5
CC
100
AcDbEntity
8
1
62
256
6
ByLayer
370
18
48
1
60
0
100
AcDbSpline
70
4
71
3
72
72
73
68
40
0
40
0
40
0
40
0
40
0.0026973583707797
40
0.0026973583707797
40
0.0196601601944758
40
0.0196601601944758
40
0.0535857638418679
40
0.0535857638418679
40
0.070548565665564
40
0.070548565665564
40
0.08751136748926
40
0.08751136748926
40
0.121436971136652
40
0.121436971136652
40
0.1299183720485
40
0.1299183720485
40
0.132038722276462
40
0.133098897390443
40
0.133628984947434
40
0.133894028725929
40
0.134026550615177
40
0.134026550615177
40
0.134159072504424
40
0.134159072504424
40
0.134424116282919
40
0.134424116282919
40
0.134689160061415
40
0.134689160061415
40
0.135219247618405
40
0.135219247618405
40
0.136279422732386
40
0.136279422732386
40
0.138399772960348
40
0.138399772960348
40
0.155362574784042
40
0.155362574784042
40
0.18928817843143
40
0.18928817843143
40
0.257139385726206
40
0.257139385726206
40
0.392841800315758
40
0.392841800315758
40
0.460693007610535
40
0.460693007610535
40
0.494618611257923
40
0.494618611257923
40
0.511581413081617
40
0.511581413081617
40
0.520062813993464
40
0.520062813993464
40
0.524303514449387
40
0.524303514449387
40
0.526423864677349
40
0.526423864677349
40
0.526688908455844
40
0.526688908455844
40
0.526821430345092
40
0.526821430345092
40
0.52695395223434
40
0.52695395223434
40
0.52748403979133
40
0.528544214905311
40
0.664246629494841
40
0.664246629494841
40
0.79994904408437
40
0.79994904408437
40
1
40
1
40
1
40
1
41
1
10
9.58332737720363
20
4.62130056776266
30
0
41
1
10
9.57735835507333
20
4.61075239381884
30
0
41
1
10
9.57140105625891
20
4.60012243889904
30
0
41
1
10
9.52807517127775
20
4.52208883593696
30
0
41
1
10
9.49123057377665
20
4.45147200164041
30
0
41
1
10
9.37451730207459
20
4.23510480922306
30
0
41
1
10
9.29132467027685
20
4.08301087874497
30
0
41
1
10
9.16153570067974
20
3.84098343960599
30
0
41
1
10
9.11741482838238
20
3.75799682714256
30
0
41
1
10
9.02774310893363
20
3.58704227390302
30
0
41
1
10
8.98124341467931
20
3.49944631097213
30
0
41
1
10
8.83696943537728
20
3.23440304598046
30
0
41
1
10
8.73582487553665
20
3.05293859283523
30
0
41
1
10
8.60115870015221
20
2.82159745065564
30
0
41
1
10
8.57390564760669
20
2.77514389362509
30
0
41
1
10
8.53948877192781
20
2.71681371407007
30
0
41
1
10
8.52913713034664
20
2.69929449257671
30
0
41
1
10
8.5170168139864
20
2.67882180071541
30
0
41
1
10
8.51094622469361
20
2.66857732240206
30
0
41
1
10
8.507908341015
20
2.66345302699554
30
0
41
1
10
8.50660583935976
20
2.66125645946707
30
0
41
1
10
8.50573738299258
20
2.65979198354268
30
0
41
1
10
8.50506184881419
20
2.65910327212291
30
0
41
1
10
8.50527236614928
20
2.65644819870775
30
0
41
1
10
8.50699693426867
20
2.65524441715891
30
0
41
1
10
8.50961308364876
20
2.65285822644643
30
0
41
1
10
8.5109808317294
20
2.65174915143115
30
0
41
1
10
8.51513333127423
20
2.64849130047725
30
0
41
1
10
8.51797783296735
20
2.64642529450543
30
0
41
1
10
8.52656897636413
20
2.64031776739873
30
0
41
1
10
8.53238057745943
20
2.63638787683587
30
0
41
1
10
8.54988379821535
20
2.62471399791997
30
0
41
1
10
8.56165902008172
20
2.61711021407561
30
0
41
1
10
8.66787688401357
20
2.54911322304233
30
0
41
1
10
8.7635034050287
20
2.49093304625424
30
0
41
1
10
9.04997280937667
20
2.31592936767987
30
0
41
1
10
9.2413870659866
20
2.2004070801672
30
0
41
1
10
9.81554666550838
20
1.85474304166874
30
0
41
1
10
10.198406406977
20
1.62607008543409
30
0
41
1
10
11.3462894489429
20
0.944232061901687
30
0
41
1
10
12.1105065227276
20
0.494850757560641
30
0
41
1
10
13.2566730823363
20
-0.168571561577068
30
0
41
1
10
13.6385989168263
20
-0.387875256884001
30
0
41
1
10
14.2109571978252
20
-0.714483836872404
30
0
41
1
10
14.4016923700169
20
-0.822933376349056
30
0
41
1
10
14.6874103945001
20
-0.985183829605603
30
0
41
1
10
14.7825989221041
20
-1.03918809877675
30
0
41
1
10
14.9250037608981
20
-1.12034007131388
30
0
41
1
10
14.9724218978196
20
-1.14740405686928
30
0
41
1
10
15.0432390515225
20
-1.18821530750401
30
0
41
1
10
15.0668208197499
20
-1.20183188198959
30
0
41
1
10
15.101817916547
20
-1.22255839336251
30
0
41
1
10
15.1136410702433
20
-1.22934355079386
30
0
41
1
10
15.1259592982068
20
-1.2377716960672
30
0
41
1
10
15.1273296993625
20
-1.23871706687231
30
0
41
1
10
15.1290905011106
20
-1.24024851986627
30
0
41
1
10
15.12997836153
20
-1.24102349997534
30
0
41
1
10
15.1287741346665
20
-1.24151004176764
30
0
41
1
10
15.1277690493354
20
-1.24123190322794
30
0
41
1
10
15.1235157934691
20
-1.24062554549184
30
0
41
1
10
15.113308176759
20
-1.23916941055478
30
0
41
1
10
14.2321030424111
20
-1.11322983892171
30
0
41
1
10
13.3585125025548
20
-0.968280808610473
30
0
41
1
10
11.6356737627113
20
-0.642786930037602
30
0
41
1
10
10.7797861174957
20
-0.461165439575296
30
0
41
1
10
8.6747580589419
20
0.0345893518438913
30
0
41
1
10
7.4308896015861
20
0.371001031221823
30
0
41
1
10
6.1990383239654
20
0.74614262934125
30
0
0
SPLINE
5
CD
100
AcDbEntity
8
1
62
256
6
ByLayer
370
18
48
1
60
0
100
AcDbSpline
70
4
71
3
72
20
73
16
40
0
40
0
40
0
40
0
40
0.124999999999997
40
0.124999999999997
40
0.249999999999994
40
0.249999999999994
40
0.312499999999993
40
0.312499999999993
40
0.374999999999991
40
0.374999999999991
40
0.499999999999989
40
0.499999999999989
40
0.749999999999994
40
0.749999999999994
40
1
40
1
40
1
40
1
41
1
10
61.5158459222343
20
0.927366576052179
30
0
41
1
10
61.4795104267666
20
0.930220790508884
30
0
41
1
10
61.4429460514978
20
0.931167940923501
30
0
41
1
10
61.3694985316975
20
0.92927461167443
30
0
41
1
10
61.3326265179052
20
0.926543512532817
30
0
41
1
10
61.2772255595779
20
0.9202717496037
30
0
41
1
10
61.2587427343005
20
0.917834363819452
30
0
41
1
10
61.221776396382
20
0.912417145405385
30
0
41
1
10
61.2033277269569
20
0.909422204885999
30
0
41
1
10
61.1481183130131
20
0.8993425708681
30
0
41
1
10
61.1114946484385
20
0.891168628776569
30
0
41
1
10
61.0023083987068
20
0.86245319960824
30
0
41
1
10
60.9304428326478
20
0.83754245623831
30
0
41
1
10
60.7894113653072
20
0.775756015138427
30
0
41
1
10
60.7202271740819
20
0.739087762446246
30
0
41
1
10
60.6527252217795
20
0.696930263910588
30
0
0
SPLINE
5
CE
100
AcDbEntity
8
1
62
256
6
ByLayer
370
18
48
1
60
0
100
AcDbSpline
70
4
71
3
72
16
73
12
40
0
40
0
40
0
40
0
40
0.230454828963303
40
0.230454828963303
40
0.460909657926606
40
0.460909657926606
40
0.691364486889909
40
0.691364486889909
40
0.921819315853212
40
0.921819315853212
40
1
40
1
40
1
40
1
41
1
10
61.5158459222342
20
0.927366576052236
30
0
41
1
10
61.493188517757
20
0.939365968620137
30
0
41
1
10
61.4709059809003
20
0.950735918624673
30
0
41
1
10
61.4270828330176
20
0.972230046336591
30
0
41
1
10
61.4055317928899
20
0.982371735614066
30
0
41
1
10
61.363228986833
20
1.00131304786882
30
0
41
1
10
61.342531594249
20
1.01002137222269
30
0
41
1
10
61.3016699035342
20
1.02654289870429
30
0
41
1
10
61.2814574498628
20
1.03443695910084
30
0
41
1
10
61.2551252638591
20
1.04377112915179
30
0
41
1
10
61.2485346199537
20
1.04602777940357
30
0
41
1
10
61.2420340212533
20
1.04816404205295
30
0
0
SPLINE
5
CF
100
AcDbEntity
8
1
62
256
6
ByLayer
370
18
48
1
60
0
100
AcDbSpline
70
4
71
3
72
22
73
18
40
0
40
0
40
0
40
0
40
0.105779561799228
40
0.105779561799228
40
0.180297931649312
40
0.180297931649312
40
0.254816301499396
40
0.254816301499396
40
0.403853041199564
40
0.403853041199564
40
0.552889780899732
40
0.552889780899732
40
0.627408150749793
40
0.627408150749793
40
0.701926520599854
40
0.701926520599854
40
1
40
1
40
1
40
1
41
1
10
61.062320213557
20
1.10227739970227
30
0
41
1
10
61.0795245826343
20
1.11378652957046
30
0
41
1
10
61.0975165400075
20
1.12558548649847
30
0
41
1
10
61.129612439998
20
1.14607628457009
30
0
41
1
10
61.143323845867
20
1.1546719648394
30
0
41
1
10
61.1715178726134
20
1.17194669418177
30
0
41
1
10
61.1859114149955
20
1.18056715691048
30
0
41
1
10
61.2299868685633
20
1.20631155698612
30
0
41
1
10
61.2605491595465
20
1.22334060778553
30
0
41
1
10
61.324146097855
20
1.25673484171989
30
0
41
1
10
61.3572020653247
20
1.27306345323791
30
0
41
1
10
61.408972322454
20
1.29637778586292
30
0
41
1
10
61.4266228250581
20
1.30396149284979
30
0
41
1
10
61.4621434813076
20
1.31840324876978
30
0
41
1
10
61.4800773891421
20
1.32529140468446
30
0
41
1
10
61.5706418384892
20
1.35789861875614
30
0
41
1
10
61.6459808652295
20
1.37800303710952
30
0
41
1
10
61.7241569098353
20
1.39153638219935
30
0
0
SPLINE
5
D0
100
AcDbEntity
8
1
62
256
6
ByLayer
370
18
48
1
60
0
100
AcDbSpline
70
4
71
3
72
13
73
9
40
0
40
0
40
0
40
0
40
0.25
40
0.5
40
0.5
40
0.75
40
0.75
40
1
40
1
40
1
40
1
41
1
10
61.7241569098353
20
1.39153638219935
30
0
41
1
10
61.7933688534143
20
1.40351791850648
30
0
41
1
10
61.9314700610688
20
1.42931496275511
30
0
41
1
10
62.0687640173854
20
1.45970007671181
30
0
41
1
10
62.2055366037267
20
1.49304843356148
30
0
41
1
10
62.2737262557715
20
1.51121823597768
30
0
41
1
10
62.4087637076984
20
1.55113974169407
30
0
41
1
10
62.475703359991
20
1.57281503471606
30
0
41
1
10
62.5417608721071
20
1.59710219707119
30
0
0
SPLINE
5
D1
100
AcDbEntity
8
1
62
256
6
ByLayer
370
18
48
1
60
0
100
AcDbSpline
70
4
71
3
72
30
73
26
40
0
40
0
40
0
40
0
40
0.250000000000003
40
0.250000000000003
40
0.375000000000005
40
0.375000000000005
40
0.500000000000007
40
0.500000000000007
40
0.625000000000009
40
0.625000000000009
40
0.65625000000001
40
0.65625000000001
40
0.687500000000011
40
0.687500000000011
40
0.75000000000001
40
0.75000000000001
40
0.812500000000009
40
0.812500000000009
40
0.875000000000008
40
0.875000000000008
40
0.937500000000006
40
0.937500000000006
40
0.968750000000003
40
0.968750000000003
40
1
40
1
40
1
40
1
41
1
10
61.2951204415479
20
4.75241384472184
30
0
41
1
10
61.39197402551
20
4.48651201816017
30
0
41
1
10
61.4878797805554
20
4.21827001255781
30
0
41
1
10
61.6328653813256
20
3.81381461871919
30
0
41
1
10
61.6813732516107
20
3.67867189761912
30
0
41
1
10
61.7788218074929
20
3.40846136154934
30
0
41
1
10
61.8277996381759
20
3.27329266547665
30
0
41
1
10
61.926476089455
20
3.00312101324465
30
0
41
1
10
61.9761575104623
20
2.86815309165093
30
0
41
1
10
62.038782713231
20
2.6996276072455
30
0
41
1
10
62.0512979948742
20
2.66591906609338
30
0
41
1
10
62.0767087710254
20
2.59863594935035
30
0
41
1
10
62.0895890330563
20
2.56502577772048
30
0
41
1
10
62.1285840993501
20
2.46493772752714
30
0
41
1
10
62.1551043148568
20
2.39902886480289
30
0
41
1
10
62.2093909306783
20
2.26891891693038
30
0
41
1
10
62.2371613158053
20
2.20472369640163
30
0
41
1
10
62.2940916232756
20
2.07804754853478
30
0
41
1
10
62.3232439660465
20
2.01555553359705
30
0
41
1
10
62.3830886416052
20
1.8923300404123
30
0
41
1
10
62.4137860666824
20
1.83160440270314
30
0
41
1
10
62.4611391107798
20
1.74193265443839
30
0
41
1
10
62.4771134654696
20
1.71233269931253
30
0
41
1
10
62.5092503238075
20
1.65408774158254
30
0
41
1
10
62.5254421042379
20
1.62538881889114
30
0
41
1
10
62.5417608721069
20
1.59710219707188
30
0
0
SPLINE
5
D2
100
AcDbEntity
8
1
62
256
6
ByLayer
370
18
48
1
60
0
100
AcDbSpline
70
4
71
3
72
28
73
24
40
0
40
0
40
0
40
0
40
0.0456620991450006
40
0.0456620991450006
40
0.0913241982900012
40
0.0913241982900012
40
0.182648396580002
40
0.182648396580002
40
0.273972594870004
40
0.273972594870004
40
0.365296793160005
40
0.365296793160005
40
0.456620991450006
40
0.456620991450006
40
0.547945189740007
40
0.547945189740007
40
0.639269388030008
40
0.639269388030008
40
0.730593586320009
40
0.730593586320009
40
0.913241982900017
40
0.913241982900017
40
1
40
1
40
1
40
1
41
1
10
61.2951204418234
20
4.7524138448853
30
0
41
1
10
61.1926786147243
20
4.75523222774268
30
0
41
1
10
61.0901729442149
20
4.75705511112676
30
0
41
1
10
60.8853549339389
20
4.75870597617356
30
0
41
1
10
60.7829996663461
20
4.75853558058881
30
0
41
1
10
60.4760531741073
20
4.75504733065043
30
0
41
1
10
60.2715776412717
20
4.74875258753281
30
0
41
1
10
59.8627145278538
20
4.72824516591879
30
0
41
1
10
59.6583485153319
20
4.71401876682035
30
0
41
1
10
59.2494833965546
20
4.67768445141866
30
0
41
1
10
59.0449513621626
20
4.65558238496445
30
0
41
1
10
58.6354819792547
20
4.60358241411799
30
0
41
1
10
58.4304615444279
20
4.57366917229004
30
0
41
1
10
58.0205111020163
20
4.50620943634476
30
0
41
1
10
57.8155607607849
20
4.46866661157151
30
0
41
1
10
57.4057027970936
20
4.38606373475253
30
0
41
1
10
57.2007254617802
20
4.34095692045221
30
0
41
1
10
56.7914087998664
20
4.2437086665671
30
0
41
1
10
56.5869401189725
20
4.19154642511583
30
0
41
1
10
55.9738223839331
20
4.02483218379663
30
0
41
1
10
55.5654335514091
20
3.90009748914193
30
0
41
1
10
54.9622881929068
20
3.6972916758464
30
0
41
1
10
54.7679637982841
20
3.62906491495744
30
0
41
1
10
54.5734050557624
20
3.55803679126072
30
0
0
SPLINE
5
D3
100
AcDbEntity
8
1
62
256
6
ByLayer
370
18
48
1
60
0
100
AcDbSpline
70
4
71
3
72
14
73
10
40
0
40
0
40
0
40
0
40
0.3213437303071
40
0.3213437303071
40
0.491007797730325
40
0.491007797730325
40
0.660671865153549
40
0.660671865153549
40
1
40
1
40
1
40
1
41
1
10
25.6212458205776
20
-2.85025148161165
30
0
41
1
10
25.2330485041782
20
-2.67939520816631
30
0
41
1
10
24.8448086630109
20
-2.50000233333245
30
0
41
1
10
24.2516885986618
20
-2.21527853337909
30
0
41
1
10
24.046687360373
20
-2.1149085313734
30
0
41
1
10
23.6371915525936
20
-1.91092872243772
30
0
41
1
10
23.4325956721239
20
-1.80733407673105
30
0
41
1
10
22.8188524248074
20
-1.49240506302272
30
0
41
1
10
22.409831066726
20
-1.27681574290565
30
0
41
1
10
22.0000000000001
20
-1.05721124344868
30
0
0
SPLINE
5
D4
100
AcDbEntity
8
1
62
256
6
ByLayer
370
18
48
1
60
0
100
AcDbSpline
70
4
71
3
72
174
73
170
40
0
40
0
40
0
40
0
40
0.0015713402599675
40
0.0015713402599675
40
0.0273312582191759
40
0.0273312582191759
40
0.0402112171987797
40
0.0402112171987797
40
0.0466511966885813
40
0.0466511966885813
40
0.0530911761783827
40
0.0530911761783827
40
0.0659711351579857
40
0.0659711351579857
40
0.0788510941375886
40
0.0788510941375886
40
0.0852910736273897
40
0.0852910736273897
40
0.0917310531171907
40
0.0917310531171907
40
0.104611012096792
40
0.104611012096792
40
0.117490971076393
40
0.117490971076393
40
0.130370930055994
40
0.130370930055994
40
0.143250889035595
40
0.143250889035595
40
0.156130848015196
40
0.156130848015196
40
0.169010806994797
40
0.169010806994797
40
0.175450786484598
40
0.175450786484598
40
0.181890765974399
40
0.181890765974399
40
0.194770724954001
40
0.194770724954001
40
0.207650683933603
40
0.207650683933603
40
0.220530642913205
40
0.220530642913205
40
0.233410601892807
40
0.233410601892807
40
0.246290560872409
40
0.246290560872409
40
0.259170519852011
40
0.259170519852011
40
0.265610499341812
40
0.265610499341812
40
0.272050478831612
40
0.272050478831612
40
0.284930437811214
40
0.284930437811214
40
0.297810396790815
40
0.297810396790815
40
0.310690355770415
40
0.310690355770415
40
0.323570314750017
40
0.323570314750017
40
0.336450273729618
40
0.336450273729618
40
0.349330232709219
40
0.349330232709219
40
0.355770212199019
40
0.355770212199019
40
0.36221019168882
40
0.36221019168882
40
0.37509015066842
40
0.37509015066842
40
0.38797010964802
40
0.38797010964802
40
0.40085006862762
40
0.40085006862762
40
0.41373002760722
40
0.41373002760722
40
0.43948994556642
40
0.43948994556642
40
0.445929925056221
40
0.445929925056221
40
0.452369904546021
40
0.452369904546021
40
0.465249863525621
40
0.465249863525621
40
0.491009781484822
40
0.491009781484822
40
0.503889740464423
40
0.503889740464423
40
0.516769699444023
40
0.516769699444023
40
0.529649658423623
40
0.529649658423623
40
0.536089637913423
40
0.536089637913423
40
0.542529617403223
40
0.542529617403223
40
0.555409576382822
40
0.555409576382822
40
0.568289535362421
40
0.568289535362421
40
0.58116949434202
40
0.58116949434202
40
0.59404945332162
40
0.59404945332162
40
0.606929412301219
40
0.606929412301219
40
0.619809371280818
40
0.619809371280818
40
0.626249350770617
40
0.626249350770617
40
0.632689330260417
40
0.645569289240015
40
0.645569289240015
40
0.658449248219613
40
0.658449248219613
40
0.671329207199211
40
0.671329207199211
40
0.68420916617881
40
0.68420916617881
40
0.697089125158408
40
0.697089125158408
40
0.709969084138006
40
0.709969084138006
40
0.716409063627805
40
0.716409063627805
40
0.722849043117604
40
0.722849043117604
40
0.735729002097201
40
0.735729002097201
40
0.748608961076798
40
0.748608961076798
40
0.761488920056395
40
0.761488920056395
40
0.774368879035993
40
0.774368879035993
40
0.78724883801559
40
0.78724883801559
40
0.800128796995187
40
0.800128796995187
40
0.806568776484986
40
0.806568776484986
40
0.813008755974785
40
0.813008755974785
40
0.825888714954383
40
0.825888714954383
40
0.838768673933981
40
0.838768673933981
40
0.851648632913579
40
0.851648632913579
40
0.877408550872777
40
0.877408550872777
40
0.890288509852375
40
0.890288509852375
40
0.896728489342174
40
0.896728489342174
40
0.903168468831973
40
0.903168468831973
40
0.928928386791169
40
0.928928386791169
40
0.954688304750365
40
0.954688304750365
40
0.967568263729963
40
0.967568263729963
40
0.980448222709561
40
0.980448222709561
40
0.98688820219936
40
0.98688820219936
40
0.993328181689158
40
1
40
1
40
1
40
1
41
1
10
21.4682092514634
20
4.72422484862705
30
0
41
1
10
21.4855430066326
20
4.72388251487709
30
0
41
1
10
21.5028752163779
20
4.72351040730572
30
0
41
1
10
21.8043166186144
20
4.71652834606979
30
0
41
1
10
22.0879380233737
20
4.70218194848235
30
0
41
1
10
22.5128720646576
20
4.67025793942196
30
0
41
1
10
22.6544306203059
20
4.65796656976303
30
0
41
1
10
22.8668271288951
20
4.63663927602593
30
0
41
1
10
22.9376363548822
20
4.62903322893001
30
0
41
1
10
23.079333426662
20
4.61273449944176
30
0
41
1
10
23.1502179485982
20
4.60405333047891
30
0
41
1
10
23.3629554100996
20
4.57653675048354
30
0
41
1
10
23.5048777295986
20
4.55625971356596
30
0
41
1
10
23.788809574898
20
4.5121874576254
30
0
41
1
10
23.9308300833817
20
4.48836425698639
30
0
41
1
10
24.143911380839
20
4.45003446559451
30
0
41
1
10
24.2149677845666
20
4.43682157298585
30
0
41
1
10
24.3569858918789
20
4.40957206285972
30
0
41
1
10
24.4279403958365
20
4.39554185868352
30
0
41
1
10
24.640703906535
20
4.35213342795339
30
0
41
1
10
24.7824232829811
20
4.32137996868806
30
0
41
1
10
25.0660047432191
20
4.25608823656026
30
0
41
1
10
25.2078317725711
20
4.22164035110455
30
0
41
1
10
25.4913836712274
20
4.14944960951655
30
0
41
1
10
25.6331341844134
20
4.11170198525355
30
0
41
1
10
25.9165717599621
20
4.03307931621595
30
0
41
1
10
26.0582499017659
20
3.99221259862298
30
0
41
1
10
26.3414983874052
20
3.90741925261878
30
0
41
1
10
26.4830916304164
20
3.86343753703486
30
0
41
1
10
26.7666712776426
20
3.77196194720864
30
0
41
1
10
26.9086354365602
20
3.72452267937234
30
0
41
1
10
27.1217347356555
20
3.65112083102858
30
0
41
1
10
27.1928180190698
20
3.62626961200894
30
0
41
1
10
27.3349366475325
20
3.5758936346794
30
0
41
1
10
27.4059712478922
20
3.5503733285999
30
0
41
1
10
27.6189897563373
20
3.47281443286732
30
0
41
1
10
27.7608728640301
20
3.41975855209887
30
0
41
1
10
28.0444145371314
20
3.31104274500586
30
0
41
1
10
28.1860728985724
20
3.25538621077712
30
0
41
1
10
28.4694483700117
20
3.14140404348305
30
0
41
1
10
28.6111828352692
20
3.08307860314059
30
0
41
1
10
28.8946437754534
20
2.96393857082916
30
0
41
1
10
29.036361437048
20
2.90312013886339
30
0
41
1
10
29.3197745832106
20
2.77915794851029
30
0
41
1
10
29.4614486530445
20
2.71600225903362
30
0
41
1
10
29.7449657870105
20
2.58753007468695
30
0
41
1
10
29.8868359234253
20
2.52225263667191
30
0
41
1
10
30.099883521305
20
2.42273699966262
30
0
41
1
10
30.1709675118362
20
2.38928831522676
30
0
41
1
10
30.313095926524
20
2.32195646010186
30
0
41
1
10
30.3841382431698
20
2.28807441329829
30
0
41
1
10
30.5971965898884
20
2.185797776849
30
0
41
1
10
30.7391440149149
20
2.11677498187922
30
0
41
1
10
31.0228216329588
20
1.97709017514424
30
0
41
1
10
31.1645476864813
20
1.90642244752291
30
0
41
1
10
31.4477357682955
20
1.76344685754944
30
0
41
1
10
31.5892516968652
20
1.69117573643464
30
0
41
1
10
31.8724140027707
20
1.54538826691274
30
0
41
1
10
32.0140501148155
20
1.47186697320345
30
0
41
1
10
32.2975780917375
20
1.32388406512442
30
0
41
1
10
32.4394311630126
20
1.24936456073004
30
0
41
1
10
32.7232337728842
20
1.09921954765645
30
0
41
1
10
32.8651862617198
20
1.02360796840571
30
0
41
1
10
33.0782208308059
20
0.90942923117845
30
0
41
1
10
33.1492764892587
20
0.871233496078133
30
0
41
1
10
33.291312163674
20
0.7946946528279
30
0
41
1
10
33.3622936344862
20
0.756351598610735
30
0
41
1
10
33.5751506364619
20
0.641140684917133
30
0
41
1
10
33.7169392885282
20
0.564091739407132
30
0
41
1
10
34.0004316200524
20
0.409779124517911
30
0
41
1
10
34.1421243793575
20
0.332495946238652
30
0
41
1
10
34.4254409654349
20
0.177749830777799
30
0
41
1
10
34.5670827271472
20
0.100320290029174
30
0
41
1
10
34.8502724837124
20
-0.0547602307840691
30
0
41
1
10
34.9918287304332
20
-0.132397303862007
30
0
41
1
10
35.4168233920022
20
-0.364798519359255
30
0
41
1
10
35.7005214859461
20
-0.519171331593782
30
0
41
1
10
36.0556506536036
20
-0.711343544742618
30
0
41
1
10
36.1267222885595
20
-0.749751897041534
30
0
41
1
10
36.2687702545733
20
-0.826431349735543
30
0
41
1
10
36.3397496314676
20
-0.864706510660369
30
0
41
1
10
36.5525542381664
20
-0.979355144489261
30
0
41
1
10
36.694243729431
20
-1.05554389344766
30
0
41
1
10
37.119353792947
20
-1.28202687605355
30
0
41
1
10
37.4027240391893
20
-1.43043678718234
30
0
41
1
10
37.827825071097
20
-1.64929985975476
30
0
41
1
10
37.9695391690847
20
-1.72161663046921
30
0
41
1
10
38.2528795278331
20
-1.86529422196858
30
0
41
1
10
38.3944826155989
20
-1.93670507171427
30
0
41
1
10
38.6778927638216
20
-2.0778688576944
30
0
41
1
10
38.8197256810651
20
-2.14756409487714
30
0
41
1
10
39.0327259518865
20
-2.25070819035429
30
0
41
1
10
39.1037917693067
20
-2.28486679709874
30
0
41
1
10
39.2458746372013
20
-2.35261845608011
30
0
41
1
10
39.3168994708808
20
-2.38621169447413
30
0
41
1
10
39.5299071801192
20
-2.48619608992783
30
0
41
1
10
39.671814993236
20
-2.55179679300733
30
0
41
1
10
39.955396672913
20
-2.68118128952648
30
0
41
1
10
40.0970443205466
20
-2.74505600363688
30
0
41
1
10
40.3802634180251
20
-2.87050799864937
30
0
41
1
10
40.5218684392124
20
-2.93197590206108
30
0
41
1
10
40.8051378537815
20
-3.05229017496635
30
0
41
1
10
40.9467912928629
20
-3.11116986660016
30
0
41
1
10
41.2301896731589
20
-3.22641246073985
30
0
41
1
10
41.3719318489727
20
-3.28277129710531
30
0
41
1
10
41.6555405362647
20
-3.39309821760571
30
0
41
1
10
41.7973900079997
20
-3.44714735384008
30
0
41
1
10
42.0102895495136
20
-3.52631169249932
30
0
41
1
10
42.0813099015047
20
-3.55236905551121
30
0
41
1
10
42.2233027223373
20
-3.60359750166566
30
0
41
1
10
42.4362403128523
20
-3.67912714290921
30
0
41
1
10
42.6490386820358
20
-3.7508373472794
30
0
41
1
10
42.9326312077897
20
-3.84330776268086
30
0
41
1
10
43.074356787134
20
-3.88796855395779
30
0
41
1
10
43.357626289221
20
-3.97443645353803
30
0
41
1
10
43.4991553755348
20
-4.01630790034091
30
0
41
1
10
43.782075959843
20
-4.09725115399399
30
0
41
1
10
43.9235115859579
20
-4.13617149483764
30
0
41
1
10
44.206750417222
20
-4.21001353307022
30
0
41
1
10
44.3484950138259
20
-4.24506025923932
30
0
41
1
10
44.6321896287986
20
-4.31166073301793
30
0
41
1
10
44.7741526061309
20
-4.34320382821721
30
0
41
1
10
44.9872267814801
20
-4.38808422578376
30
0
41
1
10
45.0582922747156
20
-4.40264340102192
30
0
41
1
10
45.2003086463919
20
-4.4309656015771
30
0
41
1
10
45.2712666163505
20
-4.4447373750711
30
0
41
1
10
45.4839903852909
20
-4.48488624054488
30
0
41
1
10
45.6256107061687
20
-4.51004335188793
30
0
41
1
10
45.9088439308463
20
-4.55604823610278
30
0
41
1
10
46.0504432377413
20
-4.57695711539569
30
0
41
1
10
46.33367634994
20
-4.61485407298085
30
0
41
1
10
46.4753386978834
20
-4.63183148637842
30
0
41
1
10
46.7586693461621
20
-4.66219850797924
30
0
41
1
10
46.9003236479414
20
-4.67559084257874
30
0
41
1
10
47.1836222335506
20
-4.69896766848473
30
0
41
1
10
47.3252528668203
20
-4.70897208945829
30
0
41
1
10
47.6087655192567
20
-4.72490918208931
30
0
41
1
10
47.7506656653304
20
-4.73080091863537
30
0
41
1
10
47.9637026081108
20
-4.73670799354275
30
0
41
1
10
48.0347675406044
20
-4.73818957067084
30
0
41
1
10
48.1768013095224
20
-4.74021060392994
30
0
41
1
10
48.247781143982
20
-4.74075071101743
30
0
41
1
10
48.4606104900745
20
-4.74102142796906
30
0
41
1
10
48.6023396660682
20
-4.73941002908856
30
0
41
1
10
48.8855957035492
20
-4.73280699799722
30
0
41
1
10
49.0270823988809
20
-4.72789126041613
30
0
41
1
10
49.3100660946055
20
-4.71390102459694
30
0
41
1
10
49.451590485689
20
-4.70481713854537
30
0
41
1
10
49.8763694285075
20
-4.6714602534804
30
0
41
1
10
50.1597727150745
20
-4.6411917417548
30
0
41
1
10
50.5853283132047
20
-4.58452142353266
30
0
41
1
10
50.7272681739841
20
-4.56374500438932
30
0
41
1
10
50.9403677399389
20
-4.52983124259501
30
0
41
1
10
51.0114540222312
20
-4.51806564234667
30
0
41
1
10
51.1535547396557
20
-4.4936704188207
30
0
41
1
10
51.2245829104524
20
-4.48104021728281
30
0
41
1
10
51.579584720086
20
-4.41574690453223
30
0
41
1
10
51.8630908039419
20
-4.35668393312679
30
0
41
1
10
52.4293926983041
20
-4.22550350853865
30
0
41
1
10
52.7121904117156
20
-4.15314629023587
30
0
41
1
10
53.1369567384849
20
-4.03390446515837
30
0
41
1
10
53.2786250895297
20
-3.99241197804358
30
0
41
1
10
53.5622373908664
20
-3.90620536380052
30
0
41
1
10
53.7041969432345
20
-3.86151531164671
30
0
41
1
10
53.9172987180067
20
-3.79211892578772
30
0
41
1
10
53.9883827583201
20
-3.76858627091241
30
0
41
1
10
54.1304612844177
20
-3.72080076927773
30
0
41
1
10
54.2750351397751
20
-3.67141306329609
30
0
41
1
10
54.4195027701295
20
-3.62053135633963
30
0
41
1
10
54.4929907047945
20
-3.59425761983977
30
0
0
SPLINE
5
D5
100
AcDbEntity
8
1
62
256
6
ByLayer
370
18
48
1
60
0
100
AcDbSpline
70
4
71
3
72
111
73
107
40
0
40
0
40
0
40
0
40
0.0201694230142869
40
0.0201694230142869
40
0.0403388460285738
40
0.0403388460285738
40
0.0605082690428607
40
0.0605082690428607
40
0.0806776920571475
40
0.0806776920571475
40
0.100847115071434
40
0.100847115071434
40
0.121016538085721
40
0.121016538085721
40
0.141185961100008
40
0.141185961100008
40
0.161355384114295
40
0.161355384114295
40
0.181524807128582
40
0.181524807128582
40
0.201694230142869
40
0.201694230142869
40
0.221863653157156
40
0.221863653157156
40
0.242033076171443
40
0.242033076171443
40
0.26220249918573
40
0.26220249918573
40
0.282371922200016
40
0.282371922200016
40
0.29245663370716
40
0.29245663370716
40
0.302541345214303
40
0.302541345214303
40
0.322710768228589
40
0.322710768228589
40
0.342880191242876
40
0.342880191242876
40
0.363049614257162
40
0.363049614257162
40
0.403388460285733
40
0.403388460285733
40
0.423557883300019
40
0.423557883300019
40
0.433642594807161
40
0.433642594807161
40
0.443727306314303
40
0.443727306314303
40
0.484066152342872
40
0.484066152342872
40
0.52440499837144
40
0.52440499837144
40
0.544574421385724
40
0.544574421385724
40
0.564743844400008
40
0.564743844400008
40
0.57482855590715
40
0.57482855590715
40
0.584913267414291
40
0.605082690428573
40
0.605082690428573
40
0.625252113442856
40
0.625252113442856
40
0.645421536457138
40
0.645421536457138
40
0.66559095947142
40
0.66559095947142
40
0.685760382485703
40
0.685760382485703
40
0.705929805499985
40
0.705929805499985
40
0.716014517007126
40
0.716014517007126
40
0.726099228514267
40
0.726099228514267
40
0.766438074542831
40
0.766438074542831
40
0.786607497557113
40
0.786607497557113
40
0.796692209064253
40
0.796692209064253
40
0.806776920571393
40
0.806776920571393
40
0.826946343585675
40
0.826946343585675
40
0.847115766599956
40
0.847115766599956
40
0.857200478107098
40
0.857200478107098
40
0.867285189614239
40
0.867285189614239
40
0.887454612628521
40
0.887454612628521
40
0.907624035642802
40
0.907624035642802
40
0.927793458657084
40
0.927793458657084
40
0.947962881671366
40
0.947962881671366
40
0.968132304685647
40
0.968132304685647
40
0.988301727699929
40
0.988301727699929
40
0.998386439207069
40
0.998386439207069
40
1
40
1
40
1
40
1
41
1
10
6.19906076750459
20
0.746135794506955
30
0
41
1
10
6.34147069946619
20
0.669947508858684
30
0
41
1
10
6.4837041383287
20
0.593461540646189
30
0
41
1
10
6.76782480991901
20
0.439904114790437
30
0
41
1
10
6.90969221578664
20
0.362795152272781
30
0
41
1
10
7.19316362180717
20
0.208146858041971
30
0
41
1
10
7.33479560446813
20
0.130660626326772
30
0
41
1
10
7.61804868436133
20
-0.024268933416721
30
0
41
1
10
7.75966297381041
20
-0.101725711034305
30
0
41
1
10
8.04298589387278
20
-0.256407842331328
30
0
41
1
10
8.18469248145578
20
-0.333637146714807
30
0
41
1
10
8.46824294131036
20
-0.487788512400186
30
0
41
1
10
8.61007727157741
20
-0.564727734943602
30
0
41
1
10
8.8939231889276
20
-0.718222034376737
30
0
41
1
10
9.0359527723059
20
-0.794743958881526
30
0
41
1
10
9.32036856780732
20
-0.947070916384234
30
0
41
1
10
9.46258436480352
20
-1.02280016065433
30
0
41
1
10
9.74665619361969
20
-1.17326596915615
30
0
41
1
10
9.88856475955515
20
-1.24804333046288
30
0
41
1
10
10.1721525444069
20
-1.39671311581986
30
0
41
1
10
10.3138304760112
20
-1.47060844249054
30
0
41
1
10
10.5971212996903
20
-1.61716404030002
30
0
41
1
10
10.7387612568879
20
-1.68977736475878
30
0
41
1
10
11.0221705266254
20
-1.83336609134469
30
0
41
1
10
11.1639215222154
20
-1.90436547862021
30
0
41
1
10
11.4475698440893
20
-2.04473562166976
30
0
41
1
10
11.5894653723215
20
-2.11411084050914
30
0
41
1
10
11.8733759531368
20
-2.25134104483146
30
0
41
1
10
12.015378978167
20
-2.31922452638509
30
0
41
1
10
12.2285092655951
20
-2.41982913466629
30
0
41
1
10
12.2995903844414
20
-2.45316471091067
30
0
41
1
10
12.4416430865345
20
-2.51929309814756
30
0
41
1
10
12.512633549525
20
-2.55209491194188
30
0
41
1
10
12.7255291942537
20
-2.64964209576536
30
0
41
1
10
12.8673579994531
20
-2.71351187466976
30
0
41
1
10
13.1509921447835
20
-2.83871194437251
30
0
41
1
10
13.2928025770298
20
-2.9000463878761
30
0
41
1
10
13.5763145628141
20
-3.0204526088792
30
0
41
1
10
13.718023692328
20
-3.07952768902132
30
0
41
1
10
14.1431124011986
20
-3.25321491674501
30
0
41
1
10
14.4264642823896
20
-3.36419459618739
30
0
41
1
10
14.8520921855707
20
-3.52196173233236
30
0
41
1
10
14.9940642012863
20
-3.57313593931349
30
0
41
1
10
15.2071978153609
20
-3.64781230492784
30
0
41
1
10
15.2782904474335
20
-3.67236289299285
30
0
41
1
10
15.4203897730442
20
-3.7207080355314
30
0
41
1
10
15.491412802997
20
-3.74450868213748
30
0
41
1
10
15.8464003273842
20
-3.86162688911526
30
0
41
1
10
16.1299041005961
20
-3.94934231602485
30
0
41
1
10
16.6969228676029
20
-4.11076760526294
30
0
41
1
10
16.9803512675728
20
-4.18474829271449
30
0
41
1
10
17.405259589224
20
-4.28684202071662
30
0
41
1
10
17.5468855625037
20
-4.31929074082498
30
0
41
1
10
17.8305322201634
20
-4.38013510468235
30
0
41
1
10
17.9725614610722
20
-4.40857984054313
30
0
41
1
10
18.1858186375793
20
-4.4485486031397
30
0
41
1
10
18.256961427595
20
-4.46142399515207
30
0
41
1
10
18.3991653016107
20
-4.48626564701809
30
0
41
1
10
18.6123779877818
20
-4.52216969353259
30
0
41
1
10
18.8253091726918
20
-4.55414316336663
30
0
41
1
10
19.1089180540981
20
-4.59354280833557
30
0
41
1
10
19.2505691952546
20
-4.61161241805507
30
0
41
1
10
19.5338915816008
20
-4.64352675308609
30
0
41
1
10
19.6755785762884
20
-4.65735658294207
30
0
41
1
10
19.9589995058191
20
-4.6811695513783
30
0
41
1
10
20.100726880545
20
-4.69115840633677
30
0
41
1
10
20.3843382965212
20
-4.70746751025217
30
0
41
1
10
20.5261966317661
20
-4.71379550594773
30
0
41
1
10
20.8099340084525
20
-4.72300575596552
30
0
41
1
10
20.9518007289917
20
-4.72594677449399
30
0
41
1
10
21.1648689515316
20
-4.7272590865287
30
0
41
1
10
21.2359688511491
20
-4.7271640911859
30
0
41
1
10
21.378123314753
20
-4.72590703089176
30
0
41
1
10
21.4491781115957
20
-4.72475415309179
30
0
41
1
10
21.8043166186144
20
-4.71652834606979
30
0
41
1
10
22.0879380233738
20
-4.70218194848235
30
0
41
1
10
22.5128720646576
20
-4.67025793942196
30
0
41
1
10
22.6544306203059
20
-4.65796656976303
30
0
41
1
10
22.8668271288951
20
-4.63663927602593
30
0
41
1
10
22.9376363548822
20
-4.62903322893001
30
0
41
1
10
23.079333426662
20
-4.61273449944176
30
0
41
1
10
23.1502179485983
20
-4.60405333047891
30
0
41
1
10
23.3629554100997
20
-4.57653675048354
30
0
41
1
10
23.5048777295986
20
-4.55625971356596
30
0
41
1
10
23.788809574898
20
-4.5121874576254
30
0
41
1
10
23.9308300833817
20
-4.48836425698639
30
0
41
1
10
24.1439113808391
20
-4.45003446559451
30
0
41
1
10
24.2149677845666
20
-4.43682157298585
30
0
41
1
10
24.3569858918789
20
-4.40957206285972
30
0
41
1
10
24.4279403958365
20
-4.39554185868352
30
0
41
1
10
24.640703906535
20
-4.35213342795339
30
0
41
1
10
24.7824232829811
20
-4.32137996868806
30
0
41
1
10
25.0660047432191
20
-4.25608823656026
30
0
41
1
10
25.2078317725711
20
-4.22164035110458
30
0
41
1
10
25.4913836712274
20
-4.14944960951658
30
0
41
1
10
25.6331341844134
20
-4.11170198525355
30
0
41
1
10
25.9165717599621
20
-4.03307931621595
30
0
41
1
10
26.0582499017659
20
-3.99221259862298
30
0
41
1
10
26.3414983874052
20
-3.90741925261878
30
0
41
1
10
26.4830916304165
20
-3.86343753703486
30
0
41
1
10
26.7666712776426
20
-3.77196194720864
30
0
41
1
10
26.9086354365602
20
-3.72452267937234
30
0
41
1
10
27.1217347356555
20
-3.65112083102858
30
0
41
1
10
27.1928180190698
20
-3.62626961200894
30
0
41
1
10
27.2752468725621
20
-3.59705152779475
30
0
41
1
10
27.2866157791426
20
-3.59301292484619
30
0
41
1
10
27.2979840378174
20
-3.58896581309867
30
0
0
SPLINE
5
D6
100
AcDbEntity
8
1
62
256
6
ByLayer
370
18
48
1
60
0
100
AcDbSpline
70
4
71
3
72
59
73
55
40
0
40
0
40
0
40
0
40
0.0205680582794504
40
0.0205680582794504
40
0.055547770483755
40
0.055547770483755
40
0.0905274826880596
40
0.0905274826880596
40
0.160486907096668
40
0.160486907096668
40
0.195466619300973
40
0.195466619300973
40
0.212956475403124
40
0.212956475403124
40
0.230446331505275
40
0.230446331505275
40
0.300405755913879
40
0.300405755913879
40
0.370365180322482
40
0.370365180322482
40
0.405344892526783
40
0.405344892526783
40
0.440324604731084
40
0.440324604731084
40
0.457814460833235
40
0.457814460833235
40
0.475304316935386
40
0.510284029139689
40
0.510284029139689
40
0.580243453548299
40
0.580243453548299
40
0.615223165752603
40
0.615223165752603
40
0.650202877956907
40
0.650202877956907
40
0.685182590161212
40
0.685182590161212
40
0.702672446263365
40
0.702672446263365
40
0.720162302365518
40
0.720162302365518
40
0.755142014569828
40
0.755142014569828
40
0.790121726774138
40
0.790121726774138
40
0.825101438978447
40
0.825101438978447
40
0.860081151182756
40
0.860081151182756
40
0.930040575591378
40
0.930040575591378
40
0.965020287795689
40
0.965020287795689
40
1
40
1
40
1
40
1
41
1
10
48.4940197243339
20
4.74015865491808
30
0
41
1
10
48.5773782614937
20
4.7394067464794
30
0
41
1
10
48.6606904603866
20
4.73804980350425
30
0
41
1
10
48.8855957035492
20
4.73280699799722
30
0
41
1
10
49.027082398881
20
4.7278912604161
30
0
41
1
10
49.3100660946055
20
4.71390102459694
30
0
41
1
10
49.451590485689
20
4.70481713854537
30
0
41
1
10
49.8763694285075
20
4.6714602534804
30
0
41
1
10
50.1597727150745
20
4.6411917417548
30
0
41
1
10
50.5853283132047
20
4.58452142353266
30
0
41
1
10
50.727268173984
20
4.56374500438932
30
0
41
1
10
50.9403677399389
20
4.52983124259501
30
0
41
1
10
51.0114540222313
20
4.51806564234667
30
0
41
1
10
51.1535547396557
20
4.4936704188207
30
0
41
1
10
51.2245829104524
20
4.48104021728284
30
0
41
1
10
51.579584720086
20
4.41574690453223
30
0
41
1
10
51.8630908039418
20
4.35668393312679
30
0
41
1
10
52.4293926983041
20
4.22550350853865
30
0
41
1
10
52.7121904117157
20
4.15314629023587
30
0
41
1
10
53.1369567384849
20
4.03390446515837
30
0
41
1
10
53.2786250895297
20
3.99241197804358
30
0
41
1
10
53.5622373908664
20
3.90620536380052
30
0
41
1
10
53.7041969432345
20
3.86151531164674
30
0
41
1
10
53.9172987180067
20
3.79211892578772
30
0
41
1
10
53.9883827583201
20
3.76858627091241
30
0
41
1
10
54.1304612844178
20
3.72080076927773
30
0
41
1
10
54.3434876010416
20
3.64802909790072
30
0
41
1
10
54.5562832887575
20
3.57201374750133
30
0
41
1
10
54.9816622755598
20
3.41573972161879
30
0
41
1
10
55.2649236984939
20
3.30586833708642
30
0
41
1
10
55.6896650719054
20
3.13338348602298
30
0
41
1
10
55.8312264616431
20
3.07461497178434
30
0
41
1
10
56.1145179955117
20
2.95473381100339
30
0
41
1
10
56.2562160206203
20
2.89357666768777
30
0
41
1
10
56.5398175538529
20
2.76887199608356
30
0
41
1
10
56.6817394997362
20
2.70534233082356
30
0
41
1
10
56.8948121012539
20
2.60835304178653
30
0
41
1
10
56.9658849727441
20
2.57573204115695
30
0
41
1
10
57.1079251438243
20
2.51000754623289
30
0
41
1
10
57.1789084178577
20
2.47689691632186
30
0
41
1
10
57.3917464664228
20
2.37682933485212
30
0
41
1
10
57.533469629605
20
2.3091228247317
30
0
41
1
10
57.8167874709686
20
2.17191435846979
30
0
41
1
10
57.9584038457654
20
2.10241791693758
30
0
41
1
10
58.2417026288571
20
1.96190571450649
30
0
41
1
10
58.3833976674273
20
1.89093111797905
30
0
41
1
10
58.6668366081176
20
1.74754536259215
30
0
41
1
10
58.8085746689144
20
1.67511852583994
30
0
41
1
10
59.2339557170448
20
1.45586286134733
30
0
41
1
10
59.5177518470658
20
1.30702779111076
30
0
41
1
10
59.9438773929608
20
1.08011132473209
30
0
41
1
10
60.0857690775679
20
1.00399398641764
30
0
41
1
10
60.369351814874
20
0.85097478103404
30
0
41
1
10
60.5110353116338
20
0.774059474946199
30
0
41
1
10
60.6527252217794
20
0.696930263910616
30
0
0
SPLINE
5
D7
100
AcDbEntity
8
1
62
256
6
ByLayer
370
18
48
1
60
0
100
AcDbSpline
70
4
71
3
72
18
73
14
40
0
40
0
40
0
40
0
40
0.125
40
0.125
40
0.25
40
0.25
40
0.5
40
0.5
40
0.625
40
0.625
40
0.75
40
0.75
40
1
40
1
40
1
40
1
41
1
10
3.75143586847776
20
2.31396975416175
30
0
41
1
10
3.84229521956814
20
2.24064665016701
30
0
41
1
10
3.93513950511965
20
2.16866686962635
30
0
41
1
10
4.1241855646681
20
2.02700132804552
30
0
41
1
10
4.22038991318604
20
1.95731728200178
30
0
41
1
10
4.51338575412134
20
1.75129313029208
30
0
41
1
10
4.7145367724172
20
1.61796506821781
30
0
41
1
10
5.02317216373922
20
1.42288205382585
30
0
41
1
10
5.12721099806998
20
1.35867850632047
30
0
41
1
10
5.33739050582284
20
1.23178885209691
30
0
41
1
10
5.44361652666996
20
1.16905525173391
30
0
41
1
10
5.76411694643701
20
0.983576559422687
30
0
41
1
10
5.98045181857458
20
0.863386213066235
30
0
41
1
10
6.19900665864353
20
0.746132868494016
30
0
0
SPLINE
5
D8
100
AcDbEntity
8
1
62
256
6
ByLayer
370
18
48
1
60
0
100
AcDbSpline
70
4
71
3
72
50
73
46
40
0
40
0
40
0
40
0
40
0.0624999999999997
40
0.0624999999999997
40
0.124999999999999
40
0.124999999999999
40
0.156249999999999
40
0.156249999999999
40
0.171874999999999
40
0.171874999999999
40
0.187499999999999
40
0.187499999999999
40
0.249999999999999
40
0.249999999999999
40
0.312499999999998
40
0.312499999999998
40
0.343749999999998
40
0.343749999999998
40
0.374999999999998
40
0.374999999999998
40
0.437499999999997
40
0.437499999999997
40
0.499999999999997
40
0.562499999999997
40
0.562499999999997
40
0.578124999999997
40
0.578124999999997
40
0.593749999999997
40
0.624999999999997
40
0.624999999999997
40
0.687499999999998
40
0.687499999999998
40
0.749999999999999
40
0.749999999999999
40
0.781249999999999
40
0.781249999999999
40
0.796875
40
0.796875
40
0.8125
40
0.8125
40
0.875
40
0.875
40
0.9375
40
0.9375
40
1
40
1
40
1
40
1
41
1
10
60.6527252217795
20
0.696930263910502
30
0
41
1
10
60.6437642516871
20
0.543587954225217
30
0
41
1
10
60.6398711938976
20
0.389848471678761
30
0
41
1
10
60.6404018304709
20
0.0815913760323497
30
0
41
1
10
60.6448282233929
20
-0.0729262436769602
30
0
41
1
10
60.6564973896659
20
-0.305290813595093
30
0
41
1
10
60.6612267038976
20
-0.382843865726301
30
0
41
1
10
60.6694385830998
20
-0.499322933092827
30
0
41
1
10
60.6723627007846
20
-0.538171346011609
30
0
41
1
10
60.6785225230237
20
-0.615472755199704
30
0
41
1
10
60.6817620405997
20
-0.65398217939611
30
0
41
1
10
60.6986830799
20
-0.845838435180497
30
0
41
1
10
60.7145213981412
20
-0.997119360821358
30
0
41
1
10
60.7491276856497
20
-1.29555843154523
30
0
41
1
10
60.7678989997418
20
-1.44271591596345
30
0
41
1
10
60.7972166988196
20
-1.66045513219714
30
0
41
1
10
60.8071846214917
20
-1.73253420922092
30
0
41
1
10
60.8273576736599
20
-1.87569313172975
30
0
41
1
10
60.8375805367717
20
-1.94689118818056
30
0
41
1
10
60.8680871201092
20
-2.15690102891389
30
0
41
1
10
60.8882856149181
20
-2.29276373785996
30
0
41
1
10
60.9274790065467
20
-2.55650482377394
30
0
41
1
10
60.9654717797217
20
-2.81225933010055
30
0
41
1
10
60.9997434667024
20
-3.05208970805992
30
0
41
1
10
61.0197348914602
20
-3.19685097032575
30
0
41
1
10
61.0236675770757
20
-3.22558493254613
30
0
41
1
10
61.0313519292022
20
-3.28227173691528
30
0
41
1
10
61.0426122352637
20
-3.36616401699615
30
0
41
1
10
61.0530755697139
20
-3.44667927917311
30
0
41
1
10
61.0729662569348
20
-3.60327162335795
30
0
41
1
10
61.0848376867424
20
-3.70175949882682
30
0
41
1
10
61.1061309164907
20
-3.88699793179134
30
0
41
1
10
61.1155517850249
20
-3.97374859044106
30
0
41
1
10
61.1282854773439
20
-4.09487341017055
30
0
41
1
10
61.132299206398
20
-4.13374549838571
30
0
41
1
10
61.138049468605
20
-4.18974925333731
30
0
41
1
10
61.1399234508713
20
-4.20805364770095
30
0
41
1
10
61.1435777400417
20
-4.24370295759476
30
0
41
1
10
61.1453598695425
20
-4.26106549894055
30
0
41
1
10
61.1540892701379
20
-4.34559107364271
30
0
41
1
10
61.1604862855952
20
-4.40590894241925
30
0
41
1
10
61.1733290694951
20
-4.51227067565324
30
0
41
1
10
61.1797735921813
20
-4.55831228401561
30
0
41
1
10
61.1941205495656
20
-4.63606277937012
30
0
41
1
10
61.2020201262867
20
-4.66777337468034
30
0
41
1
10
61.2114791214053
20
-4.69209434666979
30
0
0
SPLINE
5
D9
100
AcDbEntity
8
1
62
256
6
ByLayer
370
13
48
1
60
0
100
AcDbSpline
70
4
71
3
72
21
73
17
40
0
40
0
40
0
40
0
40
0.249999999999992
40
0.249999999999992
40
0.374999999999992
40
0.374999999999992
40
0.499999999999991
40
0.62499999999999
40
0.62499999999999
40
0.74999999999999
40
0.74999999999999
40
0.874999999999989
40
0.874999999999989
40
0.937499999999994
40
0.937499999999994
40
1
40
1
40
1
40
1
41
1
10
3.62812802553279
20
-4.12237858170988
30
0
41
1
10
3.60732084028598
20
-4.12914119642141
30
0
41
1
10
3.5890919573188
20
-4.13726503738479
30
0
41
1
10
3.56507242624059
20
-4.15115862263062
30
0
41
1
10
3.55759418957012
20
-4.15611475003516
30
0
41
1
10
3.54414916861788
20
-4.16629333167046
30
0
41
1
10
3.53210557499969
20
-4.1767872699474
30
0
41
1
10
3.52266962068609
20
-4.18785519852344
30
0
41
1
10
3.51451166029563
20
-4.19919915831841
30
0
41
1
10
3.51106188190806
20
-4.20503766507463
30
0
41
1
10
3.50556041325024
20
-4.21679245298807
30
0
41
1
10
3.50349247954188
20
-4.22272390472654
30
0
41
1
10
3.50141068673364
20
-4.23167927342757
30
0
41
1
10
3.50088860708956
20
-4.23466741026431
30
0
41
1
10
3.50018685883015
20
-4.24064956383196
30
0
41
1
10
3.50000829522577
20
-4.24366198965927
30
0
41
1
10
3.50000028751046
20
-4.24661026441922
30
0
0
SPLINE
5
DA
100
AcDbEntity
8
1
62
256
6
ByLayer
370
13
48
1
60
0
100
AcDbSpline
70
4
71
3
72
10
73
6
40
0
40
0
40
0
40
0
40
0.5
40
0.5
40
1
40
1
40
1
40
1
41
1
10
3.75034145517464
20
-4.11429298123932
30
0
41
1
10
3.72902317866078
20
-4.11086843981252
30
0
41
1
10
3.70812095476546
20
-4.10985375504285
30
0
41
1
10
3.66714965680393
20
-4.11250456474505
30
0
41
1
10
3.64697838385979
20
-4.11625196203354
30
0
41
1
10
3.62812802553279
20
-4.12237858170988
30
0
0
SPLINE
5
DB
100
AcDbEntity
8
1
62
256
6
ByLayer
370
13
48
1
60
0
100
AcDbSpline
70
4
71
3
72
50
73
46
40
0
40
0
40
0
40
0
40
0.0156250000000002
40
0.0156250000000002
40
0.0312500000000004
40
0.0312500000000004
40
0.0625000000000004
40
0.0625000000000004
40
0.125000000000001
40
0.187500000000001
40
0.187500000000001
40
0.218750000000001
40
0.218750000000001
40
0.250000000000001
40
0.250000000000001
40
0.312500000000001
40
0.375000000000001
40
0.375000000000001
40
0.406250000000001
40
0.421875000000001
40
0.421875000000001
40
0.437500000000001
40
0.437500000000001
40
0.500000000000001
40
0.500000000000001
40
0.562500000000001
40
0.562500000000001
40
0.625000000000001
40
0.625000000000001
40
0.640625000000001
40
0.640625000000001
40
0.656250000000001
40
0.687500000000001
40
0.687500000000001
40
0.750000000000001
40
0.8125
40
0.8125
40
0.84375
40
0.84375
40
0.859375
40
0.859375
40
0.875
40
0.875
40
0.9375
40
1
40
1
40
1
40
1
41
1
10
3.75143586847793
20
2.31396975416172
30
0
41
1
10
3.75143437941597
20
2.28002302124511
30
0
41
1
10
3.75143274432474
20
2.24582248254532
30
0
41
1
10
3.75142920564525
20
2.17716689869977
30
0
41
1
10
3.75142730064232
20
2.14267822512079
30
0
41
1
10
3.75142119682357
20
2.03873451889899
30
0
41
1
10
3.75141660957649
20
1.96880209905007
30
0
41
1
10
3.75140142460771
20
1.75712350602618
30
0
41
1
10
3.75137739280785
20
1.46987736610976
30
0
41
1
10
3.75134691651874
20
1.17269768202669
30
0
41
1
10
3.75132194768759
20
0.946010487927339
30
0
41
1
10
3.75131327175086
20
0.869813197123676
30
0
41
1
10
3.75129525134355
20
0.716121291575831
30
0
41
1
10
3.75128598188868
20
0.63926517518442
30
0
41
1
10
3.75125748622105
20
0.408712406747725
30
0
41
1
10
3.75121766458921
20
0.101309386904148
30
0
41
1
10
3.75117482604546
20
-0.206092317816115
30
0
41
1
10
3.75114168540759
20
-0.436643099158516
30
0
41
1
10
3.75112486047055
20
-0.551918365313668
30
0
41
1
10
3.75110765994572
20
-0.667193441871888
30
0
41
1
10
3.75109610901035
20
-0.744043450311693
30
0
41
1
10
3.75109028397048
20
-0.782518536783073
30
0
41
1
10
3.75106104803231
20
-0.974233276369262
30
0
41
1
10
3.75103737531606
20
-1.12508429596758
30
0
41
1
10
3.75098941396698
20
-1.42189960097346
30
0
41
1
10
3.75096512527162
20
-1.56786348985889
30
0
41
1
10
3.75091575047827
20
-1.85491347863171
30
0
41
1
10
3.750890664976
20
-1.9959998763492
30
0
41
1
10
3.75085860881438
20
-2.16922594981361
30
0
41
1
10
3.75085215513718
20
-2.20375171220689
30
0
41
1
10
3.75083920429046
20
-2.27230716952405
30
0
41
1
10
3.75081974234018
20
-2.37424160413781
30
0
41
1
10
3.75080014767357
20
-2.47351215697267
30
0
41
1
10
3.75076070610913
20
-2.66856153452338
30
0
41
1
10
3.75070745038264
20
-2.91933258735267
30
0
41
1
10
3.75065193240437
20
-3.1517375352438
30
0
41
1
10
3.75060902309184
20
-3.31903774581576
30
0
41
1
10
3.7505945072177
20
-3.37363513978795
30
0
41
1
10
3.75057235224878
20
-3.45374278696173
30
0
41
1
10
3.75056489576636
20
-3.48017375228656
30
0
41
1
10
3.75054990865172
20
-3.53221164517254
30
0
41
1
10
3.75054237301785
20
-3.55783779843023
30
0
41
1
10
3.75050446197173
20
-3.68401814967564
30
0
41
1
10
3.7504423177426
20
-3.8734525547635
30
0
41
1
10
3.75037599486518
20
-4.03820883892061
30
0
41
1
10
3.75034145517464
20
-4.11429298123929
30
0
0
SPLINE
5
DC
100
AcDbEntity
8
1
62
256
6
ByLayer
370
18
48
1
60
0
100
AcDbSpline
70
4
71
3
72
40
73
36
40
0
40
0
40
0
40
0
40
0.124999999999946
40
0.124999999999946
40
0.249999999999891
40
0.249999999999891
40
0.312499999999862
40
0.312499999999862
40
0.374999999999833
40
0.374999999999833
40
0.437499999999804
40
0.437499999999804
40
0.499999999999776
40
0.499999999999776
40
0.562499999999747
40
0.562499999999747
40
0.593749999999743
40
0.593749999999743
40
0.62499999999974
40
0.62499999999974
40
0.687499999999736
40
0.687499999999736
40
0.718749999999752
40
0.718749999999752
40
0.749999999999767
40
0.749999999999767
40
0.781249999999783
40
0.781249999999783
40
0.812499999999799
40
0.812499999999799
40
0.874999999999866
40
0.874999999999866
40
0.937499999999933
40
0.937499999999933
40
1
40
1
40
1
40
1
41
1
10
3.50000491400064
20
2.25947172134227
30
0
41
1
10
3.50007787514031
20
2.27061881912402
30
0
41
1
10
3.50095774292944
20
2.28140526911002
30
0
41
1
10
3.50451997101112
20
2.30216976149322
30
0
41
1
10
3.50719705858487
20
2.31215024884301
30
0
41
1
10
3.51287050847958
20
2.32637307454775
30
0
41
1
10
3.51504004231521
20
2.33098840055757
30
0
41
1
10
3.52003026905407
20
2.33992409420392
30
0
41
1
10
3.52286113600311
20
2.34425746419811
30
0
41
1
10
3.52924912398828
20
2.35247761565006
30
0
41
1
10
3.5328043970116
20
2.3563689014868
30
0
41
1
10
3.54079949770798
20
2.36361367989548
30
0
41
1
10
3.54526270103327
20
2.36698252881945
30
0
41
1
10
3.55520046284852
20
2.37293608652513
30
0
41
1
10
3.5606613447205
20
2.37552209883765
30
0
41
1
10
3.56981199659577
20
2.37863642503675
30
0
41
1
10
3.57302323873506
20
2.37954617076667
30
0
41
1
10
3.57982611974171
20
2.38106192222486
30
0
41
1
10
3.58344006215518
20
2.38166960430331
30
0
41
1
10
3.5947455085134
20
2.38291850636477
30
0
41
1
10
3.60290905710264
20
2.38300681420583
30
0
41
1
10
3.61636761512321
20
2.38169414258235
30
0
41
1
10
3.62100062764455
20
2.38101615497766
30
0
41
1
10
3.63041122667869
20
2.37918907618351
30
0
41
1
10
3.63521199880529
20
2.37803791176756
30
0
41
1
10
3.64500778198897
20
2.37525158545225
30
0
41
1
10
3.6500459958296
20
2.3735994015189
30
0
41
1
10
3.66007228059578
20
2.36989374529813
30
0
41
1
10
3.66505540821441
20
2.36784699012983
30
0
41
1
10
3.67992411357943
20
2.36118567497036
30
0
41
1
10
3.68979470793158
20
2.35600295472182
30
0
41
1
10
3.70854717535508
20
2.34500047401835
30
0
41
1
10
3.71754531793633
20
2.33913502358149
30
0
41
1
10
3.73497801810106
20
2.32686163498957
30
0
41
1
10
3.74337752791214
20
2.32047280020186
30
0
41
1
10
3.7514358684779
20
2.31396975416163
30
0
0
SPLINE
5
DD
100
AcDbEntity
8
1
62
256
6
ByLayer
370
13
48
1
60
0
100
AcDbSpline
70
4
71
3
72
52
73
48
40
0
40
0
40
0
40
0
40
0.017269978778683
40
0.017269978778683
40
0.0863498350882983
40
0.0863498350882983
40
0.103619799165703
40
0.103619799165703
40
0.120889763243108
40
0.120889763243108
40
0.155429691397918
40
0.155429691397918
40
0.224509547707537
40
0.224509547707537
40
0.259049475862347
40
0.259049475862347
40
0.293589404017158
40
0.293589404017158
40
0.362669260326779
40
0.362669260326779
40
0.39720918848159
40
0.39720918848159
40
0.431749116636401
40
0.431749116636401
40
0.500828972946021
40
0.500828972946021
40
0.535368901100832
40
0.535368901100832
40
0.552638865178239
40
0.552638865178239
40
0.569908829255646
40
0.569908829255646
40
0.638988685565274
40
0.638988685565274
40
0.673528613720088
40
0.673528613720088
40
0.708068541874902
40
0.708068541874902
40
0.777148398184532
40
0.777148398184532
40
0.846228254494162
40
0.846228254494162
40
0.915308110803792
40
0.915308110803792
40
0.984387967113422
40
0.984387967113422
40
1
40
1
40
1
40
1
41
1
10
17.9060357635256
20
2.03654263809656
30
0
41
1
10
17.9808962486217
20
1.99973742840388
30
0
41
1
10
18.0558036689054
20
1.96268103805662
30
0
41
1
10
18.4305983969782
20
1.77617253779826
30
0
41
1
10
18.7312409246668
20
1.62298529877751
30
0
41
1
10
19.1085545430779
20
1.42728542561656
30
0
41
1
10
19.1840451715875
20
1.38796111840389
30
0
41
1
10
19.3347977234847
20
1.30913495104434
30
0
41
1
10
19.4101041427489
20
1.269611174527
30
0
41
1
10
19.6358355388849
20
1.15074824530205
30
0
41
1
10
19.7860694090696
20
1.07111168460233
30
0
41
1
10
20.2360819899747
20
0.831156805722287
30
0
41
1
10
20.5351819944033
20
0.669811837306412
30
0
41
1
10
20.9830248849461
20
0.426771963607706
30
0
41
1
10
21.1321761631381
20
0.34559679608904
30
0
41
1
10
21.4303452606951
20
0.183155373821307
30
0
41
1
10
21.579357853944
20
0.10187987643198
30
0
41
1
10
22.0262566254479
20
-0.141962954990333
30
0
41
1
10
22.3240113513329
20
-0.30453331012987
30
0
41
1
10
22.7709198515303
20
-0.547384353458881
30
0
41
1
10
22.9199394545874
20
-0.62816042024869
30
0
41
1
10
23.2181968139628
20
-0.789147410746409
30
0
41
1
10
23.36743024179
20
-0.869365709758654
30
0
41
1
10
23.8155279856429
20
-1.10903360673254
30
0
41
1
10
24.1147992446017
20
-1.26748036107475
30
0
41
1
10
24.5651530575412
20
-1.50196508661196
30
0
41
1
10
24.7155087360365
20
-1.5796020819383
30
0
41
1
10
24.9414396118764
20
-1.69519447962537
30
0
41
1
10
25.0168170297396
20
-1.73357975639055
30
0
41
1
10
25.1677217553651
20
-1.81003010270663
30
0
41
1
10
25.2431995786717
20
-1.84806968707841
30
0
41
1
10
25.6200116962448
20
-2.03690245145847
30
0
41
1
10
25.9203038788421
20
-2.18396199278925
30
0
41
1
10
26.3695717245638
20
-2.39769908617225
30
0
41
1
10
26.5191375681164
20
-2.46780570903567
30
0
41
1
10
26.8180041125263
20
-2.60562279256746
30
0
41
1
10
26.9672981406811
20
-2.6733310903106
30
0
41
1
10
27.4148214754323
20
-2.87267753657906
30
0
41
1
10
27.7127068595871
20
-3.00054239722078
30
0
41
1
10
28.308357243674
20
-3.24512434340022
30
0
41
1
10
28.6061508276501
20
-3.36188199548298
30
0
41
1
10
29.2023376150514
20
-3.58330644402119
30
0
41
1
10
29.5007184644076
20
-3.68794768385152
30
0
41
1
10
30.0988121903523
20
-3.8841368307977
30
0
41
1
10
30.398528773124
20
-3.97571670331393
30
0
41
1
10
30.7672297744321
20
-4.07934512691384
30
0
41
1
10
30.8352481274692
20
-4.0980874481954
30
0
41
1
10
30.9033240073135
20
-4.11646309288017
30
0
0
SPLINE
5
DE
100
AcDbEntity
8
1
62
256
6
ByLayer
370
18
48
1
60
0
100
AcDbSpline
70
4
71
3
72
24
73
20
40
0
40
0
40
0
40
0
40
0.055884198408316
40
0.055884198408316
40
0.157862583679347
40
0.157862583679347
40
0.36181935422141
40
0.36181935422141
40
0.463797739492444
40
0.463797739492444
40
0.514786932127961
40
0.514786932127961
40
0.565776124763479
40
0.565776124763479
40
0.769732895305534
40
0.769732895305534
40
0.97368966584759
40
0.97368966584759
40
1
40
1
40
1
40
1
41
1
10
30.9033240070596
20
-4.11646309281164
30
0
41
1
10
30.9858586221647
20
-4.13874156743313
30
0
41
1
10
31.0684777955234
20
-4.16048106667583
30
0
41
1
10
31.3021268648138
20
-4.22033733662275
30
0
41
1
10
31.452985902332
20
-4.25706614197026
30
0
41
1
10
31.9053182794343
20
-4.36137327995422
30
0
41
1
10
32.2066030012373
20
-4.42309560524569
30
0
41
1
10
32.6586942380891
20
-4.50348974037871
30
0
41
1
10
32.8094181618765
20
-4.52825319052428
30
0
41
1
10
33.0356132463708
20
-4.56229470640972
30
0
41
1
10
33.1110298776238
20
-4.57312555754595
30
0
41
1
10
33.2619117055429
20
-4.59375012868944
30
0
41
1
10
33.3373990163765
20
-4.6035462050271
30
0
41
1
10
33.7145178578164
20
-4.64986734015832
30
0
41
1
10
34.015463847049
20
-4.67848606716845
30
0
41
1
10
34.6166086232061
20
-4.71867420492913
30
0
41
1
10
34.9168074845473
20
-4.73019893320424
30
0
41
1
10
35.2556999768397
20
-4.73358748174994
30
0
41
1
10
35.2944214269208
20
-4.733832942916
30
0
41
1
10
35.3331432975131
20
-4.73393662301407
30
0
0
SPLINE
5
DF
100
AcDbEntity
8
1
62
256
6
ByLayer
370
13
48
1
60
0
100
AcDbSpline
70
4
71
3
72
32
73
28
40
0
40
0
40
0
40
0
40
0.0936120512889366
40
0.0936120512889366
40
0.198676140469915
40
0.198676140469915
40
0.303740229650894
40
0.303740229650894
40
0.408804318831874
40
0.408804318831874
40
0.435070341127119
40
0.435070341127119
40
0.461336363422365
40
0.461336363422365
40
0.51386840801286
40
0.51386840801286
40
0.61893249719385
40
0.61893249719385
40
0.671464541784347
40
0.671464541784347
40
0.723996586374844
40
0.723996586374844
40
0.829060675555834
40
0.829060675555834
40
0.934124764736824
40
0.934124764736824
40
1
40
1
40
1
40
1
41
1
10
36.8752070142747
20
-4.73967339755293
30
0
41
1
10
36.6065377383712
20
-4.76902634120449
30
0
41
1
10
36.3384300125215
20
-4.79147159438438
30
0
41
1
10
35.7700738883176
20
-4.82439274858038
30
0
41
1
10
35.4698978427926
20
-4.83308402409978
30
0
41
1
10
34.8695052997107
20
-4.8330751327488
30
0
41
1
10
34.5692834211935
20
-4.82436804440823
30
0
41
1
10
33.9680473924075
20
-4.78943076346684
30
0
41
1
10
33.6670494756229
20
-4.76323941054179
30
0
41
1
10
33.2898440552008
20
-4.71968002483905
30
0
41
1
10
33.2143368453237
20
-4.71042294513481
30
0
41
1
10
33.0634171360091
20
-4.69084908574524
30
0
41
1
10
32.9879821435919
20
-4.68053007922194
30
0
41
1
10
32.7617318435344
20
-4.64798431164945
30
0
41
1
10
32.6109700048518
20
-4.62416578881783
30
0
41
1
10
32.158767038504
20
-4.54644006277499
30
0
41
1
10
31.8574139669963
20
-4.48627219568871
30
0
41
1
10
31.404982278259
20
-4.38393136168995
30
0
41
1
10
31.25409106282
20
-4.34779752841223
30
0
41
1
10
30.9521356401886
20
-4.27153776475851
30
0
41
1
10
30.8014785983023
20
-4.23151981355142
30
0
41
1
10
30.3502974072329
20
-4.10600699029715
30
0
41
1
10
30.0505668602238
20
-4.0150462158328
30
0
41
1
10
29.4525035514099
20
-3.81961742271281
30
0
41
1
10
29.154152881516
20
-3.71513580296738
30
0
41
1
10
28.6692069238526
20
-3.53491606196007
30
0
41
1
10
28.4824499594808
20
-3.46298999131906
30
0
41
1
10
28.2957330385294
20
-3.38871833187062
30
0
0
SPLINE
5
E0
100
AcDbEntity
8
1
62
256
6
ByLayer
370
18
48
1
60
0
100
AcDbSpline
70
4
71
3
72
32
73
28
40
0
40
0
40
0
40
0
40
0.0496538235861518
40
0.0496538235861518
40
0.182774169388687
40
0.182774169388687
40
0.249334342289955
40
0.249334342289955
40
0.315894515191223
40
0.315894515191223
40
0.449014860993753
40
0.449014860993753
40
0.482294947444385
40
0.482294947444385
40
0.515575033895018
40
0.515575033895018
40
0.582135206796279
40
0.582135206796279
40
0.7152555525988
40
0.7152555525988
40
0.78181572550006
40
0.78181572550006
40
0.84837589840132
40
0.84837589840132
40
0.981496244203842
40
0.981496244203842
40
1
40
1
40
1
40
1
41
1
10
28.2957330362483
20
-3.38871833096323
30
0
41
1
10
28.1846560577781
20
-3.34453448582696
30
0
41
1
10
28.0735932506807
20
-3.29952053643296
30
0
41
1
10
27.664758811648
20
-3.13086985261262
30
0
41
1
10
27.3669170516447
20
-3.00224938048856
30
0
41
1
10
26.9194302826838
20
-2.80143925653172
30
0
41
1
10
26.7701432841291
20
-2.7331889387614
30
0
41
1
10
26.4712978216884
20
-2.59413966842004
30
0
41
1
10
26.3217464400145
20
-2.52334136180886
30
0
41
1
10
25.8724879260562
20
-2.30737369125095
30
0
41
1
10
25.5721588697878
20
-2.1586181360401
30
0
41
1
10
25.1952551103136
20
-1.96735778243914
30
0
41
1
10
25.1197555897292
20
-1.92881667595722
30
0
41
1
10
24.9688070865366
20
-1.85133396743825
30
0
41
1
10
24.893410777238
20
-1.81241994635943
30
0
41
1
10
24.6674326200921
20
-1.69520198671336
30
0
41
1
10
24.5170591088861
20
-1.61642662315043
30
0
41
1
10
24.0666725681935
20
-1.37839545055274
30
0
41
1
10
23.7674025532732
20
-1.21741811011927
30
0
41
1
10
23.3193207921491
20
-0.973718359015805
30
0
41
1
10
23.1700951058488
20
-0.892116427739268
30
0
41
1
10
22.8718769362887
20
-0.728247124312816
30
0
41
1
10
22.7228890762754
20
-0.645972233220334
30
0
41
1
10
22.2760643679448
20
-0.3985299978402
30
0
41
1
10
21.9783543999458
20
-0.232763345689705
30
0
41
1
10
21.6390543999146
20
-0.043783230282088
30
0
41
1
10
21.5976435281711
20
-0.0207180383621335
30
0
41
1
10
21.5562285226659
20
0.0023489554281753
30
0
0
SPLINE
5
E1
100
AcDbEntity
8
1
62
256
6
ByLayer
370
18
48
1
60
0
100
AcDbSpline
70
4
71
3
72
8
73
4
40
0
40
0
40
0
40
0
40
1
40
1
40
1
40
1
41
1
10
61.1857134966954
20
-4.80476640122563
30
0
41
1
10
61.1691022709704
20
-4.85321125048876
30
0
41
1
10
61.1526657698881
20
-4.90165053744735
30
0
41
1
10
61.1364099178158
20
-4.95009015829049
30
0
0
SPLINE
5
E2
100
AcDbEntity
8
1
62
256
6
ByLayer
370
13
48
1
60
0
100
AcDbSpline
70
4
71
3
72
12
73
8
40
0
40
0
40
0
40
0
40
0.499999999999996
40
0.499999999999996
40
0.749999999999998
40
0.749999999999998
40
1
40
1
40
1
40
1
41
1
10
3.70161034634799
20
-4.24282904066041
30
0
41
1
10
3.68879665986651
20
-4.23945190573238
30
0
41
1
10
3.67625987325061
20
-4.23755859906993
30
0
41
1
10
3.65786598892333
20
-4.23684242924415
30
0
41
1
10
3.6518040011558
20
-4.23696185594474
30
0
41
1
10
3.63982777979297
20
-4.23795272945728
30
0
41
1
10
3.63389015639234
20
-4.2388310738032
30
0
41
1
10
3.62812802553279
20
-4.24010035570927
30
0
0
SPLINE
5
E3
100
AcDbEntity
8
1
62
256
6
ByLayer
370
13
48
1
60
0
100
AcDbSpline
70
4
71
3
72
8
73
4
40
0
40
0
40
0
40
0
40
1
40
1
40
1
40
1
41
1
10
3.6255892244146
20
-4.35479999630155
30
0
41
1
10
3.62642715403231
20
-4.31657067761222
30
0
41
1
10
3.62727340583905
20
-4.27833752232789
30
0
41
1
10
3.62812802553276
20
-4.24010035570927
30
0
0
SPLINE
5
E4
100
AcDbEntity
8
1
62
256
6
ByLayer
370
18
48
1
60
0
100
AcDbSpline
70
4
71
3
72
18
73
14
40
0
40
0
40
0
40
0
40
0.409500441625714
40
0.409500441625714
40
0.614250662438574
40
0.614250662438574
40
0.716625772845003
40
0.716625772845003
40
0.767813328048219
40
0.767813328048219
40
0.819000883251436
40
0.819000883251436
40
1
40
1
40
1
40
1
41
1
10
3.75034145517466
20
-4.11429298123932
30
0
41
1
10
4.3538901223472
20
-4.27538419666078
30
0
41
1
10
4.95508897525519
20
-4.40530813349062
30
0
41
1
10
5.85742686622811
20
-4.55157654213264
30
0
41
1
10
6.15831087740247
20
-4.5922281778679
30
0
41
1
10
6.61044836653423
20
-4.64077354516019
30
0
41
1
10
6.7612958466801
20
-4.6548776813365
30
0
41
1
10
6.98784585008752
20
-4.67285075368127
30
0
41
1
10
7.06335643363698
20
-4.6783073515042
30
0
41
1
10
7.21417173304411
20
-4.68813964237793
30
0
41
1
10
7.28950654514219
20
-4.69251771297866
30
0
41
1
10
7.63091410959353
20
-4.70994492672219
30
0
41
1
10
7.89620246902277
20
-4.71683173769637
30
0
41
1
10
8.160915039347
20
-4.71710197547586
30
0
0
SPLINE
5
E5
100
AcDbEntity
8
1
62
256
6
ByLayer
370
13
48
1
60
0
100
AcDbSpline
70
4
71
3
72
34
73
30
40
0
40
0
40
0
40
0
40
0.133060629090871
40
0.133060629090871
40
0.202399139900492
40
0.202399139900492
40
0.271737650710114
40
0.271737650710114
40
0.306406906114924
40
0.306406906114924
40
0.341076161519733
40
0.341076161519733
40
0.410414672329352
40
0.410414672329352
40
0.549091693948588
40
0.549091693948588
40
0.687768715567823
40
0.687768715567823
40
0.757107226377441
40
0.757107226377441
40
0.79177648178225
40
0.79177648178225
40
0.809111109484656
40
0.809111109484656
40
0.826445737187061
40
0.826445737187061
40
0.965122758806306
40
0.965122758806306
40
1
40
1
40
1
40
1
41
1
10
45.1729233981994
20
2.01064428722515
30
0
41
1
10
45.7448754509925
20
1.72722391939951
30
0
41
1
10
46.3152090949257
20
1.43139826868446
30
0
41
1
10
47.1840363890606
20
0.969356361228591
30
0
41
1
10
47.4819478967503
20
0.808967389147227
30
0
41
1
10
48.0789433566862
20
0.485111615911251
30
0
41
1
10
48.3780267435983
20
0.321654117884151
30
0
41
1
10
48.8281021912872
20
0.0751927222064239
30
0
41
1
10
48.9783746151037
20
-0.0071671666527209
30
0
41
1
10
49.2795197102897
20
-0.172093202894018
30
0
41
1
10
49.4305335623428
20
-0.25475264179417
30
0
41
1
10
49.8822093087222
20
-0.501510114202205
30
0
41
1
10
50.1822065304265
20
-0.664715424169771
30
0
41
1
10
51.0797365159256
20
-1.14883142905245
30
0
41
1
10
51.674878759542
20
-1.46413376406781
30
0
41
1
10
52.8646290626778
20
-2.06949888461119
30
0
41
1
10
53.4591668201283
20
-2.35975559572427
30
0
41
1
10
54.3549756455044
20
-2.76873632116349
30
0
41
1
10
54.6542526118621
20
-2.90066147335119
30
0
41
1
10
55.1047423485665
20
-3.09100863899403
30
0
41
1
10
55.2551669966312
20
-3.15320108258882
30
0
41
1
10
55.4812625719612
20
-3.24448763762214
30
0
41
1
10
55.5567146687499
20
-3.274586236809
30
0
41
1
10
55.7073376958027
20
-3.33392364060998
30
0
41
1
10
55.7825639354045
20
-3.36318501261286
30
0
41
1
10
56.4588863724392
20
-3.62282739498414
30
0
41
1
10
57.0549576891376
20
-3.82725114043276
30
0
41
1
10
57.7983961160142
20
-4.04688848079684
30
0
41
1
10
57.947684255067
20
-4.08920600709186
30
0
41
1
10
58.0968917940786
20
-4.12966618854671
30
0
0
SPLINE
5
E6
100
AcDbEntity
8
1
62
256
6
ByLayer
370
18
48
1
60
0
100
AcDbSpline
70
4
71
3
72
18
73
14
40
0
40
0
40
0
40
0
40
0.142121934141107
40
0.142121934141107
40
0.42808128942741
40
0.42808128942741
40
0.714040644713715
40
0.714040644713715
40
0.857020322356863
40
0.928510161178437
40
0.964255080589218
40
0.964255080589218
40
1
40
1
40
1
40
1
41
1
10
58.0968917570511
20
-4.12966617850611
30
0
41
1
10
58.2443197497924
20
-4.16964380579034
30
0
41
1
10
58.3916690536022
20
-4.20780812784775
30
0
41
1
10
58.8353506102021
20
-4.31719293023065
30
0
41
1
10
59.1315566009662
20
-4.38278375058277
30
0
41
1
10
59.7243874197706
20
-4.4984388674647
30
0
41
1
10
60.0210061893526
20
-4.5484981394624
30
0
41
1
10
60.4667142420534
20
-4.61149046179818
30
0
41
1
10
60.6897633103803
20
-4.63996537874456
30
0
41
1
10
60.9504336000475
20
-4.66782426365515
30
0
41
1
10
61.0622561154365
20
-4.6786066437864
30
0
41
1
10
61.1368293849765
20
-4.6855368429315
30
0
41
1
10
61.1741226451667
20
-4.68883417566698
30
0
41
1
10
61.2114791214069
20
-4.69209434666976
30
0
0
SPLINE
5
E7
100
AcDbEntity
8
1
62
256
6
ByLayer
370
13
48
1
60
0
100
AcDbSpline
70
4
71
3
72
23
73
19
40
0
40
0
40
0
40
0
40
0.01953735679683
40
0.01953735679683
40
0.0390747135936588
40
0.0781494271873198
40
0.156298854374645
40
0.156298854374645
40
0.3125977087493
40
0.3125977087493
40
0.468896563123957
40
0.468896563123957
40
0.625195417498613
40
0.625195417498613
40
0.937793126247919
40
0.976867839841583
40
0.976867839841583
40
1
40
1
40
1
40
1
41
1
10
61.1857134966955
20
-4.80476640122566
30
0
41
1
10
61.1481171348535
20
-4.80177273496037
30
0
41
1
10
61.1105155744132
20
-4.79880609591638
30
0
41
1
10
61.0353550245708
20
-4.79253033897427
30
0
41
1
10
60.9226627987396
20
-4.78271413335747
30
0
41
1
10
60.6600404823513
20
-4.75700304933289
30
0
41
1
10
60.4354467317233
20
-4.73019249894665
30
0
41
1
10
59.9868097732643
20
-4.67030951494954
30
0
41
1
10
59.6884518501574
20
-4.62203121173312
30
0
41
1
10
59.0925399044718
20
-4.50940279379603
30
0
41
1
10
58.79499194606
20
-4.44505631531783
30
0
41
1
10
58.1999082083476
20
-4.30093859720006
30
0
41
1
10
57.9023539403316
20
-4.22116227155425
30
0
41
1
10
57.0088975249793
20
-3.95950705931563
30
0
41
1
10
56.3372468161294
20
-3.72975905451594
30
0
41
1
10
55.6598537965468
20
-3.46566987497914
30
0
41
1
10
55.5399084291315
20
-3.41828834008896
30
0
41
1
10
55.4952599552134
20
-3.40051463031006
30
0
41
1
10
55.4506109222878
20
-3.38260633699784
30
0
0
SPLINE
5
E8
100
AcDbEntity
8
1
62
256
6
ByLayer
370
18
48
1
60
0
100
AcDbSpline
70
4
71
3
72
24
73
20
40
0
40
0
40
0
40
0
40
0.013676637968172
40
0.013676637968172
40
0.0807187367907495
40
0.0807187367907495
40
0.214802934435909
40
0.214802934435909
40
0.482971329726224
40
0.482971329726224
40
0.751139725016539
40
0.751139725016539
40
0.885223922661696
40
0.885223922661696
40
0.918744972072989
40
0.918744972072989
40
0.952266021484281
40
0.952266021484281
40
1
40
1
40
1
40
1
41
1
10
55.4506108514781
20
-3.38260630859676
30
0
41
1
10
55.4198390151088
20
-3.37026402389941
30
0
41
1
10
55.3890669132289
20
-3.35785781363236
30
0
41
1
10
55.2075374860011
20
-3.28429822301129
30
0
41
1
10
55.0570810550813
20
-3.22181232243005
30
0
41
1
10
54.6065233840252
20
-3.03041735158661
30
0
41
1
10
54.3072402613176
20
-2.8975662999602
30
0
41
1
10
53.4114772133925
20
-2.48516952307207
30
0
41
1
10
52.8170575947145
20
-2.19178595923782
30
0
41
1
10
51.6275614577924
20
-1.57843187389901
30
0
41
1
10
51.0325050778277
20
-1.25834493561499
30
0
41
1
10
50.1349490314983
20
-0.765840461217039
30
0
41
1
10
49.8349175982451
20
-0.599636614104327
30
0
41
1
10
49.4584475557343
20
-0.389970975071975
30
0
41
1
10
49.3830805424416
20
-0.347944568375482
30
0
41
1
10
49.2321850832603
20
-0.263729698469376
30
0
41
1
10
49.1567940688772
20
-0.221618550810433
30
0
41
1
10
48.9742661825735
20
-0.119599129056553
30
0
41
1
10
48.8671967352921
20
-0.0597015549336675
30
0
41
1
10
48.7602632773555
20
0.0001192163713029
30
0
0
SPLINE
5
E9
100
AcDbEntity
8
1
62
256
6
ByLayer
370
13
48
1
60
0
100
AcDbSpline
70
4
71
3
72
20
73
16
40
0
40
0
40
0
40
0
40
0.0814452564977485
40
0.0814452564977485
40
0.387630170998499
40
0.387630170998499
40
0.425903285311092
40
0.425903285311092
40
0.464176399623685
40
0.464176399623685
40
0.540722628248874
40
0.540722628248874
40
0.69381508549925
40
0.69381508549925
40
1
40
1
40
1
40
1
41
1
10
9.58923951176217
20
-4.73215633806382
30
0
41
1
10
9.43074122332732
20
-4.74856024837212
30
0
41
1
10
9.27220228876948
20
-4.76259110329968
30
0
41
1
10
8.51716509186988
20
-4.81793461777133
30
0
41
1
10
7.91936469904971
20
-4.82767807776918
30
0
41
1
10
7.2418540269305
20
-4.79924899047361
30
0
41
1
10
7.16650492089639
20
-4.79554254452862
30
0
41
1
10
7.01565698266342
20
-4.78702897938149
30
0
41
1
10
6.94012762602324
20
-4.78221972183582
30
0
41
1
10
6.71351352852383
20
-4.76614856911988
30
0
41
1
10
6.5626247864011
20
-4.75325814736615
30
0
41
1
10
6.11036982075257
20
-4.70818640947655
30
0
41
1
10
5.80941535583665
20
-4.66962666230847
30
0
41
1
10
4.90683496403446
20
-4.52899204013144
30
0
41
1
10
4.30544244958085
20
-4.40197313158404
30
0
41
1
10
3.70161034634799
20
-4.24282904066041
30
0
0
SPLINE
5
EA
100
AcDbEntity
8
1
62
256
6
ByLayer
370
18
48
1
60
0
100
AcDbSpline
70
4
71
3
72
22
73
18
40
0
40
0
40
0
40
0
40
0.125
40
0.125
40
0.25
40
0.25
40
0.375
40
0.375
40
0.5
40
0.5
40
0.625
40
0.625
40
0.75
40
0.75
40
0.875
40
0.875
40
1
40
1
40
1
40
1
41
1
10
61.2114791214052
20
-4.69209434666965
30
0
41
1
10
61.2118962479027
20
-4.69316686248493
30
0
41
1
10
61.212149156347
20
-4.69472141477817
30
0
41
1
10
61.2123004159602
20
-4.69885847805219
30
0
41
1
10
61.2121981959562
20
-4.70145192592938
30
0
41
1
10
61.2115770298861
20
-4.70779778735087
30
0
41
1
10
61.211066512161
20
-4.71147384053143
30
0
41
1
10
61.2096029722409
20
-4.71993606315883
30
0
41
1
10
61.2086325860013
20
-4.7247918600232
30
0
41
1
10
61.2062911903538
20
-4.73526064843344
30
0
41
1
10
61.2049177846984
20
-4.74090489810814
30
0
41
1
10
61.2017296545664
20
-4.75309577805609
30
0
41
1
10
61.1999592890918
20
-4.75946585723958
30
0
41
1
10
61.1961768766802
20
-4.77240590496808
30
0
41
1
10
61.1941294136286
20
-4.77909058618351
30
0
41
1
10
61.1899847247461
20
-4.79209332087396
30
0
41
1
10
61.1878557034654
20
-4.79851888609423
30
0
41
1
10
61.1857134966954
20
-4.80476640122529
30
0
0
SPLINE
5
EB
100
AcDbEntity
8
1
62
256
6
ByLayer
370
18
48
1
60
0
100
AcDbSpline
70
4
71
3
72
91
73
87
40
0
40
0
40
0
40
0
40
0.0038452385935461
40
0.0038452385935461
40
0.0338860941018597
40
0.0338860941018597
40
0.048906521856017
40
0.048906521856017
40
0.0564167357330957
40
0.0564167357330957
40
0.0639269496101743
40
0.0639269496101743
40
0.0939678051184869
40
0.0939678051184869
40
0.124008660626799
40
0.124008660626799
40
0.184090371643423
40
0.184090371643423
40
0.214131227151736
40
0.214131227151736
40
0.244172082660049
40
0.244172082660049
40
0.251682296537126
40
0.251682296537126
40
0.259192510414203
40
0.259192510414203
40
0.274212938168358
40
0.274212938168358
40
0.304253793676666
40
0.304253793676666
40
0.364335504693284
40
0.364335504693284
40
0.424417215709901
40
0.424417215709901
40
0.439437643464056
40
0.439437643464056
40
0.45445807121821
40
0.45445807121821
40
0.48449892672652
40
0.48449892672652
40
0.499519354480674
40
0.499519354480674
40
0.514539782234829
40
0.514539782234829
40
0.544580637743138
40
0.544580637743138
40
0.574621493251448
40
0.574621493251448
40
0.604662348759757
40
0.604662348759757
40
0.634703204268066
40
0.634703204268066
40
0.649723632022221
40
0.649723632022221
40
0.657233845899298
40
0.657233845899298
40
0.664744059776376
40
0.664744059776376
40
0.694784915284685
40
0.694784915284685
40
0.724825770792994
40
0.724825770792994
40
0.754866626301304
40
0.754866626301304
40
0.784907481809613
40
0.784907481809613
40
0.814948337317922
40
0.814948337317922
40
0.844989192826231
40
0.844989192826231
40
0.852499406703309
40
0.852499406703309
40
0.860009620580387
40
0.875030048334542
40
0.875030048334542
40
0.905070903842851
40
0.905070903842851
40
0.93511175935116
40
0.93511175935116
40
0.942621973228238
40
0.942621973228238
40
0.950132187105315
40
0.950132187105315
40
0.96515261485947
40
0.96515261485947
40
1
40
1
40
1
40
1
41
1
10
37.8619178048619
20
-4.74471880625487
30
0
41
1
10
37.8234207390063
20
-4.75150023871737
30
0
41
1
10
37.7849263065847
20
-4.75814056665871
30
0
41
1
10
37.4457111261885
20
-4.81541171271462
30
0
41
1
10
37.1450969538904
20
-4.8575442918239
30
0
41
1
10
36.6936932716133
20
-4.90748602275931
30
0
41
1
10
36.5431442003276
20
-4.92192403154215
30
0
41
1
10
36.3171314683748
20
-4.94023488066026
30
0
41
1
10
36.2417624901476
20
-4.94578078624446
30
0
41
1
10
36.0909486679854
20
-4.95575104237219
30
0
41
1
10
36.0154891764368
20
-4.96017547819443
30
0
41
1
10
35.638775399169
20
-4.97944375920696
30
0
41
1
10
35.3386450762131
20
-4.98577108729606
30
0
41
1
10
34.7400141223515
20
-4.98057446415834
30
0
41
1
10
34.4415088164363
20
-4.96905316169295
30
0
41
1
10
33.5473066424159
20
-4.90819976509715
30
0
41
1
10
32.9529657669925
20
-4.83254551313129
30
0
41
1
10
32.0592763301428
20
-4.66843988355208
30
0
41
1
10
31.7610387566849
20
-4.60529276783868
30
0
41
1
10
31.1630924470784
20
-4.4624363056484
30
0
41
1
10
30.8633991752578
20
-4.38271320240509
30
0
41
1
10
30.4873313023724
20
-4.27294569463481
30
0
41
1
10
30.4120449931146
20
-4.25048682256875
30
0
41
1
10
30.2613163955982
20
-4.20456182265426
30
0
41
1
10
30.185825758751
20
-4.18107990183458
30
0
41
1
10
29.9596852687004
20
-4.1093157277156
30
0
41
1
10
29.8092441633022
20
-4.0596812916356
30
0
41
1
10
29.3587123259536
20
-3.90562950520882
30
0
41
1
10
29.0594016409106
20
-3.7960764835523
30
0
41
1
10
28.1633854708901
20
-3.44857070171307
30
0
41
1
10
27.5688017056102
20
-3.19149481370266
30
0
41
1
10
26.3782209432632
20
-2.6362442587633
30
0
41
1
10
25.7825712602123
20
-2.33758462772801
30
0
41
1
10
25.0334302937318
20
-1.94377541626295
30
0
41
1
10
24.8833748702226
20
-1.8639869958445
30
0
41
1
10
24.5826873898979
20
-1.7025374993747
30
0
41
1
10
24.4320129252304
20
-1.62085028630312
30
0
41
1
10
23.9792782221895
20
-1.37328412688018
30
0
41
1
10
23.6787649387911
20
-1.20615165380212
30
0
41
1
10
23.2292907349718
20
-0.95350820889351
30
0
41
1
10
23.0796859693547
20
-0.868962399947549
30
0
41
1
10
22.7808643620514
20
-0.699300087459648
30
0
41
1
10
22.6316420346369
20
-0.614193408584867
30
0
41
1
10
22.1843068444288
20
-0.358461985252632
30
0
41
1
10
21.8865383282893
20
-0.187403357061157
30
0
41
1
10
21.2911940315748
20
0.154584600415944
30
0
41
1
10
20.9936785322082
20
0.325620807955943
30
0
41
1
10
20.3980679151117
20
0.666193204540122
30
0
41
1
10
20.0999428041401
20
0.835676435831317
30
0
41
1
10
19.5023324903052
20
1.17175932913838
30
0
41
1
10
19.2029060872735
20
1.33846265461651
30
0
41
1
10
18.7521416275428
20
1.58528190040374
30
0
41
1
10
18.6016089169778
20
1.66700325172763
30
0
41
1
10
18.3753176644038
20
1.78862413971285
30
0
41
1
10
18.2998104407972
20
1.82900095540197
30
0
41
1
10
18.1490562332511
20
1.90918044539239
30
0
41
1
10
18.0737544757997
20
1.94901220134821
30
0
41
1
10
17.6975937702623
20
2.14684409478051
30
0
41
1
10
17.3978296057294
20
2.3009497312843
30
0
41
1
10
16.7998310705365
20
2.59973353368778
30
0
41
1
10
16.5015708801999
20
2.74436919175847
30
0
41
1
10
15.905656137686
20
3.02294469832262
30
0
41
1
10
15.6080110004215
20
3.15690179432914
30
0
41
1
10
15.012661881966
20
3.41324064064534
30
0
41
1
10
14.7149493858284
20
3.53560785385551
30
0
41
1
10
14.118604417431
20
3.76761301929702
30
0
41
1
10
13.8199806921563
20
3.87726443728221
30
0
41
1
10
13.2211139354616
20
4.082889344508
30
0
41
1
10
12.9208612816084
20
4.17884928730351
30
0
41
1
10
12.543967479154
20
4.28951284631904
30
0
41
1
10
12.4684701977585
20
4.31119284689552
30
0
41
1
10
12.3175254858306
20
4.35354824708887
30
0
41
1
10
12.0912241018768
20
4.41556457310861
30
0
41
1
10
11.8652193720903
20
4.47300220032122
30
0
41
1
10
11.4134622636255
20
4.58168582104119
30
0
41
1
10
11.1126185322662
20
4.64587737595946
30
0
41
1
10
10.5107159527792
20
4.75721367079134
30
0
41
1
10
10.2096667804545
20
4.80436770788381
30
0
41
1
10
9.83277053252382
20
4.85238338563269
30
0
41
1
10
9.75736147101981
20
4.86143981546851
30
0
41
1
10
9.60646959529203
20
4.87845102173918
30
0
41
1
10
9.53094548988059
20
4.88640960849881
30
0
41
1
10
9.30463283014697
20
4.90858397852057
30
0
41
1
10
9.15407990770936
20
4.92110391253138
30
0
41
1
10
8.65513345342319
20
4.955203478935
30
0
41
1
10
8.30791989954568
20
4.96692949859985
30
0
41
1
10
7.96153495046195
20
4.9667369177366
30
0
0
SPLINE
5
EC
100
AcDbEntity
8
1
62
256
6
ByLayer
370
18
48
1
60
0
100
AcDbSpline
70
4
71
3
72
33
73
29
40
0
40
0
40
0
40
0
40
0.254437482073999
40
0.254437482073999
40
0.28731058481286
40
0.303747136182296
40
0.303747136182296
40
0.311965411867015
40
0.311965411867015
40
0.320183687551733
40
0.320183687551733
40
0.336620238921182
40
0.336620238921182
40
0.353056790290632
40
0.353056790290632
40
0.36949334166008
40
0.36949334166008
40
0.38592989302953
40
0.38592989302953
40
0.402366444398979
40
0.402366444398979
40
0.418802995768429
40
0.451676098507327
40
0.517422303985109
40
0.517422303985109
40
0.780407125896252
40
0.780407125896252
40
1
40
1
40
1
40
1
41
1
10
4.1592902895419
20
-4.96436070182651
30
0
41
1
10
4.26697371277055
20
-4.96440699670214
30
0
41
1
10
4.37595390916917
20
-4.96290916670247
30
0
41
1
10
4.50019730868547
20
-4.95972860311724
30
0
41
1
10
4.52154693513279
20
-4.95914962185319
30
0
41
1
10
4.54293510002165
20
-4.95852193821551
30
0
41
1
10
4.55363552763035
20
-4.95820005845462
30
0
41
1
10
4.55719757364193
20
-4.95809092424633
30
0
41
1
10
4.56435124953876
20
-4.95787235496192
30
0
41
1
10
4.5679920098961
20
-4.95776643290623
30
0
41
1
10
4.57918372762614
20
-4.95748161803294
30
0
41
1
10
4.58705075420966
20
-4.95733723965242
30
0
41
1
10
4.60325938148571
20
-4.95713724822042
30
0
41
1
10
4.61143659625475
20
-4.95708277198196
30
0
41
1
10
4.62789744272632
20
-4.95704269489949
30
0
41
1
10
4.63621961341923
20
-4.95705525161466
30
0
41
1
10
4.6527574038619
20
-4.95714239163505
30
0
41
1
10
4.66092477568196
20
-4.95722029557095
30
0
41
1
10
4.67712024528439
20
-4.95742089421049
30
0
41
1
10
4.68513586525913
20
-4.95754591090585
30
0
41
1
10
4.70116206867368
20
-4.95778815542451
30
0
41
1
10
4.72519632904965
20
-4.95814819479776
30
0
41
1
10
4.78124025299292
20
-4.95896456510553
30
0
41
1
10
4.82921461068111
20
-4.95962174609727
30
0
41
1
10
4.98898909322659
20
-4.96170954537035
30
0
41
1
10
5.11633720555253
20
-4.96305093646953
30
0
41
1
10
5.34913017808589
20
-4.96470906151313
30
0
41
1
10
5.45476377870739
20
-4.96515824992582
30
0
41
1
10
5.55999784664803
20
-4.96523605281104
30
0
0
SPLINE
5
ED
100
AcDbEntity
8
1
62
256
6
ByLayer
370
18
48
1
60
0
100
AcDbSpline
70
4
71
3
72
92
73
88
40
0
40
0
40
0
40
0
40
0.0608293655642085
40
0.0608293655642085
40
0.0969513130425057
40
0.0969513130425057
40
0.133073260520803
40
0.133073260520803
40
0.142103747390378
40
0.142103747390378
40
0.151134234259953
40
0.169195207999104
40
0.169195207999104
40
0.178225694868679
40
0.178225694868679
40
0.187256181738255
40
0.187256181738255
40
0.205317155477406
40
0.205317155477406
40
0.241439102955708
40
0.241439102955708
40
0.277561050434009
40
0.277561050434009
40
0.313682997912311
40
0.313682997912311
40
0.349804945390613
40
0.349804945390613
40
0.358835432260189
40
0.358835432260189
40
0.367865919129765
40
0.385926892868918
40
0.385926892868918
40
0.422048840347222
40
0.422048840347222
40
0.431079327216798
40
0.431079327216798
40
0.440109814086373
40
0.440109814086373
40
0.458170787825523
40
0.458170787825523
40
0.476231761564673
40
0.476231761564673
40
0.485262248434248
40
0.485262248434248
40
0.494292735303823
40
0.512353709042972
40
0.512353709042972
40
0.530414682782121
40
0.530414682782121
40
0.54847565652127
40
0.54847565652127
40
0.566536630260419
40
0.566536630260419
40
0.602658577738718
40
0.602658577738718
40
0.611689064608292
40
0.611689064608292
40
0.620719551477866
40
0.638780525217015
40
0.638780525217015
40
0.64781101208659
40
0.64781101208659
40
0.656841498956165
40
0.656841498956165
40
0.674902472695314
40
0.674902472695314
40
0.711024420173612
40
0.711024420173612
40
0.729085393912761
40
0.729085393912761
40
0.738115880782336
40
0.738115880782336
40
0.747146367651911
40
0.783268315130206
40
0.783268315130206
40
0.819390262608501
40
0.819390262608501
40
0.828420749478076
40
0.828420749478076
40
0.83745123634765
40
0.8555122100868
40
0.8555122100868
40
0.8916341575651
40
0.8916341575651
40
0.9277561050434
40
0.9277561050434
40
1
40
1
40
1
40
1
41
1
10
27.2980100103385
20
3.59150480737262
30
0
41
1
10
27.9828619092863
20
3.86443583239969
30
0
41
1
10
28.6639718124989
20
4.1020837205831
30
0
41
1
10
29.7508838157478
20
4.41767643432411
30
0
41
1
10
30.1561174763996
20
4.52129990088224
30
0
41
1
10
30.9690526637123
20
4.698744239597
30
0
41
1
10
31.3767566887163
20
4.77255680429408
30
0
41
1
10
31.8892903235522
20
4.84492730152633
30
0
41
1
10
31.9919704503881
20
4.85840856089038
30
0
41
1
10
32.1971602369429
20
4.88329618495015
30
0
41
1
10
32.5048648563001
20
4.91754279241587
30
0
41
1
10
32.8124575703831
20
4.94250508132959
30
0
41
1
10
33.1201590121941
20
4.96122910712577
30
0
41
1
10
33.2227444166812
20
4.96643065474376
30
0
41
1
10
33.4279838528673
20
4.97474544531121
30
0
41
1
10
33.5305442840167
20
4.9778539568419
30
0
41
1
10
33.8376871582353
20
4.98403703909639
30
0
41
1
10
34.0418987808398
20
4.98397605832565
30
0
41
1
10
34.6532864106205
20
4.97142043959954
30
0
41
1
10
35.0592264388336
20
4.94656005805189
30
0
41
1
10
35.869672303473
20
4.86475539096841
30
0
41
1
10
36.2741772738161
20
4.80780374670505
30
0
41
1
10
37.083759283798
20
4.66272311516437
30
0
41
1
10
37.4888508507586
20
4.57460379021674
30
0
41
1
10
38.301619255513
20
4.36818475608072
30
0
41
1
10
38.7092828447354
20
4.24987169077983
30
0
41
1
10
39.2217852810772
20
4.0837991584219
30
0
41
1
10
39.3244599816658
20
4.04966614276648
30
0
41
1
10
39.5295382505772
20
3.97980901461594
30
0
41
1
10
39.8369645462484
20
3.8725669933107
30
0
41
1
10
40.1439419247055
20
3.75811320284223
30
0
41
1
10
40.7576533077156
20
3.52002394481181
30
0
41
1
10
41.1664639722611
20
3.34904670131689
30
0
41
1
10
41.6783550204339
20
3.12157272759271
30
0
41
1
10
41.7807775649172
20
3.07539096373694
30
0
41
1
10
41.9857451292054
20
2.98169504246934
30
0
41
1
10
42.0883191251777
20
2.93416725427534
30
0
41
1
10
42.3960718641794
20
2.78974496250061
30
0
41
1
10
42.601103129911
20
2.69110073848091
30
0
41
1
10
43.011147622742
20
2.48947023742514
30
0
41
1
10
43.2161582163494
20
2.38648012958649
30
0
41
1
10
43.5238428677174
20
2.22900956484969
30
0
41
1
10
43.6264526956499
20
2.1760113516857
30
0
41
1
10
43.8315749114811
20
2.06916545602834
30
0
41
1
10
44.1391648602983
20
1.90759610667413
30
0
41
1
10
44.4466210174411
20
1.74236119172559
30
0
41
1
10
44.8567078651169
20
1.51921679879973
30
0
41
1
10
45.0619210129544
20
1.4061747553319
30
0
41
1
10
45.4720853759264
20
1.17806842627735
30
0
41
1
10
45.6770722831215
20
1.06298786761084
30
0
41
1
10
46.0871007117704
20
0.831189363169074
30
0
41
1
10
46.2921713506093
20
0.714454389287937
30
0
41
1
10
46.9076627704405
20
0.362545100058355
30
0
41
1
10
47.317401184225
20
0.126219917107591
30
0
41
1
10
47.8301323241922
20
-0.169087413328356
30
0
41
1
10
47.9327300332731
20
-0.228157550107625
30
0
41
1
10
48.1378403328805
20
-0.346133100912056
30
0
41
1
10
48.4454117711868
20
-0.522866869904533
30
0
41
1
10
48.7528356507228
20
-0.698680121246838
30
0
41
1
10
49.0603497557652
20
-0.873554119098117
30
0
41
1
10
49.1628696426902
20
-0.931688651785265
30
0
41
1
10
49.3679728037387
20
-1.0475871361233
30
0
41
1
10
49.4705412129478
20
-1.10534245674327
30
0
41
1
10
49.7779431405581
20
-1.27771484271497
30
0
41
1
10
49.9826193865546
20
-1.39152090798674
30
0
41
1
10
50.5962825596757
20
-1.72894681400859
30
0
41
1
10
51.0049270327197
20
-1.94853769145274
30
0
41
1
10
51.6186570985457
20
-2.26752512671158
30
0
41
1
10
51.8233587974121
20
-2.37212432944332
30
0
41
1
10
52.1307870864364
20
-2.52612194907351
30
0
41
1
10
52.2333759315409
20
-2.57699516780374
30
0
41
1
10
52.4384252014336
20
-2.67758156462492
30
0
41
1
10
52.9506900146425
20
-2.92613019860161
30
0
41
1
10
53.4615570651052
20
-3.15956639664339
30
0
41
1
10
54.2792141997002
20
-3.51097634748052
30
0
41
1
10
54.6882017359007
20
-3.67560527295515
30
0
41
1
10
55.2009472995805
20
-3.86582887447173
30
0
41
1
10
55.3034264507449
20
-3.90304386381513
30
0
41
1
10
55.5079993579164
20
-3.97569490281324
30
0
41
1
10
55.81441028047
20
-4.0820510608234
30
0
41
1
10
56.1196144132908
20
-4.180463972925
30
0
41
1
10
56.7287972488797
20
-4.3664623358583
30
0
41
1
10
57.1332840577656
20
-4.47602009272399
30
0
41
1
10
57.9411079147482
20
-4.66499076048282
30
0
41
1
10
58.3444338836257
20
-4.74442237994384
30
0
41
1
10
59.5553725160531
20
-4.93600704725316
30
0
41
1
10
60.364002978251
20
-5.00140098445669
30
0
41
1
10
61.1818989110238
20
-4.99995715257208
30
0
0
SPLINE
5
EE
100
AcDbEntity
8
1
62
256
6
ByLayer
370
18
48
1
60
0
100
AcDbSpline
70
4
71
3
72
8
73
4
40
0
40
0
40
0
40
0
40
1
40
1
40
1
40
1
41
1
10
61.1818989110302
20
-4.99995715257211
30
0
41
1
10
61.1611483058297
20
-5.00095231741605
30
0
41
1
10
61.1470504617384
20
-4.98425646878761
30
0
41
1
10
61.1364099178219
20
-4.95009015827131
30
0
0
SPLINE
5
EF
100
AcDbEntity
8
1
62
256
6
ByLayer
370
18
48
1
60
0
100
AcDbSpline
70
4
71
3
72
79
73
75
40
0
40
0
40
0
40
0
40
0.0346428328786362
40
0.0346428328786362
40
0.0519642493179543
40
0.0606249575376133
40
0.0606249575376133
40
0.0692856657572724
40
0.0692856657572724
40
0.103928498635909
40
0.103928498635909
40
0.138571331514545
40
0.138571331514545
40
0.207856997271818
40
0.207856997271818
40
0.242499830150455
40
0.242499830150455
40
0.277142663029091
40
0.277142663029091
40
0.285803371248751
40
0.285803371248751
40
0.294464079468411
40
0.294464079468411
40
0.311785495907731
40
0.311785495907731
40
0.346428328786371
40
0.346428328786371
40
0.415713994543654
40
0.415713994543654
40
0.450356827422295
40
0.450356827422295
40
0.484999660300937
40
0.484999660300937
40
0.519642493179579
40
0.519642493179579
40
0.536963909618899
40
0.536963909618899
40
0.554285326058219
40
0.554285326058219
40
0.623570991815499
40
0.623570991815499
40
0.640892408254818
40
0.640892408254818
40
0.658213824694137
40
0.692856657572777
40
0.692856657572777
40
0.727499490451417
40
0.727499490451417
40
0.736160198671078
40
0.736160198671078
40
0.744820906890738
40
0.744820906890738
40
0.762142323330059
40
0.762142323330059
40
0.796785156208701
40
0.796785156208701
40
0.831427989087342
40
0.831427989087342
40
0.848749405526662
40
0.848749405526662
40
0.857410113746321
40
0.857410113746321
40
0.866070821965981
40
0.900713654844618
40
0.900713654844618
40
0.935356487723254
40
0.935356487723254
40
0.952677904162571
40
0.952677904162571
40
0.961338612382231
40
0.961338612382231
40
0.96999932060189
40
0.96999932060189
40
1
40
1
40
1
40
1
41
1
10
61.1364099178164
20
-4.95009015827148
30
0
41
1
10
60.8353800852679
20
-4.92536320142113
30
0
41
1
10
60.5345470117901
20
-4.89167919611006
30
0
41
1
10
60.0830550543733
20
-4.82797769072127
30
0
41
1
10
59.8572476981934
20
-4.79283261001177
30
0
41
1
10
59.6312510467102
20
-4.75278535753765
30
0
41
1
10
59.4805330820345
20
-4.72500190403252
30
0
41
1
10
59.405114663393
20
-4.71056073782407
30
0
41
1
10
59.0285254497776
20
-4.63578755443132
30
0
41
1
10
58.7285237441898
20
-4.56769374836935
30
0
41
1
10
58.1301836897982
20
-4.41589570872472
30
0
41
1
10
57.8318468091851
20
-4.3321955992877
30
0
41
1
10
56.9383856953567
20
-4.05876289597114
30
0
41
1
10
56.3445249293859
20
-3.84694603420005
30
0
41
1
10
55.4516521634552
20
-3.49025911664182
30
0
41
1
10
55.1536778971827
20
-3.36487707148612
30
0
41
1
10
54.5563203675229
20
-3.1019182547916
30
0
41
1
10
54.2569456670617
20
-2.96432726995937
30
0
41
1
10
53.8813345067926
20
-2.78527958674832
30
0
41
1
10
53.8061423909971
20
-2.74911749413167
30
0
41
1
10
53.6556046965835
20
-2.67610381211696
30
0
41
1
10
53.5802090468077
20
-2.63922743749671
30
0
41
1
10
53.3541550549522
20
-2.52777611348324
30
0
41
1
10
53.2037750247039
20
-2.45245255349494
30
0
41
1
10
52.7534407822117
20
-2.22369248426972
30
0
41
1
10
52.4542894551097
20
-2.06747130428101
30
0
41
1
10
51.55879751648
20
-1.58982707963816
30
0
41
1
10
50.9644193296992
20
-1.25942405885169
30
0
41
1
10
50.0721299126525
20
-0.753911244507492
30
0
41
1
10
49.7745727774437
20
-0.583768617080523
30
0
41
1
10
49.1785738688807
20
-0.241288098208145
30
0
41
1
10
48.880120101637
20
-0.0689699637944159
30
0
41
1
10
48.2814180805142
20
0.276287644491902
30
0
41
1
10
47.981143709215
20
0.449178831160793
30
0
41
1
10
47.5287601485919
20
0.707891499764173
30
0
41
1
10
47.3780368925147
20
0.793797871159796
30
0
41
1
10
47.0769149760744
20
0.964632324047898
30
0
41
1
10
46.9264730829406
20
1.04958900341771
30
0
41
1
10
46.174582494678
20
1.47160690590636
30
0
41
1
10
45.5740405385959
20
1.800290576625
30
0
41
1
10
44.8206372104029
20
2.1934163826071
30
0
41
1
10
44.6697343335507
20
2.27118578134096
30
0
41
1
10
44.3683622435228
20
2.42434625361096
30
0
41
1
10
43.9167057537406
20
2.65065527265131
30
0
41
1
10
43.4658081314577
20
2.86604804632378
30
0
41
1
10
42.8645209770537
20
3.14245607370842
30
0
41
1
10
42.5638331160301
20
3.27526761809872
30
0
41
1
10
42.1873503798884
20
3.4337490870364
30
0
41
1
10
42.1120223828243
20
3.46506844897795
30
0
41
1
10
41.9612908320343
20
3.5269358276216
30
0
41
1
10
41.8858642688135
20
3.5574933856727
30
0
41
1
10
41.6596264922547
20
3.64791919722347
30
0
41
1
10
41.508956607433
20
3.70650302511757
30
0
41
1
10
41.0572772885222
20
3.87702227868186
30
0
41
1
10
40.7566044650378
20
3.98373011858939
30
0
41
1
10
40.1552620220953
20
4.18230841279302
30
0
41
1
10
39.8545867835741
20
4.27417705128639
30
0
41
1
10
39.4030155104542
20
4.40029985459284
30
0
41
1
10
39.2523979436408
20
4.44039291462911
30
0
41
1
10
39.0262489236184
20
4.49752992523727
30
0
41
1
10
38.9508027517361
20
4.51608117658785
30
0
41
1
10
38.8000057117215
20
4.55212614652012
30
0
41
1
10
38.4232006352468
20
4.6396092490962
30
0
41
1
10
38.0471563201891
20
4.71386715474409
30
0
41
1
10
37.4457111261885
20
4.81541171271462
30
0
41
1
10
37.1450969538904
20
4.8575442918239
30
0
41
1
10
36.6936932716133
20
4.90748602275931
30
0
41
1
10
36.5431442003276
20
4.92192403154215
30
0
41
1
10
36.3171314683748
20
4.94023488066026
30
0
41
1
10
36.2417624901476
20
4.94578078624446
30
0
41
1
10
36.0909486679854
20
4.95575104237219
30
0
41
1
10
36.0154891764369
20
4.96017547819443
30
0
41
1
10
35.6791592367942
20
4.97737819330871
30
0
41
1
10
35.4191025212974
20
4.98391218582455
30
0
41
1
10
35.1596996996882
20
4.98373610190137
30
0
0
SPLINE
5
F0
100
AcDbEntity
8
1
62
256
6
ByLayer
370
18
48
1
60
0
100
AcDbSpline
70
4
71
3
72
22
73
18
40
0
40
0
40
0
40
0
40
0.104286647005439
40
0.104286647005439
40
0.136276409612386
40
0.136276409612386
40
0.168266172219333
40
0.168266172219333
40
0.23224569743323
40
0.23224569743323
40
0.488163798288819
40
0.488163798288819
40
0.616122848716614
40
0.616122848716614
40
0.744081899144409
40
0.744081899144409
40
1
40
1
40
1
40
1
41
1
10
10.644627031816
20
-4.73156569346159
30
0
41
1
10
10.3993118460766
20
-4.77436147197258
30
0
41
1
10
10.1538861850246
20
-4.81147402191453
30
0
41
1
10
9.83277053252382
20
-4.85238338563269
30
0
41
1
10
9.75736147101981
20
-4.86143981546851
30
0
41
1
10
9.60646959529203
20
-4.87845102173918
30
0
41
1
10
9.53094548988059
20
-4.88640960849881
30
0
41
1
10
9.30463283014697
20
-4.90858397852057
30
0
41
1
10
9.15407990770936
20
-4.92110391253138
30
0
41
1
10
8.4026544155162
20
-4.97245868867677
30
0
41
1
10
7.80581783440243
20
-4.97756570654622
30
0
41
1
10
6.91225835765391
20
-4.9326755324737
30
0
41
1
10
6.61470799717316
20
-4.90895344266306
30
0
41
1
10
6.01950901844523
20
-4.84417841439614
30
0
41
1
10
5.7218439632988
20
-4.80312528346693
30
0
41
1
10
4.82730863081397
20
-4.65440828704968
30
0
41
1
10
4.22887331819868
20
-4.52126755148942
30
0
41
1
10
3.62558922441474
20
-4.35479999630215
30
0
0
SPLINE
5
F1
100
AcDbEntity
8
1
62
256
6
ByLayer
370
18
48
1
60
0
100
AcDbSpline
70
4
71
3
72
17
73
13
40
0
40
0
40
0
40
0
40
0.249999999999995
40
0.249999999999995
40
0.374999999999992
40
0.374999999999992
40
0.49999999999999
40
0.624999999999987
40
0.624999999999987
40
0.749999999999984
40
0.749999999999984
40
1
40
1
40
1
40
1
41
1
10
3.62558922441457
20
-4.35479999630209
30
0
41
1
10
3.60645829234687
20
-4.34952109118495
30
0
41
1
10
3.58917866275567
20
-4.34313474848202
30
0
41
1
10
3.56595472624434
20
-4.33187235878503
30
0
41
1
10
3.55862602576764
20
-4.32780230816931
30
0
41
1
10
3.54527374412578
20
-4.31927827425355
30
0
41
1
10
3.53315331032502
20
-4.31034940545553
30
0
41
1
10
3.52345074725574
20
-4.3006036848426
30
0
41
1
10
3.51499742844572
20
-4.29042597433372
30
0
41
1
10
3.5114516054889
20
-4.2851774472415
30
0
41
1
10
3.50296812732267
20
-4.26922965729821
30
0
41
1
10
3.50005483355656
20
-4.25822124145748
30
0
41
1
10
3.50000075366043
20
-4.24680711883451
30
0
0
SPLINE
5
F2
100
AcDbEntity
8
1
62
256
6
ByLayer
370
18
48
1
60
0
100
AcDbSpline
70
4
71
3
72
8
73
4
40
0
40
0
40
0
40
0
40
1
40
1
40
1
40
1
41
1
10
3.50000075364699
20
-4.24680711599419
30
0
41
1
10
3.50000044277337
20
-4.24674150784358
30
0
41
1
10
3.50000028746575
20
-4.24667589537802
30
0
41
1
10
3.50000028751043
20
-4.24661027889414
30
0
0
SPLINE
5
F3
100
AcDbEntity
8
1
62
256
6
ByLayer
370
18
48
1
60
0
100
AcDbSpline
70
4
71
3
72
46
73
42
40
0
40
0
40
0
40
0
40
0.0312500000000001
40
0.0312500000000001
40
0.0468750000000002
40
0.0468750000000002
40
0.0625000000000003
40
0.125000000000001
40
0.187500000000001
40
0.250000000000001
40
0.250000000000001
40
0.265625000000001
40
0.265625000000001
40
0.281250000000001
40
0.312500000000001
40
0.312500000000001
40
0.375
40
0.4375
40
0.4375
40
0.46875
40
0.484375
40
0.484375
40
0.5
40
0.5
40
0.562499999999999
40
0.562499999999999
40
0.625
40
0.6875
40
0.6875
40
0.703125
40
0.703125
40
0.71875
40
0.71875
40
0.75
40
0.75
40
0.8125
40
0.875
40
0.875
40
0.9375
40
0.9375
40
1
40
1
40
1
40
1
41
1
10
3.50000028751046
20
-4.24661026441922
30
0
41
1
10
3.50000031505516
20
-4.2061599349274
30
0
41
1
10
3.50000034412642
20
-4.16413848430929
30
0
41
1
10
3.50000038984339
20
-4.09874365598802
30
0
41
1
10
3.5000004054385
20
-4.07654562355404
30
0
41
1
10
3.50000043719774
20
-4.03151751290596
30
0
41
1
10
3.50000051809064
20
-3.91727256294482
30
0
41
1
10
3.50000067630501
20
-3.69676685151705
30
0
41
1
10
3.50000091064953
20
-3.37178538508792
30
0
41
1
10
3.50000108183252
20
-3.13442780734604
30
0
41
1
10
3.50000119371583
20
-2.97941862221228
30
0
41
1
10
3.50000121636583
20
-2.94804640456414
30
0
41
1
10
3.50000126203804
20
-2.88480651593144
30
0
41
1
10
3.50000133102409
20
-2.78931844929909
30
0
41
1
10
3.50000140145505
20
-2.6919672326795
30
0
41
1
10
3.5000015443029
20
-2.49482139132149
30
0
41
1
10
3.5000017400489
20
-2.22545501976842
30
0
41
1
10
3.50000194733838
20
-1.94324702563011
30
0
41
1
10
3.50000210755056
20
-1.72671188891218
30
0
41
1
10
3.50000218884307
20
-1.61722256527202
30
0
41
1
10
3.50000227198697
20
-1.5058699730389
30
0
41
1
10
3.50000232783452
20
-1.43121605770608
30
0
41
1
10
3.50000235593183
20
-1.393726487859
30
0
41
1
10
3.50000249674701
20
-1.20619647724166
30
0
41
1
10
3.50000261096221
20
-1.05523411924293
30
0
41
1
10
3.50000284217018
20
-0.751486506571439
30
0
41
1
10
3.50000307616062
20
-0.445915657328641
30
0
41
1
10
3.50000331399241
20
-0.136708452693284
30
0
41
1
10
3.50000346283173
20
0.0577095427458403
30
0
41
1
10
3.50000349260691
20
0.0966514395363731
30
0
41
1
10
3.50000355213874
20
0.174653015285543
30
0
41
1
10
3.50000358193404
20
0.213763745990462
30
0
41
1
10
3.50000367083996
20
0.330757036395823
30
0
41
1
10
3.50000372952101
20
0.408362750570944
30
0
41
1
10
3.50000390332156
20
0.640032831719509
30
0
41
1
10
3.50000412912723
20
0.945872480821606
30
0
41
1
10
3.50000433677298
20
1.24571605555292
30
0
41
1
10
3.50000453122863
20
1.54253833600686
30
0
41
1
10
3.5000046218677
20
1.6894391123472
30
0
41
1
10
3.50000478474254
20
1.98011443588936
30
0
41
1
10
3.50000485569291
20
2.12166660863008
30
0
41
1
10
3.50000491400058
20
2.2594717213488
30
0
0
SPLINE
5
F4
100
AcDbEntity
8
1
62
256
6
ByLayer
370
18
48
1
60
0
100
AcDbSpline
70
4
71
3
72
102
73
98
40
0
40
0
40
0
40
0
40
0.0156249999999922
40
0.0156249999999922
40
0.0234374999999884
40
0.0234374999999884
40
0.0312499999999845
40
0.0312499999999845
40
0.0624999999999712
40
0.0624999999999712
40
0.0937499999999579
40
0.0937499999999579
40
0.109374999999951
40
0.109374999999951
40
0.124999999999945
40
0.124999999999945
40
0.156249999999932
40
0.156249999999932
40
0.171874999999926
40
0.171874999999926
40
0.179687499999923
40
0.179687499999923
40
0.18749999999992
40
0.18749999999992
40
0.218749999999906
40
0.218749999999906
40
0.226562499999903
40
0.226562499999903
40
0.234374999999899
40
0.234374999999899
40
0.249999999999892
40
0.249999999999892
40
0.281249999999879
40
0.281249999999879
40
0.289062499999875
40
0.289062499999875
40
0.296874999999872
40
0.312499999999865
40
0.312499999999865
40
0.343749999999852
40
0.343749999999852
40
0.351562499999849
40
0.351562499999849
40
0.359374999999846
40
0.374999999999841
40
0.374999999999841
40
0.406249999999831
40
0.406249999999831
40
0.437499999999821
40
0.437499999999821
40
0.453124999999816
40
0.453124999999816
40
0.468749999999812
40
0.468749999999812
40
0.499999999999804
40
0.499999999999804
40
0.531249999999796
40
0.531249999999796
40
0.562499999999788
40
0.562499999999788
40
0.566406249999787
40
0.568359374999788
40
0.568359374999788
40
0.569335937499788
40
0.569335937499788
40
0.570312499999788
40
0.570312499999788
40
0.572265624999788
40
0.572265624999788
40
0.574218749999788
40
0.574218749999788
40
0.576171874999789
40
0.576171874999789
40
0.578124999999789
40
0.578124999999789
40
0.580078124999789
40
0.580078124999789
40
0.582031249999789
40
0.585937499999791
40
0.593749999999795
40
0.593749999999795
40
0.624999999999811
40
0.624999999999811
40
0.656249999999827
40
0.656249999999827
40
0.687499999999842
40
0.749999999999874
40
0.749999999999874
40
0.812499999999905
40
0.812499999999905
40
0.843749999999921
40
0.843749999999921
40
0.874999999999937
40
0.874999999999937
40
0.937499999999968
40
0.937499999999968
40
1
40
1
40
1
40
1
41
1
10
3.50000491399064
20
2.25947172133769
30
0
41
1
10
3.44957236004541
20
2.29797825533825
30
0
41
1
10
3.39956745858993
20
2.33682905538333
30
0
41
1
10
3.32526186377069
20
2.39566763471006
30
0
41
1
10
3.30061040275271
20
2.41537431137397
30
0
41
1
10
3.25155317723738
20
2.45498414492582
30
0
41
1
10
3.22714033590054
20
2.47489346540013
30
0
41
1
10
3.10608893903509
20
2.57465009238945
30
0
41
1
10
3.01219233448532
20
2.65534852528251
30
0
41
1
10
2.83136512325211
20
2.8188213325717
30
0
41
1
10
2.74442555852931
20
2.90159302806228
30
0
41
1
10
2.62041396421702
20
3.02763313057463
30
0
41
1
10
2.58008380466532
20
3.07003771617812
30
0
41
1
10
2.50253490453252
20
3.15476976070448
30
0
41
1
10
2.46523850904805
20
3.19717104173449
30
0
41
1
10
2.35818506088125
20
3.32448665513849
30
0
41
1
10
2.29322255529903
20
3.409511060879
30
0
41
1
10
2.20758531901964
20
3.53731672863665
30
0
41
1
10
2.1810162937989
20
3.57996382683646
30
0
41
1
10
2.14451475689162
20
3.64401298452395
30
0
41
1
10
2.132880548131
20
3.66542944375348
30
0
41
1
10
2.11096863118783
20
3.70797434180272
30
0
41
1
10
2.10068879594985
20
3.72909972003853
30
0
41
1
10
2.05275475767451
20
3.83397476516677
30
0
41
1
10
2.02545389948858
20
3.91547567569111
30
0
41
1
10
2.00687577744171
20
4.01402660130418
30
0
41
1
10
2.003940331384
20
4.03357007741454
30
0
41
1
10
1.99968553637029
20
4.07231348090173
30
0
41
1
10
1.99837087763419
20
4.09153659249424
30
0
41
1
10
1.99692928062746
20
4.14798797162263
30
0
41
1
10
1.9992677962847
20
4.18422901108443
30
0
41
1
10
2.01587602231589
20
4.28893005573374
30
0
41
1
10
2.03971803825087
20
4.35337550929773
30
0
41
1
10
2.08480643769292
20
4.42763272823103
30
0
41
1
10
2.0945645614467
20
4.4421192309988
30
0
41
1
10
2.11535095420351
20
4.47018919383143
30
0
41
1
10
2.14849682086108
20
4.51103897515276
30
0
41
1
10
2.18722350668753
20
4.54834131119458
30
0
41
1
10
2.27142241544232
20
4.61869618125979
30
0
41
1
10
2.33651884625448
20
4.65995312444227
30
0
41
1
10
2.42738238748373
20
4.70566349118283
30
0
41
1
10
2.44599686490062
20
4.71449156846595
30
0
41
1
10
2.48388147330306
20
4.73147741357437
30
0
41
1
10
2.54177200480802
20
4.75599000293502
30
0
41
1
10
2.6026496320489
20
4.77780387101373
30
0
41
1
10
2.72794684800607
20
4.81826668106822
30
0
41
1
10
2.8161812699513
20
4.84104087138999
30
0
41
1
10
3.00034520677147
20
4.87987850386884
30
0
41
1
10
3.09628419953793
20
4.89593298368024
30
0
41
1
10
3.24508857750817
20
4.91585140739664
30
0
41
1
10
3.29551633579359
20
4.92179238163882
30
0
41
1
10
3.39740251130559
20
4.93235358570985
30
0
41
1
10
3.44892265218468
20
4.93698260942247
30
0
41
1
10
3.60507160725808
20
4.94910223031906
30
0
41
1
10
3.711283535517
20
4.95483235992677
30
0
41
1
10
3.92733575711648
20
4.96238114262263
30
0
41
1
10
4.03723193517135
20
4.96419545834405
30
0
41
1
10
4.25965293319615
20
4.96450614187458
30
0
41
1
10
4.37225773292676
20
4.96300378680792
30
0
41
1
10
4.50019730868675
20
4.95972860311721
30
0
41
1
10
4.5215469351341
20
4.95914962185316
30
0
41
1
10
4.54293510002299
20
4.95852193821548
30
0
41
1
10
4.55363552763168
20
4.95820005845457
30
0
41
1
10
4.55719757364326
20
4.95809092424631
30
0
41
1
10
4.5643512495401
20
4.95787235496186
30
0
41
1
10
4.56799200989741
20
4.95776643290617
30
0
41
1
10
4.57918372762754
20
4.95748161803292
30
0
41
1
10
4.58705075421113
20
4.95733723965239
30
0
41
1
10
4.60325938148722
20
4.95713724822042
30
0
41
1
10
4.61143659625623
20
4.95708277198193
30
0
41
1
10
4.62789744272786
20
4.95704269489949
30
0
41
1
10
4.63621961342074
20
4.95705525161466
30
0
41
1
10
4.65275740386338
20
4.95714239163507
30
0
41
1
10
4.66092477568341
20
4.95722029557098
30
0
41
1
10
4.67712024528586
20
4.95742089421051
30
0
41
1
10
4.68513586526052
20
4.95754591090588
30
0
41
1
10
4.7011620686751
20
4.95778815542451
30
0
41
1
10
4.72519632905107
20
4.95814819479779
30
0
41
1
10
4.78124025299434
20
4.95896456510553
30
0
41
1
10
4.82921461068253
20
4.9596217460973
30
0
41
1
10
4.98898909322793
20
4.96170954537035
30
0
41
1
10
5.11633720555383
20
4.96305093646956
30
0
41
1
10
5.37006222819537
20
4.96485815517403
30
0
41
1
10
5.49649896719018
20
4.9653238488529
30
0
41
1
10
5.74816818894615
20
4.96515247357769
30
0
41
1
10
6.12381988037487
20
4.96324270685761
30
0
41
1
10
6.49411806293705
20
4.95535116157569
30
0
41
1
10
6.98356595879355
20
4.93769842268406
30
0
41
1
10
7.22614378835181
20
4.92530114884042
30
0
41
1
10
7.58727314631506
20
4.90006619602156
30
0
41
1
10
7.70719420710469
20
4.89054907676899
30
0
41
1
10
7.94622500553916
20
4.8691131165746
30
0
41
1
10
8.06523300904249
20
4.85720201435927
30
0
41
1
10
8.42055310055773
20
4.81768126195013
30
0
41
1
10
8.65529696486962
20
4.78625851800948
30
0
41
1
10
9.12152036865319
20
4.71227641074387
30
0
41
1
10
9.35299403583073
20
4.66971190699709
30
0
41
1
10
9.5833809936633
20
4.62127709426704
30
0
0
SPLINE
5
F5
100
AcDbEntity
8
1
62
256
6
ByLayer
370
18
48
1
60
0
100
AcDbSpline
70
4
71
3
72
40
73
36
40
0
40
0
40
0
40
0
40
0.125
40
0.125
40
0.25
40
0.25
40
0.375
40
0.375
40
0.4375
40
0.4375
40
0.46875
40
0.46875
40
0.484375
40
0.484375
40
0.5
40
0.5
40
0.624999999999999
40
0.624999999999999
40
0.687499999999999
40
0.687499999999999
40
0.703125
40
0.703125
40
0.718750000000001
40
0.718750000000001
40
0.750000000000001
40
0.750000000000001
40
0.812500000000001
40
0.812500000000001
40
0.875000000000001
40
0.875000000000001
40
0.937500000000001
40
0.937500000000001
40
0.968750000000001
40
0.968750000000001
40
1
40
1
40
1
40
1
41
1
10
9.58332139621888
20
4.6212899984146
30
0
41
1
10
10.1036500268702
20
4.51195182247406
30
0
41
1
10
10.6202105759953
20
4.3784350470668
30
0
41
1
10
11.6496405290435
20
4.0676128852316
30
0
41
1
10
12.1624599151223
20
3.8902331281767
30
0
41
1
10
13.1886353211931
20
3.49652745289725
30
0
41
1
10
13.7019010470874
20
3.28011479907263
30
0
41
1
10
14.4749413585266
20
2.92945282899075
30
0
41
1
10
14.7331820857873
20
2.80827614299957
30
0
41
1
10
15.1217726806959
20
2.6205440582329
30
0
41
1
10
15.2515039585944
20
2.55696625483694
30
0
41
1
10
15.4464494649683
20
2.46015322556124
30
0
41
1
10
15.5115111356269
20
2.42763028886296
30
0
41
1
10
15.6415293442088
20
2.36222947876937
30
0
41
1
10
15.7065096726848
20
2.32933973864587
30
0
41
1
10
16.2911079667111
20
2.03168451294121
30
0
41
1
10
16.8091023258262
20
1.75529970496649
30
0
41
1
10
17.5870012970047
20
1.32856956717922
30
0
41
1
10
17.8464297032974
20
1.18426486791884
30
0
41
1
10
18.171192353297
20
1.0018264247808
30
0
41
1
10
18.2361686949908
20
0.965235771344169
30
0
41
1
10
18.3661770693796
20
0.891861757876512
30
0
41
1
10
18.4312227573537
20
0.855070622114368
30
0
41
1
10
18.6262243138473
20
0.744561286525965
30
0
41
1
10
18.7561104506875
20
0.670669265575071
30
0
41
1
10
19.1455013732291
20
0.448470779954022
30
0
41
1
10
19.4047740632257
20
0.299703655419989
30
0
41
1
10
19.9232569446648
20
0.0019136837782128
30
0
41
1
10
20.1824395782424
20
-0.147157299385015
30
0
41
1
10
20.7011866471603
20
-0.444778364561898
30
0
41
1
10
20.9607567630069
20
-0.593318500503898
30
0
41
1
10
21.3507615581327
20
-0.815103222534219
30
0
41
1
10
21.4807756186063
20
-0.88880489026036
30
0
41
1
10
21.7405028723037
20
-1.03536469607931
30
0
41
1
10
21.8702803095012
20
-1.1082548271265
30
0
41
1
10
22
20
-1.18070873671468
30
0
0
SPLINE
5
F6
100
AcDbEntity
8
1
62
256
6
ByLayer
370
18
48
1
60
0
100
AcDbSpline
70
4
71
3
72
39
73
35
40
0
40
0
40
0
40
0
40
0.025668667868933
40
0.025668667868933
40
0.051337335737866
40
0.051337335737866
40
0.102674671475729
40
0.102674671475729
40
0.205349342951456
40
0.205349342951456
40
0.308024014427183
40
0.308024014427183
40
0.333692682296115
40
0.333692682296115
40
0.359361350165046
40
0.359361350165046
40
0.410698685902912
40
0.410698685902912
40
0.616048028854376
40
0.616048028854376
40
0.718722700330106
40
0.718722700330106
40
0.821397371805837
40
0.821397371805837
40
0.847066039674769
40
0.847066039674769
40
0.8727347075437
40
0.924072043281565
40
0.924072043281565
40
0.949740711150498
40
0.949740711150498
40
0.97540937901943
40
0.97540937901943
40
1
40
1
40
1
40
1
41
1
10
22.000000000001
20
-0.960720791429566
30
0
41
1
10
22.1026332218965
20
-1.01856122461479
30
0
41
1
10
22.2052669780963
20
-1.07619364259159
30
0
41
1
10
22.4105649376808
20
-1.19099246555419
30
0
41
1
10
22.5132654780713
20
-1.24817891210236
30
0
41
1
10
22.8210690186692
20
-1.41874672037954
30
0
41
1
10
23.0259340058019
20
-1.53117169343992
30
0
41
1
10
23.6398961882504
20
-1.86398914664179
30
0
41
1
10
24.0483806310085
20
-2.07989312873602
30
0
41
1
10
24.8655814491063
20
-2.4967898934932
30
0
41
1
10
25.274284943732
20
-2.69780027559494
30
0
41
1
10
25.7865625494698
20
-2.93774519767021
30
0
41
1
10
25.8890886044038
20
-2.98516736362345
30
0
41
1
10
26.0943160160578
20
-3.07882408662769
30
0
41
1
10
26.1968848043633
20
-3.12499740962502
30
0
41
1
10
26.5040306918704
20
-3.26127893045012
30
0
41
1
10
26.7082447630283
20
-3.34923867102449
30
0
41
1
10
27.7272732868436
20
-3.77385163519796
30
0
41
1
10
28.5360046027863
20
-4.0649275213118
30
0
41
1
10
29.7508838157478
20
-4.41767643432411
30
0
41
1
10
30.1561174763996
20
-4.52129990088224
30
0
41
1
10
30.9690526637123
20
-4.698744239597
30
0
41
1
10
31.3767566887163
20
-4.77255680429408
30
0
41
1
10
31.8892903235522
20
-4.84492730152633
30
0
41
1
10
31.9919704503881
20
-4.85840856089038
30
0
41
1
10
32.1971602369429
20
-4.88329618495015
30
0
41
1
10
32.5048648563001
20
-4.91754279241587
30
0
41
1
10
32.8124575703832
20
-4.94250508132959
30
0
41
1
10
33.1201590121941
20
-4.96122910712577
30
0
41
1
10
33.2227444166812
20
-4.96643065474376
30
0
41
1
10
33.4279838528673
20
-4.97474544531121
30
0
41
1
10
33.5305442840167
20
-4.9778539568419
30
0
41
1
10
33.7310063481467
20
-4.98188945151054
30
0
41
1
10
33.8289611939218
20
-4.98290415598743
30
0
41
1
10
33.9268045665567
20
-4.98296556108565
30
0
0
SPLINE
5
F7
100
AcDbEntity
8
1
62
256
6
ByLayer
370
18
48
1
60
0
100
AcDbSpline
70
4
71
3
72
19
73
15
40
0
40
0
40
0
40
0
40
0.0895848697635373
40
0.0895848697635373
40
0.135105626275358
40
0.135105626275358
40
0.180626382787178
40
0.271667895810823
40
0.271667895810823
40
0.453750921858117
40
0.453750921858117
40
0.635833947905412
40
0.635833947905412
40
1
40
1
40
1
40
1
41
1
10
54.4937009444007
20
3.59429058284204
30
0
41
1
10
54.6950574196067
20
3.67502639111532
30
0
41
1
10
54.896581485788
20
3.75291212710363
30
0
41
1
10
55.2009472995805
20
3.86582887447173
30
0
41
1
10
55.303426450745
20
3.90304386381516
30
0
41
1
10
55.5079993579166
20
3.97569490281327
30
0
41
1
10
55.81441028047
20
4.0820510608234
30
0
41
1
10
56.1196144132909
20
4.180463972925
30
0
41
1
10
56.7287972488798
20
4.3664623358583
30
0
41
1
10
57.1332840577656
20
4.47602009272399
30
0
41
1
10
57.9411079147483
20
4.66499076048282
30
0
41
1
10
58.3444338836257
20
4.74442237994384
30
0
41
1
10
59.5553725160531
20
4.93600704725316
30
0
41
1
10
60.3640029782511
20
5.00140098445669
30
0
41
1
10
61.1818989110238
20
4.99995715257208
30
0
0
SPLINE
5
F8
100
AcDbEntity
8
SK1
62
256
6
ByLayer
370
18
48
1
60
0
100
AcDbSpline
70
4
71
3
72
20
73
16
40
0
40
0
40
0
40
0
40
0.250000000000007
40
0.250000000000007
40
0.375000000000006
40
0.375000000000006
40
0.500000000000005
40
0.500000000000005
40
0.625000000000004
40
0.625000000000004
40
0.750000000000002
40
0.750000000000002
40
0.875000000000001
40
0.875000000000001
40
1
40
1
40
1
40
1
41
1
10
-39.35
20
4.24666411257635
30
0
41
1
10
-39.338205186486
20
4.25876614030705
30
0
41
1
10
-39.326788992333
20
4.27083332652049
30
0
41
1
10
-39.3102132143741
20
4.28886788816027
30
0
41
1
10
-39.304833241342
20
4.29481275017599
30
0
41
1
10
-39.2945637817252
20
4.30634702916757
30
0
41
1
10
-39.289643923718
20
4.31196924575067
30
0
41
1
10
-39.2802807943173
20
4.32288585484397
30
0
41
1
10
-39.2758194796066
20
4.32820152234598
30
0
41
1
10
-39.267562331863
20
4.3383306298341
30
0
41
1
10
-39.2638525857023
20
4.34303706308049
30
0
41
1
10
-39.2574621956925
20
4.35156312796934
30
0
41
1
10
-39.2547834319691
20
4.35538818604692
30
0
41
1
10
-39.2510694001166
20
4.36145440942687
30
0
41
1
10
-39.25
20
4.3637626846693
30
0
41
1
10
-39.25
20
4.36497449007524
30
0
0
SPLINE
5
F9
100
AcDbEntity
8
SK1
62
256
6
ByLayer
370
18
48
1
60
0
100
AcDbSpline
70
4
71
3
72
8
73
4
40
0
40
0
40
0
40
0
40
1
40
1
40
1
40
1
41
1
10
-40
20
3.576328352633
30
0
41
1
10
-39.7840044243077
20
3.80042905437804
30
0
41
1
10
-39.5672334744563
20
4.02377245525764
30
0
41
1
10
-39.35
20
4.24666411257633
30
0
0
SPLINE
5
FA
100
AcDbEntity
8
SK1
62
256
6
ByLayer
370
18
48
1
60
0
100
AcDbSpline
70
4
71
3
72
8
73
4
40
0
40
0
40
0
40
0
40
1
40
1
40
1
40
1
41
1
10
-39.35
20
-4.121733470902
30
0
41
1
10
-39.5672422828103
20
-3.89883277580211
30
0
41
1
10
-39.7840147929047
20
-3.67548765503028
30
0
41
1
10
-40
20
-3.45139771095867
30
0
0
SPLINE
5
FB
100
AcDbEntity
8
SK1
62
256
6
ByLayer
370
18
48
1
60
0
100
AcDbSpline
70
4
71
3
72
20
73
16
40
0
40
0
40
0
40
0
40
0.125000000000005
40
0.125000000000005
40
0.187500000000008
40
0.187500000000008
40
0.25000000000001
40
0.25000000000001
40
0.375000000000005
40
0.375000000000005
40
0.5
40
0.5
40
0.75
40
0.75
40
1
40
1
40
1
40
1
41
1
10
-39.25
20
-4.25253691256836
30
0
41
1
10
-39.25
20
-4.25028292462068
30
0
41
1
10
-39.2510680086886
20
-4.24695886202028
30
0
41
1
10
-39.2538495157728
20
-4.24100889354008
30
0
41
1
10
-39.2549703876943
20
-4.23886217313392
30
0
41
1
10
-39.2575552869368
20
-4.23427950534236
30
0
41
1
10
-39.2590298143252
20
-4.23182785476013
30
0
41
1
10
-39.2638240044233
20
-4.22423597594008
30
0
41
1
10
-39.267515960107
20
-4.21884153275207
30
0
41
1
10
-39.275680748839
20
-4.20753269394831
30
0
41
1
10
-39.2801886771091
20
-4.20157833113075
30
0
41
1
10
-39.2943187548888
20
-4.18358672623145
30
0
41
1
10
-39.3046720301746
20
-4.17122671946933
30
0
41
1
10
-39.3267894589619
20
-4.14615452098306
30
0
41
1
10
-39.3382086330433
20
-4.13383196230447
30
0
41
1
10
-39.35
20
-4.121733470902
30
0
0
SPLINE
5
FC
100
AcDbEntity
8
SK1
62
256
6
ByLayer
370
18
48
1
60
0
100
AcDbSpline
70
4
71
3
72
20
73
16
40
0
40
0
40
0
40
0
40
0.250000000000007
40
0.250000000000007
40
0.375000000000006
40
0.375000000000006
40
0.500000000000004
40
0.500000000000004
40
0.625000000000003
40
0.625000000000003
40
0.750000000000002
40
0.750000000000002
40
0.875000000000001
40
0.875000000000001
40
1
40
1
40
1
40
1
41
1
10
-39.35
20
-4.24666411257635
30
0
41
1
10
-39.338205186486
20
-4.25876614030705
30
0
41
1
10
-39.326788992333
20
-4.27083332652049
30
0
41
1
10
-39.3102132143741
20
-4.28886788816027
30
0
41
1
10
-39.304833241342
20
-4.29481275017599
30
0
41
1
10
-39.2945637817252
20
-4.30634702916757
30
0
41
1
10
-39.289643923718
20
-4.31196924575067
30
0
41
1
10
-39.2802807943173
20
-4.32288585484397
30
0
41
1
10
-39.2758194796066
20
-4.32820152234598
30
0
41
1
10
-39.267562331863
20
-4.3383306298341
30
0
41
1
10
-39.2638525857023
20
-4.34303706308049
30
0
41
1
10
-39.2574621956925
20
-4.35156312796934
30
0
41
1
10
-39.2547834319691
20
-4.35538818604692
30
0
41
1
10
-39.2510694001166
20
-4.36145440942687
30
0
41
1
10
-39.25
20
-4.3637626846693
30
0
41
1
10
-39.25
20
-4.36497449007524
30
0
0
SPLINE
5
FD
100
AcDbEntity
8
SK1
62
256
6
ByLayer
370
18
48
1
60
0
100
AcDbSpline
70
4
71
3
72
8
73
4
40
0
40
0
40
0
40
0
40
1
40
1
40
1
40
1
41
1
10
-40
20
-3.576328352633
30
0
41
1
10
-39.7840044243077
20
-3.80042905437804
30
0
41
1
10
-39.5672334744563
20
-4.02377245525764
30
0
41
1
10
-39.35
20
-4.24666411257633
30
0
0
SPLINE
5
FE
100
AcDbEntity
8
1
62
256
6
ByLayer
370
18
48
1
60
0
100
AcDbSpline
70
4
71
3
72
9
73
5
40
0
40
0
40
0
40
0
40
0.0535399662014807
40
1
40
1
40
1
40
1
41
1
10
26.7940724138222
20
-3.37525597125517
30
0
41
1
10
26.7753512657068
20
-3.36754567150166
30
0
41
1
10
26.4257405729778
20
-3.22288967035715
30
0
41
1
10
26.0771915792573
20
-3.06605916602103
30
0
41
1
10
25.7481451346974
20
-2.9076016975645
30
0
0
SPLINE
5
FF
100
AcDbEntity
8
1
62
256
6
ByLayer
370
18
48
1
60
0
100
AcDbSpline
70
4
71
3
72
17
73
13
40
0
40
0
40
0
40
0
40
0.0616412248202411
40
0.162643995587949
40
0.25564207160667
40
0.346784794464552
40
0.438464612684691
40
0.549249230810502
40
0.660940069353998
40
0.773442199391819
40
0.886453105948642
40
1
40
1
40
1
40
1
41
1
10
27.3301146570376
20
3.5865579309951
30
0
41
1
10
27.5840658274771
20
3.68232840023842
30
0
41
1
10
28.2553970332405
20
3.91980856807203
30
0
41
1
10
29.3147572743205
20
4.23866325707363
30
0
41
1
10
30.5037455585833
20
4.52034377586716
30
0
41
1
10
31.6548818507367
20
4.71551081438275
30
0
41
1
10
32.8803822691251
20
4.83299718624161
30
0
41
1
10
34.1921261098897
20
4.85116504294336
30
0
41
1
10
35.5912533482036
20
4.74451253007751
30
0
41
1
10
36.9991072615278
20
4.50947143795486
30
0
41
1
10
38.4103404042243
20
4.12782088011437
30
0
41
1
10
39.3516648463861
20
3.79258815469814
30
0
41
1
10
39.8229182959928
20
3.60297726349015
30
0
0
SPLINE
5
100
100
AcDbEntity
8
1
62
256
6
ByLayer
370
18
48
1
60
0
100
AcDbSpline
70
4
71
3
72
13
73
9
40
0
40
0
40
0
40
0
40
0.0740644613679546
40
0.234287061104193
40
0.411194747416543
40
0.604554584828166
40
0.814254352286517
40
1
40
1
40
1
40
1
41
1
10
54.5115997040596
20
3.58107443180353
30
0
41
1
10
54.6770755607221
20
3.6444112667736
30
0
41
1
10
55.2009650438533
20
3.83825779042883
30
0
41
1
10
56.1228339059888
20
4.13879064411339
30
0
41
1
10
57.3151768350349
20
4.45138357112947
30
0
41
1
10
58.6215497866752
20
4.69372750598797
30
0
41
1
10
59.9500176680191
20
4.83209730578557
30
0
41
1
10
60.8433875803644
20
4.83799725198
30
0
41
1
10
61.2632923527651
20
4.82279695193307
30
0
0
SPLINE
5
101
100
AcDbEntity
8
1
62
256
6
ByLayer
370
18
48
1
60
0
100
AcDbSpline
70
4
71
3
72
9
73
5
40
0
40
0
40
0
40
0
40
0.289444936134543
40
1
40
1
40
1
40
1
41
1
10
53.3655881488034
20
-3.10914766054057
30
0
41
1
10
53.311488073854
20
-3.08513402422454
30
0
41
1
10
53.124709901634
20
-3.00123462765509
30
0
41
1
10
52.9384507113292
20
-2.91390915063121
30
0
41
1
10
52.806297008132
20
-2.8503374241952
30
0
0
SPLINE
5
102
100
AcDbEntity
8
1
62
256
6
ByLayer
370
18
48
1
60
0
100
AcDbSpline
70
4
71
1
72
4
73
2
40
0
40
0
40
1
40
1
41
1
10
52.806297008132
20
-2.8503374241952
30
0
41
1
10
52.4766442198877
20
-2.6959824526526
30
0
0
SPLINE
5
103
100
AcDbEntity
8
1
62
256
6
ByLayer
370
18
48
1
60
0
100
AcDbSpline
70
4
71
3
72
31
73
27
40
0
40
0
40
0
40
0
40
1.56756456718E-05
40
3.22611164079E-05
40
6.0480963529E-05
40
8.41076279907E-05
40
0.0001063076361269
40
0.0002999311480802
40
0.0004507971285753
40
0.0007248617292753
40
0.0012291363543249
40
0.002177112072882
40
0.0040216201984107
40
0.0078002661003139
40
0.0160983685551113
40
0.102506347516087
40
0.171048993261601
40
0.271029566331608
40
0.374114892053082
40
0.462854286691697
40
0.555775585955151
40
0.636916055566752
40
0.690850562305802
40
0.77255697460364
40
0.882043788040304
40
1
40
1
40
1
40
1
41
1
10
36.8794287460849
20
0.192843278252383
30
0
41
1
10
36.8794388572836
20
0.19284105964536
30
0
41
1
10
36.8794510910879
20
0.192838876295326
30
0
41
1
10
36.8794184201747
20
0.192850016772695
30
0
41
1
10
36.8793461321527
20
0.1928722605779
30
0
41
1
10
36.8792078141807
20
0.192912546194862
30
0
41
1
10
36.8786117779503
20
0.193081496361742
30
0
41
1
10
36.8775735942927
20
0.193370732724929
30
0
41
1
10
36.8759408833794
20
0.19383000792044
30
0
41
1
10
36.8734439551241
20
0.194530456598301
30
0
41
1
10
36.8688246316301
20
0.195826647493902
30
0
41
1
10
36.8599633151297
20
0.198310338623145
30
0
41
1
10
36.842245811018
20
0.203270856949786
30
0
41
1
10
36.8045127019158
20
0.213822196779972
30
0
41
1
10
36.5359558641383
20
0.288893403639093
30
0
41
1
10
36.0870623834484
20
0.416599614152631
30
0
41
1
10
35.3847958660101
20
0.624557002942936
30
0
41
1
10
34.6397864236882
20
0.854350616779101
30
0
41
1
10
33.8424062346856
20
1.11214187588831
30
0
41
1
10
33.0674956388847
20
1.37346780094234
30
0
41
1
10
32.355150124873
20
1.62305283774768
30
0
41
1
10
31.7394735741589
20
1.84648661133875
30
0
41
1
10
31.1558982959365
20
2.06390624262485
30
0
41
1
10
30.498100527927
20
2.31541579801114
30
0
41
1
10
29.6720370780283
20
2.64209805292012
30
0
41
1
10
29.0679941232411
20
2.89174145576482
30
0
41
1
10
28.7556677950546
20
3.02362547246361
30
0
0
SPLINE
5
104
100
AcDbEntity
8
1
62
256
6
ByLayer
370
18
48
1
60
0
100
AcDbSpline
70
4
71
3
72
15
73
11
40
0
40
0
40
0
40
0
40
0.112699836266436
40
0.232625897736629
40
0.347108372517887
40
0.453896653780171
40
0.564827483733389
40
0.684831574107428
40
0.837149771990141
40
1
40
1
40
1
40
1
41
1
10
61.2453667648866
20
1.04765923331041
30
0
41
1
10
61.042970808183
20
1.11338173887546
30
0
41
1
10
60.625990570874
20
1.25117373674956
30
0
41
1
10
60.0063537994154
20
1.46370827589146
30
0
41
1
10
59.3994431021413
20
1.67843532955396
30
0
41
1
10
58.8106558700525
20
1.89301715163796
30
0
41
1
10
58.2138766694434
20
2.11665771937197
30
0
41
1
10
57.5388432147496
20
2.37706569416844
30
0
41
1
10
56.77541952192
20
2.68103974852127
30
0
41
1
10
56.2256227687279
20
2.90889862888486
30
0
41
1
10
55.94231959209
20
3.02862728118765
30
0
0
SPLINE
5
105
100
AcDbEntity
8
1
62
256
6
ByLayer
370
18
48
1
60
0
100
AcDbSpline
70
4
71
3
72
30
73
26
40
0
40
0
40
0
40
0
40
0.0408387351933359
40
0.0754229046618197
40
0.123747986065338
40
0.175934595821023
40
0.229959096103183
40
0.275022029102292
40
0.313593559622234
40
0.363050197329063
40
0.413206978026899
40
0.460704861510791
40
0.513667095477754
40
0.563093899389433
40
0.61039563237451
40
0.663073336171713
40
0.720295811164908
40
0.779387887129426
40
0.816395856057449
40
0.847581599042208
40
0.882796117910501
40
0.908153639813957
40
0.944369107511073
40
0.993433300579344
40
1
40
1
40
1
40
1
41
1
10
35.2809790456732
20
-4.73393251125097
30
0
41
1
10
35.4486941299438
20
-4.73348616227446
30
0
41
1
10
35.7630859820613
20
-4.73232104264525
30
0
41
1
10
36.2935446180525
20
-4.72634951613179
30
0
41
1
10
36.8881194795701
20
-4.72651401010106
30
0
41
1
10
37.5611820367665
20
-4.73128817364091
30
0
41
1
10
38.2070751327435
20
-4.7355675520015
30
0
41
1
10
38.8059866744715
20
-4.73638143014065
30
0
41
1
10
39.3886800285899
20
-4.73647542022286
30
0
41
1
10
39.9928066594695
20
-4.7362710106149
30
0
41
1
10
40.6362459186536
20
-4.73772837652254
30
0
41
1
10
41.294929481027
20
-4.73721295275431
30
0
41
1
10
41.9504954647924
20
-4.73787673012274
30
0
41
1
10
42.6049747402201
20
-4.7390417252513
30
0
41
1
10
43.2586011163303
20
-4.73764536334846
30
0
41
1
10
43.9436611192129
20
-4.73914639432456
30
0
41
1
10
44.683786761361
20
-4.73903780459136
30
0
41
1
10
45.3530020848701
20
-4.73928384537811
30
0
41
1
10
45.9094602736012
20
-4.74116088246259
30
0
41
1
10
46.3616943283873
20
-4.74076062372171
30
0
41
1
10
46.7630006163067
20
-4.7402734728353
30
0
41
1
10
47.1861062163076
20
-4.74039124441268
30
0
41
1
10
47.6700460472035
20
-4.74153826899882
30
0
41
1
10
48.0716678810784
20
-4.74046000668929
30
0
41
1
10
48.3149640323461
20
-4.74096468186619
30
0
41
1
10
48.3436827792006
20
-4.74102758716504
30
0
0
SPLINE
5
106
100
AcDbEntity
8
1
62
256
6
ByLayer
370
18
48
1
60
0
100
AcDbSpline
70
4
71
3
72
29
73
25
40
0
40
0
40
0
40
0
40
0.0086939438509716
40
0.0548681371293697
40
0.113901582780571
40
0.174257035864041
40
0.230820599394512
40
0.28108414861589
40
0.325304500056254
40
0.364223574785325
40
0.398248883500918
40
0.441322840498358
40
0.491547706932425
40
0.53108598323339
40
0.562550654855722
40
0.606307659637238
40
0.660571449656039
40
0.713567727151624
40
0.762891835600455
40
0.809381455187878
40
0.855394375519854
40
0.924131018169818
40
0.986410333189536
40
1
40
1
40
1
40
1
41
1
10
21.4681500158954
20
4.72355057158762
30
0
41
1
10
21.4393291669039
20
4.7233326552444
30
0
41
1
10
21.2561521600325
20
4.72183383559764
30
0
41
1
10
20.8495820011773
20
4.71276234838334
30
0
41
1
10
20.2429500768363
20
4.70944471637671
30
0
41
1
10
19.6176639699924
20
4.72150396590092
30
0
41
1
10
19.0264842358913
20
4.72411350908783
30
0
41
1
10
18.4844375137897
20
4.72453931413304
30
0
41
1
10
18.0016672016945
20
4.7248834842128
30
0
41
1
10
17.5756390218837
20
4.72474604302045
30
0
41
1
10
17.1550436288805
20
4.72351390846234
30
0
41
1
10
16.692468665514
20
4.72324301020785
30
0
41
1
10
16.2099975673041
20
4.72319728682834
30
0
41
1
10
15.7697351197521
20
4.72253786133555
30
0
41
1
10
15.3527018530465
20
4.72208190419249
30
0
41
1
10
14.8836962026562
20
4.72200404887997
30
0
41
1
10
14.3403787813658
20
4.72039423699653
30
0
41
1
10
13.7717295424605
20
4.71839755411671
30
0
41
1
10
13.2302749585735
20
4.71905915411941
30
0
41
1
10
12.7214467672872
20
4.72065662966844
30
0
41
1
10
12.1376152352516
20
4.72002268223787
30
0
41
1
10
11.4941095960482
20
4.71961269179801
30
0
41
1
10
10.9690278053884
20
4.71938191813004
30
0
41
1
10
10.6934250185817
20
4.71911886015928
30
0
41
1
10
10.6440624361776
20
4.71906948603657
30
0
0
SPLINE
5
107
100
AcDbEntity
8
1
62
256
6
ByLayer
370
18
48
1
60
0
100
AcDbSpline
70
4
71
3
72
33
73
29
40
0
40
0
40
0
40
0
40
0.0545718801648461
40
0.102400387914825
40
0.137312732733547
40
0.179212142975356
40
0.210244784577736
40
0.23933625034517
40
0.270694157861641
40
0.303439306484711
40
0.336131200189934
40
0.368842390292997
40
0.405725450595829
40
0.444997380472934
40
0.486997645030235
40
0.528943048691172
40
0.562788109748456
40
0.598247288369567
40
0.648000091122879
40
0.698392878857333
40
0.7362452088648
40
0.778106284296627
40
0.818403731827684
40
0.864149713229531
40
0.915346799176413
40
0.954005524725778
40
0.992236629452903
40
1
40
1
40
1
40
1
41
1
10
8.16056901595999
20
-4.71709698777008
30
0
41
1
10
8.39488362818366
20
-4.71732352901873
30
0
41
1
10
8.834586546461
20
-4.71770482456608
30
0
41
1
10
9.42418141918253
20
-4.71807977260721
30
0
41
1
10
9.95955493763259
20
-4.71838036618482
30
0
41
1
10
10.4220716816303
20
-4.71883113360221
30
0
41
1
10
10.8603499659457
20
-4.71929902071963
30
0
41
1
10
11.2532069397681
20
-4.7195523973493
30
0
41
1
10
11.6534413220749
20
-4.71967551773335
30
0
41
1
10
12.0692038558393
20
-4.71997080534953
30
0
41
1
10
12.4901610169172
20
-4.72045105924491
30
0
41
1
10
12.9257853068307
20
-4.72022108349697
30
0
41
1
10
13.3896920058606
20
-4.71861658812935
30
0
41
1
10
13.8982630625939
20
-4.7187250800537
30
0
41
1
10
14.4264735015893
20
-4.72076070896088
30
0
41
1
10
14.9276084429456
20
-4.7219969956287
30
0
41
1
10
15.40422578329
20
-4.72209844374561
30
0
41
1
10
15.9158594763016
20
-4.72276994119102
30
0
41
1
10
16.4980598819875
20
-4.72337165730639
30
0
41
1
10
17.0909744203241
20
-4.72326965733595
30
0
41
1
10
17.6488619718648
20
-4.72497197827317
30
0
41
1
10
18.1648458199364
20
-4.72482402412294
30
0
41
1
10
18.7099969286067
20
-4.72416961527995
30
0
41
1
10
19.2904826805545
20
-4.72436167025538
30
0
41
1
10
19.8510690714078
20
-4.71606338745878
30
0
41
1
10
20.40046651772
20
-4.70996414340175
30
0
41
1
10
20.7639828964658
20
-4.71282777550078
30
0
41
1
10
20.9596818030056
20
-4.71602783137999
30
0
41
1
10
20.9925997264082
20
-4.71658959886008
30
0
0
SPLINE
5
108
100
AcDbEntity
8
1
62
256
6
ByLayer
370
18
48
1
60
0
100
AcDbSpline
70
4
71
3
72
9
73
5
40
0
40
0
40
0
40
0
40
0.355518338186208
40
1
40
1
40
1
40
1
41
1
10
21.3321037864981
20
-4.72221167962297
30
0
41
1
10
21.3484835099473
20
-4.72242241454413
30
0
41
1
10
21.3943008292944
20
-4.72296388382324
30
0
41
1
10
21.4393291669039
20
-4.7233326552444
30
0
41
1
10
21.4681500158954
20
-4.7235505715876
30
0
0
SPLINE
5
109
100
AcDbEntity
8
1
62
256
6
ByLayer
370
18
48
1
60
0
100
AcDbSpline
70
4
71
3
72
28
73
24
40
0
40
0
40
0
40
0
40
0.0097966910966393
40
0.063879203638862
40
0.109607823257465
40
0.146560775660008
40
0.176718302159995
40
0.244201562506607
40
0.31370713466158
40
0.360860472837456
40
0.408694366254141
40
0.460935012038329
40
0.518520190958804
40
0.577609343538904
40
0.629453185218108
40
0.670737902104242
40
0.714087740104548
40
0.770276709623712
40
0.819762160468196
40
0.85847846665589
40
0.90157455870059
40
0.951072192866709
40
1
40
1
40
1
40
1
41
1
10
48.4946188927902
20
4.74018480846746
30
0
41
1
10
48.4601145644194
20
4.74002593490849
30
0
41
1
10
48.2350343658406
20
4.73910953974089
30
0
41
1
10
47.8382013796977
20
4.74013395404222
30
0
41
1
10
47.3629936560856
20
4.74111951231413
30
0
41
1
10
46.9607604873908
20
4.74003995005779
30
0
41
1
10
46.4808181645624
20
4.74062175255025
30
0
41
1
10
45.8857880093534
20
4.74130923700807
30
0
41
1
10
45.2244337885733
20
4.73949926790971
30
0
41
1
10
44.6635684229237
20
4.73531013345581
30
0
41
1
10
44.1396831527577
20
4.73061394696029
30
0
41
1
10
43.5761490666912
20
4.73358841453324
30
0
41
1
10
42.9985781077235
20
4.73873714851374
30
0
41
1
10
42.3958298517921
20
4.73893250216562
30
0
41
1
10
41.853243706608
20
4.73754854881165
30
0
41
1
10
41.3663347483451
20
4.7372805076694
30
0
41
1
10
40.8640278987626
20
4.73762095158486
30
0
41
1
10
40.3324390178595
20
4.73716157974164
30
0
41
1
10
39.8173893461462
20
4.73625686840609
30
0
41
1
10
39.3491823265789
20
4.7364279226212
30
0
41
1
10
38.880686046729
20
4.73647098209682
30
0
41
1
10
38.3784497384884
20
4.73556827886659
30
0
41
1
10
38.0332481160476
20
4.73452273947487
30
0
41
1
10
37.8650883805786
20
4.73257531830131
30
0
0
SPLINE
5
10A
100
AcDbEntity
8
1
62
256
6
ByLayer
370
18
48
1
60
0
100
AcDbSpline
70
4
71
1
72
4
73
2
40
0
40
0
40
1
40
1
41
1
10
48.7608114114126
20
-0.0001866887865845
30
0
41
1
10
48.7607984450556
20
-0.0001798795254899
30
0
0
LINE
5
82
100
AcDbEntity
8
4
62
256
6
ByLayer
370
18
48
0.05
60
0
100
AcDbLine
10
0
20
0
30
0
11
63
21
0
31
0
39
0
210
0
220
0
230
1
0
LINE
5
84
100
AcDbEntity
8
81
62
256
6
ByLayer
370
18
48
1
60
0
100
AcDbLine
10
63
20
0
30
0
11
66
21
0
31
0
39
0
210
0
220
0
230
1
0
LINE
5
85
100
AcDbEntity
8
80
62
256
6
ByLayer
370
18
48
1
60
0
100
AcDbLine
10
0
20
0
30
0
11
-3
21
0
31
0
39
0
210
0
220
0
230
1
0
LINE
5
86
100
AcDbEntity
8
SK4
62
256
6
ByLayer
370
18
48
0.05
60
0
100
AcDbLine
10
-43
20
0
30
0
11
66
21
0
31
0
39
0
210
0
220
0
230
1
0
LINE
5
88
100
AcDbEntity
8
1
62
256
6
ByLayer
370
18
48
1
60
0
100
AcDbLine
10
0
20
5
30
0
11
0
21
-5
31
0
39
0
210
0
220
0
230
1
0
LINE
5
89
100
AcDbEntity
8
1
62
256
6
ByLayer
370
13
48
1
60
0
100
AcDbLine
10
62.930275
20
0.060192
30
0
11
61.724157
21
1.391536
31
0
39
0
210
0
220
0
230
1
0
LINE
5
8A
100
AcDbEntity
8
1
62
256
6
ByLayer
370
18
48
1
60
0
100
AcDbLine
10
22
20
-0.960721
30
0
11
22
21
-1.180709
31
0
39
0
210
0
220
0
230
1
0
LINE
5
8B
100
AcDbEntity
8
1
62
256
6
ByLayer
370
18
48
1
60
0
100
AcDbLine
10
1
20
-4.962386
30
0
11
1
21
4.962386
31
0
39
0
210
0
220
0
230
1
0
LINE
5
8C
100
AcDbEntity
8
SK1
62
256
6
ByLayer
370
18
48
1
60
0
100
AcDbLine
10
-40
20
-3.451367
30
0
11
-40
21
-3.576328
31
0
39
0
210
0
220
0
230
1
0
LINE
5
8E
100
AcDbEntity
8
SK1
62
256
6
ByLayer
370
13
48
1
60
0
100
AcDbLine
10
-39.35
20
-4.246664
30
0
11
-39.35
21
-4.121661
31
0
39
0
210
0
220
0
230
1
0
LINE
5
8F
100
AcDbEntity
8
SK1
62
256
6
ByLayer
370
18
48
1
60
0
100
AcDbLine
10
-39.25
20
4.41
30
0
11
-39.25
21
4.364974
31
0
39
0
210
0
220
0
230
1
0
LINE
5
90
100
AcDbEntity
8
SK1
62
256
6
ByLayer
370
18
48
1
60
0
100
AcDbLine
10
-40
20
3.576328
30
0
11
-40
21
-3.451398
31
0
39
0
210
0
220
0
230
1
0
LINE
5
91
100
AcDbEntity
8
SK1
62
256
6
ByLayer
370
18
48
1
60
0
100
AcDbLine
10
-39.25
20
-4.41
30
0
11
-39.25
21
-4.252537
31
0
39
0
210
0
220
0
230
1
0
LINE
5
92
100
AcDbEntity
8
SK1
62
256
6
ByLayer
370
18
48
1
60
0
100
AcDbLine
10
-38.66
20
-5
30
0
11
-38.66
21
5
31
0
39
0
210
0
220
0
230
1
0
LINE
5
93
100
AcDbEntity
8
SK1
62
256
6
ByLayer
370
18
48
1
60
0
100
AcDbLine
10
0
20
5
30
0
11
0
21
-5
31
0
39
0
210
0
220
0
230
1
0
LINE
5
94
100
AcDbEntity
8
1
62
256
6
ByLayer
370
18
48
1
60
0
100
AcDbLine
10
1
20
4.962386
30
0
11
0
21
5
31
0
39
0
210
0
220
0
230
1
0
LINE
5
95
100
AcDbEntity
8
1
62
256
6
ByLayer
370
18
48
1
60
0
100
AcDbLine
10
0
20
-5
30
0
11
1
21
-4.962386
31
0
39
0
210
0
220
0
230
1
0
LINE
5
96
100
AcDbEntity
8
1
62
256
6
ByLayer
370
18
48
1
60
0
100
AcDbLine
10
1
20
-4.962386
30
0
11
4.160323
21
-4.964362
31
0
39
0
210
0
220
0
230
1
0
LINE
5
97
100
AcDbEntity
8
1
62
256
6
ByLayer
370
18
48
1
60
0
100
AcDbLine
10
5.55963
20
-4.965236
30
0
11
7.960667
21
-4.966737
31
0
39
0
210
0
220
0
230
1
0
LINE
5
98
100
AcDbEntity
8
1
62
256
6
ByLayer
370
18
48
1
60
0
100
AcDbLine
10
33.926616
20
-4.982965
30
0
11
35.160193
21
-4.983736
31
0
39
0
210
0
220
0
230
1
0
LINE
5
99
100
AcDbEntity
8
1
62
256
6
ByLayer
370
18
48
1
60
0
100
AcDbLine
10
35.160193
20
4.983736
30
0
11
33.926616
21
4.982965
31
0
39
0
210
0
220
0
230
1
0
LINE
5
9A
100
AcDbEntity
8
1
62
256
6
ByLayer
370
18
48
1
60
0
100
AcDbLine
10
7.960667
20
4.966737
30
0
11
5.55963
21
4.965236
31
0
39
0
210
0
220
0
230
1
0
LINE
5
9B
100
AcDbEntity
8
1
62
256
6
ByLayer
370
18
48
1
60
0
100
AcDbLine
10
4.160323
20
4.964362
30
0
11
1
21
4.962386
31
0
39
0
210
0
220
0
230
1
0
LINE
5
9C
100
AcDbEntity
8
SK1
62
256
6
ByLayer
370
18
48
1
60
0
100
AcDbLine
10
-39.25
20
-4.41
30
0
11
-38.66
21
-5
31
0
39
0
210
0
220
0
230
1
0
LINE
5
9D
100
AcDbEntity
8
SK1
62
256
6
ByLayer
370
18
48
1
60
0
100
AcDbLine
10
-38.66
20
5
30
0
11
-39.25
21
4.41
31
0
39
0
210
0
220
0
230
1
0
LINE
5
9E
100
AcDbEntity
8
SK1
62
256
6
ByLayer
370
18
48
1
60
0
100
AcDbLine
10
-38.66
20
-5
30
0
11
0
21
-5
31
0
39
0
210
0
220
0
230
1
0
LINE
5
9F
100
AcDbEntity
8
SK1
62
256
6
ByLayer
370
18
48
1
60
0
100
AcDbLine
10
0
20
5
30
0
11
-38.66
21
5
31
0
39
0
210
0
220
0
230
1
0
LINE
5
A0
100
AcDbEntity
8
2
62
256
6
ByLayer
370
13
48
1
60
0
100
AcDbLine
10
76.75
20
-5
30
0
11
76.75
21
19.056066
31
0
39
0
210
0
220
0
230
1
0
LINE
5
A2
100
AcDbEntity
8
2
62
256
6
ByLayer
370
13
48
1
60
0
100
AcDbLine
10
64.5875
20
5
30
0
11
78.75
21
5
31
0
39
0
210
0
220
0
230
1
0
LINE
5
A3
100
AcDbEntity
8
2
62
256
6
ByLayer
370
13
48
1
60
0
100
AcDbLine
10
64.5875
20
-5
30
0
11
78.75
21
-5
31
0
39
0
210
0
220
0
230
1
0
LINE
5
A4
100
AcDbEntity
8
1
62
256
6
ByLayer
370
18
48
1
60
1
100
AcDbLine
10
76.75
20
5
30
0
11
77.210784
21
1.500002
31
0
39
0
210
0
220
0
230
1
0
LINE
5
A5
100
AcDbEntity
8
1
62
256
6
ByLayer
370
18
48
1
60
1
100
AcDbLine
10
77.210784
20
1.500002
30
0
11
76.289216
21
1.499998
31
0
39
0
210
0
220
0
230
1
0
LINE
5
A6
100
AcDbEntity
8
1
62
256
6
ByLayer
370
18
48
1
60
1
100
AcDbLine
10
76.289216
20
1.499998
30
0
11
76.75
21
5
31
0
39
0
210
0
220
0
230
1
0
LINE
5
A7
100
AcDbEntity
8
1
62
256
6
ByLayer
370
18
48
1
60
1
100
AcDbLine
10
76.75
20
-5
30
0
11
76.289216
21
-1.500002
31
0
39
0
210
0
220
0
230
1
0
LINE
5
A8
100
AcDbEntity
8
1
62
256
6
ByLayer
370
18
48
1
60
1
100
AcDbLine
10
76.289216
20
-1.500002
30
0
11
77.210784
21
-1.499998
31
0
39
0
210
0
220
0
230
1
0
LINE
5
A9
100
AcDbEntity
8
1
62
256
6
ByLayer
370
18
48
1
60
1
100
AcDbLine
10
77.210784
20
-1.499998
30
0
11
76.75
21
-5
31
0
39
0
210
0
220
0
230
1
0
LINE
5
AA
100
AcDbEntity
8
SK2
62
256
6
ByLayer
370
13
48
1
60
0
100
AcDbLine
10
-48.25
20
-5
30
0
11
-48.25
21
22.056066
31
0
39
0
210
0
220
0
230
1
0
LINE
5
AC
100
AcDbEntity
8
SK2
62
256
6
ByLayer
370
13
48
1
60
0
100
AcDbLine
10
-41.5875
20
5
30
0
11
-50.25
21
5
31
0
39
0
210
0
220
0
230
1
0
LINE
5
AD
100
AcDbEntity
8
SK2
62
256
6
ByLayer
370
13
48
1
60
0
100
AcDbLine
10
-41.5875
20
-5
30
0
11
-50.25
21
-5
31
0
39
0
210
0
220
0
230
1
0
LINE
5
AE
100
AcDbEntity
8
1
62
256
6
ByLayer
370
18
48
1
60
1
100
AcDbLine
10
-48.25
20
5
30
0
11
-47.789216
21
1.500002
31
0
39
0
210
0
220
0
230
1
0
LINE
5
AF
100
AcDbEntity
8
1
62
256
6
ByLayer
370
18
48
1
60
1
100
AcDbLine
10
-47.789216
20
1.500002
30
0
11
-48.710784
21
1.499998
31
0
39
0
210
0
220
0
230
1
0
LINE
5
B0
100
AcDbEntity
8
1
62
256
6
ByLayer
370
18
48
1
60
1
100
AcDbLine
10
-48.710784
20
1.499998
30
0
11
-48.25
21
5
31
0
39
0
210
0
220
0
230
1
0
LINE
5
B1
100
AcDbEntity
8
1
62
256
6
ByLayer
370
18
48
1
60
1
100
AcDbLine
10
-48.25
20
-5
30
0
11
-48.710784
21
-1.500002
31
0
39
0
210
0
220
0
230
1
0
LINE
5
B2
100
AcDbEntity
8
1
62
256
6
ByLayer
370
18
48
1
60
1
100
AcDbLine
10
-48.710784
20
-1.500002
30
0
11
-47.789216
21
-1.499998
31
0
39
0
210
0
220
0
230
1
0
LINE
5
B3
100
AcDbEntity
8
1
62
256
6
ByLayer
370
18
48
1
60
1
100
AcDbLine
10
-47.789216
20
-1.499998
30
0
11
-48.25
21
-5
31
0
39
0
210
0
220
0
230
1
0
LINE
5
B4
100
AcDbEntity
8
SK2
62
256
6
ByLayer
370
13
48
1
60
0
100
AcDbLine
10
63.542996
20
1.491748
30
0
11
75.090395
21
33.215372
31
0
39
0
210
0
220
0
230
1
0
LINE
5
B5
100
AcDbEntity
8
SK2
62
256
6
ByLayer
370
13
48
1
60
0
100
AcDbLine
10
63.542996
20
-1.491748
30
0
11
75.090395
21
-33.215372
31
0
39
0
210
0
220
0
230
1
0
LINE
5
B6
100
AcDbEntity
8
1
62
256
6
ByLayer
370
18
48
1
60
1
100
AcDbLine
10
74.406306
20
31.336004
30
0
11
77.831591
21
30.481762
31
0
39
0
210
0
220
0
230
1
0
LINE
5
B7
100
AcDbEntity
8
1
62
256
6
ByLayer
370
18
48
1
60
1
100
AcDbLine
10
77.831591
20
30.481762
30
0
11
77.493786
21
29.624339
31
0
39
0
210
0
220
0
230
1
0
LINE
5
B8
100
AcDbEntity
8
1
62
256
6
ByLayer
370
18
48
1
60
1
100
AcDbLine
10
77.493786
20
29.624339
30
0
11
74.406306
21
31.336004
31
0
39
0
210
0
220
0
230
1
0
LINE
5
B9
100
AcDbEntity
8
1
62
256
6
ByLayer
370
18
48
1
60
1
100
AcDbLine
10
74.406306
20
-31.336004
30
0
11
77.493783
21
-29.62434
31
0
39
0
210
0
220
0
230
1
0
LINE
5
BA
100
AcDbEntity
8
1
62
256
6
ByLayer
370
18
48
1
60
1
100
AcDbLine
10
77.493783
20
-29.62434
30
0
11
77.831594
21
-30.481761
31
0
39
0
210
0
220
0
230
1
0
LINE
5
BB
100
AcDbEntity
8
1
62
256
6
ByLayer
370
18
48
1
60
1
100
AcDbLine
10
77.831594
20
-30.481761
30
0
11
74.406306
21
-31.336004
31
0
39
0
210
0
220
0
230
1
0
LINE
5
10B
100
AcDbEntity
8
1
62
256
6
ByLayer
370
13
48
0.05
60
0
100
AcDbLine
10
-46.5
20
0
30
0
11
67.737176
21
0
31
0
39
0
210
0
220
0
230
1
0
LINE
5
110
100
AcDbEntity
8
1
62
256
6
ByLayer
370
18
48
1
60
1
100
AcDbLine
10
76.75
20
5
30
0
11
77.210784
21
1.500002
31
0
39
0
210
0
220
0
230
1
0
LINE
5
111
100
AcDbEntity
8
1
62
256
6
ByLayer
370
18
48
1
60
1
100
AcDbLine
10
77.210784
20
1.500002
30
0
11
76.289216
21
1.499998
31
0
39
0
210
0
220
0
230
1
0
LINE
5
112
100
AcDbEntity
8
1
62
256
6
ByLayer
370
18
48
1
60
1
100
AcDbLine
10
76.289216
20
1.499998
30
0
11
76.75
21
5
31
0
39
0
210
0
220
0
230
1
0
LINE
5
114
100
AcDbEntity
8
1
62
256
6
ByLayer
370
18
48
1
60
1
100
AcDbLine
10
76.75
20
-5
30
0
11
76.289216
21
-1.500002
31
0
39
0
210
0
220
0
230
1
0
LINE
5
115
100
AcDbEntity
8
1
62
256
6
ByLayer
370
18
48
1
60
1
100
AcDbLine
10
76.289216
20
-1.500002
30
0
11
77.210784
21
-1.499998
31
0
39
0
210
0
220
0
230
1
0
LINE
5
116
100
AcDbEntity
8
1
62
256
6
ByLayer
370
18
48
1
60
1
100
AcDbLine
10
77.210784
20
-1.499998
30
0
11
76.75
21
-5
31
0
39
0
210
0
220
0
230
1
0
LINE
5
11A
100
AcDbEntity
8
1
62
256
6
ByLayer
370
18
48
1
60
1
100
AcDbLine
10
-48.25
20
5
30
0
11
-47.789216
21
1.500002
31
0
39
0
210
0
220
0
230
1
0
LINE
5
11B
100
AcDbEntity
8
1
62
256
6
ByLayer
370
18
48
1
60
1
100
AcDbLine
10
-47.789216
20
1.500002
30
0
11
-48.710784
21
1.499998
31
0
39
0
210
0
220
0
230
1
0
LINE
5
11C
100
AcDbEntity
8
1
62
256
6
ByLayer
370
18
48
1
60
1
100
AcDbLine
10
-48.710784
20
1.499998
30
0
11
-48.25
21
5
31
0
39
0
210
0
220
0
230
1
0
LINE
5
11E
100
AcDbEntity
8
1
62
256
6
ByLayer
370
18
48
1
60
1
100
AcDbLine
10
-48.25
20
-5
30
0
11
-48.710784
21
-1.500002
31
0
39
0
210
0
220
0
230
1
0
LINE
5
11F
100
AcDbEntity
8
1
62
256
6
ByLayer
370
18
48
1
60
1
100
AcDbLine
10
-48.710784
20
-1.500002
30
0
11
-47.789216
21
-1.499998
31
0
39
0
210
0
220
0
230
1
0
LINE
5
120
100
AcDbEntity
8
1
62
256
6
ByLayer
370
18
48
1
60
1
100
AcDbLine
10
-47.789216
20
-1.499998
30
0
11
-48.25
21
-5
31
0
39
0
210
0
220
0
230
1
0
LINE
5
123
100
AcDbEntity
8
1
62
256
6
ByLayer
370
18
48
1
60
1
100
AcDbLine
10
74.406306
20
31.336004
30
0
11
77.831591
21
30.481762
31
0
39
0
210
0
220
0
230
1
0
LINE
5
124
100
AcDbEntity
8
1
62
256
6
ByLayer
370
18
48
1
60
1
100
AcDbLine
10
77.831591
20
30.481762
30
0
11
77.493786
21
29.624339
31
0
39
0
210
0
220
0
230
1
0
LINE
5
125
100
AcDbEntity
8
1
62
256
6
ByLayer
370
18
48
1
60
1
100
AcDbLine
10
77.493786
20
29.624339
30
0
11
74.406306
21
31.336004
31
0
39
0
210
0
220
0
230
1
0
LINE
5
127
100
AcDbEntity
8
1
62
256
6
ByLayer
370
18
48
1
60
1
100
AcDbLine
10
74.406306
20
-31.336004
30
0
11
77.493783
21
-29.62434
31
0
39
0
210
0
220
0
230
1
0
LINE
5
128
100
AcDbEntity
8
1
62
256
6
ByLayer
370
18
48
1
60
1
100
AcDbLine
10
77.493783
20
-29.62434
30
0
11
77.831594
21
-30.481761
31
0
39
0
210
0
220
0
230
1
0
LINE
5
129
100
AcDbEntity
8
1
62
256
6
ByLayer
370
18
48
1
60
1
100
AcDbLine
10
77.831594
20
-30.481761
30
0
11
74.406306
21
-31.336004
31
0
39
0
210
0
220
0
230
1
0
MTEXT
5
10C
100
AcDbEntity
8
2
62
256
6
ByLayer
370
18
48
1
60
0
100
AcDbMText
10
75.185366
20
8.934844
30
0
210
0
220
0
230
1
1
%%c
40
3.5
41
0
44
1.084337
50
90
71
7
72
5
7
iso_b_vert
0
MTEXT
5
10F
100
AcDbEntity
8
2
62
256
6
ByLayer
370
18
48
1
60
0
100
AcDbMText
10
75.185366
20
15.9075
30
0
210
0
220
0
230
1
1
\W0.5321;10
40
3.5
41
0
44
1.084337
50
90
71
7
72
5
7
iso_b_vert
0
MTEXT
5
118
100
AcDbEntity
8
SK2
62
256
6
ByLayer
370
18
48
1
60
0
100
AcDbMText
10
-49.814634
20
11.934844
30
0
210
0
220
0
230
1
1
%%c
40
3.5
41
0
44
1.084337
50
90
71
7
72
5
7
iso_b_vert
0
MTEXT
5
119
100
AcDbEntity
8
SK2
62
256
6
ByLayer
370
18
48
1
60
0
100
AcDbMText
10
-49.814634
20
18.9075
30
0
210
0
220
0
230
1
1
\W0.5321;10
40
3.5
41
0
44
1.084337
50
90
71
7
72
5
7
iso_b_vert
0
MTEXT
5
122
100
AcDbEntity
8
SK2
62
256
6
ByLayer
370
18
48
1
60
0
100
AcDbMText
10
92.275749
20
-2.467366
30
0
210
0
220
0
230
1
1
\W0.7825;140%%d
40
3.5
41
0
44
1.084337
50
0
71
7
72
5
7
iso_b_vert
0
MTEXT
5
12B
100
AcDbEntity
8
SK6
62
256
6
ByLayer
370
18
48
1
60
0
100
AcDbMText
10
-17.338229
20
-97.467366
30
0
210
0
220
0
230
1
1
\W0.7442;860.1-1000-049A1-MM M2BM
40
3.5
41
0
44
1.084337
50
0
71
7
72
5
7
iso_b_vert
0
HATCH
5
113
100
AcDbEntity
8
2
62
256
6
ByLayer
370
13
48
1
60
0
100
AcDbHatch
10
0
20
0
30
0
210
0
220
0
230
1
2
ANSI31
70
0
71
0
91
1
92
5
93
3
72
1
10
76.75
20
5
11
77.2107837415528
21
1.50000169255318
72
1
10
77.2107837415528
20
1.50000169255318
11
76.2892162584472
21
1.49999830744682
72
1
10
76.2892162584472
20
1.49999830744682
11
76.75
21
5
97
0
75
0
76
1
52
0
41
0.0062
77
0
78
1
53
45
43
0
44
0
45
-0.0139193969876572
46
0.0139193969876572
79
0
47
0
98
1
10
0
20
0
0
HATCH
5
117
100
AcDbEntity
8
2
62
256
6
ByLayer
370
13
48
1
60
0
100
AcDbHatch
10
0
20
0
30
0
210
0
220
0
230
1
2
ANSI31
70
0
71
0
91
1
92
5
93
3
72
1
10
76.75
20
-5
11
76.2892162584472
21
-1.50000169255318
72
1
10
76.2892162584472
20
-1.50000169255318
11
77.2107837415528
21
-1.49999830744682
72
1
10
77.2107837415528
20
-1.49999830744682
11
76.75
21
-5
97
0
75
0
76
1
52
0
41
0.0062
77
0
78
1
53
45
43
0
44
0
45
-0.0139193969876572
46
0.0139193969876572
79
0
47
0
98
1
10
0
20
0
0
HATCH
5
11D
100
AcDbEntity
8
SK2
62
256
6
ByLayer
370
13
48
1
60
0
100
AcDbHatch
10
0
20
0
30
0
210
0
220
0
230
1
2
ANSI31
70
0
71
0
91
1
92
5
93
3
72
1
10
-48.25
20
5
11
-47.7892162584472
21
1.50000169255318
72
1
10
-47.7892162584472
20
1.50000169255318
11
-48.7107837415528
21
1.49999830744682
72
1
10
-48.7107837415528
20
1.49999830744682
11
-48.25
21
5
97
0
75
0
76
1
52
0
41
0.0062
77
0
78
1
53
45
43
0
44
0
45
-0.0139193969876572
46
0.0139193969876572
79
0
47
0
98
1
10
0
20
0
0
HATCH
5
121
100
AcDbEntity
8
SK2
62
256
6
ByLayer
370
13
48
1
60
0
100
AcDbHatch
10
0
20
0
30
0
210
0
220
0
230
1
2
ANSI31
70
0
71
0
91
1
92
5
93
3
72
1
10
-48.25
20
-5
11
-48.7107837415528
21
-1.50000169255318
72
1
10
-48.7107837415528
20
-1.50000169255318
11
-47.7892162584472
21
-1.49999830744682
72
1
10
-47.7892162584472
20
-1.49999830744682
11
-48.25
21
-5
97
0
75
0
76
1
52
0
41
0.0062
77
0
78
1
53
45
43
0
44
0
45
-0.0139193969876572
46
0.0139193969876572
79
0
47
0
98
1
10
0
20
0
0
HATCH
5
126
100
AcDbEntity
8
SK2
62
256
6
ByLayer
370
13
48
1
60
0
100
AcDbHatch
10
0
20
0
30
0
210
0
220
0
230
1
2
ANSI31
70
0
71
0
91
1
92
5
93
3
72
1
10
74.406305611471
20
31.336004427118
11
77.8315910355581
21
30.4817623231765
72
1
10
77.8315910355581
20
30.4817623231765
11
77.4937860746348
21
29.6243391870853
72
1
10
77.4937860746348
20
29.6243391870853
11
74.406305611471
21
31.336004427118
97
0
75
0
76
1
52
0
41
0.0062
77
0
78
1
53
45
43
0
44
0
45
-0.0139193969876572
46
0.0139193969876572
79
0
47
0
98
1
10
0
20
0
0
HATCH
5
12A
100
AcDbEntity
8
SK2
62
256
6
ByLayer
370
13
48
1
60
0
100
AcDbHatch
10
0
20
0
30
0
210
0
220
0
230
1
2
ANSI31
70
0
71
0
91
1
92
5
93
3
72
1
10
74.406305611471
20
-31.336004427118
11
77.4937829251483
21
-29.6243404279237
72
1
10
77.4937829251483
20
-29.6243404279237
11
77.8315941850446
21
-30.481761082338
72
1
10
77.8315941850446
20
-30.481761082338
11
74.406305611471
21
-31.336004427118
97
0
75
0
76
1
52
0
41
0.0062
77
0
78
1
53
45
43
0
44
0
45
-0.0139193969876572
46
0.0139193969876572
79
0
47
0
98
1
10
0
20
0
0
DIMENSION
5
12E
100
AcDbEntity
8
2
62
256
6
ByLayer
370
18
48
1
60
0
100
AcDbDimension
2
_U0
10
63
20
-64.539642
30
0
11
11.5
21
-64.539642
31
0
70
32
71
1
72
1
41
1
210
0
220
0
230
1
3
Standard
100
AcDbAlignedDimension
13
-40
23
-5
33
0
14
63
24
-5
34
0
50
0
100
AcDbRotatedDimension
1001
ACAD
1000
DSTYLE
1002
{
1070
   371
1070
    13
1070
   372
1070
    13
1070
     3
1000

1070
   170
1070
     0
1070
   144
1040
1.0
1070
   277
1070
     2
1070
   284
1070
     8
1070
   278
1070
    46
1070
   146
1040
1.0
1070
   345
1005
16
1070
   347
1005
16
1070
   346
1005
16
1070
   344
1005
0
1070
   343
1005
0
1070
   172
1070
     1
1070
    76
1070
     0
1070
    75
1070
     0
1070
   282
1070
     0
1070
   281
1070
     0
1070
    71
1070
     0
1070
    74
1070
     0
1070
   279
1070
     0
1070
   173
1070
     1
1070
   340
1005
10D
1070
   271
1070
     2
1070
   272
1070
     2
1070
    77
1070
     1
1070
    73
1070
     1
1070
   171
1070
     3
1070
   274
1070
     4
1070
   177
1070
     2
1070
   176
1070
     2
1070
   178
1070
     2
1070
    78
1070
     8
1070
    48
1040
-0.1
1070
    41
1040
3.5
1070
   147
1040
1.75
1070
    42
1040
1.5875
1070
    44
1040
2.0
1070
   140
1040
3.5
1002
}
1001
ACAD_DSTYLE_DIM_LINETYPE
1070
   380
1005
16
1001
ACAD_DSTYLE_DIM_EXT1_LINETYPE
1070
   381
1005
16
1001
ACAD_DSTYLE_DIM_EXT2_LINETYPE
1070
   382
1005
16
0
DIMENSION
5
147
100
AcDbEntity
8
SK2
62
256
6
ByLayer
370
18
48
1
60
0
100
AcDbDimension
2
_U1
10
2
20
-44.539642
30
0
11
32.5
21
-44.539642
31
0
70
32
71
1
72
1
41
1
210
0
220
0
230
1
3
Standard
100
AcDbAlignedDimension
13
63
23
-5
33
0
14
2
24
-5
34
0
50
0
100
AcDbRotatedDimension
1001
ACAD
1000
DSTYLE
1002
{
1070
   371
1070
    13
1070
   372
1070
    13
1070
     3
1000

1070
   170
1070
     0
1070
   144
1040
1.0
1070
   277
1070
     2
1070
   284
1070
     8
1070
   278
1070
    46
1070
   146
1040
1.0
1070
   345
1005
16
1070
   347
1005
16
1070
   346
1005
16
1070
   344
1005
0
1070
   343
1005
0
1070
   172
1070
     1
1070
    76
1070
     0
1070
    75
1070
     0
1070
   282
1070
     0
1070
   281
1070
     0
1070
    71
1070
     0
1070
    74
1070
     0
1070
   279
1070
     0
1070
   173
1070
     1
1070
   340
1005
10D
1070
   271
1070
     2
1070
   272
1070
     2
1070
    77
1070
     1
1070
    73
1070
     1
1070
   171
1070
     3
1070
   274
1070
     4
1070
   177
1070
     2
1070
   176
1070
     2
1070
   178
1070
     2
1070
    78
1070
     8
1070
    48
1040
-0.1
1070
    41
1040
3.5
1070
   147
1040
1.75
1070
    42
1040
1.5875
1070
    44
1040
2.0
1070
   140
1040
3.5
1002
}
1001
ACAD_DSTYLE_DIM_LINETYPE
1070
   380
1005
16
1001
ACAD_DSTYLE_DIM_EXT1_LINETYPE
1070
   381
1005
16
1001
ACAD_DSTYLE_DIM_EXT2_LINETYPE
1070
   382
1005
16
0
DIMENSION
5
15F
100
AcDbEntity
8
SK2
62
256
6
ByLayer
370
18
48
1
60
0
100
AcDbDimension
2
_U2
10
14
20
-34.539642
30
0
11
38.5
21
-34.539642
31
0
70
32
71
1
72
1
41
1
210
0
220
0
230
1
3
Standard
100
AcDbAlignedDimension
13
63
23
-5
33
0
14
14
24
-5
34
0
50
0
100
AcDbRotatedDimension
1001
ACAD
1000
DSTYLE
1002
{
1070
   371
1070
    13
1070
   372
1070
    13
1070
     3
1000

1070
   170
1070
     0
1070
   144
1040
1.0
1070
   277
1070
     2
1070
   284
1070
     8
1070
   278
1070
    46
1070
   146
1040
1.0
1070
   345
1005
16
1070
   347
1005
16
1070
   346
1005
16
1070
   344
1005
0
1070
   343
1005
0
1070
   172
1070
     1
1070
    76
1070
     0
1070
    75
1070
     0
1070
   282
1070
     0
1070
   281
1070
     0
1070
    71
1070
     0
1070
    74
1070
     0
1070
   279
1070
     0
1070
   173
1070
     1
1070
   340
1005
10D
1070
   271
1070
     2
1070
   272
1070
     2
1070
    77
1070
     1
1070
    73
1070
     1
1070
   171
1070
     3
1070
   274
1070
     4
1070
   177
1070
     2
1070
   176
1070
     2
1070
   178
1070
     2
1070
    78
1070
     8
1070
    48
1040
-0.1
1070
    41
1040
3.5
1070
   147
1040
1.75
1070
    42
1040
1.5875
1070
    44
1040
2.0
1070
   140
1040
3.5
1002
}
1001
ACAD_DSTYLE_DIM_LINETYPE
1070
   380
1005
16
1001
ACAD_DSTYLE_DIM_EXT1_LINETYPE
1070
   381
1005
16
1001
ACAD_DSTYLE_DIM_EXT2_LINETYPE
1070
   382
1005
16
0
DIMENSION
5
179
100
AcDbEntity
8
SK2
62
256
6
ByLayer
370
18
48
1
60
0
100
AcDbDimension
2
_U3
10
0
20
-44.539642
30
0
11
-20
21
-44.539642
31
0
70
32
71
1
72
1
41
1
210
0
220
0
230
1
3
Standard
100
AcDbAlignedDimension
13
-40
23
-5
33
0
14
0
24
-5
34
0
50
0
100
AcDbRotatedDimension
1001
ACAD
1000
DSTYLE
1002
{
1070
   371
1070
    13
1070
   372
1070
    13
1070
     3
1000

1070
   170
1070
     0
1070
   144
1040
1.0
1070
   277
1070
     2
1070
   284
1070
     8
1070
   278
1070
    46
1070
   146
1040
1.0
1070
   345
1005
16
1070
   347
1005
16
1070
   346
1005
16
1070
   344
1005
0
1070
   343
1005
0
1070
   172
1070
     1
1070
    76
1070
     0
1070
    75
1070
     0
1070
   282
1070
     0
1070
   281
1070
     0
1070
    71
1070
     0
1070
    74
1070
     0
1070
   279
1070
     0
1070
   173
1070
     1
1070
   340
1005
10D
1070
   271
1070
     2
1070
   272
1070
     2
1070
    77
1070
     1
1070
    73
1070
     1
1070
   171
1070
     3
1070
   274
1070
     4
1070
   177
1070
     2
1070
   176
1070
     2
1070
   178
1070
     2
1070
    78
1070
     8
1070
    48
1040
-0.1
1070
    41
1040
3.5
1070
   147
1040
1.75
1070
    42
1040
1.5875
1070
    44
1040
2.0
1070
   140
1040
3.5
1002
}
1001
ACAD_DSTYLE_DIM_LINETYPE
1070
   380
1005
16
1001
ACAD_DSTYLE_DIM_EXT1_LINETYPE
1070
   381
1005
16
1001
ACAD_DSTYLE_DIM_EXT2_LINETYPE
1070
   382
1005
16
0
DIMENSION
5
191
100
AcDbEntity
8
SK2
62
256
6
ByLayer
370
18
48
1
60
0
100
AcDbDimension
2
_U4
10
63
20
-54.539642
30
0
11
31.5
21
-54.539642
31
0
70
32
71
1
72
1
41
1
210
0
220
0
230
1
3
Standard
100
AcDbAlignedDimension
13
0
23
-5
33
0
14
63
24
-5
34
0
50
0
100
AcDbRotatedDimension
1001
ACAD
1000
DSTYLE
1002
{
1070
   371
1070
    13
1070
   372
1070
    13
1070
     3
1000

1070
   170
1070
     0
1070
   144
1040
1.0
1070
   277
1070
     2
1070
   284
1070
     8
1070
   278
1070
    46
1070
   146
1040
1.0
1070
   345
1005
16
1070
   347
1005
16
1070
   346
1005
16
1070
   344
1005
0
1070
   343
1005
0
1070
   172
1070
     1
1070
    76
1070
     0
1070
    75
1070
     0
1070
   282
1070
     0
1070
   281
1070
     0
1070
    71
1070
     0
1070
    74
1070
     0
1070
   279
1070
     0
1070
   173
1070
     1
1070
   340
1005
10D
1070
   271
1070
     2
1070
   272
1070
     2
1070
    77
1070
     1
1070
    73
1070
     1
1070
   171
1070
     3
1070
   274
1070
     4
1070
   177
1070
     2
1070
   176
1070
     2
1070
   178
1070
     2
1070
    78
1070
     8
1070
    48
1040
-0.1
1070
    41
1040
3.5
1070
   147
1040
1.75
1070
    42
1040
1.5875
1070
    44
1040
2.0
1070
   140
1040
3.5
1002
}
1001
ACAD_DSTYLE_DIM_LINETYPE
1070
   380
1005
16
1001
ACAD_DSTYLE_DIM_EXT1_LINETYPE
1070
   381
1005
16
1001
ACAD_DSTYLE_DIM_EXT2_LINETYPE
1070
   382
1005
16
0
ENDSEC
0
SECTION
2
OBJECTS
0
DICTIONARY
5
219
330
0
100
AcDbDictionary
280
0
281
1
3
ACAD_GROUP
350
21a
3
ACAD_MLINESTYLE
350
21b
0
DICTIONARY
5
21a
330
0
100
AcDbDictionary
280
0
281
1
0
DICTIONARY
5
21b
330
0
100
AcDbDictionary
280
0
281
1
3
Standard
350
18
0
MLINESTYLE
5
18
330
21b
100
AcDbMlineStyle
2
Standard
70
0
3

62
256
51
90
52
90
71
2
49
-0.5
62
256
6
ByLayer
49
0.5
62
256
6
ByLayer
0
RASTERVARIABLES
5
207
330

100
AcDbRasterVariables
90
0
70
1
71
1
72
1
0
ENDSEC
0
EOF
