0
SECTION
2
HEADER
9
$ACADVER
1
AC1015
9
$DWGCODEPAGE
3
ANSI_1252
9
$HANDSEED
5
22d
9
$ANGBASE
50
0
9
$ANGDIR
70
0
9
$ATTMODE
70
1
9
$AUNITS
70
0
9
$AUPREC
70
0
9
$CECOLOR
62
256
9
$CELTSCALE
40
1
9
$CELTYPE
6
ByLayer
9
$CELWEIGHT
370
18
9
$CLAYER
8
0
9
$CMLJUST
70
0
9
$CMLSCALE
40
1
9
$CMLSTYLE
2
Standard
9
$DIMSTYLE
2
Standard
9
$TEXTSIZE
40
0.2
9
$TEXTSTYLE
7
Standard
9
$LUNITS
70
2
9
$LUPREC
70
4
9
$EXTNAMES
290
1
9
$INSUNITS
70
4
9
$LTSCALE
40
1
9
$LWDISPLAY
290
1
9
$PDMODE
70
0
9
$PDSIZE
40
0
9
$PLINEGEN
70
0
0
ENDSEC
0
SECTION
2
CLASSES
0
CLASS
1
RASTERVARIABLES
2
AcDbRasterVariables
3
ISM
90
0
280
0
281
0
0
ENDSEC
0
SECTION
2
TABLES
0
TABLE
2
VPORT
5
223
100
AcDbSymbolTable
0
VPORT
5
1
100
AcDbSymbolTableRecord
100
AcDbViewportTableRecord
2
*Active
70
0
10
0
20
0
11
1
21
1
12
-1
22
1
13
0
23
0
14
0.5
24
0.5
15
10
25
10
16
0
26
0
36
1
17
0
27
0
37
0
0
ENDTAB
0
TABLE
2
LTYPE
5
224
100
AcDbSymbolTable
0
LTYPE
5
14
100
AcDbSymbolTableRecord
100
AcDbLinetypeTableRecord
70
0
2
ByBlock
3

72
65
73
0
40
0
0
LTYPE
5
15
100
AcDbSymbolTableRecord
100
AcDbLinetypeTableRecord
70
0
2
ByLayer
3

72
65
73
0
40
0
0
LTYPE
5
16
100
AcDbSymbolTableRecord
100
AcDbLinetypeTableRecord
70
0
2
Continuous
3
Solid line
72
65
73
0
40
0
0
LTYPE
5
6E
100
AcDbSymbolTableRecord
100
AcDbLinetypeTableRecord
70
0
2
CENTER
3
____ _ ____ _ ____ _ ____
72
65
73
4
40
47.5
49
22
74
0
49
-8.5
74
0
49
8.5
74
0
49
-8.5
74
0
0
LTYPE
5
6F
100
AcDbSymbolTableRecord
100
AcDbLinetypeTableRecord
70
0
2
DASHED
3
__ __ __ __ __ __ __ __ __
72
65
73
2
40
25.72
49
12.86
74
0
49
-12.86
74
0
0
ENDTAB
0
TABLE
2
LAYER
5
225
100
AcDbSymbolTable
0
LAYER
5
10
100
AcDbSymbolTableRecord
100
AcDbLayerTableRecord
2
0
70
0
62
7
6
Continuous
290
1
370
-3
390
0
0
LAYER
5
71
100
AcDbSymbolTableRecord
100
AcDbLayerTableRecord
2
80
70
0
62
-6
6
Continuous
290
1
370
-3
390
0
0
LAYER
5
73
100
AcDbSymbolTableRecord
100
AcDbLayerTableRecord
2
81
70
0
62
-3
6
Continuous
290
1
370
-3
390
0
0
LAYER
5
75
100
AcDbSymbolTableRecord
100
AcDbLayerTableRecord
2
1
70
0
62
4
6
Continuous
290
1
370
-3
390
0
0
LAYER
5
87
100
AcDbSymbolTableRecord
100
AcDbLayerTableRecord
2
4
70
0
62
-2
6
CENTER
290
1
370
-3
390
0
0
LAYER
5
A3
100
AcDbSymbolTableRecord
100
AcDbLayerTableRecord
2
2
70
0
62
7
6
Continuous
290
1
370
-3
390
0
0
LAYER
5
138
100
AcDbSymbolTableRecord
100
AcDbLayerTableRecord
2
Defpoints
70
0
62
7
6
Continuous
290
0
370
-3
390
0
0
LAYER
5
20f
100
AcDbSymbolTableRecord
100
AcDbLayerTableRecord
2
SK4
70
0
62
2
6
CENTER
290
1
370
-3
390
0
0
LAYER
5
210
100
AcDbSymbolTableRecord
100
AcDbLayerTableRecord
2
SK1
70
0
62
4
6
Continuous
290
1
370
-3
390
0
0
LAYER
5
211
100
AcDbSymbolTableRecord
100
AcDbLayerTableRecord
2
SK2
70
0
62
7
6
Continuous
290
1
370
-3
390
0
0
LAYER
5
212
100
AcDbSymbolTableRecord
100
AcDbLayerTableRecord
2
SK6
70
0
62
5
6
Continuous
290
1
370
-3
390
0
0
ENDTAB
0
TABLE
2
STYLE
5
226
100
AcDbSymbolTable
0
STYLE
5
11
100
AcDbSymbolTableRecord
100
AcDbTextStyleTableRecord
2
Standard
3
txt
70
0
71
0
40
0
41
1
42
0
50
0
0
STYLE
5
114
100
AcDbSymbolTableRecord
100
AcDbTextStyleTableRecord
2
iso_b_vert
3
simplex.shx
70
0
71
0
40
0
41
1
42
0
50
0
0
STYLE
5
115
100
AcDbSymbolTableRecord
100
AcDbTextStyleTableRecord
2
DWGDirectTextStyle
3
simplex
70
0
71
0
40
0
41
1
42
0
50
0
0
ENDTAB
0
TABLE
2
DIMSTYLE
5
227
100
AcDbSymbolTable
100
AcDbDimStyleTable
0
DIMSTYLE
105
27
100
AcDbSymbolTableRecord
100
AcDbDimStyleTableRecord
2
Standard
70
0
3
<>
41
0.18
42
0.0625
44
0.18
140
0.18
147
0.09
73
0
74
0
77
1
271
2
275
0
278
52
280
0
340
11
0
ENDTAB
0
TABLE
2
VIEW
5
228
100
AcDbSymbolTable
0
ENDTAB
0
TABLE
2
UCS
5
229
100
AcDbSymbolTable
0
ENDTAB
0
TABLE
2
APPID
5
22a
100
AcDbSymbolTable
0
APPID
5
12
100
AcDbSymbolTableRecord
100
AcDbRegAppTableRecord
2
ACAD
70
0
0
APPID
5
134
100
AcDbSymbolTableRecord
100
AcDbRegAppTableRecord
2
ACAD_DSTYLE_DIMBREAK
70
0
0
APPID
5
1CE
100
AcDbSymbolTableRecord
100
AcDbRegAppTableRecord
2
ACAD_DSTYLE_DIM_LINETYPE
70
0
0
APPID
5
1CF
100
AcDbSymbolTableRecord
100
AcDbRegAppTableRecord
2
ACAD_DSTYLE_DIM_EXT1_LINETYPE
70
0
0
APPID
5
1D0
100
AcDbSymbolTableRecord
100
AcDbRegAppTableRecord
2
ACAD_DSTYLE_DIM_EXT2_LINETYPE
70
0
0
APPID
5
20B
100
AcDbSymbolTableRecord
100
AcDbRegAppTableRecord
2
ACAD_MLEADERVER
70
0
0
ENDTAB
0
TABLE
2
BLOCK_RECORD
5
22b
100
AcDbSymbolTable
0
BLOCK_RECORD
5
1F
100
AcDbSymbolTableRecord
100
AcDbBlockTableRecord
2
*Model_Space
340
0
70
0
0
BLOCK_RECORD
5
1B
100
AcDbSymbolTableRecord
100
AcDbBlockTableRecord
2
*Paper_Space
340
0
70
0
0
BLOCK_RECORD
5
23
100
AcDbSymbolTableRecord
100
AcDbBlockTableRecord
2
*Paper_Space0
340
0
70
0
0
BLOCK_RECORD
5
139
100
AcDbSymbolTableRecord
100
AcDbBlockTableRecord
2
*D1
340
0
70
0
0
BLOCK_RECORD
5
145
100
AcDbSymbolTableRecord
100
AcDbBlockTableRecord
2
_U0
340
0
70
0
0
BLOCK_RECORD
5
151
100
AcDbSymbolTableRecord
100
AcDbBlockTableRecord
2
*D3
340
0
70
0
0
BLOCK_RECORD
5
15D
100
AcDbSymbolTableRecord
100
AcDbBlockTableRecord
2
_U1
340
0
70
0
0
BLOCK_RECORD
5
169
100
AcDbSymbolTableRecord
100
AcDbBlockTableRecord
2
*D5
340
0
70
0
0
BLOCK_RECORD
5
175
100
AcDbSymbolTableRecord
100
AcDbBlockTableRecord
2
_U2
340
0
70
0
0
BLOCK_RECORD
5
183
100
AcDbSymbolTableRecord
100
AcDbBlockTableRecord
2
*D7
340
0
70
0
0
BLOCK_RECORD
5
18F
100
AcDbSymbolTableRecord
100
AcDbBlockTableRecord
2
_U3
340
0
70
0
0
BLOCK_RECORD
5
19B
100
AcDbSymbolTableRecord
100
AcDbBlockTableRecord
2
*D9
340
0
70
0
0
BLOCK_RECORD
5
1A7
100
AcDbSymbolTableRecord
100
AcDbBlockTableRecord
2
_U4
340
0
70
0
0
ENDTAB
0
ENDSEC
0
SECTION
2
BLOCKS
0
BLOCK
5
20
100
AcDbEntity
8
0
100
AcDbBlockBegin
2
*Model_Space
70
0
10
0
20
0
30
0
3
*Model_Space
0
ENDBLK
5
21
100
AcDbEntity
8
0
100
AcDbBlockEnd
0
BLOCK
5
1C
100
AcDbEntity
8
0
100
AcDbBlockBegin
2
*Paper_Space
70
0
10
0
20
0
30
0
3
*Paper_Space
0
ENDBLK
5
1D
100
AcDbEntity
8
0
100
AcDbBlockEnd
0
BLOCK
5
24
100
AcDbEntity
8
0
100
AcDbBlockBegin
2
*Paper_Space0
70
0
10
0
20
0
30
0
3
*Paper_Space0
0
ENDBLK
5
25
100
AcDbEntity
8
0
100
AcDbBlockEnd
0
BLOCK
5
13A
100
AcDbEntity
8
0
100
AcDbBlockBegin
2
*D1
70
1
10
0
20
0
30
0
3
*D1
0
LINE
5
13C
100
AcDbEntity
8
0
62
256
6
ByLayer
370
-2
48
1
60
0
100
AcDbLine
10
-40
20
-6.5875
30
0
11
-40
21
-66.342303
31
0
39
0
210
0
220
0
230
1
0
LINE
5
13D
100
AcDbEntity
8
0
62
256
6
ByLayer
370
-2
48
1
60
0
100
AcDbLine
10
63
20
-6.4375
30
0
11
63
21
-66.342303
31
0
39
0
210
0
220
0
230
1
0
LINE
5
13E
100
AcDbEntity
8
0
62
256
6
ByLayer
370
-2
48
1
60
0
100
AcDbLine
10
-36.5
20
-64.342303
30
0
11
59.5
21
-64.342303
31
0
39
0
210
0
220
0
230
1
0
SOLID
5
13F
100
AcDbEntity
8
0
62
256
6
ByLayer
370
-1
48
1
60
0
100
AcDbTrace
10
-36.5
20
-63.758969
30
0
11
-36.5
21
-64.925636
31
0
12
-40
22
-64.342303
32
0
13
-40
23
-64.342303
33
0
39
0
210
0
220
0
230
1
0
SOLID
5
140
100
AcDbEntity
8
0
62
256
6
ByLayer
370
-1
48
1
60
0
100
AcDbTrace
10
59.5
20
-64.925636
30
0
11
59.5
21
-63.758969
31
0
12
63
22
-64.342303
32
0
13
63
23
-64.342303
33
0
39
0
210
0
220
0
230
1
0
MTEXT
5
141
100
AcDbEntity
8
0
62
256
6
ByLayer
370
18
48
1
60
0
100
AcDbMText
10
11.5
20
-57.342303
30
0
210
0
220
0
230
1
1
\A1;103
40
3.5
41
0
44
1
50
0
71
5
72
5
7
iso_b_vert
0
POINT
5
142
100
AcDbEntity
8
Defpoints
62
0
6
ByLayer
370
-1
48
1
60
0
100
AcDbPoint
10
-40
20
-5
30
0
39
0
210
0
220
0
230
1
50
360
0
POINT
5
143
100
AcDbEntity
8
Defpoints
62
0
6
ByLayer
370
-1
48
1
60
0
100
AcDbPoint
10
63
20
-4.85
30
0
39
0
210
0
220
0
230
1
50
360
0
POINT
5
144
100
AcDbEntity
8
Defpoints
62
0
6
ByLayer
370
-1
48
1
60
0
100
AcDbPoint
10
63
20
-64.342303
30
0
39
0
210
0
220
0
230
1
50
360
0
ENDBLK
5
13B
100
AcDbEntity
8
0
100
AcDbBlockEnd
0
BLOCK
5
14C
100
AcDbEntity
8
0
100
AcDbBlockBegin
2
_U0
70
0
10
0
20
0
30
0
3
_U0
0
MTEXT
5
146
100
AcDbEntity
8
2
62
256
6
ByLayer
370
18
48
1
60
0
100
AcDbMText
10
8.724734
20
-63.309669
30
0
210
0
220
0
230
1
1
\W0.6217;103
40
3.5
41
0
44
1.084337
50
0
71
7
72
5
7
iso_b_vert
0
LINE
5
147
100
AcDbEntity
8
2
62
256
6
ByLayer
370
13
48
1
60
0
100
AcDbLine
10
-40
20
-6.5875
30
0
11
-40
21
-66.342303
31
0
39
0
210
0
220
0
230
1
0
LINE
5
148
100
AcDbEntity
8
2
62
256
6
ByLayer
370
13
48
1
60
0
100
AcDbLine
10
63
20
-6.4375
30
0
11
63
21
-66.342303
31
0
39
0
210
0
220
0
230
1
0
LINE
5
149
100
AcDbEntity
8
2
62
256
6
ByLayer
370
13
48
1
60
0
100
AcDbLine
10
-40
20
-64.342303
30
0
11
63
21
-64.342303
31
0
39
0
210
0
220
0
230
1
0
SOLID
5
14A
100
AcDbEntity
8
2
62
256
6
ByLayer
370
18
48
1
60
0
100
AcDbTrace
10
-40
20
-64.342303
30
0
11
-36.500002
21
-63.881519
31
0
12
-36.499998
22
-64.803087
32
0
13
-36.499998
23
-64.803087
33
0
39
0
210
0
220
0
230
1
0
SOLID
5
14B
100
AcDbEntity
8
2
62
256
6
ByLayer
370
18
48
1
60
0
100
AcDbTrace
10
63
20
-64.342303
30
0
11
59.500002
21
-64.803087
31
0
12
59.499998
22
-63.881519
32
0
13
59.499998
23
-63.881519
33
0
39
0
210
0
220
0
230
1
0
ENDBLK
5
14D
100
AcDbEntity
8
0
100
AcDbBlockEnd
0
BLOCK
5
152
100
AcDbEntity
8
0
100
AcDbBlockBegin
2
*D3
70
1
10
0
20
0
30
0
3
*D3
0
LINE
5
154
100
AcDbEntity
8
0
62
256
6
ByLayer
370
-2
48
1
60
0
100
AcDbLine
10
63
20
-6.4375
30
0
11
63
21
-46.342303
31
0
39
0
210
0
220
0
230
1
0
LINE
5
155
100
AcDbEntity
8
0
62
256
6
ByLayer
370
-2
48
1
60
0
100
AcDbLine
10
2
20
-6.4375
30
0
11
2
21
-46.342303
31
0
39
0
210
0
220
0
230
1
0
LINE
5
156
100
AcDbEntity
8
0
62
256
6
ByLayer
370
-2
48
1
60
0
100
AcDbLine
10
59.5
20
-44.342303
30
0
11
5.5
21
-44.342303
31
0
39
0
210
0
220
0
230
1
0
SOLID
5
157
100
AcDbEntity
8
0
62
256
6
ByLayer
370
-1
48
1
60
0
100
AcDbTrace
10
59.5
20
-44.925636
30
0
11
59.5
21
-43.758969
31
0
12
63
22
-44.342303
32
0
13
63
23
-44.342303
33
0
39
0
210
0
220
0
230
1
0
SOLID
5
158
100
AcDbEntity
8
0
62
256
6
ByLayer
370
-1
48
1
60
0
100
AcDbTrace
10
5.5
20
-43.758969
30
0
11
5.5
21
-44.925636
31
0
12
2
22
-44.342303
32
0
13
2
23
-44.342303
33
0
39
0
210
0
220
0
230
1
0
MTEXT
5
159
100
AcDbEntity
8
0
62
256
6
ByLayer
370
18
48
1
60
0
100
AcDbMText
10
32.5
20
-37.342303
30
0
210
0
220
0
230
1
1
\A1;61
40
3.5
41
0
44
1
50
0
71
5
72
5
7
iso_b_vert
0
POINT
5
15A
100
AcDbEntity
8
Defpoints
62
0
6
ByLayer
370
-1
48
1
60
0
100
AcDbPoint
10
63
20
-4.85
30
0
39
0
210
0
220
0
230
1
50
360
0
POINT
5
15B
100
AcDbEntity
8
Defpoints
62
0
6
ByLayer
370
-1
48
1
60
0
100
AcDbPoint
10
2
20
-4.85
30
0
39
0
210
0
220
0
230
1
50
360
0
POINT
5
15C
100
AcDbEntity
8
Defpoints
62
0
6
ByLayer
370
-1
48
1
60
0
100
AcDbPoint
10
2
20
-44.342303
30
0
39
0
210
0
220
0
230
1
50
360
0
ENDBLK
5
153
100
AcDbEntity
8
0
100
AcDbBlockEnd
0
BLOCK
5
164
100
AcDbEntity
8
0
100
AcDbBlockBegin
2
_U1
70
0
10
0
20
0
30
0
3
_U1
0
MTEXT
5
15E
100
AcDbEntity
8
SK2
62
256
6
ByLayer
370
18
48
1
60
0
100
AcDbMText
10
31.032467
20
-43.309669
30
0
210
0
220
0
230
1
1
\W0.6351;61
40
3.5
41
0
44
1.084337
50
0
71
7
72
5
7
iso_b_vert
0
LINE
5
15F
100
AcDbEntity
8
SK2
62
256
6
ByLayer
370
13
48
1
60
0
100
AcDbLine
10
63
20
-6.4375
30
0
11
63
21
-46.342303
31
0
39
0
210
0
220
0
230
1
0
LINE
5
160
100
AcDbEntity
8
SK2
62
256
6
ByLayer
370
13
48
1
60
0
100
AcDbLine
10
2
20
-6.4375
30
0
11
2
21
-46.342303
31
0
39
0
210
0
220
0
230
1
0
LINE
5
161
100
AcDbEntity
8
SK2
62
256
6
ByLayer
370
13
48
1
60
0
100
AcDbLine
10
63
20
-44.342303
30
0
11
2
21
-44.342303
31
0
39
0
210
0
220
0
230
1
0
SOLID
5
162
100
AcDbEntity
8
SK2
62
256
6
ByLayer
370
18
48
1
60
0
100
AcDbTrace
10
63
20
-44.342303
30
0
11
59.500002
21
-44.803087
31
0
12
59.499998
22
-43.881519
32
0
13
59.499998
23
-43.881519
33
0
39
0
210
0
220
0
230
1
0
SOLID
5
163
100
AcDbEntity
8
SK2
62
256
6
ByLayer
370
18
48
1
60
0
100
AcDbTrace
10
2
20
-44.342303
30
0
11
5.499998
21
-43.881519
31
0
12
5.500002
22
-44.803087
32
0
13
5.500002
23
-44.803087
33
0
39
0
210
0
220
0
230
1
0
ENDBLK
5
165
100
AcDbEntity
8
0
100
AcDbBlockEnd
0
BLOCK
5
16A
100
AcDbEntity
8
0
100
AcDbBlockBegin
2
*D5
70
1
10
0
20
0
30
0
3
*D5
0
LINE
5
16C
100
AcDbEntity
8
0
62
256
6
ByLayer
370
-2
48
1
60
0
100
AcDbLine
10
63
20
-6.4375
30
0
11
63
21
-36.342303
31
0
39
0
210
0
220
0
230
1
0
LINE
5
16D
100
AcDbEntity
8
0
62
256
6
ByLayer
370
-2
48
1
60
0
100
AcDbLine
10
14
20
-6.4375
30
0
11
14
21
-36.342303
31
0
39
0
210
0
220
0
230
1
0
LINE
5
16E
100
AcDbEntity
8
0
62
256
6
ByLayer
370
-2
48
1
60
0
100
AcDbLine
10
59.5
20
-34.342303
30
0
11
17.5
21
-34.342303
31
0
39
0
210
0
220
0
230
1
0
SOLID
5
16F
100
AcDbEntity
8
0
62
256
6
ByLayer
370
-1
48
1
60
0
100
AcDbTrace
10
59.5
20
-34.925636
30
0
11
59.5
21
-33.758969
31
0
12
63
22
-34.342303
32
0
13
63
23
-34.342303
33
0
39
0
210
0
220
0
230
1
0
SOLID
5
170
100
AcDbEntity
8
0
62
256
6
ByLayer
370
-1
48
1
60
0
100
AcDbTrace
10
17.5
20
-33.758969
30
0
11
17.5
21
-34.925636
31
0
12
14
22
-34.342303
32
0
13
14
23
-34.342303
33
0
39
0
210
0
220
0
230
1
0
MTEXT
5
171
100
AcDbEntity
8
0
62
256
6
ByLayer
370
18
48
1
60
0
100
AcDbMText
10
38.5
20
-27.342303
30
0
210
0
220
0
230
1
1
\A1;49
40
3.5
41
0
44
1
50
0
71
5
72
5
7
iso_b_vert
0
POINT
5
172
100
AcDbEntity
8
Defpoints
62
0
6
ByLayer
370
-1
48
1
60
0
100
AcDbPoint
10
63
20
-4.85
30
0
39
0
210
0
220
0
230
1
50
360
0
POINT
5
173
100
AcDbEntity
8
Defpoints
62
0
6
ByLayer
370
-1
48
1
60
0
100
AcDbPoint
10
14
20
-4.85
30
0
39
0
210
0
220
0
230
1
50
360
0
POINT
5
174
100
AcDbEntity
8
Defpoints
62
0
6
ByLayer
370
-1
48
1
60
0
100
AcDbPoint
10
14
20
-34.342303
30
0
39
0
210
0
220
0
230
1
50
360
0
ENDBLK
5
16B
100
AcDbEntity
8
0
100
AcDbBlockEnd
0
BLOCK
5
17E
100
AcDbEntity
8
0
100
AcDbBlockBegin
2
_U2
70
0
10
0
20
0
30
0
3
_U2
0
MTEXT
5
176
100
AcDbEntity
8
SK2
62
256
6
ByLayer
370
18
48
1
60
0
100
AcDbMText
10
36.410767
20
-33.309669
30
0
210
0
220
0
230
1
1
\W0.7565;49
40
3.5
41
0
44
1.084337
50
0
71
7
72
5
7
iso_b_vert
0
MTEXT
5
177
100
AcDbEntity
8
SK2
62
256
6
ByLayer
370
18
48
1
60
0
100
AcDbMText
10
32.542768
20
-33.309669
30
0
210
0
220
0
230
1
1
\W0.1790;(
40
3.5
41
0
44
1.084337
50
0
71
7
72
5
7
iso_b_vert
0
MTEXT
5
178
100
AcDbEntity
8
SK2
62
256
6
ByLayer
370
18
48
1
60
0
100
AcDbMText
10
44.460233
20
-33.309669
30
0
210
0
220
0
230
1
1
\W0.1969;)
40
3.5
41
0
44
1.084337
50
0
71
7
72
5
7
iso_b_vert
0
LINE
5
179
100
AcDbEntity
8
SK2
62
256
6
ByLayer
370
13
48
1
60
0
100
AcDbLine
10
63
20
-6.4375
30
0
11
63
21
-36.342303
31
0
39
0
210
0
220
0
230
1
0
LINE
5
17A
100
AcDbEntity
8
SK2
62
256
6
ByLayer
370
13
48
1
60
0
100
AcDbLine
10
14
20
-6.4375
30
0
11
14
21
-36.342303
31
0
39
0
210
0
220
0
230
1
0
LINE
5
17B
100
AcDbEntity
8
SK2
62
256
6
ByLayer
370
13
48
1
60
0
100
AcDbLine
10
63
20
-34.342303
30
0
11
14
21
-34.342303
31
0
39
0
210
0
220
0
230
1
0
SOLID
5
17C
100
AcDbEntity
8
SK2
62
256
6
ByLayer
370
18
48
1
60
0
100
AcDbTrace
10
63
20
-34.342303
30
0
11
59.500002
21
-34.803087
31
0
12
59.499998
22
-33.881519
32
0
13
59.499998
23
-33.881519
33
0
39
0
210
0
220
0
230
1
0
SOLID
5
17D
100
AcDbEntity
8
SK2
62
256
6
ByLayer
370
18
48
1
60
0
100
AcDbTrace
10
14
20
-34.342303
30
0
11
17.499998
21
-33.881519
31
0
12
17.500002
22
-34.803087
32
0
13
17.500002
23
-34.803087
33
0
39
0
210
0
220
0
230
1
0
ENDBLK
5
17F
100
AcDbEntity
8
0
100
AcDbBlockEnd
0
BLOCK
5
184
100
AcDbEntity
8
0
100
AcDbBlockBegin
2
*D7
70
1
10
0
20
0
30
0
3
*D7
0
LINE
5
186
100
AcDbEntity
8
0
62
256
6
ByLayer
370
-2
48
1
60
0
100
AcDbLine
10
-40
20
-6.5875
30
0
11
-40
21
-46.342303
31
0
39
0
210
0
220
0
230
1
0
LINE
5
187
100
AcDbEntity
8
0
62
256
6
ByLayer
370
-2
48
1
60
0
100
AcDbLine
10
0
20
-6.5875
30
0
11
0
21
-46.342303
31
0
39
0
210
0
220
0
230
1
0
LINE
5
188
100
AcDbEntity
8
0
62
256
6
ByLayer
370
-2
48
1
60
0
100
AcDbLine
10
-36.5
20
-44.342303
30
0
11
-3.5
21
-44.342303
31
0
39
0
210
0
220
0
230
1
0
SOLID
5
189
100
AcDbEntity
8
0
62
256
6
ByLayer
370
-1
48
1
60
0
100
AcDbTrace
10
-36.5
20
-43.758969
30
0
11
-36.5
21
-44.925636
31
0
12
-40
22
-44.342303
32
0
13
-40
23
-44.342303
33
0
39
0
210
0
220
0
230
1
0
SOLID
5
18A
100
AcDbEntity
8
0
62
256
6
ByLayer
370
-1
48
1
60
0
100
AcDbTrace
10
-3.5
20
-44.925636
30
0
11
-3.5
21
-43.758969
31
0
12
0
22
-44.342303
32
0
13
0
23
-44.342303
33
0
39
0
210
0
220
0
230
1
0
MTEXT
5
18B
100
AcDbEntity
8
0
62
256
6
ByLayer
370
18
48
1
60
0
100
AcDbMText
10
-20
20
-37.342303
30
0
210
0
220
0
230
1
1
\A1;40
40
3.5
41
0
44
1
50
0
71
5
72
5
7
iso_b_vert
0
POINT
5
18C
100
AcDbEntity
8
Defpoints
62
0
6
ByLayer
370
-1
48
1
60
0
100
AcDbPoint
10
-40
20
-5
30
0
39
0
210
0
220
0
230
1
50
360
0
POINT
5
18D
100
AcDbEntity
8
Defpoints
62
0
6
ByLayer
370
-1
48
1
60
0
100
AcDbPoint
10
0
20
-5
30
0
39
0
210
0
220
0
230
1
50
360
0
POINT
5
18E
100
AcDbEntity
8
Defpoints
62
0
6
ByLayer
370
-1
48
1
60
0
100
AcDbPoint
10
0
20
-44.342303
30
0
39
0
210
0
220
0
230
1
50
360
0
ENDBLK
5
185
100
AcDbEntity
8
0
100
AcDbBlockEnd
0
BLOCK
5
196
100
AcDbEntity
8
0
100
AcDbBlockBegin
2
_U3
70
0
10
0
20
0
30
0
3
_U3
0
MTEXT
5
190
100
AcDbEntity
8
SK2
62
256
6
ByLayer
370
18
48
1
60
0
100
AcDbMText
10
-22.089233
20
-43.309669
30
0
210
0
220
0
230
1
1
\W0.7361;40
40
3.5
41
0
44
1.084337
50
0
71
7
72
5
7
iso_b_vert
0
LINE
5
191
100
AcDbEntity
8
SK2
62
256
6
ByLayer
370
13
48
1
60
0
100
AcDbLine
10
-40
20
-6.5875
30
0
11
-40
21
-46.342303
31
0
39
0
210
0
220
0
230
1
0
LINE
5
192
100
AcDbEntity
8
SK2
62
256
6
ByLayer
370
13
48
1
60
0
100
AcDbLine
10
0
20
-6.5875
30
0
11
0
21
-46.342303
31
0
39
0
210
0
220
0
230
1
0
LINE
5
193
100
AcDbEntity
8
SK2
62
256
6
ByLayer
370
13
48
1
60
0
100
AcDbLine
10
-40
20
-44.342303
30
0
11
0
21
-44.342303
31
0
39
0
210
0
220
0
230
1
0
SOLID
5
194
100
AcDbEntity
8
SK2
62
256
6
ByLayer
370
18
48
1
60
0
100
AcDbTrace
10
-40
20
-44.342303
30
0
11
-36.500002
21
-43.881519
31
0
12
-36.499998
22
-44.803087
32
0
13
-36.499998
23
-44.803087
33
0
39
0
210
0
220
0
230
1
0
SOLID
5
195
100
AcDbEntity
8
SK2
62
256
6
ByLayer
370
18
48
1
60
0
100
AcDbTrace
10
0
20
-44.342303
30
0
11
-3.499998
21
-44.803087
31
0
12
-3.500002
22
-43.881519
32
0
13
-3.500002
23
-43.881519
33
0
39
0
210
0
220
0
230
1
0
ENDBLK
5
197
100
AcDbEntity
8
0
100
AcDbBlockEnd
0
BLOCK
5
19C
100
AcDbEntity
8
0
100
AcDbBlockBegin
2
*D9
70
1
10
0
20
0
30
0
3
*D9
0
LINE
5
19E
100
AcDbEntity
8
0
62
256
6
ByLayer
370
-2
48
1
60
0
100
AcDbLine
10
0
20
-6.5875
30
0
11
0
21
-56.342303
31
0
39
0
210
0
220
0
230
1
0
LINE
5
19F
100
AcDbEntity
8
0
62
256
6
ByLayer
370
-2
48
1
60
0
100
AcDbLine
10
63
20
-6.4375
30
0
11
63
21
-56.342303
31
0
39
0
210
0
220
0
230
1
0
LINE
5
1A0
100
AcDbEntity
8
0
62
256
6
ByLayer
370
-2
48
1
60
0
100
AcDbLine
10
3.5
20
-54.342303
30
0
11
59.5
21
-54.342303
31
0
39
0
210
0
220
0
230
1
0
SOLID
5
1A1
100
AcDbEntity
8
0
62
256
6
ByLayer
370
-1
48
1
60
0
100
AcDbTrace
10
3.5
20
-53.758969
30
0
11
3.5
21
-54.925636
31
0
12
0
22
-54.342303
32
0
13
0
23
-54.342303
33
0
39
0
210
0
220
0
230
1
0
SOLID
5
1A2
100
AcDbEntity
8
0
62
256
6
ByLayer
370
-1
48
1
60
0
100
AcDbTrace
10
59.5
20
-54.925636
30
0
11
59.5
21
-53.758969
31
0
12
63
22
-54.342303
32
0
13
63
23
-54.342303
33
0
39
0
210
0
220
0
230
1
0
MTEXT
5
1A3
100
AcDbEntity
8
0
62
256
6
ByLayer
370
18
48
1
60
0
100
AcDbMText
10
31.5
20
-47.342303
30
0
210
0
220
0
230
1
1
\A1;63
40
3.5
41
0
44
1
50
0
71
5
72
5
7
iso_b_vert
0
POINT
5
1A4
100
AcDbEntity
8
Defpoints
62
0
6
ByLayer
370
-1
48
1
60
0
100
AcDbPoint
10
0
20
-5
30
0
39
0
210
0
220
0
230
1
50
360
0
POINT
5
1A5
100
AcDbEntity
8
Defpoints
62
0
6
ByLayer
370
-1
48
1
60
0
100
AcDbPoint
10
63
20
-4.85
30
0
39
0
210
0
220
0
230
1
50
360
0
POINT
5
1A6
100
AcDbEntity
8
Defpoints
62
0
6
ByLayer
370
-1
48
1
60
0
100
AcDbPoint
10
63
20
-54.342303
30
0
39
0
210
0
220
0
230
1
50
360
0
ENDBLK
5
19D
100
AcDbEntity
8
0
100
AcDbBlockEnd
0
BLOCK
5
1AE
100
AcDbEntity
8
0
100
AcDbBlockBegin
2
_U4
70
0
10
0
20
0
30
0
3
_U4
0
MTEXT
5
1A8
100
AcDbEntity
8
SK2
62
256
6
ByLayer
370
18
48
1
60
0
100
AcDbMText
10
29.595034
20
-53.309669
30
0
210
0
220
0
230
1
1
\W0.6740;63
40
3.5
41
0
44
1.084337
50
0
71
7
72
5
7
iso_b_vert
0
LINE
5
1A9
100
AcDbEntity
8
SK2
62
256
6
ByLayer
370
13
48
1
60
0
100
AcDbLine
10
0
20
-6.5875
30
0
11
0
21
-56.342303
31
0
39
0
210
0
220
0
230
1
0
LINE
5
1AA
100
AcDbEntity
8
SK2
62
256
6
ByLayer
370
13
48
1
60
0
100
AcDbLine
10
63
20
-6.4375
30
0
11
63
21
-56.342303
31
0
39
0
210
0
220
0
230
1
0
LINE
5
1AB
100
AcDbEntity
8
SK2
62
256
6
ByLayer
370
13
48
1
60
0
100
AcDbLine
10
0
20
-54.342303
30
0
11
63
21
-54.342303
31
0
39
0
210
0
220
0
230
1
0
SOLID
5
1AC
100
AcDbEntity
8
SK2
62
256
6
ByLayer
370
18
48
1
60
0
100
AcDbTrace
10
0
20
-54.342303
30
0
11
3.499998
21
-53.881519
31
0
12
3.500002
22
-54.803087
32
0
13
3.500002
23
-54.803087
33
0
39
0
210
0
220
0
230
1
0
SOLID
5
1AD
100
AcDbEntity
8
SK2
62
256
6
ByLayer
370
18
48
1
60
0
100
AcDbTrace
10
63
20
-54.342303
30
0
11
59.500002
21
-54.803087
31
0
12
59.499998
22
-53.881519
32
0
13
59.499998
23
-53.881519
33
0
39
0
210
0
220
0
230
1
0
ENDBLK
5
1AF
100
AcDbEntity
8
0
100
AcDbBlockEnd
0
ENDSEC
0
SECTION
2
ENTITIES
0
ARC
5
BE
100
AcDbEntity
8
1
62
256
6
ByLayer
370
18
48
1
60
0
100
AcDbCircle
39
0
10
0.339384
20
5.011939
30
0
40
0.200000000000007
210
0
220
0
230
1
100
AcDbArc
50
213.416132
51
270.03581
0
ARC
5
BF
100
AcDbEntity
8
1
62
256
6
ByLayer
370
18
48
1
60
0
100
AcDbCircle
39
0
10
0.339384
20
-5.011939
30
0
40
0.200000000000007
210
0
220
0
230
1
100
AcDbArc
50
89.96419
51
146.583868
0
ARC
5
C0
100
AcDbEntity
8
1
62
256
6
ByLayer
370
18
48
1
60
0
100
AcDbCircle
39
0
10
0
20
4.8
30
0
40
0.200000000000008
210
0
220
0
230
1
100
AcDbArc
50
33.416132
51
90
0
ARC
5
C1
100
AcDbEntity
8
1
62
256
6
ByLayer
370
18
48
1
60
0
100
AcDbCircle
39
0
10
0
20
-4.8
30
0
40
0.200000000000008
210
0
220
0
230
1
100
AcDbArc
50
270
51
326.583868
0
ARC
5
C2
100
AcDbEntity
8
SK2
62
256
6
ByLayer
370
13
48
1
60
0
100
AcDbCircle
39
0
10
63
20
0
30
0
40
33.0978515215051
210
0
220
0
230
1
100
AcDbArc
50
5.635164
51
70.002667
0
ARC
5
C3
100
AcDbEntity
8
SK2
62
256
6
ByLayer
370
13
48
1
60
0
100
AcDbCircle
39
0
10
63
20
0
30
0
40
33.0978515215051
210
0
220
0
230
1
100
AcDbArc
50
289.997333
51
354.364836
0
ELLIPSE
5
C4
100
AcDbEntity
8
1
62
256
6
ByLayer
370
13
48
1
60
0
100
AcDbEllipse
10
3.678548
20
-4.058332
30
0
11
0.0198482277340131
21
-0.0980104476870642
31
0
210
0
220
0
230
1
40
0.582716
41
-2.56877601232963
42
-1.24176196812269
0
ELLIPSE
5
C5
100
AcDbEntity
8
1
62
256
6
ByLayer
370
13
48
1
60
0
100
AcDbEllipse
10
3.750204
20
-4.061725
30
0
11
-0.0258598597521939
21
-0.0965984868080079
31
0
210
0
220
0
230
1
40
0.412391
41
-2.56868202804093
42
-1.01388676448219
0
POINT
5
70
100
AcDbEntity
8
80
62
256
6
ByLayer
370
18
48
1
60
0
100
AcDbPoint
10
0
20
0
30
0
39
0
210
0
220
0
230
1
50
360
0
POINT
5
72
100
AcDbEntity
8
81
62
256
6
ByLayer
370
18
48
1
60
0
100
AcDbPoint
10
63
20
0
30
0
39
0
210
0
220
0
230
1
50
360
0
POINT
5
74
100
AcDbEntity
8
1
62
256
6
ByLayer
370
18
48
1
60
0
100
AcDbPoint
10
-206.626074
20
-200
30
0
39
0
210
0
220
0
230
1
50
360
0
POINT
5
76
100
AcDbEntity
8
1
62
256
6
ByLayer
370
13
48
1
60
1
100
AcDbPoint
10
-41.5
20
0
30
0
39
0
210
0
220
0
230
1
50
360
0
POINT
5
77
100
AcDbEntity
8
1
62
256
6
ByLayer
370
13
48
1
60
1
100
AcDbPoint
10
62.790042
20
0
30
0
39
0
210
0
220
0
230
1
50
360
0
POINT
5
78
100
AcDbEntity
8
1
62
256
6
ByLayer
370
18
48
1
60
1
100
AcDbPoint
10
-40
20
-5
30
0
39
0
210
0
220
0
230
1
50
360
0
POINT
5
79
100
AcDbEntity
8
1
62
256
6
ByLayer
370
18
48
1
60
1
100
AcDbPoint
10
63
20
-4.85
30
0
39
0
210
0
220
0
230
1
50
360
0
POINT
5
7A
100
AcDbEntity
8
1
62
256
6
ByLayer
370
18
48
1
60
1
100
AcDbPoint
10
63
20
-4.85
30
0
39
0
210
0
220
0
230
1
50
360
0
POINT
5
7B
100
AcDbEntity
8
1
62
256
6
ByLayer
370
18
48
1
60
1
100
AcDbPoint
10
2
20
-4.85
30
0
39
0
210
0
220
0
230
1
50
360
0
POINT
5
7C
100
AcDbEntity
8
1
62
256
6
ByLayer
370
18
48
1
60
1
100
AcDbPoint
10
63
20
-4.85
30
0
39
0
210
0
220
0
230
1
50
360
0
POINT
5
7D
100
AcDbEntity
8
1
62
256
6
ByLayer
370
18
48
1
60
1
100
AcDbPoint
10
14
20
-4.85
30
0
39
0
210
0
220
0
230
1
50
360
0
POINT
5
7E
100
AcDbEntity
8
1
62
256
6
ByLayer
370
18
48
1
60
1
100
AcDbPoint
10
-40
20
-5
30
0
39
0
210
0
220
0
230
1
50
360
0
POINT
5
7F
100
AcDbEntity
8
1
62
256
6
ByLayer
370
18
48
1
60
1
100
AcDbPoint
10
0
20
-5
30
0
39
0
210
0
220
0
230
1
50
360
0
POINT
5
80
100
AcDbEntity
8
1
62
256
6
ByLayer
370
18
48
1
60
1
100
AcDbPoint
10
0
20
-5
30
0
39
0
210
0
220
0
230
1
50
360
0
POINT
5
81
100
AcDbEntity
8
1
62
256
6
ByLayer
370
18
48
1
60
1
100
AcDbPoint
10
63
20
-4.85
30
0
39
0
210
0
220
0
230
1
50
360
0
SPLINE
5
C6
100
AcDbEntity
8
1
62
256
6
ByLayer
370
18
48
1
60
0
100
AcDbSpline
70
4
71
3
72
8
73
4
40
0
40
0
40
0
40
0
40
1
40
1
40
1
40
1
41
1
10
62.5524697834011
20
1.55775880129701
30
0
41
1
10
62.7044095087942
20
1.12928999112032
30
0
41
1
10
62.8521176772962
20
0.699300184013026
30
0
41
1
10
62.9955274949362
20
0.267765371453663
30
0
0
SPLINE
5
C7
100
AcDbEntity
8
1
62
256
6
ByLayer
370
13
48
1
60
0
100
AcDbSpline
70
4
71
3
72
17
73
13
40
0
40
0
40
0
40
0
40
0.250000000000006
40
0.250000000000006
40
0.375000000000009
40
0.375000000000009
40
0.500000000000012
40
0.625000000000015
40
0.625000000000015
40
0.750000000000017
40
0.750000000000017
40
1
40
1
40
1
40
1
41
1
10
3.63091267143813
20
-4.10094782720196
30
0
41
1
10
3.61070434245301
20
-4.10128190937351
30
0
41
1
10
3.59287419720184
20
-4.10167263961762
30
0
41
1
10
3.5691907216266
20
-4.10230633715543
30
0
41
1
10
3.56177070428882
20
-4.10252737221114
30
0
41
1
10
3.54830864166794
20
-4.10296977644666
30
0
41
1
10
3.53615297530303
20
-4.10341377259283
30
0
41
1
10
3.52641968135066
20
-4.10385361761405
30
0
41
1
10
3.51786624471362
20
-4.10428845780535
30
0
41
1
10
3.51416665393992
20
-4.10450432769505
30
0
41
1
10
3.50497715766727
20
-4.10513340316166
30
0
41
1
10
3.50137947564261
20
-4.10552737216665
30
0
41
1
10
3.50032595171899
20
-4.1058847165188
30
0
0
SPLINE
5
C8
100
AcDbEntity
8
1
62
256
6
ByLayer
370
18
48
1
60
0
100
AcDbSpline
70
4
71
3
72
22
73
18
40
0
40
0
40
0
40
0
40
0.499999999999944
40
0.749999999999936
40
0.874999999999949
40
0.874999999999949
40
0.937499999999933
40
0.937499999999933
40
0.968749999999927
40
0.968749999999927
40
0.984374999999945
40
0.984374999999945
40
0.992187499999951
40
0.992187499999951
40
0.996093749999976
40
0.996093749999976
40
1
40
1
40
1
40
1
41
1
10
61.2365087824078
20
4.84995513890345
30
0
41
1
10
61.2541077069055
20
4.80990696351731
30
0
41
1
10
61.2810215825749
20
4.74984353434488
30
0
41
1
10
61.3133175836927
20
4.67975400501908
30
0
41
1
10
61.327350168557
20
4.6497091361712
30
0
41
1
10
61.3343983009351
20
4.63468539997063
30
0
41
1
10
61.336754889464
20
4.62966968124644
30
0
41
1
10
61.3402911819161
20
4.62217181908514
30
0
41
1
10
61.3414636661204
20
4.61970278739474
30
0
41
1
10
61.3432300061579
20
4.61597683997431
30
0
41
1
10
61.3438221802002
20
4.61472272089358
30
0
41
1
10
61.3447215685433
20
4.61279786674368
30
0
41
1
10
61.3450238382895
20
4.61214616667621
30
0
41
1
10
61.3454775895721
20
4.61116757572015
30
0
41
1
10
61.345629174413
20
4.61084008018091
30
0
41
1
10
61.3459226829982
20
4.61022509930609
30
0
41
1
10
61.3460758967735
20
4.60991547863762
30
0
41
1
10
61.3461372711456
20
4.60987434068767
30
0
0
SPLINE
5
C9
100
AcDbEntity
8
1
62
256
6
ByLayer
370
18
48
1
60
0
100
AcDbSpline
70
2053
71
3
72
114
73
110
40
0
40
0
40
0
40
0
40
0.0312500000000005
40
0.0312500000000005
40
0.062500000000001
40
0.062500000000001
40
0.0937500000000015
40
0.0937500000000015
40
0.125000000000002
40
0.125000000000002
40
0.156250000000003
40
0.156250000000003
40
0.187500000000003
40
0.187500000000003
40
0.195312500000004
40
0.195312500000004
40
0.203125000000004
40
0.218750000000007
40
0.218750000000007
40
0.250000000000013
40
0.250000000000013
40
0.265625000000016
40
0.265625000000016
40
0.281250000000019
40
0.296875000000022
40
0.296875000000022
40
0.304687500000024
40
0.304687500000024
40
0.312500000000025
40
0.312500000000025
40
0.343750000000032
40
0.343750000000032
40
0.351562500000033
40
0.351562500000033
40
0.359375000000034
40
0.359375000000034
40
0.375000000000038
40
0.390625000000041
40
0.390625000000041
40
0.406250000000044
40
0.406250000000044
40
0.43750000000005
40
0.43750000000005
40
0.44531250000005
40
0.44531250000005
40
0.453125000000051
40
0.468750000000053
40
0.484375000000054
40
0.484375000000054
40
0.492187500000055
40
0.492187500000055
40
0.500000000000055
40
0.500000000000055
40
0.531250000000066
40
0.531250000000066
40
0.546875000000069
40
0.546875000000069
40
0.562500000000073
40
0.562500000000073
40
0.593750000000075
40
0.593750000000075
40
0.609375000000077
40
0.609375000000077
40
0.625000000000078
40
0.625000000000078
40
0.656250000000081
40
0.656250000000081
40
0.671875000000081
40
0.671875000000081
40
0.687500000000081
40
0.687500000000081
40
0.71875000000008
40
0.71875000000008
40
0.726562500000079
40
0.726562500000079
40
0.734375000000079
40
0.734375000000079
40
0.750000000000078
40
0.765625000000077
40
0.765625000000077
40
0.773437500000077
40
0.773437500000077
40
0.781250000000077
40
0.781250000000077
40
0.812500000000075
40
0.812500000000075
40
0.820312500000074
40
0.820312500000074
40
0.828125000000072
40
0.828125000000072
40
0.843750000000069
40
0.859375000000067
40
0.859375000000067
40
0.867187500000064
40
0.867187500000064
40
0.875000000000061
40
0.875000000000061
40
0.906250000000044
40
0.906250000000044
40
0.937500000000027
40
0.937500000000027
40
0.95312500000002
40
0.95312500000002
40
0.968750000000013
40
0.984375000000007
40
0.984375000000007
40
0.992187500000003
40
0.992187500000003
40
1
40
1
40
1
40
1
41
1
10
61.775248860559
20
-1.92069982234849
30
0
41
1
10
61.7583485889833
20
-1.94106319803115
30
0
41
1
10
61.7419979528987
20
-1.95776218809291
30
0
41
1
10
61.7101947517046
20
-1.98433403517114
30
0
41
1
10
61.6947434045657
20
-1.99420323247136
30
0
41
1
10
61.6645882163104
20
-2.00688036640327
30
0
41
1
10
61.6502835675067
20
-2.00951451585289
30
0
41
1
10
61.6230187802671
20
-2.00761227314558
30
0
41
1
10
61.6100491613186
20
-2.00308109328006
30
0
41
1
10
61.585297121815
20
-1.98642008824109
30
0
41
1
10
61.5738408961163
20
-1.97449923895326
30
0
41
1
10
61.5526437045692
20
-1.94365909703794
30
0
41
1
10
61.5428862508122
20
-1.92473383557055
30
0
41
1
10
61.5317420592713
20
-1.89630939811397
30
0
41
1
10
61.5295703718157
20
-1.89039163865561
30
0
41
1
10
61.5253797726523
20
-1.87819918481958
30
0
41
1
10
61.5193065852012
20
-1.85932964072828
30
0
41
1
10
61.5138598020476
20
-1.83873223130038
30
0
41
1
10
61.5038044210884
20
-1.79520406100752
30
0
41
1
10
61.4982041528667
20
-1.76310376618761
30
0
41
1
10
61.4916908553639
20
-1.70976173555991
30
0
41
1
10
61.489874919803
20
-1.6913986481101
30
0
41
1
10
61.486981648499
20
-1.65367755438837
30
0
41
1
10
61.4848206687687
20
-1.61490925130042
30
0
41
1
10
61.4842016001483
20
-1.57399993447314
30
0
41
1
10
61.4843716871092
20
-1.54246828146523
30
0
41
1
10
61.4845344138612
20
-1.5318157985142
30
0
41
1
10
61.4850855293741
20
-1.51021467278198
30
0
41
1
10
61.4854739559835
20
-1.49929893165199
30
0
41
1
10
61.487969584525
20
-1.44476381434942
30
0
41
1
10
61.4917283817641
20
-1.40071269705106
30
0
41
1
10
61.4988921471412
20
-1.34512742812515
30
0
41
1
10
61.5004495504085
20
-1.33398403055165
30
0
41
1
10
61.5038262467476
20
-1.3116435820138
30
0
41
1
10
61.5056516353711
20
-1.30041607569669
30
0
41
1
10
61.5114544797383
20
-1.26713683751601
30
0
41
1
10
61.520096542776
20
-1.22356655084582
30
0
41
1
10
61.5305615139932
20
-1.18156051310982
30
0
41
1
10
61.5419697014373
20
-1.14034177379077
30
0
41
1
10
61.5481879178355
20
-1.12001466867844
30
0
41
1
10
61.5678463263016
20
-1.06164624600356
30
0
41
1
10
61.5823540154321
20
-1.02583555956713
30
0
41
1
10
61.602179876326
20
-0.984660427764453
30
0
41
1
10
61.6062405827786
20
-0.976587819646426
30
0
41
1
10
61.6144526205825
20
-0.960952401794543
30
0
41
1
10
61.6269233386167
20
-0.938227685682136
30
0
41
1
10
61.6484400430229
20
-0.903821994465574
30
0
41
1
10
61.6663864689913
20
-0.879776260842419
30
0
41
1
10
61.680107732129
20
-0.863002226936231
30
0
41
1
10
61.6847303097886
20
-0.857616619990637
30
0
41
1
10
61.6939804097568
20
-0.847348259772104
30
0
41
1
10
61.6986172671518
20
-0.842453458028018
30
0
41
1
10
61.7218549188781
20
-0.819130209160591
30
0
41
1
10
61.7406158932704
20
-0.804121677017775
30
0
41
1
10
61.7689058855694
20
-0.786628065079015
30
0
41
1
10
61.7783950689641
20
-0.781627773883145
30
0
41
1
10
61.7971607239979
20
-0.773401050770104
30
0
41
1
10
61.8064516256541
20
-0.770158841183104
30
0
41
1
10
61.8340306972323
20
-0.762930957939574
30
0
41
1
10
61.8520283001001
20
-0.761423088305122
30
0
41
1
10
61.8783189770485
20
-0.764078752687197
30
0
41
1
10
61.8869958151088
20
-0.765801986307963
30
0
41
1
10
61.9038504520289
20
-0.770873451724441
30
0
41
1
10
61.9120446375054
20
-0.774216382320219
30
0
41
1
10
61.9359026315033
20
-0.786642355591454
30
0
41
1
10
61.9508486771323
20
-0.798099491593575
30
0
41
1
10
61.9716190628365
20
-0.820343049537229
30
0
41
1
10
61.978266208076
20
-0.828605928943972
30
0
41
1
10
61.9909486425194
20
-0.846958197011986
30
0
41
1
10
61.9969148069715
20
-0.856953703200531
30
0
41
1
10
62.0135401268645
20
-0.88928374532648
30
0
41
1
10
62.0229849070395
20
-0.913998693436042
30
0
41
1
10
62.0324434764242
20
-0.949348936192081
30
0
41
1
10
62.0342167977604
20
-0.956644107070986
30
0
41
1
10
62.0375144647458
20
-0.971707811433902
30
0
41
1
10
62.0390339294406
20
-0.97945899221142
30
0
41
1
10
62.0431580926078
20
-1.00317854460761
30
0
41
1
10
62.0475345497385
20
-1.0361949836819
30
0
41
1
10
62.0496037203671
20
-1.07209028952599
30
0
41
1
10
62.0502430110463
20
-1.10016574145476
30
0
41
1
10
62.0503037461013
20
-1.10971696901373
30
0
41
1
10
62.0501088777271
20
-1.12922316643122
30
0
41
1
10
62.0498527766724
20
-1.13913326610597
30
0
41
1
10
62.0477979039975
20
-1.18903615473744
30
0
41
1
10
62.0436941676103
20
-1.23048318290131
30
0
41
1
10
62.0355349471399
20
-1.28429472745722
30
0
41
1
10
62.0337503041276
20
-1.29515821285156
30
0
41
1
10
62.0298709447683
20
-1.31709445945711
30
0
41
1
10
62.0277859680226
20
-1.32810778333996
30
0
41
1
10
62.0211646911145
20
-1.36099849412349
30
0
41
1
10
62.0113209221878
20
-1.40468924904431
30
0
41
1
10
61.9995897314972
20
-1.44808268640352
30
0
41
1
10
61.9901119723465
20
-1.48052336130414
30
0
41
1
10
61.9868289860104
20
-1.49135074218421
30
0
41
1
10
61.980116527961
20
-1.51272615422693
30
0
41
1
10
61.9766821349989
20
-1.52329352849708
30
0
41
1
10
61.9591437257117
20
-1.57555324890163
30
0
41
1
10
61.9439537129879
20
-1.61554045394078
30
0
41
1
10
61.9116133927578
20
-1.69210290405633
30
0
41
1
10
61.8949846292297
20
-1.72744929177247
30
0
41
1
10
61.8695186844107
20
-1.77656418838652
30
0
41
1
10
61.8609327043978
20
-1.79229258166171
30
0
41
1
10
61.8436251279152
20
-1.82238621146652
30
0
41
1
10
61.8263847759852
20
-1.85076808485943
30
0
41
1
10
61.8092731724487
20
-1.87591683592905
30
0
41
1
10
61.7964831086447
20
-1.89359730157713
30
0
41
1
10
61.7922270018229
20
-1.89929355515213
30
0
41
1
10
61.7837281988347
20
-1.9102924206102
30
0
41
1
10
61.7794739284529
20
-1.91560897842783
30
0
41
1
10
61.775248860559
20
-1.92069982234849
30
0
0
SPLINE
5
CA
100
AcDbEntity
8
1
62
256
6
ByLayer
370
18
48
1
60
0
100
AcDbSpline
70
4
71
3
72
8
73
4
40
0
40
0
40
0
40
0
40
1
40
1
40
1
40
1
41
1
10
62.5524697834011
20
-1.55775880129701
30
0
41
1
10
62.7044095087965
20
-1.12928999111386
30
0
41
1
10
62.8521176773006
20
-0.699300184000094
30
0
41
1
10
62.9955274949427
20
-0.267765371434223
30
0
0
SPLINE
5
CB
100
AcDbEntity
8
1
62
256
6
ByLayer
370
18
48
1
60
0
100
AcDbSpline
70
4
71
3
72
8
73
4
40
0
40
0
40
0
40
0
40
1
40
1
40
1
40
1
41
1
10
62.9955274949362
20
0.267765371453663
30
0
41
1
10
63.0014978538053
20
0.0890450194274024
30
0
41
1
10
63.0014838327308
20
-0.0894647347846274
30
0
41
1
10
62.9955274949367
20
-0.267765371439879
30
0
0
SPLINE
5
CC
100
AcDbEntity
8
1
62
256
6
ByLayer
370
18
48
1
60
0
100
AcDbSpline
70
4
71
3
72
8
73
4
40
0
40
0
40
0
40
0
40
1
40
1
40
1
40
1
41
1
10
62.9955274949362
20
0.267765371453663
30
0
41
1
10
62.9745782031384
20
0.197939759304802
30
0
41
1
10
62.9535243848529
20
0.128146645691629
30
0
41
1
10
62.9323664296423
20
0.058385909494433
30
0
0
SPLINE
5
CD
100
AcDbEntity
8
1
62
256
6
ByLayer
370
18
48
1
60
0
100
AcDbSpline
70
4
71
3
72
51
73
47
40
0
40
0
40
0
40
0
40
0.0624999999999939
40
0.0624999999999939
40
0.124999999999988
40
0.124999999999988
40
0.156249999999981
40
0.156249999999981
40
0.187499999999973
40
0.187499999999973
40
0.249999999999959
40
0.249999999999959
40
0.312499999999945
40
0.312499999999945
40
0.343749999999938
40
0.343749999999938
40
0.374999999999931
40
0.374999999999931
40
0.437499999999917
40
0.437499999999917
40
0.468749999999915
40
0.468749999999915
40
0.484374999999914
40
0.484374999999914
40
0.499999999999913
40
0.562499999999939
40
0.562499999999939
40
0.593749999999952
40
0.593749999999952
40
0.624999999999965
40
0.624999999999965
40
0.687499999999983
40
0.687499999999983
40
0.718749999999987
40
0.718749999999987
40
0.749999999999992
40
0.749999999999992
40
0.812499999999994
40
0.812499999999994
40
0.874999999999996
40
0.874999999999996
40
0.906249999999997
40
0.906249999999997
40
0.937499999999998
40
0.937499999999998
40
1
40
1
40
1
40
1
41
1
10
62.9323664296423
20
0.058385909494433
30
0
41
1
10
62.9206278830924
20
0.0196822804783494
30
0
41
1
10
62.9080016110328
20
-0.0185741896050331
30
0
41
1
10
62.8809764309486
20
-0.0941797357123164
30
0
41
1
10
62.8665782787138
20
-0.131529230362673
30
0
41
1
10
62.8435992751766
20
-0.186834717997272
30
0
41
1
10
62.8357086764595
20
-0.205149754177626
30
0
41
1
10
62.8194471970232
20
-0.241528066584863
30
0
41
1
10
62.8110900728885
20
-0.259554160218585
30
0
41
1
10
62.7856953160284
20
-0.312373649939047
30
0
41
1
10
62.7682119576384
20
-0.346196101668511
30
0
41
1
10
62.7321637944202
20
-0.410973534355975
30
0
41
1
10
62.7135997320381
20
-0.441930397910483
30
0
41
1
10
62.684900937685
20
-0.486024663638631
30
0
41
1
10
62.6751431905336
20
-0.500396125781776
30
0
41
1
10
62.6556851314449
20
-0.527807036740057
30
0
41
1
10
62.645962456697
20
-0.540887335959923
30
0
41
1
10
62.6168136834879
20
-0.578274542903159
30
0
41
1
10
62.5974079819225
20
-0.600736872434396
30
0
41
1
10
62.5683202804666
20
-0.630660025451391
30
0
41
1
10
62.5586275776075
20
-0.640003786011789
30
0
41
1
10
62.5440881189871
20
-0.653042135028215
30
0
41
1
10
62.5392408087404
20
-0.657224758187823
30
0
41
1
10
62.5296404251061
20
-0.665181678465444
30
0
41
1
10
62.5058148165638
20
-0.684105619327909
30
0
41
1
10
62.4828293828637
20
-0.698314995218141
30
0
41
1
10
62.4559475640343
20
-0.711018256271643
30
0
41
1
10
62.4471040290506
20
-0.71452536904232
30
0
41
1
10
62.4296362390929
20
-0.720085228673042
30
0
41
1
10
62.4210234917723
20
-0.722127575308974
30
0
41
1
10
62.3958867576453
20
-0.726036959396083
30
0
41
1
10
62.3799197181796
20
-0.725746131460284
30
0
41
1
10
62.3569667588193
20
-0.721303158307933
30
0
41
1
10
62.3494827730857
20
-0.719151937593921
30
0
41
1
10
62.3348246608013
20
-0.713540553480755
30
0
41
1
10
62.327634027032
20
-0.710066911565434
30
0
41
1
10
62.3067594494275
20
-0.697885855899386
30
0
41
1
10
62.2936860747665
20
-0.687408502280817
30
0
41
1
10
62.2689260927569
20
-0.662259258876929
30
0
41
1
10
62.2572409213391
20
-0.647584380548267
30
0
41
1
10
62.2406020653502
20
-0.62266012240201
30
0
41
1
10
62.2352045338902
20
-0.613865429456723
30
0
41
1
10
62.2246876412955
20
-0.595329243677753
30
0
41
1
10
62.2195684438323
20
-0.585584661920279
30
0
41
1
10
62.2047065665968
20
-0.555189003057421
30
0
41
1
10
62.1954183178428
20
-0.533313748794114
30
0
41
1
10
62.1866671211054
20
-0.509953427863309
30
0
0
SPLINE
5
CE
100
AcDbEntity
8
1
62
256
6
ByLayer
370
18
48
1
60
0
100
AcDbSpline
70
4
71
3
72
9
73
5
40
0
40
0
40
0
40
0
40
0.5
40
1
40
1
40
1
40
1
41
1
10
62.1866671211054
20
-0.509953427863223
30
0
41
1
10
62.105704423758
20
-0.293832747434408
30
0
41
1
10
61.92285987396
20
0.152133264374839
30
0
41
1
10
61.6983740682522
20
0.62541929459428
30
0
41
1
10
61.5758907783851
20
0.868780828529026
30
0
0
SPLINE
5
CF
100
AcDbEntity
8
1
62
256
6
ByLayer
370
18
48
1
60
0
100
AcDbSpline
70
4
71
3
72
31
73
27
40
0
40
0
40
0
40
0
40
0.249999999999978
40
0.249999999999978
40
0.374999999999964
40
0.374999999999964
40
0.499999999999951
40
0.499999999999951
40
0.562499999999944
40
0.562499999999944
40
0.593749999999939
40
0.609374999999939
40
0.609374999999939
40
0.624999999999939
40
0.624999999999939
40
0.687499999999946
40
0.687499999999946
40
0.749999999999954
40
0.749999999999954
40
0.874999999999974
40
0.874999999999974
40
0.937499999999984
40
0.937499999999984
40
0.968749999999992
40
0.968749999999992
40
1
40
1
40
1
40
1
41
1
10
61.3461372710249
20
-4.60987434084717
30
0
41
1
10
61.4399483227016
20
-4.35251109708807
30
0
41
1
10
61.5327812705424
20
-4.09300624357854
30
0
41
1
10
61.6727422510376
20
-3.70184285897085
30
0
41
1
10
61.71952173676
20
-3.57112616416205
30
0
41
1
10
61.8134424774447
20
-3.30971933907514
30
0
41
1
10
61.8606148584997
20
-3.17895058591031
30
0
41
1
10
61.9318211591532
20
-2.98284742903877
30
0
41
1
10
61.9556248395712
20
-2.91750538552827
30
0
41
1
10
61.9914510953242
20
-2.81953759591789
30
0
41
1
10
62.0093938469023
20
-2.77056481056923
30
0
41
1
10
62.0273835941306
20
-2.72160962876188
30
0
41
1
10
62.0393875068626
20
-2.68897686475816
30
0
41
1
10
62.0453885747452
20
-2.67266015261967
30
0
41
1
10
62.0756027295942
20
-2.59115470005395
30
0
41
1
10
62.1003369102988
20
-2.52615550197405
30
0
41
1
10
62.151223512948
20
-2.39670836185579
30
0
41
1
10
62.1771400472024
20
-2.33284195752069
30
0
41
1
10
62.2565818902113
20
-2.14391027731026
30
0
41
1
10
62.3118198186884
20
-2.02153371179622
30
0
41
1
10
62.3988561541328
20
-1.84335294680838
30
0
41
1
10
62.4285523539163
20
-1.78483905745784
30
0
41
1
10
62.4742358605768
20
-1.69844952845713
30
0
41
1
10
62.4896540002826
20
-1.66988407225605
30
0
41
1
10
62.5208911872769
20
-1.61322889665996
30
0
41
1
10
62.5366258639864
20
-1.5852920310559
30
0
41
1
10
62.5524697834011
20
-1.55775880129704
30
0
0
SPLINE
5
D0
100
AcDbEntity
8
1
62
256
6
ByLayer
370
18
48
1
60
0
100
AcDbSpline
70
4
71
3
72
69
73
65
40
0
40
0
40
0
40
0
40
0.0114267783644863
40
0.0114267783644863
40
0.0463874940362481
40
0.0463874940362481
40
0.0638678518721288
40
0.0638678518721288
40
0.0813482097080097
40
0.0813482097080097
40
0.116308925379771
40
0.116308925379771
40
0.125049104297712
40
0.125049104297712
40
0.126141626662454
40
0.126687887844825
40
0.126961018436011
40
0.126961018436011
40
0.127234149027197
40
0.127234149027197
40
0.127780410209568
40
0.127780410209568
40
0.128326671391939
40
0.128326671391939
40
0.129419193756682
40
0.129419193756682
40
0.133789283215652
40
0.133789283215652
40
0.151269641051532
40
0.151269641051532
40
0.186230356723291
40
0.186230356723291
40
0.256151788066811
40
0.256151788066811
40
0.39599465075385
40
0.39599465075385
40
0.46591608209737
40
0.46591608209737
40
0.50087679776913
40
0.50087679776913
40
0.518357155605009
40
0.518357155605009
40
0.527097334522949
40
0.527097334522949
40
0.531467423981919
40
0.531467423981919
40
0.533652468711404
40
0.533652468711404
40
0.534744991076147
40
0.534744991076147
40
0.535018121667332
40
0.535018121667332
40
0.535291252258518
40
0.535291252258518
40
0.535427817554111
40
0.535427817554111
40
0.535564382849704
40
0.535564382849704
40
0.535837513440889
40
0.675680376127892
40
0.675680376127892
40
0.815523238814895
40
0.815523238814895
40
1
40
1
40
1
40
1
41
1
10
9.18097454445979
20
4.56905256279793
30
0
41
1
10
9.15896042285002
20
4.5206487771089
30
0
41
1
10
9.13648531084212
20
4.47126148850452
30
0
41
1
10
9.04093675703533
20
4.26838229907159
30
0
41
1
10
8.961964564049
20
4.10812866097461
30
0
41
1
10
8.83713891054947
20
3.85366158587792
30
0
41
1
10
8.79432631704273
20
3.76625143742572
30
0
41
1
10
8.70767469783868
20
3.58802372791496
30
0
41
1
10
8.66238557757129
20
3.49799734526022
30
0
41
1
10
8.52177568538852
20
3.22453379935635
30
0
41
1
10
8.42196308327348
20
3.03697453906034
30
0
41
1
10
8.28937599827589
20
2.7998596282639
30
0
41
1
10
8.26250863673118
20
2.75223489485933
30
0
41
1
10
8.23197227191548
20
2.69846499075987
30
0
41
1
10
8.22687631389095
20
2.68949918443764
30
0
41
1
10
8.22091973970296
20
2.67903166214765
30
0
41
1
10
8.21836454842358
20
2.67454402027511
30
0
41
1
10
8.21666056959396
20
2.67155192314715
30
0
41
1
10
8.21533698667713
20
2.66986374551019
30
0
41
1
10
8.21816696359321
20
2.66530407458731
30
0
41
1
10
8.22126624921822
20
2.66335260081445
30
0
41
1
10
8.22684485724449
20
2.65907614451794
30
0
41
1
10
8.2296999139395
20
2.65702755608862
30
0
41
1
10
8.23830964303602
20
2.65097684763899
30
0
41
1
10
8.24412801748599
20
2.64707331323064
30
0
41
1
10
8.27333391990459
20
2.62774565080392
30
0
41
1
10
8.29704169746648
20
2.61286991469771
30
0
41
1
10
8.4156185274482
20
2.53866597010375
30
0
41
1
10
8.51120456253983
20
2.48069379083029
30
0
41
1
10
8.79793693763963
20
2.30704610882921
30
0
41
1
10
8.98947262372815
20
2.19232098630249
30
0
41
1
10
9.56396803244758
20
1.84920786591565
30
0
41
1
10
9.94702635728481
20
1.62231794312476
30
0
41
1
10
11.095702265731
20
0.945980861396095
30
0
41
1
10
11.8607424969019
20
0.500499194701064
30
0
41
1
10
13.007348681451
20
-0.156098179594096
30
0
41
1
10
13.3894505914248
20
-0.373065456352208
30
0
41
1
10
13.9621332494791
20
-0.696053125453801
30
0
41
1
10
14.1529802338077
20
-0.803278737372892
30
0
41
1
10
14.4388902268242
20
-0.963640078037031
30
0
41
1
10
14.5341453037025
20
-1.01700828298306
30
0
41
1
10
14.6766939468836
20
-1.09715892170428
30
0
41
1
10
14.7241605547815
20
-1.12388591160712
30
0
41
1
10
14.7951116654702
20
-1.1641265880981
30
0
41
1
10
14.8187292298182
20
-1.17755947533394
30
0
41
1
10
14.853941261372
20
-1.19785656172112
30
0
41
1
10
14.8656542878144
20
-1.20464070817758
30
0
41
1
10
14.8830019516293
20
-1.21497291895008
30
0
41
1
10
14.8887725251992
20
-1.21843159087757
30
0
41
1
10
14.8957297900346
20
-1.22290618699967
30
0
41
1
10
14.8971064283065
20
-1.22380863010179
30
0
41
1
10
14.8997708033568
20
-1.22565879752773
30
0
41
1
10
14.9012603868754
20
-1.22658520602684
30
0
41
1
10
14.9024704378687
20
-1.22820411456897
30
0
41
1
10
14.9015749261063
20
-1.22838633484756
30
0
41
1
10
14.8998622375309
20
-1.22816217301525
30
0
41
1
10
14.898999912982
20
-1.22802366564264
30
0
41
1
10
14.8964206663525
20
-1.22764212931588
30
0
41
1
10
14.0143269496067
20
-1.09711822309001
30
0
41
1
10
13.1366239877352
20
-0.946801993999316
30
0
41
1
10
11.3953767416418
20
-0.607862288561535
30
0
41
1
10
10.5298661233566
20
-0.418913229428767
30
0
41
1
10
8.53346959290488
20
0.0642527070915548
30
0
41
1
10
7.40847680711539
20
0.372225244100093
30
0
41
1
10
6.29311291472783
20
0.712109059026318
30
0
0
SPLINE
5
D1
100
AcDbEntity
8
1
62
256
6
ByLayer
370
18
48
1
60
0
100
AcDbSpline
70
4
71
3
72
22
73
18
40
0
40
0
40
0
40
0
40
0.124999999999994
40
0.124999999999994
40
0.249999999999988
40
0.249999999999988
40
0.312499999999991
40
0.312499999999991
40
0.374999999999994
40
0.374999999999994
40
0.437499999999997
40
0.437499999999997
40
0.5
40
0.5
40
0.75
40
0.75
40
1
40
1
40
1
40
1
41
1
10
61.5758907783851
20
0.868780828529026
30
0
41
1
10
61.5403739896189
20
0.873654844105118
30
0
41
1
10
61.5046251290454
20
0.87666169732978
30
0
41
1
10
61.4327774371109
20
0.878608405706331
30
0
41
1
10
61.3966860320041
20
0.877610063019375
30
0
41
1
10
61.3424432252935
20
0.873832864892506
30
0
41
1
10
61.324343236952
20
0.872176234439593
30
0
41
1
10
61.2881315145683
20
0.868280856381972
30
0
41
1
10
61.2700211140992
20
0.866069327730429
30
0
41
1
10
61.2337946328839
20
0.860992078969247
30
0
41
1
10
61.2156772468257
20
0.85810167919152
30
0
41
1
10
61.1794444378171
20
0.851556387328401
30
0
41
1
10
61.1613147721868
20
0.847912370710674
30
0
41
1
10
61.0709167531781
20
0.827916254637614
30
0
41
1
10
60.9994751713091
20
0.806122267472432
30
0
41
1
10
60.8592540351214
20
0.750281798022542
30
0
41
1
10
60.7904579297745
20
0.716449201056065
30
0
41
1
10
60.7233025050334
20
0.677269450153545
30
0
0
SPLINE
5
D2
100
AcDbEntity
8
1
62
256
6
ByLayer
370
18
48
1
60
0
100
AcDbSpline
70
4
71
3
72
14
73
10
40
0
40
0
40
0
40
0
40
0.598400855071414
40
0.598400855071414
40
0.748001068839249
40
0.748001068839249
40
0.897601282607085
40
0.897601282607085
40
1
40
1
40
1
40
1
41
1
10
61.5758907783849
20
0.868780828529026
30
0
41
1
10
61.5346389241361
20
0.888745355782646
30
0
41
1
10
61.4949941581116
20
0.906228630509986
30
0
41
1
10
61.4476133867364
20
0.924724360599697
30
0
41
1
10
61.4382319559776
20
0.928277258913141
30
0
41
1
10
61.4195774221967
20
0.935215803694831
30
0
41
1
10
61.41030838341
20
0.938595175215681
30
0
41
1
10
61.3948736602332
20
0.944011595067536
30
0
41
1
10
61.3886563854149
20
0.94612829607604
30
0
41
1
10
61.3825028316603
20
0.948146615397718
30
0
0
SPLINE
5
D3
100
AcDbEntity
8
1
62
256
6
ByLayer
370
18
48
1
60
0
100
AcDbSpline
70
4
71
3
72
25
73
21
40
0
40
0
40
0
40
0
40
0.17723627304841
40
0.17723627304841
40
0.245799916961062
40
0.245799916961062
40
0.314363560873714
40
0.451490848698981
40
0.451490848698981
40
0.588618136524248
40
0.588618136524248
40
0.657181780436882
40
0.657181780436882
40
0.725745424349515
40
0.725745424349515
40
0.862872712174782
40
0.862872712174782
40
0.931436356087391
40
0.931436356087391
40
1
40
1
40
1
40
1
41
1
10
61.0802188854627
20
1.04094562212899
30
0
41
1
10
61.1072025322236
20
1.06165117983187
30
0
41
1
10
61.1368141389776
20
1.08332760581155
30
0
41
1
10
61.1817775782554
20
1.11431851194507
30
0
41
1
10
61.194789509208
20
1.12310253266736
30
0
41
1
10
61.2214151255303
20
1.14068233060806
30
0
41
1
10
61.2622214403626
20
1.16706591298444
30
0
41
1
10
61.3057853185727
20
1.19307561229729
30
0
41
1
10
61.3666447381216
20
1.2266932236671
30
0
41
1
10
61.39846443598
20
1.24296704209519
30
0
41
1
10
61.448596970423
20
1.26595503497106
30
0
41
1
10
61.4655966008105
20
1.27332922754161
30
0
41
1
10
61.4998999433976
20
1.28736575307076
30
0
41
1
10
61.5172447522281
20
1.29404705080793
30
0
41
1
10
61.5698514050209
20
1.31305449246494
30
0
41
1
10
61.6056817437962
20
1.32435442357448
30
0
41
1
10
61.6605848854196
20
1.33903441406503
30
0
41
1
10
61.6790792785386
20
1.34354854460409
30
0
41
1
10
61.716459079856
20
1.35178323370869
30
0
41
1
10
61.7353459272593
20
1.35550177947778
30
0
41
1
10
61.7542823066107
20
1.3587863616801
30
0
0
SPLINE
5
D4
100
AcDbEntity
8
1
62
256
6
ByLayer
370
18
48
1
60
0
100
AcDbSpline
70
4
71
3
72
12
73
8
40
0
40
0
40
0
40
0
40
0.5
40
0.5
40
0.75
40
0.75
40
1
40
1
40
1
40
1
41
1
10
61.7542823066107
20
1.35878636168013
30
0
41
1
10
61.8895108533316
20
1.38224223302515
30
0
41
1
10
62.0239535208024
20
1.40916959239908
30
0
41
1
10
62.2238184395042
20
1.45750777267023
30
0
41
1
10
62.2901458798236
20
1.47492007460653
30
0
41
1
10
62.4220201773009
20
1.51319277193494
30
0
41
1
10
62.4875414457655
20
1.53416620103113
30
0
41
1
10
62.5524697834011
20
1.55775880129701
30
0
0
SPLINE
5
D5
100
AcDbEntity
8
1
62
256
6
ByLayer
370
18
48
1
60
0
100
AcDbSpline
70
4
71
3
72
31
73
27
40
0
40
0
40
0
40
0
40
0.24999999999999
40
0.24999999999999
40
0.374999999999986
40
0.374999999999986
40
0.499999999999981
40
0.499999999999981
40
0.562499999999978
40
0.562499999999978
40
0.593749999999977
40
0.609374999999979
40
0.609374999999979
40
0.62499999999998
40
0.62499999999998
40
0.687499999999986
40
0.687499999999986
40
0.749999999999992
40
0.749999999999992
40
0.874999999999999
40
0.874999999999999
40
0.937499999999999
40
0.937499999999999
40
0.96875
40
0.96875
40
1
40
1
40
1
40
1
41
1
10
61.3461372710248
20
4.60987434084717
30
0
41
1
10
61.4399483227015
20
4.35251109708804
30
0
41
1
10
61.5327812705424
20
4.09300624357851
30
0
41
1
10
61.6727422510376
20
3.70184285897079
30
0
41
1
10
61.71952173676
20
3.571126164162
30
0
41
1
10
61.8134424774447
20
3.30971933907506
30
0
41
1
10
61.8606148584998
20
3.17895058591023
30
0
41
1
10
61.9318211591532
20
2.98284742903869
30
0
41
1
10
61.9556248395712
20
2.91750538552816
30
0
41
1
10
61.9914510953243
20
2.81953759591778
30
0
41
1
10
62.0093938469024
20
2.77056481056908
30
0
41
1
10
62.0273835941306
20
2.72160962876174
30
0
41
1
10
62.0393875068626
20
2.68897686475802
30
0
41
1
10
62.0453885747453
20
2.67266015261956
30
0
41
1
10
62.0756027295943
20
2.59115470005381
30
0
41
1
10
62.100336910299
20
2.52615550197385
30
0
41
1
10
62.1512235129482
20
2.39670836185567
30
0
41
1
10
62.1771400472025
20
2.33284195752063
30
0
41
1
10
62.2565818902112
20
2.14391027731031
30
0
41
1
10
62.3118198186884
20
2.02153371179625
30
0
41
1
10
62.3988561541328
20
1.84335294680838
30
0
41
1
10
62.4285523539163
20
1.78483905745787
30
0
41
1
10
62.4742358605769
20
1.6984495284571
30
0
41
1
10
62.4896540002826
20
1.66988407225597
30
0
41
1
10
62.5208911872769
20
1.61322889665985
30
0
41
1
10
62.5366258639864
20
1.58529203105584
30
0
41
1
10
62.5524697834011
20
1.55775880129701
30
0
0
SPLINE
5
D6
100
AcDbEntity
8
1
62
256
6
ByLayer
370
18
48
1
60
0
100
AcDbSpline
70
4
71
3
72
28
73
24
40
0
40
0
40
0
40
0
40
0.186514979359835
40
0.186514979359835
40
0.233143724199796
40
0.233143724199796
40
0.279772469039757
40
0.279772469039757
40
0.373029958719679
40
0.373029958719679
40
0.466287448399602
40
0.466287448399602
40
0.512916193239563
40
0.512916193239563
40
0.559544938079524
40
0.559544938079524
40
0.652802427759451
40
0.652802427759451
40
0.746059917439378
40
0.746059917439378
40
0.932574896799237
40
0.932574896799237
40
1
40
1
40
1
40
1
41
1
10
61.3461372710249
20
4.60987434084717
30
0
41
1
10
60.9328217123545
20
4.62063650769659
30
0
41
1
10
60.518355669245
20
4.61564592400714
30
0
41
1
10
59.9978236737217
20
4.58965515038156
30
0
41
1
10
59.8935923187279
20
4.58346755340438
30
0
41
1
10
59.6848517990546
20
4.56910091382034
30
0
41
1
10
59.5802938004259
20
4.56091865227594
30
0
41
1
10
59.2667014855671
20
4.53337331232171
30
0
41
1
10
59.0576779012486
20
4.51097623804836
30
0
41
1
10
58.6397122384395
20
4.45844659574649
30
0
41
1
10
58.4307480324577
20
4.42830846598758
30
0
41
1
10
58.1172157867294
20
4.37728272816608
30
0
41
1
10
58.0126518211404
20
4.35930061934852
30
0
41
1
10
57.803773924088
20
4.32146816196621
30
0
41
1
10
57.6994315565561
20
4.30161437320174
30
0
41
1
10
57.3866489946033
20
4.239272752532
30
0
41
1
10
57.1784451587489
20
4.1940106577207
30
0
41
1
10
56.7625107391237
20
4.09632517613585
30
0
41
1
10
56.5547700204424
20
4.04392299592468
30
0
41
1
10
55.9316412326092
20
3.87665098467625
30
0
41
1
10
55.5164974505503
20
3.75160708028238
30
0
41
1
10
54.9504382236232
20
3.56414781274947
30
0
41
1
10
54.8000596157263
20
3.51271934188188
30
0
41
1
10
54.6495715219896
20
3.4596333634428
30
0
0
SPLINE
5
D7
100
AcDbEntity
8
1
62
256
6
ByLayer
370
18
48
1
60
0
100
AcDbSpline
70
4
71
3
72
16
73
12
40
0
40
0
40
0
40
0
40
0.137782442002834
40
0.137782442002834
40
0.310225953602269
40
0.310225953602269
40
0.482669465201703
40
0.482669465201703
40
0.655112976801138
40
0.655112976801138
40
1
40
1
40
1
40
1
41
1
10
25.0287788434671
20
-2.4817391735528
30
0
41
1
10
24.8623965770308
20
-2.4069535285222
30
0
41
1
10
24.6959300065391
20
-2.33076136808728
30
0
41
1
10
24.3207924037567
20
-2.1562559709125
30
0
41
1
10
24.1119931238807
20
-2.05718576536015
30
0
41
1
10
23.6938842262123
20
-1.85536136951561
30
0
41
1
10
23.4851460070004
20
-1.7527964387543
30
0
41
1
10
23.0679867350332
20
-1.54493604363816
30
0
41
1
10
22.8595257559978
20
-1.43971538448108
30
0
41
1
10
22.2342533353938
20
-1.12062293359821
30
0
41
1
10
21.8175207695101
20
-0.903381457397813
30
0
41
1
10
21.4000000000002
20
-0.683262631875891
30
0
0
SPLINE
5
D8
100
AcDbEntity
8
1
62
256
6
ByLayer
370
18
48
1
60
0
100
AcDbSpline
70
4
71
3
72
81
73
77
40
0
40
0
40
0
40
0
40
0.0493347007368148
40
0.0493347007368148
40
0.0988923981732518
40
0.0988923981732518
40
0.12367124689147
40
0.12367124689147
40
0.148450095609687
40
0.148450095609687
40
0.198007793046123
40
0.198007793046123
40
0.210397217405232
40
0.210397217405232
40
0.222786641764342
40
0.222786641764342
40
0.24756549048256
40
0.24756549048256
40
0.272344339200779
40
0.272344339200779
40
0.297123187918997
40
0.297123187918997
40
0.321902036637216
40
0.321902036637216
40
0.334291460996326
40
0.334291460996326
40
0.346680885355436
40
0.371459734073655
40
0.371459734073655
40
0.396238582791875
40
0.396238582791875
40
0.421017431510095
40
0.421017431510095
40
0.445796280228315
40
0.445796280228315
40
0.495353977664754
40
0.495353977664754
40
0.520132826382974
40
0.520132826382974
40
0.544911675101193
40
0.544911675101193
40
0.594469372537633
40
0.594469372537633
40
0.644027069974072
40
0.644027069974072
40
0.668805918692292
40
0.668805918692292
40
0.693584767410511
40
0.693584767410511
40
0.743142464846949
40
0.743142464846949
40
0.767921313565168
40
0.767921313565168
40
0.792700162283386
40
0.792700162283386
40
0.805089586642495
40
0.805089586642495
40
0.817479011001604
40
0.817479011001604
40
0.842257859719823
40
0.842257859719823
40
0.867036708438041
40
0.867036708438041
40
0.89181555715626
40
0.89181555715626
40
0.916594405874478
40
0.916594405874478
40
0.928983830233588
40
0.928983830233588
40
0.941373254592698
40
0.941373254592698
40
0.966152103310917
40
0.966152103310917
40
0.990930952029135
40
0.990930952029135
40
1
40
1
40
1
40
1
41
1
10
52.5963748128783
20
-2.64472510063334
30
0
41
1
10
52.1837069791852
20
-2.46447138817553
30
0
41
1
10
51.7725826536281
20
-2.27561839914975
30
0
41
1
10
50.9492723305294
20
-1.88392059326563
30
0
41
1
10
50.5371870274412
20
-1.68085780174576
30
0
41
1
10
49.9184839094606
20
-1.3683301039126
30
0
41
1
10
49.7121869624902
20
-1.26275926782483
30
0
41
1
10
49.2991702666907
20
-1.04941125322435
30
0
41
1
10
49.0924133548942
20
-0.941703804891631
30
0
41
1
10
48.4711401193751
20
-0.615953684574407
30
0
41
1
10
48.0556098349106
20
-0.395328399903235
30
0
41
1
10
47.5333818249864
20
-0.117180416034785
30
0
41
1
10
47.428820118801
20
-0.0614258514033565
30
0
41
1
10
47.2199913042457
20
0.0499709337457546
30
0
41
1
10
47.1156474467516
20
0.105647432825037
30
0
41
1
10
46.8027433399313
20
0.272457571636522
30
0
41
1
10
46.5942980347698
20
0.383347749904033
30
0
41
1
10
46.1775706458544
20
0.60421784208873
30
0
41
1
10
45.9692773386057
20
0.714176989853655
30
0
41
1
10
45.5525898787728
20
0.932697361263337
30
0
41
1
10
45.344185203656
20
1.04124011280237
30
0
41
1
10
44.9271046521787
20
1.25660540024737
30
0
41
1
10
44.7184429001786
20
1.3634526973035
30
0
41
1
10
44.4049609791008
20
1.52190350925724
30
0
41
1
10
44.3004359871155
20
1.57439442366601
30
0
41
1
10
44.0915943075719
20
1.67857036018117
30
0
41
1
10
43.7785151365344
20
1.83367678934948
30
0
41
1
10
43.4658465111965
20
1.98508726522141
30
0
41
1
10
43.0490771872021
20
2.18328447187443
30
0
41
1
10
42.840747452945
20
2.28053426083574
30
0
41
1
10
42.424068988332
20
2.47107414303414
30
0
41
1
10
42.2157002236856
20
2.56433839117383
30
0
41
1
10
41.7985304917568
20
2.74623974761187
30
0
41
1
10
41.5897569846111
20
2.83493278501629
30
0
41
1
10
40.9626135911253
20
3.09366981079108
30
0
41
1
10
40.5468012662765
20
3.25490511385374
30
0
41
1
10
39.9252770930517
20
3.47877797242026
30
0
41
1
10
39.7184374383492
20
3.55036404554673
30
0
41
1
10
39.305156321417
20
3.68716463977228
30
0
41
1
10
39.0987428772817
20
3.75241317891673
30
0
41
1
10
38.4798501095887
20
3.93828592206603
30
0
41
1
10
38.0677066258844
20
4.04896739345298
30
0
41
1
10
37.2426973170247
20
4.24244335807376
30
0
41
1
10
36.829640254614
20
4.32513755835203
30
0
41
1
10
36.2080023356009
20
4.4267903663108
30
0
41
1
10
36.0004365629711
20
4.45693862176654
30
0
41
1
10
35.5843801501482
20
4.50961257088005
30
0
41
1
10
35.3759071026926
20
4.53214465980338
30
0
41
1
10
34.748802364897
20
4.58799614877935
30
0
41
1
10
34.3318004048422
20
4.60926496329466
30
0
41
1
10
33.7066843250996
20
4.6170905682209
30
0
41
1
10
33.4983610993211
20
4.61567244954571
30
0
41
1
10
33.0816274964712
20
4.60479011483699
30
0
41
1
10
32.8732457127152
20
4.59531155909966
30
0
41
1
10
32.5603496412206
20
4.57514109948335
30
0
41
1
10
32.4559934600414
20
4.56742491440554
30
0
41
1
10
32.2471576208142
20
4.55000105695032
30
0
41
1
10
32.1426499345471
20
4.5402899968955
30
0
41
1
10
31.8290885717107
20
4.50819026936148
30
0
41
1
10
31.6203325838764
20
4.48287186220898
30
0
41
1
10
31.2031535741675
20
4.42451395983488
30
0
41
1
10
30.9947213997839
20
4.3914781370346
30
0
41
1
10
30.578033345198
20
4.31773097918344
30
0
41
1
10
30.3697740122004
20
4.27703520592706
30
0
41
1
10
29.9530145192777
20
4.18834251026965
30
0
41
1
10
29.7445453756181
20
4.14032095332303
30
0
41
1
10
29.4315559710755
20
4.06288545123803
30
0
41
1
10
29.3271772643869
20
4.03617379528308
30
0
41
1
10
29.1182922510969
20
3.98096909577825
30
0
41
1
10
29.0137598400743
20
3.95246930253884
30
0
41
1
10
28.7001482685571
20
3.86438779136776
30
0
41
1
10
28.4910563220022
20
3.80222478895649
30
0
41
1
10
28.0730300867978
20
3.67127241228718
30
0
41
1
10
27.8640921772524
20
3.60254824294
30
0
41
1
10
27.5785525287906
20
3.50452598117465
30
0
41
1
10
27.5020227731862
20
3.47784336529216
30
0
41
1
10
27.4255263869946
20
3.45077071503462
30
0
0
SPLINE
5
D9
100
AcDbEntity
8
1
62
256
6
ByLayer
370
18
48
1
60
0
100
AcDbSpline
70
4
71
3
72
22
73
18
40
0
40
0
40
0
40
0
40
0.499999999999998
40
0.750000000000018
40
0.875000000000048
40
0.875000000000048
40
0.93750000000004
40
0.93750000000004
40
0.968750000000036
40
0.968750000000036
40
0.984375000000036
40
0.984375000000036
40
0.992187500000037
40
0.992187500000037
40
0.996093750000018
40
0.996093750000018
40
1
40
1
40
1
40
1
41
1
10
61.2365087824078
20
-4.84995513890343
30
0
41
1
10
61.2541077069055
20
-4.80990696351728
30
0
41
1
10
61.2810215825749
20
-4.74984353434485
30
0
41
1
10
61.3133175836928
20
-4.67975400501911
30
0
41
1
10
61.3273501685571
20
-4.64970913617123
30
0
41
1
10
61.3343983009352
20
-4.63468539997063
30
0
41
1
10
61.336754889464
20
-4.62966968124644
30
0
41
1
10
61.3402911819161
20
-4.62217181908514
30
0
41
1
10
61.3414636661204
20
-4.61970278739474
30
0
41
1
10
61.3432300061579
20
-4.61597683997431
30
0
41
1
10
61.3438221802002
20
-4.61472272089355
30
0
41
1
10
61.3447215685432
20
-4.61279786674368
30
0
41
1
10
61.3450238382894
20
-4.61214616667618
30
0
41
1
10
61.3454775895721
20
-4.61116757572012
30
0
41
1
10
61.345629174413
20
-4.61084008018091
30
0
41
1
10
61.3459226829982
20
-4.61022509930612
30
0
41
1
10
61.3460758967735
20
-4.60991547863759
30
0
41
1
10
61.3461372711457
20
-4.60987434068767
30
0
0
SPLINE
5
DA
100
AcDbEntity
8
1
62
256
6
ByLayer
370
18
48
1
60
0
100
AcDbSpline
70
4
71
3
72
159
73
155
40
0
40
0
40
0
40
0
40
0.0031134152816794
40
0.0031134152816794
40
0.0159787921179105
40
0.0159787921179105
40
0.0288441689541415
40
0.0288441689541415
40
0.0417095457903726
40
0.0417095457903726
40
0.0545749226266037
40
0.0545749226266037
40
0.0803056762990669
40
0.0803056762990669
40
0.0931710531352979
40
0.0931710531352979
40
0.106036429971529
40
0.106036429971529
40
0.11890180680776
40
0.11890180680776
40
0.131767183643991
40
0.131767183643991
40
0.144632560480222
40
0.144632560480222
40
0.157497937316453
40
0.157497937316453
40
0.170363314152684
40
0.170363314152684
40
0.183228690988915
40
0.183228690988915
40
0.196094067825146
40
0.196094067825146
40
0.202526756243263
40
0.202526756243263
40
0.208959444661379
40
0.208959444661379
40
0.22182482149761
40
0.22182482149761
40
0.234690198333841
40
0.234690198333841
40
0.247555575170072
40
0.247555575170072
40
0.260420952006303
40
0.260420952006303
40
0.286151705678765
40
0.286151705678765
40
0.299017082514996
40
0.299017082514996
40
0.311882459351227
40
0.324747836187458
40
0.324747836187458
40
0.337613213023689
40
0.337613213023689
40
0.35047858985992
40
0.35047858985992
40
0.363343966696151
40
0.363343966696151
40
0.376209343532383
40
0.376209343532383
40
0.389074720368613
40
0.389074720368613
40
0.395507408786729
40
0.395507408786729
40
0.401940097204845
40
0.401940097204845
40
0.414805474041075
40
0.414805474041075
40
0.440536227713538
40
0.440536227713538
40
0.453401604549769
40
0.453401604549769
40
0.466266981386001
40
0.466266981386001
40
0.479132358222232
40
0.479132358222232
40
0.491997735058464
40
0.491997735058464
40
0.504863111894695
40
0.504863111894695
40
0.517728488730927
40
0.517728488730927
40
0.54345924240339
40
0.54345924240339
40
0.556324619239621
40
0.556324619239621
40
0.569189996075853
40
0.569189996075853
40
0.575622684493969
40
0.575622684493969
40
0.582055372912085
40
0.582055372912085
40
0.594920749748318
40
0.594920749748318
40
0.60778612658455
40
0.60778612658455
40
0.620651503420783
40
0.620651503420783
40
0.633516880257015
40
0.633516880257015
40
0.646382257093247
40
0.646382257093247
40
0.65924763392948
40
0.65924763392948
40
0.672113010765713
40
0.672113010765713
40
0.684978387601945
40
0.684978387601945
40
0.697843764438177
40
0.697843764438177
40
0.71070914127441
40
0.71070914127441
40
0.723574518110642
40
0.723574518110642
40
0.736439894946875
40
0.736439894946875
40
0.749305271783107
40
0.749305271783107
40
0.762170648619339
40
0.762170648619339
40
0.768603337037456
40
0.768603337037456
40
0.775036025455571
40
0.775036025455571
40
0.787901402291804
40
0.787901402291804
40
0.800766779128036
40
0.800766779128036
40
0.813632155964269
40
0.813632155964269
40
0.826497532800501
40
0.826497532800501
40
0.839362909636734
40
0.839362909636734
40
0.852228286472966
40
0.852228286472966
40
0.877959040145431
40
0.877959040145431
40
0.903689793817896
40
0.903689793817896
40
0.916555170654129
40
0.916555170654129
40
0.929420547490361
40
0.929420547490361
40
0.942285924326593
40
0.942285924326593
40
0.955151301162826
40
0.955151301162826
40
0.961583989580942
40
0.961583989580942
40
0.968016677999058
40
0.968016677999058
40
0.980882054835291
40
0.980882054835291
40
1
40
1
40
1
40
1
41
1
10
21.5338183129828
20
4.58189177202266
30
0
41
1
10
21.56834569661
20
4.58124211854911
30
0
41
1
10
21.6028796654487
20
4.58047931834483
30
0
41
1
10
21.7801453647349
20
4.57600014370109
30
0
41
1
10
21.9230740151198
20
4.57050695140029
30
0
41
1
10
22.2082055453398
20
4.55597164492951
30
0
41
1
10
22.3504849560417
20
4.54692991622215
30
0
41
1
10
22.6345597719388
20
4.52553162808169
30
0
41
1
10
22.776376700288
20
4.51322999724675
30
0
41
1
10
23.059773024028
20
4.48464125431246
30
0
41
1
10
23.2013643730394
20
4.46826221027061
30
0
41
1
10
23.6258282301508
20
4.41370161422131
30
0
41
1
10
23.9083172849213
20
4.37030903712292
30
0
41
1
10
24.3311417757837
20
4.29558968881733
30
0
41
1
10
24.4719097905816
20
4.26912769954103
30
0
41
1
10
24.7533813016324
20
4.2127216081015
30
0
41
1
10
24.8941227556894
20
4.18266809336274
30
0
41
1
10
25.1758787251174
20
4.11906850641972
30
0
41
1
10
25.3168543826525
20
4.08558404184916
30
0
41
1
10
25.5988389635777
20
4.01544000206229
30
0
41
1
10
25.7398758785639
20
3.97878494635265
30
0
41
1
10
26.0220090622036
20
3.90246549175731
30
0
41
1
10
26.1630812076717
20
3.86282786174513
30
0
41
1
10
26.4453073236223
20
3.7804735892469
30
0
41
1
10
26.5865086547867
20
3.73767427421711
30
0
41
1
10
26.86941197214
20
3.64865922618949
30
0
41
1
10
27.0110690767416
20
3.60251965804505
30
0
41
1
10
27.294692419867
20
3.50733402825949
30
0
41
1
10
27.4366978980728
20
3.45829545161143
30
0
41
1
10
27.7211769223125
20
3.35748663169136
30
0
41
1
10
27.8636057750902
20
3.30566639956979
30
0
41
1
10
28.0775726721023
20
3.22584851339602
30
0
41
1
10
28.1489659010513
20
3.19888786953365
30
0
41
1
10
28.2915385556947
20
3.14438992017571
30
0
41
1
10
28.3627631246239
20
3.11683597051916
30
0
41
1
10
28.5762804418843
20
3.0332661722621
30
0
41
1
10
28.7184112399298
20
2.9763537925476
30
0
41
1
10
29.0021954933189
20
2.8602793929833
30
0
41
1
10
29.1438474632172
20
2.8011102460616
30
0
41
1
10
29.4267203599871
20
2.68069568156363
30
0
41
1
10
29.5679307302967
20
2.61942989734266
30
0
41
1
10
29.8501330518828
20
2.49505583589601
30
0
41
1
10
29.9911525855836
20
2.43199412774885
30
0
41
1
10
30.4140047651294
20
2.240085611995
30
0
41
1
10
30.6957436671769
20
2.10867878150114
30
0
41
1
10
31.1179732248576
20
1.90679405405814
30
0
41
1
10
31.2586300807475
20
1.83867434088865
30
0
41
1
10
31.5397931422416
20
1.70081992055231
30
0
41
1
10
31.8209438532202
20
1.56144378471421
30
0
41
1
10
32.1024793643783
20
1.41957593434969
30
0
41
1
10
32.3843492825249
20
1.27681810271486
30
0
41
1
10
32.525410388964
20
1.20492692840722
30
0
41
1
10
32.8076908028481
20
1.06004034198744
30
0
41
1
10
32.9489128087198
20
0.987063875454027
30
0
41
1
10
33.2315916129228
20
0.840127283859516
30
0
41
1
10
33.3730606423606
20
0.766176049145884
30
0
41
1
10
33.6564009955712
20
0.617460874066097
30
0
41
1
10
33.7982771865054
20
0.542696158480254
30
0
41
1
10
34.0825596556382
20
0.392572663915246
30
0
41
1
10
34.2249539003593
20
0.317201548491227
30
0
41
1
10
34.4389243925521
20
0.203766761716054
30
0
41
1
10
34.5103038927872
20
0.165902376738416
30
0
41
1
10
34.652944180538
20
0.0902172813848381
30
0
41
1
10
34.7242324257104
20
0.0523689080803535
30
0
41
1
10
34.9380026083752
20
-0.0611795000465634
30
0
41
1
10
35.0803915784014
20
-0.136874571394571
30
0
41
1
10
35.5075189579282
20
-0.363236678867338
30
0
41
1
10
35.7921618787251
20
-0.513316107010581
30
0
41
1
10
36.2189582930558
20
-0.737301031681028
30
0
41
1
10
36.3611836609884
20
-0.811802332645698
30
0
41
1
10
36.6455708624949
20
-0.960481893549797
30
0
41
1
10
36.7877466170094
20
-1.03462306727201
30
0
41
1
10
37.0725018120815
20
-1.18161849303829
30
0
41
1
10
37.215056929754
20
-1.25452510775892
30
0
41
1
10
37.5004381059663
20
-1.39932887730581
30
0
41
1
10
37.6433046551583
20
-1.4711913768117
30
0
41
1
10
37.9286295543835
20
-1.6134685134565
30
0
41
1
10
38.0711759904502
20
-1.68394649113651
30
0
41
1
10
38.355942376875
20
-1.82392330142039
30
0
41
1
10
38.4981613486837
20
-1.89340482385703
30
0
41
1
10
38.9247673645244
20
-2.09906086969147
30
0
41
1
10
39.2091095842102
20
-2.23246322248704
30
0
41
1
10
39.6361841167092
20
-2.4264333260891
30
0
41
1
10
39.7785873287633
20
-2.49014673703863
30
0
41
1
10
40.0634164976729
20
-2.61596695392242
30
0
41
1
10
40.2058247052769
20
-2.67812098334716
30
0
41
1
10
40.4196478736292
20
-2.76961631871208
30
0
41
1
10
40.4909617885471
20
-2.7998140753912
30
0
41
1
10
40.6336737123629
20
-2.85960123387051
30
0
41
1
10
40.7050305634117
20
-2.88917649393426
30
0
41
1
10
40.91880739418
20
-2.97685376561415
30
0
41
1
10
41.0610521898163
20
-3.03395612143456
30
0
41
1
10
41.3450876913229
20
-3.14552118278954
30
0
41
1
10
41.486870813886
20
-3.19998407928301
30
0
41
1
10
41.7700769263935
20
-3.30644853448118
30
0
41
1
10
41.9114975110109
20
-3.35853219692552
30
0
41
1
10
42.1940258329304
20
-3.45984461612997
30
0
41
1
10
42.3351777967713
20
-3.50891896067898
30
0
41
1
10
42.6173648110874
20
-3.60376822164008
30
0
41
1
10
42.7583880562348
20
-3.64959013780034
30
0
41
1
10
43.0402720122532
20
-3.73826421799885
30
0
41
1
10
43.1811310289104
20
-3.78111151299595
30
0
41
1
10
43.4626421352596
20
-3.86412532888366
30
0
41
1
10
43.6032753342994
20
-3.90437793232064
30
0
41
1
10
43.8844523085072
20
-3.98201299444679
30
0
41
1
10
44.0250426328635
20
-4.01923779604579
30
0
41
1
10
44.3065602935965
20
-4.08988006393511
30
0
41
1
10
44.4474261375387
20
-4.12341825749596
30
0
41
1
10
44.7293228289748
20
-4.18718435238213
30
0
41
1
10
44.8703686703967
20
-4.21739955130167
30
0
41
1
10
45.1525912656131
20
-4.27476311051819
30
0
41
1
10
45.2937538607326
20
-4.30194988091742
30
0
41
1
10
45.5761494285382
20
-4.3533988341714
30
0
41
1
10
45.7174129490523
20
-4.37754996694727
30
0
41
1
10
46.0005044977877
20
-4.42174170314354
30
0
41
1
10
46.1423016909641
20
-4.4418686924347
30
0
41
1
10
46.4264460368027
20
-4.47838810204254
30
0
41
1
10
46.5688274482098
20
-4.49476713735052
30
0
41
1
10
46.7827660369853
20
-4.51675184041503
30
0
41
1
10
46.8541784635663
20
-4.52365279707942
30
0
41
1
10
46.9968828004212
20
-4.53658506047839
30
0
41
1
10
47.0681654197186
20
-4.54261699118388
30
0
41
1
10
47.2818106416032
20
-4.55943908651085
30
0
41
1
10
47.4239694759889
20
-4.56893599130746
30
0
41
1
10
47.7078975645793
20
-4.58386885456579
30
0
41
1
10
47.8496670519653
20
-4.58931651652028
30
0
41
1
10
48.1328091465062
20
-4.5964860116174
30
0
41
1
10
48.274187715054
20
-4.59820657972415
30
0
41
1
10
48.5565945354671
20
-4.59823330875108
30
0
41
1
10
48.6976102038207
20
-4.59654297139605
30
0
41
1
10
48.9794239690513
20
-4.58992192209118
30
0
41
1
10
49.1201950764239
20
-4.585023963358
30
0
41
1
10
49.401694544304
20
-4.57114804285973
30
0
41
1
10
49.5424443343662
20
-4.56219098904046
30
0
41
1
10
49.9647550821865
20
-4.52952662094029
30
0
41
1
10
50.2463293451261
20
-4.5000998721861
30
0
41
1
10
50.8096717613465
20
-4.42690192184165
30
0
41
1
10
51.0914828439389
20
-4.38307746234054
30
0
41
1
10
51.5150802075621
20
-4.30738520568246
30
0
41
1
10
51.6563800254299
20
-4.28047104675139
30
0
41
1
10
51.9391955973518
20
-4.22336832973289
30
0
41
1
10
52.0807061253993
20
-4.19320035969031
30
0
41
1
10
52.363985889039
20
-4.12955251055629
30
0
41
1
10
52.5057623675006
20
-4.09605594341767
30
0
41
1
10
52.789746379261
20
-4.02550399220561
30
0
41
1
10
52.9319633359449
20
-3.98842991201548
30
0
41
1
10
53.1457810666747
20
-3.93012460612212
30
0
41
1
10
53.2171244167002
20
-3.91024727202395
30
0
41
1
10
53.3596843906088
20
-3.86971274390172
30
0
41
1
10
53.4309379241606
20
-3.84904609854851
30
0
41
1
10
53.6446607672245
20
-3.78592072296073
30
0
41
1
10
53.787108930788
20
-3.74236222516012
30
0
41
1
10
54.1410321550886
20
-3.63042054354275
30
0
41
1
10
54.3524591089874
20
-3.56028779737159
30
0
41
1
10
54.5638659897322
20
-3.48701811007257
30
0
0
SPLINE
5
DB
100
AcDbEntity
8
1
62
256
6
ByLayer
370
18
48
1
60
0
100
AcDbSpline
70
4
71
3
72
108
73
104
40
0
40
0
40
0
40
0
40
0.020211820171723
40
0.020211820171723
40
0.040423640343446
40
0.040423640343446
40
0.060635460515169
40
0.060635460515169
40
0.080847280686892
40
0.080847280686892
40
0.101059100858615
40
0.101059100858615
40
0.121270921030338
40
0.121270921030338
40
0.141482741202061
40
0.141482741202061
40
0.151588651287923
40
0.151588651287923
40
0.161694561373785
40
0.161694561373785
40
0.181906381545509
40
0.181906381545509
40
0.202118201717234
40
0.202118201717234
40
0.222330021888959
40
0.222330021888959
40
0.242541842060683
40
0.242541842060683
40
0.262753662232408
40
0.262753662232408
40
0.282965482404132
40
0.282965482404132
40
0.303177302575857
40
0.303177302575857
40
0.323389122747581
40
0.323389122747581
40
0.343600942919306
40
0.343600942919306
40
0.363812763091031
40
0.363812763091031
40
0.384024583262755
40
0.384024583262755
40
0.40423640343448
40
0.40423640343448
40
0.424448223606204
40
0.424448223606204
40
0.444660043777929
40
0.444660043777929
40
0.454765953863791
40
0.454765953863791
40
0.464871863949654
40
0.464871863949654
40
0.485083684121379
40
0.485083684121379
40
0.505295504293105
40
0.505295504293105
40
0.52550732446483
40
0.52550732446483
40
0.545719144636555
40
0.545719144636555
40
0.565930964808281
40
0.565930964808281
40
0.586142784980006
40
0.586142784980006
40
0.606354605151731
40
0.606354605151731
40
0.626566425323457
40
0.626566425323457
40
0.646778245495182
40
0.646778245495182
40
0.666990065666907
40
0.666990065666907
40
0.687201885838633
40
0.687201885838633
40
0.707413706010358
40
0.707413706010358
40
0.727625526182083
40
0.727625526182083
40
0.747837346353808
40
0.747837346353808
40
0.768049166525534
40
0.768049166525534
40
0.788260986697259
40
0.788260986697259
40
0.808472806868984
40
0.808472806868984
40
0.848896447212437
40
0.848896447212437
40
0.869108267384162
40
0.869108267384162
40
0.889320087555887
40
0.889320087555887
40
0.909531907727612
40
0.909531907727612
40
0.929743727899338
40
0.929743727899338
40
0.949955548071063
40
0.949955548071063
40
0.970167368242788
40
0.970167368242788
40
0.990379188414514
40
0.990379188414514
40
1
40
1
40
1
40
1
41
1
10
6.29315584459951
20
0.712095977063143
30
0
41
1
10
6.4362414310884
20
0.637948870487463
30
0
41
1
10
6.5791421773759
20
0.563488944106069
30
0
41
1
10
6.86456344045362
20
0.413918506129193
30
0
41
1
10
7.00706366567272
20
0.338768015939735
30
0
41
1
10
7.29183791107721
20
0.188119112221898
30
0
41
1
10
7.43413582562175
20
0.112668027303897
30
0
41
1
10
7.71865515162509
20
-0.0382933364516589
30
0
41
1
10
7.86088250833086
20
-0.113792912457285
30
0
41
1
10
8.14541815358302
20
-0.26455834278562
30
0
41
1
10
8.28771990964677
20
-0.339837207533407
30
0
41
1
10
8.57249618545075
20
-0.489989261749599
30
0
41
1
10
8.71495233490504
20
-0.564896852887955
30
0
41
1
10
9.00004868640778
20
-0.714280268348375
30
0
41
1
10
9.14271638384579
20
-0.788703582093092
30
0
41
1
10
9.35696414961009
20
-0.899807783208416
30
0
41
1
10
9.42844530385946
20
-0.936773531948575
30
0
41
1
10
9.57122026405739
20
-1.0104155973263
30
0
41
1
10
9.64253960151456
20
-1.04710523496755
30
0
41
1
10
9.85629261458863
20
-1.15680457832713
30
0
41
1
10
9.99851331008449
20
-1.22946534129923
30
0
41
1
10
10.2824526424449
20
-1.37381082339385
30
0
41
1
10
10.4241749627205
20
-1.44547380079035
30
0
41
1
10
10.7072916853735
20
-1.5873757853212
30
0
41
1
10
10.8487216786539
20
-1.65754740156998
30
0
41
1
10
11.1314204975252
20
-1.79607739691693
30
0
41
1
10
11.2726581939663
20
-1.8645016454748
30
0
41
1
10
11.5549710503928
20
-1.99966394306111
30
0
41
1
10
11.6960436423574
20
-2.06640725066825
30
0
41
1
10
11.977997125124
20
-2.19836334940319
30
0
41
1
10
12.1188750328704
20
-2.26358119115153
30
0
41
1
10
12.4004987307187
20
-2.39229720290129
30
0
41
1
10
12.5412475502046
20
-2.45578938356925
30
0
41
1
10
12.8228007275885
20
-2.58064279591352
30
0
41
1
10
12.9636008741829
20
-2.64200116197387
30
0
41
1
10
13.2454143990854
20
-2.76240101700958
30
0
41
1
10
13.3864374632594
20
-2.82143098427758
30
0
41
1
10
13.6685809274993
20
-2.93745658454628
30
0
41
1
10
13.8097109938389
20
-2.99444918673146
30
0
41
1
10
14.0921871574196
20
-3.10617782177977
30
0
41
1
10
14.2335324981693
20
-3.1609114501241
30
0
41
1
10
14.5165404614846
20
-3.26785417116335
30
0
41
1
10
14.6582103335612
20
-3.32003746420782
30
0
41
1
10
14.9419337929009
20
-3.42177314403105
30
0
41
1
10
15.0839894456123
20
-3.47132992534932
30
0
41
1
10
15.3685242378228
20
-3.56785364042824
30
0
41
1
10
15.5110063535963
20
-3.61483025653695
30
0
41
1
10
15.7251703222149
20
-3.68319756943515
30
0
41
1
10
15.7965810556736
20
-3.70562649200352
30
0
41
1
10
15.9392875588175
20
-3.74969892222825
30
0
41
1
10
16.0106093671515
20
-3.77134756325185
30
0
41
1
10
16.2245123482027
20
-3.83506767070307
30
0
41
1
10
16.3670397622895
20
-3.87588081171808
30
0
41
1
10
16.6519906440165
20
-3.95415697772523
30
0
41
1
10
16.7944065206139
20
-3.99165143169822
30
0
41
1
10
17.0790711773213
20
-4.0636086903321
30
0
41
1
10
17.2212991827556
20
-4.09813049489651
30
0
41
1
10
17.5056818918785
20
-4.16403785480614
30
0
41
1
10
17.6478629875745
20
-4.19530405059032
30
0
41
1
10
17.9325276557573
20
-4.25388733941219
30
0
41
1
10
18.0750206508367
20
-4.28127009454559
30
0
41
1
10
18.3601857800942
20
-4.33257111964946
30
0
41
1
10
18.5028651225513
20
-4.35647549401526
30
0
41
1
10
18.7884152276939
20
-4.40098014953773
30
0
41
1
10
18.9312942339612
20
-4.42161473522529
30
0
41
1
10
19.2165241683844
20
-4.45960566190271
30
0
41
1
10
19.3589766279496
20
-4.47687032121604
30
0
41
1
10
19.6438108762856
20
-4.50715567435415
30
0
41
1
10
19.7861816169285
20
-4.5202658925088
30
0
41
1
10
20.0708534016914
20
-4.54279038209026
30
0
41
1
10
20.2131570316299
20
-4.5521888134742
30
0
41
1
10
20.4978482754705
20
-4.56743462695033
30
0
41
1
10
20.6401971670064
20
-4.57329628162219
30
0
41
1
10
20.9248246594377
20
-4.58169507625024
30
0
41
1
10
21.0671282144483
20
-4.58419406024566
30
0
41
1
10
21.3520640364013
20
-4.58494193054432
30
0
41
1
10
21.4946932473752
20
-4.5832129879864
30
0
41
1
10
21.7801453647349
20
-4.57600014370109
30
0
41
1
10
21.9230740151198
20
-4.57050695140029
30
0
41
1
10
22.2082055453399
20
-4.55597164492954
30
0
41
1
10
22.3504849560417
20
-4.54692991622215
30
0
41
1
10
22.6345597719388
20
-4.52553162808169
30
0
41
1
10
22.776376700288
20
-4.51322999724675
30
0
41
1
10
23.059773024028
20
-4.48464125431246
30
0
41
1
10
23.2013643730394
20
-4.46826221027061
30
0
41
1
10
23.6258282301508
20
-4.41370161422131
30
0
41
1
10
23.9083172849213
20
-4.37030903712295
30
0
41
1
10
24.3311417757837
20
-4.29558968881733
30
0
41
1
10
24.4719097905816
20
-4.26912769954103
30
0
41
1
10
24.7533813016324
20
-4.2127216081015
30
0
41
1
10
24.8941227556894
20
-4.18266809336274
30
0
41
1
10
25.1758787251174
20
-4.11906850641972
30
0
41
1
10
25.3168543826526
20
-4.08558404184919
30
0
41
1
10
25.5988389635777
20
-4.01544000206229
30
0
41
1
10
25.7398758785639
20
-3.97878494635265
30
0
41
1
10
26.0220090622036
20
-3.90246549175731
30
0
41
1
10
26.1630812076718
20
-3.86282786174513
30
0
41
1
10
26.4453073236223
20
-3.7804735892469
30
0
41
1
10
26.5865086547867
20
-3.73767427421711
30
0
41
1
10
26.86941197214
20
-3.64865922618949
30
0
41
1
10
27.0110690767416
20
-3.60251965804505
30
0
41
1
10
27.2203830000133
20
-3.53227269815113
30
0
41
1
10
27.2879291635209
20
-3.50929097924353
30
0
41
1
10
27.3555235773255
20
-3.48599030668629
30
0
0
SPLINE
5
DC
100
AcDbEntity
8
1
62
256
6
ByLayer
370
18
48
1
60
0
100
AcDbSpline
70
4
71
3
72
54
73
50
40
0
40
0
40
0
40
0
40
0.0233012616837355
40
0.0233012616837355
40
0.0581833594807446
40
0.0581833594807446
40
0.0930654572777532
40
0.0930654572777532
40
0.162829652871771
40
0.162829652871771
40
0.232593848465789
40
0.232593848465789
40
0.267475946262798
40
0.267475946262798
40
0.302358044059807
40
0.302358044059807
40
0.337240141856815
40
0.337240141856815
40
0.372122239653824
40
0.372122239653824
40
0.389563288552329
40
0.389563288552329
40
0.407004337450833
40
0.407004337450833
40
0.441886435247842
40
0.441886435247842
40
0.51165063084186
40
0.51165063084186
40
0.581414826435878
40
0.581414826435878
40
0.616296924232887
40
0.616296924232887
40
0.651179022029896
40
0.651179022029896
40
0.720943217623916
40
0.720943217623916
40
0.755825315420926
40
0.755825315420926
40
0.790707413217936
40
0.790707413217936
40
0.825589511014947
40
0.825589511014947
40
0.860471608811958
40
0.860471608811958
40
0.930235804405978
40
0.930235804405978
40
0.965117902202989
40
0.965117902202989
40
1
40
1
40
1
40
1
41
1
10
48.5559702832081
20
4.59767294689263
30
0
41
1
10
48.6502167839184
20
4.59693234382326
30
0
41
1
10
48.7443912066232
20
4.59544387914329
30
0
41
1
10
48.9794239690514
20
4.58992192209118
30
0
41
1
10
49.1201950764239
20
4.585023963358
30
0
41
1
10
49.4016945443041
20
4.57114804285973
30
0
41
1
10
49.5424443343662
20
4.56219098904049
30
0
41
1
10
49.9647550821865
20
4.52952662094029
30
0
41
1
10
50.2463293451261
20
4.5000998721861
30
0
41
1
10
50.8096717613465
20
4.42690192184168
30
0
41
1
10
51.0914828439389
20
4.38307746234054
30
0
41
1
10
51.515080207562
20
4.30738520568246
30
0
41
1
10
51.6563800254299
20
4.28047104675139
30
0
41
1
10
51.9391955973518
20
4.22336832973289
30
0
41
1
10
52.0807061253992
20
4.19320035969025
30
0
41
1
10
52.3639858890388
20
4.12955251055624
30
0
41
1
10
52.5057623675006
20
4.0960559434177
30
0
41
1
10
52.789746379261
20
4.02550399220564
30
0
41
1
10
52.9319633359449
20
3.9884299120155
30
0
41
1
10
53.1457810666747
20
3.93012460612215
30
0
41
1
10
53.2171244167002
20
3.91024727202398
30
0
41
1
10
53.3596843906088
20
3.86971274390174
30
0
41
1
10
53.4309379241605
20
3.84904609854854
30
0
41
1
10
53.6446607672244
20
3.78592072296075
30
0
41
1
10
53.7871089307879
20
3.74236222516015
30
0
41
1
10
54.2142086221447
20
3.60727570247371
30
0
41
1
10
54.4987067947
20
3.51138537345261
30
0
41
1
10
55.0677678027692
20
3.30834395515342
30
0
41
1
10
55.3522497484782
20
3.20112277191811
30
0
41
1
10
55.7792298975804
20
3.03258929414653
30
0
41
1
10
55.9216102852377
20
2.97513519393087
30
0
41
1
10
56.2067188008436
20
2.85791895569389
30
0
41
1
10
56.3494795229785
20
2.79806478180512
30
0
41
1
10
56.7766266857784
20
2.6156191361313
30
0
41
1
10
57.0604719480918
20
2.49007187146896
30
0
41
1
10
57.4848931539517
20
2.29626473341761
30
0
41
1
10
57.6261206924842
20
2.23072295885757
30
0
41
1
10
57.9082899910243
20
2.09798267821637
30
0
41
1
10
58.0492468190367
20
2.03078913201358
30
0
41
1
10
58.3310501736126
20
1.89504212475623
30
0
41
1
10
58.4719214677379
20
1.82654396560238
30
0
41
1
10
58.7535621806743
20
1.68827962904547
30
0
41
1
10
58.8943201332601
20
1.61848978309087
30
0
41
1
10
59.31652250494
20
1.40738449414729
30
0
41
1
10
59.5978704278729
20
1.26430162727723
30
0
41
1
10
60.0197893524575
20
1.04633197407102
30
0
41
1
10
60.160418591659
20
0.97312824596986
30
0
41
1
10
60.4417552506049
20
0.825806703052621
30
0
41
1
10
60.5824527796574
20
0.751668861849168
30
0
41
1
10
60.7233025050333
20
0.677269450153602
30
0
0
SPLINE
5
DD
100
AcDbEntity
8
1
62
256
6
ByLayer
370
18
48
1
60
0
100
AcDbSpline
70
4
71
3
72
20
73
16
40
0
40
0
40
0
40
0
40
0.125000000000001
40
0.125000000000001
40
0.250000000000001
40
0.250000000000001
40
0.499999999999997
40
0.499999999999997
40
0.624999999999995
40
0.624999999999995
40
0.687499999999993
40
0.687499999999993
40
0.749999999999992
40
0.749999999999992
40
1
40
1
40
1
40
1
41
1
10
3.75146814611986
20
2.29218203419438
30
0
41
1
10
3.84591751589872
20
2.2181637628521
30
0
41
1
10
3.94244631412985
20
2.14552186040191
30
0
41
1
10
4.1389988127726
20
2.0025773077509
30
0
41
1
10
4.23902548861187
20
1.93227658990895
30
0
41
1
10
4.54364745287205
20
1.72445417259129
30
0
41
1
10
4.75275867383289
20
1.58999492318065
30
0
41
1
10
5.07353108084161
20
1.39328473060496
30
0
41
1
10
5.18164934244575
20
1.32855085525941
30
0
41
1
10
5.34544440486584
20
1.23260455047932
30
0
41
1
10
5.40032250271616
20
1.20080983158417
30
0
41
1
10
5.51038017727029
20
1.13771266621592
30
0
41
1
10
5.5655862075171
20
1.10639464603972
30
0
41
1
10
5.84245910446333
20
0.950906462344193
30
0
41
1
10
6.06664261022303
20
0.830027773944181
30
0
41
1
10
6.29306609114491
20
0.71214248754589
30
0
0
SPLINE
5
DE
100
AcDbEntity
8
1
62
256
6
ByLayer
370
18
48
1
60
0
100
AcDbSpline
70
4
71
3
72
52
73
48
40
0
40
0
40
0
40
0
40
0.0624999999999994
40
0.0624999999999994
40
0.124999999999999
40
0.124999999999999
40
0.156249999999999
40
0.156249999999999
40
0.171874999999998
40
0.171874999999998
40
0.187499999999998
40
0.187499999999998
40
0.249999999999998
40
0.249999999999998
40
0.312499999999998
40
0.312499999999998
40
0.343749999999998
40
0.343749999999998
40
0.359374999999998
40
0.359374999999998
40
0.374999999999998
40
0.374999999999998
40
0.437499999999998
40
0.437499999999998
40
0.499999999999997
40
0.562499999999997
40
0.562499999999997
40
0.578124999999997
40
0.578124999999997
40
0.593749999999997
40
0.624999999999997
40
0.624999999999997
40
0.687499999999998
40
0.687499999999998
40
0.749999999999999
40
0.749999999999999
40
0.781249999999999
40
0.781249999999999
40
0.796874999999999
40
0.796874999999999
40
0.812499999999999
40
0.812499999999999
40
0.875
40
0.875
40
0.9375
40
0.9375
40
1
40
1
40
1
40
1
41
1
10
60.7233025050334
20
0.677269450153574
30
0
41
1
10
60.7145771561262
20
0.528481318698454
30
0
41
1
10
60.7107753184983
20
0.379352213173348
30
0
41
1
10
60.7112381902591
20
0.0804238278701348
30
0
41
1
10
60.7155055848123
20
-0.0693754575004846
30
0
41
1
10
60.7267777011754
20
-0.294582667331468
30
0
41
1
10
60.7313482430618
20
-0.369736600130949
30
0
41
1
10
60.7392860157009
20
-0.482596911656714
30
0
41
1
10
60.7421162516257
20
-0.520284020883366
30
0
41
1
10
60.7480826753993
20
-0.595308901919253
30
0
41
1
10
60.7512208845491
20
-0.632681661667419
30
0
41
1
10
60.767614159861
20
-0.818862645226545
30
0
41
1
10
60.7829625439106
20
-0.965629077277868
30
0
41
1
10
60.8164970481112
20
-1.25509239318268
30
0
41
1
10
60.8346864753747
20
-1.39778858745296
30
0
41
1
10
60.8630919164271
20
-1.60887814048184
30
0
41
1
10
60.8727491533576
20
-1.67874772193756
30
0
41
1
10
60.8874064802399
20
-1.78281371254434
30
0
41
1
10
60.8923209267881
20
-1.81737924109888
30
0
41
1
10
60.9021895994601
20
-1.88626349240383
30
0
41
1
10
60.9071366356041
20
-1.92053164063174
30
0
41
1
10
60.9318068133222
20
-2.0904217675008
30
0
41
1
10
60.9514049848053
20
-2.22227287836864
30
0
41
1
10
60.9894273951162
20
-2.47816291454839
30
0
41
1
10
61.0262788209371
20
-2.72623849632859
30
0
41
1
10
61.0595116694893
20
-2.9587580813492
30
0
41
1
10
61.0788955553235
20
-3.09907756572346
30
0
41
1
10
61.0827067512466
20
-3.12691411905058
30
0
41
1
10
61.0901732063729
20
-3.18197375882028
30
0
41
1
10
61.1011134886091
20
-3.26345152472143
30
0
41
1
10
61.1112774803248
20
-3.34163173097997
30
0
41
1
10
61.1305969528858
20
-3.49366249841074
30
0
41
1
10
61.1421244782305
20
-3.58925377167844
30
0
41
1
10
61.1627968992174
20
-3.76900735903251
30
0
41
1
10
61.1719409403709
20
-3.85316967480532
30
0
41
1
10
61.1842972723816
20
-3.97066494631218
30
0
41
1
10
61.1881914449306
20
-4.00836943007636
30
0
41
1
10
61.1937692879123
20
-4.06268877290151
30
0
41
1
10
61.1955869581705
20
-4.08044305446896
30
0
41
1
10
61.1991383466248
20
-4.11509233132182
30
0
41
1
10
61.2008700499641
20
-4.13196743255
30
0
41
1
10
61.2093512107043
20
-4.21411859822604
30
0
41
1
10
61.215562346521
20
-4.27273748779714
30
0
41
1
10
61.2280232955238
20
-4.37610618588005
30
0
41
1
10
61.2342718812419
20
-4.42085385242223
30
0
41
1
10
61.2481740890508
20
-4.49643461654364
30
0
41
1
10
61.2558249534135
20
-4.52726935682946
30
0
41
1
10
61.2649824635904
20
-4.55093595493781
30
0
0
SPLINE
5
DF
100
AcDbEntity
8
1
62
256
6
ByLayer
370
13
48
1
60
0
100
AcDbSpline
70
4
71
3
72
17
73
13
40
0
40
0
40
0
40
0
40
0.25000000000004
40
0.25000000000004
40
0.375000000000033
40
0.375000000000033
40
0.500000000000025
40
0.625000000000018
40
0.625000000000018
40
0.750000000000011
40
0.750000000000011
40
1
40
1
40
1
40
1
41
1
10
3.63091267143813
20
-3.98223527614096
30
0
41
1
10
3.61031163417093
20
-3.98866395464927
30
0
41
1
10
3.59216956934745
20
-3.99641562267965
30
0
41
1
10
3.568133155802
20
-4.00970636168904
30
0
41
1
10
3.56061994354255
20
-4.0144540480747
30
0
41
1
10
3.54704460427303
20
-4.0242237899034
30
0
41
1
10
3.53482182799289
20
-4.0343073121177
30
0
41
1
10
3.52511252600058
20
-4.04496108990136
30
0
41
1
10
3.51663165129335
20
-4.05588819255181
30
0
41
1
10
3.51299311388675
20
-4.06151715015153
30
0
41
1
10
3.50409477713012
20
-4.07854646341224
30
0
41
1
10
3.50078662869521
20
-4.09015763384164
30
0
41
1
10
3.50012422121327
20
-4.10175400116827
30
0
0
SPLINE
5
E0
100
AcDbEntity
8
1
62
256
6
ByLayer
370
13
48
1
60
0
100
AcDbSpline
70
4
71
3
72
10
73
6
40
0
40
0
40
0
40
0
40
0.5
40
0.5
40
1
40
1
40
1
40
1
41
1
10
3.75034064053446
20
-3.97476958770375
30
0
41
1
10
3.7295060562106
20
-3.97148453283
30
0
41
1
10
3.70910257357733
20
-3.97049947276909
30
0
41
1
10
3.66914688550747
20
-3.97294671081582
30
0
41
1
10
3.64944496698007
20
-3.97645216102299
30
0
41
1
10
3.63091267143813
20
-3.98223527614098
30
0
0
SPLINE
5
E1
100
AcDbEntity
8
1
62
256
6
ByLayer
370
13
48
1
60
0
100
AcDbSpline
70
4
71
3
72
52
73
48
40
0
40
0
40
0
40
0
40
0.0156249999999998
40
0.0156249999999998
40
0.0312499999999997
40
0.0312499999999997
40
0.0624999999999994
40
0.0624999999999994
40
0.124999999999999
40
0.187499999999999
40
0.187499999999999
40
0.218749999999999
40
0.218749999999999
40
0.234374999999998
40
0.234374999999998
40
0.249999999999998
40
0.249999999999998
40
0.312499999999998
40
0.374999999999998
40
0.374999999999998
40
0.406249999999998
40
0.421874999999998
40
0.421874999999998
40
0.437499999999998
40
0.437499999999998
40
0.499999999999998
40
0.499999999999998
40
0.562499999999998
40
0.562499999999998
40
0.624999999999998
40
0.624999999999998
40
0.640624999999998
40
0.640624999999998
40
0.656249999999998
40
0.687499999999999
40
0.687499999999999
40
0.749999999999999
40
0.812499999999999
40
0.812499999999999
40
0.843749999999999
40
0.843749999999999
40
0.859375
40
0.859375
40
0.875
40
0.875
40
0.9375
40
1
40
1
40
1
40
1
41
1
10
3.7514681461185
20
2.29218203419535
30
0
41
1
10
3.75146684010599
20
2.2593909502038
30
0
41
1
10
3.75146538339035
20
2.22631154788604
30
0
41
1
10
3.75146219214349
20
2.15988191629836
30
0
41
1
10
3.75146045682965
20
2.12650670670934
30
0
41
1
10
3.75145484974331
20
2.02590505911033
30
0
41
1
10
3.75145057721429
20
1.95820290318773
30
0
41
1
10
3.75143628470113
20
1.75322328130028
30
0
41
1
10
3.75141330524454
20
1.47493093724836
30
0
41
1
10
3.75138357379208
20
1.18676335644452
30
0
41
1
10
3.75135903293537
20
0.96686256086187
30
0
41
1
10
3.75135047784767
20
0.892931963991231
30
0
41
1
10
3.75133710886232
20
0.781070670422878
30
0
41
1
10
3.75133256963181
20
0.743678929915831
30
0
41
1
10
3.75132336707446
20
0.668974318101192
30
0
41
1
10
3.75131869868764
20
0.63161894819126
30
0
41
1
10
3.75129503777976
20
0.444826933788903
30
0
41
1
10
3.75125515235214
20
0.145862880976352
30
0
41
1
10
3.75121183448454
20
-0.153290606144935
30
0
41
1
10
3.75117817111908
20
-0.377727266074146
30
0
41
1
10
3.75116104398248
20
-0.48996351343402
30
0
41
1
10
3.7511434783502
20
-0.602227030315674
30
0
41
1
10
3.75113166982712
20
-0.677075500512871
30
0
41
1
10
3.75112571150032
20
-0.714534350378869
30
0
41
1
10
3.75109572878227
20
-0.901491538888763
30
0
41
1
10
3.75107135123366
20
-1.04865476911536
30
0
41
1
10
3.75102177167571
20
-1.33832577790577
30
0
41
1
10
3.75099656958869
20
-1.48083316829587
30
0
41
1
10
3.75094516400216
20
-1.76120198337475
30
0
41
1
10
3.75091896109586
20
-1.89906369141755
30
0
41
1
10
3.75088538261667
20
-2.06840774819807
30
0
41
1
10
3.7508786164023
20
-2.10217075095016
30
0
41
1
10
3.75086504121256
20
-2.16916288281473
30
0
41
1
10
3.75084462777053
20
-2.26878645692375
30
0
41
1
10
3.75082403811229
20
-2.36584700987754
30
0
41
1
10
3.75078255220126
20
-2.55660770529724
30
0
41
1
10
3.7507264249632
20
-2.80201004177147
30
0
41
1
10
3.75066778365479
20
-3.02972589323596
30
0
41
1
10
3.75062244884501
20
-3.1937625278774
30
0
41
1
10
3.75060711073615
20
-3.2473143437683
30
0
41
1
10
3.75058370333164
20
-3.32591739316166
30
0
41
1
10
3.75057582945601
20
-3.35184451559616
30
0
41
1
10
3.75056001249632
20
-3.40287806420574
30
0
41
1
10
3.75055206080015
20
-3.4280140769726
30
0
41
1
10
3.7505120647549
20
-3.55180333128573
30
0
41
1
10
3.75044655454252
20
-3.7377927467742
30
0
41
1
10
3.75037685688673
20
-3.89984901558995
30
0
41
1
10
3.75034064053449
20
-3.97476958770378
30
0
0
SPLINE
5
E2
100
AcDbEntity
8
1
62
256
6
ByLayer
370
18
48
1
60
0
100
AcDbSpline
70
4
71
3
72
38
73
34
40
0
40
0
40
0
40
0
40
0.124999999999975
40
0.124999999999975
40
0.249999999999951
40
0.249999999999951
40
0.312499999999938
40
0.312499999999938
40
0.374999999999925
40
0.374999999999925
40
0.437499999999912
40
0.437499999999912
40
0.499999999999899
40
0.499999999999899
40
0.562499999999887
40
0.562499999999887
40
0.593749999999893
40
0.593749999999893
40
0.624999999999898
40
0.624999999999898
40
0.687499999999939
40
0.687499999999939
40
0.74999999999998
40
0.74999999999998
40
0.781249999999983
40
0.781249999999983
40
0.812499999999986
40
0.812499999999986
40
0.874999999999991
40
0.874999999999991
40
0.937499999999995
40
0.937499999999995
40
1
40
1
40
1
40
1
41
1
10
3.50016610067522
20
2.25033710138214
30
0
41
1
10
3.50058350756763
20
2.26059838255816
30
0
41
1
10
3.50178654339774
20
2.270508597663
30
0
41
1
10
3.50596864957512
20
2.28953243407943
30
0
41
1
10
3.50894207616821
20
2.29864866853416
30
0
41
1
10
3.51505720328268
20
2.31157629043156
30
0
41
1
10
3.51737356266943
20
2.31576004600646
30
0
41
1
10
3.52266179908398
20
2.32383060040436
30
0
41
1
10
3.525636485001
20
2.32771683423502
30
0
41
1
10
3.53229345475702
20
2.33502940651212
30
0
41
1
10
3.53598174082867
20
2.33846874598859
30
0
41
1
10
3.54424519539665
20
2.34481063204618
30
0
41
1
10
3.54884109748571
20
2.34772148089775
30
0
41
1
10
3.55898497596411
20
2.35274729824269
30
0
41
1
10
3.56454170626449
20
2.35487722148824
30
0
41
1
10
3.57382372271258
20
2.35732146790099
30
0
41
1
10
3.57707667014299
20
2.35801021349883
30
0
41
1
10
3.58395822107587
20
2.35908943423811
30
0
41
1
10
3.5875903768723
20
2.35947747427304
30
0
41
1
10
3.59888214542977
20
2.36009793186375
30
0
41
1
10
3.60701860000353
20
2.35980584987715
30
0
41
1
10
3.62474559256324
20
2.35743012144977
30
0
41
1
10
3.63394293115004
20
2.35539563081636
30
0
41
1
10
3.64824627953476
20
2.35105404194667
30
0
41
1
10
3.65313749430766
20
2.34937539634697
30
0
41
1
10
3.66283968519207
20
2.34567919790106
30
0
41
1
10
3.66765992738687
20
2.34366247226186
30
0
41
1
10
3.68203751486362
20
2.33715802995576
30
0
41
1
10
3.69158072672991
20
2.33216987383491
30
0
41
1
10
3.70975626762475
20
2.32163609606403
30
0
41
1
10
3.71848651568774
20
2.31605283149168
30
0
41
1
10
3.73540944973018
20
2.304411002872
30
0
41
1
10
3.7436012661893
20
2.29834716642037
30
0
41
1
10
3.75146814613021
20
2.29218203418628
30
0
0
SPLINE
5
E3
100
AcDbEntity
8
1
62
256
6
ByLayer
370
18
48
1
60
0
100
AcDbSpline
70
4
71
3
72
17
73
13
40
0
40
0
40
0
40
0
40
0.404612622597428
40
0.404612622597428
40
0.505765778246784
40
0.556342356071463
40
0.556342356071463
40
0.606918933896142
40
0.606918933896142
40
0.809225245194858
40
0.809225245194858
40
1
40
1
40
1
40
1
41
1
10
3.75034064053449
20
-3.97476958770378
30
0
41
1
10
4.35453987049499
20
-4.13304889668242
30
0
41
1
10
4.95692527150993
20
-4.26127596535395
30
0
41
1
10
5.71098104490676
20
-4.38222280505369
30
0
41
1
10
5.93728213278257
20
-4.41555310722467
30
0
41
1
10
6.16381357934998
20
-4.44440378183435
30
0
41
1
10
6.31489773325924
20
-4.46263567131041
30
0
41
1
10
6.39050790834733
20
-4.47125475798168
30
0
41
1
10
6.76815834914515
20
-4.51176295147135
30
0
41
1
10
7.06912666354592
20
-4.53587746047683
30
0
41
1
10
7.6523100604123
20
-4.56666166618857
30
0
41
1
10
7.93461058478039
20
-4.57426710842674
30
0
41
1
10
8.21648437799169
20
-4.57459722090823
30
0
0
SPLINE
5
E4
100
AcDbEntity
8
1
62
256
6
ByLayer
370
13
48
1
60
0
100
AcDbSpline
70
4
71
3
72
36
73
32
40
0
40
0
40
0
40
0
40
0.0330941858316442
40
0.0330941858316442
40
0.0669328423469393
40
0.0669328423469393
40
0.13461015537753
40
0.13461015537753
40
0.269964781438711
40
0.269964781438711
40
0.337642094469302
40
0.337642094469302
40
0.405319407499892
40
0.405319407499892
40
0.472996720530483
40
0.50683537704578
40
0.523754705303429
40
0.523754705303429
40
0.540674033561078
40
0.540674033561078
40
0.608351346591672
40
0.608351346591672
40
0.676028659622265
40
0.676028659622265
40
0.743705972652858
40
0.743705972652858
40
0.811383285683451
40
0.811383285683451
40
0.946737911744639
40
0.946737911744639
40
1
40
1
40
1
40
1
41
1
10
45.1199190260295
20
2.00352030075703
30
0
41
1
10
45.2670888804183
20
1.93322081821358
30
0
41
1
10
45.4145514264466
20
1.86191401755869
30
0
41
1
10
45.7132129423547
20
1.71590817872342
30
0
41
1
10
45.8638780164636
20
1.641427833005
30
0
41
1
10
46.3150272417379
20
1.41624908116435
30
0
41
1
10
46.6146694298037
20
1.26382101874822
30
0
41
1
10
47.5113235152099
20
0.801730681854366
30
0
41
1
10
48.106094316172
20
0.487319044208903
30
0
41
1
10
48.9977138507263
20
0.0138169752869146
30
0
41
1
10
49.2948656889954
20
-0.144264630510008
30
0
41
1
10
49.8897365783041
20
-0.459616722298961
30
0
41
1
10
50.1874759257025
20
-0.616847205694711
30
0
41
1
10
50.7841334572352
20
-0.929316932448245
30
0
41
1
10
51.2325198146403
20
-1.16215795827566
30
0
41
1
10
51.7581248597012
20
-1.42937652787029
30
0
41
1
10
51.9840192444904
20
-1.54275284362401
30
0
41
1
10
52.1347681954138
20
-1.61806009000975
30
0
41
1
10
52.2102722550034
20
-1.65560156158764
30
0
41
1
10
52.5874755402109
20
-1.84219656773914
30
0
41
1
10
52.8879477084743
20
-1.98777351659467
30
0
41
1
10
53.4870931986221
20
-2.27035799705132
30
0
41
1
10
53.7857539108302
20
-2.40738330271336
30
0
41
1
10
54.3819161648483
20
-2.67195068776979
30
0
41
1
10
54.6794300876098
20
-2.7994876104348
30
0
41
1
10
55.2740454587197
20
-3.04406079912019
30
0
41
1
10
55.5711398434747
20
-3.16109508951692
30
0
41
1
10
56.462737687894
20
-3.49499785271976
30
0
41
1
10
57.0575160595926
20
-3.694741693553
30
0
41
1
10
57.8908336111993
20
-3.93577634272745
30
0
41
1
10
58.1266792499118
20
-3.99971054200853
30
0
41
1
10
58.3631920393294
20
-4.05928266017798
30
0
0
SPLINE
5
E5
100
AcDbEntity
8
1
62
256
6
ByLayer
370
18
48
1
60
0
100
AcDbSpline
70
4
71
3
72
22
73
18
40
0
40
0
40
0
40
0
40
0.0662933104633747
40
0.0662933104633747
40
0.144102201258092
40
0.144102201258092
40
0.221911092052809
40
0.221911092052809
40
0.377528873642245
40
0.377528873642245
40
0.688764436821116
40
0.688764436821116
40
0.844382218410548
40
0.922191109205267
40
0.961095554602635
40
0.961095554602635
40
1
40
1
40
1
40
1
41
1
10
58.363191075299
20
-4.05928241736092
30
0
41
1
10
58.4272028747353
20
-4.07540551699381
30
0
41
1
10
58.4912635433062
20
-4.09120909186222
30
0
41
1
10
58.6306247213935
20
-4.12485686280999
30
0
41
1
10
58.7059451299978
20
-4.14257880304083
30
0
41
1
10
58.8567415505592
20
-4.17711463336659
30
0
41
1
10
58.9322491042438
20
-4.19393497515492
30
0
41
1
10
59.1585692549792
20
-4.24291455172235
30
0
41
1
10
59.3092978989299
20
-4.27362120869077
30
0
41
1
10
59.7611731623937
20
-4.35982506613274
30
0
41
1
10
60.0620067839495
20
-4.40940254067078
30
0
41
1
10
60.5131039706878
20
-4.4716229470757
30
0
41
1
10
60.7386143223351
20
-4.49969956408128
30
0
41
1
10
61.0017476595809
20
-4.52710354483821
30
0
41
1
10
61.1145380796493
20
-4.5376964834725
30
0
41
1
10
61.1897371115446
20
-4.54450199651575
30
0
41
1
10
61.2273288454578
20
-4.54773920025227
30
0
41
1
10
61.2649824635918
20
-4.55093595493781
30
0
0
SPLINE
5
E6
100
AcDbEntity
8
1
62
256
6
ByLayer
370
18
48
1
60
0
100
AcDbSpline
70
4
71
3
72
22
73
18
40
0
40
0
40
0
40
0
40
0.125
40
0.125
40
0.25
40
0.25
40
0.375
40
0.375
40
0.5
40
0.5
40
0.625
40
0.625
40
0.75
40
0.75
40
0.875
40
0.875
40
1
40
1
40
1
40
1
41
1
10
61.2649824635903
20
-4.5509359549377
30
0
41
1
10
61.2653975045139
20
-4.55200858347379
30
0
41
1
10
61.265646804687
20
-4.55356779334215
30
0
41
1
10
61.2657881361143
20
-4.55772182043123
30
0
41
1
10
61.265679208335
20
-4.56033088685842
30
0
41
1
10
61.2650436379532
20
-4.56670010521827
30
0
41
1
10
61.2645254002274
20
-4.57038877311172
30
0
41
1
10
61.2630465525261
20
-4.57887500289797
30
0
41
1
10
61.2620691534025
20
-4.58373862338365
30
0
41
1
10
61.2597189003189
20
-4.59420791684968
30
0
41
1
10
61.2583426274316
20
-4.59984906000352
30
0
41
1
10
61.2551536124507
20
-4.61202364884957
30
0
41
1
10
61.2533897057508
20
-4.61836504708225
30
0
41
1
10
61.2496192108575
20
-4.6312634256559
30
0
41
1
10
61.2475805202678
20
-4.63792313117332
30
0
41
1
10
61.2434539288005
20
-4.65088353378127
30
0
41
1
10
61.2413344996892
20
-4.65729082040724
30
0
41
1
10
61.2392005028352
20
-4.66352759225074
30
0
0
SPLINE
5
E7
100
AcDbEntity
8
1
62
256
6
ByLayer
370
13
48
1
60
0
100
AcDbSpline
70
4
71
3
72
54
73
50
40
0
40
0
40
0
40
0
40
0.0136900005131409
40
0.0136900005131409
40
0.0487924990066454
40
0.0487924990066454
40
0.0663437482533972
40
0.0663437482533972
40
0.0838949975001484
40
0.0838949975001484
40
0.118997495993651
40
0.118997495993651
40
0.154099994487154
40
0.154099994487154
40
0.224304991474159
40
0.224304991474159
40
0.259407489967661
40
0.259407489967661
40
0.294509988461164
40
0.294509988461164
40
0.36471498544817
40
0.36471498544817
40
0.399817483941674
40
0.399817483941674
40
0.434919982435177
40
0.434919982435177
40
0.505124979422188
40
0.505124979422188
40
0.540227477915694
40
0.540227477915694
40
0.557778727162447
40
0.557778727162447
40
0.5753299764092
40
0.5753299764092
40
0.645534973396218
40
0.645534973396218
40
0.680637471889725
40
0.680637471889725
40
0.715739970383233
40
0.715739970383233
40
0.785944967370248
40
0.785944967370248
40
0.856149964357264
40
0.856149964357264
40
0.926354961344279
40
0.926354961344279
40
0.996559958331294
40
0.996559958331294
40
1
40
1
40
1
40
1
41
1
10
17.9674454357668
20
1.97364824516998
30
0
41
1
10
18.0260107424931
20
1.94571159824756
30
0
41
1
10
18.0846095530831
20
1.91762409961584
30
0
41
1
10
18.2935895664309
20
1.8169917698072
30
0
41
1
10
18.4441671859071
20
1.74361107651299
30
0
41
1
10
18.6704497410103
20
1.63216717784019
30
0
41
1
10
18.7459668661412
20
1.5947803084548
30
0
41
1
10
18.8970652554245
20
1.51960854299054
30
0
41
1
10
18.9725370605522
20
1.48187750473468
30
0
41
1
10
19.1987403287059
20
1.36828756340074
30
0
41
1
10
19.3492623959888
20
1.29203708799594
30
0
41
1
10
19.6498760153294
20
1.13873844217966
30
0
41
1
10
19.7999618635714
20
1.06167935186153
30
0
41
1
10
20.2496259458656
20
0.829407604129443
30
0
41
1
10
20.5486206131232
20
0.67311941109071
30
0
41
1
10
20.9964676050218
20
0.437544393526736
30
0
41
1
10
21.1456470757003
20
0.358837781228601
30
0
41
1
10
21.4439199027869
20
0.201291646482872
30
0
41
1
10
21.5930082096984
20
0.122442490863506
30
0
41
1
10
22.0402023069271
20
-0.114190435136635
30
0
41
1
10
22.3382445696459
20
-0.27204575393165
30
0
41
1
10
22.7856964990386
20
-0.507976149759628
30
0
41
1
10
22.9349156762375
20
-0.586470371100035
30
0
41
1
10
23.2336039358118
20
-0.742943362167523
30
0
41
1
10
23.3830688565178
20
-0.820930009871972
30
0
41
1
10
23.8319060302936
20
-1.05398466922711
30
0
41
1
10
24.1317299284435
20
-1.20812998048493
30
0
41
1
10
24.5829760303933
20
-1.43633191711737
30
0
41
1
10
24.7336395727423
20
-1.51190336242982
30
0
41
1
10
24.9600463578662
20
-1.62444103210575
30
0
41
1
10
25.0356283316901
20
-1.66183655213891
30
0
41
1
10
25.1865844071081
20
-1.73614443518349
30
0
41
1
10
25.2619885560122
20
-1.77307179301925
30
0
41
1
10
25.6386757290698
20
-1.95651550171959
30
0
41
1
10
25.9389540072951
20
-2.09946270415017
30
0
41
1
10
26.388300210391
20
-2.30733037777045
30
0
41
1
10
26.5379086017648
20
-2.37553012050526
30
0
41
1
10
26.8368883936825
20
-2.5096302508997
30
0
41
1
10
26.9862532584769
20
-2.5755289890532
30
0
41
1
10
27.4340268637268
20
-2.76959861395025
30
0
41
1
10
27.7321291703362
20
-2.8941464891665
30
0
41
1
10
28.3282794894553
20
-3.13249229106532
30
0
41
1
10
28.6263559579937
20
-3.24632870172181
30
0
41
1
10
29.223141549403
20
-3.462314807414
30
0
41
1
10
29.5218376865324
20
-3.56444049195684
30
0
41
1
10
30.1205628912788
20
-3.75600858567478
30
0
41
1
10
30.420596390795
20
-3.8454816235695
30
0
41
1
10
30.7363838726911
20
-3.9321646718073
30
0
41
1
10
30.7511371391639
20
-3.93619732104691
30
0
41
1
10
30.7658929201243
20
-3.94021349088533
30
0
0
SPLINE
5
E8
100
AcDbEntity
8
1
62
256
6
ByLayer
370
18
48
1
60
0
100
AcDbSpline
70
4
71
3
72
24
73
20
40
0
40
0
40
0
40
0
40
0.0880171921469502
40
0.0880171921469502
40
0.185597217787003
40
0.185597217787003
40
0.380757269067108
40
0.380757269067108
40
0.478337294707157
40
0.478337294707157
40
0.52712730752718
40
0.52712730752718
40
0.575917320347205
40
0.575917320347205
40
0.771077371627317
40
0.771077371627317
40
0.966237422907428
40
0.966237422907428
40
1
40
1
40
1
40
1
41
1
10
30.7658929193396
20
-3.94021349067177
30
0
41
1
10
30.9017064714603
20
-3.97717868371865
30
0
41
1
10
31.0377330391288
20
-4.01274781946844
30
0
41
1
10
31.3250677660269
20
-4.08469656073058
30
0
41
1
10
31.4760365271623
20
-4.12063939478244
30
0
41
1
10
31.9287509806514
20
-4.22277933765935
30
0
41
1
10
32.2303058391528
20
-4.28329714716591
30
0
41
1
10
32.6827974731902
20
-4.36224769431416
30
0
41
1
10
32.8336539624305
20
-4.38659041716323
30
0
41
1
10
33.060043191395
20
-4.42009138969581
30
0
41
1
10
33.1355237733515
20
-4.43075716005382
30
0
41
1
10
33.286531538422
20
-4.4510818807224
30
0
41
1
10
33.3620878677917
20
-4.46074395313639
30
0
41
1
10
33.7394159466718
20
-4.50645674194999
30
0
41
1
10
34.0401537561315
20
-4.53479479893062
30
0
41
1
10
34.6400886466917
20
-4.57495644696527
30
0
41
1
10
34.9392807944778
20
-4.58673199583546
30
0
41
1
10
35.2897127544175
20
-4.59093430777457
30
0
41
1
10
35.3413829159615
20
-4.59130913694884
30
0
41
1
10
35.3930417872494
20
-4.59143921689986
30
0
0
SPLINE
5
E9
100
AcDbEntity
8
1
62
256
6
ByLayer
370
13
48
1
60
0
100
AcDbSpline
70
4
71
3
72
30
73
26
40
0
40
0
40
0
40
0
40
0.0938105836461448
40
0.0938105836461448
40
0.297746549005073
40
0.297746549005073
40
0.399714531684535
40
0.399714531684535
40
0.4252065273544
40
0.4252065273544
40
0.450698523024265
40
0.450698523024265
40
0.501682514363994
40
0.501682514363994
40
0.603650497043456
40
0.603650497043456
40
0.654634488383189
40
0.654634488383189
40
0.705618479722921
40
0.705618479722921
40
0.807586462402383
40
0.807586462402383
40
0.909554445081846
40
0.909554445081846
40
1
40
1
40
1
40
1
41
1
10
36.9223339133584
20
-4.60059666866289
30
0
41
1
10
36.6477563516962
20
-4.62959906339992
30
0
41
1
10
36.3733769558886
20
-4.65164019591299
30
0
41
1
10
35.5023364511897
20
-4.69921609746618
30
0
41
1
10
34.9054365239313
20
-4.69864677334095
30
0
41
1
10
34.0052068794852
20
-4.64691187856366
30
0
41
1
10
33.704342497027
20
-4.62120851456785
30
0
41
1
10
33.3268214128259
20
-4.57851082742491
30
0
41
1
10
33.2512172703981
20
-4.56943752232948
30
0
41
1
10
33.1001077300247
20
-4.55026064003181
30
0
41
1
10
33.024577174004
20
-4.54015470878014
30
0
41
1
10
32.7980388797857
20
-4.50829185322314
30
0
41
1
10
32.647083183889
20
-4.48498687690596
30
0
41
1
10
32.194298863067
20
-4.40897473605
30
0
41
1
10
31.8925593101134
20
-4.35018008649453
30
0
41
1
10
31.4395772874664
20
-4.25024422531192
30
0
41
1
10
31.2885202009977
20
-4.21497334192566
30
0
41
1
10
30.9861907059142
20
-4.14054230289582
30
0
41
1
10
30.8352884434846
20
-4.10147702563495
30
0
41
1
10
30.3834428976617
20
-3.97899352022785
30
0
41
1
10
30.0832595324359
20
-3.89025471486221
30
0
41
1
10
29.4843036258494
20
-3.69965497445867
30
0
41
1
10
29.1855132911241
20
-3.59778203882803
30
0
41
1
10
28.6222810991479
20
-3.39404957634647
30
0
41
1
10
28.3577996175487
20
-3.29348226306834
30
0
41
1
10
28.0933548717149
20
-3.18847471091513
30
0
0
SPLINE
5
EA
100
AcDbEntity
8
1
62
256
6
ByLayer
370
18
48
1
60
0
100
AcDbSpline
70
4
71
3
72
31
73
27
40
0
40
0
40
0
40
0
40
0.0156597070017046
40
0.0156597070017046
40
0.154240634417933
40
0.154240634417933
40
0.223531098126047
40
0.223531098126047
40
0.292821561834161
40
0.292821561834161
40
0.431402489250389
40
0.466047721104446
40
0.466047721104446
40
0.500692952958504
40
0.500692952958504
40
0.569983416666617
40
0.569983416666617
40
0.708564344082845
40
0.708564344082845
40
0.777854807790957
40
0.777854807790957
40
0.847145271499068
40
0.847145271499068
40
0.985726198915289
40
0.985726198915289
40
1
40
1
40
1
40
1
41
1
10
28.0933548721622
20
-3.18847471109268
30
0
41
1
10
28.0596655936015
20
-3.17509713891161
30
0
41
1
10
28.0259769112555
20
-3.16164750248046
30
0
41
1
10
27.6941605945099
20
-3.02847256024194
30
0
41
1
10
27.3959969003073
20
-2.90322120823433
30
0
41
1
10
26.9481092039683
20
-2.70775213962131
30
0
41
1
10
26.7987019082526
20
-2.64133106090205
30
0
41
1
10
26.4996438697472
20
-2.50603539926595
30
0
41
1
10
26.3500009397177
20
-2.4371600164996
30
0
41
1
10
25.9005233090829
20
-2.22710271903887
30
0
41
1
10
25.5250182042699
20
-2.0463235335601
30
0
41
1
10
25.1477875668359
20
-1.85919969627861
30
0
41
1
10
24.9967442117459
20
-1.78386259174749
30
0
41
1
10
24.9211087429408
20
-1.74593152390875
30
0
41
1
10
24.6945414560597
20
-1.63174148692482
30
0
41
1
10
24.5437860754686
20
-1.55501192648163
30
0
41
1
10
24.0922899181612
20
-1.32320006204097
30
0
41
1
10
23.7923301062695
20
-1.16647388281652
30
0
41
1
10
23.3433137102198
20
-0.92930107684785
30
0
41
1
10
23.1937927728171
20
-0.849901004238404
30
0
41
1
10
22.8950173149762
20
-0.690486167918635
30
0
41
1
10
22.7457680191693
20
-0.610462006534391
30
0
41
1
10
22.2982215443285
20
-0.369839536195315
30
0
41
1
10
22.0001117694145
20
-0.208715809910501
30
0
41
1
10
21.671200411497
20
-0.0309283657975072
30
0
41
1
10
21.640485156582
20
-0.0143258371566901
30
0
41
1
10
21.6097687079895
20
0.0022768395938328
30
0
0
SPLINE
5
EB
100
AcDbEntity
8
1
62
256
6
ByLayer
370
18
48
1
60
0
100
AcDbSpline
70
4
71
3
72
8
73
4
40
0
40
0
40
0
40
0
40
1
40
1
40
1
40
1
41
1
10
61.2392005028353
20
-4.66352759225063
30
0
41
1
10
61.2234313835614
20
-4.70961407026141
30
0
41
1
10
61.2078220303184
20
-4.75569658463448
30
0
41
1
10
61.1923777820524
20
-4.80178025049531
30
0
0
SPLINE
5
EC
100
AcDbEntity
8
1
62
256
6
ByLayer
370
13
48
1
60
0
100
AcDbSpline
70
4
71
3
72
28
73
24
40
0
40
0
40
0
40
0
40
0.0160092222997306
40
0.0160092222997306
40
0.0320184445994611
40
0.0640368891989204
40
0.128073778397837
40
0.128073778397837
40
0.256147556795664
40
0.256147556795664
40
0.32018444599458
40
0.32018444599458
40
0.35220289059404
40
0.35220289059404
40
0.3842213351935
40
0.3842213351935
40
0.512295113591346
40
0.512295113591346
40
0.768442670387042
40
0.768442670387042
40
0.896516448784891
40
0.896516448784891
40
1
40
1
40
1
40
1
41
1
10
61.2392005028362
20
-4.66352759225111
30
0
41
1
10
61.2015839259943
20
-4.66062547012595
30
0
41
1
10
61.1639649013987
20
-4.65774648452194
30
0
41
1
10
61.0887354400109
20
-4.65164877156099
30
0
41
1
10
60.9758996662567
20
-4.64210717928657
30
0
41
1
10
60.7126618776006
20
-4.61708383612279
30
0
41
1
10
60.4870620290104
20
-4.59092334506332
30
0
41
1
10
60.0357789950645
20
-4.53236905290322
30
0
41
1
10
59.734811810277
20
-4.48501436296752
30
0
41
1
10
59.2827121384013
20
-4.40178421411997
30
0
41
1
10
59.1319047521853
20
-4.37200832360639
30
0
41
1
10
58.9054585193879
20
-4.32433363194681
30
0
41
1
10
58.829897373247
20
-4.30793102583363
30
0
41
1
10
58.6789739122273
20
-4.2741941859835
30
0
41
1
10
58.6035932288614
20
-4.25685665182905
30
0
41
1
10
58.2270620901135
20
-4.16786271758326
30
0
41
1
10
57.9270218021875
20
-4.08928364235214
30
0
41
1
10
57.0296270919187
20
-3.83274827167486
30
0
41
1
10
56.4347180428404
20
-3.6340077252363
30
0
41
1
10
55.5429961907263
20
-3.30015528471952
30
0
41
1
10
55.2458663981086
20
-3.18290153077493
30
0
41
1
10
54.7082720407612
20
-2.96095883716629
30
0
41
1
10
54.4678878186958
20
-2.85817801150924
30
0
41
1
10
54.2271729650425
20
-2.75207206030274
30
0
0
SPLINE
5
ED
100
AcDbEntity
8
1
62
256
6
ByLayer
370
18
48
1
60
0
100
AcDbSpline
70
4
71
3
72
23
73
19
40
0
40
0
40
0
40
0
40
0.0318408474765034
40
0.0318408474765034
40
0.197678334084281
40
0.197678334084281
40
0.363515820692058
40
0.363515820692058
40
0.404975192344
40
0.404975192344
40
0.446434563995941
40
0.529353307299831
40
0.529353307299831
40
0.695190793907607
40
0.695190793907607
40
0.861028280515385
40
0.861028280515385
40
1
40
1
40
1
40
1
41
1
10
54.2271728039878
20
-2.75207198931059
30
0
41
1
10
54.1699731107398
20
-2.726858638951
30
0
41
1
10
54.1127547482783
20
-2.70145753439203
30
0
41
1
10
53.757392095437
20
-2.54261598303543
30
0
41
1
10
53.4586741315001
20
-2.40437617386249
30
0
41
1
10
52.8593739677745
20
-2.11884394776098
30
0
41
1
10
52.5588109412269
20
-1.97152409122694
30
0
41
1
10
52.1814467130011
20
-1.78241907586232
30
0
41
1
10
52.1058795006165
20
-1.74434518894091
30
0
41
1
10
51.9550149994121
20
-1.667953067931
30
0
41
1
10
51.7289553887474
20
-1.55291489823688
30
0
41
1
10
51.5035538975228
20
-1.43662746564357
30
0
41
1
10
51.0534888176388
20
-1.20265062959874
30
0
41
1
10
50.7544285121155
20
-1.04479827098882
30
0
41
1
10
50.1575518244376
20
-0.726722337094088
30
0
41
1
10
49.8597283219252
20
-0.566512198146086
30
0
41
1
10
49.312940261051
20
-0.270871602556838
30
0
41
1
10
49.0638658118444
20
-0.135651867117758
30
0
41
1
10
48.8147910402939
20
-0.0004252123154913
30
0
0
SPLINE
5
EE
100
AcDbEntity
8
1
62
256
6
ByLayer
370
13
48
1
60
0
100
AcDbSpline
70
4
71
3
72
19
73
15
40
0
40
0
40
0
40
0
40
0.100044944259374
40
0.100044944259374
40
0.400029962839581
40
0.400029962839581
40
0.550022472129685
40
0.550022472129685
40
0.587520599452212
40
0.587520599452212
40
0.625018726774739
40
0.700014981419791
40
0.700014981419791
40
1
40
1
40
1
40
1
41
1
10
9.71522209009785
20
-4.58467970933083
30
0
41
1
10
9.51626896842535
20
-4.6055382082339
30
0
41
1
10
9.31736513482542
20
-4.62276583808369
30
0
41
1
10
8.52177641697006
20
-4.67694751149173
30
0
41
1
10
7.92458980190446
20
-4.68449351920086
30
0
41
1
10
7.02378088318022
20
-4.64519827329943
30
0
41
1
10
6.72266772704666
20
-4.62363899069013
30
0
41
1
10
6.34477272273304
20
-4.5860407960792
30
0
41
1
10
6.26910917295373
20
-4.5779891870045
30
0
41
1
10
6.11792119885308
20
-4.56086251501787
30
0
41
1
10
5.89123557742616
20
-4.5336257506828
30
0
41
1
10
5.66478266343884
20
-4.5017800963102
30
0
41
1
10
4.91021621308096
20
-4.38550395781206
30
0
41
1
10
4.30741136501052
20
-4.26013398187712
30
0
41
1
10
3.70271900933633
20
-4.10373052606593
30
0
0
SPLINE
5
EF
100
AcDbEntity
8
1
62
256
6
ByLayer
370
13
48
1
60
0
100
AcDbSpline
70
4
71
3
72
10
73
6
40
0
40
0
40
0
40
0
40
0.5
40
0.5
40
1
40
1
40
1
40
1
41
1
10
3.70271900933631
20
-4.10373052606593
30
0
41
1
10
3.69026676478353
20
-4.10050975758361
30
0
41
1
10
3.67803549298375
20
-4.09867589684143
30
0
41
1
10
3.65402040018523
20
-4.09770281414208
30
0
41
1
10
3.64215644070879
20
-4.0985923720678
30
0
41
1
10
3.63091267143813
20
-4.10094782720196
30
0
0
SPLINE
5
F0
100
AcDbEntity
8
1
62
256
6
ByLayer
370
13
48
1
60
0
100
AcDbSpline
70
4
71
3
72
8
73
4
40
0
40
0
40
0
40
0
40
1
40
1
40
1
40
1
41
1
10
3.62844635105265
20
-4.20958797045631
30
0
41
1
10
3.62926087905569
20
-4.17337832388478
30
0
41
1
10
3.63008297599603
20
-4.13716499469891
30
0
41
1
10
3.63091267143813
20
-4.10094782720196
30
0
0
SPLINE
5
F1
100
AcDbEntity
8
1
62
256
6
ByLayer
370
18
48
1
60
0
100
AcDbSpline
70
4
71
3
72
91
73
87
40
0
40
0
40
0
40
0
40
0.0025887969239926
40
0.0025887969239926
40
0.0627934938210267
40
0.0627934938210267
40
0.0778446680452844
40
0.0778446680452844
40
0.0853702551574133
40
0.0853702551574133
40
0.0928958422695421
40
0.0928958422695421
40
0.122998190718056
40
0.122998190718056
40
0.183202887615086
40
0.183202887615086
40
0.243407584512116
40
0.243407584512116
40
0.273509932960631
40
0.273509932960631
40
0.28103552007276
40
0.28103552007276
40
0.288561107184889
40
0.288561107184889
40
0.303612281409146
40
0.303612281409146
40
0.363816978306175
40
0.363816978306175
40
0.378868152530432
40
0.378868152530432
40
0.39391932675469
40
0.39391932675469
40
0.424021675203204
40
0.424021675203204
40
0.454124023651719
40
0.454124023651719
40
0.484226372100234
40
0.484226372100234
40
0.491751959212364
40
0.491751959212364
40
0.499277546324493
40
0.514328720548751
40
0.514328720548751
40
0.544431068997269
40
0.544431068997269
40
0.559482243221527
40
0.559482243221527
40
0.574533417445786
40
0.574533417445786
40
0.582059004557915
40
0.582059004557915
40
0.589584591670045
40
0.589584591670045
40
0.604635765894304
40
0.604635765894304
40
0.634738114342823
40
0.634738114342823
40
0.664840462791341
40
0.664840462791341
40
0.725045159688378
40
0.725045159688378
40
0.755147508136896
40
0.755147508136896
40
0.785249856585414
40
0.785249856585414
40
0.792775443697544
40
0.792775443697544
40
0.800301030809674
40
0.815352205033933
40
0.815352205033933
40
0.845454553482452
40
0.845454553482452
40
0.875556901930972
40
0.875556901930972
40
0.905659250379491
40
0.905659250379491
40
0.93576159882801
40
0.93576159882801
40
0.965863947276529
40
0.965863947276529
40
0.980915121500789
40
0.988440708612918
40
0.988440708612918
40
0.995966295725048
40
0.995966295725048
40
1
40
1
40
1
40
1
41
1
10
37.8802219345583
20
-4.60793942556768
30
0
41
1
10
37.8545910509093
20
-4.61226263841942
30
0
41
1
10
37.8289582975206
20
-4.61652561985144
30
0
41
1
10
37.2071632060646
20
-4.71846339349264
30
0
41
1
10
36.6098343846624
20
-4.78350964653819
30
0
41
1
10
35.8579050952995
20
-4.8215032028927
30
0
41
1
10
35.7072566783461
20
-4.8269365128038
30
0
41
1
10
35.4808131190752
20
-4.83179183956304
30
0
41
1
10
35.4052518197335
20
-4.83286016810436
30
0
41
1
10
35.2543874958458
20
-4.83389220134609
30
0
41
1
10
35.1790309303901
20
-4.83385732286044
30
0
41
1
10
34.8025937501893
20
-4.8309449244087
30
0
41
1
10
34.5025424618877
20
-4.8198548135357
30
0
41
1
10
33.6045810228084
20
-4.76092894979109
30
0
41
1
10
33.0089205657823
20
-4.68739769926643
30
0
41
1
10
31.8172808549869
20
-4.47532512777209
30
0
41
1
10
31.2214226292706
20
-4.33672505902936
30
0
41
1
10
30.3230071917743
20
-4.08269208123508
30
0
41
1
10
30.0227593952025
20
-3.99033394114295
30
0
41
1
10
29.6460203741753
20
-3.86555862711674
30
0
41
1
10
29.5706002271045
20
-3.84013809217075
30
0
41
1
10
29.419601288961
20
-3.78837588902601
30
0
41
1
10
29.3440320098925
20
-3.76203672271944
30
0
41
1
10
29.1177067114202
20
-3.68188491682471
30
0
41
1
10
28.9671207045004
20
-3.62686574741321
30
0
41
1
10
28.2154476367199
20
-3.34420693625211
30
0
41
1
10
27.6183011261864
20
-3.09363440599543
30
0
41
1
10
26.8728952890735
20
-2.75631857407828
30
0
41
1
10
26.7238688319498
20
-2.68764759373704
30
0
41
1
10
26.4258924538815
20
-2.54794206644138
30
0
41
1
10
26.2769406520633
20
-2.47690954789363
30
0
41
1
10
25.8299879605851
20
-2.26059169538888
30
0
41
1
10
25.5318939433064
20
-2.11208134579985
30
0
41
1
10
24.9347457741267
20
-1.80757334598866
30
0
41
1
10
24.6356694086014
20
-1.65161266059448
30
0
41
1
10
24.0357606727391
20
-1.33346988908866
30
0
41
1
10
23.7349513868862
20
-1.17124503168679
30
0
41
1
10
23.3573360416313
20
-0.965386929574635
30
0
41
1
10
23.2817455356121
20
-0.924068258213651
30
0
41
1
10
23.1307181112613
20
-0.841306652203969
30
0
41
1
10
22.9042903908578
20
-0.716912280392592
30
0
41
1
10
22.6781704886958
20
-0.591820364899661
30
0
41
1
10
22.2261027058214
20
-0.34113551992229
30
0
41
1
10
21.9249598637992
20
-0.173333069754506
30
0
41
1
10
21.4730642488437
20
0.0784247352473812
30
0
41
1
10
21.3224032122761
20
0.162354930606853
30
0
41
1
10
21.0209674618158
20
0.330137657112687
30
0
41
1
10
20.8701895176397
20
0.413984397729195
30
0
41
1
10
20.6438168637936
20
0.539478914806267
30
0
41
1
10
20.5683255624591
20
0.581265457485927
30
0
41
1
10
20.4172643055031
20
0.664728495140167
30
0
41
1
10
20.341665233723
20
0.70642093870012
30
0
41
1
10
20.1151853125265
20
0.831054078025034
30
0
41
1
10
19.9644981934586
20
0.913618697747779
30
0
41
1
10
19.5131983218466
20
1.15951938961931
30
0
41
1
10
19.2134024775999
20
1.3211635277874
30
0
41
1
10
18.6150682967858
20
1.63839552550303
30
0
41
1
10
18.3165033066986
20
1.7939390218815
30
0
41
1
10
17.4215863793611
20
2.2497081327119
30
0
41
1
10
16.8261829694968
20
2.53933552305341
30
0
41
1
10
15.93001637705
20
2.9445903359516
30
0
41
1
10
15.6308034680206
20
3.07484619207932
30
0
41
1
10
15.0307107682693
20
3.32458955052468
30
0
41
1
10
14.7298233038192
20
3.44406367862646
30
0
41
1
10
14.3521196661488
20
3.58581100667499
30
0
41
1
10
14.2765205870781
20
3.61377278223611
30
0
41
1
10
14.1255755306917
20
3.66876979241593
30
0
41
1
10
13.8993827328494
20
3.74993368312704
30
0
41
1
10
13.6738158499693
20
3.82707082178385
30
0
41
1
10
13.2233825592787
20
3.97588066158104
30
0
41
1
10
12.9240195545362
20
4.0677893214266
30
0
41
1
10
12.3263145023734
20
4.23639967597109
30
0
41
1
10
12.0279809697387
20
4.3131135795897
30
0
41
1
10
11.4316760270859
20
4.450895140885
30
0
41
1
10
11.1336956716395
20
4.51195204535603
30
0
41
1
10
10.5372744299596
20
4.6178554468737
30
0
41
1
10
10.2388412388853
20
4.66271038844931
30
0
41
1
10
9.64085233822698
20
4.73576118630498
30
0
41
1
10
9.34128839554168
20
4.76394949826775
30
0
41
1
10
8.89046554908839
20
4.7933443162014
30
0
41
1
10
8.6646865132833
20
4.80482117896872
30
0
41
1
10
8.43825243032876
20
4.81140095602422
30
0
41
1
10
8.28713924348699
20
4.81469163443353
30
0
41
1
10
8.21152169448368
20
4.81578784018424
30
0
41
1
10
8.09553675088921
20
4.81662533866051
30
0
41
1
10
8.05508001060386
20
4.81675962968609
30
0
41
1
10
8.01463943179027
20
4.81673633977516
30
0
0
SPLINE
5
F2
100
AcDbEntity
8
1
62
256
6
ByLayer
370
18
48
1
60
0
100
AcDbSpline
70
4
71
3
72
42
73
38
40
0
40
0
40
0
40
0
40
0.0087045736467397
40
0.0087045736467397
40
0.102302493673516
40
0.102302493673516
40
0.195900413700291
40
0.195900413700291
40
0.289498333727068
40
0.289498333727068
40
0.312897813733766
40
0.312897813733766
40
0.324597553737115
40
0.324597553737115
40
0.330447423738786
40
0.330447423738786
40
0.336297293740456
40
0.336297293740456
40
0.347997033743806
40
0.347997033743806
40
0.359696773747155
40
0.359696773747155
40
0.371396513750505
40
0.371396513750505
40
0.383096253753855
40
0.383096253753855
40
0.394795993757205
40
0.394795993757205
40
0.406495733760555
40
0.429895213767245
40
0.476694173780626
40
0.476694173780626
40
0.570292093807387
40
0.570292093807387
40
0.944683773914414
40
0.944683773914414
40
1
40
1
40
1
40
1
41
1
10
3.96355880274268
20
-4.81419943745124
30
0
41
1
10
3.96844973179304
20
-4.81419760518997
30
0
41
1
10
3.97334406087478
20
-4.81419227798014
30
0
41
1
10
4.03090547640426
20
-4.81408893764444
30
0
41
1
10
4.08396069257276
20
-4.81359241363862
30
0
41
1
10
4.19080809956549
20
-4.81185521380772
30
0
41
1
10
4.24462273403873
20
-4.81061370815206
30
0
41
1
10
4.35279447406418
20
-4.80744452508088
30
0
41
1
10
4.40715945722718
20
-4.80551704253594
30
0
41
1
10
4.47544423856135
20
-4.80271129411761
30
0
41
1
10
4.48911772995638
20
-4.80213030440484
30
0
41
1
10
4.50965126371622
20
-4.80122967273132
30
0
41
1
10
4.5164974131041
20
-4.80092431240379
30
0
41
1
10
4.52677920305177
20
-4.80045991123524
30
0
41
1
10
4.53022887295185
20
-4.80030640493774
30
0
41
1
10
4.53735625827503
20
-4.80003026284336
30
0
41
1
10
4.54100445064492
20
-4.79990677749066
30
0
41
1
10
4.55209594336998
20
-4.79958140999767
30
0
41
1
10
4.55974636954201
20
-4.79942951746912
30
0
41
1
10
4.5754509987581
20
-4.79923288745732
30
0
41
1
10
4.5833926054795
20
-4.79918950286108
30
0
41
1
10
4.59914437533209
20
-4.79918686247737
30
0
41
1
10
4.60700432619754
20
-4.79922520236013
30
0
41
1
10
4.62268847085122
20
-4.79938998944158
30
0
41
1
10
4.63053271892116
20
-4.79951503668829
30
0
41
1
10
4.64600013380618
20
-4.79981697517408
30
0
41
1
10
4.65365221368688
20
-4.79999301180294
30
0
41
1
10
4.66899274052102
20
-4.80033033083535
30
0
41
1
10
4.69199903003599
20
-4.80083341176228
30
0
41
1
10
4.74564709481771
20
-4.80198694527732
30
0
41
1
10
4.79157272248796
20
-4.80293907724101
30
0
41
1
10
4.88334521805558
20
-4.80478997948012
30
0
41
1
10
4.94442662038335
20
-4.80595287071543
30
0
41
1
10
5.24925938638063
20
-4.81134909106072
30
0
41
1
10
5.49125757203555
20
-4.81433246329428
30
0
41
1
10
5.76699454328295
20
-4.81527718524413
30
0
41
1
10
5.80244871597878
20
-4.81535145313131
30
0
41
1
10
5.83785657576303
20
-4.81537572147065
30
0
0
SPLINE
5
F3
100
AcDbEntity
8
1
62
256
6
ByLayer
370
18
48
1
60
0
100
AcDbSpline
70
4
71
3
72
83
73
79
40
0
40
0
40
0
40
0
40
0.0087195975003701
40
0.0087195975003701
40
0.0178981197457379
40
0.0178981197457379
40
0.0270766419911057
40
0.0270766419911057
40
0.0454336864818412
40
0.0454336864818412
40
0.0821477754633124
40
0.0821477754633124
40
0.100504819954048
40
0.100504819954048
40
0.109683342199415
40
0.109683342199415
40
0.118861864444783
40
0.118861864444783
40
0.192290042407721
40
0.192290042407721
40
0.229004131389191
40
0.229004131389191
40
0.265718220370661
40
0.265718220370661
40
0.284075264861395
40
0.284075264861395
40
0.293253787106762
40
0.293253787106762
40
0.302432309352128
40
0.339146398333594
40
0.339146398333594
40
0.357503442824327
40
0.357503442824327
40
0.366681965069694
40
0.366681965069694
40
0.37586048731506
40
0.37586048731506
40
0.412574576296527
40
0.412574576296527
40
0.486002754259461
40
0.486002754259461
40
0.522716843240928
40
0.522716843240928
40
0.541073887731661
40
0.550252409977028
40
0.550252409977028
40
0.559430932222395
40
0.559430932222395
40
0.632859110185329
40
0.632859110185329
40
0.642037632430696
40
0.642037632430696
40
0.651216154676062
40
0.669573199166796
40
0.669573199166796
40
0.706287288148264
40
0.706287288148264
40
0.724644332638998
40
0.724644332638998
40
0.733822854884365
40
0.733822854884365
40
0.743001377129732
40
0.7797154661112
40
0.7797154661112
40
0.853143644074135
40
0.853143644074135
40
0.889857733055603
40
0.889857733055603
40
0.89903625530097
40
0.903625516423653
40
0.903625516423653
40
0.908214777546335
40
0.908214777546335
40
0.926571822037068
40
0.926571822037068
40
0.963285911018534
40
0.963285911018534
40
1
40
1
40
1
40
1
41
1
10
27.3554513740347
20
3.48492383348176
30
0
41
1
10
27.4543328132591
20
3.52310578204239
30
0
41
1
10
27.5532460408071
20
3.56062321059648
30
0
41
1
10
27.7563700498793
20
3.63623277457017
30
0
41
1
10
27.8605863539163
20
3.67425021363803
30
0
41
1
10
28.0691519596338
20
3.74872737792165
30
0
41
1
10
28.1735340134465
20
3.78519759228823
30
0
41
1
10
28.4863457417478
20
3.89200827512474
30
0
41
1
10
28.6946108807507
20
3.95981126052354
30
0
41
1
10
29.3189874492628
20
4.1526386080225
30
0
41
1
10
29.7346649164887
20
4.26709748948417
30
0
41
1
10
30.3588341256079
20
4.41630969131521
30
0
41
1
10
30.5670014241069
20
4.4622992072685
30
0
41
1
10
30.8796236893953
20
4.52548757681944
30
0
41
1
10
30.9839093044473
20
4.54558727879581
30
0
41
1
10
31.1925728067596
20
4.58381419327631
30
0
41
1
10
31.2967553713866
20
4.601906341936
30
0
41
1
10
32.233188038233
20
4.75554912810648
30
0
41
1
10
33.0568924956918
20
4.82679618480907
30
0
41
1
10
34.2915775143131
20
4.835477016743
30
0
41
1
10
34.7029800849805
20
4.82202199158945
30
0
41
1
10
35.527335842588
20
4.76243469322128
30
0
41
1
10
35.9402918481929
20
4.71629539220365
30
0
41
1
10
36.5624589901938
20
4.62265689162294
30
0
41
1
10
36.7703065263042
20
4.58737538662797
30
0
41
1
10
37.0829513684493
20
4.52836150193988
30
0
41
1
10
37.1873231984702
20
4.50767082458768
30
0
41
1
10
37.3957816019803
20
4.46439510546756
30
0
41
1
10
37.916592755476
20
4.35140171534331
30
0
41
1
10
38.4361440976816
20
4.21474576273036
30
0
41
1
10
39.0599839091101
20
4.02949652527937
30
0
41
1
10
39.2679874078664
20
3.9641985566461
30
0
41
1
10
39.5802532718013
20
3.86108750654213
30
0
41
1
10
39.6843854957069
20
3.82585657443789
30
0
41
1
10
39.8927682702893
20
3.75370145022077
30
0
41
1
10
39.9970484185947
20
3.71676652373284
30
0
41
1
10
40.5185116774477
20
3.52804552401361
30
0
41
1
10
40.9332300214709
20
3.36508514865983
30
0
41
1
10
42.1732365636118
20
2.84520407256295
30
0
41
1
10
42.9944775697153
20
2.45744213705055
30
0
41
1
10
44.2296883422787
20
1.83221758791336
30
0
41
1
10
44.6419986004475
20
1.61656977656247
30
0
41
1
10
45.2628110936972
20
1.28461017763118
30
0
41
1
10
45.5738019864056
20
1.11650468133698
30
0
41
1
10
45.8859587007174
20
0.945673761657673
30
0
41
1
10
46.0943558465484
20
0.831235207996571
30
0
41
1
10
46.1986905311636
20
0.773745445235789
30
0
41
1
10
47.1364267734603
20
0.255625946907685
30
0
41
1
10
47.965827038092
20
-0.212523133001639
30
0
41
1
10
48.9032593828541
20
-0.731521346922051
30
0
41
1
10
49.0075112372476
20
-0.789097105671942
30
0
41
1
10
49.2160313136953
20
-0.903894431477653
30
0
41
1
10
49.5285873781843
20
-1.07542265130186
30
0
41
1
10
49.8406258038751
20
-1.24468380480212
30
0
41
1
10
50.4644199545076
20
-1.57949253404937
30
0
41
1
10
50.8798973665857
20
-1.79776337428453
30
0
41
1
10
51.503971341639
20
-2.1153336166648
30
0
41
1
10
51.7121412515253
20
-2.21954689484193
30
0
41
1
10
52.0248098541697
20
-2.37306985773026
30
0
41
1
10
52.1291117715533
20
-2.42378172411156
30
0
41
1
10
52.3372795674481
20
-2.5239278592191
30
0
41
1
10
52.8569889909454
20
-2.77128520042012
30
0
41
1
10
53.3735267619631
20
-3.00313299111281
30
0
41
1
10
54.6102652709326
20
-3.52591654907542
30
0
41
1
10
55.4309707827733
20
-3.82941106585002
30
0
41
1
10
56.6675172469667
20
-4.20376736523315
30
0
41
1
10
57.0806337636998
20
-4.31503678214932
30
0
41
1
10
57.5995684567463
20
-4.43566832450836
30
0
41
1
10
57.7554406369052
20
-4.47047326937641
30
0
41
1
10
57.9116325417181
20
-4.5031639574334
30
0
41
1
10
58.0158350511019
20
-4.52448368224478
30
0
41
1
10
58.0679851730511
20
-4.5349085856493
30
0
41
1
10
58.3285404038058
20
-4.58576229338294
30
0
41
1
10
58.5366426211622
20
-4.62243913357813
30
0
41
1
10
59.1602847342599
20
-4.72034018687444
30
0
41
1
10
59.5751639284568
20
-4.76943268621312
30
0
41
1
10
60.4051423533102
20
-4.83461434085078
30
0
41
1
10
60.8202335271463
20
-4.85069851228789
30
0
41
1
10
61.2365087824062
20
-4.84995513889484
30
0
0
SPLINE
5
F4
100
AcDbEntity
8
1
62
256
6
ByLayer
370
18
48
1
60
0
100
AcDbSpline
70
4
71
3
72
8
73
4
40
0
40
0
40
0
40
0
40
1
40
1
40
1
40
1
41
1
10
61.236508782411
20
-4.84995513889484
30
0
41
1
10
61.2163950328091
20
-4.85095717224849
30
0
41
1
10
61.2027096638083
20
-4.83484705493183
30
0
41
1
10
61.1923777820573
20
-4.80178025047968
30
0
0
SPLINE
5
F5
100
AcDbEntity
8
1
62
256
6
ByLayer
370
18
48
1
60
0
100
AcDbSpline
70
4
71
3
72
73
73
69
40
0
40
0
40
0
40
0
40
0.0346284375078417
40
0.0346284375078417
40
0.0519426562617626
40
0.0605997656387236
40
0.0605997656387236
40
0.0692568750156847
40
0.0692568750156847
40
0.103885312523529
40
0.103885312523529
40
0.138513750031373
40
0.138513750031373
40
0.207770625047063
40
0.207770625047063
40
0.242399062554907
40
0.242399062554907
40
0.277027500062752
40
0.277027500062752
40
0.294341718816674
40
0.294341718816674
40
0.302998828193635
40
0.302998828193635
40
0.311655937570597
40
0.311655937570597
40
0.34628437507844
40
0.34628437507844
40
0.380912812586284
40
0.380912812586284
40
0.398227031340205
40
0.406884140717166
40
0.406884140717166
40
0.415541250094127
40
0.415541250094127
40
0.45016968760197
40
0.45016968760197
40
0.484798125109812
40
0.484798125109812
40
0.519426562617654
40
0.519426562617654
40
0.528083671994614
40
0.528083671994614
40
0.536740781371575
40
0.554055000125496
40
0.554055000125496
40
0.692568750156873
40
0.692568750156873
40
0.727197187664717
40
0.744511406418639
40
0.7531685157956
40
0.7531685157956
40
0.761825625172561
40
0.761825625172561
40
0.796454062680403
40
0.796454062680403
40
0.831082500188245
40
0.831082500188245
40
0.865710937696086
40
0.865710937696086
40
0.900339375203928
40
0.900339375203928
40
0.969596250219612
40
0.969596250219612
40
0.986910468973533
40
0.986910468973533
40
0.995567578350493
40
0.995567578350493
40
1
40
1
40
1
40
1
41
1
10
61.1923777820529
20
-4.80178025047985
30
0
41
1
10
60.8909451861968
20
-4.77780436041013
30
0
41
1
10
60.5897031262908
20
-4.74511534568745
30
0
41
1
10
60.1376097449203
20
-4.68326855719684
30
0
41
1
10
59.9115047383539
20
-4.64914150498112
30
0
41
1
10
59.685219290137
20
-4.61024842334459
30
0
41
1
10
59.5343112731031
20
-4.58326473633684
30
0
41
1
10
59.4587970877433
20
-4.56923849986799
30
0
41
1
10
59.0816833153979
20
-4.49660097014285
30
0
41
1
10
58.7812404019746
20
-4.43043539957907
30
0
41
1
10
58.182005552977
20
-4.28291930253374
30
0
41
1
10
57.8832167253727
20
-4.20157172203432
30
0
41
1
10
56.9884309936924
20
-3.93581177812936
30
0
41
1
10
56.393737126158
20
-3.72992888289602
30
0
41
1
10
55.4999005991293
20
-3.38333970865668
30
0
41
1
10
55.2016559301956
20
-3.26151929375041
30
0
41
1
10
54.603875863952
20
-3.00610082600076
30
0
41
1
10
54.3043476105609
20
-2.87248993925513
30
0
41
1
10
53.8534817632473
20
-2.66395848288582
30
0
41
1
10
53.7029287601996
20
-2.59309921122349
30
0
41
1
10
53.476630594239
20
-2.484873594757
30
0
41
1
10
53.4011079225004
20
-2.44846893322938
30
0
41
1
10
53.2502145818659
20
-2.37518216268472
30
0
41
1
10
53.1748048975448
20
-2.33828153159507
30
0
41
1
10
52.7979141005934
20
-2.15253786339082
30
0
41
1
10
52.4969206178915
20
-1.99994834466224
30
0
41
1
10
51.8950803424952
20
-1.6882652062651
30
0
41
1
10
51.594218128515
20
-1.52919864795814
30
0
41
1
10
51.1424424603197
20
-1.28672632157031
30
0
41
1
10
50.9164349226156
20
-1.16452049658579
30
0
41
1
10
50.6901412212002
20
-1.04104055361608
30
0
41
1
10
50.5392031403455
20
-0.958457784182258
30
0
41
1
10
50.463671921268
20
-0.917021538152284
30
0
41
1
10
50.0862651783085
20
-0.709492253219508
30
0
41
1
10
49.784921370681
20
-0.542238382234075
30
0
41
1
10
49.1827430413981
20
-0.206444300356537
30
0
41
1
10
48.8818995828555
20
-0.0379199682624005
30
0
41
1
10
48.2798177096302
20
0.298791304897208
30
0
41
1
10
47.9785594593483
20
0.466942470473015
30
0
41
1
10
47.6012574120415
20
0.676053470657365
30
0
41
1
10
47.5257208256907
20
0.717843977742234
30
0
41
1
10
47.3748088047898
20
0.801161921242226
30
0
41
1
10
47.148672945736
20
0.92574798127157
30
0
41
1
10
46.9231860929028
20
1.04908541109606
30
0
41
1
10
45.5723734771094
20
1.78330886627796
30
0
41
1
10
44.3865699950223
20
2.39453506687983
30
0
41
1
10
42.893083868359
20
3.05876561059961
30
0
41
1
10
42.4441845572115
20
3.25053827743136
30
0
41
1
10
41.9179835829328
20
3.45958139440702
30
0
41
1
10
41.6918309016944
20
3.54585525943622
30
0
41
1
10
41.540908873487
20
3.60261540348833
30
0
41
1
10
41.4653556124017
20
3.63062250127479
30
0
41
1
10
41.0882348899319
20
3.76833814950228
30
0
41
1
10
40.7877732523267
20
3.87140467451479
30
0
41
1
10
40.1884657775709
20
4.06268040786694
30
0
41
1
10
39.889614160148
20
4.15088819174613
30
0
41
1
10
39.2928386528696
20
4.31199845072905
30
0
41
1
10
38.9949173298915
20
4.38489896364516
30
0
41
1
10
38.3992014651316
20
4.51482951153488
30
0
41
1
10
38.1014035819832
20
4.57186063918692
30
0
41
1
10
37.2071632060645
20
4.71846339349264
30
0
41
1
10
36.6098343846624
20
4.78350964653819
30
0
41
1
10
35.8579050952995
20
4.8215032028927
30
0
41
1
10
35.7072566783461
20
4.82693651280383
30
0
41
1
10
35.4808131190751
20
4.83179183956304
30
0
41
1
10
35.4052518197334
20
4.83286016810436
30
0
41
1
10
35.2911985507768
20
4.83364038414126
30
0
41
1
10
35.2525972607657
20
4.83376017090632
30
0
41
1
10
35.2140149197712
20
4.83373598711489
30
0
0
SPLINE
5
F6
100
AcDbEntity
8
1
62
256
6
ByLayer
370
18
48
1
60
0
100
AcDbSpline
70
4
71
3
72
21
73
17
40
0
40
0
40
0
40
0
40
0.103598375781233
40
0.103598375781233
40
0.231655750669633
40
0.231655750669633
40
0.295684438113833
40
0.327698781835932
40
0.327698781835932
40
0.359713125558032
40
0.359713125558032
40
0.487770500446426
40
0.487770500446426
40
0.743885250223213
40
0.743885250223213
40
1
40
1
40
1
40
1
41
1
10
10.6645833633056
20
-4.5943573623309
30
0
41
1
10
10.4232522868186
20
-4.63468619187833
30
0
41
1
10
10.181733204303
20
-4.66968675119722
30
0
41
1
10
9.64085233822692
20
-4.73576118630498
30
0
41
1
10
9.34128839554162
20
-4.76394949826775
30
0
41
1
10
8.89046554908836
20
-4.7933443162014
30
0
41
1
10
8.6646865132833
20
-4.80482117896872
30
0
41
1
10
8.43825243032876
20
-4.81140095602419
30
0
41
1
10
8.28713924348699
20
-4.81469163443353
30
0
41
1
10
8.21152169448368
20
-4.81578784018424
30
0
41
1
10
7.83396619930377
20
-4.81851407466024
30
0
41
1
10
7.53287437396989
20
-4.81189792638679
30
0
41
1
10
6.6312810893692
20
-4.76613139762608
30
0
41
1
10
6.03251489483568
20
-4.70103113670748
30
0
41
1
10
4.83320386937561
20
-4.50443587202065
30
0
41
1
10
4.23264711770082
20
-4.37300782154207
30
0
41
1
10
3.62844635105273
20
-4.20958797045694
30
0
0
SPLINE
5
F7
100
AcDbEntity
8
1
62
256
6
ByLayer
370
18
48
1
60
0
100
AcDbSpline
70
4
71
3
72
17
73
13
40
0
40
0
40
0
40
0
40
0.249999999999948
40
0.249999999999948
40
0.374999999999952
40
0.374999999999952
40
0.499999999999955
40
0.624999999999959
40
0.624999999999959
40
0.749999999999963
40
0.749999999999963
40
1
40
1
40
1
40
1
41
1
10
3.62844635105265
20
-4.20958797045694
30
0
41
1
10
3.60984232090425
20
-4.20455608700982
30
0
41
1
10
3.592937590498
20
-4.19847005203843
30
0
41
1
10
3.57004870286158
20
-4.1877455000259
30
0
41
1
10
3.5627888703483
20
-4.1838706382606
30
0
41
1
10
3.54943437152752
20
-4.17572346839685
30
0
41
1
10
3.5372242968584
20
-4.16718694902727
30
0
41
1
10
3.52724873352355
20
-4.15786920778683
30
0
41
1
10
3.51841737311821
20
-4.14814188380223
30
0
41
1
10
3.51458592475098
20
-4.14307075474662
30
0
41
1
10
3.50514307377918
20
-4.127659701444
30
0
41
1
10
3.50141174200147
20
-4.11698486234738
30
0
41
1
10
3.50032595171908
20
-4.10588471651104
30
0
0
SPLINE
5
F8
100
AcDbEntity
8
1
62
256
6
ByLayer
370
18
48
1
60
0
100
AcDbSpline
70
4
71
3
72
8
73
4
40
0
40
0
40
0
40
0
40
1
40
1
40
1
40
1
41
1
10
3.50032595171902
20
-4.10588471651849
30
0
41
1
10
3.50019157416546
20
-4.10451096095431
30
0
41
1
10
3.50012420025871
20
-4.10313316206961
30
0
41
1
10
3.50012422121327
20
-4.10175400116503
30
0
0
SPLINE
5
F9
100
AcDbEntity
8
1
62
256
6
ByLayer
370
18
48
1
60
0
100
AcDbSpline
70
4
71
3
72
49
73
45
40
0
40
0
40
0
40
0
40
0.0312500000000001
40
0.0312500000000001
40
0.0468750000000001
40
0.0468750000000001
40
0.0625000000000001
40
0.125
40
0.1875
40
0.25
40
0.25
40
0.265625
40
0.265625
40
0.28125
40
0.3125
40
0.3125
40
0.375
40
0.4375
40
0.4375
40
0.468750000000001
40
0.484375000000001
40
0.484375000000001
40
0.500000000000001
40
0.500000000000001
40
0.562500000000001
40
0.562500000000001
40
0.625000000000001
40
0.687500000000001
40
0.687500000000001
40
0.703125000000001
40
0.703125000000001
40
0.718750000000001
40
0.718750000000001
40
0.750000000000001
40
0.750000000000001
40
0.812500000000001
40
0.875
40
0.875
40
0.90625
40
0.921875
40
0.921875
40
0.9375
40
0.9375
40
1
40
1
40
1
40
1
41
1
10
3.5001242212133
20
-4.10175400116853
30
0
41
1
10
3.50012482656413
20
-4.06191158221799
30
0
41
1
10
3.50012542500724
20
-4.02053887804914
30
0
41
1
10
3.50012631367576
20
-3.95617908324425
30
0
41
1
10
3.50012660859636
20
-3.93432664004118
30
0
41
1
10
3.50012719375829
20
-3.88999880683346
30
0
41
1
10
3.50012864590639
20
-3.77755293205217
30
0
41
1
10
3.50013116972397
20
-3.56071949259149
30
0
41
1
10
3.50013439318985
20
-3.24156430786684
30
0
41
1
10
3.50013647836087
20
-3.00872427753561
30
0
41
1
10
3.50013777060457
20
-2.85674459197639
30
0
41
1
10
3.50013802874446
20
-2.82599604193533
30
0
41
1
10
3.50013854303066
20
-2.76397815674395
30
0
41
1
10
3.50013931001411
20
-2.67034795871035
30
0
41
1
10
3.50014006482289
20
-2.57492863053486
30
0
41
1
10
3.50014156095654
20
-2.38174421725532
30
0
41
1
10
3.50014352005269
20
-2.11791983185958
30
0
41
1
10
3.50014543152346
20
-1.84177079768602
30
0
41
1
10
3.50014685378423
20
-1.62997645954934
30
0
41
1
10
3.50014756204399
20
-1.52290674208751
30
0
41
1
10
3.500148266888
20
-1.41404865899025
30
0
41
1
10
3.50014873609999
20
-1.34107455912607
30
0
41
1
10
3.50014897003752
20
-1.30443672055594
30
0
41
1
10
3.50015013222432
20
-1.12118399597327
30
0
41
1
10
3.50015104231005
20
-0.973734506389007
30
0
41
1
10
3.50015282662045
20
-0.677189457511815
30
0
41
1
10
3.50015457504441
20
-0.378998028226618
30
0
41
1
10
3.50015624913399
20
-0.0775221074642332
30
0
41
1
10
3.50015726827303
20
0.111951811653284
30
0
41
1
10
3.50015747072936
20
0.149899281364782
30
0
41
1
10
3.50015787274703
20
0.225900684091528
30
0
41
1
10
3.50015807252925
20
0.26399774411928
30
0
41
1
10
3.50015866438036
20
0.377891180057162
30
0
41
1
10
3.50015904967407
20
0.453421151789172
30
0
41
1
10
3.50016017634829
20
0.678836772064329
30
0
41
1
10
3.50016160100344
20
0.976264670593423
30
0
41
1
10
3.50016284805659
20
1.26755067586223
30
0
41
1
10
3.50016370425735
20
1.48369218131546
30
0
41
1
10
3.50016411252028
20
1.59118124008353
30
0
41
1
10
3.50016448804138
20
1.69778516843885
30
0
41
1
10
3.50016473073333
20
1.76865570716279
30
0
41
1
10
3.50016484834393
20
1.80401951970254
30
0
41
1
10
3.50016541526475
20
1.9800253349168
30
0
41
1
10
3.50016579755956
20
2.11702556881352
30
0
41
1
10
3.50016610067502
20
2.25033710138516
30
0
0
SPLINE
5
FA
100
AcDbEntity
8
1
62
256
6
ByLayer
370
18
48
1
60
0
100
AcDbSpline
70
4
71
3
72
105
73
101
40
0
40
0
40
0
40
0
40
0.0156249999999984
40
0.0156249999999984
40
0.0312499999999968
40
0.0312499999999968
40
0.0624999999999948
40
0.0624999999999948
40
0.0937499999999928
40
0.0937499999999928
40
0.101562499999993
40
0.101562499999993
40
0.109374999999993
40
0.124999999999994
40
0.124999999999994
40
0.156249999999995
40
0.156249999999995
40
0.171874999999995
40
0.171874999999995
40
0.179687499999995
40
0.179687499999995
40
0.187499999999995
40
0.187499999999995
40
0.218749999999995
40
0.218749999999995
40
0.226562499999994
40
0.226562499999994
40
0.234374999999994
40
0.234374999999994
40
0.249999999999993
40
0.249999999999993
40
0.281249999999992
40
0.281249999999992
40
0.289062499999992
40
0.289062499999992
40
0.296874999999992
40
0.312499999999991
40
0.32812499999999
40
0.32812499999999
40
0.335937499999989
40
0.335937499999989
40
0.343749999999988
40
0.343749999999988
40
0.374999999999984
40
0.374999999999984
40
0.40624999999998
40
0.40624999999998
40
0.421874999999977
40
0.421874999999977
40
0.437499999999974
40
0.437499999999974
40
0.468749999999969
40
0.468749999999969
40
0.499999999999964
40
0.499999999999964
40
0.531249999999958
40
0.531249999999958
40
0.546874999999956
40
0.546874999999956
40
0.562499999999954
40
0.562499999999954
40
0.578124999999952
40
0.578124999999952
40
0.582031249999952
40
0.582031249999952
40
0.583984374999952
40
0.583984374999952
40
0.584960937499951
40
0.584960937499951
40
0.585937499999951
40
0.585937499999951
40
0.587890624999951
40
0.587890624999951
40
0.589843749999951
40
0.589843749999951
40
0.591796874999951
40
0.591796874999951
40
0.59374999999995
40
0.59374999999995
40
0.59570312499995
40
0.59570312499995
40
0.59765624999995
40
0.60156249999995
40
0.60937499999995
40
0.60937499999995
40
0.624999999999953
40
0.624999999999953
40
0.687499999999959
40
0.687499999999959
40
0.718749999999964
40
0.718749999999964
40
0.749999999999968
40
0.749999999999968
40
0.812499999999976
40
0.812499999999976
40
0.874999999999984
40
0.874999999999984
40
0.937499999999992
40
0.937499999999992
40
1
40
1
40
1
40
1
41
1
10
3.50016610067075
20
2.25033710138015
30
0
41
1
10
3.45134167469936
20
2.28669511138932
30
0
41
1
10
3.40289966848138
20
2.32336964234094
30
0
41
1
10
3.30685148657045
20
2.39740729878233
30
0
41
1
10
3.25932609950741
20
2.43470981739486
30
0
41
1
10
3.11886114571536
20
2.54714138448478
30
0
41
1
10
3.02783117938577
20
2.62293747201593
30
0
41
1
10
2.85195499293002
20
2.77648628388164
30
0
41
1
10
2.76710096328398
20
2.85423654562152
30
0
41
1
10
2.66576405829844
20
2.95290166079917
30
0
41
1
10
2.64572532516152
20
2.97271911140857
30
0
41
1
10
2.60631873573789
20
3.012340958832
30
0
41
1
10
2.54815525892803
20
3.07181218795941
30
0
41
1
10
2.49294428716269
20
3.13140152440434
30
0
41
1
10
2.38682311440104
20
3.25074827397421
30
0
41
1
10
2.3217726494309
20
3.33053483879559
30
0
41
1
10
2.23473608659862
20
3.45061921708935
30
0
41
1
10
2.20748855006292
20
3.49071520454109
30
0
41
1
10
2.16961546960374
20
3.5509755271728
30
0
41
1
10
2.15746535671929
20
3.57112919043988
30
0
41
1
10
2.13440584483499
20
3.61117859620597
30
0
41
1
10
2.12348950512106
20
3.63108063027258
30
0
41
1
10
2.07206266265226
20
3.72996127966317
30
0
41
1
10
2.04097390486254
20
3.80705778379976
30
0
41
1
10
2.01647528537609
20
3.90060054589202
30
0
41
1
10
2.0122965208916
20
3.91916727653393
30
0
41
1
10
2.00543843077782
20
3.95600724907379
30
0
41
1
10
2.00275757575184
20
3.97432504182794
30
0
41
1
10
1.99710438950606
20
4.02821605365222
30
0
41
1
10
1.99647633449311
20
4.06288335581806
30
0
41
1
10
2.00380857439151
20
4.16321205737395
30
0
41
1
10
2.02096719542863
20
4.22520635441893
30
0
41
1
10
2.05736365041895
20
4.29683862604548
30
0
41
1
10
2.06540855409787
20
4.31089061764604
30
0
41
1
10
2.0827984599305
20
4.33813679436591
30
0
41
1
10
2.11087995342737
20
4.37782462150693
30
0
41
1
10
2.16718344746778
20
4.43837200511231
30
0
41
1
10
2.22151268902584
20
4.48138442733895
30
0
41
1
10
2.26548118059287
20
4.51177922220469
30
0
41
1
10
2.28068388013875
20
4.52160522022641
30
0
41
1
10
2.31208846971799
20
4.54063700950965
30
0
41
1
10
2.32821882327653
20
4.54980044726963
30
0
41
1
10
2.41087266139343
20
4.59397697818866
30
0
41
1
10
2.48335366852609
20
4.62411043648572
30
0
41
1
10
2.63839681173124
20
4.67628975317095
30
0
41
1
10
2.72097661208548
20
4.69832026817437
30
0
41
1
10
2.85113282005821
20
4.72643581329532
30
0
41
1
10
2.89557146244914
20
4.73498127180713
30
0
41
1
10
2.98639087873397
20
4.75056708065182
30
0
41
1
10
3.03252164283617
20
4.75756479595617
30
0
41
1
10
3.17277754538267
20
4.77642915517094
30
0
41
1
10
3.26879494210692
20
4.78618477474782
30
0
41
1
10
3.46500078872353
20
4.80114438255609
30
0
41
1
10
3.56519322932314
20
4.80634336675524
30
0
41
1
10
3.7691489010877
20
4.8129588554055
30
0
41
1
10
3.87291434909025
20
4.8143725800112
30
0
41
1
10
4.03090547639977
20
4.81408893764447
30
0
41
1
10
4.08396069256821
20
4.81359241363867
30
0
41
1
10
4.19080809956083
20
4.8118552138078
30
0
41
1
10
4.24462273403401
20
4.81061370815218
30
0
41
1
10
4.35279447405935
20
4.80744452508102
30
0
41
1
10
4.40715945722229
20
4.80551704253611
30
0
41
1
10
4.47544423855635
20
4.80271129411781
30
0
41
1
10
4.4891177299514
20
4.80213030440504
30
0
41
1
10
4.50965126371122
20
4.80122967273155
30
0
41
1
10
4.51649741309913
20
4.80092431240405
30
0
41
1
10
4.52677920304666
20
4.80045991123546
30
0
41
1
10
4.53022887294668
20
4.80030640493797
30
0
41
1
10
4.53735625826971
20
4.80003026284356
30
0
41
1
10
4.54100445063955
20
4.79990677749083
30
0
41
1
10
4.55209594336441
20
4.79958140999781
30
0
41
1
10
4.5597463695363
20
4.79942951746924
30
0
41
1
10
4.57545099875225
20
4.79923288745735
30
0
41
1
10
4.5833926054737
20
4.79918950286111
30
0
41
1
10
4.59914437532629
20
4.79918686247734
30
0
41
1
10
4.60700432619174
20
4.79922520236011
30
0
41
1
10
4.6226884708455
20
4.79938998944149
30
0
41
1
10
4.63053271891548
20
4.79951503668821
30
0
41
1
10
4.64600013380056
20
4.79981697517394
30
0
41
1
10
4.65365221368131
20
4.7999930118028
30
0
41
1
10
4.66899274051548
20
4.80033033083524
30
0
41
1
10
4.69199903003044
20
4.80083341176214
30
0
41
1
10
4.74564709481228
20
4.80198694527721
30
0
41
1
10
4.79157272248258
20
4.80293907724089
30
0
41
1
10
4.8833452180503
20
4.80478997948001
30
0
41
1
10
4.94442662037818
20
4.80595287071534
30
0
41
1
10
5.2492593863758
20
4.81134909106066
30
0
41
1
10
5.49125757203097
20
4.81433246329425
30
0
41
1
10
5.85161966839456
20
4.8155671253738
30
0
41
1
10
5.97126623669567
20
4.81543646545538
30
0
41
1
10
6.2092303853907
20
4.81388504045768
30
0
41
1
10
6.327605967718
20
4.81246447076919
30
0
41
1
10
6.68099576743452
20
4.80596507317381
30
0
41
1
10
6.91426647022081
20
4.79864380939679
30
0
41
1
10
7.37671802512261
20
4.77647902332077
30
0
41
1
10
7.60590113754685
20
4.76163218178721
30
0
41
1
10
8.0608946289006
20
4.72305913440974
30
0
41
1
10
8.2866951443294
20
4.69932782198956
30
0
41
1
10
8.73567283656922
20
4.6418579574389
30
0
41
1
10
8.95885723205794
20
4.6081213598699
30
0
41
1
10
9.18115839709264
20
4.5689763391722
30
0
0
SPLINE
5
FB
100
AcDbEntity
8
1
62
256
6
ByLayer
370
18
48
1
60
0
100
AcDbSpline
70
4
71
3
72
37
73
33
40
0
40
0
40
0
40
0
40
0.124999999999997
40
0.124999999999997
40
0.249999999999994
40
0.249999999999994
40
0.374999999999991
40
0.374999999999991
40
0.437499999999989
40
0.437499999999989
40
0.468749999999988
40
0.484374999999989
40
0.484374999999989
40
0.499999999999989
40
0.499999999999989
40
0.562499999999991
40
0.562499999999991
40
0.624999999999993
40
0.624999999999993
40
0.749999999999995
40
0.749999999999995
40
0.812499999999996
40
0.812499999999996
40
0.874999999999998
40
0.874999999999998
40
0.9375
40
0.9375
40
0.968750000000001
40
0.968750000000001
40
0.984375
40
0.984375
40
1
40
1
40
1
40
1
41
1
10
9.18095748368421
20
4.56901505024092
30
0
41
1
10
9.69492128164995
20
4.47858985321022
30
0
41
1
10
10.2052846462698
20
4.36468510553635
30
0
41
1
10
11.2223711762645
20
4.09395971465645
30
0
41
1
10
11.729032509409
20
3.93705654264028
30
0
41
1
10
12.7426338064761
20
3.58468603620267
30
0
41
1
10
13.2494824868602
20
3.38913934558951
30
0
41
1
10
14.0124154754667
20
3.06968084852136
30
0
41
1
10
14.2671993328515
20
2.95887656873691
30
0
41
1
10
14.6504773994204
20
2.78667482116211
30
0
41
1
10
14.8423812001804
20
2.69905910384054
30
0
41
1
10
15.0347446789323
20
2.609242650884
30
0
41
1
10
15.163097290938
20
2.54888574716702
30
0
41
1
10
15.2273651881947
20
2.51845025073658
30
0
41
1
10
15.5483389337379
20
2.36541178755257
30
0
41
1
10
15.8042165082624
20
2.24012549723824
30
0
41
1
10
16.3145813444562
20
1.98458119529519
30
0
41
1
10
16.5690836791852
20
1.85434774062182
30
0
41
1
10
17.3314336013747
20
1.45783303038152
30
0
41
1
10
17.8379654604412
20
1.18546609323764
30
0
41
1
10
18.5978424976299
20
0.76958978336009
30
0
41
1
10
18.851123620125
20
0.629698181749802
30
0
41
1
10
19.3583036455377
20
0.348537179863399
30
0
41
1
10
19.6121634757931
20
0.207197487396115
30
0
41
1
10
20.1208342391024
20
-0.076262414144054
30
0
41
1
10
20.3756533221194
20
-0.218367631658594
30
0
41
1
10
20.7589520361743
20
-0.431469144832448
30
0
41
1
10
20.8868892323104
20
-0.502507687316182
30
0
41
1
10
21.0791078174851
20
-0.608970189078462
30
0
41
1
10
21.1432333574685
20
-0.644440751253711
30
0
41
1
10
21.2716007879131
20
-0.71532770997328
30
0
41
1
10
21.3358462650088
20
-0.750745630310035
30
0
41
1
10
21.4
20
-0.786042462874292
30
0
0
SPLINE
5
FC
100
AcDbEntity
8
1
62
256
6
ByLayer
370
18
48
1
60
0
100
AcDbSpline
70
4
71
3
72
37
73
33
40
0
40
0
40
0
40
0
40
0.0495982557936633
40
0.0495982557936633
40
0.0991965115873265
40
0.148794767380991
40
0.148794767380991
40
0.198393023174655
40
0.198393023174655
40
0.297589534761985
40
0.297589534761985
40
0.396786046349314
40
0.396786046349314
40
0.495982557936643
40
0.495982557936643
40
0.520781685833476
40
0.520781685833476
40
0.54558081373031
40
0.54558081373031
40
0.595179069523977
40
0.595179069523977
40
0.694375581111314
40
0.694375581111314
40
0.743973836904982
40
0.743973836904982
40
0.768772964801815
40
0.768772964801815
40
0.793572092698648
40
0.793572092698648
40
0.991965115873311
40
0.991965115873311
40
1
40
1
40
1
40
1
41
1
10
21.400000000001
20
-0.57259550380067
30
0
41
1
10
21.6087496333965
20
-0.688010235025814
30
0
41
1
10
21.8173947639268
20
-0.802859290575839
30
0
41
1
10
22.234445212311
20
-1.03086252207848
30
0
41
1
10
22.6513397593634
20
-1.25721760817757
30
0
41
1
10
23.068424339092
20
-1.4793953627383
30
0
41
1
10
23.4858711026879
20
-1.69901663033454
30
0
41
1
10
23.6944627837752
20
-1.80737734580353
30
0
41
1
10
24.3199326479103
20
-2.12736852256089
30
0
41
1
10
24.7366556756354
20
-2.33400716107894
30
0
41
1
10
25.5714203776373
20
-2.73039936910465
30
0
41
1
10
25.9875843814751
20
-2.91922770404051
30
0
41
1
10
26.8196659365668
20
-3.27517478132646
30
0
41
1
10
27.2355392971736
20
-3.44236211252459
30
0
41
1
10
27.756370049879
20
-3.63623277457009
30
0
41
1
10
27.860586353916
20
-3.67425021363795
30
0
41
1
10
28.0691519596336
20
-3.74872737792157
30
0
41
1
10
28.1735340134463
20
-3.78519759228814
30
0
41
1
10
28.4863457417475
20
-3.89200827512465
30
0
41
1
10
28.6946108807505
20
-3.95981126052348
30
0
41
1
10
29.3189874492626
20
-4.15263860802244
30
0
41
1
10
29.7346649164884
20
-4.26709748948412
30
0
41
1
10
30.3588341256077
20
-4.41630969131515
30
0
41
1
10
30.5670014241067
20
-4.46229920726847
30
0
41
1
10
30.8796236893951
20
-4.52548757681942
30
0
41
1
10
30.9839093044472
20
-4.54558727879578
30
0
41
1
10
31.1925728067595
20
-4.58381419327628
30
0
41
1
10
31.2967553713865
20
-4.60190634193597
30
0
41
1
10
32.2331880382329
20
-4.75554912810648
30
0
41
1
10
33.0568924956917
20
-4.82679618480907
30
0
41
1
10
33.9133521987325
20
-4.83281778758882
30
0
41
1
10
33.946687512165
20
-4.83294490656922
30
0
41
1
10
33.9800222783143
20
-4.83296476836017
30
0
0
SPLINE
5
FD
100
AcDbEntity
8
1
62
256
6
ByLayer
370
18
48
1
60
0
100
AcDbSpline
70
4
71
3
72
21
73
17
40
0
40
0
40
0
40
0
40
0.255190372545342
40
0.255190372545342
40
0.441392779409027
40
0.441392779409027
40
0.487943381124952
40
0.511218681982912
40
0.511218681982912
40
0.534493982840871
40
0.534493982840871
40
0.627595186272698
40
0.627595186272698
40
0.813797593136348
40
0.813797593136348
40
1
40
1
40
1
40
1
41
1
10
54.5634067063381
20
3.49282670991619
30
0
41
1
10
55.1272619738274
20
3.7116243028693
30
0
41
1
10
55.6904395068665
20
3.90796351346918
30
0
41
1
10
56.6675172469666
20
4.20376736523312
30
0
41
1
10
57.0806337636997
20
4.31503678214932
30
0
41
1
10
57.5995684567462
20
4.43566832450836
30
0
41
1
10
57.7554406369052
20
4.47047326937638
30
0
41
1
10
57.9116325417181
20
4.5031639574334
30
0
41
1
10
58.0158350511019
20
4.52448368224478
30
0
41
1
10
58.067985173051
20
4.5349085856493
30
0
41
1
10
58.3285404038057
20
4.58576229338294
30
0
41
1
10
58.536642621162
20
4.62243913357813
30
0
41
1
10
59.1602847342598
20
4.72034018687441
30
0
41
1
10
59.5751639284568
20
4.76943268621309
30
0
41
1
10
60.4051423533102
20
4.83461434085078
30
0
41
1
10
60.8202335271462
20
4.85069851228786
30
0
41
1
10
61.2365087824061
20
4.84995513889484
30
0
0
SPLINE
5
FE
100
AcDbEntity
8
SK1
62
256
6
ByLayer
370
18
48
1
60
0
100
AcDbSpline
70
4
71
3
72
20
73
16
40
0
40
0
40
0
40
0
40
0.25
40
0.25
40
0.375
40
0.375
40
0.5
40
0.5
40
0.625
40
0.625
40
0.75
40
0.75
40
0.875
40
0.875
40
1
40
1
40
1
40
1
41
1
10
-39.35
20
4.24072187650708
30
0
41
1
10
-39.338205186486
20
4.25282950516311
30
0
41
1
10
-39.326788992333
20
4.26491826881801
30
0
41
1
10
-39.3102132143741
20
4.28300897849346
30
0
41
1
10
-39.304833241342
20
4.28897649034559
30
0
41
1
10
-39.2945637817251
20
4.30056337051832
30
0
41
1
10
-39.289643923718
20
4.30621562690922
30
0
41
1
10
-39.2802807943173
20
4.31720068115374
30
0
41
1
10
-39.2758194796066
20
4.32255489566134
30
0
41
1
10
-39.267562331863
20
4.33277090824851
30
0
41
1
10
-39.2638525857023
20
4.337524721508
30
0
41
1
10
-39.2574621956925
20
4.3461552361853
30
0
41
1
10
-39.2547834319691
20
4.35003777163016
30
0
41
1
10
-39.2510694001165
20
4.35622551892655
30
0
41
1
10
-39.25
20
4.35859959038879
30
0
41
1
10
-39.25
20
4.35987777206748
30
0
0
SPLINE
5
FF
100
AcDbEntity
8
SK1
62
256
6
ByLayer
370
18
48
1
60
0
100
AcDbSpline
70
4
71
3
72
8
73
4
40
0
40
0
40
0
40
0
40
1
40
1
40
1
40
1
41
1
10
-40
20
3.57007587925216
30
0
41
1
10
-39.7840043481981
20
3.79428037578384
30
0
41
1
10
-39.5672334098053
20
4.01772712932595
30
0
41
1
10
-39.35
20
4.24072187650705
30
0
0
SPLINE
5
100
100
AcDbEntity
8
SK1
62
256
6
ByLayer
370
18
48
1
60
0
100
AcDbSpline
70
4
71
3
72
8
73
4
40
0
40
0
40
0
40
0
40
1
40
1
40
1
40
1
41
1
10
-39.35
20
-4.13154867530056
30
0
41
1
10
-39.5672423603374
20
-3.90854474020659
30
0
41
1
10
-39.7840148841562
20
-3.68509623820359
30
0
41
1
10
-40
20
-3.46090267804567
30
0
0
SPLINE
5
101
100
AcDbEntity
8
SK1
62
256
6
ByLayer
370
18
48
1
60
0
100
AcDbSpline
70
4
71
3
72
20
73
16
40
0
40
0
40
0
40
0
40
0.124999999999991
40
0.124999999999991
40
0.187499999999988
40
0.187499999999988
40
0.249999999999985
40
0.249999999999985
40
0.374999999999987
40
0.374999999999987
40
0.499999999999989
40
0.499999999999989
40
0.749999999999994
40
0.749999999999994
40
1
40
1
40
1
40
1
41
1
10
-39.25
20
-4.26162189098164
30
0
41
1
10
-39.25
20
-4.25943274490686
30
0
41
1
10
-39.2510680086886
20
-4.25617171457978
30
0
41
1
10
-39.2538495157728
20
-4.25030796600956
30
0
41
1
10
-39.2549703876943
20
-4.24818876697699
30
0
41
1
10
-39.2575552869368
20
-4.24365898424213
30
0
41
1
10
-39.2590298143252
20
-4.24123282858747
30
0
41
1
10
-39.2638240044233
20
-4.23371295972095
30
0
41
1
10
-39.267515960107
20
-4.22836100150761
30
0
41
1
10
-39.275680748839
20
-4.21712847563049
30
0
41
1
10
-39.2801886771091
20
-4.21120802395902
30
0
41
1
10
-39.2943187548888
20
-4.19330392219737
30
0
41
1
10
-39.3046720301746
20
-4.18098504775233
30
0
41
1
10
-39.3267894589619
20
-4.15596504451276
30
0
41
1
10
-39.3382086330433
20
-4.14365276599176
30
0
41
1
10
-39.35
20
-4.13154867530056
30
0
0
SPLINE
5
102
100
AcDbEntity
8
SK1
62
256
6
ByLayer
370
18
48
1
60
0
100
AcDbSpline
70
4
71
3
72
20
73
16
40
0
40
0
40
0
40
0
40
0.25
40
0.25
40
0.375
40
0.375
40
0.5
40
0.5
40
0.625
40
0.625
40
0.75
40
0.75
40
0.875
40
0.875
40
1
40
1
40
1
40
1
41
1
10
-39.35
20
-4.24072187650708
30
0
41
1
10
-39.338205186486
20
-4.25282950516311
30
0
41
1
10
-39.326788992333
20
-4.26491826881801
30
0
41
1
10
-39.3102132143741
20
-4.28300897849346
30
0
41
1
10
-39.304833241342
20
-4.28897649034559
30
0
41
1
10
-39.2945637817251
20
-4.30056337051832
30
0
41
1
10
-39.289643923718
20
-4.30621562690922
30
0
41
1
10
-39.2802807943173
20
-4.31720068115374
30
0
41
1
10
-39.2758194796066
20
-4.32255489566134
30
0
41
1
10
-39.267562331863
20
-4.33277090824851
30
0
41
1
10
-39.2638525857023
20
-4.337524721508
30
0
41
1
10
-39.2574621956925
20
-4.34615523618527
30
0
41
1
10
-39.2547834319691
20
-4.35003777163016
30
0
41
1
10
-39.2510694001165
20
-4.35622551892655
30
0
41
1
10
-39.25
20
-4.35859959038879
30
0
41
1
10
-39.25
20
-4.35987777206748
30
0
0
SPLINE
5
103
100
AcDbEntity
8
SK1
62
256
6
ByLayer
370
18
48
1
60
0
100
AcDbSpline
70
4
71
3
72
8
73
4
40
0
40
0
40
0
40
0
40
1
40
1
40
1
40
1
41
1
10
-40
20
-3.57007587925216
30
0
41
1
10
-39.7840043481981
20
-3.79428037578384
30
0
41
1
10
-39.5672334098053
20
-4.01772712932595
30
0
41
1
10
-39.35
20
-4.24072187650705
30
0
0
SPLINE
5
104
100
AcDbEntity
8
1
62
256
6
ByLayer
370
18
48
1
60
0
100
AcDbSpline
70
4
71
3
72
13
73
9
40
0
40
0
40
0
40
0
40
0.0662815057162126
40
0.226660872410616
40
0.404419632507992
40
0.59932208549787
40
0.811313368584749
40
1
40
1
40
1
40
1
41
1
10
54.5859968363476
20
3.48120127405312
30
0
41
1
10
54.7336815223393
20
3.53583574524726
30
0
41
1
10
55.2390768910171
20
3.71720482608617
30
0
41
1
10
56.1430358158261
20
4.00444466493522
30
0
41
1
10
57.337426254287
20
4.31016079163203
30
0
41
1
10
58.6503392294601
20
4.54797065059353
30
0
41
1
10
59.9897610732588
20
4.68402905472342
30
0
41
1
10
60.891938322535
20
4.69016870937909
30
0
41
1
10
61.3170467515753
20
4.67527685151236
30
0
0
SPLINE
5
105
100
AcDbEntity
8
1
62
256
6
ByLayer
370
18
48
1
60
0
100
AcDbSpline
70
4
71
3
72
8
73
4
40
0
40
0
40
0
40
0
40
1
40
1
40
1
40
1
41
1
10
35.6554429973783
20
-4.57595437302945
30
0
41
1
10
35.5966867518817
20
-4.58295723583862
30
0
41
1
10
35.5379335106117
20
-4.589654827066
30
0
41
1
10
35.4791813336027
20
-4.5960383648526
30
0
0
SPLINE
5
106
100
AcDbEntity
8
1
62
256
6
ByLayer
370
18
48
1
60
0
100
AcDbSpline
70
4
71
3
72
9
73
5
40
0
40
0
40
0
40
0
40
0.484198458235956
40
1
40
1
40
1
40
1
41
1
10
26.0986852837806
20
-2.95848947028932
30
0
41
1
10
26.0129722134426
20
-2.92219515534407
30
0
41
1
10
25.8370656163129
20
-2.84622242548562
30
0
41
1
10
25.6645696061261
20
-2.76784665987995
30
0
41
1
10
25.5761844936441
20
-2.72686897323422
30
0
0
SPLINE
5
107
100
AcDbEntity
8
1
62
256
6
ByLayer
370
18
48
1
60
0
100
AcDbSpline
70
4
71
3
72
32
73
28
40
0
40
0
40
0
40
0
40
1.25296590937E-05
40
3.39148357292E-05
40
5.34338286845E-05
40
7.13713677149E-05
40
8.76759799007E-05
40
0.0002120062294423
40
0.0003091198342844
40
0.0004832488441317
40
0.0007963164092191
40
0.0013621393287973
40
0.0023941602645006
40
0.0043061289141413
40
0.0079412557087108
40
0.0496600152471801
40
0.154894509031627
40
0.255874929244083
40
0.350276104540947
40
0.450885846091646
40
0.556140449143524
40
0.622770479415674
40
0.684050630603905
40
0.745326126474444
40
0.813534680616718
40
0.906008110295974
40
1
40
1
40
1
40
1
41
1
10
36.645263444861
20
0.205904175207223
30
0
41
1
10
36.6452675263126
20
0.205904262488843
30
0
41
1
10
36.6452732559211
20
0.205905982948877
30
0
41
1
10
36.6452572603356
20
0.205915577668804
30
0
41
1
10
36.645204235172
20
0.20593557845001
30
0
41
1
10
36.645128595058
20
0.205960876507135
30
0
41
1
10
36.6448267918186
20
0.206055002831675
30
0
41
1
10
36.644181076998
20
0.206239292032905
30
0
41
1
10
36.6432373219076
20
0.206516166438632
30
0
41
1
10
36.6417986679147
20
0.206935264658654
30
0
41
1
10
36.639231682796
20
0.207684461711693
30
0
41
1
10
36.6345517793376
20
0.209048278399735
30
0
41
1
10
36.6259517914686
20
0.211552049448301
30
0
41
1
10
36.6097782028939
20
0.216250778712123
30
0
41
1
10
36.4930645999242
20
0.250047518252586
30
0
41
1
10
36.1119176277936
20
0.358642388377064
30
0
41
1
10
35.4688397331692
20
0.546593420334744
30
0
41
1
10
34.6960726073557
20
0.784086835422954
30
0
41
1
10
33.9368640444124
20
1.02739056631117
30
0
41
1
10
33.169913217553
20
1.28343587355059
30
0
41
1
10
32.4766890880973
20
1.5245455912866
30
0
41
1
10
31.8856564321729
20
1.73697216385378
30
0
41
1
10
31.4074379041415
20
1.91296836917255
30
0
41
1
10
30.9265518012434
20
2.09388471904242
30
0
41
1
10
30.3687346931102
20
2.30864465299967
30
0
41
1
10
29.7309265188809
20
2.56067688691948
30
0
41
1
10
29.2663025463308
20
2.75101557334102
30
0
41
1
10
29.0326595942543
20
2.84834834275296
30
0
0
SPLINE
5
108
100
AcDbEntity
8
1
62
256
6
ByLayer
370
18
48
1
60
0
100
AcDbSpline
70
4
71
3
72
16
73
12
40
0
40
0
40
0
40
0
40
0.0684953127187693
40
0.191593181966373
40
0.344928277787543
40
0.493349291020554
40
0.636388201491987
40
0.696369449896338
40
0.778960553900481
40
0.887540878262061
40
1
40
1
40
1
40
1
41
1
10
61.3878358596753
20
0.947800925523353
30
0
41
1
10
61.2671048757801
20
0.986119030283334
30
0
41
1
10
60.9298056709464
20
1.09460004083024
30
0
41
1
10
60.3251723601681
20
1.29791450840912
30
0
41
1
10
59.5825027706505
20
1.55588411665175
30
0
41
1
10
58.8086722493525
20
1.83609412728265
30
0
41
1
10
58.1998044025248
20
2.0647536681499
30
0
41
1
10
57.7064873215626
20
2.25465859132754
30
0
41
1
10
57.273495080336
20
2.42421643501871
30
0
41
1
10
56.7514525344453
20
2.63303988143417
30
0
41
1
10
56.3728860548018
20
2.78879761921544
30
0
41
1
10
56.1806392940974
20
2.86896711713601
30
0
0
SPLINE
5
109
100
AcDbEntity
8
1
62
256
6
ByLayer
370
18
48
1
60
0
100
AcDbSpline
70
4
71
3
72
18
73
14
40
0
40
0
40
0
40
0
40
0.0255066312900867
40
0.118883602256338
40
0.26610054365042
40
0.414109548151227
40
0.539658420477865
40
0.659168582186265
40
0.771559351983788
40
0.834519401219548
40
0.894512835266567
40
0.949709570675149
40
1
40
1
40
1
40
1
41
1
10
27.3858799657848
20
3.46529673274105
30
0
41
1
10
27.4805527105059
20
3.50004645646817
30
0
41
1
10
27.9221342932679
20
3.65936740146191
30
0
41
1
10
28.9127196989485
20
3.98548120574986
30
0
41
1
10
30.3591692031339
20
4.3576619495164
30
0
41
1
10
31.9266474425652
20
4.60893321745471
30
0
41
1
10
33.3912916537291
20
4.70554470885989
30
0
41
1
10
34.7234515939693
20
4.67771764194254
30
0
41
1
10
35.8225364784088
20
4.56553450838558
30
0
41
1
10
36.6997636508076
20
4.42363865404064
30
0
41
1
10
37.3638607868111
20
4.28911631036166
30
0
41
1
10
37.9756508068603
20
4.11914304239212
30
0
41
1
10
38.3614003678793
20
3.98526766150778
30
0
41
1
10
38.5444400046317
20
3.91558302019925
30
0
0
SPLINE
5
10A
100
AcDbEntity
8
1
62
256
6
ByLayer
370
18
48
1
60
0
100
AcDbSpline
70
4
71
3
72
9
73
5
40
0
40
0
40
0
40
0
40
0.172170477287961
40
1
40
1
40
1
40
1
41
1
10
53.3140499210219
20
-2.97051721162055
30
0
41
1
10
53.2896867931036
20
-2.95985724933809
30
0
41
1
10
53.1482319285108
20
-2.89760767565914
30
0
41
1
10
53.0070921424428
20
-2.83335671805455
30
0
41
1
10
52.8904072174949
20
-2.77898630190373
30
0
0
SPLINE
5
10B
100
AcDbEntity
8
1
62
256
6
ByLayer
370
18
48
1
60
0
100
AcDbSpline
70
4
71
1
72
4
73
2
40
0
40
0
40
1
40
1
41
1
10
52.8904072174949
20
-2.77898630190373
30
0
41
1
10
52.5282515122746
20
-2.6143474476134
30
0
0
SPLINE
5
10C
100
AcDbEntity
8
1
62
256
6
ByLayer
370
18
48
1
60
0
100
AcDbSpline
70
4
71
3
72
29
73
25
40
0
40
0
40
0
40
0
40
0.0392718053091659
40
0.0731515821174465
40
0.121536599167565
40
0.173834460097359
40
0.228112871982156
40
0.274225060009658
40
0.31420213077413
40
0.362334905508252
40
0.4123788987958
40
0.461121647976589
40
0.51231602130668
40
0.562751452616745
40
0.610797105370212
40
0.662334790433867
40
0.719055215493199
40
0.778562416759333
40
0.833600477286854
40
0.884778173755577
40
0.90904824049616
40
0.944921051978178
40
0.994694782197478
40
1
40
1
40
1
40
1
41
1
10
35.3460841144356
20
-4.59143475124066
30
0
41
1
10
35.5060519547881
20
-4.59091435969239
30
0
41
1
10
35.8091512628205
20
-4.58962362757316
30
0
41
1
10
36.3301290351938
20
-4.58331896819078
30
0
41
1
10
36.9225868090229
20
-4.58361032100123
30
0
41
1
10
37.597551239594
20
-4.58850037102693
30
0
41
1
10
38.2500236124714
20
-4.59301327902878
30
0
41
1
10
38.8609580054461
20
-4.59387490542949
30
0
41
1
10
39.4486465704479
20
-4.59392520307264
30
0
41
1
10
40.0527831256785
20
-4.59378458653123
30
0
41
1
10
40.6954983586158
20
-4.59519744746464
30
0
41
1
10
41.3515208503374
20
-4.59458826538528
30
0
41
1
10
42.0093559862176
20
-4.59520397811986
30
0
41
1
10
42.6638064883857
20
-4.59639512817756
30
0
41
1
10
43.320395544066
20
-4.59516425992058
30
0
41
1
10
44.0012700047322
20
-4.59659464282782
30
0
41
1
10
44.736290525801
20
-4.59632677201569
30
0
41
1
10
45.4838960820295
20
-4.59701264867394
30
0
41
1
10
46.2087368103193
20
-4.59880424198869
30
0
41
1
10
46.7795621421766
20
-4.59757280022598
30
0
41
1
10
47.2664190298057
20
-4.59786724442634
30
0
41
1
10
47.747252373758
20
-4.59885414993374
30
0
41
1
10
48.1450696310109
20
-4.59774989912898
30
0
41
1
10
48.3859975059878
20
-4.59830682853382
30
0
41
1
10
48.4092037239166
20
-4.59836315067886
30
0
0
SPLINE
5
10D
100
AcDbEntity
8
1
62
256
6
ByLayer
370
18
48
1
60
0
100
AcDbSpline
70
4
71
3
72
26
73
22
40
0
40
0
40
0
40
0
40
0.0097075560051275
40
0.0592826379119478
40
0.142408355728799
40
0.222624303002491
40
0.291345963136323
40
0.349183237093315
40
0.399042362692854
40
0.464172375234082
40
0.528649125130531
40
0.576178469502274
40
0.630886430106425
40
0.69358500532933
40
0.75146496824422
40
0.805222393567404
40
0.85887324843394
40
0.913834956715066
40
0.948344636805549
40
0.978406725312591
40
1
40
1
40
1
40
1
41
1
10
21.5332102580665
20
4.58127174795317
30
0
41
1
10
21.5002052432367
20
4.5810645916643
30
0
41
1
10
21.2975299656567
20
4.57970222724953
30
0
41
1
10
20.7858956251822
20
4.56942170435227
30
0
41
1
10
19.9994980852035
20
4.57160855958034
30
0
41
1
10
19.1835735135957
20
4.58304557806653
30
0
41
1
10
18.4345897632145
20
4.58157259859692
30
0
41
1
10
17.7918732102263
20
4.58292213474138
30
0
41
1
10
17.162411717498
20
4.58106129197924
30
0
41
1
10
16.5086474224368
20
4.58094764780944
30
0
41
1
10
15.863655430795
20
4.58012277511571
30
0
41
1
10
15.2557904501651
20
4.57949025528112
30
0
41
1
10
14.6586888109428
20
4.57930160877643
30
0
41
1
10
14.0242128442045
20
4.57642497876546
30
0
41
1
10
13.3866358814692
20
4.57596176100625
30
0
41
1
10
12.7905856429902
20
4.57820044680156
30
0
41
1
10
12.2015816285088
20
4.5776158262741
30
0
41
1
10
11.6799216087832
20
4.57717516390341
30
0
41
1
10
11.2445637154351
20
4.57703725626371
30
0
41
1
10
10.9307717990551
20
4.57683046768077
30
0
41
1
10
10.7425824455538
20
4.57664284267562
30
0
41
1
10
10.6639340117908
20
4.57656323407707
30
0
0
SPLINE
5
10E
100
AcDbEntity
8
1
62
256
6
ByLayer
370
18
48
1
60
0
100
AcDbSpline
70
4
71
3
72
31
73
27
40
0
40
0
40
0
40
0
40
0.0587020569315376
40
0.108867275603815
40
0.145910450821158
40
0.175888074500447
40
0.20045025217109
40
0.251914610496571
40
0.310944432189157
40
0.352023914116471
40
0.393877220986483
40
0.438975415413263
40
0.487426301130488
40
0.529215952843555
40
0.56455272331627
40
0.610108723768039
40
0.662040895746474
40
0.700201541147722
40
0.740629869026404
40
0.779522917198347
40
0.823842691044749
40
0.87377964866399
40
0.912518465336051
40
0.951580194110619
40
0.992071237144924
40
1
40
1
40
1
40
1
41
1
10
8.21610483441344
20
-4.57458989152013
30
0
41
1
10
8.47772193026105
20
-4.57483138655923
30
0
41
1
10
8.96290768380882
20
-4.5752555729604
30
0
41
1
10
9.61397864690599
20
-4.57555384258228
30
0
41
1
10
10.1357542976679
20
-4.57605064930954
30
0
41
1
10
10.5437550294804
20
-4.57643206292164
30
0
41
1
10
11.0166314513405
20
-4.57694825586714
30
0
41
1
10
11.6185721176776
20
-4.57706791688011
30
0
41
1
10
12.2956905934491
20
-4.57787627223632
30
0
41
1
10
12.9239460196333
20
-4.57783187590411
30
0
41
1
10
13.4913301927203
20
-4.57577655188624
30
0
41
1
10
14.0971618557224
20
-4.57677976776711
30
0
41
1
10
14.6964032009195
20
-4.57933487659386
30
0
41
1
10
15.2532736155625
20
-4.57950540827454
30
0
41
1
10
15.8008248951405
20
-4.58000728599464
30
0
41
1
10
16.3930234759032
20
-4.58097415229255
30
0
41
1
10
16.9980193251124
20
-4.58073890345966
30
0
41
1
10
17.5800509814312
20
-4.58253001472838
30
0
41
1
10
18.104083879569
20
-4.58238045702544
30
0
41
1
10
18.6544151374982
20
-4.58162103757169
30
0
41
1
10
19.2423357476518
20
-4.58208791893605
30
0
41
1
10
19.8164402785743
20
-4.57555779531134
30
0
41
1
10
20.3837955214268
20
-4.56893674545219
30
0
41
1
10
20.9121016219429
20
-4.57236347606172
30
0
41
1
10
21.2975621287133
20
-4.57968180141208
30
0
41
1
10
21.500205243237
20
-4.5810645916643
30
0
41
1
10
21.5332102580666
20
-4.58127174795317
30
0
0
SPLINE
5
10F
100
AcDbEntity
8
1
62
256
6
ByLayer
370
18
48
1
60
0
100
AcDbSpline
70
4
71
3
72
28
73
24
40
0
40
0
40
0
40
0
40
0.0091112180177845
40
0.0645423913316476
40
0.110145603064914
40
0.146996894404358
40
0.177104102548423
40
0.244303926544926
40
0.31310848752535
40
0.359455884621754
40
0.406812791426125
40
0.459421378589381
40
0.517971459500648
40
0.577580527539814
40
0.629416966190872
40
0.670547378980292
40
0.714018007507244
40
0.770188251781086
40
0.819360791288274
40
0.857947375804627
40
0.900987161796467
40
0.950278779203674
40
1
40
1
40
1
40
1
41
1
10
48.5566383855152
20
4.5977382757643
30
0
41
1
10
48.5242898162475
20
4.59759830401418
30
0
41
1
10
48.2951037697898
20
4.59670871191221
30
0
41
1
10
47.8958900721585
20
4.59772989393446
30
0
41
1
10
47.4128573139228
20
4.59844131077773
30
0
41
1
10
47.0097189337639
20
4.59742330153145
30
0
41
1
10
46.529592453669
20
4.59801805231328
30
0
41
1
10
45.9358568662663
20
4.59867305165045
30
0
41
1
10
45.2779649678484
20
4.59702512237544
30
0
41
1
10
44.7229970804422
20
4.59246381575915
30
0
41
1
10
44.20043153062
20
4.58740069368247
30
0
41
1
10
43.6315048288154
20
4.59085813859446
30
0
41
1
10
43.0452706966982
20
4.59623745470964
30
0
41
1
10
42.4348270466221
20
4.59623548915647
30
0
41
1
10
41.8887416016546
20
4.59483969029077
30
0
41
1
10
41.4000065473849
20
4.59468122397004
30
0
41
1
10
40.8958482360799
20
4.59506152214757
30
0
41
1
10
40.3628543861846
20
4.59459700228334
30
0
41
1
10
39.8473805189104
20
4.59373011006693
30
0
41
1
10
39.3790809205645
20
4.59387963623189
30
0
41
1
10
38.9101040048786
20
4.59394664569163
30
0
41
1
10
38.4044745839143
20
4.59298416464631
30
0
41
1
10
38.0561279360194
20
4.59178900720963
30
0
41
1
10
37.884747413854
20
4.58961096851368
30
0
0
SPLINE
5
110
100
AcDbEntity
8
1
62
256
6
ByLayer
370
18
48
1
60
0
100
AcDbSpline
70
4
71
1
72
4
73
2
40
0
40
0
40
1
40
1
41
1
10
21.6089696539932
20
0.0027089886932288
30
0
41
1
10
21.6089795564097
20
0.0027042674654467
30
0
0
SPLINE
5
111
100
AcDbEntity
8
1
62
256
6
ByLayer
370
18
48
1
60
0
100
AcDbSpline
70
4
71
1
72
4
73
2
40
0
40
0
40
1
40
1
41
1
10
48.8145875828945
20
-0.000316944016987
30
0
41
1
10
48.8145752750834
20
-0.0003108079187655
30
0
0
LINE
5
82
100
AcDbEntity
8
80
62
256
6
ByLayer
370
18
48
1
60
0
100
AcDbLine
10
0
20
0
30
0
11
-3
21
0
31
0
39
0
210
0
220
0
230
1
0
LINE
5
83
100
AcDbEntity
8
81
62
256
6
ByLayer
370
18
48
1
60
0
100
AcDbLine
10
63
20
0
30
0
11
66
21
0
31
0
39
0
210
0
220
0
230
1
0
LINE
5
84
100
AcDbEntity
8
SK4
62
256
6
ByLayer
370
18
48
0.05
60
0
100
AcDbLine
10
-43
20
0
30
0
11
66
21
0
31
0
39
0
210
0
220
0
230
1
0
LINE
5
86
100
AcDbEntity
8
4
62
256
6
ByLayer
370
18
48
0.05
60
0
100
AcDbLine
10
0
20
0
30
0
11
63
21
0
31
0
39
0
210
0
220
0
230
1
0
LINE
5
88
100
AcDbEntity
8
1
62
256
6
ByLayer
370
13
48
1
60
0
100
AcDbLine
10
62.932366
20
0.058386
30
0
11
61.754282
21
1.358786
31
0
39
0
210
0
220
0
230
1
0
LINE
5
89
100
AcDbEntity
8
1
62
256
6
ByLayer
370
13
48
1
60
0
100
AcDbLine
10
0.172446
20
4.901796
30
0
11
0.172446
21
-4.901796
31
0
39
0
210
0
220
0
230
1
0
LINE
5
8A
100
AcDbEntity
8
1
62
256
6
ByLayer
370
18
48
1
60
0
100
AcDbLine
10
0
20
5
30
0
11
0
21
-5
31
0
39
0
210
0
220
0
230
1
0
LINE
5
8B
100
AcDbEntity
8
1
62
256
6
ByLayer
370
13
48
1
60
0
100
AcDbLine
10
0.166939
20
4.910143
30
0
11
0.166939
21
-4.910143
31
0
39
0
210
0
220
0
230
1
0
LINE
5
8C
100
AcDbEntity
8
1
62
256
6
ByLayer
370
18
48
1
60
0
100
AcDbLine
10
21.4
20
-0.572596
30
0
11
21.4
21
-0.786042
31
0
39
0
210
0
220
0
230
1
0
LINE
5
8D
100
AcDbEntity
8
1
62
256
6
ByLayer
370
13
48
1
60
0
100
AcDbLine
10
0.339509
20
4.811939
30
0
11
0.339509
21
-4.811939
31
0
39
0
210
0
220
0
230
1
0
LINE
5
8E
100
AcDbEntity
8
SK1
62
256
6
ByLayer
370
18
48
1
60
0
100
AcDbLine
10
-40
20
-3.460876
30
0
11
-40
21
-3.570076
31
0
39
0
210
0
220
0
230
1
0
LINE
5
90
100
AcDbEntity
8
SK1
62
256
6
ByLayer
370
13
48
1
60
0
100
AcDbLine
10
-39.35
20
-4.240722
30
0
11
-39.35
21
-4.13149
31
0
39
0
210
0
220
0
230
1
0
LINE
5
91
100
AcDbEntity
8
SK1
62
256
6
ByLayer
370
18
48
1
60
0
100
AcDbLine
10
-39.25
20
4.41
30
0
11
-39.25
21
4.359878
31
0
39
0
210
0
220
0
230
1
0
LINE
5
92
100
AcDbEntity
8
SK1
62
256
6
ByLayer
370
18
48
1
60
0
100
AcDbLine
10
-40
20
3.570076
30
0
11
-40
21
-3.460903
31
0
39
0
210
0
220
0
230
1
0
LINE
5
93
100
AcDbEntity
8
SK1
62
256
6
ByLayer
370
18
48
1
60
0
100
AcDbLine
10
-39.25
20
-4.41
30
0
11
-39.25
21
-4.261622
31
0
39
0
210
0
220
0
230
1
0
LINE
5
94
100
AcDbEntity
8
SK1
62
256
6
ByLayer
370
18
48
1
60
0
100
AcDbLine
10
-38.66
20
-5
30
0
11
-38.66
21
5
31
0
39
0
210
0
220
0
230
1
0
LINE
5
95
100
AcDbEntity
8
SK1
62
256
6
ByLayer
370
18
48
1
60
0
100
AcDbLine
10
0
20
5
30
0
11
0
21
-5
31
0
39
0
210
0
220
0
230
1
0
LINE
5
96
100
AcDbEntity
8
1
62
256
6
ByLayer
370
18
48
1
60
0
100
AcDbLine
10
0.172446
20
4.901796
30
0
11
0.166939
21
4.910143
31
0
39
0
210
0
220
0
230
1
0
LINE
5
97
100
AcDbEntity
8
1
62
256
6
ByLayer
370
18
48
1
60
0
100
AcDbLine
10
0.166939
20
-4.910143
30
0
11
0.172446
21
-4.901796
31
0
39
0
210
0
220
0
230
1
0
LINE
5
98
100
AcDbEntity
8
1
62
256
6
ByLayer
370
18
48
1
60
0
100
AcDbLine
10
0.339509
20
-4.811939
30
0
11
3.968478
21
-4.814208
31
0
39
0
210
0
220
0
230
1
0
LINE
5
99
100
AcDbEntity
8
1
62
256
6
ByLayer
370
18
48
1
60
0
100
AcDbLine
10
5.837664
20
-4.815376
30
0
11
8.014015
21
-4.816736
31
0
39
0
210
0
220
0
230
1
0
LINE
5
9A
100
AcDbEntity
8
1
62
256
6
ByLayer
370
18
48
1
60
0
100
AcDbLine
10
33.979693
20
-4.832965
30
0
11
35.214301
21
-4.833736
31
0
39
0
210
0
220
0
230
1
0
LINE
5
9B
100
AcDbEntity
8
1
62
256
6
ByLayer
370
18
48
1
60
0
100
AcDbLine
10
35.214301
20
4.833736
30
0
11
33.979693
21
4.832965
31
0
39
0
210
0
220
0
230
1
0
LINE
5
9C
100
AcDbEntity
8
1
62
256
6
ByLayer
370
18
48
1
60
0
100
AcDbLine
10
8.014015
20
4.816736
30
0
11
5.837664
21
4.815376
31
0
39
0
210
0
220
0
230
1
0
LINE
5
9D
100
AcDbEntity
8
1
62
256
6
ByLayer
370
18
48
1
60
0
100
AcDbLine
10
3.968478
20
4.814208
30
0
11
0.339509
21
4.811939
31
0
39
0
210
0
220
0
230
1
0
LINE
5
9E
100
AcDbEntity
8
SK1
62
256
6
ByLayer
370
18
48
1
60
0
100
AcDbLine
10
-39.25
20
-4.41
30
0
11
-38.66
21
-5
31
0
39
0
210
0
220
0
230
1
0
LINE
5
9F
100
AcDbEntity
8
SK1
62
256
6
ByLayer
370
18
48
1
60
0
100
AcDbLine
10
-38.66
20
5
30
0
11
-39.25
21
4.41
31
0
39
0
210
0
220
0
230
1
0
LINE
5
A0
100
AcDbEntity
8
SK1
62
256
6
ByLayer
370
18
48
1
60
0
100
AcDbLine
10
-38.66
20
-5
30
0
11
0
21
-5
31
0
39
0
210
0
220
0
230
1
0
LINE
5
A1
100
AcDbEntity
8
SK1
62
256
6
ByLayer
370
18
48
1
60
0
100
AcDbLine
10
0
20
5
30
0
11
-38.66
21
5
31
0
39
0
210
0
220
0
230
1
0
LINE
5
A2
100
AcDbEntity
8
2
62
256
6
ByLayer
370
13
48
1
60
0
100
AcDbLine
10
76.75
20
-4.85
30
0
11
76.75
21
21.198932
31
0
39
0
210
0
220
0
230
1
0
LINE
5
A4
100
AcDbEntity
8
2
62
256
6
ByLayer
370
13
48
1
60
0
100
AcDbLine
10
64.5875
20
4.85
30
0
11
78.75
21
4.85
31
0
39
0
210
0
220
0
230
1
0
LINE
5
A5
100
AcDbEntity
8
2
62
256
6
ByLayer
370
13
48
1
60
0
100
AcDbLine
10
64.5875
20
-4.85
30
0
11
78.75
21
-4.85
31
0
39
0
210
0
220
0
230
1
0
LINE
5
A6
100
AcDbEntity
8
1
62
256
6
ByLayer
370
18
48
1
60
1
100
AcDbLine
10
76.75
20
4.85
30
0
11
77.210784
21
1.350002
31
0
39
0
210
0
220
0
230
1
0
LINE
5
A7
100
AcDbEntity
8
1
62
256
6
ByLayer
370
18
48
1
60
1
100
AcDbLine
10
77.210784
20
1.350002
30
0
11
76.289216
21
1.349998
31
0
39
0
210
0
220
0
230
1
0
LINE
5
A8
100
AcDbEntity
8
1
62
256
6
ByLayer
370
18
48
1
60
1
100
AcDbLine
10
76.289216
20
1.349998
30
0
11
76.75
21
4.85
31
0
39
0
210
0
220
0
230
1
0
LINE
5
A9
100
AcDbEntity
8
1
62
256
6
ByLayer
370
18
48
1
60
1
100
AcDbLine
10
76.75
20
-4.85
30
0
11
76.289216
21
-1.350002
31
0
39
0
210
0
220
0
230
1
0
LINE
5
AA
100
AcDbEntity
8
1
62
256
6
ByLayer
370
18
48
1
60
1
100
AcDbLine
10
76.289216
20
-1.350002
30
0
11
77.210784
21
-1.349998
31
0
39
0
210
0
220
0
230
1
0
LINE
5
AB
100
AcDbEntity
8
1
62
256
6
ByLayer
370
18
48
1
60
1
100
AcDbLine
10
77.210784
20
-1.349998
30
0
11
76.75
21
-4.85
31
0
39
0
210
0
220
0
230
1
0
LINE
5
AC
100
AcDbEntity
8
SK2
62
256
6
ByLayer
370
13
48
1
60
0
100
AcDbLine
10
-48.25
20
-5
30
0
11
-48.25
21
22.056066
31
0
39
0
210
0
220
0
230
1
0
LINE
5
AE
100
AcDbEntity
8
SK2
62
256
6
ByLayer
370
13
48
1
60
0
100
AcDbLine
10
-41.5875
20
5
30
0
11
-50.25
21
5
31
0
39
0
210
0
220
0
230
1
0
LINE
5
AF
100
AcDbEntity
8
SK2
62
256
6
ByLayer
370
13
48
1
60
0
100
AcDbLine
10
-41.5875
20
-5
30
0
11
-50.25
21
-5
31
0
39
0
210
0
220
0
230
1
0
LINE
5
B0
100
AcDbEntity
8
1
62
256
6
ByLayer
370
18
48
1
60
1
100
AcDbLine
10
-48.25
20
5
30
0
11
-47.789216
21
1.500002
31
0
39
0
210
0
220
0
230
1
0
LINE
5
B1
100
AcDbEntity
8
1
62
256
6
ByLayer
370
18
48
1
60
1
100
AcDbLine
10
-47.789216
20
1.500002
30
0
11
-48.710784
21
1.499998
31
0
39
0
210
0
220
0
230
1
0
LINE
5
B2
100
AcDbEntity
8
1
62
256
6
ByLayer
370
18
48
1
60
1
100
AcDbLine
10
-48.710784
20
1.499998
30
0
11
-48.25
21
5
31
0
39
0
210
0
220
0
230
1
0
LINE
5
B3
100
AcDbEntity
8
1
62
256
6
ByLayer
370
18
48
1
60
1
100
AcDbLine
10
-48.25
20
-5
30
0
11
-48.710784
21
-1.500002
31
0
39
0
210
0
220
0
230
1
0
LINE
5
B4
100
AcDbEntity
8
1
62
256
6
ByLayer
370
18
48
1
60
1
100
AcDbLine
10
-48.710784
20
-1.500002
30
0
11
-47.789216
21
-1.499998
31
0
39
0
210
0
220
0
230
1
0
LINE
5
B5
100
AcDbEntity
8
1
62
256
6
ByLayer
370
18
48
1
60
1
100
AcDbLine
10
-47.789216
20
-1.499998
30
0
11
-48.25
21
-5
31
0
39
0
210
0
220
0
230
1
0
LINE
5
B6
100
AcDbEntity
8
SK2
62
256
6
ByLayer
370
13
48
1
60
0
100
AcDbLine
10
63.542888
20
1.491787
30
0
11
75.002637
21
32.981751
31
0
39
0
210
0
220
0
230
1
0
LINE
5
B7
100
AcDbEntity
8
SK2
62
256
6
ByLayer
370
13
48
1
60
0
100
AcDbLine
10
63.542888
20
-1.491787
30
0
11
75.002637
21
-32.981751
31
0
39
0
210
0
220
0
230
1
0
LINE
5
B8
100
AcDbEntity
8
1
62
256
6
ByLayer
370
18
48
1
60
1
100
AcDbLine
10
74.318684
20
31.102334
30
0
11
77.743863
21
30.247665
31
0
39
0
210
0
220
0
230
1
0
LINE
5
B9
100
AcDbEntity
8
1
62
256
6
ByLayer
370
18
48
1
60
1
100
AcDbLine
10
77.743863
20
30.247665
30
0
11
77.405952
21
29.390284
31
0
39
0
210
0
220
0
230
1
0
LINE
5
BA
100
AcDbEntity
8
1
62
256
6
ByLayer
370
18
48
1
60
1
100
AcDbLine
10
77.405952
20
29.390284
30
0
11
74.318684
21
31.102334
31
0
39
0
210
0
220
0
230
1
0
LINE
5
BB
100
AcDbEntity
8
1
62
256
6
ByLayer
370
18
48
1
60
1
100
AcDbLine
10
74.318684
20
-31.102334
30
0
11
77.405949
21
-29.390285
31
0
39
0
210
0
220
0
230
1
0
LINE
5
BC
100
AcDbEntity
8
1
62
256
6
ByLayer
370
18
48
1
60
1
100
AcDbLine
10
77.405949
20
-29.390285
30
0
11
77.743867
21
-30.247664
31
0
39
0
210
0
220
0
230
1
0
LINE
5
BD
100
AcDbEntity
8
1
62
256
6
ByLayer
370
18
48
1
60
1
100
AcDbLine
10
77.743867
20
-30.247664
30
0
11
74.318684
21
-31.102334
31
0
39
0
210
0
220
0
230
1
0
LINE
5
112
100
AcDbEntity
8
1
62
256
6
ByLayer
370
13
48
0.05
60
0
100
AcDbLine
10
-46.5
20
0
30
0
11
67.790042
21
0
31
0
39
0
210
0
220
0
230
1
0
LINE
5
117
100
AcDbEntity
8
1
62
256
6
ByLayer
370
18
48
1
60
1
100
AcDbLine
10
76.75
20
4.85
30
0
11
77.210784
21
1.350002
31
0
39
0
210
0
220
0
230
1
0
LINE
5
118
100
AcDbEntity
8
1
62
256
6
ByLayer
370
18
48
1
60
1
100
AcDbLine
10
77.210784
20
1.350002
30
0
11
76.289216
21
1.349998
31
0
39
0
210
0
220
0
230
1
0
LINE
5
119
100
AcDbEntity
8
1
62
256
6
ByLayer
370
18
48
1
60
1
100
AcDbLine
10
76.289216
20
1.349998
30
0
11
76.75
21
4.85
31
0
39
0
210
0
220
0
230
1
0
LINE
5
11B
100
AcDbEntity
8
1
62
256
6
ByLayer
370
18
48
1
60
1
100
AcDbLine
10
76.75
20
-4.85
30
0
11
76.289216
21
-1.350002
31
0
39
0
210
0
220
0
230
1
0
LINE
5
11C
100
AcDbEntity
8
1
62
256
6
ByLayer
370
18
48
1
60
1
100
AcDbLine
10
76.289216
20
-1.350002
30
0
11
77.210784
21
-1.349998
31
0
39
0
210
0
220
0
230
1
0
LINE
5
11D
100
AcDbEntity
8
1
62
256
6
ByLayer
370
18
48
1
60
1
100
AcDbLine
10
77.210784
20
-1.349998
30
0
11
76.75
21
-4.85
31
0
39
0
210
0
220
0
230
1
0
LINE
5
121
100
AcDbEntity
8
1
62
256
6
ByLayer
370
18
48
1
60
1
100
AcDbLine
10
-48.25
20
5
30
0
11
-47.789216
21
1.500002
31
0
39
0
210
0
220
0
230
1
0
LINE
5
122
100
AcDbEntity
8
1
62
256
6
ByLayer
370
18
48
1
60
1
100
AcDbLine
10
-47.789216
20
1.500002
30
0
11
-48.710784
21
1.499998
31
0
39
0
210
0
220
0
230
1
0
LINE
5
123
100
AcDbEntity
8
1
62
256
6
ByLayer
370
18
48
1
60
1
100
AcDbLine
10
-48.710784
20
1.499998
30
0
11
-48.25
21
5
31
0
39
0
210
0
220
0
230
1
0
LINE
5
125
100
AcDbEntity
8
1
62
256
6
ByLayer
370
18
48
1
60
1
100
AcDbLine
10
-48.25
20
-5
30
0
11
-48.710784
21
-1.500002
31
0
39
0
210
0
220
0
230
1
0
LINE
5
126
100
AcDbEntity
8
1
62
256
6
ByLayer
370
18
48
1
60
1
100
AcDbLine
10
-48.710784
20
-1.500002
30
0
11
-47.789216
21
-1.499998
31
0
39
0
210
0
220
0
230
1
0
LINE
5
127
100
AcDbEntity
8
1
62
256
6
ByLayer
370
18
48
1
60
1
100
AcDbLine
10
-47.789216
20
-1.499998
30
0
11
-48.25
21
-5
31
0
39
0
210
0
220
0
230
1
0
LINE
5
12A
100
AcDbEntity
8
1
62
256
6
ByLayer
370
18
48
1
60
1
100
AcDbLine
10
74.318684
20
31.102334
30
0
11
77.743863
21
30.247665
31
0
39
0
210
0
220
0
230
1
0
LINE
5
12B
100
AcDbEntity
8
1
62
256
6
ByLayer
370
18
48
1
60
1
100
AcDbLine
10
77.743863
20
30.247665
30
0
11
77.405952
21
29.390284
31
0
39
0
210
0
220
0
230
1
0
LINE
5
12C
100
AcDbEntity
8
1
62
256
6
ByLayer
370
18
48
1
60
1
100
AcDbLine
10
77.405952
20
29.390284
30
0
11
74.318684
21
31.102334
31
0
39
0
210
0
220
0
230
1
0
LINE
5
12E
100
AcDbEntity
8
1
62
256
6
ByLayer
370
18
48
1
60
1
100
AcDbLine
10
74.318684
20
-31.102334
30
0
11
77.405949
21
-29.390285
31
0
39
0
210
0
220
0
230
1
0
LINE
5
12F
100
AcDbEntity
8
1
62
256
6
ByLayer
370
18
48
1
60
1
100
AcDbLine
10
77.405949
20
-29.390285
30
0
11
77.743867
21
-30.247664
31
0
39
0
210
0
220
0
230
1
0
LINE
5
130
100
AcDbEntity
8
1
62
256
6
ByLayer
370
18
48
1
60
1
100
AcDbLine
10
77.743867
20
-30.247664
30
0
11
74.318684
21
-31.102334
31
0
39
0
210
0
220
0
230
1
0
MTEXT
5
113
100
AcDbEntity
8
2
62
256
6
ByLayer
370
18
48
1
60
0
100
AcDbMText
10
75.185366
20
8.784844
30
0
210
0
220
0
230
1
1
%%c
40
3.5
41
0
44
1.084337
50
90
71
7
72
5
7
iso_b_vert
0
MTEXT
5
116
100
AcDbEntity
8
2
62
256
6
ByLayer
370
18
48
1
60
0
100
AcDbMText
10
75.185366
20
15.7575
30
0
210
0
220
0
230
1
1
\W0.7121;9.7
40
3.5
41
0
44
1.084337
50
90
71
7
72
5
7
iso_b_vert
0
MTEXT
5
11F
100
AcDbEntity
8
SK2
62
256
6
ByLayer
370
18
48
1
60
0
100
AcDbMText
10
-49.814634
20
11.934844
30
0
210
0
220
0
230
1
1
%%c
40
3.5
41
0
44
1.084337
50
90
71
7
72
5
7
iso_b_vert
0
MTEXT
5
120
100
AcDbEntity
8
SK2
62
256
6
ByLayer
370
18
48
1
60
0
100
AcDbMText
10
-49.814634
20
18.9075
30
0
210
0
220
0
230
1
1
\W0.5321;10
40
3.5
41
0
44
1.084337
50
90
71
7
72
5
7
iso_b_vert
0
MTEXT
5
129
100
AcDbEntity
8
SK2
62
256
6
ByLayer
370
18
48
1
60
0
100
AcDbMText
10
92.026202
20
-2.467366
30
0
210
0
220
0
230
1
1
\W0.7825;140%%d
40
3.5
41
0
44
1.084337
50
0
71
7
72
5
7
iso_b_vert
0
MTEXT
5
132
100
AcDbEntity
8
SK6
62
256
6
ByLayer
370
18
48
1
60
0
100
AcDbMText
10
-17.900436
20
-97.467366
30
0
210
0
220
0
230
1
1
\W0.7547;860.1-0970-049A1-MM M2BM
40
3.5
41
0
44
1.084337
50
0
71
7
72
5
7
iso_b_vert
0
HATCH
5
11A
100
AcDbEntity
8
2
62
256
6
ByLayer
370
13
48
1
60
0
100
AcDbHatch
10
0
20
0
30
0
210
0
220
0
230
1
2
ANSI31
70
0
71
0
91
1
92
5
93
3
72
1
10
76.75
20
4.85000000000002
11
77.2107837415528
21
1.35000169255321
72
1
10
77.2107837415528
20
1.35000169255321
11
76.2892162584472
21
1.34999830744684
72
1
10
76.2892162584472
20
1.34999830744684
11
76.75
21
4.85000000000002
97
0
75
0
76
1
52
0
41
0.0062
77
0
78
1
53
45
43
0
44
0
45
-0.0139193969876572
46
0.0139193969876572
79
0
47
0
98
1
10
0
20
0
0
HATCH
5
11E
100
AcDbEntity
8
2
62
256
6
ByLayer
370
13
48
1
60
0
100
AcDbHatch
10
0
20
0
30
0
210
0
220
0
230
1
2
ANSI31
70
0
71
0
91
1
92
5
93
3
72
1
10
76.75
20
-4.84999999999999
11
76.2892162584472
21
-1.35000169255318
72
1
10
76.2892162584472
20
-1.35000169255318
11
77.2107837415528
21
-1.34999830744681
72
1
10
77.2107837415528
20
-1.34999830744681
11
76.75
21
-4.84999999999999
97
0
75
0
76
1
52
0
41
0.0062
77
0
78
1
53
45
43
0
44
0
45
-0.0139193969876572
46
0.0139193969876572
79
0
47
0
98
1
10
0
20
0
0
HATCH
5
124
100
AcDbEntity
8
SK2
62
256
6
ByLayer
370
13
48
1
60
0
100
AcDbHatch
10
0
20
0
30
0
210
0
220
0
230
1
2
ANSI31
70
0
71
0
91
1
92
5
93
3
72
1
10
-48.25
20
5
11
-47.7892162584472
21
1.50000169255318
72
1
10
-47.7892162584472
20
1.50000169255318
11
-48.7107837415528
21
1.49999830744682
72
1
10
-48.7107837415528
20
1.49999830744682
11
-48.25
21
5
97
0
75
0
76
1
52
0
41
0.0062
77
0
78
1
53
45
43
0
44
0
45
-0.0139193969876572
46
0.0139193969876572
79
0
47
0
98
1
10
0
20
0
0
HATCH
5
128
100
AcDbEntity
8
SK2
62
256
6
ByLayer
370
13
48
1
60
0
100
AcDbHatch
10
0
20
0
30
0
210
0
220
0
230
1
2
ANSI31
70
0
71
0
91
1
92
5
93
3
72
1
10
-48.25
20
-5
11
-48.7107837415528
21
-1.50000169255318
72
1
10
-48.7107837415528
20
-1.50000169255318
11
-47.7892162584472
21
-1.49999830744682
72
1
10
-47.7892162584472
20
-1.49999830744682
11
-48.25
21
-5
97
0
75
0
76
1
52
0
41
0.0062
77
0
78
1
53
45
43
0
44
0
45
-0.0139193969876572
46
0.0139193969876572
79
0
47
0
98
1
10
0
20
0
0
HATCH
5
12D
100
AcDbEntity
8
SK2
62
256
6
ByLayer
370
13
48
1
60
0
100
AcDbHatch
10
0
20
0
30
0
210
0
220
0
230
1
2
ANSI31
70
0
71
0
91
1
92
5
93
3
72
1
10
74.3186843201142
20
31.1023336841658
11
77.7438634001129
21
30.2476652814801
72
1
10
77.7438634001129
20
30.2476652814801
11
77.4059517283401
21
29.3902841946765
72
1
10
77.4059517283401
20
29.3902841946765
11
74.3186843201142
21
31.1023336841658
97
0
75
0
76
1
52
0
41
0.0062
77
0
78
1
53
45
43
0
44
0
45
-0.0139193969876572
46
0.0139193969876572
79
0
47
0
98
1
10
0
20
0
0
HATCH
5
131
100
AcDbEntity
8
SK2
62
256
6
ByLayer
370
13
48
1
60
0
100
AcDbHatch
10
0
20
0
30
0
210
0
220
0
230
1
2
ANSI31
70
0
71
0
91
1
92
5
93
3
72
1
10
74.3186843201146
20
-31.1023336841657
11
77.4059485790085
21
-29.3902854359068
72
1
10
77.4059485790085
20
-29.3902854359068
11
77.7438665494453
21
-30.2476640402496
72
1
10
77.7438665494453
20
-30.2476640402496
11
74.3186843201146
21
-31.1023336841657
97
0
75
0
76
1
52
0
41
0.0062
77
0
78
1
53
45
43
0
44
0
45
-0.0139193969876572
46
0.0139193969876572
79
0
47
0
98
1
10
0
20
0
0
DIMENSION
5
135
100
AcDbEntity
8
2
62
256
6
ByLayer
370
18
48
1
60
0
100
AcDbDimension
2
_U0
10
63
20
-64.342303
30
0
11
11.5
21
-64.342303
31
0
70
32
71
1
72
1
41
1
210
0
220
0
230
1
3
Standard
100
AcDbAlignedDimension
13
-40
23
-5
33
0
14
63
24
-4.85
34
0
50
0
100
AcDbRotatedDimension
1001
ACAD
1000
DSTYLE
1002
{
1070
   371
1070
    13
1070
   372
1070
    13
1070
     3
1000

1070
   170
1070
     0
1070
   144
1040
1.0
1070
   277
1070
     2
1070
   284
1070
     8
1070
   278
1070
    46
1070
   146
1040
1.0
1070
   345
1005
16
1070
   347
1005
16
1070
   346
1005
16
1070
   344
1005
0
1070
   343
1005
0
1070
   172
1070
     1
1070
    76
1070
     0
1070
    75
1070
     0
1070
   282
1070
     0
1070
   281
1070
     0
1070
    71
1070
     0
1070
    74
1070
     0
1070
   279
1070
     0
1070
   173
1070
     1
1070
   340
1005
114
1070
   271
1070
     2
1070
   272
1070
     2
1070
    77
1070
     1
1070
    73
1070
     1
1070
   171
1070
     3
1070
   274
1070
     4
1070
   177
1070
     2
1070
   176
1070
     2
1070
   178
1070
     2
1070
    78
1070
     8
1070
    48
1040
-0.1
1070
    41
1040
3.5
1070
   147
1040
1.75
1070
    42
1040
1.5875
1070
    44
1040
2.0
1070
   140
1040
3.5
1002
}
1001
ACAD_DSTYLE_DIM_LINETYPE
1070
   380
1005
16
1001
ACAD_DSTYLE_DIM_EXT1_LINETYPE
1070
   381
1005
16
1001
ACAD_DSTYLE_DIM_EXT2_LINETYPE
1070
   382
1005
16
0
DIMENSION
5
14E
100
AcDbEntity
8
SK2
62
256
6
ByLayer
370
18
48
1
60
0
100
AcDbDimension
2
_U1
10
2
20
-44.342303
30
0
11
32.5
21
-44.342303
31
0
70
32
71
1
72
1
41
1
210
0
220
0
230
1
3
Standard
100
AcDbAlignedDimension
13
63
23
-4.85
33
0
14
2
24
-4.85
34
0
50
0
100
AcDbRotatedDimension
1001
ACAD
1000
DSTYLE
1002
{
1070
   371
1070
    13
1070
   372
1070
    13
1070
     3
1000

1070
   170
1070
     0
1070
   144
1040
1.0
1070
   277
1070
     2
1070
   284
1070
     8
1070
   278
1070
    46
1070
   146
1040
1.0
1070
   345
1005
16
1070
   347
1005
16
1070
   346
1005
16
1070
   344
1005
0
1070
   343
1005
0
1070
   172
1070
     1
1070
    76
1070
     0
1070
    75
1070
     0
1070
   282
1070
     0
1070
   281
1070
     0
1070
    71
1070
     0
1070
    74
1070
     0
1070
   279
1070
     0
1070
   173
1070
     1
1070
   340
1005
114
1070
   271
1070
     2
1070
   272
1070
     2
1070
    77
1070
     1
1070
    73
1070
     1
1070
   171
1070
     3
1070
   274
1070
     4
1070
   177
1070
     2
1070
   176
1070
     2
1070
   178
1070
     2
1070
    78
1070
     8
1070
    48
1040
-0.1
1070
    41
1040
3.5
1070
   147
1040
1.75
1070
    42
1040
1.5875
1070
    44
1040
2.0
1070
   140
1040
3.5
1002
}
1001
ACAD_DSTYLE_DIM_LINETYPE
1070
   380
1005
16
1001
ACAD_DSTYLE_DIM_EXT1_LINETYPE
1070
   381
1005
16
1001
ACAD_DSTYLE_DIM_EXT2_LINETYPE
1070
   382
1005
16
0
DIMENSION
5
166
100
AcDbEntity
8
SK2
62
256
6
ByLayer
370
18
48
1
60
0
100
AcDbDimension
2
_U2
10
14
20
-34.342303
30
0
11
38.5
21
-34.342303
31
0
70
32
71
1
72
1
41
1
210
0
220
0
230
1
3
Standard
100
AcDbAlignedDimension
13
63
23
-4.85
33
0
14
14
24
-4.85
34
0
50
0
100
AcDbRotatedDimension
1001
ACAD
1000
DSTYLE
1002
{
1070
   371
1070
    13
1070
   372
1070
    13
1070
     3
1000

1070
   170
1070
     0
1070
   144
1040
1.0
1070
   277
1070
     2
1070
   284
1070
     8
1070
   278
1070
    46
1070
   146
1040
1.0
1070
   345
1005
16
1070
   347
1005
16
1070
   346
1005
16
1070
   344
1005
0
1070
   343
1005
0
1070
   172
1070
     1
1070
    76
1070
     0
1070
    75
1070
     0
1070
   282
1070
     0
1070
   281
1070
     0
1070
    71
1070
     0
1070
    74
1070
     0
1070
   279
1070
     0
1070
   173
1070
     1
1070
   340
1005
114
1070
   271
1070
     2
1070
   272
1070
     2
1070
    77
1070
     1
1070
    73
1070
     1
1070
   171
1070
     3
1070
   274
1070
     4
1070
   177
1070
     2
1070
   176
1070
     2
1070
   178
1070
     2
1070
    78
1070
     8
1070
    48
1040
-0.1
1070
    41
1040
3.5
1070
   147
1040
1.75
1070
    42
1040
1.5875
1070
    44
1040
2.0
1070
   140
1040
3.5
1002
}
1001
ACAD_DSTYLE_DIM_LINETYPE
1070
   380
1005
16
1001
ACAD_DSTYLE_DIM_EXT1_LINETYPE
1070
   381
1005
16
1001
ACAD_DSTYLE_DIM_EXT2_LINETYPE
1070
   382
1005
16
0
DIMENSION
5
180
100
AcDbEntity
8
SK2
62
256
6
ByLayer
370
18
48
1
60
0
100
AcDbDimension
2
_U3
10
0
20
-44.342303
30
0
11
-20
21
-44.342303
31
0
70
32
71
1
72
1
41
1
210
0
220
0
230
1
3
Standard
100
AcDbAlignedDimension
13
-40
23
-5
33
0
14
0
24
-5
34
0
50
0
100
AcDbRotatedDimension
1001
ACAD
1000
DSTYLE
1002
{
1070
   371
1070
    13
1070
   372
1070
    13
1070
     3
1000

1070
   170
1070
     0
1070
   144
1040
1.0
1070
   277
1070
     2
1070
   284
1070
     8
1070
   278
1070
    46
1070
   146
1040
1.0
1070
   345
1005
16
1070
   347
1005
16
1070
   346
1005
16
1070
   344
1005
0
1070
   343
1005
0
1070
   172
1070
     1
1070
    76
1070
     0
1070
    75
1070
     0
1070
   282
1070
     0
1070
   281
1070
     0
1070
    71
1070
     0
1070
    74
1070
     0
1070
   279
1070
     0
1070
   173
1070
     1
1070
   340
1005
114
1070
   271
1070
     2
1070
   272
1070
     2
1070
    77
1070
     1
1070
    73
1070
     1
1070
   171
1070
     3
1070
   274
1070
     4
1070
   177
1070
     2
1070
   176
1070
     2
1070
   178
1070
     2
1070
    78
1070
     8
1070
    48
1040
-0.1
1070
    41
1040
3.5
1070
   147
1040
1.75
1070
    42
1040
1.5875
1070
    44
1040
2.0
1070
   140
1040
3.5
1002
}
1001
ACAD_DSTYLE_DIM_LINETYPE
1070
   380
1005
16
1001
ACAD_DSTYLE_DIM_EXT1_LINETYPE
1070
   381
1005
16
1001
ACAD_DSTYLE_DIM_EXT2_LINETYPE
1070
   382
1005
16
0
DIMENSION
5
198
100
AcDbEntity
8
SK2
62
256
6
ByLayer
370
18
48
1
60
0
100
AcDbDimension
2
_U4
10
63
20
-54.342303
30
0
11
31.5
21
-54.342303
31
0
70
32
71
1
72
1
41
1
210
0
220
0
230
1
3
Standard
100
AcDbAlignedDimension
13
0
23
-5
33
0
14
63
24
-4.85
34
0
50
0
100
AcDbRotatedDimension
1001
ACAD
1000
DSTYLE
1002
{
1070
   371
1070
    13
1070
   372
1070
    13
1070
     3
1000

1070
   170
1070
     0
1070
   144
1040
1.0
1070
   277
1070
     2
1070
   284
1070
     8
1070
   278
1070
    46
1070
   146
1040
1.0
1070
   345
1005
16
1070
   347
1005
16
1070
   346
1005
16
1070
   344
1005
0
1070
   343
1005
0
1070
   172
1070
     1
1070
    76
1070
     0
1070
    75
1070
     0
1070
   282
1070
     0
1070
   281
1070
     0
1070
    71
1070
     0
1070
    74
1070
     0
1070
   279
1070
     0
1070
   173
1070
     1
1070
   340
1005
114
1070
   271
1070
     2
1070
   272
1070
     2
1070
    77
1070
     1
1070
    73
1070
     1
1070
   171
1070
     3
1070
   274
1070
     4
1070
   177
1070
     2
1070
   176
1070
     2
1070
   178
1070
     2
1070
    78
1070
     8
1070
    48
1040
-0.1
1070
    41
1040
3.5
1070
   147
1040
1.75
1070
    42
1040
1.5875
1070
    44
1040
2.0
1070
   140
1040
3.5
1002
}
1001
ACAD_DSTYLE_DIM_LINETYPE
1070
   380
1005
16
1001
ACAD_DSTYLE_DIM_EXT1_LINETYPE
1070
   381
1005
16
1001
ACAD_DSTYLE_DIM_EXT2_LINETYPE
1070
   382
1005
16
0
ENDSEC
0
SECTION
2
OBJECTS
0
DICTIONARY
5
220
330
0
100
AcDbDictionary
280
0
281
1
3
ACAD_GROUP
350
221
3
ACAD_MLINESTYLE
350
222
0
DICTIONARY
5
221
330
0
100
AcDbDictionary
280
0
281
1
0
DICTIONARY
5
222
330
0
100
AcDbDictionary
280
0
281
1
3
Standard
350
18
0
MLINESTYLE
5
18
330
222
100
AcDbMlineStyle
2
Standard
70
0
3

62
256
51
90
52
90
71
2
49
-0.5
62
256
6
ByLayer
49
0.5
62
256
6
ByLayer
0
RASTERVARIABLES
5
20e
330

100
AcDbRasterVariables
90
0
70
1
71
1
72
1
0
ENDSEC
0
EOF
