0
SECTION
2
HEADER
9
$ACADVER
1
AC1015
9
$DWGCODEPAGE
3
ANSI_1252
9
$HANDSEED
5
22a
9
$ANGBASE
50
0
9
$ANGDIR
70
0
9
$ATTMODE
70
1
9
$AUNITS
70
0
9
$AUPREC
70
0
9
$CECOLOR
62
256
9
$CELTSCALE
40
1
9
$CELTYPE
6
ByLayer
9
$CELWEIGHT
370
18
9
$CLAYER
8
0
9
$CMLJUST
70
0
9
$CMLSCALE
40
1
9
$CMLSTYLE
2
Standard
9
$DIMSTYLE
2
Standard
9
$TEXTSIZE
40
0.2
9
$TEXTSTYLE
7
Standard
9
$LUNITS
70
2
9
$LUPREC
70
4
9
$EXTNAMES
290
1
9
$INSUNITS
70
4
9
$LTSCALE
40
1
9
$LWDISPLAY
290
1
9
$PDMODE
70
0
9
$PDSIZE
40
0
9
$PLINEGEN
70
0
0
ENDSEC
0
SECTION
2
CLASSES
0
CLASS
1
RASTERVARIABLES
2
AcDbRasterVariables
3
ISM
90
0
280
0
281
0
0
ENDSEC
0
SECTION
2
TABLES
0
TABLE
2
VPORT
5
220
100
AcDbSymbolTable
0
VPORT
5
1
100
AcDbSymbolTableRecord
100
AcDbViewportTableRecord
2
*Active
70
0
10
0
20
0
11
1
21
1
12
-1
22
1
13
0
23
0
14
0.5
24
0.5
15
10
25
10
16
0
26
0
36
1
17
0
27
0
37
0
0
ENDTAB
0
TABLE
2
LTYPE
5
221
100
AcDbSymbolTable
0
LTYPE
5
14
100
AcDbSymbolTableRecord
100
AcDbLinetypeTableRecord
70
0
2
ByBlock
3

72
65
73
0
40
0
0
LTYPE
5
15
100
AcDbSymbolTableRecord
100
AcDbLinetypeTableRecord
70
0
2
ByLayer
3

72
65
73
0
40
0
0
LTYPE
5
16
100
AcDbSymbolTableRecord
100
AcDbLinetypeTableRecord
70
0
2
Continuous
3
Solid line
72
65
73
0
40
0
0
LTYPE
5
6E
100
AcDbSymbolTableRecord
100
AcDbLinetypeTableRecord
70
0
2
CENTER
3
____ _ ____ _ ____ _ ____
72
65
73
4
40
47.5
49
22
74
0
49
-8.5
74
0
49
8.5
74
0
49
-8.5
74
0
0
LTYPE
5
6F
100
AcDbSymbolTableRecord
100
AcDbLinetypeTableRecord
70
0
2
DASHED
3
__ __ __ __ __ __ __ __ __
72
65
73
2
40
25.72
49
12.86
74
0
49
-12.86
74
0
0
ENDTAB
0
TABLE
2
LAYER
5
222
100
AcDbSymbolTable
0
LAYER
5
10
100
AcDbSymbolTableRecord
100
AcDbLayerTableRecord
2
0
70
0
62
7
6
Continuous
290
1
370
-3
390
0
0
LAYER
5
71
100
AcDbSymbolTableRecord
100
AcDbLayerTableRecord
2
81
70
0
62
-3
6
Continuous
290
1
370
-3
390
0
0
LAYER
5
73
100
AcDbSymbolTableRecord
100
AcDbLayerTableRecord
2
80
70
0
62
-6
6
Continuous
290
1
370
-3
390
0
0
LAYER
5
75
100
AcDbSymbolTableRecord
100
AcDbLayerTableRecord
2
1
70
0
62
4
6
Continuous
290
1
370
-3
390
0
0
LAYER
5
83
100
AcDbSymbolTableRecord
100
AcDbLayerTableRecord
2
4
70
0
62
-2
6
CENTER
290
1
370
-3
390
0
0
LAYER
5
A3
100
AcDbSymbolTableRecord
100
AcDbLayerTableRecord
2
2
70
0
62
7
6
Continuous
290
1
370
-3
390
0
0
LAYER
5
135
100
AcDbSymbolTableRecord
100
AcDbLayerTableRecord
2
Defpoints
70
0
62
7
6
Continuous
290
0
370
-3
390
0
0
LAYER
5
20c
100
AcDbSymbolTableRecord
100
AcDbLayerTableRecord
2
SK4
70
0
62
2
6
CENTER
290
1
370
-3
390
0
0
LAYER
5
20d
100
AcDbSymbolTableRecord
100
AcDbLayerTableRecord
2
SK1
70
0
62
4
6
Continuous
290
1
370
-3
390
0
0
LAYER
5
20e
100
AcDbSymbolTableRecord
100
AcDbLayerTableRecord
2
SK2
70
0
62
7
6
Continuous
290
1
370
-3
390
0
0
LAYER
5
20f
100
AcDbSymbolTableRecord
100
AcDbLayerTableRecord
2
SK6
70
0
62
5
6
Continuous
290
1
370
-3
390
0
0
ENDTAB
0
TABLE
2
STYLE
5
223
100
AcDbSymbolTable
0
STYLE
5
11
100
AcDbSymbolTableRecord
100
AcDbTextStyleTableRecord
2
Standard
3
txt
70
0
71
0
40
0
41
1
42
0
50
0
0
STYLE
5
111
100
AcDbSymbolTableRecord
100
AcDbTextStyleTableRecord
2
iso_b_vert
3
simplex.shx
70
0
71
0
40
0
41
1
42
0
50
0
0
STYLE
5
112
100
AcDbSymbolTableRecord
100
AcDbTextStyleTableRecord
2
DWGDirectTextStyle
3
simplex
70
0
71
0
40
0
41
1
42
0
50
0
0
ENDTAB
0
TABLE
2
DIMSTYLE
5
224
100
AcDbSymbolTable
100
AcDbDimStyleTable
0
DIMSTYLE
105
27
100
AcDbSymbolTableRecord
100
AcDbDimStyleTableRecord
2
Standard
70
0
3
<>
41
0.18
42
0.0625
44
0.18
140
0.18
147
0.09
73
0
74
0
77
1
271
2
275
0
278
52
280
0
340
11
0
ENDTAB
0
TABLE
2
VIEW
5
225
100
AcDbSymbolTable
0
ENDTAB
0
TABLE
2
UCS
5
226
100
AcDbSymbolTable
0
ENDTAB
0
TABLE
2
APPID
5
227
100
AcDbSymbolTable
0
APPID
5
12
100
AcDbSymbolTableRecord
100
AcDbRegAppTableRecord
2
ACAD
70
0
0
APPID
5
131
100
AcDbSymbolTableRecord
100
AcDbRegAppTableRecord
2
ACAD_DSTYLE_DIMBREAK
70
0
0
APPID
5
1CB
100
AcDbSymbolTableRecord
100
AcDbRegAppTableRecord
2
ACAD_DSTYLE_DIM_LINETYPE
70
0
0
APPID
5
1CC
100
AcDbSymbolTableRecord
100
AcDbRegAppTableRecord
2
ACAD_DSTYLE_DIM_EXT1_LINETYPE
70
0
0
APPID
5
1CD
100
AcDbSymbolTableRecord
100
AcDbRegAppTableRecord
2
ACAD_DSTYLE_DIM_EXT2_LINETYPE
70
0
0
APPID
5
208
100
AcDbSymbolTableRecord
100
AcDbRegAppTableRecord
2
ACAD_MLEADERVER
70
0
0
ENDTAB
0
TABLE
2
BLOCK_RECORD
5
228
100
AcDbSymbolTable
0
BLOCK_RECORD
5
1F
100
AcDbSymbolTableRecord
100
AcDbBlockTableRecord
2
*Model_Space
340
0
70
0
0
BLOCK_RECORD
5
1B
100
AcDbSymbolTableRecord
100
AcDbBlockTableRecord
2
*Paper_Space
340
0
70
0
0
BLOCK_RECORD
5
23
100
AcDbSymbolTableRecord
100
AcDbBlockTableRecord
2
*Paper_Space0
340
0
70
0
0
BLOCK_RECORD
5
136
100
AcDbSymbolTableRecord
100
AcDbBlockTableRecord
2
*D1
340
0
70
0
0
BLOCK_RECORD
5
142
100
AcDbSymbolTableRecord
100
AcDbBlockTableRecord
2
_U0
340
0
70
0
0
BLOCK_RECORD
5
14E
100
AcDbSymbolTableRecord
100
AcDbBlockTableRecord
2
*D3
340
0
70
0
0
BLOCK_RECORD
5
15A
100
AcDbSymbolTableRecord
100
AcDbBlockTableRecord
2
_U1
340
0
70
0
0
BLOCK_RECORD
5
166
100
AcDbSymbolTableRecord
100
AcDbBlockTableRecord
2
*D5
340
0
70
0
0
BLOCK_RECORD
5
172
100
AcDbSymbolTableRecord
100
AcDbBlockTableRecord
2
_U2
340
0
70
0
0
BLOCK_RECORD
5
180
100
AcDbSymbolTableRecord
100
AcDbBlockTableRecord
2
*D7
340
0
70
0
0
BLOCK_RECORD
5
18C
100
AcDbSymbolTableRecord
100
AcDbBlockTableRecord
2
_U3
340
0
70
0
0
BLOCK_RECORD
5
198
100
AcDbSymbolTableRecord
100
AcDbBlockTableRecord
2
*D9
340
0
70
0
0
BLOCK_RECORD
5
1A4
100
AcDbSymbolTableRecord
100
AcDbBlockTableRecord
2
_U4
340
0
70
0
0
ENDTAB
0
ENDSEC
0
SECTION
2
BLOCKS
0
BLOCK
5
20
100
AcDbEntity
8
0
100
AcDbBlockBegin
2
*Model_Space
70
0
10
0
20
0
30
0
3
*Model_Space
0
ENDBLK
5
21
100
AcDbEntity
8
0
100
AcDbBlockEnd
0
BLOCK
5
1C
100
AcDbEntity
8
0
100
AcDbBlockBegin
2
*Paper_Space
70
0
10
0
20
0
30
0
3
*Paper_Space
0
ENDBLK
5
1D
100
AcDbEntity
8
0
100
AcDbBlockEnd
0
BLOCK
5
24
100
AcDbEntity
8
0
100
AcDbBlockBegin
2
*Paper_Space0
70
0
10
0
20
0
30
0
3
*Paper_Space0
0
ENDBLK
5
25
100
AcDbEntity
8
0
100
AcDbBlockEnd
0
BLOCK
5
137
100
AcDbEntity
8
0
100
AcDbBlockBegin
2
*D1
70
1
10
0
20
0
30
0
3
*D1
0
LINE
5
139
100
AcDbEntity
8
0
62
256
6
ByLayer
370
-2
48
1
60
0
100
AcDbLine
10
-40
20
-6.5875
30
0
11
-40
21
-65.21828
31
0
39
0
210
0
220
0
230
1
0
LINE
5
13A
100
AcDbEntity
8
0
62
256
6
ByLayer
370
-2
48
1
60
0
100
AcDbLine
10
63
20
-5.7875
30
0
11
63
21
-65.21828
31
0
39
0
210
0
220
0
230
1
0
LINE
5
13B
100
AcDbEntity
8
0
62
256
6
ByLayer
370
-2
48
1
60
0
100
AcDbLine
10
-36.5
20
-63.21828
30
0
11
59.5
21
-63.21828
31
0
39
0
210
0
220
0
230
1
0
SOLID
5
13C
100
AcDbEntity
8
0
62
256
6
ByLayer
370
-1
48
1
60
0
100
AcDbTrace
10
-36.5
20
-62.634947
30
0
11
-36.5
21
-63.801613
31
0
12
-40
22
-63.21828
32
0
13
-40
23
-63.21828
33
0
39
0
210
0
220
0
230
1
0
SOLID
5
13D
100
AcDbEntity
8
0
62
256
6
ByLayer
370
-1
48
1
60
0
100
AcDbTrace
10
59.5
20
-63.801613
30
0
11
59.5
21
-62.634947
31
0
12
63
22
-63.21828
32
0
13
63
23
-63.21828
33
0
39
0
210
0
220
0
230
1
0
MTEXT
5
13E
100
AcDbEntity
8
0
62
256
6
ByLayer
370
18
48
1
60
0
100
AcDbMText
10
11.5
20
-56.21828
30
0
210
0
220
0
230
1
1
\A1;103
40
3.5
41
0
44
1
50
0
71
5
72
5
7
iso_b_vert
0
POINT
5
13F
100
AcDbEntity
8
Defpoints
62
0
6
ByLayer
370
-1
48
1
60
0
100
AcDbPoint
10
-40
20
-5
30
0
39
0
210
0
220
0
230
1
50
360
0
POINT
5
140
100
AcDbEntity
8
Defpoints
62
0
6
ByLayer
370
-1
48
1
60
0
100
AcDbPoint
10
63
20
-4.2
30
0
39
0
210
0
220
0
230
1
50
360
0
POINT
5
141
100
AcDbEntity
8
Defpoints
62
0
6
ByLayer
370
-1
48
1
60
0
100
AcDbPoint
10
63
20
-63.21828
30
0
39
0
210
0
220
0
230
1
50
360
0
ENDBLK
5
138
100
AcDbEntity
8
0
100
AcDbBlockEnd
0
BLOCK
5
149
100
AcDbEntity
8
0
100
AcDbBlockBegin
2
_U0
70
0
10
0
20
0
30
0
3
_U0
0
MTEXT
5
143
100
AcDbEntity
8
2
62
256
6
ByLayer
370
18
48
1
60
0
100
AcDbMText
10
8.724734
20
-62.185646
30
0
210
0
220
0
230
1
1
\W0.6217;103
40
3.5
41
0
44
1.084337
50
0
71
7
72
5
7
iso_b_vert
0
LINE
5
144
100
AcDbEntity
8
2
62
256
6
ByLayer
370
13
48
1
60
0
100
AcDbLine
10
-40
20
-6.5875
30
0
11
-40
21
-65.21828
31
0
39
0
210
0
220
0
230
1
0
LINE
5
145
100
AcDbEntity
8
2
62
256
6
ByLayer
370
13
48
1
60
0
100
AcDbLine
10
63
20
-5.7875
30
0
11
63
21
-65.21828
31
0
39
0
210
0
220
0
230
1
0
LINE
5
146
100
AcDbEntity
8
2
62
256
6
ByLayer
370
13
48
1
60
0
100
AcDbLine
10
-40
20
-63.21828
30
0
11
63
21
-63.21828
31
0
39
0
210
0
220
0
230
1
0
SOLID
5
147
100
AcDbEntity
8
2
62
256
6
ByLayer
370
18
48
1
60
0
100
AcDbTrace
10
-40
20
-63.21828
30
0
11
-36.500002
21
-62.757496
31
0
12
-36.499998
22
-63.679064
32
0
13
-36.499998
23
-63.679064
33
0
39
0
210
0
220
0
230
1
0
SOLID
5
148
100
AcDbEntity
8
2
62
256
6
ByLayer
370
18
48
1
60
0
100
AcDbTrace
10
63
20
-63.21828
30
0
11
59.500002
21
-63.679064
31
0
12
59.499998
22
-62.757496
32
0
13
59.499998
23
-62.757496
33
0
39
0
210
0
220
0
230
1
0
ENDBLK
5
14A
100
AcDbEntity
8
0
100
AcDbBlockEnd
0
BLOCK
5
14F
100
AcDbEntity
8
0
100
AcDbBlockBegin
2
*D3
70
1
10
0
20
0
30
0
3
*D3
0
LINE
5
151
100
AcDbEntity
8
0
62
256
6
ByLayer
370
-2
48
1
60
0
100
AcDbLine
10
63
20
-5.7875
30
0
11
63
21
-45.21828
31
0
39
0
210
0
220
0
230
1
0
LINE
5
152
100
AcDbEntity
8
0
62
256
6
ByLayer
370
-2
48
1
60
0
100
AcDbLine
10
2
20
-5.7875
30
0
11
2
21
-45.21828
31
0
39
0
210
0
220
0
230
1
0
LINE
5
153
100
AcDbEntity
8
0
62
256
6
ByLayer
370
-2
48
1
60
0
100
AcDbLine
10
59.5
20
-43.21828
30
0
11
5.5
21
-43.21828
31
0
39
0
210
0
220
0
230
1
0
SOLID
5
154
100
AcDbEntity
8
0
62
256
6
ByLayer
370
-1
48
1
60
0
100
AcDbTrace
10
59.5
20
-43.801613
30
0
11
59.5
21
-42.634947
31
0
12
63
22
-43.21828
32
0
13
63
23
-43.21828
33
0
39
0
210
0
220
0
230
1
0
SOLID
5
155
100
AcDbEntity
8
0
62
256
6
ByLayer
370
-1
48
1
60
0
100
AcDbTrace
10
5.5
20
-42.634947
30
0
11
5.5
21
-43.801613
31
0
12
2
22
-43.21828
32
0
13
2
23
-43.21828
33
0
39
0
210
0
220
0
230
1
0
MTEXT
5
156
100
AcDbEntity
8
0
62
256
6
ByLayer
370
18
48
1
60
0
100
AcDbMText
10
32.5
20
-36.21828
30
0
210
0
220
0
230
1
1
\A1;61
40
3.5
41
0
44
1
50
0
71
5
72
5
7
iso_b_vert
0
POINT
5
157
100
AcDbEntity
8
Defpoints
62
0
6
ByLayer
370
-1
48
1
60
0
100
AcDbPoint
10
63
20
-4.2
30
0
39
0
210
0
220
0
230
1
50
360
0
POINT
5
158
100
AcDbEntity
8
Defpoints
62
0
6
ByLayer
370
-1
48
1
60
0
100
AcDbPoint
10
2
20
-4.2
30
0
39
0
210
0
220
0
230
1
50
360
0
POINT
5
159
100
AcDbEntity
8
Defpoints
62
0
6
ByLayer
370
-1
48
1
60
0
100
AcDbPoint
10
2
20
-43.21828
30
0
39
0
210
0
220
0
230
1
50
360
0
ENDBLK
5
150
100
AcDbEntity
8
0
100
AcDbBlockEnd
0
BLOCK
5
161
100
AcDbEntity
8
0
100
AcDbBlockBegin
2
_U1
70
0
10
0
20
0
30
0
3
_U1
0
MTEXT
5
15B
100
AcDbEntity
8
SK2
62
256
6
ByLayer
370
18
48
1
60
0
100
AcDbMText
10
31.032467
20
-42.185646
30
0
210
0
220
0
230
1
1
\W0.6351;61
40
3.5
41
0
44
1.084337
50
0
71
7
72
5
7
iso_b_vert
0
LINE
5
15C
100
AcDbEntity
8
SK2
62
256
6
ByLayer
370
13
48
1
60
0
100
AcDbLine
10
63
20
-5.7875
30
0
11
63
21
-45.21828
31
0
39
0
210
0
220
0
230
1
0
LINE
5
15D
100
AcDbEntity
8
SK2
62
256
6
ByLayer
370
13
48
1
60
0
100
AcDbLine
10
2
20
-5.7875
30
0
11
2
21
-45.21828
31
0
39
0
210
0
220
0
230
1
0
LINE
5
15E
100
AcDbEntity
8
SK2
62
256
6
ByLayer
370
13
48
1
60
0
100
AcDbLine
10
63
20
-43.21828
30
0
11
2
21
-43.21828
31
0
39
0
210
0
220
0
230
1
0
SOLID
5
15F
100
AcDbEntity
8
SK2
62
256
6
ByLayer
370
18
48
1
60
0
100
AcDbTrace
10
63
20
-43.21828
30
0
11
59.500002
21
-43.679064
31
0
12
59.499998
22
-42.757496
32
0
13
59.499998
23
-42.757496
33
0
39
0
210
0
220
0
230
1
0
SOLID
5
160
100
AcDbEntity
8
SK2
62
256
6
ByLayer
370
18
48
1
60
0
100
AcDbTrace
10
2
20
-43.21828
30
0
11
5.499998
21
-42.757496
31
0
12
5.500002
22
-43.679064
32
0
13
5.500002
23
-43.679064
33
0
39
0
210
0
220
0
230
1
0
ENDBLK
5
162
100
AcDbEntity
8
0
100
AcDbBlockEnd
0
BLOCK
5
167
100
AcDbEntity
8
0
100
AcDbBlockBegin
2
*D5
70
1
10
0
20
0
30
0
3
*D5
0
LINE
5
169
100
AcDbEntity
8
0
62
256
6
ByLayer
370
-2
48
1
60
0
100
AcDbLine
10
63
20
-5.7875
30
0
11
63
21
-35.21828
31
0
39
0
210
0
220
0
230
1
0
LINE
5
16A
100
AcDbEntity
8
0
62
256
6
ByLayer
370
-2
48
1
60
0
100
AcDbLine
10
14
20
-5.7875
30
0
11
14
21
-35.21828
31
0
39
0
210
0
220
0
230
1
0
LINE
5
16B
100
AcDbEntity
8
0
62
256
6
ByLayer
370
-2
48
1
60
0
100
AcDbLine
10
59.5
20
-33.21828
30
0
11
17.5
21
-33.21828
31
0
39
0
210
0
220
0
230
1
0
SOLID
5
16C
100
AcDbEntity
8
0
62
256
6
ByLayer
370
-1
48
1
60
0
100
AcDbTrace
10
59.5
20
-33.801613
30
0
11
59.5
21
-32.634947
31
0
12
63
22
-33.21828
32
0
13
63
23
-33.21828
33
0
39
0
210
0
220
0
230
1
0
SOLID
5
16D
100
AcDbEntity
8
0
62
256
6
ByLayer
370
-1
48
1
60
0
100
AcDbTrace
10
17.5
20
-32.634947
30
0
11
17.5
21
-33.801613
31
0
12
14
22
-33.21828
32
0
13
14
23
-33.21828
33
0
39
0
210
0
220
0
230
1
0
MTEXT
5
16E
100
AcDbEntity
8
0
62
256
6
ByLayer
370
18
48
1
60
0
100
AcDbMText
10
38.5
20
-26.21828
30
0
210
0
220
0
230
1
1
\A1;49
40
3.5
41
0
44
1
50
0
71
5
72
5
7
iso_b_vert
0
POINT
5
16F
100
AcDbEntity
8
Defpoints
62
0
6
ByLayer
370
-1
48
1
60
0
100
AcDbPoint
10
63
20
-4.2
30
0
39
0
210
0
220
0
230
1
50
360
0
POINT
5
170
100
AcDbEntity
8
Defpoints
62
0
6
ByLayer
370
-1
48
1
60
0
100
AcDbPoint
10
14
20
-4.2
30
0
39
0
210
0
220
0
230
1
50
360
0
POINT
5
171
100
AcDbEntity
8
Defpoints
62
0
6
ByLayer
370
-1
48
1
60
0
100
AcDbPoint
10
14
20
-33.21828
30
0
39
0
210
0
220
0
230
1
50
360
0
ENDBLK
5
168
100
AcDbEntity
8
0
100
AcDbBlockEnd
0
BLOCK
5
17B
100
AcDbEntity
8
0
100
AcDbBlockBegin
2
_U2
70
0
10
0
20
0
30
0
3
_U2
0
MTEXT
5
173
100
AcDbEntity
8
SK2
62
256
6
ByLayer
370
18
48
1
60
0
100
AcDbMText
10
36.410767
20
-32.185646
30
0
210
0
220
0
230
1
1
\W0.7565;49
40
3.5
41
0
44
1.084337
50
0
71
7
72
5
7
iso_b_vert
0
MTEXT
5
174
100
AcDbEntity
8
SK2
62
256
6
ByLayer
370
18
48
1
60
0
100
AcDbMText
10
32.542768
20
-32.185646
30
0
210
0
220
0
230
1
1
\W0.1790;(
40
3.5
41
0
44
1.084337
50
0
71
7
72
5
7
iso_b_vert
0
MTEXT
5
175
100
AcDbEntity
8
SK2
62
256
6
ByLayer
370
18
48
1
60
0
100
AcDbMText
10
44.460233
20
-32.185646
30
0
210
0
220
0
230
1
1
\W0.1969;)
40
3.5
41
0
44
1.084337
50
0
71
7
72
5
7
iso_b_vert
0
LINE
5
176
100
AcDbEntity
8
SK2
62
256
6
ByLayer
370
13
48
1
60
0
100
AcDbLine
10
63
20
-5.7875
30
0
11
63
21
-35.21828
31
0
39
0
210
0
220
0
230
1
0
LINE
5
177
100
AcDbEntity
8
SK2
62
256
6
ByLayer
370
13
48
1
60
0
100
AcDbLine
10
14
20
-5.7875
30
0
11
14
21
-35.21828
31
0
39
0
210
0
220
0
230
1
0
LINE
5
178
100
AcDbEntity
8
SK2
62
256
6
ByLayer
370
13
48
1
60
0
100
AcDbLine
10
63
20
-33.21828
30
0
11
14
21
-33.21828
31
0
39
0
210
0
220
0
230
1
0
SOLID
5
179
100
AcDbEntity
8
SK2
62
256
6
ByLayer
370
18
48
1
60
0
100
AcDbTrace
10
63
20
-33.21828
30
0
11
59.500002
21
-33.679064
31
0
12
59.499998
22
-32.757496
32
0
13
59.499998
23
-32.757496
33
0
39
0
210
0
220
0
230
1
0
SOLID
5
17A
100
AcDbEntity
8
SK2
62
256
6
ByLayer
370
18
48
1
60
0
100
AcDbTrace
10
14
20
-33.21828
30
0
11
17.499998
21
-32.757496
31
0
12
17.500002
22
-33.679064
32
0
13
17.500002
23
-33.679064
33
0
39
0
210
0
220
0
230
1
0
ENDBLK
5
17C
100
AcDbEntity
8
0
100
AcDbBlockEnd
0
BLOCK
5
181
100
AcDbEntity
8
0
100
AcDbBlockBegin
2
*D7
70
1
10
0
20
0
30
0
3
*D7
0
LINE
5
183
100
AcDbEntity
8
0
62
256
6
ByLayer
370
-2
48
1
60
0
100
AcDbLine
10
-40
20
-6.5875
30
0
11
-40
21
-45.21828
31
0
39
0
210
0
220
0
230
1
0
LINE
5
184
100
AcDbEntity
8
0
62
256
6
ByLayer
370
-2
48
1
60
0
100
AcDbLine
10
0
20
-6.5875
30
0
11
0
21
-45.21828
31
0
39
0
210
0
220
0
230
1
0
LINE
5
185
100
AcDbEntity
8
0
62
256
6
ByLayer
370
-2
48
1
60
0
100
AcDbLine
10
-36.5
20
-43.21828
30
0
11
-3.5
21
-43.21828
31
0
39
0
210
0
220
0
230
1
0
SOLID
5
186
100
AcDbEntity
8
0
62
256
6
ByLayer
370
-1
48
1
60
0
100
AcDbTrace
10
-36.5
20
-42.634947
30
0
11
-36.5
21
-43.801613
31
0
12
-40
22
-43.21828
32
0
13
-40
23
-43.21828
33
0
39
0
210
0
220
0
230
1
0
SOLID
5
187
100
AcDbEntity
8
0
62
256
6
ByLayer
370
-1
48
1
60
0
100
AcDbTrace
10
-3.5
20
-43.801613
30
0
11
-3.5
21
-42.634947
31
0
12
0
22
-43.21828
32
0
13
0
23
-43.21828
33
0
39
0
210
0
220
0
230
1
0
MTEXT
5
188
100
AcDbEntity
8
0
62
256
6
ByLayer
370
18
48
1
60
0
100
AcDbMText
10
-20
20
-36.21828
30
0
210
0
220
0
230
1
1
\A1;40
40
3.5
41
0
44
1
50
0
71
5
72
5
7
iso_b_vert
0
POINT
5
189
100
AcDbEntity
8
Defpoints
62
0
6
ByLayer
370
-1
48
1
60
0
100
AcDbPoint
10
-40
20
-5
30
0
39
0
210
0
220
0
230
1
50
360
0
POINT
5
18A
100
AcDbEntity
8
Defpoints
62
0
6
ByLayer
370
-1
48
1
60
0
100
AcDbPoint
10
0
20
-5
30
0
39
0
210
0
220
0
230
1
50
360
0
POINT
5
18B
100
AcDbEntity
8
Defpoints
62
0
6
ByLayer
370
-1
48
1
60
0
100
AcDbPoint
10
0
20
-43.21828
30
0
39
0
210
0
220
0
230
1
50
360
0
ENDBLK
5
182
100
AcDbEntity
8
0
100
AcDbBlockEnd
0
BLOCK
5
193
100
AcDbEntity
8
0
100
AcDbBlockBegin
2
_U3
70
0
10
0
20
0
30
0
3
_U3
0
MTEXT
5
18D
100
AcDbEntity
8
SK2
62
256
6
ByLayer
370
18
48
1
60
0
100
AcDbMText
10
-22.089233
20
-42.185646
30
0
210
0
220
0
230
1
1
\W0.7361;40
40
3.5
41
0
44
1.084337
50
0
71
7
72
5
7
iso_b_vert
0
LINE
5
18E
100
AcDbEntity
8
SK2
62
256
6
ByLayer
370
13
48
1
60
0
100
AcDbLine
10
-40
20
-6.5875
30
0
11
-40
21
-45.21828
31
0
39
0
210
0
220
0
230
1
0
LINE
5
18F
100
AcDbEntity
8
SK2
62
256
6
ByLayer
370
13
48
1
60
0
100
AcDbLine
10
0
20
-6.5875
30
0
11
0
21
-45.21828
31
0
39
0
210
0
220
0
230
1
0
LINE
5
190
100
AcDbEntity
8
SK2
62
256
6
ByLayer
370
13
48
1
60
0
100
AcDbLine
10
-40
20
-43.21828
30
0
11
0
21
-43.21828
31
0
39
0
210
0
220
0
230
1
0
SOLID
5
191
100
AcDbEntity
8
SK2
62
256
6
ByLayer
370
18
48
1
60
0
100
AcDbTrace
10
-40
20
-43.21828
30
0
11
-36.500002
21
-42.757496
31
0
12
-36.499998
22
-43.679064
32
0
13
-36.499998
23
-43.679064
33
0
39
0
210
0
220
0
230
1
0
SOLID
5
192
100
AcDbEntity
8
SK2
62
256
6
ByLayer
370
18
48
1
60
0
100
AcDbTrace
10
0
20
-43.21828
30
0
11
-3.499998
21
-43.679064
31
0
12
-3.500002
22
-42.757496
32
0
13
-3.500002
23
-42.757496
33
0
39
0
210
0
220
0
230
1
0
ENDBLK
5
194
100
AcDbEntity
8
0
100
AcDbBlockEnd
0
BLOCK
5
199
100
AcDbEntity
8
0
100
AcDbBlockBegin
2
*D9
70
1
10
0
20
0
30
0
3
*D9
0
LINE
5
19B
100
AcDbEntity
8
0
62
256
6
ByLayer
370
-2
48
1
60
0
100
AcDbLine
10
0
20
-6.5875
30
0
11
0
21
-55.21828
31
0
39
0
210
0
220
0
230
1
0
LINE
5
19C
100
AcDbEntity
8
0
62
256
6
ByLayer
370
-2
48
1
60
0
100
AcDbLine
10
63
20
-5.7875
30
0
11
63
21
-55.21828
31
0
39
0
210
0
220
0
230
1
0
LINE
5
19D
100
AcDbEntity
8
0
62
256
6
ByLayer
370
-2
48
1
60
0
100
AcDbLine
10
3.5
20
-53.21828
30
0
11
59.5
21
-53.21828
31
0
39
0
210
0
220
0
230
1
0
SOLID
5
19E
100
AcDbEntity
8
0
62
256
6
ByLayer
370
-1
48
1
60
0
100
AcDbTrace
10
3.5
20
-52.634947
30
0
11
3.5
21
-53.801613
31
0
12
0
22
-53.21828
32
0
13
0
23
-53.21828
33
0
39
0
210
0
220
0
230
1
0
SOLID
5
19F
100
AcDbEntity
8
0
62
256
6
ByLayer
370
-1
48
1
60
0
100
AcDbTrace
10
59.5
20
-53.801613
30
0
11
59.5
21
-52.634947
31
0
12
63
22
-53.21828
32
0
13
63
23
-53.21828
33
0
39
0
210
0
220
0
230
1
0
MTEXT
5
1A0
100
AcDbEntity
8
0
62
256
6
ByLayer
370
18
48
1
60
0
100
AcDbMText
10
31.5
20
-46.21828
30
0
210
0
220
0
230
1
1
\A1;63
40
3.5
41
0
44
1
50
0
71
5
72
5
7
iso_b_vert
0
POINT
5
1A1
100
AcDbEntity
8
Defpoints
62
0
6
ByLayer
370
-1
48
1
60
0
100
AcDbPoint
10
0
20
-5
30
0
39
0
210
0
220
0
230
1
50
360
0
POINT
5
1A2
100
AcDbEntity
8
Defpoints
62
0
6
ByLayer
370
-1
48
1
60
0
100
AcDbPoint
10
63
20
-4.2
30
0
39
0
210
0
220
0
230
1
50
360
0
POINT
5
1A3
100
AcDbEntity
8
Defpoints
62
0
6
ByLayer
370
-1
48
1
60
0
100
AcDbPoint
10
63
20
-53.21828
30
0
39
0
210
0
220
0
230
1
50
360
0
ENDBLK
5
19A
100
AcDbEntity
8
0
100
AcDbBlockEnd
0
BLOCK
5
1AB
100
AcDbEntity
8
0
100
AcDbBlockBegin
2
_U4
70
0
10
0
20
0
30
0
3
_U4
0
MTEXT
5
1A5
100
AcDbEntity
8
SK2
62
256
6
ByLayer
370
18
48
1
60
0
100
AcDbMText
10
29.595034
20
-52.185646
30
0
210
0
220
0
230
1
1
\W0.6740;63
40
3.5
41
0
44
1.084337
50
0
71
7
72
5
7
iso_b_vert
0
LINE
5
1A6
100
AcDbEntity
8
SK2
62
256
6
ByLayer
370
13
48
1
60
0
100
AcDbLine
10
0
20
-6.5875
30
0
11
0
21
-55.21828
31
0
39
0
210
0
220
0
230
1
0
LINE
5
1A7
100
AcDbEntity
8
SK2
62
256
6
ByLayer
370
13
48
1
60
0
100
AcDbLine
10
63
20
-5.7875
30
0
11
63
21
-55.21828
31
0
39
0
210
0
220
0
230
1
0
LINE
5
1A8
100
AcDbEntity
8
SK2
62
256
6
ByLayer
370
13
48
1
60
0
100
AcDbLine
10
0
20
-53.21828
30
0
11
63
21
-53.21828
31
0
39
0
210
0
220
0
230
1
0
SOLID
5
1A9
100
AcDbEntity
8
SK2
62
256
6
ByLayer
370
18
48
1
60
0
100
AcDbTrace
10
0
20
-53.21828
30
0
11
3.499998
21
-52.757496
31
0
12
3.500002
22
-53.679064
32
0
13
3.500002
23
-53.679064
33
0
39
0
210
0
220
0
230
1
0
SOLID
5
1AA
100
AcDbEntity
8
SK2
62
256
6
ByLayer
370
18
48
1
60
0
100
AcDbTrace
10
63
20
-53.21828
30
0
11
59.500002
21
-53.679064
31
0
12
59.499998
22
-52.757496
32
0
13
59.499998
23
-52.757496
33
0
39
0
210
0
220
0
230
1
0
ENDBLK
5
1AC
100
AcDbEntity
8
0
100
AcDbBlockEnd
0
ENDSEC
0
SECTION
2
ENTITIES
0
ARC
5
BE
100
AcDbEntity
8
1
62
256
6
ByLayer
370
18
48
1
60
0
100
AcDbCircle
39
0
10
1.406683
20
4.962459
30
0
40
0.799999999999998
210
0
220
0
230
1
100
AcDbArc
50
208.816938
51
270.03581
0
ARC
5
BF
100
AcDbEntity
8
1
62
256
6
ByLayer
370
18
48
1
60
0
100
AcDbCircle
39
0
10
1.406683
20
-4.962459
30
0
40
0.799999999999998
210
0
220
0
230
1
100
AcDbArc
50
89.96419
51
151.183062
0
ARC
5
C0
100
AcDbEntity
8
1
62
256
6
ByLayer
370
18
48
1
60
0
100
AcDbCircle
39
0
10
0
20
4.2
30
0
40
0.79999999999999
210
0
220
0
230
1
100
AcDbArc
50
28.816938
51
90
0
ARC
5
C1
100
AcDbEntity
8
1
62
256
6
ByLayer
370
18
48
1
60
0
100
AcDbCircle
39
0
10
0
20
-4.2
30
0
40
0.79999999999999
210
0
220
0
230
1
100
AcDbArc
50
270
51
331.183062
0
ARC
5
C2
100
AcDbEntity
8
SK2
62
256
6
ByLayer
370
13
48
1
60
0
100
AcDbCircle
39
0
10
63
20
0
30
0
40
32.68602468248
210
0
220
0
230
1
100
AcDbArc
50
5.706399
51
69.996085
0
ARC
5
C3
100
AcDbEntity
8
SK2
62
256
6
ByLayer
370
13
48
1
60
0
100
AcDbCircle
39
0
10
63
20
0
30
0
40
32.68602468248
210
0
220
0
230
1
100
AcDbArc
50
290.003915
51
354.293601
0
ELLIPSE
5
C4
100
AcDbEntity
8
1
62
256
6
ByLayer
370
13
48
1
60
0
100
AcDbEllipse
10
3.686225
20
-3.460532
30
0
11
0.0156243458618041
21
-0.0987718574108573
31
0
210
0
220
0
230
1
40
0.532959
41
-2.54454488949292
42
-1.17409857169076
0
ELLIPSE
5
C5
100
AcDbEntity
8
1
62
256
6
ByLayer
370
13
48
1
60
0
100
AcDbEllipse
10
3.750221
20
-3.463911
30
0
11
-0.0237408662125252
21
-0.0971409865683841
31
0
210
0
220
0
230
1
40
0.361646
41
-2.55077779934473
42
-0.999734599385308
0
POINT
5
70
100
AcDbEntity
8
81
62
256
6
ByLayer
370
18
48
1
60
0
100
AcDbPoint
10
63
20
0
30
0
39
0
210
0
220
0
230
1
50
360
0
POINT
5
72
100
AcDbEntity
8
80
62
256
6
ByLayer
370
18
48
1
60
0
100
AcDbPoint
10
0
20
0
30
0
39
0
210
0
220
0
230
1
50
360
0
POINT
5
74
100
AcDbEntity
8
1
62
256
6
ByLayer
370
18
48
1
60
0
100
AcDbPoint
10
-206.831988
20
-200
30
0
39
0
210
0
220
0
230
1
50
360
0
POINT
5
76
100
AcDbEntity
8
1
62
256
6
ByLayer
370
13
48
1
60
1
100
AcDbPoint
10
-41.5
20
0
30
0
39
0
210
0
220
0
230
1
50
360
0
POINT
5
77
100
AcDbEntity
8
1
62
256
6
ByLayer
370
13
48
1
60
1
100
AcDbPoint
10
63.018822
20
0
30
0
39
0
210
0
220
0
230
1
50
360
0
POINT
5
78
100
AcDbEntity
8
1
62
256
6
ByLayer
370
18
48
1
60
1
100
AcDbPoint
10
-40
20
-5
30
0
39
0
210
0
220
0
230
1
50
360
0
POINT
5
79
100
AcDbEntity
8
1
62
256
6
ByLayer
370
18
48
1
60
1
100
AcDbPoint
10
63
20
-4.2
30
0
39
0
210
0
220
0
230
1
50
360
0
POINT
5
7A
100
AcDbEntity
8
1
62
256
6
ByLayer
370
18
48
1
60
1
100
AcDbPoint
10
63
20
-4.2
30
0
39
0
210
0
220
0
230
1
50
360
0
POINT
5
7B
100
AcDbEntity
8
1
62
256
6
ByLayer
370
18
48
1
60
1
100
AcDbPoint
10
2
20
-4.2
30
0
39
0
210
0
220
0
230
1
50
360
0
POINT
5
7C
100
AcDbEntity
8
1
62
256
6
ByLayer
370
18
48
1
60
1
100
AcDbPoint
10
63
20
-4.2
30
0
39
0
210
0
220
0
230
1
50
360
0
POINT
5
7D
100
AcDbEntity
8
1
62
256
6
ByLayer
370
18
48
1
60
1
100
AcDbPoint
10
14
20
-4.2
30
0
39
0
210
0
220
0
230
1
50
360
0
POINT
5
7E
100
AcDbEntity
8
1
62
256
6
ByLayer
370
18
48
1
60
1
100
AcDbPoint
10
-40
20
-5
30
0
39
0
210
0
220
0
230
1
50
360
0
POINT
5
7F
100
AcDbEntity
8
1
62
256
6
ByLayer
370
18
48
1
60
1
100
AcDbPoint
10
0
20
-5
30
0
39
0
210
0
220
0
230
1
50
360
0
POINT
5
80
100
AcDbEntity
8
1
62
256
6
ByLayer
370
18
48
1
60
1
100
AcDbPoint
10
0
20
-5
30
0
39
0
210
0
220
0
230
1
50
360
0
POINT
5
81
100
AcDbEntity
8
1
62
256
6
ByLayer
370
18
48
1
60
1
100
AcDbPoint
10
63
20
-4.2
30
0
39
0
210
0
220
0
230
1
50
360
0
SPLINE
5
C6
100
AcDbEntity
8
1
62
256
6
ByLayer
370
18
48
1
60
0
100
AcDbSpline
70
4
71
3
72
8
73
4
40
0
40
0
40
0
40
0
40
1
40
1
40
1
40
1
41
1
10
62.5977651628541
20
1.39034440114125
30
0
41
1
10
62.7345135452089
20
1.00561286640678
30
0
41
1
10
62.8673222877813
20
0.619465554529683
30
0
41
1
10
62.9961269028271
20
0.231879290732735
30
0
0
SPLINE
5
C7
100
AcDbEntity
8
1
62
256
6
ByLayer
370
13
48
1
60
0
100
AcDbSpline
70
4
71
3
72
18
73
14
40
0
40
0
40
0
40
0
40
0.250000000000041
40
0.250000000000041
40
0.375000000000029
40
0.375000000000029
40
0.500000000000017
40
0.500000000000017
40
0.749999999999988
40
0.749999999999988
40
0.874999999999994
40
0.874999999999994
40
1
40
1
40
1
40
1
41
1
10
3.64370886435501
20
-3.50637559731871
30
0
41
1
10
3.62620177928065
20
-3.50637209706164
30
0
41
1
10
3.6102749441402
20
-3.50636043078879
30
0
41
1
10
3.58845022354998
20
-3.50631567448624
30
0
41
1
10
3.58151904759924
20
-3.50629617137238
30
0
41
1
10
3.568366726351
20
-3.50624518461291
30
0
41
1
10
3.56226317959133
20
-3.50621415340331
30
0
41
1
10
3.54525144869058
20
-3.50610174200591
30
0
41
1
10
3.53562862293373
20
-3.50600110902866
30
0
41
1
10
3.52361346567361
20
-3.50580032609159
30
0
41
1
10
3.52000419317872
20
-3.50572469159218
30
0
41
1
10
3.51370473439428
20
-3.50555738182916
30
0
41
1
10
3.51100238006274
20
-3.50546564019243
30
0
41
1
10
3.50873572017161
20
-3.50536536576726
30
0
0
SPLINE
5
C8
100
AcDbEntity
8
1
62
256
6
ByLayer
370
18
48
1
60
0
100
AcDbSpline
70
2053
71
3
72
119
73
115
40
0
40
0
40
0
40
0
40
0.0312500000000012
40
0.0312500000000012
40
0.0468750000000035
40
0.0468750000000035
40
0.0625000000000057
40
0.0625000000000057
40
0.0937500000000102
40
0.0937500000000102
40
0.109375000000014
40
0.109375000000014
40
0.117187500000014
40
0.117187500000014
40
0.125000000000014
40
0.125000000000014
40
0.156250000000014
40
0.156250000000014
40
0.171875000000014
40
0.171875000000014
40
0.179687500000013
40
0.179687500000013
40
0.187500000000013
40
0.187500000000013
40
0.218750000000011
40
0.218750000000011
40
0.234375000000009
40
0.234375000000009
40
0.242187500000009
40
0.242187500000009
40
0.250000000000008
40
0.250000000000008
40
0.281250000000008
40
0.281250000000008
40
0.296875000000007
40
0.296875000000007
40
0.304687500000007
40
0.304687500000007
40
0.312500000000007
40
0.312500000000007
40
0.343750000000007
40
0.343750000000007
40
0.351562500000006
40
0.351562500000006
40
0.359375000000005
40
0.359375000000005
40
0.375000000000004
40
0.390625000000003
40
0.390625000000003
40
0.406250000000002
40
0.406250000000002
40
0.4375
40
0.4375
40
0.445312500000001
40
0.445312500000001
40
0.453125000000002
40
0.468750000000007
40
0.484375000000011
40
0.484375000000011
40
0.492187500000016
40
0.492187500000016
40
0.50000000000002
40
0.50000000000002
40
0.531250000000036
40
0.531250000000036
40
0.546875000000042
40
0.546875000000042
40
0.562500000000048
40
0.562500000000048
40
0.593750000000057
40
0.593750000000057
40
0.609375000000061
40
0.609375000000061
40
0.625000000000065
40
0.625000000000065
40
0.65625000000007
40
0.65625000000007
40
0.664062500000071
40
0.664062500000071
40
0.671875000000072
40
0.671875000000072
40
0.687500000000071
40
0.687500000000071
40
0.718750000000068
40
0.718750000000068
40
0.726562500000066
40
0.726562500000066
40
0.734375000000065
40
0.750000000000062
40
0.765625000000059
40
0.765625000000059
40
0.781250000000057
40
0.781250000000057
40
0.812500000000051
40
0.812500000000051
40
0.828125000000047
40
0.828125000000047
40
0.843750000000044
40
0.85937500000004
40
0.85937500000004
40
0.867187500000038
40
0.867187500000038
40
0.875000000000035
40
0.875000000000035
40
0.906250000000026
40
0.906250000000026
40
0.937500000000017
40
0.937500000000017
40
0.953125000000013
40
0.953125000000013
40
0.968750000000009
40
0.984375000000004
40
0.984375000000004
40
1
40
1
40
1
40
1
41
1
10
61.8274577796834
20
-1.99118789437622
30
0
41
1
10
61.8117850476949
20
-2.01370586027585
30
0
41
1
10
61.7966458920733
20
-2.03257219064196
30
0
41
1
10
61.7745855451341
20
-2.05575978323526
30
0
41
1
10
61.7673405600289
20
-2.06263046418573
30
0
41
1
10
61.7530452576163
20
-2.07464458197654
30
0
41
1
10
61.7459837337176
20
-2.0797948797609
30
0
41
1
10
61.7251296742675
20
-2.09252903928996
30
0
41
1
10
61.7119663530133
20
-2.09724521424059
30
0
41
1
10
61.6931099153246
20
-2.09884557448993
30
0
41
1
10
61.6869735206277
20
-2.09846101610475
30
0
41
1
10
61.677972517974
20
-2.09648018052752
30
0
41
1
10
61.6750061604541
20
-2.09558555675525
30
0
41
1
10
61.6691385809658
20
-2.09331873322586
30
0
41
1
10
61.6662307429183
20
-2.09194256360305
30
0
41
1
10
61.651935140339
20
-2.08388902702961
30
0
41
1
10
61.6413242213051
20
-2.07377523823647
30
0
41
1
10
61.626449588416
20
-2.05317789060288
30
0
41
1
10
61.6216665456135
20
-2.04540229657644
30
0
41
1
10
61.6147435310441
20
-2.03233334433699
30
0
41
1
10
61.6124778750551
20
-2.02774239860406
30
0
41
1
10
61.6080298702962
20
-2.01807959413676
30
0
41
1
10
61.6058420437209
20
-2.01299374281692
30
0
41
1
10
61.5951846513024
20
-1.98650968309417
30
0
41
1
10
61.587584039979
20
-1.96209784843606
30
0
41
1
10
61.5774969425694
20
-1.92063982291333
30
0
41
1
10
61.5743558055368
20
-1.90600854124267
30
0
41
1
10
61.5699886785948
20
-1.88279061170505
30
0
41
1
10
61.5685905617846
20
-1.87483906996633
30
0
41
1
10
61.5659138202578
20
-1.85849725487569
30
0
41
1
10
61.564632580707
20
-1.85008556859054
30
0
41
1
10
61.5586066497317
20
-1.80738445731274
30
0
41
1
10
61.5549336095639
20
-1.77091492318419
30
0
41
1
10
61.5512943254896
20
-1.71266411120908
30
0
41
1
10
61.5503960964143
20
-1.69265172287555
30
0
41
1
10
61.549574136641
20
-1.66168285789769
30
0
41
1
10
61.549387796487
20
-1.65116747249815
30
0
41
1
10
61.5492045692961
20
-1.62997291975313
30
0
41
1
10
61.5492072863224
20
-1.61932387326794
30
0
41
1
10
61.5497001637702
20
-1.5658230610635
30
0
41
1
10
61.5516076517666
20
-1.52221330815638
30
0
41
1
10
61.556202919286
20
-1.46665506976265
30
0
41
1
10
61.5572338624555
20
-1.45549055893687
30
0
41
1
10
61.559533496142
20
-1.43305252384363
30
0
41
1
10
61.5608030752783
20
-1.42178176468664
30
0
41
1
10
61.564923116568
20
-1.38831449036823
30
0
41
1
10
61.5712779898493
20
-1.34426865250686
30
0
41
1
10
61.5794077654575
20
-1.30136522521158
30
0
41
1
10
61.5884762856288
20
-1.2590453320316
30
0
41
1
10
61.5935189411526
20
-1.2380467984851
30
0
41
1
10
61.6097577956816
20
-1.17743089351805
30
0
41
1
10
61.6220915714921
20
-1.13987063009191
30
0
41
1
10
61.6393835711076
20
-1.09627310378718
30
0
41
1
10
61.6429469729023
20
-1.08769895997801
30
0
41
1
10
61.6502024197588
20
-1.07102916226651
30
0
41
1
10
61.6612742237662
20
-1.04674668990302
30
0
41
1
10
61.6806368395639
20
-1.00972234119598
30
0
41
1
10
61.697045410336
20
-0.983562996863554
30
0
41
1
10
61.7096824221735
20
-0.965199208355898
30
0
41
1
10
61.7139550215963
20
-0.959282123607352
30
0
41
1
10
61.7225297172775
20
-0.947963948747457
30
0
41
1
10
61.7268408713632
20
-0.942548960214054
30
0
41
1
10
61.7485076411918
20
-0.916645967866202
30
0
41
1
10
61.7661952712753
20
-0.89964035949555
30
0
41
1
10
61.7931194864641
20
-0.879220714066406
30
0
41
1
10
61.802182634427
20
-0.873261910117066
30
0
41
1
10
61.8201460048228
20
-0.863174213530272
30
0
41
1
10
61.8290766903798
20
-0.859017873331396
30
0
41
1
10
61.8556887905515
20
-0.849087497473505
30
0
41
1
10
61.8731926547406
20
-0.845830550662782
30
0
41
1
10
61.8989469464563
20
-0.845919385243434
30
0
41
1
10
61.9074384591036
20
-0.846791784660297
30
0
41
1
10
61.9239644713576
20
-0.850170077448922
30
0
41
1
10
61.932032945403
20
-0.8526744817039
30
0
41
1
10
61.9556221797492
20
-0.862609931529164
30
0
41
1
10
61.9705328779
20
-0.872439377836059
30
0
41
1
10
61.9879638016875
20
-0.888993635877569
30
0
41
1
10
61.9913891283979
20
-0.892519763802028
30
0
41
1
10
61.9981111678984
20
-0.900017389846511
30
0
41
1
10
62.0014082482269
20
-0.903991193492004
30
0
41
1
10
62.0110079471009
20
-0.916485314881413
30
0
41
1
10
62.0170507525189
20
-0.925609715805621
30
0
41
1
10
62.0340584635895
20
-0.955418976771966
30
0
41
1
10
62.0439147074248
20
-0.978509465826988
30
0
41
1
10
62.0540671041391
20
-1.01195459896303
30
0
41
1
10
62.0559929826981
20
-1.01889489148232
30
0
41
1
10
62.0595879898874
20
-1.03315686995228
30
0
41
1
10
62.0645906947691
20
-1.05509708575732
30
0
41
1
10
62.0709668894096
20
-1.0944147549863
30
0
41
1
10
62.0738970249215
20
-1.12892892306957
30
0
41
1
10
62.0756731976777
20
-1.16509023725627
30
0
41
1
10
62.0759751790282
20
-1.18407679334123
30
0
41
1
10
62.0750659464798
20
-1.24208004142983
30
0
41
1
10
62.0720961133946
20
-1.28256871306095
30
0
41
1
10
62.0641064955155
20
-1.34620874007072
30
0
41
1
10
62.0608203332766
20
-1.36805381062069
30
0
41
1
10
62.0532537640745
20
-1.41154771374357
30
0
41
1
10
62.044679847332
20
-1.45505794415317
30
0
41
1
10
62.0342336070365
20
-1.49861957921726
30
0
41
1
10
62.0257266540062
20
-1.531317834335
30
0
41
1
10
62.0227690025973
20
-1.54225508932669
30
0
41
1
10
62.0167018150604
20
-1.56389391854737
30
0
41
1
10
62.0135886802202
20
-1.57461217581337
30
0
41
1
10
61.9976516708053
20
-1.62771847885594
30
0
41
1
10
61.9837295452653
20
-1.6686690551447
30
0
41
1
10
61.9539340370617
20
-1.74772838932853
30
0
41
1
10
61.9385334372555
20
-1.78458409977202
30
0
41
1
10
61.9149287385625
20
-1.83619918981282
30
0
41
1
10
61.9069668466923
20
-1.85280313184518
30
0
41
1
10
61.8908995770486
20
-1.88475707090203
30
0
41
1
10
61.8748939138273
20
-1.91505220891761
30
0
41
1
10
61.8590140075605
20
-1.94221420479812
30
0
41
1
10
61.8431934340051
20
-1.96784870090696
30
0
41
1
10
61.8352941456776
20
-1.97992891142641
30
0
41
1
10
61.8274577796834
20
-1.99118789437622
30
0
0
SPLINE
5
C9
100
AcDbEntity
8
1
62
256
6
ByLayer
370
18
48
1
60
0
100
AcDbSpline
70
4
71
3
72
8
73
4
40
0
40
0
40
0
40
0
40
1
40
1
40
1
40
1
41
1
10
62.597765162854
20
-1.39034440114125
30
0
41
1
10
62.7345135452074
20
-1.00561286641084
30
0
41
1
10
62.8673222877785
20
-0.619465554537868
30
0
41
1
10
62.996126902823
20
-0.231879290745041
30
0
0
SPLINE
5
CA
100
AcDbEntity
8
1
62
256
6
ByLayer
370
18
48
1
60
0
100
AcDbSpline
70
4
71
3
72
8
73
4
40
0
40
0
40
0
40
0
40
1
40
1
40
1
40
1
41
1
10
62.9961269028232
20
0.231879290736373
30
0
41
1
10
63.0012879901018
20
0.0773841664866666
30
0
41
1
10
63.0012940782583
20
-0.077201919912369
30
0
41
1
10
62.9961269028229
20
-0.231879290745041
30
0
0
SPLINE
5
CB
100
AcDbEntity
8
1
62
256
6
ByLayer
370
18
48
1
60
0
100
AcDbSpline
70
4
71
3
72
8
73
4
40
0
40
0
40
0
40
0
40
1
40
1
40
1
40
1
41
1
10
62.9961269028199
20
0.23187929073498
30
0
41
1
10
62.9779851780261
20
0.171411516864595
30
0
41
1
10
62.9597530048827
20
0.110972120022836
30
0
41
1
10
62.9414307225704
20
0.0505609937961253
30
0
0
SPLINE
5
CC
100
AcDbEntity
8
1
62
256
6
ByLayer
370
18
48
1
60
0
100
AcDbSpline
70
4
71
3
72
46
73
42
40
0
40
0
40
0
40
0
40
0.124999999999973
40
0.124999999999973
40
0.156249999999973
40
0.156249999999973
40
0.187499999999974
40
0.187499999999974
40
0.249999999999985
40
0.249999999999985
40
0.312499999999996
40
0.312499999999996
40
0.343749999999996
40
0.343749999999996
40
0.374999999999995
40
0.374999999999995
40
0.437499999999995
40
0.437499999999995
40
0.468749999999995
40
0.468749999999995
40
0.499999999999994
40
0.499999999999994
40
0.562499999999994
40
0.562499999999994
40
0.593749999999993
40
0.593749999999993
40
0.624999999999993
40
0.624999999999993
40
0.687499999999993
40
0.687499999999993
40
0.718749999999992
40
0.718749999999992
40
0.749999999999992
40
0.749999999999992
40
0.874999999999999
40
0.874999999999999
40
0.906249999999999
40
0.906249999999999
40
0.9375
40
0.9375
40
1
40
1
40
1
40
1
41
1
10
62.9414307225705
20
0.0505609937960969
30
0
41
1
10
62.9211000440099
20
-0.0164720956338726
30
0
41
1
10
62.8977257691695
20
-0.0819726602293827
30
0
41
1
10
62.8645601970542
20
-0.161795013516553
30
0
41
1
10
62.8577271012579
20
-0.177655457219117
30
0
41
1
10
62.8436449953543
20
-0.209158325695512
30
0
41
1
10
62.8364078981656
20
-0.224768551110316
30
0
41
1
10
62.814416562328
20
-0.270509140146686
30
0
41
1
10
62.7992763344439
20
-0.299798685974281
30
0
41
1
10
62.7680593683581
20
-0.355894607064556
30
0
41
1
10
62.7519832730994
20
-0.382702612616981
30
0
41
1
10
62.7271307089175
20
-0.420887337577511
30
0
41
1
10
62.718680701075
20
-0.433332727474721
30
0
41
1
10
62.7018304231013
20
-0.457070011191178
30
0
41
1
10
62.6934107872371
20
-0.468397280618717
30
0
41
1
10
62.6681685506437
20
-0.50077383096135
30
0
41
1
10
62.6513636132056
20
-0.520225745194637
30
0
41
1
10
62.6261742634913
20
-0.546138578735167
30
0
41
1
10
62.6177805826649
20
-0.554230082725582
30
0
41
1
10
62.6009927541547
20
-0.569284671280656
30
0
41
1
10
62.5926491286332
20
-0.576197618745908
30
0
41
1
10
62.5680648381924
20
-0.594882366370086
30
0
41
1
10
62.5521409088662
20
-0.60472638760541
30
0
41
1
10
62.5288618080241
20
-0.615727149754832
30
0
41
1
10
62.5212034890692
20
-0.618764237102624
30
0
41
1
10
62.5060767431265
20
-0.623578960906514
30
0
41
1
10
62.4986182815291
20
-0.625347590982983
30
0
41
1
10
62.4768503880585
20
-0.62873303699655
30
0
41
1
10
62.4630232610982
20
-0.628481186000613
30
0
41
1
10
62.4431464715492
20
-0.624633662858344
30
0
41
1
10
62.4366654942129
20
-0.622770750075063
30
0
41
1
10
62.4239718712036
20
-0.617911407131658
30
0
41
1
10
62.4177449306199
20
-0.614903304854408
30
0
41
1
10
62.3876166742835
20
-0.597322399769325
30
0
41
1
10
62.3663918899722
20
-0.575183983727925
30
0
41
1
10
62.3423770462768
20
-0.539210827640431
30
0
41
1
10
62.3377028953217
20
-0.531594804883724
30
0
41
1
10
62.3285954831778
20
-0.515542850188496
30
0
41
1
10
62.3241623637252
20
-0.507104243305719
30
0
41
1
10
62.3112922844696
20
-0.480782229445026
30
0
41
1
10
62.3032488525588
20
-0.461838710289158
30
0
41
1
10
62.2956704966212
20
-0.441609154019147
30
0
0
SPLINE
5
CD
100
AcDbEntity
8
1
62
256
6
ByLayer
370
18
48
1
60
0
100
AcDbSpline
70
4
71
3
72
8
73
4
40
0
40
0
40
0
40
0
40
1
40
1
40
1
40
1
41
1
10
62.2956704966212
20
-0.441609154019034
30
0
41
1
10
62.1809795160721
20
-0.135454670937776
30
0
41
1
10
62.041992886728
20
0.186677008630625
30
0
41
1
10
61.8790201853543
20
0.524582302190964
30
0
0
SPLINE
5
CE
100
AcDbEntity
8
1
62
256
6
ByLayer
370
18
48
1
60
0
100
AcDbSpline
70
4
71
3
72
21
73
17
40
0
40
0
40
0
40
0
40
0.50000000000001
40
0.50000000000001
40
0.749999999999995
40
0.749999999999995
40
0.874999999999987
40
0.874999999999987
40
0.937499999999984
40
0.96874999999996
40
0.984374999999977
40
0.992187499999988
40
0.992187499999988
40
0.996093749999994
40
0.996093749999994
40
1
40
1
40
1
40
1
41
1
10
61.4730116826652
20
4.19995270038996
30
0
41
1
10
61.4881478251914
20
4.16529737892003
30
0
41
1
10
61.5035526382211
20
4.13071359574724
30
0
41
1
10
61.5271238419809
20
4.07867680587154
30
0
41
1
10
61.5350689533065
20
4.0612608894823
30
0
41
1
10
61.5470689000983
20
4.03522687987393
30
0
41
1
10
61.5510800927232
20
4.02657421762615
30
0
41
1
10
61.557098613349
20
4.01369488319006
30
0
41
1
10
61.5601090206464
20
4.00727726430088
30
0
41
1
10
61.5636601446276
20
3.9996777736169
30
0
41
1
10
61.565449184992
20
3.99583445750531
30
0
41
1
10
61.5662189259659
20
3.99417705731363
30
0
41
1
10
61.5666043489434
20
3.99334648599441
30
0
41
1
10
61.5667332589626
20
3.99306790102156
30
0
41
1
10
61.5669896429325
20
3.99251678949116
30
0
41
1
10
61.5671210772082
20
3.99223328664124
30
0
41
1
10
61.5672300339299
20
3.99203046713248
30
0
0
SPLINE
5
CF
100
AcDbEntity
8
1
62
256
6
ByLayer
370
18
48
1
60
0
100
AcDbSpline
70
4
71
3
72
21
73
17
40
0
40
0
40
0
40
0
40
0.500000000000025
40
0.500000000000025
40
0.750000000000065
40
0.750000000000065
40
0.875000000000085
40
0.875000000000085
40
0.937500000000092
40
0.968750000000071
40
0.984375000000035
40
0.992187500000018
40
0.992187500000018
40
0.996093750000009
40
0.996093750000009
40
1
40
1
40
1
40
1
41
1
10
61.4730116826653
20
-4.19995270038999
30
0
41
1
10
61.4881478251914
20
-4.16529737892003
30
0
41
1
10
61.5035526382212
20
-4.13071359574724
30
0
41
1
10
61.527123841981
20
-4.07867680587151
30
0
41
1
10
61.5350689533065
20
-4.06126088948227
30
0
41
1
10
61.5470689000983
20
-4.0352268798739
30
0
41
1
10
61.5510800927232
20
-4.02657421762612
30
0
41
1
10
61.5570986133489
20
-4.01369488319
30
0
41
1
10
61.5601090206464
20
-4.00727726430083
30
0
41
1
10
61.5636601446276
20
-3.99967777361681
30
0
41
1
10
61.5654491849922
20
-3.99583445750531
30
0
41
1
10
61.566218925966
20
-3.99417705731361
30
0
41
1
10
61.5666043489434
20
-3.99334648599438
30
0
41
1
10
61.5667332589626
20
-3.99306790102153
30
0
41
1
10
61.5669896429324
20
-3.99251678949111
30
0
41
1
10
61.5671210772082
20
-3.99223328664118
30
0
41
1
10
61.5672300339299
20
-3.99203046713242
30
0
0
SPLINE
5
D0
100
AcDbEntity
8
1
62
256
6
ByLayer
370
18
48
1
60
0
100
AcDbSpline
70
4
71
3
72
29
73
25
40
0
40
0
40
0
40
0
40
0.124999999999997
40
0.124999999999997
40
0.249999999999994
40
0.249999999999994
40
0.374999999999991
40
0.374999999999991
40
0.437499999999992
40
0.468749999999992
40
0.468749999999992
40
0.499999999999993
40
0.499999999999993
40
0.562499999999994
40
0.562499999999994
40
0.624999999999995
40
0.624999999999995
40
0.749999999999996
40
0.749999999999996
40
0.874999999999998
40
0.874999999999998
40
0.937499999999999
40
0.937499999999999
40
1
40
1
40
1
40
1
41
1
10
61.5672300339299
20
-3.99203046713242
30
0
41
1
10
61.6073345739952
20
-3.88196219943512
30
0
41
1
10
61.6471401573745
20
-3.77149020124281
30
0
41
1
10
61.7264153620792
20
-3.54986028006434
30
0
41
1
10
61.7658923919847
20
-3.43867998651922
30
0
41
1
10
61.844703590276
20
-3.21589877636333
30
0
41
1
10
61.8840352067633
20
-3.10430850705518
30
0
41
1
10
61.9430197296397
20
-2.93681881335212
30
0
41
1
10
61.9725106822225
20
-2.85303901232354
30
0
41
1
10
62.0020174605904
20
-2.76921786269878
30
0
41
1
10
62.0216935679917
20
-2.71332897537889
30
0
41
1
10
62.0315111280288
20
-2.68537872006237
30
0
41
1
10
62.0612064714896
20
-2.60153476595949
30
0
41
1
10
62.0813254424179
20
-2.54564878116346
30
0
41
1
10
62.1224156920608
20
-2.43395388081277
30
0
41
1
10
62.1434185132987
20
-2.37807187013536
30
0
41
1
10
62.20734430473
20
-2.21232238101712
30
0
41
1
10
62.2513954869331
20
-2.10386063084337
30
0
41
1
10
62.3433141313775
20
-1.89125161689839
30
0
41
1
10
62.3911745917403
20
-1.78709745145437
30
0
41
1
10
62.4665253811239
20
-1.63438251869042
30
0
41
1
10
62.492290778235
20
-1.58396870605728
30
0
41
1
10
62.5444460368586
20
-1.48557400981556
30
0
41
1
10
62.57090422526
20
-1.4374441228843
30
0
41
1
10
62.597765162854
20
-1.39034440114102
30
0
0
SPLINE
5
D1
100
AcDbEntity
8
1
62
256
6
ByLayer
370
18
48
1
60
0
100
AcDbSpline
70
4
71
3
72
100
73
96
40
0
40
0
40
0
40
0
40
0.0088749314798134
40
0.0088749314798134
40
0.0340163518683894
40
0.0340163518683894
40
0.0591577722569654
40
0.0591577722569654
40
0.0717284824512535
40
0.0717284824512535
40
0.0842991926455415
40
0.0842991926455415
40
0.109440613034119
40
0.109440613034119
40
0.134582033422696
40
0.134582033422696
40
0.159723453811274
40
0.159723453811274
40
0.184864874199851
40
0.184864874199851
40
0.19743558439414
40
0.19743558439414
40
0.210006294588428
40
0.210006294588428
40
0.235147714977006
40
0.235147714977006
40
0.260289135365583
40
0.260289135365583
40
0.28543055575416
40
0.28543055575416
40
0.310571976142738
40
0.310571976142738
40
0.335713396531315
40
0.335713396531315
40
0.348284106725605
40
0.348284106725605
40
0.360854816919894
40
0.360854816919894
40
0.373425527114183
40
0.373425527114183
40
0.385996237308473
40
0.385996237308473
40
0.411137657697052
40
0.411137657697052
40
0.43627907808563
40
0.43627907808563
40
0.461420498474209
40
0.461420498474209
40
0.473991208668498
40
0.473991208668498
40
0.486561918862788
40
0.486561918862788
40
0.511703339251365
40
0.511703339251365
40
0.536844759639943
40
0.536844759639943
40
0.56198618002852
40
0.56198618002852
40
0.587127600417098
40
0.587127600417098
40
0.612269020805675
40
0.612269020805675
40
0.624839730999964
40
0.624839730999964
40
0.637410441194253
40
0.637410441194253
40
0.66255186158283
40
0.66255186158283
40
0.687693281971408
40
0.687693281971408
40
0.712834702359985
40
0.712834702359985
40
0.737976122748563
40
0.737976122748563
40
0.750546832942851
40
0.750546832942851
40
0.76311754313714
40
0.76311754313714
40
0.813400383914295
40
0.813400383914295
40
0.838541804302872
40
0.838541804302872
40
0.86368322469145
40
0.86368322469145
40
0.888824645080027
40
0.888824645080027
40
0.913966065468605
40
0.913966065468605
40
0.939107485857182
40
0.939107485857182
40
0.96424890624576
40
0.96424890624576
40
0.989390326634337
40
0.989390326634337
40
1
40
1
40
1
40
1
41
1
10
52.9360445655389
20
-2.33019463068234
30
0
41
1
10
52.8612128828327
20
-2.30214314725174
30
0
41
1
10
52.786357696344
20
-2.27381117318501
30
0
41
1
10
52.4994007047667
20
-2.16423861134024
30
0
41
1
10
52.2872781835437
20
-2.08124698011358
30
0
41
1
10
51.8630258180901
20
-1.91166826095366
30
0
41
1
10
51.6509697512547
20
-1.82510126095303
30
0
41
1
10
51.3328188970296
20
-1.69290432777788
30
0
41
1
10
51.2267292523455
20
-1.6484354533753
30
0
41
1
10
51.0146623731723
20
-1.55883256708034
30
0
41
1
10
50.9086906707851
20
-1.51370557037379
30
0
41
1
10
50.5909508987731
20
-1.37737558972563
30
0
41
1
10
50.3794106711269
20
-1.28512441487098
30
0
41
1
10
49.9565242222028
20
-1.09863111519547
30
0
41
1
10
49.7451540230224
20
-1.00441761277176
30
0
41
1
10
49.3224652418688
20
-0.814329575958567
30
0
41
1
10
49.1111310274791
20
-0.718479794553758
30
0
41
1
10
48.6882612763926
20
-0.525649886216144
30
0
41
1
10
48.4767068648023
20
-0.428709762673208
30
0
41
1
10
48.1591737916834
20
-0.282593049388055
30
0
41
1
10
48.0533020922963
20
-0.233755988469284
30
0
41
1
10
47.8414396212716
20
-0.135951371187389
30
0
41
1
10
47.7354124425529
20
-0.0869661754424556
30
0
41
1
10
47.4173293359279
20
0.0598977425380269
30
0
41
1
10
47.2055078020265
20
0.157658493728036
30
0
41
1
10
46.7821937159176
20
0.352608355173857
30
0
41
1
10
46.5706875813229
20
0.449762359774866
30
0
41
1
10
46.1477807251333
20
0.642998398409787
30
0
41
1
10
45.9363758980755
20
0.739068310755556
30
0
41
1
10
45.5136534605908
20
0.930095115332165
30
0
41
1
10
45.3022680412142
20
1.02491924801677
30
0
41
1
10
44.8791151423359
20
1.2124174475349
30
0
41
1
10
44.6674040653508
20
1.30523020970904
30
0
41
1
10
44.3494705218477
20
1.44269090132803
30
0
41
1
10
44.243385992705
20
1.48823610120849
30
0
41
1
10
44.0313418403902
20
1.57856658830809
30
0
41
1
10
43.9253803619072
20
1.62335296554761
30
0
41
1
10
43.7135544316064
20
1.712128646243
30
0
41
1
10
43.6076887195295
20
1.75611567261254
30
0
41
1
10
43.3960634455885
20
1.84334605043932
30
0
41
1
10
43.2903049825951
20
1.88659107257962
30
0
41
1
10
42.9731052634516
20
2.01500302245597
30
0
41
1
10
42.7617123427219
20
2.09875007128454
30
0
41
1
10
42.3389046888986
20
2.26229072620853
30
0
41
1
10
42.1275041356932
20
2.34212721887744
30
0
41
1
10
41.7044871703075
20
2.49752063978036
30
0
41
1
10
41.4928638440566
20
2.57307562015228
30
0
41
1
10
41.175157622659
20
2.6829917940895
30
0
41
1
10
41.0692220128313
20
2.7190711057379
30
0
41
1
10
40.8572634143055
20
2.79006392737944
30
0
41
1
10
40.751198920375
20
2.82498475861524
30
0
41
1
10
40.4332678976505
20
2.92767381354
30
0
41
1
10
40.2215165126682
20
2.99333247031481
30
0
41
1
10
39.7983394336066
20
3.11909235335921
30
0
41
1
10
39.5868950398067
20
3.17916037233488
30
0
41
1
10
39.1640708811933
20
3.29340650675735
30
0
41
1
10
38.9526748095526
20
3.34754450699378
30
0
41
1
10
38.5298590195983
20
3.4500561524589
30
0
41
1
10
38.3184614766326
20
3.49850306628989
30
0
41
1
10
37.8952358204991
20
3.5888053319654
30
0
41
1
10
37.6834400264959
20
3.63075605719129
30
0
41
1
10
37.3653818232648
20
3.68890994306159
30
0
41
1
10
37.259295571882
20
3.7074864305423
30
0
41
1
10
37.047322780464
20
3.74293890643702
30
0
41
1
10
36.9413917973652
20
3.75982325414438
30
0
41
1
10
36.62372949392
20
3.80793581208954
30
0
41
1
10
36.4121184612226
20
3.83662443163135
30
0
41
1
10
35.9892318307159
20
3.88723956806865
30
0
41
1
10
35.7778979982531
20
3.90913012080213
30
0
41
1
10
35.3551190193597
20
3.94553162874018
30
0
41
1
10
35.1437290511886
20
3.96015126114418
30
0
41
1
10
34.7207160337842
20
3.98218323342786
30
0
41
1
10
34.5090892982346
20
3.98958649435727
30
0
41
1
10
34.1913151691671
20
3.99531314122515
30
0
41
1
10
34.0853337043949
20
3.99632749469234
30
0
41
1
10
33.8732750414671
20
3.99661293310928
30
0
41
1
10
33.7672526406494
20
3.99588353513056
30
0
41
1
10
33.2375836840958
20
3.98779803274596
30
0
41
1
10
32.8146374842786
20
3.96689209511092
30
0
41
1
10
32.1803710948271
20
3.91466909597136
30
0
41
1
10
31.9689597786898
20
3.89376121829915
30
0
41
1
10
31.5460155545236
20
3.84501799318034
30
0
41
1
10
31.3345543959495
20
3.81713310000771
30
0
41
1
10
30.9112543891492
20
3.75465257366923
30
0
41
1
10
30.6993787720866
20
3.71997536908964
30
0
41
1
10
30.2751239278067
20
3.64387966719767
30
0
41
1
10
30.0632675583978
20
3.60255049182339
30
0
41
1
10
29.6398880214061
20
3.51348433017213
30
0
41
1
10
29.428346800089
20
3.46576111775303
30
0
41
1
10
29.0054891456894
20
3.36426247423634
30
0
41
1
10
28.7941987556001
20
3.31048796070624
30
0
41
1
10
28.371439087755
20
3.19709541138093
30
0
41
1
10
28.1599997030788
20
3.13748403986804
30
0
41
1
10
27.859162686242
20
3.04877965442461
30
0
41
1
10
27.7698605296867
20
3.02196029393283
30
0
41
1
10
27.6805264236957
20
2.99465567730346
30
0
0
SPLINE
5
D2
100
AcDbEntity
8
1
62
256
6
ByLayer
370
18
48
1
60
0
100
AcDbSpline
70
4
71
3
72
64
73
60
40
0
40
0
40
0
40
0
40
0.0111143147076164
40
0.0111143147076164
40
0.031306073450737
40
0.031306073450737
40
0.0514978321938578
40
0.0514978321938578
40
0.0716895909369786
40
0.0716895909369786
40
0.0918813496800992
40
0.0918813496800992
40
0.0969292893658794
40
0.0994532592087695
40
0.0994532592087695
40
0.0997687554391308
40
0.0997687554391308
40
0.100084251669492
40
0.100084251669492
40
0.100715244130214
40
0.100715244130214
40
0.101977229051659
40
0.101977229051659
40
0.112073108423219
40
0.112073108423219
40
0.132264867166339
40
0.132264867166339
40
0.172648384652579
40
0.172648384652579
40
0.253415419625059
40
0.253415419625059
40
0.414949489570018
40
0.414949489570018
40
0.495716524542497
40
0.495716524542497
40
0.536100042028737
40
0.536100042028737
40
0.556291800771857
40
0.556291800771857
40
0.566387680143417
40
0.566387680143417
40
0.571435619829197
40
0.571435619829197
40
0.572697604750642
40
0.572697604750642
40
0.573328597211365
40
0.573328597211365
40
0.573486345326545
40
0.573486345326545
40
0.573644093441726
40
0.573644093441726
40
0.573959589672087
40
0.573959589672087
40
0.576483559514977
40
0.738017629459949
40
0.738017629459949
40
0.89955169940492
40
0.89955169940492
40
1
40
1
40
1
40
1
41
1
10
7.52095979405954
20
4.14455152667654
30
0
41
1
10
7.50428489206226
20
4.09296914736916
30
0
41
1
10
7.4870629051519
20
4.04103194828255
30
0
41
1
10
7.43733390165968
20
3.89358544939188
30
0
41
1
10
7.40423570368995
20
3.79693334761495
30
0
41
1
10
7.33328276268432
20
3.60175230692826
30
0
41
1
10
7.2952107507227
20
3.50330309386013
30
0
41
1
10
7.21497807968822
20
3.30422089861352
30
0
41
1
10
7.17327772620658
20
3.20401096916046
30
0
41
1
10
7.08552203523482
20
3.00323210342066
30
0
41
1
10
7.03959763560366
20
2.90262141775742
30
0
41
1
10
6.98035024689088
20
2.77656449061399
30
0
41
1
10
6.96243710756659
20
2.73872522483688
30
0
41
1
10
6.9443340662709
20
2.70085294973572
30
0
41
1
10
6.93752278360756
20
2.68664670189241
30
0
41
1
10
6.93622007445654
20
2.68488612409325
30
0
41
1
10
6.93814471441974
20
2.68172262226827
30
0
41
1
10
6.93958858802972
20
2.68056856607524
30
0
41
1
10
6.94373732386262
20
2.67707013085322
30
0
41
1
10
6.94666207156129
20
2.67496581919778
30
0
41
1
10
6.95549282484177
20
2.6687341322548
30
0
41
1
10
6.96150056615429
20
2.66478435231352
30
0
41
1
10
7.01577774988925
20
2.62961412103766
30
0
41
1
10
7.06524397575166
20
2.60052311285131
30
0
41
1
10
7.21303592797733
20
2.51236801832877
30
0
41
1
10
7.31195641711238
20
2.45444625588223
30
0
41
1
10
7.60885532404424
20
2.2813217307166
30
0
41
1
10
7.80708814244551
20
2.16692869211658
30
0
41
1
10
8.40171133489849
20
1.82523943908089
30
0
41
1
10
8.79815170185103
20
1.59977787675672
30
0
41
1
10
9.98690184481046
20
0.929239636635685
30
0
41
1
10
10.7786944684354
20
0.489700733696111
30
0
41
1
10
11.965344331809
20
-0.154940199684461
30
0
41
1
10
12.3607231089862
20
-0.367424317894518
30
0
41
1
10
12.9532221816097
20
-0.682885682543287
30
0
41
1
10
13.1506604118479
20
-0.787462112614463
30
0
41
1
10
13.4464343373043
20
-0.943702176669689
30
0
41
1
10
13.5449723019603
20
-0.995672285079763
30
0
41
1
10
13.6923862761132
20
-1.07368983016309
30
0
41
1
10
13.7414774781018
20
-1.09969348836597
30
0
41
1
10
13.8147372910432
20
-1.13887330457817
30
0
41
1
10
13.8391619828913
20
-1.15192696169598
30
0
41
1
10
13.8691700679703
20
-1.16853995101963
30
0
41
1
10
13.8751517790178
20
-1.17187623516051
30
0
41
1
10
13.883913926264
20
-1.1769841865372
30
0
41
1
10
13.8868391388413
20
-1.17869305928596
30
0
41
1
10
13.890186012785
20
-1.18094900574047
30
0
41
1
10
13.8908474520585
20
-1.18140844943426
30
0
41
1
10
13.8919722858423
20
-1.18236176397238
30
0
41
1
10
13.8922305547688
20
-1.18300200431261
30
0
41
1
10
13.889697448169
20
-1.18284043866356
30
0
41
1
10
13.8878541633107
20
-1.18239178411386
30
0
41
1
10
13.8718780022177
20
-1.17968162866086
30
0
41
1
10
12.9488868821205
20
-1.02275490685753
30
0
41
1
10
12.0305780835484
20
-0.843627621518749
30
0
41
1
10
10.2340158213584
20
-0.448895599621125
30
0
41
1
10
9.34141724688624
20
-0.230504602916341
30
0
41
1
10
7.90219416340423
20
0.157319503811777
30
0
41
1
10
7.35229785522691
20
0.314059948391389
30
0
41
1
10
6.80474202208146
20
0.47854613348909
30
0
0
SPLINE
5
D3
100
AcDbEntity
8
1
62
256
6
ByLayer
370
18
48
1
60
0
100
AcDbSpline
70
4
71
3
72
34
73
30
40
0
40
0
40
0
40
0
40
0.0625000000000022
40
0.0625000000000022
40
0.125000000000004
40
0.125000000000004
40
0.156250000000005
40
0.156250000000005
40
0.187500000000006
40
0.187500000000006
40
0.250000000000008
40
0.250000000000008
40
0.31250000000001
40
0.31250000000001
40
0.375000000000012
40
0.375000000000012
40
0.437500000000015
40
0.437500000000015
40
0.500000000000017
40
0.500000000000017
40
0.562500000000019
40
0.562500000000019
40
0.625000000000021
40
0.625000000000021
40
0.750000000000014
40
0.750000000000014
40
0.875000000000007
40
0.875000000000007
40
1
40
1
40
1
40
1
41
1
10
61.8790201853543
20
0.524582302190936
30
0
41
1
10
61.8626627511916
20
0.534883317198393
30
0
41
1
10
61.8459122504712
20
0.543662455601975
30
0
41
1
10
61.8119739367405
20
0.559397193032964
30
0
41
1
10
61.7947578238283
20
0.566251510310167
30
0
41
1
10
61.7688287364422
20
0.576350957056349
30
0
41
1
10
61.7601707575097
20
0.579704937362663
30
0
41
1
10
61.7427812544551
20
0.586134859197614
30
0
41
1
10
61.7340471618587
20
0.58919543233651
30
0
41
1
10
61.7077335616195
20
0.597923479138728
30
0
41
1
10
61.6900655897244
20
0.603205515429295
30
0
41
1
10
61.654620940512
20
0.61247036558899
30
0
41
1
10
61.6368252160196
20
0.61644076819519
30
0
41
1
10
61.6011099409709
20
0.622912647078692
30
0
41
1
10
61.5831897859542
20
0.62539444374741
30
0
41
1
10
61.5472649221736
20
0.629044850987611
30
0
41
1
10
61.5292616439799
20
0.630244297798384
30
0
41
1
10
61.4932082089526
20
0.631638936008159
30
0
41
1
10
61.4751572751859
20
0.631804746668962
30
0
41
1
10
61.4390417132051
20
0.631582765822657
30
0
41
1
10
61.4209770493557
20
0.63123193379576
30
0
41
1
10
61.3848378078519
20
0.629620089254018
30
0
41
1
10
61.3667636548944
20
0.628350154872294
30
0
41
1
10
61.3125589837352
20
0.623278826290715
30
0
41
1
10
61.276444284004
20
0.61820227000652
30
0
41
1
10
61.2044137110027
20
0.604109012559462
30
0
41
1
10
61.1684993177903
20
0.595055867096335
30
0
41
1
10
61.0970454574295
20
0.57302452015486
30
0
41
1
10
61.0614911869969
20
0.560097597584814
30
0
41
1
10
61.0264066231339
20
0.545573585551637
30
0
0
SPLINE
5
D4
100
AcDbEntity
8
1
62
256
6
ByLayer
370
18
48
1
60
0
100
AcDbSpline
70
4
71
3
72
34
73
30
40
0
40
0
40
0
40
0
40
0.0379753914669854
40
0.0379753914669854
40
0.134177852320266
40
0.134177852320266
40
0.230380313173547
40
0.230380313173547
40
0.278481543600188
40
0.278481543600188
40
0.326582774026828
40
0.326582774026828
40
0.422785234880109
40
0.422785234880109
40
0.470886465306749
40
0.470886465306749
40
0.51898769573339
40
0.51898769573339
40
0.615190156586697
40
0.615190156586697
40
0.711392617440005
40
0.711392617440005
40
0.759493847866658
40
0.759493847866658
40
0.807595078293312
40
0.807595078293312
40
0.903797539146656
40
0.903797539146656
40
1
40
1
40
1
40
1
41
1
10
61.245323220861
20
0.743428793580676
30
0
41
1
10
61.2463783447281
20
0.749174299624997
30
0
41
1
10
61.2477326348053
20
0.755028249051662
30
0
41
1
10
61.253545739764
20
0.776021211994362
30
0
41
1
10
61.2595790639139
20
0.791689848111474
30
0
41
1
10
61.275441928237
20
0.82419774904065
30
0
41
1
10
61.2852773632812
20
0.84103103512868
30
0
41
1
10
61.3029845446393
20
0.867226866670507
30
0
41
1
10
61.3094059123455
20
0.876148026724223
30
0
41
1
10
61.3230649193341
20
0.894052968266266
30
0
41
1
10
61.330316159341
20
0.903057828993838
30
0
41
1
10
61.3533370607519
20
0.930198500447716
30
0
41
1
10
61.3703665234862
20
0.948462771307192
30
0
41
1
10
61.3985723874577
20
0.975954837777806
30
0
41
1
10
61.4084197513644
20
0.985134266664886
30
0
41
1
10
61.4290520272419
20
1.00348903480116
30
0
41
1
10
61.4398862929317
20
1.01270359706714
30
0
41
1
10
61.4734833673013
20
1.03995095629043
30
0
41
1
10
61.4972650899211
20
1.05755100147925
30
0
41
1
10
61.5477081068642
20
1.0912427551886
30
0
41
1
10
61.5743702327085
20
1.1073343704339
30
0
41
1
10
61.6167172202302
20
1.12996870308831
30
0
41
1
10
61.6312938046531
20
1.13729198352476
30
0
41
1
10
61.6608402297978
20
1.15116430685487
30
0
41
1
10
61.6758213695526
20
1.15772306622762
30
0
41
1
10
61.7213788125137
20
1.17624797072844
30
0
41
1
10
61.7525661299204
20
1.18706952489094
30
0
41
1
10
61.8165338325206
20
1.20556858574579
30
0
41
1
10
61.84945061474
20
1.21326745287479
30
0
41
1
10
61.8826803960979
20
1.21923764122744
30
0
0
SPLINE
5
D5
100
AcDbEntity
8
1
62
256
6
ByLayer
370
18
48
1
60
0
100
AcDbSpline
70
4
71
3
72
12
73
8
40
0
40
0
40
0
40
0
40
0.25
40
0.25
40
0.5
40
0.5
40
1
40
1
40
1
40
1
41
1
10
61.8826803960979
20
1.21923764122744
30
0
41
1
10
61.9430349641458
20
1.23008117147245
30
0
41
1
10
62.0032553366421
20
1.24170884604234
30
0
41
1
10
62.1234184198205
20
1.26658665534237
30
0
41
1
10
62.1833949415639
20
1.27982786601609
30
0
41
1
10
62.3626306501998
20
1.32174975273028
30
0
41
1
10
62.4811677140351
20
1.35284530697348
30
0
41
1
10
62.597765162854
20
1.39034440114122
30
0
0
SPLINE
5
D6
100
AcDbEntity
8
1
62
256
6
ByLayer
370
18
48
1
60
0
100
AcDbSpline
70
4
71
3
72
29
73
25
40
0
40
0
40
0
40
0
40
0.125000000000003
40
0.125000000000003
40
0.250000000000006
40
0.250000000000006
40
0.375000000000009
40
0.375000000000009
40
0.437500000000014
40
0.468750000000016
40
0.468750000000016
40
0.500000000000018
40
0.500000000000018
40
0.562500000000018
40
0.562500000000018
40
0.625000000000017
40
0.625000000000017
40
0.750000000000012
40
0.750000000000012
40
0.875000000000006
40
0.875000000000006
40
0.937500000000003
40
0.937500000000003
40
1
40
1
40
1
40
1
41
1
10
61.5672300339299
20
3.99203046713245
30
0
41
1
10
61.6073345739952
20
3.88196219943515
30
0
41
1
10
61.6471401573746
20
3.77149020124284
30
0
41
1
10
61.7264153620792
20
3.54986028006439
30
0
41
1
10
61.7658923919846
20
3.43867998651928
30
0
41
1
10
61.8447035902759
20
3.21589877636339
30
0
41
1
10
61.8840352067632
20
3.10430850705527
30
0
41
1
10
61.9430197296396
20
2.9368188133522
30
0
41
1
10
61.9725106822225
20
2.85303901232365
30
0
41
1
10
62.0020174605903
20
2.76921786269889
30
0
41
1
10
62.0216935679917
20
2.71332897537897
30
0
41
1
10
62.0315111280288
20
2.68537872006246
30
0
41
1
10
62.0612064714896
20
2.6015347659596
30
0
41
1
10
62.0813254424179
20
2.54564878116358
30
0
41
1
10
62.1224156920607
20
2.43395388081291
30
0
41
1
10
62.1434185132987
20
2.37807187013547
30
0
41
1
10
62.20734430473
20
2.21232238101712
30
0
41
1
10
62.2513954869331
20
2.10386063084334
30
0
41
1
10
62.3433141313775
20
1.89125161689839
30
0
41
1
10
62.3911745917403
20
1.78709745145443
30
0
41
1
10
62.4665253811239
20
1.63438251869059
30
0
41
1
10
62.4922907782349
20
1.58396870605742
30
0
41
1
10
62.5444460368585
20
1.48557400981562
30
0
41
1
10
62.57090422526
20
1.4374441228843
30
0
41
1
10
62.597765162854
20
1.39034440114096
30
0
0
SPLINE
5
D7
100
AcDbEntity
8
1
62
256
6
ByLayer
370
18
48
1
60
0
100
AcDbSpline
70
4
71
3
72
30
73
26
40
0
40
0
40
0
40
0
40
0.0943485263427334
40
0.0943485263427334
40
0.188697052685467
40
0.188697052685467
40
0.2830455790282
40
0.2830455790282
40
0.377394105370934
40
0.377394105370934
40
0.471742631713667
40
0.471742631713667
40
0.566091158056401
40
0.566091158056401
40
0.660439684399134
40
0.660439684399134
40
0.754788210741867
40
0.754788210741867
40
0.801962473913234
40
0.801962473913234
40
0.849136737084601
40
0.849136737084601
40
0.943485263427334
40
0.943485263427334
40
1
40
1
40
1
40
1
41
1
10
61.5672300339298
20
3.99203046713245
30
0
41
1
10
61.3564044014188
20
3.9967641377618
30
0
41
1
10
61.1459079639395
20
3.99794704517538
30
0
41
1
10
60.725365259474
20
3.99319189054432
30
0
41
1
10
60.5153121385441
20
3.98724328940634
30
0
41
1
10
60.0955132308781
20
3.96833967680911
30
0
41
1
10
59.8858253595124
20
3.95542789639936
30
0
41
1
10
59.4664642424923
20
3.92269962665972
30
0
41
1
10
59.2567753778151
20
3.90280630219485
30
0
41
1
10
58.8373109458157
20
3.85627396270468
30
0
41
1
10
58.6275176982252
20
3.82960468503009
30
0
41
1
10
58.2076054701582
20
3.7695602035943
30
0
41
1
10
57.9974677174142
20
3.73620389039405
30
0
41
1
10
57.5768186215626
20
3.66282737558993
30
0
41
1
10
57.366320462258
20
3.62282235031483
30
0
41
1
10
56.9444993077414
20
3.53617349016341
30
0
41
1
10
56.7332178500214
20
3.48953424378547
30
0
41
1
10
56.4156420341725
20
3.41479194866184
30
0
41
1
10
56.3096302663126
20
3.38906777945999
30
0
41
1
10
56.0975350732271
20
3.3360908037445
30
0
41
1
10
55.9915509768556
20
3.30886356271418
30
0
41
1
10
55.673750432124
20
3.22503217567677
30
0
41
1
10
55.4620778360375
20
3.1662912288123
30
0
41
1
10
55.1239061832997
20
3.0679248686757
30
0
41
1
10
54.9972689488938
20
3.03009934035896
30
0
41
1
10
54.8706422728657
20
2.99132702850923
30
0
0
SPLINE
5
D8
100
AcDbEntity
8
1
62
256
6
ByLayer
370
18
48
1
60
0
100
AcDbSpline
70
4
71
3
72
18
73
14
40
0
40
0
40
0
40
0
40
0.181557819265313
40
0.181557819265313
40
0.31796484938776
40
0.31796484938776
40
0.454371879510206
40
0.454371879510206
40
0.7271859397551
40
0.7271859397551
40
0.86359296987755
40
0.86359296987755
40
1
40
1
40
1
40
1
41
1
10
25.621316870757
20
-2.28694802297792
30
0
41
1
10
25.34126131117
20
-2.18097261329976
30
0
41
1
10
25.0616846747827
20
-2.07158489566819
30
0
41
1
10
24.5724891192826
20
-1.87479724555024
30
0
41
1
10
24.3627857946367
20
-1.78867403456295
30
0
41
1
10
23.943562305967
20
-1.61334860969745
30
0
41
1
10
23.7339744650742
20
-1.52423871412748
30
0
41
1
10
23.1050003956187
20
-1.25316557084824
30
0
41
1
10
22.6854686937405
20
-1.06739019991048
30
0
41
1
10
22.0546914697978
20
-0.78359724011969
30
0
41
1
10
21.8442616512329
20
-0.687973348232475
30
0
41
1
10
21.4227315639631
20
-0.49540641356964
30
0
41
1
10
21.2115771445716
20
-0.398549255162777
30
0
41
1
10
20.9999999999997
20
-0.301199262258649
30
0
0
SPLINE
5
D9
100
AcDbEntity
8
1
62
256
6
ByLayer
370
18
48
1
60
0
100
AcDbSpline
70
4
71
3
72
166
73
162
40
0
40
0
40
0
40
0
40
0.0049738425729044
40
0.0049738425729044
40
0.0178594440714544
40
0.0178594440714544
40
0.0307450455700043
40
0.0307450455700043
40
0.0371878463192792
40
0.0371878463192792
40
0.0436306470685542
40
0.0436306470685542
40
0.0565162485671051
40
0.0565162485671051
40
0.0694018500656561
40
0.0694018500656561
40
0.0822874515642069
40
0.0822874515642069
40
0.0951730530627578
40
0.0951730530627578
40
0.108058654561309
40
0.108058654561309
40
0.12094425605986
40
0.12094425605986
40
0.133829857558411
40
0.133829857558411
40
0.146715459056962
40
0.146715459056962
40
0.159601060555512
40
0.159601060555512
40
0.172486662054063
40
0.172486662054063
40
0.185372263552614
40
0.185372263552614
40
0.198257865051165
40
0.198257865051165
40
0.211143466549716
40
0.211143466549716
40
0.224029068048267
40
0.224029068048267
40
0.236914669546818
40
0.236914669546818
40
0.249800271045369
40
0.249800271045369
40
0.256243071794644
40
0.256243071794644
40
0.262685872543919
40
0.262685872543919
40
0.27557147404247
40
0.27557147404247
40
0.288457075541021
40
0.288457075541021
40
0.301342677039572
40
0.301342677039572
40
0.314228278538122
40
0.314228278538122
40
0.327113880036673
40
0.327113880036673
40
0.339999481535224
40
0.339999481535224
40
0.352885083033775
40
0.352885083033775
40
0.365770684532326
40
0.365770684532326
40
0.378656286030877
40
0.378656286030877
40
0.391541887529428
40
0.391541887529428
40
0.404427489027979
40
0.404427489027979
40
0.41731309052653
40
0.41731309052653
40
0.430198692025081
40
0.430198692025081
40
0.443084293523632
40
0.443084293523632
40
0.455969895022183
40
0.455969895022183
40
0.468855496520734
40
0.468855496520734
40
0.481741098019285
40
0.481741098019285
40
0.494626699517836
40
0.494626699517836
40
0.507512301016387
40
0.507512301016387
40
0.520397902514938
40
0.520397902514938
40
0.533283504013489
40
0.533283504013489
40
0.54616910551204
40
0.54616910551204
40
0.559054707010591
40
0.559054707010591
40
0.571940308509142
40
0.571940308509142
40
0.584825910007693
40
0.584825910007693
40
0.597711511506244
40
0.597711511506244
40
0.610597113004795
40
0.610597113004795
40
0.623482714503346
40
0.623482714503346
40
0.636368316001897
40
0.636368316001897
40
0.649253917500448
40
0.649253917500448
40
0.662139518998999
40
0.662139518998999
40
0.67502512049755
40
0.67502512049755
40
0.687910721996101
40
0.687910721996101
40
0.700796323494652
40
0.700796323494652
40
0.713681924993203
40
0.713681924993203
40
0.726567526491754
40
0.726567526491754
40
0.739453127990305
40
0.739453127990305
40
0.752338729488856
40
0.752338729488856
40
0.765224330987407
40
0.765224330987407
40
0.778109932485958
40
0.778109932485958
40
0.790995533984509
40
0.790995533984509
40
0.80388113548306
40
0.80388113548306
40
0.816766736981611
40
0.816766736981611
40
0.829652338480162
40
0.829652338480162
40
0.842537939978713
40
0.842537939978713
40
0.855423541477264
40
0.855423541477264
40
0.881194744474365
40
0.881194744474365
40
0.894080345972916
40
0.894080345972916
40
0.906965947471466
40
0.906965947471466
40
0.919851548970017
40
0.919851548970017
40
0.932737150468567
40
0.932737150468567
40
0.945622751967118
40
0.945622751967118
40
0.958508353465668
40
0.958508353465668
40
0.971393954964218
40
0.971393954964218
40
0.984279556462769
40
0.984279556462769
40
0.997165157961319
40
0.997165157961319
40
1
40
1
40
1
40
1
41
1
10
21.8893160392233
20
3.96166316066467
30
0
41
1
10
21.9439155127242
20
3.96035705272831
30
0
41
1
10
21.998522722651
20
3.95881775847258
30
0
41
1
10
22.1946189440535
20
3.95246895372793
30
0
41
1
10
22.3361551560553
20
3.94634575761305
30
0
41
1
10
22.6191723583089
20
3.93116144641084
30
0
41
1
10
22.7604848944275
20
3.92217681121039
30
0
41
1
10
22.9723325409076
20
3.9062228249928
30
0
41
1
10
23.0429336887786
20
3.90048162272868
30
0
41
1
10
23.1841695535144
20
3.88811764124637
30
0
41
1
10
23.2548067078943
20
3.88150843169231
30
0
41
1
10
23.4667277966406
20
3.86047863318896
30
0
41
1
10
23.6079873290005
20
3.84486249629603
30
0
41
1
10
23.8904604726169
20
3.81072710532416
30
0
41
1
10
24.0316869566149
20
3.79219973043371
30
0
41
1
10
24.3140438446659
20
3.75234614661988
30
0
41
1
10
24.4551573676571
20
3.73106481243704
30
0
41
1
10
24.7372771264405
20
3.68552002949664
30
0
41
1
10
24.8783129011723
20
3.66114282944935
30
0
41
1
10
25.1606203074975
20
3.60897806611055
30
0
41
1
10
25.3018456377858
20
3.58126891436402
30
0
41
1
10
25.5845531775523
20
3.52316091564327
30
0
41
1
10
25.7260975073644
20
3.49279688490114
30
0
41
1
10
26.0093615291868
20
3.42939392540578
30
0
41
1
10
26.1509258853433
20
3.39640710838492
30
0
41
1
10
26.4337919502866
20
3.32801380165557
30
0
41
1
10
26.5751192560181
20
3.29254835217751
30
0
41
1
10
26.8576886116192
20
3.21866258690119
30
0
41
1
10
26.9989172991537
20
3.18027662473068
30
0
41
1
10
27.2811784461377
20
3.10090661099554
30
0
41
1
10
27.4222257649008
20
3.0599301409504
30
0
41
1
10
27.7042631622335
20
2.97559019501142
30
0
41
1
10
27.845247505655
20
2.93221617040629
30
0
41
1
10
28.1274280488373
20
2.84355420355567
30
0
41
1
10
28.2685592145924
20
2.79818920108176
30
0
41
1
10
28.5510054331798
20
2.7050837889484
30
0
41
1
10
28.6923729298601
20
2.65738216496141
30
0
41
1
10
28.9752996931076
20
2.55982452583177
30
0
41
1
10
29.1168488687192
20
2.50997032748632
30
0
41
1
10
29.4000174790868
20
2.40809684172689
30
0
41
1
10
29.5415495967225
20
2.35608149168556
30
0
41
1
10
29.8241926514666
20
2.25017865177532
30
0
41
1
10
29.9653672198691
20
2.19626579014548
30
0
41
1
10
30.1770722613759
20
2.11417022716518
30
0
41
1
10
30.2476368503435
20
2.08661050308365
30
0
41
1
10
30.3888079340752
20
2.03118639424164
30
0
41
1
10
30.4594097076869
20
2.00331542656374
30
0
41
1
10
30.6712131686979
20
1.91915289964049
30
0
41
1
10
30.8123983033931
20
1.86228343086287
30
0
41
1
10
31.0947841479253
20
1.74722262852481
30
0
41
1
10
31.2359798415223
20
1.68901991414111
30
0
41
1
10
31.5182714277016
20
1.5711791486996
30
0
41
1
10
31.6593697917281
20
1.51153133566359
30
0
41
1
10
31.9416251987433
20
1.39078160485539
30
0
41
1
10
32.0827765838165
20
1.32969194275279
30
0
41
1
10
32.3652764974912
20
1.20639544889764
30
0
41
1
10
32.5065999500325
20
1.14414510900357
30
0
41
1
10
32.7896117493409
20
1.01902983364931
30
0
41
1
10
32.9313076815311
20
0.956192316850633
30
0
41
1
10
33.2142564406455
20
0.829778769201113
30
0
41
1
10
33.3556302231243
20
0.766261981252512
30
0
41
1
10
33.638299465567
20
0.638847023237958
30
0
41
1
10
33.7795819832322
20
0.574923405444963
30
0
41
1
10
34.0620069451179
20
0.446570978212179
30
0
41
1
10
34.2031402724815
20
0.382122153365856
30
0
41
1
10
34.4852864841942
20
0.252765621548093
30
0
41
1
10
34.6263108601279
20
0.187883471457013
30
0
41
1
10
34.9083035420936
20
0.0578205642491696
30
0
41
1
10
35.0492982146797
20
-0.0073031929147191
30
0
41
1
10
35.331623764879
20
-0.137018836419259
30
0
41
1
10
35.4728869044384
20
-0.20176002377903
30
0
41
1
10
35.7556204535696
20
-0.330988099380391
30
0
41
1
10
35.8971083636049
20
-0.395436303804189
30
0
41
1
10
36.1802801265947
20
-0.524097372028109
30
0
41
1
10
36.3220144384879
20
-0.58832474098898
30
0
41
1
10
36.6049860496194
20
-0.71654519997935
30
0
41
1
10
36.7462675300091
20
-0.780635507139323
30
0
41
1
10
37.0286303123064
20
-0.908155517069616
30
0
41
1
10
37.169714159078
20
-0.971558197847884
30
0
41
1
10
37.4519187648845
20
-1.09716347687021
30
0
41
1
10
37.5930967072724
20
-1.15925220167711
30
0
41
1
10
37.8754616327003
20
-1.28235619138616
30
0
41
1
10
38.0166476252986
20
-1.3433674269607
30
0
41
1
10
38.2990457824339
20
-1.46436088163506
30
0
41
1
10
38.4402265717721
20
-1.52443297880245
30
0
41
1
10
38.7225723336744
20
-1.64359805058396
30
0
41
1
10
38.8637593504831
20
-1.70261329441962
30
0
41
1
10
39.146235155979
20
-1.81928123122447
30
0
41
1
10
39.2875255994588
20
-1.87694538408704
30
0
41
1
10
39.5703132439307
20
-1.99077643197239
30
0
41
1
10
39.7118732907022
20
-2.04698881451944
30
0
41
1
10
39.9949171541254
20
-2.15733782484213
30
0
41
1
10
40.1363805589397
20
-2.21162030149449
30
0
41
1
10
40.4190705481535
20
-2.31866993915489
30
0
41
1
10
40.5603489319218
20
-2.37127691919585
30
0
41
1
10
40.8428773193214
20
-2.47416306309054
30
0
41
1
10
40.9841135496723
20
-2.52450784673886
30
0
41
1
10
41.2664782251719
20
-2.62319854443885
30
0
41
1
10
41.4075955303276
20
-2.67156079023388
30
0
41
1
10
41.6897490319339
20
-2.76634322567375
30
0
41
1
10
41.8307866269228
20
-2.81276927518977
30
0
41
1
10
42.1128490271358
20
-2.9037549539834
30
0
41
1
10
42.2539363776597
20
-2.94818917005304
30
0
41
1
10
42.5364785961594
20
-3.0341200784776
30
0
41
1
10
42.6778707518179
20
-3.07572367672301
30
0
41
1
10
42.9609431890018
20
-3.15627737180728
30
0
41
1
10
43.1026967967287
20
-3.19525127148796
30
0
41
1
10
43.3860033290245
20
-3.27069682497688
30
0
41
1
10
43.527523439734
20
-3.30716125311594
30
0
41
1
10
43.81021171808
20
-3.37791618040353
30
0
41
1
10
43.9513688633255
20
-3.41225609256247
30
0
41
1
10
44.2335668294514
20
-3.47797287120755
30
0
41
1
10
44.3746049199043
20
-3.50929397907626
30
0
41
1
10
44.6568278361573
20
-3.5687249656537
30
0
41
1
10
44.798042628165
20
-3.5968231940694
30
0
41
1
10
45.0804522835476
20
-3.65024062673098
30
0
41
1
10
45.2216752652767
20
-3.67553468949927
30
0
41
1
10
45.5041458859309
20
-3.72348941718545
30
0
41
1
10
45.6453661925729
20
-3.74623090460028
30
0
41
1
10
45.9278477198224
20
-3.78878435514261
30
0
41
1
10
46.0691317168128
20
-3.80848047613364
30
0
41
1
10
46.3518924412237
20
-3.84446607682654
30
0
41
1
10
46.4934226631628
20
-3.8608074455573
30
0
41
1
10
46.7764984801769
20
-3.89032538610292
30
0
41
1
10
46.9179323973809
20
-3.90349539466479
30
0
41
1
10
47.2008118584139
20
-3.92679189805079
30
0
41
1
10
47.3421868415427
20
-3.93695733099324
30
0
41
1
10
47.6248069734052
20
-3.9542572535706
30
0
41
1
10
47.7660868977616
20
-3.96132598664485
30
0
41
1
10
48.0486303890813
20
-3.97205395124595
30
0
41
1
10
48.1898838906257
20
-3.97576352286816
30
0
41
1
10
48.4722735635379
20
-3.98012096100865
30
0
41
1
10
48.6133978951719
20
-3.98077250549014
30
0
41
1
10
48.8955534480612
20
-3.97922676293268
30
0
41
1
10
49.0365779558445
20
-3.97701988849556
30
0
41
1
10
49.3187181785284
20
-3.969671390125
30
0
41
1
10
49.4599296197104
20
-3.96442783057572
30
0
41
1
10
49.7427242355031
20
-3.95029859833775
30
0
41
1
10
49.8842781104085
20
-3.94145692129334
30
0
41
1
10
50.3094408249843
20
-3.90994314275127
30
0
41
1
10
50.5925287517152
20
-3.88238060668658
30
0
41
1
10
51.0164497151833
20
-3.83167962429045
30
0
41
1
10
51.1576521508365
20
-3.81321546256288
30
0
41
1
10
51.4399635565959
20
-3.77330071045677
30
0
41
1
10
51.5810543456082
20
-3.7518350087976
30
0
41
1
10
51.8634000347333
20
-3.70621153585407
30
0
41
1
10
52.0046345779853
20
-3.68204599601398
30
0
41
1
10
52.2870553065473
20
-3.63098042831223
30
0
41
1
10
52.428271482892
20
-3.60412856821202
30
0
41
1
10
52.7107727475477
20
-3.54763178655787
30
0
41
1
10
52.8520544205638
20
-3.51797632274727
30
0
41
1
10
53.1347416573468
20
-3.45559626413637
30
0
41
1
10
53.2761483138854
20
-3.42283559232405
30
0
41
1
10
53.5591840149691
20
-3.35425797712668
30
0
41
1
10
53.7006658493544
20
-3.31849737807224
30
0
41
1
10
53.9833633207411
20
-3.24439060841263
30
0
41
1
10
54.1246711647683
20
-3.2060978566515
30
0
41
1
10
54.4073084656335
20
-3.1272501362528
30
0
41
1
10
54.5485749044081
20
-3.08660187241071
30
0
41
1
10
54.7209066666819
20
-3.03557147670486
30
0
41
1
10
54.751982728704
20
-3.02631232681762
30
0
41
1
10
54.7830584473668
20
-3.0169961350924
30
0
0
SPLINE
5
DA
100
AcDbEntity
8
1
62
256
6
ByLayer
370
18
48
1
60
0
100
AcDbSpline
70
4
71
3
72
101
73
97
40
0
40
0
40
0
40
0
40
0.0202938548832846
40
0.0202938548832846
40
0.0405877097665691
40
0.0405877097665691
40
0.0608815646498537
40
0.0608815646498537
40
0.0811754195331383
40
0.0811754195331383
40
0.101469274416423
40
0.101469274416423
40
0.121763129299707
40
0.121763129299707
40
0.162350839066276
40
0.162350839066276
40
0.202938548832844
40
0.202938548832844
40
0.223232403716129
40
0.223232403716129
40
0.243526258599413
40
0.243526258599413
40
0.253673186041056
40
0.263820113482699
40
0.263820113482699
40
0.284113968365985
40
0.284113968365985
40
0.304407823249271
40
0.304407823249271
40
0.324701678132557
40
0.324701678132557
40
0.344995533015843
40
0.344995533015843
40
0.36528938789913
40
0.36528938789913
40
0.405877097665703
40
0.405877097665703
40
0.42617095254899
40
0.42617095254899
40
0.446464807432277
40
0.446464807432277
40
0.487052517198851
40
0.487052517198851
40
0.507346372082138
40
0.507346372082138
40
0.527640226965425
40
0.527640226965425
40
0.547934081848712
40
0.547934081848712
40
0.568227936731999
40
0.568227936731999
40
0.588521791615286
40
0.588521791615286
40
0.608815646498573
40
0.608815646498573
40
0.62910950138186
40
0.62910950138186
40
0.649403356265147
40
0.649403356265147
40
0.669697211148434
40
0.669697211148434
40
0.689991066031721
40
0.689991066031721
40
0.710284920915008
40
0.710284920915008
40
0.730578775798295
40
0.730578775798295
40
0.750872630681582
40
0.750872630681582
40
0.771166485564869
40
0.771166485564869
40
0.781313413006514
40
0.781313413006514
40
0.791460340448158
40
0.791460340448158
40
0.811754195331448
40
0.811754195331448
40
0.832048050214738
40
0.832048050214738
40
0.852341905098029
40
0.852341905098029
40
0.872635759981319
40
0.872635759981319
40
0.892929614864609
40
0.892929614864609
40
0.9132234697479
40
0.9132234697479
40
0.93351732463119
40
0.93351732463119
40
0.95381117951448
40
0.95381117951448
40
0.974105034397771
40
0.974105034397771
40
0.994398889281061
40
0.994398889281061
40
1
40
1
40
1
40
1
41
1
10
6.80481598522837
20
0.478523914955389
30
0
41
1
10
6.94686028449152
20
0.414977834628076
30
0
41
1
10
7.08862245291928
20
0.351032347424848
30
0
41
1
10
7.37169876720185
20
0.22273996077007
30
0
41
1
10
7.51302092159588
20
0.158417055856717
30
0
41
1
10
7.79526587297306
20
0.0294635626395063
30
0
41
1
10
7.93618326580892
20
-0.035179661293455
30
0
41
1
10
8.21764469708125
20
-0.164748711435124
30
0
41
1
10
8.35820442565003
20
-0.229643409795415
30
0
41
1
10
8.63927981638091
20
-0.3589741718136
30
0
41
1
10
8.77980196579048
20
-0.423394615079246
30
0
41
1
10
9.06100801500386
20
-0.551300084763341
30
0
41
1
10
9.20166425167039
20
-0.614842667097633
30
0
41
1
10
9.6236373295778
20
-0.804594029505779
30
0
41
1
10
9.90511061369313
20
-0.929615505559156
30
0
41
1
10
10.4679154481422
20
-1.17788821656117
30
0
41
1
10
10.749179185385
20
-1.30124531715361
30
0
41
1
10
11.1719130965287
20
-1.48266664151146
30
0
41
1
10
11.3130108576823
20
-1.54244593090067
30
0
41
1
10
11.5956344957885
20
-1.66053414303559
30
0
41
1
10
11.7370963882749
20
-1.71897722527427
30
0
41
1
10
11.949523891472
20
-1.80574179498913
30
0
41
1
10
12.0912726497976
20
-1.8632961376706
30
0
41
1
10
12.2329010194927
20
-1.92009879584569
30
0
41
1
10
12.4452520072122
20
-2.00472176067714
30
0
41
1
10
12.5866957365841
20
-2.06036611070641
30
0
41
1
10
12.8693502289483
20
-2.16996274473939
30
0
41
1
10
13.0105607860544
20
-2.22391345563463
30
0
41
1
10
13.2928668807673
20
-2.32999401304519
30
0
41
1
10
13.4339444275165
20
-2.38215511542899
30
0
41
1
10
13.7161709258144
20
-2.48444437564933
30
0
41
1
10
13.8573589348378
20
-2.53451983382271
30
0
41
1
10
14.1397357692576
20
-2.63271411029345
30
0
41
1
10
14.2809479365076
20
-2.68078989946051
30
0
41
1
10
14.7048184320476
20
-2.82151989620567
30
0
41
1
10
14.9877005581285
20
-2.91061775363752
30
0
41
1
10
15.4121790791952
20
-3.03812118497859
30
0
41
1
10
15.5537807372199
20
-3.07961866261661
30
0
41
1
10
15.8366560680875
20
-3.1601521450001
30
0
41
1
10
15.977973906955
20
-3.19917703776466
30
0
41
1
10
16.4020424598745
20
-3.31172826029936
30
0
41
1
10
16.6846581379245
20
-3.38088362459024
30
0
41
1
10
17.1083946530229
20
-3.47676300746542
30
0
41
1
10
17.2495862904799
20
-3.50748827757286
30
0
41
1
10
17.5318385819765
20
-3.56640597955561
30
0
41
1
10
17.6729073427211
20
-3.59451272557115
30
0
41
1
10
17.9551433154931
20
-3.64751454060871
30
0
41
1
10
18.0962934558191
20
-3.67247304185415
30
0
41
1
10
18.3788030571901
20
-3.71934073335592
30
0
41
1
10
18.5202248101268
20
-3.74120325747035
30
0
41
1
10
18.8032957153008
20
-3.78207828751914
30
0
41
1
10
18.9449715627514
20
-3.80113717157514
30
0
41
1
10
19.2281896978518
20
-3.83652276889578
30
0
41
1
10
19.3696795273823
20
-3.85278116520328
30
0
41
1
10
19.6525112510535
20
-3.8817506754348
30
0
41
1
10
19.7938447917043
20
-3.8945204324242
30
0
41
1
10
20.0762942271638
20
-3.91691579685707
30
0
41
1
10
20.2174206825514
20
-3.92652944969382
30
0
41
1
10
20.4995747310268
20
-3.94272407847481
30
0
41
1
10
20.6405825890537
20
-3.94930750008868
30
0
41
1
10
20.9227212590332
20
-3.95960922031642
30
0
41
1
10
21.0638358031683
20
-3.96335457573193
30
0
41
1
10
21.3461797442675
20
-3.96734701748741
30
0
41
1
10
21.4874635357138
20
-3.96754175024293
30
0
41
1
10
21.770204831716
20
-3.96467505239548
30
0
41
1
10
21.9116518198524
20
-3.9616302879335
30
0
41
1
10
22.1946189440535
20
-3.95246895372793
30
0
41
1
10
22.3361551560553
20
-3.94634575761305
30
0
41
1
10
22.6191723583089
20
-3.93116144641084
30
0
41
1
10
22.7604848944275
20
-3.92217681121039
30
0
41
1
10
22.9723325409076
20
-3.9062228249928
30
0
41
1
10
23.0429336887786
20
-3.90048162272871
30
0
41
1
10
23.1841695535144
20
-3.88811764124637
30
0
41
1
10
23.2548067078942
20
-3.88150843169231
30
0
41
1
10
23.4667277966406
20
-3.86047863318896
30
0
41
1
10
23.6079873290004
20
-3.84486249629603
30
0
41
1
10
23.8904604726169
20
-3.81072710532416
30
0
41
1
10
24.0316869566149
20
-3.79219973043371
30
0
41
1
10
24.3140438446659
20
-3.75234614661988
30
0
41
1
10
24.4551573676571
20
-3.73106481243704
30
0
41
1
10
24.7372771264406
20
-3.68552002949664
30
0
41
1
10
24.8783129011723
20
-3.66114282944935
30
0
41
1
10
25.1606203074976
20
-3.60897806611055
30
0
41
1
10
25.3018456377858
20
-3.58126891436402
30
0
41
1
10
25.5845531775523
20
-3.5231609156433
30
0
41
1
10
25.7260975073644
20
-3.49279688490114
30
0
41
1
10
26.0093615291868
20
-3.42939392540578
30
0
41
1
10
26.1509258853433
20
-3.39640710838492
30
0
41
1
10
26.4337919502866
20
-3.32801380165557
30
0
41
1
10
26.5751192560181
20
-3.29254835217753
30
0
41
1
10
26.8576886116191
20
-3.21866258690119
30
0
41
1
10
26.9989172991537
20
-3.18027662473068
30
0
41
1
10
27.2811784461377
20
-3.10090661099557
30
0
41
1
10
27.4222257649008
20
-3.0599301409504
30
0
41
1
10
27.6021656714507
20
-3.00612124137109
30
0
41
1
10
27.6410842622828
20
-2.99439059470211
30
0
41
1
10
27.6800031854733
20
-2.98257342301449
30
0
0
SPLINE
5
DB
100
AcDbEntity
8
1
62
256
6
ByLayer
370
18
48
1
60
0
100
AcDbSpline
70
4
71
3
72
61
73
57
40
0
40
0
40
0
40
0
40
0.0015837183594162
40
0.0015837183594162
40
0.0360118660021954
40
0.0360118660021954
40
0.070440013644975
40
0.070440013644975
40
0.104868161287755
40
0.104868161287755
40
0.173724456573314
40
0.173724456573314
40
0.208152604216093
40
0.208152604216093
40
0.242580751858873
40
0.242580751858873
40
0.277008899501652
40
0.277008899501652
40
0.311437047144432
40
0.311437047144432
40
0.345865194787212
40
0.345865194787212
40
0.380293342429991
40
0.380293342429991
40
0.414721490072771
40
0.414721490072771
40
0.44914963771555
40
0.44914963771555
40
0.48357778535833
40
0.48357778535833
40
0.518005933001109
40
0.518005933001109
40
0.552434080643889
40
0.552434080643889
40
0.586862228286668
40
0.586862228286668
40
0.621290375929448
40
0.621290375929448
40
0.655718523572228
40
0.655718523572228
40
0.672932597393616
40
0.672932597393616
40
0.690146671215004
40
0.724574818857781
40
0.724574818857781
40
0.759002966500557
40
0.759002966500557
40
0.793431114143334
40
0.793431114143334
40
0.827859261786111
40
0.827859261786111
40
0.862287409428887
40
0.862287409428887
40
0.931143704714444
40
0.931143704714444
40
1
40
1
40
1
40
1
41
1
10
48.7350063508696
20
3.98009723957213
30
0
41
1
10
48.7414962245198
20
3.98006772527376
30
0
41
1
10
48.747985997325
20
3.98003518681932
30
0
41
1
10
48.8955534480612
20
3.97922676293268
30
0
41
1
10
49.0365779558445
20
3.97701988849556
30
0
41
1
10
49.3187181785284
20
3.969671390125
30
0
41
1
10
49.4599296197105
20
3.96442783057572
30
0
41
1
10
49.7427242355031
20
3.95029859833775
30
0
41
1
10
49.8842781104085
20
3.94145692129334
30
0
41
1
10
50.3094408249843
20
3.90994314275127
30
0
41
1
10
50.5925287517152
20
3.88238060668661
30
0
41
1
10
51.0164497151833
20
3.83167962429045
30
0
41
1
10
51.1576521508365
20
3.81321546256288
30
0
41
1
10
51.4399635565958
20
3.77330071045677
30
0
41
1
10
51.5810543456082
20
3.7518350087976
30
0
41
1
10
51.8634000347334
20
3.70621153585407
30
0
41
1
10
52.0046345779853
20
3.68204599601398
30
0
41
1
10
52.2870553065473
20
3.63098042831223
30
0
41
1
10
52.4282714828919
20
3.60412856821202
30
0
41
1
10
52.7107727475477
20
3.54763178655787
30
0
41
1
10
52.8520544205639
20
3.51797632274727
30
0
41
1
10
53.1347416573468
20
3.4555962641364
30
0
41
1
10
53.2761483138854
20
3.42283559232405
30
0
41
1
10
53.5591840149691
20
3.35425797712668
30
0
41
1
10
53.7006658493544
20
3.31849737807227
30
0
41
1
10
53.983363320741
20
3.24439060841266
30
0
41
1
10
54.1246711647683
20
3.2060978566515
30
0
41
1
10
54.4073084656335
20
3.1272501362528
30
0
41
1
10
54.5485749044081
20
3.08660187241071
30
0
41
1
10
54.831085815623
20
3.00294553767418
30
0
41
1
10
54.9723362166319
20
2.9599413132861
30
0
41
1
10
55.2548083681237
20
2.87155815710139
30
0
41
1
10
55.3960266267143
20
2.82618282265403
30
0
41
1
10
55.6783751078077
20
2.73305042879494
30
0
41
1
10
55.8195002657817
20
2.68528776015234
30
0
41
1
10
56.1017631991654
20
2.58758270759736
30
0
41
1
10
56.2428879664945
20
2.53760439383007
30
0
41
1
10
56.5254178149507
20
2.43577976081161
30
0
41
1
10
56.6668701090584
20
2.38401941776726
30
0
41
1
10
56.8792427759959
20
2.30487699331445
30
0
41
1
10
56.9500874729926
20
2.27824368619466
30
0
41
1
10
57.0916494182871
20
2.22459936722467
30
0
41
1
10
57.3038688938651
20
2.14354577587162
30
0
41
1
10
57.5157030858042
20
2.06073655837022
30
0
41
1
10
57.7977526846185
20
1.94871187820081
30
0
41
1
10
57.9385668428214
20
1.89187496031542
30
0
41
1
10
58.2198716793672
20
1.7765989042002
30
0
41
1
10
58.3603873652924
20
1.71819421628905
30
0
41
1
10
58.6412580403582
20
1.60013435118458
30
0
41
1
10
58.7816076696211
20
1.54047504554598
30
0
41
1
10
59.0624113297315
20
1.42049247669354
30
0
41
1
10
59.2028066487029
20
1.36005058082858
30
0
41
1
10
59.6238801856974
20
1.17722119386866
30
0
41
1
10
59.9045772749466
20
1.05360880495911
30
0
41
1
10
60.465632687168
20
0.802378361625443
30
0
41
1
10
60.7458910520292
20
0.674549891854468
30
0
41
1
10
61.0264066231339
20
0.545573585551637
30
0
0
SPLINE
5
DC
100
AcDbEntity
8
1
62
256
6
ByLayer
370
18
48
1
60
0
100
AcDbSpline
70
4
71
3
72
20
73
16
40
0
40
0
40
0
40
0
40
0.124999999999997
40
0.124999999999997
40
0.249999999999995
40
0.249999999999995
40
0.374999999999992
40
0.374999999999992
40
0.437499999999991
40
0.437499999999991
40
0.49999999999999
40
0.49999999999999
40
0.749999999999995
40
0.749999999999995
40
1
40
1
40
1
40
1
41
1
10
3.75153271098347
20
2.1355732618924
30
0
41
1
10
3.86570802580062
20
2.05711296511998
30
0
41
1
10
3.98250662732309
20
1.98022998277457
30
0
41
1
10
4.22035763844025
20
1.82907933623017
30
0
41
1
10
4.34141607350497
20
1.7548151563349
30
0
41
1
10
4.58712661202057
20
1.60855399629125
30
0
41
1
10
4.71178177977273
20
1.5365587845624
30
0
41
1
10
4.90110191463609
20
1.43008381820846
30
0
41
1
10
4.96459937375258
20
1.39484581429289
30
0
41
1
10
5.09232723234064
20
1.32485300512869
30
0
41
1
10
5.15659723307215
20
1.29007735710678
30
0
41
1
10
5.47894660076159
20
1.11774116900659
30
0
41
1
10
5.74030529555233
20
0.984589511862509
30
0
41
1
10
6.26856486532475
20
0.726043029744773
30
0
41
1
10
6.53550736781344
20
0.600699397350809
30
0
41
1
10
6.80465913377907
20
0.478582214502495
30
0
0
SPLINE
5
DD
100
AcDbEntity
8
1
62
256
6
ByLayer
370
18
48
1
60
0
100
AcDbSpline
70
4
71
3
72
48
73
44
40
0
40
0
40
0
40
0
40
0.0624999999999979
40
0.0624999999999979
40
0.124999999999996
40
0.124999999999996
40
0.156249999999995
40
0.171874999999995
40
0.171874999999995
40
0.187499999999994
40
0.187499999999994
40
0.249999999999994
40
0.249999999999994
40
0.312499999999994
40
0.312499999999994
40
0.374999999999995
40
0.374999999999995
40
0.390624999999995
40
0.390624999999995
40
0.406249999999995
40
0.437499999999995
40
0.437499999999995
40
0.499999999999996
40
0.562499999999998
40
0.562499999999998
40
0.593749999999998
40
0.593749999999998
40
0.609374999999998
40
0.609374999999998
40
0.624999999999998
40
0.687499999999998
40
0.749999999999998
40
0.749999999999998
40
0.812499999999998
40
0.812499999999998
40
0.828124999999998
40
0.828124999999998
40
0.843749999999998
40
0.874999999999999
40
0.874999999999999
40
0.937499999999999
40
0.937499999999999
40
1
40
1
40
1
40
1
41
1
10
61.0264066231339
20
0.545573585551608
30
0
41
1
10
61.0197689896846
20
0.417274556863475
30
0
41
1
10
61.017278942409
20
0.288935221416892
30
0
41
1
10
61.0190193860101
20
0.0321574284361645
30
0
41
1
10
61.0232524406461
20
-0.0962809998055718
30
0
41
1
10
61.0336149895112
20
-0.289028941601174
30
0
41
1
10
61.03980147808
20
-0.385425524289502
30
0
41
1
10
61.0473175395169
20
-0.481859419473011
30
0
41
1
10
61.052604742874
20
-0.546157384495473
30
0
41
1
10
61.0553898813178
20
-0.57834451148301
30
0
41
1
10
61.0698806129326
20
-0.738458889352017
30
0
41
1
10
61.0833095749199
20
-0.864476549775503
30
0
41
1
10
61.1124488683156
20
-1.11265484185253
30
0
41
1
10
61.1281621910619
20
-1.23481467052272
30
0
41
1
10
61.1607378666144
20
-1.47541760134453
30
0
41
1
10
61.1776019683232
20
-1.5938606321499
30
0
41
1
10
61.1988053670099
20
-1.7395951453602
30
0
41
1
10
61.2030547437627
20
-1.76864008209611
30
0
41
1
10
61.2115096412291
20
-1.8262013284243
30
0
41
1
10
61.2241422169511
20
-1.9118590709146
30
0
41
1
10
61.2365692800863
20
-1.99549202147941
30
0
41
1
10
61.2610211555487
20
-2.16010896898527
30
0
41
1
10
61.2925379236476
20
-2.37254854520276
30
0
41
1
10
61.3208494858738
20
-2.57106890966279
30
0
41
1
10
61.3406417293386
20
-2.71463572533705
30
0
41
1
10
61.3470004051257
20
-2.76160231554385
30
0
41
1
10
61.3561642360543
20
-2.83068888443788
30
0
41
1
10
61.3591560692031
20
-2.85348743543437
30
0
41
1
10
61.3649818182765
20
-2.89837339282297
30
0
41
1
10
61.379175168062
20
-3.00897131050891
30
0
41
1
10
61.4014097760213
20
-3.19368814109049
30
0
41
1
10
61.4170595989399
20
-3.33784393487579
30
0
41
1
10
61.431152816168
20
-3.47188851938438
30
0
41
1
10
61.4374196752794
20
-3.53385603736811
30
0
41
1
10
61.4447346509885
20
-3.60475767268807
30
0
41
1
10
61.4461720760873
20
-3.61860622922262
30
0
41
1
10
61.4489959288296
20
-3.64550165645772
30
0
41
1
10
61.4531611220114
20
-3.68469814505426
30
0
41
1
10
61.4571838747472
20
-3.72048487278607
30
0
41
1
10
61.4652358574079
20
-3.78756219792604
30
0
41
1
10
61.4706073964864
20
-3.82629472260629
30
0
41
1
10
61.4825174719271
20
-3.89181484556499
30
0
41
1
10
61.489053814719
20
-3.91860360993309
30
0
41
1
10
61.4968479868798
20
-3.93927288522491
30
0
0
SPLINE
5
DE
100
AcDbEntity
8
1
62
256
6
ByLayer
370
13
48
1
60
0
100
AcDbSpline
70
4
71
3
72
17
73
13
40
0
40
0
40
0
40
0
40
0.249999999999999
40
0.249999999999999
40
0.375
40
0.375
40
0.5
40
0.625000000000001
40
0.625000000000001
40
0.750000000000001
40
0.750000000000001
40
1
40
1
40
1
40
1
41
1
10
3.64370886435501
20
-3.38352950927339
30
0
41
1
10
3.62404953608271
20
-3.3886013419482
30
0
41
1
10
3.60636363578144
20
-3.39483305607416
30
0
41
1
10
3.58241179206132
20
-3.40565413864587
30
0
41
1
10
3.57481505743772
20
-3.40954131718172
30
0
41
1
10
3.56080471884209
20
-3.41762067798203
30
0
41
1
10
3.54794439201555
20
-3.42600360888366
30
0
41
1
10
3.53721252311792
20
-3.4349355014526
30
0
41
1
10
3.52751050693368
20
-3.44412730313451
30
0
41
1
10
3.52316163710432
20
-3.4488700855253
30
0
41
1
10
3.51176325460571
20
-3.46336927063194
30
0
41
1
10
3.50642626417843
20
-3.4732691634911
30
0
41
1
10
3.50328750267127
20
-3.48332638267098
30
0
0
SPLINE
5
DF
100
AcDbEntity
8
1
62
256
6
ByLayer
370
13
48
1
60
0
100
AcDbSpline
70
4
71
3
72
12
73
8
40
0
40
0
40
0
40
0
40
0.500000000000086
40
0.500000000000086
40
0.750000000000043
40
0.750000000000043
40
1
40
1
40
1
40
1
41
1
10
3.75036848370135
20
-3.37845408510941
30
0
41
1
10
3.73189686542423
20
-3.37580262966114
30
0
41
1
10
3.71376316460342
20
-3.37493362266017
30
0
41
1
10
3.68705862847017
20
-3.37618632851971
30
0
41
1
10
3.67824050466586
20
-3.37703381001268
30
0
41
1
10
3.66077815453843
20
-3.37961635535674
30
0
41
1
10
3.65213100096673
20
-3.38135671541861
30
0
41
1
10
3.64370886435501
20
-3.38352950927339
30
0
0
SPLINE
5
E0
100
AcDbEntity
8
1
62
256
6
ByLayer
370
13
48
1
60
0
100
AcDbSpline
70
4
71
3
72
48
73
44
40
0
40
0
40
0
40
0
40
0.0312499999999999
40
0.0312499999999999
40
0.0624999999999997
40
0.0624999999999997
40
0.124999999999999
40
0.187499999999999
40
0.187499999999999
40
0.218749999999999
40
0.218749999999999
40
0.234374999999999
40
0.234374999999999
40
0.249999999999999
40
0.249999999999999
40
0.312499999999999
40
0.374999999999999
40
0.374999999999999
40
0.437499999999999
40
0.437499999999999
40
0.453124999999999
40
0.453124999999999
40
0.468749999999999
40
0.499999999999999
40
0.499999999999999
40
0.562499999999999
40
0.624999999999999
40
0.624999999999999
40
0.640624999999999
40
0.640624999999999
40
0.656249999999999
40
0.6875
40
0.6875
40
0.75
40
0.8125
40
0.828125
40
0.828125
40
0.84375
40
0.84375
40
0.875
40
0.875
40
0.9375
40
1
40
1
40
1
40
1
41
1
10
3.75153271080487
20
2.13557326199285
30
0
41
1
10
3.75152806129756
20
2.07990685843805
30
0
41
1
10
3.7515227260206
20
2.02316755501278
30
0
41
1
10
3.75151089531573
20
1.90856887923454
30
0
41
1
10
3.75150439832785
20
1.85066175821427
30
0
41
1
10
3.75148335140057
20
1.67515052248166
30
0
41
1
10
3.75145115355304
20
1.43637122748203
30
0
41
1
10
3.75141234583222
20
1.18820002447185
30
0
41
1
10
3.75138124222695
20
0.998495836755637
30
0
41
1
10
3.75137054001274
20
0.934664055763307
30
0
41
1
10
3.75135403339178
20
0.838003715999605
30
0
41
1
10
3.75134844767848
20
0.805586250222575
30
0
41
1
10
3.7513371748299
20
0.740688700424045
30
0
41
1
10
3.75133149075762
20
0.708225263542261
30
0
41
1
10
3.75130285541437
20
0.545835593240668
30
0
41
1
10
3.75125568045431
20
0.285549346382169
30
0
41
1
10
3.75120669624337
20
0.0243612296535218
30
0
41
1
10
3.75115706697062
20
-0.23727949829717
30
0
41
1
10
3.75113192991472
20
-0.368326125481417
30
0
41
1
10
3.751100152247
20
-0.532426915581738
30
0
41
1
10
3.75109378159735
20
-0.565245126098802
30
0
41
1
10
3.75108107123646
20
-0.630561932126568
30
0
41
1
10
3.75106202702722
20
-0.728186413830599
30
0
41
1
10
3.75104304309565
20
-0.824768895732888
30
0
41
1
10
3.75100513120285
20
-1.01656151656977
30
0
41
1
10
3.75095474158155
20
-1.26863212541065
30
0
41
1
10
3.75090416515789
20
-1.51341250142755
30
0
41
1
10
3.75087222962179
20
-1.66405804638168
30
0
41
1
10
3.7508658278158
20
-1.69405930497081
30
0
41
1
10
3.75085305087586
20
-1.75350728053644
30
0
41
1
10
3.75083389990724
20
-1.84196777122185
30
0
41
1
10
3.75081475372102
20
-1.92831759793336
30
0
41
1
10
3.75077635654085
20
-2.09824544611058
30
0
41
1
10
3.75072488819754
20
-2.31743784515947
30
0
41
1
10
3.75066486015632
20
-2.54755897406997
30
0
41
1
10
3.75063014355268
20
-2.66955902082492
30
0
41
1
10
3.75061613177453
20
-2.7178846720889
30
0
41
1
10
3.75060905738056
20
-2.74183141726181
30
0
41
1
10
3.75058766778807
20
-2.81281060062759
30
0
41
1
10
3.75057323619771
20
-2.85882018873821
30
0
41
1
10
3.75052927033215
20
-2.99297689848473
30
0
41
1
10
3.75046886412403
20
-3.16154600819795
30
0
41
1
10
3.75040314826103
20
-3.30964315787523
30
0
41
1
10
3.75036848370135
20
-3.37845408510941
30
0
0
SPLINE
5
E1
100
AcDbEntity
8
1
62
256
6
ByLayer
370
18
48
1
60
0
100
AcDbSpline
70
4
71
3
72
32
73
28
40
0
40
0
40
0
40
0
40
0.124999999999987
40
0.124999999999987
40
0.249999999999975
40
0.249999999999975
40
0.374999999999962
40
0.374999999999962
40
0.437499999999966
40
0.437499999999966
40
0.49999999999997
40
0.49999999999997
40
0.562499999999973
40
0.562499999999973
40
0.624999999999977
40
0.624999999999977
40
0.687499999999981
40
0.687499999999981
40
0.749999999999985
40
0.749999999999985
40
0.812499999999989
40
0.812499999999989
40
0.874999999999992
40
0.874999999999992
40
0.937499999999996
40
0.937499999999996
40
1
40
1
40
1
40
1
41
1
10
3.50350291491822
20
2.13855913119073
30
0
41
1
10
3.50529007934605
20
2.14538860844047
30
0
41
1
10
3.50778508368697
20
2.1518942677188
30
0
41
1
10
3.51444428982254
20
2.16413867265027
30
0
41
1
10
3.51860164631287
20
2.16988064302174
30
0
41
1
10
3.52908682466975
20
2.1803616739677
30
0
41
1
10
3.53547580156797
20
2.18513558555594
30
0
41
1
10
3.54707588981754
20
2.19096237995984
30
0
41
1
10
3.55128435894326
20
2.19268822618511
30
0
41
1
10
3.56054394191008
20
2.19560467406183
30
0
41
1
10
3.56558095275403
20
2.19678611546416
30
0
41
1
10
3.57645857124265
20
2.19843583051082
30
0
41
1
10
3.58231808626746
20
2.19891245866492
30
0
41
1
10
3.59509093186964
20
2.19899108526033
30
0
41
1
10
3.6020477832474
20
2.19857806034949
30
0
41
1
10
3.6166265086417
20
2.19671959244934
30
0
41
1
10
3.62434185499248
20
2.19527110009389
30
0
41
1
10
3.64052985510165
20
2.19123603685293
30
0
41
1
10
3.64874487695934
20
2.18871676792187
30
0
41
1
10
3.66540081436889
20
2.18273923794138
30
0
41
1
10
3.67391331449184
20
2.179241136526
30
0
41
1
10
3.69042363969101
20
2.17170299683323
30
0
41
1
10
3.69850484145914
20
2.16763975551723
30
0
41
1
10
3.71438271054481
20
2.15903215282788
30
0
41
1
10
3.72217817998327
20
2.15448351879456
30
0
41
1
10
3.7371892224842
20
2.14519922637439
30
0
41
1
10
3.74445725434575
20
2.14043545499024
30
0
41
1
10
3.75153271081669
20
2.135573262007
30
0
0
SPLINE
5
E2
100
AcDbEntity
8
1
62
256
6
ByLayer
370
18
48
1
60
0
100
AcDbSpline
70
2053
71
3
72
82
73
78
40
0
40
0
40
0
40
0
40
0.0156249999999846
40
0.0156249999999846
40
0.0312499999999693
40
0.0312499999999693
40
0.039062499999969
40
0.039062499999969
40
0.0468749999999686
40
0.0468749999999686
40
0.0546874999999683
40
0.0546874999999683
40
0.062499999999968
40
0.062499999999968
40
0.0781249999999672
40
0.0781249999999672
40
0.0937499999999663
40
0.0937499999999663
40
0.109374999999966
40
0.109374999999966
40
0.124999999999965
40
0.124999999999965
40
0.156249999999953
40
0.156249999999953
40
0.187499999999942
40
0.187499999999942
40
0.249999999999918
40
0.249999999999918
40
0.281249999999904
40
0.281249999999904
40
0.312499999999891
40
0.312499999999891
40
0.374999999999867
40
0.374999999999867
40
0.406249999999856
40
0.406249999999856
40
0.437499999999845
40
0.437499999999845
40
0.468749999999834
40
0.468749999999834
40
0.499999999999823
40
0.499999999999823
40
0.515624999999814
40
0.515624999999814
40
0.531249999999804
40
0.531249999999804
40
0.546874999999795
40
0.546874999999795
40
0.562499999999785
40
0.562499999999785
40
0.570312499999789
40
0.570312499999789
40
0.578124999999794
40
0.578124999999794
40
0.593749999999803
40
0.593749999999803
40
0.624999999999821
40
0.624999999999821
40
0.656249999999839
40
0.656249999999839
40
0.687499999999858
40
0.687499999999858
40
0.749999999999888
40
0.749999999999888
40
0.781249999999903
40
0.781249999999903
40
0.812499999999918
40
0.812499999999918
40
0.874999999999947
40
0.874999999999947
40
0.937499999999976
40
0.937499999999976
40
0.968749999999992
40
0.968749999999992
40
0.984374999999996
40
0.984374999999996
40
1
40
1
40
1
40
1
41
1
10
0.382648570150961
20
4.27748848219889
30
0
41
1
10
0.380164046124747
20
4.27649864388459
30
0
41
1
10
0.377464281062117
20
4.27568099358936
30
0
41
1
10
0.371450653795449
20
4.27453578066317
30
0
41
1
10
0.368112796343922
20
4.27421005954346
30
0
41
1
10
0.362623367388949
20
4.27429916867604
30
0
41
1
10
0.360706839920766
20
4.27442430563025
30
0
41
1
10
0.356655538113472
20
4.27491454675106
30
0
41
1
10
0.354494181980044
20
4.27528586766468
30
0
41
1
10
0.35002746516696
20
4.27631164648636
30
0
41
1
10
0.347735296351828
20
4.27696044803187
30
0
41
1
10
0.343018150754602
20
4.27856472326954
30
0
41
1
10
0.340594900161847
20
4.27952422059798
30
0
41
1
10
0.333484653589238
20
4.28273268414156
30
0
41
1
10
0.328788864487763
20
4.28539464328486
30
0
41
1
10
0.320262227156519
20
4.29105774980724
30
0
41
1
10
0.316310731805601
20
4.29411947221266
30
0
41
1
10
0.309212840060098
20
4.30022686790528
30
0
41
1
10
0.30599184624856
20
4.30332750192616
30
0
41
1
10
0.300048411365168
20
4.30954623538099
30
0
41
1
10
0.297371745798131
20
4.31261637073931
30
0
41
1
10
0.289958090361694
20
4.32174548618042
30
0
41
1
10
0.285821772022501
20
4.32773356931543
30
0
41
1
10
0.278600803264737
20
4.33953939317476
30
0
41
1
10
0.275578347507491
20
4.34526818966489
30
0
41
1
10
0.26775657835384
20
4.36208897744109
30
0
41
1
10
0.264183369310644
20
4.37282122615866
30
0
41
1
10
0.260597827511418
20
4.38840689455594
30
0
41
1
10
0.259711622391791
20
4.39351081625469
30
0
41
1
10
0.25852807497651
20
4.40342917483514
30
0
41
1
10
0.25822661695662
20
4.40826080951243
30
0
41
1
10
0.258159398108063
20
4.42238862063348
30
0
41
1
10
0.259212579167411
20
4.43132589755027
30
0
41
1
10
0.262616444972053
20
4.44393143887058
30
0
41
1
10
0.264058882265005
20
4.44799817982042
30
0
41
1
10
0.267663876933199
20
4.45581465661462
30
0
41
1
10
0.269837266891784
20
4.45958257348065
30
0
41
1
10
0.275042968265183
20
4.46662259095163
30
0
41
1
10
0.27805733793295
20
4.46988500464877
30
0
41
1
10
0.285194810761936
20
4.47571259769919
30
0
41
1
10
0.289298963473129
20
4.47828983542414
30
0
41
1
10
0.296815938596211
20
4.48129583295542
30
0
41
1
10
0.299577892599899
20
4.48215596507373
30
0
41
1
10
0.30562603856194
20
4.48340269723374
30
0
41
1
10
0.308909324035795
20
4.48379813193102
30
0
41
1
10
0.316275956400574
20
4.48388394248428
30
0
41
1
10
0.320274366057788
20
4.48357255785348
30
0
41
1
10
0.329105643859606
20
4.48186077921872
30
0
41
1
10
0.333867827951934
20
4.48044676978813
30
0
41
1
10
0.341089509503917
20
4.47744671457014
30
0
41
1
10
0.3434614612259
20
4.47632495422235
30
0
41
1
10
0.348139251687059
20
4.47385329081678
30
0
41
1
10
0.350451875804481
20
4.47249591085344
30
0
41
1
10
0.357008349479628
20
4.46829658200568
30
0
41
1
10
0.361036993619649
20
4.46523179360139
30
0
41
1
10
0.371870312302605
20
4.45596699231015
30
0
41
1
10
0.377639743417319
20
4.44959946909901
30
0
41
1
10
0.387362193183634
20
4.43727321046416
30
0
41
1
10
0.391346433298935
20
4.43124593039175
30
0
41
1
10
0.398265968322875
20
4.41935671714413
30
0
41
1
10
0.401148966985716
20
4.41355768122457
30
0
41
1
10
0.40853137550485
20
4.39662021738636
30
0
41
1
10
0.411834509781073
20
4.38584977329026
30
0
41
1
10
0.415137252196729
20
4.37023454220326
30
0
41
1
10
0.415952475115944
20
4.36510951611547
30
0
41
1
10
0.417038804898567
20
4.35510931954403
30
0
41
1
10
0.41731100928601
20
4.35023882752344
30
0
41
1
10
0.417352047052503
20
4.33599904201975
30
0
41
1
10
0.416363684254492
20
4.32699286889726
30
0
41
1
10
0.412127623067107
20
4.31006205787216
30
0
41
1
10
0.408915207029082
20
4.30212094293313
30
0
41
1
10
0.40153600142591
20
4.29142535925652
30
0
41
1
10
0.398625908476021
20
4.28806049197732
30
0
41
1
10
0.39341566239861
20
4.28359485054693
30
0
41
1
10
0.391533996416143
20
4.28219944829485
30
0
41
1
10
0.387401277580267
20
4.27964544012295
30
0
41
1
10
0.385133094177178
20
4.27847832051319
30
0
41
1
10
0.382648570150961
20
4.27748848219889
30
0
0
SPLINE
5
E3
100
AcDbEntity
8
1
62
256
6
ByLayer
370
18
48
1
60
0
100
AcDbSpline
70
4
71
3
72
49
73
45
40
0
40
0
40
0
40
0
40
0.0145611904990525
40
0.0145611904990525
40
0.098729198044627
40
0.098729198044627
40
0.140813201817412
40
0.140813201817412
40
0.182897205590197
40
0.182897205590197
40
0.267065213135762
40
0.267065213135762
40
0.351233220681328
40
0.351233220681328
40
0.356493721152928
40
0.356493721152928
40
0.359123971388726
40
0.359123971388726
40
0.361754221624523
40
0.361754221624523
40
0.367014722096118
40
0.367014722096118
40
0.372275222567713
40
0.372275222567713
40
0.377535723039308
40
0.377535723039308
40
0.382796223510903
40
0.382796223510903
40
0.393317224454098
40
0.393317224454098
40
0.398577724925699
40
0.398577724925699
40
0.4038382253973
40
0.4143592263405
40
0.435401228226897
40
0.603737243318091
40
0.603737243318091
40
0.687905250863686
40
0.687905250863686
40
0.77207325840928
40
0.77207325840928
40
0.940409273500463
40
0.940409273500463
40
1
40
1
40
1
40
1
41
1
10
3.23917571391604
20
-4.16360224078826
30
0
41
1
10
3.25321258148884
20
-4.16359955293853
30
0
41
1
10
3.26729907365646
20
-4.16355134509246
30
0
41
1
10
3.36313644834743
20
-4.16292632566814
30
0
41
1
10
3.44645138258329
20
-4.1609221367577
30
0
41
1
10
3.57353406564454
20
-4.15604402278072
30
0
41
1
10
3.61624759081704
20
-4.15410503989278
30
0
41
1
10
3.70233794252607
20
-4.14964709049662
30
0
41
1
10
3.74573569015601
20
-4.14712655370576
30
0
41
1
10
3.87658077416034
20
-4.13877551792686
30
0
41
1
10
3.96475138827603
20
-4.13215512078486
30
0
41
1
10
4.14275806700618
20
-4.11711349759324
30
0
41
1
10
4.23260636519555
20
-4.10869042269735
30
0
41
1
10
4.32883705245766
20
-4.09891449533848
30
0
41
1
10
4.33450033879313
20
-4.09833639842725
30
0
41
1
10
4.34299925080003
20
-4.09746474810808
30
0
41
1
10
4.3458311453879
20
-4.09717290390887
30
0
41
1
10
4.35150453184633
20
-4.09659029997965
30
0
41
1
10
4.35434802998711
20
-4.09629951628506
30
0
41
1
10
4.36312323444909
20
-4.09551138584547
30
0
41
1
10
4.3691716322827
20
-4.09506749454707
30
0
41
1
10
4.38153965330562
20
-4.09439440608122
30
0
41
1
10
4.38786342160356
20
-4.09414935231638
30
0
41
1
10
4.40075827368801
20
-4.09382364026359
30
0
41
1
10
4.40725453793976
20
-4.09374526539156
30
0
41
1
10
4.42014926476909
20
-4.09371789427871
30
0
41
1
10
4.42657962068108
20
-4.09376663577976
30
0
41
1
10
4.44581875778036
20
-4.09410293386611
30
0
41
1
10
4.45861004192977
20
-4.09461592719165
30
0
41
1
10
4.47741316954782
20
-4.09557432995098
30
0
41
1
10
4.48365599524269
20
-4.09591000035533
30
0
41
1
10
4.49615693718823
20
-4.09656823019284
30
0
41
1
10
4.51490502345612
20
-4.0975541800421
30
0
41
1
10
4.55862809028747
20
-4.09984420048804
30
0
41
1
10
4.79573303198165
20
-4.11215460023683
30
0
41
1
10
5.01888888078528
20
-4.1230471709089
30
0
41
1
10
5.31455742366748
20
-4.13585492728276
30
0
41
1
10
5.41281334264545
20
-4.13983827907811
30
0
41
1
10
5.60874767361764
20
-4.14709685954816
30
0
41
1
10
5.7064450741276
20
-4.15037237794462
30
0
41
1
10
5.99839123132469
20
-4.15892023059308
30
0
41
1
10
6.19158410845821
20
-4.16291650396113
30
0
41
1
10
6.45142860446458
20
-4.16530686875473
30
0
41
1
10
6.51920130970942
20
-4.16565045847204
30
0
41
1
10
6.58682014788459
20
-4.16569172263169
30
0
0
SPLINE
5
E4
100
AcDbEntity
8
1
62
256
6
ByLayer
370
18
48
1
60
0
100
AcDbSpline
70
4
71
3
72
86
73
82
40
0
40
0
40
0
40
0
40
0.0299412332323639
40
0.0299412332323639
40
0.0485962095163583
40
0.0485962095163583
40
0.0672511858003528
40
0.0672511858003528
40
0.104561138368342
40
0.104561138368342
40
0.14187109093633
40
0.14187109093633
40
0.151198579078327
40
0.151198579078327
40
0.160526067220324
40
0.179181043504317
40
0.179181043504317
40
0.216490996072304
40
0.216490996072304
40
0.235145972356298
40
0.235145972356298
40
0.253800948640291
40
0.253800948640291
40
0.291110901208277
40
0.291110901208277
40
0.328420853776263
40
0.328420853776263
40
0.33774834191826
40
0.33774834191826
40
0.347075830060257
40
0.347075830060257
40
0.36573080634425
40
0.36573080634425
40
0.403040758912235
40
0.403040758912235
40
0.421695735196227
40
0.421695735196227
40
0.440350711480219
40
0.440350711480219
40
0.477660664048204
40
0.477660664048204
40
0.514970616616189
40
0.514970616616189
40
0.533625592900181
40
0.533625592900181
40
0.542953081042177
40
0.542953081042177
40
0.552280569184173
40
0.552280569184173
40
0.589590521752158
40
0.589590521752158
40
0.626900474320143
40
0.626900474320143
40
0.645555450604135
40
0.645555450604135
40
0.664210426888128
40
0.664210426888128
40
0.701520379456114
40
0.701520379456114
40
0.720175355740107
40
0.729502843882103
40
0.729502843882103
40
0.738830332024099
40
0.738830332024099
40
0.776140284592084
40
0.776140284592084
40
0.813450237160069
40
0.813450237160069
40
0.822777725302066
40
0.822777725302066
40
0.832105213444062
40
0.832105213444062
40
0.850760189728056
40
0.850760189728056
40
0.888070142296042
40
0.888070142296042
40
0.925380094864028
40
0.925380094864028
40
0.962690047432014
40
0.962690047432014
40
1
40
1
40
1
40
1
41
1
10
27.578291248315
20
3.01366485756344
30
0
41
1
10
27.9166481646194
20
3.12686617026657
30
0
41
1
10
28.2550055747687
20
3.2332188556635
30
0
41
1
10
28.8048839067174
20
3.39367238911672
30
0
41
1
10
29.016180620178
20
3.45237045910187
30
0
41
1
10
29.4391783836738
20
3.56359199468335
30
0
41
1
10
29.6504053535504
20
3.61599120370852
30
0
41
1
10
30.2836281615381
20
3.76324471347863
30
0
41
1
10
30.705166312568
20
3.84816057642647
30
0
41
1
10
31.5485370668413
20
3.99029750358707
30
0
41
1
10
31.9703746381898
20
4.04750832528174
30
0
41
1
10
32.4989016197995
20
4.10091552426766
30
0
41
1
10
32.6046918062116
20
4.11069328000093
30
0
41
1
10
32.8160568035302
20
4.12839295034698
30
0
41
1
10
33.1329082572107
20
4.15217305169853
30
0
41
1
10
33.4492896037607
20
4.1676243704708
30
0
41
1
10
34.0817587714744
20
4.18738216055129
30
0
41
1
10
34.503011344429
20
4.18568108742258
30
0
41
1
10
35.1357112708394
20
4.16084199493162
30
0
41
1
10
35.3467492500081
20
4.14885093941308
30
0
41
1
10
35.7693361140281
20
4.117487199051
30
0
41
1
10
35.9810005529593
20
4.09809640824989
30
0
41
1
10
36.6148627639963
20
4.02914362238428
30
0
41
1
10
37.0365416378713
20
3.96876585049424
30
0
41
1
10
37.8796545094469
20
3.82025656043584
30
0
41
1
10
38.3010914230468
20
3.73211694199304
30
0
41
1
10
38.8288470774412
20
3.60543328756774
30
0
41
1
10
38.9344465975037
20
3.5792720792154
30
0
41
1
10
39.1457715148979
20
3.52532589623934
30
0
41
1
10
39.2515221028638
20
3.49753347997955
30
0
41
1
10
39.5684630854058
20
3.41191147286921
30
0
41
1
10
39.7795095468924
20
3.35179590988
30
0
41
1
10
40.4122558530152
20
3.16283135516164
30
0
41
1
10
40.8335915296515
20
3.02540499483456
30
0
41
1
10
41.4660177385481
20
2.80379964607647
30
0
41
1
10
41.6768926357265
20
2.7273469433442
30
0
41
1
10
42.0989730707954
20
2.56956137879391
30
0
41
1
10
42.3102125901803
20
2.48821500365725
30
0
41
1
10
42.9445418444801
20
2.23741789541114
30
0
41
1
10
43.3662936463456
20
2.06198786046969
30
0
41
1
10
44.2093151329836
20
1.69798619386395
30
0
41
1
10
44.6305699829822
20
1.50938836980407
30
0
41
1
10
45.2633524009289
20
1.21904369394002
30
0
41
1
10
45.474430584477
20
1.12102272655895
30
0
41
1
10
45.7914368197609
20
0.972448394523695
30
0
41
1
10
45.8971937363921
20
0.922655350752137
30
0
41
1
10
46.1085004453953
20
0.822780119306628
30
0
41
1
10
46.2140924431313
20
0.772677667842174
30
0
41
1
10
46.741804012261
20
0.521462368431941
30
0
41
1
10
47.1631693042029
20
0.318221565161792
30
0
41
1
10
48.0059432495471
20
-0.0893704169011471
30
0
41
1
10
48.4273623882015
20
-0.293699975908538
30
0
41
1
10
49.0608496211351
20
-0.598269888776258
30
0
41
1
10
49.2723535302687
20
-0.699525208514643
30
0
41
1
10
49.6946081457556
20
-0.900238265912179
30
0
41
1
10
49.90551826079
20
-0.999772674928721
30
0
41
1
10
50.5379398084224
20
-1.29523253076482
30
0
41
1
10
50.959136518492
20
-1.48802751199884
30
0
41
1
10
51.5914833934376
20
-1.76864963985395
30
0
41
1
10
51.9077979854146
20
-1.9068117696597
30
0
41
1
10
52.2245690670265
20
-2.04127652775514
30
0
41
1
10
52.4358795681783
20
-2.1300438143235
30
0
41
1
10
52.5416184143577
20
-2.17399684784763
30
0
41
1
10
53.0697907280458
20
-2.39106493576051
30
0
41
1
10
53.491357865439
20
-2.55639873174258
30
0
41
1
10
54.3341188263725
20
-2.86791906476634
30
0
41
1
10
54.7553159804122
20
-3.01409464326085
30
0
41
1
10
55.2826686286016
20
-3.18314540534036
30
0
41
1
10
55.3881822148817
20
-3.21627211286543
30
0
41
1
10
55.5993218905205
20
-3.28111873146003
30
0
41
1
10
55.7049818739432
20
-3.31284853968475
30
0
41
1
10
56.021949671907
20
-3.40580153152291
30
0
41
1
10
56.2327658879112
20
-3.46464922872221
30
0
41
1
10
56.8640647646917
20
-3.63153803949706
30
0
41
1
10
57.2834151657846
20
-3.72989950838039
30
0
41
1
10
58.1207859156034
20
-3.89957523656088
30
0
41
1
10
58.5387646444895
20
-3.97093202362444
30
0
41
1
10
59.3748656095865
20
-4.085605832814
30
0
41
1
10
59.7929917739685
20
-4.12891158621667
30
0
41
1
10
60.6311432050194
20
-4.18643742453409
30
0
41
1
10
61.0511926103662
20
-4.20065917337718
30
0
41
1
10
61.4730116826653
20
-4.19995270038999
30
0
0
SPLINE
5
E5
100
AcDbEntity
8
1
62
256
6
ByLayer
370
18
48
1
60
0
100
AcDbSpline
70
4
71
3
72
8
73
4
40
0
40
0
40
0
40
0
40
1
40
1
40
1
40
1
41
1
10
61.4730116826652
20
-4.19995270038996
30
0
41
1
10
61.455715499374
20
-4.20090222236564
30
0
41
1
10
61.4438531876304
20
-4.18729560430143
30
0
41
1
10
61.4348814498118
20
-4.15902057810794
30
0
0
SPLINE
5
E6
100
AcDbEntity
8
1
62
256
6
ByLayer
370
18
48
1
60
0
100
AcDbSpline
70
4
71
3
72
18
73
14
40
0
40
0
40
0
40
0
40
0.249999999999907
40
0.249999999999907
40
0.374999999999901
40
0.374999999999901
40
0.499999999999895
40
0.499999999999895
40
0.749999999999949
40
0.749999999999949
40
0.874999999999974
40
0.874999999999974
40
1
40
1
40
1
40
1
41
1
10
3.64161801593244
20
-3.58908263413289
30
0
41
1
10
3.62536565173178
20
-3.58510993826957
30
0
41
1
10
3.61024550457725
20
-3.58031045926177
30
0
41
1
10
3.58919753215125
20
-3.57187760339295
30
0
41
1
10
3.58245595620556
20
-3.56885923661545
30
0
41
1
10
3.56953951441559
20
-3.56238615437277
30
0
41
1
10
3.56342470594404
20
-3.55895819161816
30
0
41
1
10
3.54633056108386
20
-3.54824155300315
30
0
41
1
10
3.5364784426063
20
-3.5404712373242
30
0
41
1
10
3.52406071923494
20
-3.52781521582466
30
0
41
1
10
3.52033136600403
20
-3.5234330770225
30
0
41
1
10
3.51384613958282
20
-3.51453677138613
30
0
41
1
10
3.51106380128587
20
-3.5099972827843
30
0
41
1
10
3.5087357201723
20
-3.50536536577044
30
0
0
SPLINE
5
E7
100
AcDbEntity
8
1
62
256
6
ByLayer
370
18
48
1
60
0
100
AcDbSpline
70
4
71
3
72
8
73
4
40
0
40
0
40
0
40
0
40
1
40
1
40
1
40
1
41
1
10
3.50873572017224
20
-3.50536536577059
30
0
41
1
10
3.50513564516746
20
-3.49820270783377
30
0
41
1
10
3.50328685986875
20
-3.49086073137315
30
0
41
1
10
3.50328750267118
20
-3.48332638267564
30
0
0
SPLINE
5
E8
100
AcDbEntity
8
1
62
256
6
ByLayer
370
18
48
1
60
0
100
AcDbSpline
70
4
71
3
72
49
73
45
40
0
40
0
40
0
40
0
40
0.03125
40
0.03125
40
0.0625
40
0.0625
40
0.125
40
0.1875
40
0.25
40
0.25
40
0.265625
40
0.265625
40
0.28125
40
0.28125
40
0.312500000000001
40
0.312500000000001
40
0.375000000000001
40
0.437500000000001
40
0.437500000000001
40
0.468750000000001
40
0.484375000000001
40
0.484375000000001
40
0.500000000000001
40
0.500000000000001
40
0.562500000000001
40
0.562500000000001
40
0.625000000000001
40
0.687500000000001
40
0.687500000000001
40
0.703125000000001
40
0.703125000000001
40
0.718750000000001
40
0.718750000000001
40
0.75
40
0.75
40
0.8125
40
0.875
40
0.875
40
0.90625
40
0.921875
40
0.921875
40
0.9375
40
0.9375
40
1
40
1
40
1
40
1
41
1
10
3.50328750267121
20
-3.48332638267126
30
0
41
1
10
3.50329062763225
20
-3.44669842089465
30
0
41
1
10
3.50329368939307
20
-3.40873851895046
30
0
41
1
10
3.50329970323239
20
-3.33015186898359
30
0
41
1
10
3.50330266027441
20
-3.28944956252042
30
0
41
1
10
3.50331133713996
20
-3.16411696558953
30
0
41
1
10
3.50332241028616
20
-2.98821596878224
30
0
41
1
10
3.50333797233418
20
-2.69874393827715
30
0
41
1
10
3.50334790775719
20
-2.48871071818979
30
0
41
1
10
3.50335405402117
20
-2.35197212303984
30
0
41
1
10
3.50335528008378
20
-2.32435040631827
30
0
41
1
10
3.50335772759834
20
-2.2685529875925
30
0
41
1
10
3.5033589486379
20
-2.24038561740642
30
0
41
1
10
3.5033625876201
20
-2.1555122590139
30
0
41
1
10
3.50336498812359
20
-2.09828486075455
30
0
41
1
10
3.50337213432457
20
-1.92470263597105
30
0
41
1
10
3.50338151674052
20
-1.68820150963728
30
0
41
1
10
3.50339079161893
20
-1.4417450650578
30
0
41
1
10
3.5033977593838
20
-1.2531273761536
30
0
41
1
10
3.50340124591625
20
-1.15787310800576
30
0
41
1
10
3.50340474393514
20
-1.06117780207038
30
0
41
1
10
3.50340707918224
20
-0.996390378440481
30
0
41
1
10
3.50340824910563
20
-0.963815577125814
30
0
41
1
10
3.50341407688663
20
-0.801005934399797
30
0
41
1
10
3.50341869460385
20
-0.670297365705551
30
0
41
1
10
3.50342786324396
20
-0.407986456644522
30
0
41
1
10
3.50343696490114
20
-0.144781592830924
30
0
41
1
10
3.5034459186052
20
0.12020522999228
30
0
41
1
10
3.50345144537218
20
0.286392467392346
30
0
41
1
10
3.50345254718357
20
0.319658501418388
30
0
41
1
10
3.50345474282659
20
0.386248342879725
30
0
41
1
10
3.50345583788936
20
0.419610142560686
30
0
41
1
10
3.5034590933297
20
0.519284724598009
30
0
41
1
10
3.50346122797967
20
0.585305699108005
30
0
41
1
10
3.50346751433497
20
0.782107001054186
30
0
41
1
10
3.50347558426634
20
1.04115015116381
30
0
41
1
10
3.50348287361589
20
1.29359360040576
30
0
41
1
10
3.50348796556861
20
1.48042739379539
30
0
41
1
10
3.50349041740159
20
1.57321854394172
30
0
41
1
10
3.50349270877322
20
1.66505670536103
30
0
41
1
10
3.50349419826242
20
1.72606804532865
30
0
41
1
10
3.50349492485941
20
1.75650543674107
30
0
41
1
10
3.5034984424062
20
1.90754696692969
30
0
41
1
10
3.50350089070335
20
2.02479718288276
30
0
41
1
10
3.50350291491819
20
2.13855913119073
30
0
0
SPLINE
5
E9
100
AcDbEntity
8
1
62
256
6
ByLayer
370
18
48
1
60
0
100
AcDbSpline
70
4
71
3
72
98
73
94
40
0
40
0
40
0
40
0
40
0.0312500000000088
40
0.0312500000000088
40
0.0625000000000177
40
0.0625000000000177
40
0.0781250000000213
40
0.0781250000000213
40
0.0937500000000249
40
0.0937500000000249
40
0.125000000000034
40
0.125000000000034
40
0.156250000000042
40
0.156250000000042
40
0.187500000000051
40
0.187500000000051
40
0.195312500000053
40
0.195312500000053
40
0.203125000000054
40
0.218750000000057
40
0.218750000000057
40
0.250000000000062
40
0.250000000000062
40
0.265625000000065
40
0.265625000000065
40
0.281250000000067
40
0.29687500000007
40
0.29687500000007
40
0.304687500000071
40
0.304687500000071
40
0.312500000000073
40
0.312500000000073
40
0.343750000000078
40
0.343750000000078
40
0.359375000000081
40
0.359375000000081
40
0.367187500000082
40
0.367187500000082
40
0.375000000000083
40
0.375000000000083
40
0.406250000000089
40
0.406250000000089
40
0.437500000000094
40
0.437500000000094
40
0.445312500000095
40
0.445312500000095
40
0.453125000000096
40
0.468750000000096
40
0.468750000000096
40
0.500000000000099
40
0.500000000000099
40
0.531250000000102
40
0.531250000000102
40
0.562500000000104
40
0.562500000000104
40
0.578125000000106
40
0.578125000000106
40
0.593750000000108
40
0.593750000000108
40
0.625000000000112
40
0.625000000000112
40
0.656250000000117
40
0.656250000000117
40
0.658203125000117
40
0.658203125000117
40
0.659179687500117
40
0.659179687500117
40
0.660156250000116
40
0.660156250000116
40
0.662109375000115
40
0.662109375000115
40
0.664062500000114
40
0.664062500000114
40
0.666015625000113
40
0.666015625000113
40
0.667968750000112
40
0.667968750000112
40
0.671875000000112
40
0.671875000000112
40
0.673828125000112
40
0.673828125000112
40
0.675781250000111
40
0.679687500000109
40
0.687500000000107
40
0.750000000000086
40
0.750000000000086
40
0.781250000000076
40
0.781250000000076
40
0.812500000000065
40
0.812500000000065
40
0.875000000000044
40
0.875000000000044
40
1
40
1
40
1
40
1
41
1
10
3.50350291491819
20
2.13855913119076
30
0
41
1
10
3.42101071292305
20
2.19336860160072
30
0
41
1
10
3.33979793916819
20
2.24871810566819
30
0
41
1
10
3.18030896383283
20
2.36063121760284
30
0
41
1
10
3.10203078032413
20
2.41719404829144
30
0
41
1
10
2.98719943282791
20
2.50308833922264
30
0
41
1
10
2.94932961075185
20
2.53191463804313
30
0
41
1
10
2.87464438749484
20
2.5898661415865
30
0
41
1
10
2.8379504209249
20
2.6188965685545
30
0
41
1
10
2.72995861330639
20
2.70615897357629
30
0
41
1
10
2.66073987254433
20
2.76456117828252
30
0
41
1
10
2.52884140044179
20
2.88187573766618
30
0
41
1
10
2.46615405518372
20
2.94078744385729
30
0
41
1
10
2.34873509852804
20
3.05921194353996
30
0
41
1
10
2.29398775758747
20
3.11872337011781
30
0
41
1
10
2.23188931011407
20
3.19358527970749
30
0
41
1
10
2.2197645000459
20
3.2086135964058
30
0
41
1
10
2.19635140579752
20
3.23852625384919
30
0
41
1
10
2.16247953934422
20
3.28318182561969
30
0
41
1
10
2.13247896567719
20
3.32717553061587
30
0
41
1
10
2.07804880496948
20
3.41421337464072
30
0
41
1
10
2.0491507069672
20
3.47097793184992
30
0
41
1
10
2.01909839050603
20
3.5538860853587
30
0
41
1
10
2.01146349571263
20
3.58073232795485
30
0
41
1
10
2.00103143150747
20
3.63269252071552
30
0
41
1
10
1.99541832771496
20
3.68297140237979
30
0
41
1
10
1.99952889625436
20
3.72987865227708
30
0
41
1
10
2.00631003924926
20
3.76378593291758
30
0
41
1
10
2.00918700260803
20
3.77487611019194
30
0
41
1
10
2.01618536373348
20
3.79662980402765
30
0
41
1
10
2.02032044604442
20
3.80731745397594
30
0
41
1
10
2.04386895377689
20
3.85914661128356
30
0
41
1
10
2.07192086293884
20
3.89582890144132
30
0
41
1
10
2.12596397525488
20
3.94473491397449
30
0
41
1
10
2.14598006877475
20
3.9600133758542
30
0
41
1
10
2.17883079626222
20
3.98149805344525
30
0
41
1
10
2.19024297900248
20
3.98841195905283
30
0
41
1
10
2.21378096175323
20
4.00167551710209
30
0
41
1
10
2.22592860850804
20
4.00803988841426
30
0
41
1
10
2.28844774766793
20
4.03860940013436
30
0
41
1
10
2.34412425818917
20
4.05908550619378
30
0
41
1
10
2.4646152355505
20
4.09373286854159
30
0
41
1
10
2.5294426574421
20
4.10789442752292
30
0
41
1
10
2.61528375243051
20
4.12234740895414
30
0
41
1
10
2.6327123749783
20
4.12507705752694
30
0
41
1
10
2.66788140464843
20
4.13020259907194
30
0
41
1
10
2.72113971562194
20
4.13739735967124
30
0
41
1
10
2.77582477207002
20
4.14320513375031
30
0
41
1
10
2.88690373120917
20
4.15317872000196
30
0
41
1
10
2.96322675158711
20
4.15764706803037
30
0
41
1
10
3.11963864744689
20
4.16305559111041
30
0
41
1
10
3.19973107210839
20
4.16399200108467
30
0
41
1
10
3.36313644834758
20
4.16292632566814
30
0
41
1
10
3.44645138258341
20
4.1609221367577
30
0
41
1
10
3.57353406564471
20
4.15604402278072
30
0
41
1
10
3.61624759081721
20
4.15410503989278
30
0
41
1
10
3.70233794252624
20
4.14964709049662
30
0
41
1
10
3.74573569015621
20
4.14712655370573
30
0
41
1
10
3.87658077416049
20
4.13877551792683
30
0
41
1
10
3.96475138827617
20
4.13215512078483
30
0
41
1
10
4.14275806700633
20
4.11711349759324
30
0
41
1
10
4.23260636519575
20
4.10869042269732
30
0
41
1
10
4.32883705245786
20
4.09891449533845
30
0
41
1
10
4.33450033879328
20
4.09833639842722
30
0
41
1
10
4.3429992508002
20
4.09746474810808
30
0
41
1
10
4.3458311453881
20
4.09717290390884
30
0
41
1
10
4.35150453184653
20
4.09659029997962
30
0
41
1
10
4.35434802998731
20
4.09629951628503
30
0
41
1
10
4.36312323444929
20
4.09551138584547
30
0
41
1
10
4.3691716322829
20
4.09506749454707
30
0
41
1
10
4.38153965330579
20
4.09439440608122
30
0
41
1
10
4.38786342160375
20
4.09414935231638
30
0
41
1
10
4.40075827368821
20
4.09382364026359
30
0
41
1
10
4.40725453793996
20
4.09374526539156
30
0
41
1
10
4.42014926476929
20
4.09371789427871
30
0
41
1
10
4.42657962068128
20
4.09376663577976
30
0
41
1
10
4.44581875778053
20
4.09410293386614
30
0
41
1
10
4.45861004192997
20
4.09461592719168
30
0
41
1
10
4.47741316954802
20
4.09557432995101
30
0
41
1
10
4.48365599524286
20
4.09591000035533
30
0
41
1
10
4.49615693718843
20
4.09656823019284
30
0
41
1
10
4.51490502345629
20
4.0975541800421
30
0
41
1
10
4.5586280902877
20
4.09984420048804
30
0
41
1
10
4.79573303198185
20
4.11215460023686
30
0
41
1
10
5.01888888078551
20
4.1230471709089
30
0
41
1
10
5.31455742366771
20
4.13585492728276
30
0
41
1
10
5.41281334264565
20
4.13983827907811
30
0
41
1
10
5.60874767361784
20
4.14709685954816
30
0
41
1
10
5.70644507412777
20
4.15037237794462
30
0
41
1
10
5.99839123132486
20
4.15892023059308
30
0
41
1
10
6.19158410845839
20
4.16291650396113
30
0
41
1
10
6.76731102881647
20
4.16821273837166
30
0
41
1
10
7.14593192102475
20
4.16276256254397
30
0
41
1
10
7.52096981869445
20
4.14455117044881
30
0
0
SPLINE
5
EA
100
AcDbEntity
8
1
62
256
6
ByLayer
370
18
48
1
60
0
100
AcDbSpline
70
4
71
3
72
53
73
49
40
0
40
0
40
0
40
0
40
0.0624999999999973
40
0.0624999999999973
40
0.124999999999995
40
0.124999999999995
40
0.156249999999993
40
0.156249999999993
40
0.187499999999992
40
0.187499999999992
40
0.249999999999988
40
0.249999999999988
40
0.312499999999984
40
0.312499999999984
40
0.343749999999983
40
0.343749999999983
40
0.374999999999981
40
0.374999999999981
40
0.437499999999979
40
0.437499999999979
40
0.468749999999978
40
0.468749999999978
40
0.484374999999978
40
0.484374999999978
40
0.499999999999978
40
0.499999999999978
40
0.562499999999982
40
0.562499999999982
40
0.624999999999985
40
0.624999999999985
40
0.687499999999989
40
0.687499999999989
40
0.718749999999991
40
0.718749999999991
40
0.749999999999992
40
0.749999999999992
40
0.812499999999995
40
0.812499999999995
40
0.874999999999997
40
0.874999999999997
40
0.906249999999998
40
0.906249999999998
40
0.937499999999999
40
0.937499999999999
40
0.953124999999999
40
0.953124999999999
40
0.968749999999999
40
1
40
1
40
1
40
1
41
1
10
7.52095979420241
20
4.1445515271185
30
0
41
1
10
7.80413000653476
20
4.13083139482933
30
0
41
1
10
8.08637259195302
20
4.11051233387735
30
0
41
1
10
8.64941349421159
20
4.0570129818999
30
0
41
1
10
8.9302153023863
20
4.02382821669286
30
0
41
1
10
9.35077878533238
20
3.96473243966071
30
0
41
1
10
9.49086895394436
20
3.94348846946042
30
0
41
1
10
9.77084141860999
20
3.89790940104709
30
0
41
1
10
9.91072756306571
20
3.87357480279005
30
0
41
1
10
10.3302881758094
20
3.79610205092104
30
0
41
1
10
10.6099088816471
20
3.73854442902373
30
0
41
1
10
11.1691476449756
20
3.61181480510208
30
0
41
1
10
11.4487896398158
20
3.542655337127
30
0
41
1
10
11.8686959816333
20
3.43063066883721
30
0
41
1
10
12.0087280941305
20
3.39189665937667
30
0
41
1
10
12.2889601064025
20
3.31167492382051
30
0
41
1
10
12.429169686617
20
3.27019801200544
30
0
41
1
10
12.8502904431601
20
3.14193531479975
30
0
41
1
10
13.1316470189671
20
3.05126559876814
30
0
41
1
10
13.5547838142978
20
2.90767537738009
30
0
41
1
10
13.6960210082065
20
2.85855825476906
30
0
41
1
10
13.908216260281
20
2.78306356115084
30
0
41
1
10
13.9790120257205
20
2.75759263899118
30
0
41
1
10
14.120414408954
20
2.70617257897155
30
0
41
1
10
14.1910603459621
20
2.6802107843782
30
0
41
1
10
14.5440094206802
20
2.54913867375271
30
0
41
1
10
14.8254308904265
20
2.44016298499639
30
0
41
1
10
15.387357511565
20
2.21575258301331
30
0
41
1
10
15.667749517439
20
2.10012029011054
30
0
41
1
10
16.2277926144921
20
1.8627853254988
30
0
41
1
10
16.5074867863953
20
1.74116447289975
30
0
41
1
10
16.9267952010943
20
1.55480703691518
30
0
41
1
10
17.0665201915415
20
1.49202162699547
30
0
41
1
10
17.34601657778
20
1.36538568860078
30
0
41
1
10
17.4858017644838
20
1.30156341580903
30
0
41
1
10
17.9052847753284
20
1.10862100583023
30
0
41
1
10
18.1850749229564
20
0.977952566309369
30
0
41
1
10
18.7453987586306
20
0.71348047778622
30
0
41
1
10
19.0259639887414
20
0.579745167354616
30
0
41
1
10
19.4476617027183
20
0.377367640851361
30
0
41
1
10
19.5883784828458
20
0.309631846400208
30
0
41
1
10
19.8702545302262
20
0.173909954560969
30
0
41
1
10
20.0114103119985
20
0.105917122044332
30
0
41
1
10
20.2234644013963
20
0.0037094483410556
30
0
41
1
10
20.294242660684
20
-0.0304116842198425
30
0
41
1
10
20.4357098206998
20
-0.0986060117566012
30
0
41
1
10
20.6477231410557
20
-0.200799550611748
30
0
41
1
10
20.859209194228
20
-0.302626230871169
30
0
41
1
10
20.999999999987
20
-0.370275915937839
30
0
0
SPLINE
5
EB
100
AcDbEntity
8
1
62
256
6
ByLayer
370
18
48
1
60
0
100
AcDbSpline
70
4
71
3
72
37
73
33
40
0
40
0
40
0
40
0
40
0.0479179636332982
40
0.0479179636332982
40
0.0958359272665965
40
0.0958359272665965
40
0.191671854533193
40
0.191671854533193
40
0.287507781799789
40
0.287507781799789
40
0.335425745433088
40
0.335425745433088
40
0.359384727249738
40
0.359384727249738
40
0.383343709066388
40
0.383343709066388
40
0.575015563599587
40
0.575015563599587
40
0.622933527232887
40
0.622933527232887
40
0.670851490866187
40
0.670851490866187
40
0.766687418132787
40
0.766687418132787
40
0.862523345399387
40
0.862523345399387
40
0.886482327216038
40
0.886482327216038
40
0.91044130903269
40
0.958359272665995
40
0.958359272665995
40
1
40
1
40
1
40
1
41
1
10
21
20
-0.193571665362669
30
0
41
1
10
21.2115608168194
20
-0.295293461787367
30
0
41
1
10
21.4230940128042
20
-0.396842223698428
30
0
41
1
10
21.8463028328121
20
-0.599183331420392
30
0
41
1
10
22.0576280361137
20
-0.699807489289157
30
0
41
1
10
22.6906931339769
20
-0.999230954231365
30
0
41
1
10
23.1116847199329
20
-1.19566433958599
30
0
41
1
10
23.953300767557
20
-1.57869837249171
30
0
41
1
10
24.3739274023981
20
-1.76529331934347
30
0
41
1
10
25.0059552192183
20
-2.03516396806367
30
0
41
1
10
25.2168162906447
20
-2.12344464458138
30
0
41
1
10
25.5335307213667
20
-2.25307433260002
30
0
41
1
10
25.639172251822
20
-2.2958197631626
30
0
41
1
10
25.8506193596814
20
-2.38033584463798
30
0
41
1
10
25.9564411142265
20
-2.42211218236898
30
0
41
1
10
26.9078150901738
20
-2.7927786478206
30
0
41
1
10
27.7494551661144
20
-3.085700132531
30
0
41
1
10
28.8048839067174
20
-3.39367238911672
30
0
41
1
10
29.016180620178
20
-3.45237045910184
30
0
41
1
10
29.4391783836738
20
-3.56359199468335
30
0
41
1
10
29.6504053535503
20
-3.61599120370849
30
0
41
1
10
30.2836281615381
20
-3.7632447134786
30
0
41
1
10
30.705166312568
20
-3.84816057642647
30
0
41
1
10
31.5485370668413
20
-3.99029750358704
30
0
41
1
10
31.9703746381898
20
-4.04750832528174
30
0
41
1
10
32.4989016197995
20
-4.10091552426766
30
0
41
1
10
32.6046918062115
20
-4.11069328000093
30
0
41
1
10
32.8160568035302
20
-4.12839295034698
30
0
41
1
10
33.1329082572107
20
-4.15217305169853
30
0
41
1
10
33.4492896037607
20
-4.1676243704708
30
0
41
1
10
33.843317969762
20
-4.17993347601879
30
0
41
1
10
34.0264489834996
20
-4.18284878448205
30
0
41
1
10
34.2095828837818
20
-4.18295742444602
30
0
0
SPLINE
5
EC
100
AcDbEntity
8
1
62
256
6
ByLayer
370
18
48
1
60
0
100
AcDbSpline
70
4
71
3
72
22
73
18
40
0
40
0
40
0
40
0
40
0.0587348810760164
40
0.0587348810760164
40
0.105798137022216
40
0.105798137022216
40
0.152861392968416
40
0.152861392968416
40
0.246987904860817
40
0.246987904860817
40
0.435240928645613
40
0.435240928645613
40
0.623493952430408
40
0.623493952430408
40
0.811746976215205
40
0.811746976215205
40
1
40
1
40
1
40
1
41
1
10
54.7824905152176
20
3.0195978353342
30
0
41
1
10
54.9140106134657
20
3.06388075072505
30
0
41
1
10
55.0455710176927
20
3.10714022749781
30
0
41
1
10
55.2826686286016
20
3.18314540534033
30
0
41
1
10
55.3881822148816
20
3.2162721128654
30
0
41
1
10
55.5993218905204
20
3.28111873146
30
0
41
1
10
55.7049818739432
20
3.31284853968475
30
0
41
1
10
56.021949671907
20
3.40580153152288
30
0
41
1
10
56.2327658879112
20
3.46464922872218
30
0
41
1
10
56.8640647646917
20
3.63153803949706
30
0
41
1
10
57.2834151657846
20
3.72989950838039
30
0
41
1
10
58.1207859156034
20
3.89957523656088
30
0
41
1
10
58.5387646444894
20
3.97093202362444
30
0
41
1
10
59.3748656095864
20
4.08560583281397
30
0
41
1
10
59.7929917739685
20
4.12891158621667
30
0
41
1
10
60.6311432050194
20
4.18643742453409
30
0
41
1
10
61.0511926103661
20
4.20065917337715
30
0
41
1
10
61.4730116826652
20
4.19995270038996
30
0
0
SPLINE
5
ED
100
AcDbEntity
8
1
62
256
6
ByLayer
370
18
48
1
60
0
100
AcDbSpline
70
4
71
3
72
16
73
12
40
0
40
0
40
0
40
0
40
0.384541469058082
40
0.384541469058082
40
0.576812203587125
40
0.576812203587125
40
0.769082938116167
40
0.769082938116167
40
0.961353672645209
40
0.961353672645209
40
1
40
1
40
1
40
1
41
1
10
3.75036848370132
20
-3.37845408510941
30
0
41
1
10
4.35715888693656
20
-3.52308857163158
30
0
41
1
10
4.95995377251901
20
-3.64133239985796
30
0
41
1
10
5.86138992995762
20
-3.77791470736349
30
0
41
1
10
6.16141864068183
20
-3.81665885451795
30
0
41
1
10
6.76121963041729
20
-3.88043674964843
30
0
41
1
10
7.06098298600733
20
-3.9053829669104
30
0
41
1
10
7.66072630970183
20
-3.94112536325824
30
0
41
1
10
7.96070952711776
20
-3.9519489907409
30
0
41
1
10
8.32147215063253
20
-3.9563716006538
30
0
41
1
10
8.38186554606199
20
-3.9568233340332
30
0
41
1
10
8.44227704046315
20
-3.95698591037356
30
0
0
SPLINE
5
EE
100
AcDbEntity
8
1
62
256
6
ByLayer
370
13
48
1
60
0
100
AcDbSpline
70
4
71
3
72
38
73
34
40
0
40
0
40
0
40
0
40
0.0102752082745685
40
0.0102752082745685
40
0.0806531398624116
40
0.0806531398624116
40
0.0982476227593709
40
0.0982476227593709
40
0.115842105656331
40
0.115842105656331
40
0.15103107145025
40
0.15103107145025
40
0.291786934625927
40
0.291786934625927
40
0.362164866213765
40
0.362164866213765
40
0.432542797801603
40
0.432542797801603
40
0.573298660977278
40
0.573298660977278
40
0.714054524152954
40
0.714054524152954
40
0.731649007049913
40
0.731649007049913
40
0.749243489946873
40
0.749243489946873
40
0.784432455740792
40
0.784432455740792
40
0.854810387328627
40
0.854810387328627
40
0.995566250504294
40
0.995566250504294
40
1
40
1
40
1
40
1
41
1
10
45.1723643961025
20
1.81806577636817
30
0
41
1
10
45.2162504250052
20
1.80013319981774
30
0
41
1
10
45.2601530310809
20
1.7821236690925
30
0
41
1
10
45.604894267001
20
1.64016978772642
30
0
41
1
10
45.9065530098539
20
1.51274666043534
30
0
41
1
10
46.2850054449279
20
1.34965145447117
30
0
41
1
10
46.3607648908825
20
1.31684246688226
30
0
41
1
10
46.5124302767131
20
1.25086236454783
30
0
41
1
10
46.5883663645089
20
1.21767785631468
30
0
41
1
10
46.8158224086263
20
1.11786545652242
30
0
41
1
10
46.9671648871223
20
1.05090230021187
30
0
41
1
10
47.7225865837174
20
0.714400899619619
30
0
41
1
10
48.3228036750008
20
0.439849033878033
30
0
41
1
10
49.2202013169835
20
0.0273476580433396
30
0
41
1
10
49.5188646724494
20
-0.110218625253566
30
0
41
1
10
50.1158009811528
20
-0.38425414139931
30
0
41
1
10
50.4140879221811
20
-0.520696564443483
30
0
41
1
10
51.3090909803831
20
-0.926763371754419
30
0
41
1
10
51.9059638276698
20
-1.19309771897053
30
0
41
1
10
53.104480170547
20
-1.70729285866446
30
0
41
1
10
53.7061829331655
20
-1.95503270870518
30
0
41
1
10
54.3883618656492
20
-2.21771351764795
30
0
41
1
10
54.4642813781805
20
-2.24669653003761
30
0
41
1
10
54.6159231160798
20
-2.30406615198407
30
0
41
1
10
54.691666625049
20
-2.33246131350563
30
0
41
1
10
54.9186799663957
20
-2.41675838024278
30
0
41
1
10
55.0697334050489
20
-2.47177211918358
30
0
41
1
10
55.5221336109148
20
-2.63310266651709
30
0
41
1
10
55.822718002325
20
-2.73570234147894
30
0
41
1
10
56.7221937237698
20
-3.02747625541113
30
0
41
1
10
57.3187722208924
20
-3.20072467936964
30
0
41
1
10
57.9333188936252
20
-3.35458529571815
30
0
41
1
10
57.9520851170506
20
-3.35926009938007
30
0
41
1
10
57.9708507985524
20
-3.36391109106572
30
0
0
SPLINE
5
EF
100
AcDbEntity
8
1
62
256
6
ByLayer
370
18
48
1
60
0
100
AcDbSpline
70
4
71
3
72
18
73
14
40
0
40
0
40
0
40
0
40
0.237998431091696
40
0.237998431091696
40
0.49199895406113
40
0.49199895406113
40
0.745999477030565
40
0.745999477030565
40
0.872999738515278
40
0.936499869257639
40
0.968249934628819
40
0.968249934628819
40
1
40
1
40
1
40
1
41
1
10
57.9708517701911
20
-3.36391133188209
30
0
41
1
10
58.24995776885
20
-3.43308651483181
30
0
41
1
10
58.5289438874029
20
-3.49699419074915
30
0
41
1
10
59.105735814031
20
-3.61771346716333
30
0
41
1
10
59.4035562671683
20
-3.67376377004808
30
0
41
1
10
59.9998964654654
20
-3.77274844998263
30
0
41
1
10
60.2984110980974
20
-3.81567988535608
30
0
41
1
10
60.7470634208279
20
-3.86980747720131
30
0
41
1
10
60.9716097523733
20
-3.89430583553491
30
0
41
1
10
61.234048146501
20
-3.91832208629873
30
0
41
1
10
61.3466306680446
20
-3.92762833532734
30
0
41
1
10
61.421710852599
20
-3.93361238483959
30
0
41
1
10
61.4592559285215
20
-3.93646650833631
30
0
41
1
10
61.4968479868807
20
-3.93927288522488
30
0
0
SPLINE
5
F0
100
AcDbEntity
8
1
62
256
6
ByLayer
370
18
48
1
60
0
100
AcDbSpline
70
4
71
3
72
26
73
22
40
0
40
0
40
0
40
0
40
0.125000000000035
40
0.125000000000035
40
0.25000000000007
40
0.25000000000007
40
0.375000000000105
40
0.375000000000105
40
0.437500000000107
40
0.437500000000107
40
0.50000000000011
40
0.50000000000011
40
0.625000000000129
40
0.625000000000129
40
0.687500000000131
40
0.687500000000131
40
0.750000000000134
40
0.750000000000134
40
0.875000000000067
40
0.875000000000067
40
1
40
1
40
1
40
1
41
1
10
61.4968479868799
20
-3.93927288522485
30
0
41
1
10
61.4972540760608
20
-3.94034978844161
30
0
41
1
10
61.4974877609902
20
-3.94193312474133
30
0
41
1
10
61.4975862829631
20
-3.94616757872913
30
0
41
1
10
61.4974482780271
20
-3.94884707550082
30
0
41
1
10
61.4967523661823
20
-3.95531547748504
30
0
41
1
10
61.49620321328
20
-3.95904695321329
30
0
41
1
10
61.4950566909371
20
-3.96543912720662
30
0
41
1
10
61.4946203912511
20
-3.96770320157521
30
0
41
1
10
61.4936310543504
20
-3.97251922624852
30
0
41
1
10
61.4930761494111
20
-3.97507719860533
30
0
41
1
10
61.4912796514303
20
-3.98296934284178
30
0
41
1
10
61.4898938287062
20
-3.98858944077733
30
0
41
1
10
61.48752667976
20
-3.99757706329035
30
0
41
1
10
61.4866830949044
20
-4.00068785293655
30
0
41
1
10
61.4849416178337
20
-4.00693986543797
30
0
41
1
10
61.4840409130678
20
-4.01009298162529
30
0
41
1
10
61.4812535452993
20
-4.01963109371763
30
0
41
1
10
61.4792578161732
20
-4.02617008928417
30
0
41
1
10
61.4751853912683
20
-4.03902551858366
30
0
41
1
10
61.4731133235705
20
-4.04533471251966
30
0
41
1
10
61.4710113770779
20
-4.05153471399848
30
0
0
SPLINE
5
F1
100
AcDbEntity
8
1
62
256
6
ByLayer
370
18
48
1
60
0
100
AcDbSpline
70
4
71
3
72
8
73
4
40
0
40
0
40
0
40
0
40
1
40
1
40
1
40
1
41
1
10
61.4710113770778
20
-4.05153471399851
30
0
41
1
10
61.4588652358449
20
-4.08736155063477
30
0
41
1
10
61.4468208993148
20
-4.12318933220905
30
0
41
1
10
61.4348814498045
20
-4.15902057813179
30
0
0
SPLINE
5
F2
100
AcDbEntity
8
1
62
256
6
ByLayer
370
13
48
1
60
0
100
AcDbSpline
70
4
71
3
72
26
73
22
40
0
40
0
40
0
40
0
40
0.0162908897163799
40
0.0162908897163799
40
0.0325817794327598
40
0.0325817794327598
40
0.0651635588655196
40
0.130327117731043
40
0.130327117731043
40
0.260654235462095
40
0.260654235462095
40
0.390981353193147
40
0.390981353193147
40
0.521308470924199
40
0.521308470924199
40
0.781962706386298
40
0.781962706386298
40
0.912289824117348
40
0.912289824117348
40
0.977453382982873
40
1
40
1
40
1
40
1
41
1
10
61.4710113770778
20
-4.05153471399848
30
0
41
1
10
61.4330877476458
20
-4.04901344240147
30
0
41
1
10
61.3951628369933
20
-4.0464957914663
30
0
41
1
10
61.3193104287674
20
-4.04115028582748
30
0
41
1
10
61.2813768564732
20
-4.0383601410623
30
0
41
1
10
61.167617741031
20
-4.02964324784088
30
0
41
1
10
60.9402980282565
20
-4.01082661438886
30
0
41
1
10
60.7135349946099
20
-3.98790128477464
30
0
41
1
10
60.2606463453373
20
-3.93667720794215
30
0
41
1
10
59.9595701656704
20
-3.89535872089732
30
0
41
1
10
59.3585959862961
20
-3.79901848499858
30
0
41
1
10
59.0587028317977
20
-3.74399854960535
30
0
41
1
10
58.4594519940769
20
-3.620912747897
30
0
41
1
10
58.1600909713382
20
-3.55283827647099
30
0
41
1
10
57.2622171639823
20
-3.32989789873656
30
0
41
1
10
56.6636503203512
20
-3.1562810128018
30
0
41
1
10
55.7622625748436
20
-2.86278385751444
30
0
41
1
10
55.461212686581
20
-2.75942156867828
30
0
41
1
10
55.008360833472
20
-2.59666822994223
30
0
41
1
10
54.8048960771136
20
-2.52191732719413
30
0
41
1
10
54.6009786534484
20
-2.44493807485918
30
0
41
1
10
54.5485282371851
20
-2.42500499123395
30
0
0
SPLINE
5
F3
100
AcDbEntity
8
1
62
256
6
ByLayer
370
18
48
1
60
0
100
AcDbSpline
70
4
71
3
72
20
73
16
40
0
40
0
40
0
40
0
40
0.0123933701862386
40
0.0123933701862386
40
0.0526315825565434
40
0.0526315825565434
40
0.213584432037762
40
0.213584432037762
40
0.374537281518979
40
0.374537281518979
40
0.696442980481415
40
0.696442980481415
40
0.857395829962633
40
0.857395829962633
40
1
40
1
40
1
40
1
41
1
10
54.5485284205785
20
-2.42500506093015
30
0
41
1
10
54.5251834627462
20
-2.41613312010256
30
0
41
1
10
54.5018322098017
20
-2.40723246677484
30
0
41
1
10
54.4026377730086
20
-2.36931251977214
30
0
41
1
10
54.3267347878219
20
-2.34002136698439
30
0
41
1
10
53.9478445701668
20
-2.1924882827204
30
0
41
1
10
53.6459333512489
20
-2.07072435314362
30
0
41
1
10
53.0439707754725
20
-1.82087332466801
30
0
41
1
10
52.7439307063842
20
-1.69276412304996
30
0
41
1
10
51.8456639444366
20
-1.30093631423461
30
0
41
1
10
51.2492464854856
20
-1.02979741153908
30
0
41
1
10
50.3549036518699
20
-0.615511340491139
30
0
41
1
10
50.0568348571361
20
-0.476156167201225
30
0
41
1
10
49.4943292117416
20
-0.211898242336787
30
0
41
1
10
49.2299270513872
20
-0.087166460862619
30
0
41
1
10
48.9651562726833
20
0.0376795529406593
30
0
0
SPLINE
5
F4
100
AcDbEntity
8
1
62
256
6
ByLayer
370
13
48
1
60
0
100
AcDbSpline
70
4
71
3
72
18
73
14
40
0
40
0
40
0
40
0
40
0.0014266094277629
40
0.0014266094277629
40
0.144079950938083
40
0.144079950938083
40
0.429386633958722
40
0.429386633958722
40
0.572039975469041
40
0.572039975469041
40
0.714693316979361
40
0.714693316979361
40
1
40
1
40
1
40
1
41
1
10
10.0353178332107
20
-3.97046770091973
30
0
41
1
10
10.0322873295872
20
-3.97075736143702
30
0
41
1
10
10.0292569261581
20
-3.97104628476924
30
0
41
1
10
9.72321241889011
20
-4.0001515559658
30
0
41
1
10
9.42119616266839
20
-4.02160371702331
30
0
41
1
10
8.51715810193787
20
-4.06381319649984
30
0
41
1
10
7.91716876605122
20
-4.06237702091229
30
0
41
1
10
7.01792360350379
20
-4.01678413932487
30
0
41
1
10
6.71828553101201
20
-3.99432445814367
30
0
41
1
10
6.11869341199363
20
-3.93508833725144
30
0
41
1
10
5.81875877548012
20
-3.89838773491516
30
0
41
1
10
4.91752135630387
20
-3.76731449165072
30
0
41
1
10
4.31475341072343
20
-3.65193049656949
30
0
41
1
10
3.70783218443589
20
-3.50919475902643
30
0
0
SPLINE
5
F5
100
AcDbEntity
8
1
62
256
6
ByLayer
370
13
48
1
60
0
100
AcDbSpline
70
4
71
3
72
10
73
6
40
0
40
0
40
0
40
0
40
0.5
40
0.5
40
1
40
1
40
1
40
1
41
1
10
3.70783218443589
20
-3.50919475902643
30
0
41
1
10
3.69677003513217
20
-3.50659316268857
30
0
41
1
10
3.68588819619183
20
-3.50507290817768
30
0
41
1
10
3.66448357110951
20
-3.50411306308379
30
0
41
1
10
3.65389011921434
20
-3.50468829259182
30
0
41
1
10
3.64370886435501
20
-3.50637559731871
30
0
0
SPLINE
5
F6
100
AcDbEntity
8
1
62
256
6
ByLayer
370
13
48
1
60
0
100
AcDbSpline
70
4
71
3
72
8
73
4
40
0
40
0
40
0
40
0
40
1
40
1
40
1
40
1
41
1
10
3.64161801593244
20
-3.58908263413201
30
0
41
1
10
3.64231039368397
20
-3.56151648043655
30
0
41
1
10
3.6430073465763
20
-3.53394749570424
30
0
41
1
10
3.64370886435498
20
-3.50637559731871
30
0
0
SPLINE
5
F7
100
AcDbEntity
8
1
62
256
6
ByLayer
370
18
48
1
60
0
100
AcDbSpline
70
4
71
3
72
72
73
68
40
0
40
0
40
0
40
0
40
0.0347717238960696
40
0.0347717238960696
40
0.0695434477921393
40
0.0695434477921393
40
0.104315171688209
40
0.104315171688209
40
0.139086895584279
40
0.139086895584279
40
0.173858619480348
40
0.173858619480348
40
0.191244481428384
40
0.191244481428384
40
0.199937412402401
40
0.199937412402401
40
0.208630343376418
40
0.243402067272489
40
0.243402067272489
40
0.278173791168559
40
0.278173791168559
40
0.31294551506463
40
0.31294551506463
40
0.330331377012666
40
0.330331377012666
40
0.347717238960702
40
0.347717238960702
40
0.417260686752845
40
0.417260686752845
40
0.434646548700881
40
0.434646548700881
40
0.452032410648916
40
0.452032410648916
40
0.486804134544986
40
0.486804134544986
40
0.556347582337125
40
0.556347582337125
40
0.573733444285159
40
0.573733444285159
40
0.582426375259176
40
0.582426375259176
40
0.591119306233192
40
0.625891030129255
40
0.625891030129255
40
0.69543447792138
40
0.69543447792138
40
0.712820339869411
40
0.712820339869411
40
0.730206201817442
40
0.730206201817442
40
0.764977925713507
40
0.764977925713507
40
0.799749649609571
40
0.799749649609571
40
0.834521373505635
40
0.834521373505635
40
0.8692930974017
40
0.8692930974017
40
0.904064821297764
40
0.904064821297764
40
0.938836545193828
40
0.938836545193828
40
0.956222407141861
40
0.956222407141861
40
0.973608269089894
40
0.973608269089894
40
1
40
1
40
1
40
1
41
1
10
61.4348814498053
20
-4.15902057810831
30
0
41
1
10
61.13292045046
20
-4.13838811963589
30
0
41
1
10
60.8311285244167
20
-4.11017847327184
30
0
41
1
10
60.2273260965252
20
-4.03891965081539
30
0
41
1
10
59.9252825075853
20
-3.995865166361
30
0
41
1
10
59.320573435849
20
-3.89521730190151
30
0
41
1
10
59.0187964446464
20
-3.83776641936348
30
0
41
1
10
58.415697995688
20
-3.7093002010746
30
0
41
1
10
58.1143855680777
20
-3.63828335172207
30
0
41
1
10
57.5117554056774
20
-3.48316858698925
30
0
41
1
10
57.2103813122653
20
-3.39912727801251
30
0
41
1
10
56.757742889724
20
-3.26388767223111
30
0
41
1
10
56.6067666659885
20
-3.21727938003227
30
0
41
1
10
56.3800988748381
20
-3.14514283052298
30
0
41
1
10
56.3044861535207
20
-3.12071895427326
30
0
41
1
10
56.1533434882597
20
-3.07119411291791
30
0
41
1
10
55.7756518751065
20
-2.94567610032027
30
0
41
1
10
55.3986579207165
20
-2.8118335896385
30
0
41
1
10
54.7957892476579
20
-2.58795900176136
30
0
41
1
10
54.4945199329021
20
-2.47114943844986
30
0
41
1
10
53.8916367378794
20
-2.22889996742347
30
0
41
1
10
53.59001464011
20
-2.10347693020091
30
0
41
1
10
53.1368960063223
20
-1.90959290999612
30
0
41
1
10
52.9856507935043
20
-1.84396138130009
30
0
41
1
10
52.6834714460068
20
-1.71120190731995
30
0
41
1
10
52.5325106097708
20
-1.64406576022853
30
0
41
1
10
51.7781178161087
20
-1.30506309756623
30
0
41
1
10
51.1758908383099
20
-1.0232853972837
30
0
41
1
10
50.4217182961522
20
-0.663881147442339
30
0
41
1
10
50.2708126868815
20
-0.591644895621158
30
0
41
1
10
49.9687998074393
20
-0.446580984096897
30
0
41
1
10
49.817661639765
20
-0.373731850360684
30
0
41
1
10
49.3640388338316
20
-0.15463520856602
30
0
41
1
10
49.062221573289
20
-0.0082242705153988
30
0
41
1
10
48.1574559302902
20
0.429744502000716
30
0
41
1
10
47.5551784300792
20
0.720007947037942
30
0
41
1
10
46.8004852405962
20
1.07457132758199
30
0
41
1
10
46.6494492649749
20
1.14506057062599
30
0
41
1
10
46.4226934735705
20
1.2500447709337
30
0
41
1
10
46.3470564116047
20
1.28492295386437
30
0
41
1
10
46.1958836742053
20
1.35432956939641
30
0
41
1
10
45.8181176147022
20
1.52701221376103
30
0
41
1
10
45.4410711978627
20
1.69531759911018
30
0
41
1
10
44.536555397017
20
2.08901264947681
30
0
41
1
10
43.934094053036
20
2.33785837964322
30
0
41
1
10
43.1785870244442
20
2.62627076080307
30
0
41
1
10
43.0272339018507
20
2.68286726133195
30
0
41
1
10
42.7251971580105
20
2.79330171401219
30
0
41
1
10
42.5744431570974
20
2.84716867789075
30
0
41
1
10
42.1228603003152
20
3.00458205192612
30
0
41
1
10
41.822705732866
20
3.10393264924056
30
0
41
1
10
41.2236092590075
20
3.29077305865934
30
0
41
1
10
40.9246767041766
20
3.37827312642295
30
0
41
1
10
40.327377883814
20
3.5406922678001
30
0
41
1
10
40.0290033199591
20
3.61560578113699
30
0
41
1
10
39.4322783998266
20
3.75231349792975
30
0
41
1
10
39.1339386367216
20
3.81411437833253
30
0
41
1
10
38.5366551351846
20
3.92397817477652
30
0
41
1
10
38.2377041206207
20
3.97203838810961
30
0
41
1
10
37.6386297407903
20
4.05391133380078
30
0
41
1
10
37.3385151829995
20
4.08772652873469
30
0
41
1
10
36.8869888914095
20
4.12736347892164
30
0
41
1
10
36.7362539144675
20
4.13872860027169
30
0
41
1
10
36.4342541443826
20
4.15770465929231
30
0
41
1
10
36.2828765425049
20
4.16531745602356
30
0
41
1
10
35.9022773711886
20
4.17965110523159
30
0
41
1
10
35.6731166872008
20
4.18388347817043
30
0
41
1
10
35.4441069063769
20
4.18372723147328
30
0
0
SPLINE
5
F8
100
AcDbEntity
8
1
62
256
6
ByLayer
370
18
48
1
60
0
100
AcDbSpline
70
4
71
3
72
22
73
18
40
0
40
0
40
0
40
0
40
0.0090425475324157
40
0.0090425475324157
40
0.132912229090861
40
0.132912229090861
40
0.194847069870085
40
0.194847069870085
40
0.256781910649309
40
0.256781910649309
40
0.504521273766208
40
0.504521273766208
40
0.628390955324656
40
0.628390955324656
40
0.752260636883104
40
0.752260636883104
40
1
40
1
40
1
40
1
41
1
10
10.92367905936
20
-3.97049307610592
30
0
41
1
10
10.9017791545894
20
-3.97369028535698
30
0
41
1
10
10.8798756957957
20
-3.97684979769502
30
0
41
1
10
10.5578727445276
20
-4.02273413463104
30
0
41
1
10
10.2570913291192
20
-4.05840796496926
30
0
41
1
10
9.80448300863412
20
-4.10089609811672
30
0
41
1
10
9.65336188649314
20
-4.1132214476344
30
0
41
1
10
9.35059621751961
20
-4.13412199755786
30
0
41
1
10
9.19946367582637
20
-4.14266208214582
30
0
41
1
10
8.44484023271917
20
-4.17585228584338
30
0
41
1
10
7.84449285967688
20
-4.17196792907481
30
0
41
1
10
6.9454915830847
20
-4.12157185077407
30
0
41
1
10
6.64606439421581
20
-4.09735155796886
30
0
41
1
10
6.04712328912501
20
-4.0342945050011
30
0
41
1
10
5.74761516080105
20
-3.99545083529284
30
0
41
1
10
4.84795042923326
20
-3.85748414161543
30
0
41
1
10
4.24663345822924
20
-3.73697141604686
30
0
41
1
10
3.64161801593258
20
-3.58908263413292
30
0
0
SPLINE
5
F9
100
AcDbEntity
8
1
62
256
6
ByLayer
370
18
48
1
60
0
100
AcDbSpline
70
4
71
3
72
87
73
83
40
0
40
0
40
0
40
0
40
0.008232314897028
40
0.008232314897028
40
0.0383873118888023
40
0.0383873118888023
40
0.0534648103846888
40
0.0534648103846888
40
0.0685423088805753
40
0.0685423088805753
40
0.128852302864121
40
0.128852302864121
40
0.159007299855895
40
0.159007299855895
40
0.166546049103838
40
0.166546049103838
40
0.174084798351782
40
0.174084798351782
40
0.18916229684767
40
0.18916229684767
40
0.24947229083122
40
0.24947229083122
40
0.309782284814769
40
0.309782284814769
40
0.339937281806545
40
0.339937281806545
40
0.37009227879832
40
0.37009227879832
40
0.385169777294208
40
0.385169777294208
40
0.392708526542151
40
0.392708526542151
40
0.400247275790096
40
0.400247275790096
40
0.430402272781869
40
0.430402272781869
40
0.445479771277755
40
0.445479771277755
40
0.460557269773642
40
0.460557269773642
40
0.490712266765416
40
0.490712266765416
40
0.505789765261304
40
0.505789765261304
40
0.513328514509248
40
0.513328514509248
40
0.520867263757192
40
0.551022260748973
40
0.551022260748973
40
0.566099759244864
40
0.566099759244864
40
0.581177257740755
40
0.581177257740755
40
0.611332254732537
40
0.611332254732537
40
0.626409753228428
40
0.626409753228428
40
0.64148725172432
40
0.64148725172432
40
0.671642248716102
40
0.671642248716102
40
0.731952242699668
40
0.731952242699668
40
0.762107239691451
40
0.762107239691451
40
0.792262236683233
40
0.792262236683233
40
0.822417233675016
40
0.822417233675016
40
0.852572230666799
40
0.852572230666799
40
0.882727227658581
40
0.882727227658581
40
0.912882224650364
40
0.912882224650364
40
0.943037221642147
40
0.943037221642147
40
0.958114720138038
40
0.958114720138038
40
0.97319221863393
40
0.97319221863393
40
1
40
1
40
1
40
1
41
1
10
38.1833624835988
20
-3.97786023915674
30
0
41
1
10
38.1016705635984
20
-3.9900926194839
30
0
41
1
10
38.0199405906872
20
-4.00179920289327
30
0
41
1
10
37.6386297407903
20
-4.05391133380081
30
0
41
1
10
37.3385151829995
20
-4.08772652873469
30
0
41
1
10
36.8869888914095
20
-4.12736347892167
30
0
41
1
10
36.7362539144675
20
-4.13872860027169
30
0
41
1
10
36.4342541443826
20
-4.15770465929231
30
0
41
1
10
36.2828765425049
20
-4.16531745602356
30
0
41
1
10
35.527119519559
20
-4.193779830274
30
0
41
1
10
34.9245072521587
20
-4.18593734055617
30
0
41
1
10
34.0198414888124
20
-4.12880890248161
30
0
41
1
10
33.718145580372
20
-4.10221677834011
30
0
41
1
10
33.3404911182979
20
-4.0596295277191
30
0
41
1
10
33.2649334459569
20
-4.05064473451847
30
0
41
1
10
33.1137544716139
20
-4.03174334746373
30
0
41
1
10
33.0381073913308
20
-4.02182318690458
30
0
41
1
10
32.811234662091
20
-3.99069420874952
30
0
41
1
10
32.6602659017244
20
-3.9681438593606
30
0
41
1
10
31.9066004349914
20
-3.84664296952963
30
0
41
1
10
31.3075082257199
20
-3.72137359692059
30
0
41
1
10
30.1121173398583
20
-3.42055821239398
30
0
41
1
10
29.5158710179292
20
-3.24494519355378
30
0
41
1
10
28.6199573172547
20
-2.9486355834714
30
0
41
1
10
28.3211050073649
20
-2.84432834946421
30
0
41
1
10
27.7223633726711
20
-2.62547011683483
30
0
41
1
10
27.4224414186608
20
-2.5109712439704
30
0
41
1
10
26.9712454308411
20
-2.332357065661
30
0
41
1
10
26.8206278851566
20
-2.2716762628495
30
0
41
1
10
26.5943569400914
20
-2.17894857392022
30
0
41
1
10
26.5188758945275
20
-2.14775460229811
30
0
41
1
10
26.3677840077129
20
-2.08482125219351
30
0
41
1
10
26.2921435450325
20
-2.0530693479659
30
0
41
1
10
25.9139387102381
20
-1.89315853066728
30
0
41
1
10
25.6119266855857
20
-1.76178674570375
30
0
41
1
10
25.1592252540696
20
-1.5605682238006
30
0
41
1
10
25.0083778776026
20
-1.49280182584965
30
0
41
1
10
24.7067646880282
20
-1.35593100461293
30
0
41
1
10
24.5559982586371
20
-1.28682718432
30
0
41
1
10
24.1036211374576
20
-1.07790229607056
30
0
41
1
10
23.8019353868702
20
-0.936463682800451
30
0
41
1
10
23.3488299257012
20
-0.72192896645538
30
0
41
1
10
23.1976988244404
20
-0.650021063835027
30
0
41
1
10
22.9708315049579
20
-0.541615229694543
30
0
41
1
10
22.895156818472
20
-0.5053783485385
30
0
41
1
10
22.7438869673524
20
-0.432833187238799
30
0
41
1
10
22.3658839859093
20
-0.251280900073652
30
0
41
1
10
21.9885396693231
20
-0.069199394545592
30
0
41
1
10
21.5359363019493
20
0.14892729454462
30
0
41
1
10
21.3851040638636
20
0.221575587713033
30
0
41
1
10
21.083471039671
20
0.366668159817038
30
0
41
1
10
20.9326684005145
20
0.439108467591126
30
0
41
1
10
20.4801098209445
20
0.655711513795978
30
0
41
1
10
20.1782090404107
20
0.799168758460098
30
0
41
1
10
19.7246407981197
20
1.01205712050353
30
0
41
1
10
19.5732378633384
20
1.08268280560787
30
0
41
1
10
19.2707340017623
20
1.22280874433298
30
0
41
1
10
19.1196235966744
20
1.29230654121008
30
0
41
1
10
18.6665290651153
20
1.49873694573344
30
0
41
1
10
18.3647895067225
20
1.63362420227375
30
0
41
1
10
17.4597005714049
20
2.02851564383968
30
0
41
1
10
16.8566103470178
20
2.27899926249529
30
0
41
1
10
15.9484143514135
20
2.62800257329937
30
0
41
1
10
15.6467954897522
20
2.73926673197326
30
0
41
1
10
15.0452321898184
20
2.95096356808523
30
0
41
1
10
14.7452818972226
20
3.05138182161701
30
0
41
1
10
14.1463593734118
20
3.24050181804506
30
0
41
1
10
13.8473941042972
20
3.32921866909157
30
0
41
1
10
13.2499378769158
20
3.49437751735817
30
0
41
1
10
12.9514403495251
20
3.57080683465384
30
0
41
1
10
12.3542471198985
20
3.71064396681953
30
0
41
1
10
12.0555575149864
20
3.77406245445363
30
0
41
1
10
11.4574691390946
20
3.88734958193624
30
0
41
1
10
11.1580643643248
20
3.93720884860338
30
0
41
1
10
10.5578727445276
20
4.02273413463104
30
0
41
1
10
10.2570913291192
20
4.05840796496926
30
0
41
1
10
9.80448300863409
20
4.10089609811672
30
0
41
1
10
9.65336188649314
20
4.1132214476344
30
0
41
1
10
9.35059621751961
20
4.13412199755786
30
0
41
1
10
9.19946367582637
20
4.14266208214582
30
0
41
1
10
8.78019500054108
20
4.1611025544951
30
0
41
1
10
8.51251318011927
20
4.16689133584518
30
0
41
1
10
8.24528817576257
20
4.1667300070325
30
0
0
SPLINE
5
FA
100
AcDbEntity
8
1
62
256
6
ByLayer
370
13
48
1
60
0
100
AcDbSpline
70
4
71
3
72
44
73
40
40
0
40
0
40
0
40
0
40
0.015657781946792
40
0.015657781946792
40
0.085558524694846
40
0.085558524694846
40
0.155459267442901
40
0.155459267442901
40
0.225360010190955
40
0.225360010190955
40
0.29526075293901
40
0.29526075293901
40
0.365161495687064
40
0.365161495687064
40
0.400111867061091
40
0.400111867061091
40
0.435062238435117
40
0.435062238435117
40
0.470012609809144
40
0.470012609809144
40
0.504962981183171
40
0.504962981183171
40
0.539913352557198
40
0.539913352557198
40
0.574863723931225
40
0.574863723931225
40
0.644764466679278
40
0.644764466679278
40
0.714665209427331
40
0.714665209427331
40
0.784565952175383
40
0.784565952175383
40
0.854466694923436
40
0.854466694923436
40
0.924367437671489
40
0.924367437671489
40
0.994268180419542
40
0.994268180419542
40
1
40
1
40
1
40
1
41
1
10
18.0041142654565
20
1.79759098774065
30
0
41
1
10
18.0718886352425
20
1.76997658451731
30
0
41
1
10
18.1396188006233
20
1.74221447569306
30
0
41
1
10
18.5094836745694
20
1.58972712845818
30
0
41
1
10
18.8108236832706
20
1.46229433290679
30
0
41
1
10
19.4123907364227
20
1.20295054721294
30
0
41
1
10
19.712670818615
20
1.07117199654422
30
0
41
1
10
20.3126987300967
20
0.804418850520278
30
0
41
1
10
20.6124303271663
20
0.66940557141541
30
0
41
1
10
21.2118853964652
20
0.397335615040703
30
0
41
1
10
21.5116553578278
20
0.260402149775786
30
0
41
1
10
22.111764424584
20
-0.0142134215368799
30
0
41
1
10
22.4120877825924
20
-0.151935243439681
30
0
41
1
10
22.8633964613417
20
-0.358202966882175
30
0
41
1
10
23.013973111504
20
-0.426896543588811
30
0
41
1
10
23.3154980857975
20
-0.563942457105696
30
0
41
1
10
23.4664429686548
20
-0.632305122860231
30
0
41
1
10
23.7687449918385
20
-0.768615746124055
30
0
41
1
10
23.9201036936516
20
-0.836559079391861
30
0
41
1
10
24.2233088196835
20
-0.971859457008634
30
0
41
1
10
24.3753081195169
20
-1.03928473852295
30
0
41
1
10
24.678575770598
20
-1.17280867314048
30
0
41
1
10
24.8299600035006
20
-1.23895476509628
30
0
41
1
10
25.1323322545509
20
-1.36984992715804
30
0
41
1
10
25.2833118149621
20
-1.43460489785244
30
0
41
1
10
25.7356704784258
20
-1.62664918262317
30
0
41
1
10
26.0364866798049
20
-1.75170293924808
30
0
41
1
10
26.6372610324083
20
-1.99463975428716
30
0
41
1
10
26.9372705600014
20
-2.11251926823687
30
0
41
1
10
27.5368997979856
20
-2.34021792028401
30
0
41
1
10
27.8365112603774
20
-2.45004328197368
30
0
41
1
10
28.4359544691163
20
-2.66056734279147
30
0
41
1
10
28.7358139805224
20
-2.76129739052558
30
0
41
1
10
29.3362921117545
20
-2.95273245963884
30
0
41
1
10
29.6368991178491
20
-3.04342052599014
30
0
41
1
10
30.2394420860821
20
-3.21382220259207
30
0
41
1
10
30.541383306718
20
-3.29356054072275
30
0
41
1
10
30.8690922434006
20
-3.37340757503776
30
0
41
1
10
30.8939339903764
20
-3.37941881637181
30
0
41
1
10
30.9187822240685
20
-3.38538982164414
30
0
0
SPLINE
5
FB
100
AcDbEntity
8
1
62
256
6
ByLayer
370
18
48
1
60
0
100
AcDbSpline
70
4
71
3
72
26
73
22
40
0
40
0
40
0
40
0
40
0.0324574017466977
40
0.0324574017466977
40
0.0807572439339691
40
0.0807572439339691
40
0.17735692830852
40
0.17735692830852
40
0.370556297057629
40
0.370556297057629
40
0.467155981432183
40
0.467155981432183
40
0.51545582361946
40
0.51545582361946
40
0.563755665806737
40
0.563755665806737
40
0.756955034555867
40
0.756955034555867
40
0.950154403304996
40
0.950154403304996
40
1
40
1
40
1
40
1
41
1
10
30.9187831953722
20
-3.38539005504745
30
0
41
1
10
30.9696919944815
20
-3.39762338544063
30
0
41
1
10
31.0206280218397
20
-3.40968782341477
30
0
41
1
10
31.1474336685348
20
-3.43927948082836
30
0
41
1
10
31.2233680575902
20
-3.45660549051456
30
0
41
1
10
31.4511060584232
20
-3.50736199021222
30
0
41
1
10
31.6028513798651
20
-3.5395690426306
30
0
41
1
10
32.0579501768315
20
-3.6312634721713
30
0
41
1
10
32.3611669701278
20
-3.68582681903368
30
0
41
1
10
32.816117012348
20
-3.75736851631825
30
0
41
1
10
32.9677909964865
20
-3.77949647620119
30
0
41
1
10
33.1954027403651
20
-3.81006423068672
30
0
41
1
10
33.2712895908965
20
-3.81981720026315
30
0
41
1
10
33.4231038378254
20
-3.83844800900212
30
0
41
1
10
33.4990455465451
20
-3.84732750318537
30
0
41
1
10
33.8784049792361
20
-3.88947250041173
30
0
41
1
10
34.1811119745985
20
-3.91602194199035
30
0
41
1
10
34.7855070211208
20
-3.95461663333214
30
0
41
1
10
35.0872349821601
20
-3.96667066269109
30
0
41
1
10
35.466534679297
20
-3.9727559713406
30
0
41
1
10
35.5443100025283
20
-3.97352423133856
30
0
41
1
10
35.6220760246087
20
-3.97381271881764
30
0
0
SPLINE
5
FC
100
AcDbEntity
8
1
62
256
6
ByLayer
370
13
48
1
60
0
100
AcDbSpline
70
4
71
3
72
34
73
30
40
0
40
0
40
0
40
0
40
0.124751169188016
40
0.124751169188016
40
0.314342605376467
40
0.314342605376467
40
0.409138323470694
40
0.409138323470694
40
0.432837252994249
40
0.432837252994249
40
0.456536182517805
40
0.456536182517805
40
0.503934041564917
40
0.503934041564917
40
0.598729759659141
40
0.598729759659141
40
0.646127618706252
40
0.646127618706252
40
0.669826548229808
40
0.669826548229808
40
0.693525477753364
40
0.693525477753364
40
0.788321195847592
40
0.788321195847592
40
0.883116913941819
40
0.883116913941819
40
0.977912632036046
40
0.977912632036046
40
1
40
1
40
1
40
1
41
1
10
37.4306406246811
20
-3.96740131837811
30
0
41
1
10
37.0332394115422
20
-4.00966763537136
30
0
41
1
10
36.6366460750134
20
-4.03932442644182
30
0
41
1
10
35.6376082146691
20
-4.08173811650525
30
0
41
1
10
35.0353607238807
20
-4.07787595866313
30
0
41
1
10
34.128926345317
20
-4.02748805103144
30
0
41
1
10
33.8262472323104
20
-4.0032525530728
30
0
41
1
10
33.4468872619387
20
-3.96373100032554
30
0
41
1
10
33.3709454571422
20
-3.95536294856166
30
0
41
1
10
33.2191412538296
20
-3.93772797575323
30
0
41
1
10
33.1432601586635
20
-3.92845909467695
30
0
41
1
10
32.9156656218503
20
-3.89930288845036
30
0
41
1
10
32.7640018816692
20
-3.87806232919058
30
0
41
1
10
32.3090785134449
20
-3.80902226232786
30
0
41
1
10
32.0058806107628
20
-3.75590996136972
30
0
41
1
10
31.5508109495328
20
-3.66602239227529
30
0
41
1
10
31.3990746252735
20
-3.63435620461436
30
0
41
1
10
31.1713377891924
20
-3.58432746616825
30
0
41
1
10
31.0954102007715
20
-3.56723135069311
30
0
41
1
10
30.9437483682241
20
-3.5322670858597
30
0
41
1
10
30.8679833871898
20
-3.51439216579951
30
0
41
1
10
30.4894612994322
20
-3.42309099007136
30
0
41
1
10
30.1876153629
20
-3.34387916807495
30
0
41
1
10
29.5853242310477
20
-3.17405574628648
30
0
41
1
10
29.284861392282
20
-3.08343824776446
30
0
41
1
10
28.6846819901892
20
-2.89172424607367
30
0
41
1
10
28.3849970146059
20
-2.79061216763009
30
0
41
1
10
28.01566298759
20
-2.6600583928703
30
0
41
1
10
27.9458754568784
20
-2.63512872249086
30
0
41
1
10
27.8760893373106
20
-2.60994683331091
30
0
0
SPLINE
5
FD
100
AcDbEntity
8
1
62
256
6
ByLayer
370
18
48
1
60
0
100
AcDbSpline
70
4
71
3
72
29
73
25
40
0
40
0
40
0
40
0
40
0.114786041416356
40
0.114786041416356
40
0.189613933937962
40
0.189613933937962
40
0.264441826459566
40
0.264441826459566
40
0.414097611502782
40
0.414097611502782
40
0.488925504024389
40
0.488925504024389
40
0.563753396545996
40
0.563753396545996
40
0.601167342806803
40
0.601167342806803
40
0.638581289067609
40
0.713409181589223
40
0.713409181589223
40
0.788237074110837
40
0.788237074110837
40
0.86306496663245
40
0.86306496663245
40
1
40
1
40
1
40
1
41
1
10
27.8760893376472
20
-2.60994683343236
30
0
41
1
10
27.6463637484992
20
-2.52705177688867
30
0
41
1
10
27.4166534509154
20
-2.44142360409958
30
0
41
1
10
27.0369857536587
20
-2.29585743551979
30
0
41
1
10
26.8870979202283
20
-2.23735547355611
30
0
41
1
10
26.5871936782774
20
-2.11830045013829
30
0
41
1
10
26.4371845790504
20
-2.0577436053548
30
0
41
1
10
25.98682155947
20
-1.87323688222449
30
0
41
1
10
25.686115927454
20
-1.74644520597403
30
0
41
1
10
25.233870113637
20
-1.55146864369863
30
0
41
1
10
25.0829189962492
20
-1.48568313009054
30
0
41
1
10
24.7805981722464
20
-1.35258017300725
30
0
41
1
10
24.6292375624437
20
-1.28525413886879
30
0
41
1
10
24.4017990414001
20
-1.18326575489556
30
0
41
1
10
24.3258927923587
20
-1.14909220038959
30
0
41
1
10
24.1740483702251
20
-1.08048393240287
30
0
41
1
10
23.9464843937627
20
-0.977292344024107
30
0
41
1
10
23.7194859788816
20
-0.873355075104399
30
0
41
1
10
23.4172509587583
20
-0.734268779277357
30
0
41
1
10
23.2663464084714
20
-0.664478722468346
30
0
41
1
10
22.9649286816677
20
-0.524471202379857
30
0
41
1
10
22.8144198539261
20
-0.454242324196457
30
0
41
1
10
22.388881073893
20
-0.255234577583167
30
0
41
1
10
22.1141737668952
20
-0.126269324252917
30
0
41
1
10
21.839718420203
20
0.0025141897949936
30
0
0
SPLINE
5
FE
100
AcDbEntity
8
SK1
62
256
6
ByLayer
370
18
48
1
60
0
100
AcDbSpline
70
4
71
3
72
20
73
16
40
0
40
0
40
0
40
0
40
0.250000000000007
40
0.250000000000007
40
0.375000000000006
40
0.375000000000006
40
0.500000000000004
40
0.500000000000004
40
0.625000000000003
40
0.625000000000003
40
0.750000000000002
40
0.750000000000002
40
0.875000000000001
40
0.875000000000001
40
1
40
1
40
1
40
1
41
1
10
-39.35
20
4.20665352970153
30
0
41
1
10
-39.3382052350822
20
4.21877787324516
30
0
41
1
10
-39.3267890235077
20
4.23096416638063
30
0
41
1
10
-39.310213139012
20
4.24932148326624
30
0
41
1
10
-39.3048332480534
20
4.2553976710096
30
0
41
1
10
-39.2945638173439
20
4.26723927943087
30
0
41
1
10
-39.2896439542629
20
4.27303795115597
30
0
41
1
10
-39.2802807817757
20
4.28435845546534
30
0
41
1
10
-39.2758193520255
20
4.28990249995152
30
0
41
1
10
-39.2675623009897
20
4.30054780603453
30
0
41
1
10
-39.2638525690604
20
4.30553648916589
30
0
41
1
10
-39.2574621650662
20
4.31468660742743
30
0
41
1
10
-39.2547834252518
20
4.31885585286039
30
0
41
1
10
-39.2510693984638
20
4.32565177996969
30
0
41
1
10
-39.25
20
4.32835606836386
30
0
41
1
10
-39.25
20
4.32996844132322
30
0
0
SPLINE
5
FF
100
AcDbEntity
8
SK1
62
256
6
ByLayer
370
18
48
1
60
0
100
AcDbSpline
70
4
71
3
72
8
73
4
40
0
40
0
40
0
40
0
40
1
40
1
40
1
40
1
41
1
10
-40
20
3.53507892170685
30
0
41
1
10
-39.7840043172552
20
3.759593895412
30
0
41
1
10
-39.5672327227222
20
3.9833507188732
30
0
41
1
10
-39.35
20
4.2066535297015
30
0
0
SPLINE
5
100
100
AcDbEntity
8
SK1
62
256
6
ByLayer
370
18
48
1
60
0
100
AcDbSpline
70
4
71
3
72
8
73
4
40
0
40
0
40
0
40
0
40
1
40
1
40
1
40
1
41
1
10
-39.35
20
-4.1772096960091
30
0
41
1
10
-39.5672426397276
20
-3.95389669106666
30
0
41
1
10
-39.7840152130049
20
-3.73013873622031
30
0
41
1
10
-40
20
-3.50563508801446
30
0
0
SPLINE
5
101
100
AcDbEntity
8
SK1
62
256
6
ByLayer
370
18
48
1
60
0
100
AcDbSpline
70
4
71
3
72
24
73
20
40
0
40
0
40
0
40
0
40
0.125000000000012
40
0.125000000000012
40
0.250000000000023
40
0.250000000000023
40
0.312500000000026
40
0.312500000000026
40
0.375000000000028
40
0.375000000000028
40
0.500000000000022
40
0.500000000000022
40
0.625000000000017
40
0.625000000000017
40
0.750000000000011
40
0.750000000000011
40
0.875000000000006
40
0.875000000000006
40
1
40
1
40
1
40
1
41
1
10
-39.25
20
-4.30346899100007
30
0
41
1
10
-39.25
20
-4.3015943080772
30
0
41
1
10
-39.2510521272623
20
-4.29870027014218
30
0
41
1
10
-39.2547983363266
20
-4.29139887652562
30
0
41
1
10
-39.257418305189
20
-4.28712144041188
30
0
41
1
10
-39.2621930922017
20
-4.27999842144342
30
0
41
1
10
-39.2639386957487
20
-4.27748991085244
30
0
41
1
10
-39.2676274173693
20
-4.27234557200043
30
0
41
1
10
-39.2695726506529
20
-4.26970558757526
30
0
41
1
10
-39.2756745895791
20
-4.26160765393752
30
0
41
1
10
-39.2800949083816
20
-4.25597347979399
30
0
41
1
10
-39.289543373695
20
-4.24430451294984
30
0
41
1
10
-39.294548960814
20
-4.23830062362558
30
0
41
1
10
-39.3048286411323
20
-4.22627067243809
30
0
41
1
10
-39.3101366580136
20
-4.22020288509705
30
0
41
1
10
-39.3210712911686
20
-4.20797137655441
30
0
41
1
10
-39.3267189170959
20
-4.20178524051678
30
0
41
1
10
-39.3382509315727
20
-4.18941813073872
30
0
41
1
10
-39.3440882566744
20
-4.18328662993025
30
0
41
1
10
-39.35
20
-4.1772096960091
30
0
0
SPLINE
5
102
100
AcDbEntity
8
SK1
62
256
6
ByLayer
370
18
48
1
60
0
100
AcDbSpline
70
4
71
3
72
20
73
16
40
0
40
0
40
0
40
0
40
0.250000000000006
40
0.250000000000006
40
0.375000000000005
40
0.375000000000005
40
0.500000000000004
40
0.500000000000004
40
0.625000000000003
40
0.625000000000003
40
0.750000000000002
40
0.750000000000002
40
0.875000000000001
40
0.875000000000001
40
1
40
1
40
1
40
1
41
1
10
-39.35
20
-4.20665352970153
30
0
41
1
10
-39.3382052350822
20
-4.21877787324516
30
0
41
1
10
-39.3267890235077
20
-4.23096416638063
30
0
41
1
10
-39.310213139012
20
-4.24932148326624
30
0
41
1
10
-39.3048332480534
20
-4.2553976710096
30
0
41
1
10
-39.2945638173439
20
-4.26723927943087
30
0
41
1
10
-39.2896439542629
20
-4.27303795115597
30
0
41
1
10
-39.2802807817757
20
-4.28435845546534
30
0
41
1
10
-39.2758193520255
20
-4.28990249995152
30
0
41
1
10
-39.2675623009897
20
-4.30054780603453
30
0
41
1
10
-39.2638525690604
20
-4.30553648916589
30
0
41
1
10
-39.2574621650662
20
-4.31468660742743
30
0
41
1
10
-39.2547834252518
20
-4.31885585286037
30
0
41
1
10
-39.2510693984638
20
-4.32565177996969
30
0
41
1
10
-39.25
20
-4.32835606836386
30
0
41
1
10
-39.25
20
-4.32996844132322
30
0
0
SPLINE
5
103
100
AcDbEntity
8
SK1
62
256
6
ByLayer
370
18
48
1
60
0
100
AcDbSpline
70
4
71
3
72
8
73
4
40
0
40
0
40
0
40
0
40
1
40
1
40
1
40
1
41
1
10
-40
20
-3.53507892170685
30
0
41
1
10
-39.7840043172552
20
-3.759593895412
30
0
41
1
10
-39.5672327227222
20
-3.9833507188732
30
0
41
1
10
-39.35
20
-4.2066535297015
30
0
0
SPLINE
5
104
100
AcDbEntity
8
1
62
256
6
ByLayer
370
18
48
1
60
0
100
AcDbSpline
70
4
71
3
72
13
73
9
40
0
40
0
40
0
40
0
40
0.104272058195133
40
0.249385946693312
40
0.415625290650501
40
0.602921728212652
40
0.811162534805067
40
1
40
1
40
1
40
1
41
1
10
54.7947724769784
20
3.0031557942923
30
0
41
1
10
55.0281685012019
20
3.07798474893789
30
0
41
1
10
55.5869120950405
20
3.24869979445594
30
0
41
1
10
56.5196717124507
20
3.49842191699952
30
0
41
1
10
57.6403874762937
20
3.74225111114279
30
0
41
1
10
58.9044258512241
20
3.93942769500418
30
0
41
1
10
60.2205289733409
20
4.05717844793188
30
0
41
1
10
61.1154862140822
20
4.06264318523674
30
0
41
1
10
61.5412634091183
20
4.04954603152197
30
0
0
SPLINE
5
105
100
AcDbEntity
8
1
62
256
6
ByLayer
370
18
48
1
60
0
100
AcDbSpline
70
4
71
3
72
13
73
9
40
0
40
0
40
0
40
0
40
0.146240596536423
40
0.37581757865173
40
0.603506724538547
40
0.783722589694279
40
0.962174098801338
40
1
40
1
40
1
40
1
41
1
10
27.6303183935652
20
3.01042323954795
30
0
41
1
10
28.0164619356702
20
3.13191526404884
30
0
41
1
10
29.0130617375427
20
3.41817372598899
30
0
41
1
10
30.6206233587086
20
3.78439687562434
30
0
41
1
10
32.3180236393217
20
4.01134239169855
30
0
41
1
10
33.8791491235413
20
4.07384381302006
30
0
41
1
10
34.9358148112666
20
4.0606032755669
30
0
41
1
10
35.5114308254267
20
3.99315634899244
30
0
41
1
10
35.612095172388
20
3.98009838688958
30
0
0
SPLINE
5
106
100
AcDbEntity
8
1
62
256
6
ByLayer
370
18
48
1
60
0
100
AcDbSpline
70
4
71
3
72
9
73
5
40
0
40
0
40
0
40
0
40
0.497658350354877
40
1
40
1
40
1
40
1
41
1
10
53.7552810335873
20
-2.64986110391814
30
0
41
1
10
53.6592534370581
20
-2.61465995638255
30
0
41
1
10
53.4664876812369
20
-2.54243986561474
30
0
41
1
10
53.2742440698712
20
-2.46672114051461
30
0
41
1
10
53.1777628046935
20
-2.42795823868872
30
0
0
SPLINE
5
107
100
AcDbEntity
8
1
62
256
6
ByLayer
370
18
48
1
60
0
100
AcDbSpline
70
4
71
1
72
4
73
2
40
0
40
0
40
1
40
1
41
1
10
53.1777628046935
20
-2.42795823868872
30
0
41
1
10
52.7674932325483
20
-2.26661061017734
30
0
0
SPLINE
5
108
100
AcDbEntity
8
1
62
256
6
ByLayer
370
18
48
1
60
0
100
AcDbSpline
70
4
71
3
72
33
73
29
40
0
40
0
40
0
40
0
40
3.22953727056E-05
40
6.31490274971E-05
40
7.63013722266E-05
40
8.85305907545E-05
40
0.0001130405540925
40
0.000208966140056
40
0.0010708263742157
40
0.0017530300053606
40
0.0029825912717892
40
0.0052144120421767
40
0.0093152108599956
40
0.017006243510346
40
0.0319151078471613
40
0.0622677582113054
40
0.118495565549493
40
0.211643784709204
40
0.379713319654187
40
0.474550600824837
40
0.570428881673248
40
0.647631023962234
40
0.678501401039252
40
0.709183002636487
40
0.758686820768279
40
0.828888040857964
40
0.919789994785428
40
1
40
1
40
1
40
1
41
1
10
36.1135269687828
20
0.118359528671817
30
0
41
1
10
36.1135515984682
20
0.118357329654003
30
0
41
1
10
36.1135923570748
20
0.118355271856558
30
0
41
1
10
36.1136106225625
20
0.118361942595101
30
0
41
1
10
36.1135885309053
20
0.11837635232672
30
0
41
1
10
36.1135437426757
20
0.118395504761566
30
0
41
1
10
36.1133183974353
20
0.118469022543849
30
0
41
1
10
36.1115419441263
20
0.119021069157327
30
0
41
1
10
36.1081419963309
20
0.119982511890612
30
0
41
1
10
36.1027666297633
20
0.121576804419902
30
0
41
1
10
36.0946023049885
20
0.123969457587606
30
0
41
1
10
36.0797787146477
20
0.128328590812515
30
0
41
1
10
36.0522183022618
20
0.136415249833306
30
0
41
1
10
35.9997217999656
20
0.151806716580609
30
0
41
1
10
35.8954264171103
20
0.182338614666605
30
0
41
1
10
35.6951325427642
20
0.240983202499763
30
0
41
1
10
35.340181449241
20
0.345457061511098
30
0
41
1
10
34.7091129023321
20
0.534627162038873
30
0
41
1
10
33.9992111644399
20
0.757531222351133
30
0
41
1
10
33.2886852783207
20
0.990513873445281
30
0
41
1
10
32.7595919607764
20
1.16935791413036
30
0
41
1
10
32.3579415934823
20
1.30880021005291
30
0
41
1
10
32.0850976818515
20
1.40507963835509
30
0
41
1
10
31.8668972215369
20
1.48278692463268
30
0
41
1
10
31.5718866302178
20
1.589084017403
30
0
41
1
10
31.1596111171152
20
1.74029396295515
30
0
41
1
10
30.6884518801612
20
1.91677550506412
30
0
41
1
10
30.3556390730506
20
2.0451788328678
30
0
41
1
10
30.1998846185446
20
2.10602222034248
30
0
0
SPLINE
5
109
100
AcDbEntity
8
1
62
256
6
ByLayer
370
18
48
1
60
0
100
AcDbSpline
70
4
71
3
72
16
73
12
40
0
40
0
40
0
40
0
40
0.0393912732132453
40
0.13313824297573
40
0.21888891479171
40
0.292805667391443
40
0.362850807067704
40
0.46869061031179
40
0.615761158957465
40
0.804102299786021
40
1
40
1
40
1
40
1
41
1
10
61.7108748325145
20
0.597491485506623
30
0
41
1
10
61.6537404583254
20
0.614977383207616
30
0
41
1
10
61.4607632896833
20
0.674510954269152
30
0
41
1
10
61.144528069656
20
0.775834414230303
30
0
41
1
10
60.7788689329049
20
0.894592848612405
30
0
41
1
10
60.448049642485
20
1.00428673111338
30
0
41
1
10
60.0888652807937
20
1.12531759157974
30
0
41
1
10
59.6254140504605
20
1.28461902250737
30
0
41
1
10
58.9940430457467
20
1.50780067862846
30
0
41
1
10
58.2366467855025
20
1.78487491433458
30
0
41
1
10
57.6917314777435
20
1.99304686661358
30
0
41
1
10
57.4146096835554
20
2.10113023475267
30
0
0
SPLINE
5
10A
100
AcDbEntity
8
1
62
256
6
ByLayer
370
18
48
1
60
0
100
AcDbSpline
70
4
71
3
72
33
73
29
40
0
40
0
40
0
40
0
40
0.0264405415658153
40
0.0539327796482918
40
0.0848797224602946
40
0.129841080762444
40
0.17804591888624
40
0.220852665349403
40
0.258284323959174
40
0.290739369163074
40
0.320037924476294
40
0.354653067209556
40
0.401111198683326
40
0.446730466999667
40
0.480848521669898
40
0.531938471512147
40
0.587931573098034
40
0.646050908088913
40
0.712649789487456
40
0.763867044283744
40
0.815793239204849
40
0.864498341433888
40
0.880735189059372
40
0.895626894027217
40
0.90918752563168
40
0.926487475581777
40
0.961756840731199
40
1
40
1
40
1
40
1
41
1
10
35.5935023193224
20
-3.97387843149335
30
0
41
1
10
35.6705181986068
20
-3.97231359355987
30
0
41
1
10
35.845484776709
20
-3.96845167466958
30
0
41
1
10
36.1966423586483
20
-3.95451924934568
30
0
41
1
10
36.6524458122829
20
-3.9494772292968
30
0
41
1
10
37.1942524044457
20
-3.95966594707019
30
0
41
1
10
37.7712385429751
20
-3.97051646478923
30
0
41
1
10
38.3252763324161
20
-3.97424468150012
30
0
41
1
10
38.8139202849024
20
-3.97604792920288
30
0
41
1
10
39.2473577855421
20
-3.97623821683058
30
0
41
1
10
39.6703104533688
20
-3.97620687792528
30
0
41
1
10
40.1541921020459
20
-3.97617975299019
30
0
41
1
10
40.7100728110602
20
-3.97727403462662
30
0
41
1
10
41.2636687473502
20
-3.97731712723635
30
0
41
1
10
41.8376200910015
20
-3.97681677521956
30
0
41
1
10
42.4570368031521
20
-3.97844888992495
30
0
41
1
10
43.1819198067754
20
-3.97805520677835
30
0
41
1
10
43.9737223134834
20
-3.97798651718205
30
0
41
1
10
44.7459973665407
20
-3.97906218847959
30
0
41
1
10
45.490036183411
20
-3.97855784099826
30
0
41
1
10
46.1558799743793
20
-3.98093429220816
30
0
41
1
10
46.6686142633273
20
-3.9801953809399
30
0
41
1
10
47.0188340208743
20
-3.97997673900113
30
0
41
1
10
47.2148805360725
20
-3.97994490529967
30
0
41
1
10
47.4155843628028
20
-3.98003768697433
30
0
41
1
10
47.7056797081822
20
-3.98035958946895
30
0
41
1
10
48.1040710076326
20
-3.9802906086025
30
0
41
1
10
48.4265693998232
20
-3.98036462250982
30
0
41
1
10
48.5943438290658
20
-3.98037611584903
30
0
0
SPLINE
5
10B
100
AcDbEntity
8
1
62
256
6
ByLayer
370
18
48
1
60
0
100
AcDbSpline
70
4
71
3
72
29
73
25
40
0
40
0
40
0
40
0
40
0.0126631863556645
40
0.0643123376767684
40
0.109544170797977
40
0.169791519622065
40
0.225511799301219
40
0.276727510675872
40
0.323051703349485
40
0.364541174842034
40
0.404566178493204
40
0.4532492821883
40
0.495272838162947
40
0.528211872056286
40
0.563234284045366
40
0.607375897056711
40
0.652959614739779
40
0.699321957656927
40
0.748736943370558
40
0.807466320121744
40
0.875949131327699
40
0.941214773123233
40
0.981369280753163
40
1
40
1
40
1
40
1
41
1
10
21.8884044929694
20
3.96030729349573
30
0
41
1
10
21.8459990091484
20
3.95979301769998
30
0
41
1
10
21.6286287725265
20
3.95700255622532
30
0
41
1
10
21.2356207169454
20
3.94468004753492
30
0
41
1
10
20.6489371349368
20
3.93987489660569
30
0
41
1
10
20.0831684536966
20
3.95986392121125
30
0
41
1
10
19.4860913299184
20
3.96527991053205
30
0
41
1
10
18.928563030225
20
3.96461998527346
30
0
41
1
10
18.417214440496
20
3.96445011479483
30
0
41
1
10
17.9465213472055
20
3.96491601375064
30
0
41
1
10
17.4673481984169
20
3.96442516919419
30
0
41
1
10
16.9860344543403
20
3.96338938057693
30
0
41
1
10
16.5308519819868
20
3.96341772448056
30
0
41
1
10
16.1259491435995
20
3.96306377366929
30
0
41
1
10
15.7132511623754
20
3.96243671144677
30
0
41
1
10
15.2540028638884
20
3.96203214299584
30
0
41
1
10
14.7530038808427
20
3.96214211684543
30
0
41
1
10
14.2326769461301
20
3.96171853380471
30
0
41
1
10
13.6639778147315
20
3.96082183536043
30
0
41
1
10
13.0136864618464
20
3.96083159114602
30
0
41
1
10
12.3052073078426
20
3.96020354649903
30
0
41
1
10
11.6650457669041
20
3.95956618135821
30
0
41
1
10
11.208386343828
20
3.95938849861935
30
0
41
1
10
10.9919517994829
20
3.95923115897719
30
0
41
1
10
10.923362705536
20
3.95917413013399
30
0
0
SPLINE
5
10C
100
AcDbEntity
8
1
62
256
6
ByLayer
370
18
48
1
60
0
100
AcDbSpline
70
4
71
3
72
30
73
26
40
0
40
0
40
0
40
0
40
0.0425895945608931
40
0.0793041492472736
40
0.11531639144887
40
0.152216561976852
40
0.18936734776118
40
0.223826034588741
40
0.258841973513994
40
0.30213605336567
40
0.35117899019271
40
0.41341153967748
40
0.465117307708988
40
0.51103184266919
40
0.556097125757578
40
0.599724299925972
40
0.635912149507939
40
0.672090757888782
40
0.720397651245039
40
0.766754559540147
40
0.801769147193557
40
0.837892813693335
40
0.899579108180732
40
0.968923519295008
40
1
40
1
40
1
40
1
41
1
10
8.38891158888035
20
-3.95696415043986
30
0
41
1
10
8.55313376507866
20
-3.95561944253041
30
0
41
1
10
8.86377597837662
20
-3.95417493180952
30
0
41
1
10
9.34503389897847
20
-3.95535775269227
30
0
41
1
10
9.78308643563108
20
-3.95820184868731
30
0
41
1
10
10.2352909408349
20
-3.9584018234647
30
0
41
1
10
10.6805498647644
20
-3.95897535574801
30
0
41
1
10
11.1184777534493
20
-3.95934568526053
30
0
41
1
10
11.5815447995688
20
-3.95954917083532
30
0
41
1
10
12.1045025213052
20
-3.95991576003215
30
0
41
1
10
12.7391440168371
20
-3.96076660055692
30
0
41
1
10
13.408424250854
20
-3.96068494993912
30
0
41
1
10
14.0648762092707
20
-3.96142052024814
30
0
41
1
10
14.6506632405253
20
-3.96216484858365
30
0
41
1
10
15.2034459207304
20
-3.96201349125963
30
0
41
1
10
15.7162725130875
20
-3.9624207329297
30
0
41
1
10
16.1926070491502
20
-3.96318397551517
30
0
41
1
10
16.6881632748908
20
-3.9634258354204
30
0
41
1
10
17.2254591583424
20
-3.96364724670823
30
0
41
1
10
17.7580420136821
20
-3.96499593388174
30
0
41
1
10
18.240249564961
20
-3.96460590622701
30
0
41
1
10
18.7857851200191
20
-3.96431545370731
30
0
41
1
10
19.4683127251584
20
-3.96634708961628
30
0
41
1
10
20.1089098188573
20
-3.95851668519933
30
0
41
1
10
20.5063211850256
20
-3.94659693516243
30
0
41
1
10
20.6314409359031
20
-3.94444821045312
30
0
0
SPLINE
5
10D
100
AcDbEntity
8
1
62
256
6
ByLayer
370
18
48
1
60
0
100
AcDbSpline
70
4
71
3
72
9
73
5
40
0
40
0
40
0
40
0
40
0.777269382180032
40
1
40
1
40
1
40
1
41
1
10
21.2903240935462
20
-3.94790251352254
30
0
41
1
10
21.4512351264915
20
-3.95144138606992
30
0
41
1
10
21.6538359579499
20
-3.95731825851811
30
0
41
1
10
21.8459990091449
20
-3.95979301769995
30
0
41
1
10
21.8884044929671
20
-3.96030729349573
30
0
0
SPLINE
5
10E
100
AcDbEntity
8
1
62
256
6
ByLayer
370
18
48
1
60
0
100
AcDbSpline
70
4
71
3
72
25
73
21
40
0
40
0
40
0
40
0
40
0.0529408629350763
40
0.0980914597819252
40
0.135052295447108
40
0.164943894788728
40
0.228109078727071
40
0.298329966487372
40
0.341523923902647
40
0.384613483309019
40
0.437308309490506
40
0.499832256724649
40
0.566051018823376
40
0.632558235272714
40
0.690393793531138
40
0.767615745618458
40
0.835651300717081
40
0.899782431796279
40
0.952044147354564
40
1
40
1
40
1
40
1
41
1
10
48.7351745335456
20
3.98015769821186
30
0
41
1
10
48.5481094911785
20
3.98001081346382
30
0
41
1
10
48.2022474229651
20
3.97977777022774
30
0
41
1
10
47.7302444704338
20
3.98060109254811
30
0
41
1
10
47.3366588419084
20
3.97977796718192
30
0
41
1
10
46.8784155089158
20
3.97993008372393
30
0
41
1
10
46.3038990063924
20
3.98095339392933
30
0
41
1
10
45.6813647229871
20
3.97924395400756
30
0
41
1
10
45.1310714071866
20
3.97870062024131
30
0
41
1
10
44.6425348395921
20
3.97865252078679
30
0
41
1
10
44.0844768588328
20
3.97817978562008
30
0
41
1
10
43.4455715707136
20
3.97722568498568
30
0
41
1
10
42.758555856444
20
3.97876219625132
30
0
41
1
10
42.0873612665987
20
3.97713695204729
30
0
41
1
10
41.377245062736
20
3.97715891500391
30
0
41
1
10
40.6617801846838
20
3.97727299788769
30
0
41
1
10
39.9241505507996
20
3.9759907873852
30
0
41
1
10
39.2743825966466
20
3.9763472359266
30
0
41
1
10
38.6958204045048
20
3.975892079174
30
0
41
1
10
38.3482599049909
20
3.9742185967371
30
0
41
1
10
38.1811677095505
20
3.9733621091145
30
0
0
LINE
5
82
100
AcDbEntity
8
4
62
256
6
ByLayer
370
18
48
0.05
60
0
100
AcDbLine
10
0
20
0
30
0
11
63
21
0
31
0
39
0
210
0
220
0
230
1
0
LINE
5
84
100
AcDbEntity
8
81
62
256
6
ByLayer
370
18
48
1
60
0
100
AcDbLine
10
63
20
0
30
0
11
66
21
0
31
0
39
0
210
0
220
0
230
1
0
LINE
5
85
100
AcDbEntity
8
80
62
256
6
ByLayer
370
18
48
1
60
0
100
AcDbLine
10
0
20
0
30
0
11
-3
21
0
31
0
39
0
210
0
220
0
230
1
0
LINE
5
86
100
AcDbEntity
8
SK4
62
256
6
ByLayer
370
18
48
0.05
60
0
100
AcDbLine
10
-43
20
0
30
0
11
66
21
0
31
0
39
0
210
0
220
0
230
1
0
LINE
5
88
100
AcDbEntity
8
1
62
256
6
ByLayer
370
13
48
1
60
0
100
AcDbLine
10
62.941431
20
0.050561
30
0
11
61.88268
21
1.219238
31
0
39
0
210
0
220
0
230
1
0
LINE
5
89
100
AcDbEntity
8
1
62
256
6
ByLayer
370
13
48
1
60
0
100
AcDbLine
10
0.705752
20
4.576849
30
0
11
0.705752
21
-4.576849
31
0
39
0
210
0
220
0
230
1
0
LINE
5
8A
100
AcDbEntity
8
1
62
256
6
ByLayer
370
13
48
1
60
0
100
AcDbLine
10
0.700931
20
4.58561
30
0
11
0.700931
21
-4.58561
31
0
39
0
210
0
220
0
230
1
0
LINE
5
8B
100
AcDbEntity
8
1
62
256
6
ByLayer
370
18
48
1
60
0
100
AcDbLine
10
0
20
5
30
0
11
0
21
-5
31
0
39
0
210
0
220
0
230
1
0
LINE
5
8C
100
AcDbEntity
8
1
62
256
6
ByLayer
370
18
48
1
60
0
100
AcDbLine
10
21
20
-0.193572
30
0
11
21
21
-0.370276
31
0
39
0
210
0
220
0
230
1
0
LINE
5
8D
100
AcDbEntity
8
1
62
256
6
ByLayer
370
13
48
1
60
0
100
AcDbLine
10
1.407183
20
4.162459
30
0
11
1.407183
21
-4.162459
31
0
39
0
210
0
220
0
230
1
0
LINE
5
8E
100
AcDbEntity
8
SK1
62
256
6
ByLayer
370
18
48
1
60
0
100
AcDbLine
10
-40
20
-3.505596
30
0
11
-40
21
-3.535079
31
0
39
0
210
0
220
0
230
1
0
LINE
5
90
100
AcDbEntity
8
SK1
62
256
6
ByLayer
370
13
48
1
60
0
100
AcDbLine
10
-39.35
20
-4.206654
30
0
11
-39.35
21
-4.177179
31
0
39
0
210
0
220
0
230
1
0
LINE
5
91
100
AcDbEntity
8
SK1
62
256
6
ByLayer
370
18
48
1
60
0
100
AcDbLine
10
-39.25
20
4.41
30
0
11
-39.25
21
4.329968
31
0
39
0
210
0
220
0
230
1
0
LINE
5
92
100
AcDbEntity
8
SK1
62
256
6
ByLayer
370
18
48
1
60
0
100
AcDbLine
10
-40
20
3.535079
30
0
11
-40
21
-3.505635
31
0
39
0
210
0
220
0
230
1
0
LINE
5
93
100
AcDbEntity
8
SK1
62
256
6
ByLayer
370
18
48
1
60
0
100
AcDbLine
10
-39.25
20
-4.41
30
0
11
-39.25
21
-4.303469
31
0
39
0
210
0
220
0
230
1
0
LINE
5
94
100
AcDbEntity
8
SK1
62
256
6
ByLayer
370
18
48
1
60
0
100
AcDbLine
10
-38.66
20
-5
30
0
11
-38.66
21
5
31
0
39
0
210
0
220
0
230
1
0
LINE
5
95
100
AcDbEntity
8
SK1
62
256
6
ByLayer
370
18
48
1
60
0
100
AcDbLine
10
0
20
5
30
0
11
0
21
-5
31
0
39
0
210
0
220
0
230
1
0
LINE
5
96
100
AcDbEntity
8
1
62
256
6
ByLayer
370
18
48
1
60
0
100
AcDbLine
10
0.705752
20
4.576849
30
0
11
0.700931
21
4.58561
31
0
39
0
210
0
220
0
230
1
0
LINE
5
97
100
AcDbEntity
8
1
62
256
6
ByLayer
370
18
48
1
60
0
100
AcDbLine
10
0.700931
20
-4.58561
30
0
11
0.705752
21
-4.576849
31
0
39
0
210
0
220
0
230
1
0
LINE
5
98
100
AcDbEntity
8
1
62
256
6
ByLayer
370
18
48
1
60
0
100
AcDbLine
10
1.407183
20
-4.162459
30
0
11
3.242769
21
-4.163606
31
0
39
0
210
0
220
0
230
1
0
LINE
5
99
100
AcDbEntity
8
1
62
256
6
ByLayer
370
18
48
1
60
0
100
AcDbLine
10
6.586789
20
-4.165696
30
0
11
8.244516
21
-4.166732
31
0
39
0
210
0
220
0
230
1
0
LINE
5
9A
100
AcDbEntity
8
1
62
256
6
ByLayer
370
18
48
1
60
0
100
AcDbLine
10
34.209009
20
-4.18296
30
0
11
35.444832
21
-4.183732
31
0
39
0
210
0
220
0
230
1
0
LINE
5
9B
100
AcDbEntity
8
1
62
256
6
ByLayer
370
18
48
1
60
0
100
AcDbLine
10
35.444832
20
4.183732
30
0
11
34.209009
21
4.18296
31
0
39
0
210
0
220
0
230
1
0
LINE
5
9C
100
AcDbEntity
8
1
62
256
6
ByLayer
370
18
48
1
60
0
100
AcDbLine
10
8.244516
20
4.166732
30
0
11
6.586789
21
4.165696
31
0
39
0
210
0
220
0
230
1
0
LINE
5
9D
100
AcDbEntity
8
1
62
256
6
ByLayer
370
18
48
1
60
0
100
AcDbLine
10
3.242769
20
4.163606
30
0
11
1.407183
21
4.162459
31
0
39
0
210
0
220
0
230
1
0
LINE
5
9E
100
AcDbEntity
8
SK1
62
256
6
ByLayer
370
18
48
1
60
0
100
AcDbLine
10
-39.25
20
-4.41
30
0
11
-38.66
21
-5
31
0
39
0
210
0
220
0
230
1
0
LINE
5
9F
100
AcDbEntity
8
SK1
62
256
6
ByLayer
370
18
48
1
60
0
100
AcDbLine
10
-38.66
20
5
30
0
11
-39.25
21
4.41
31
0
39
0
210
0
220
0
230
1
0
LINE
5
A0
100
AcDbEntity
8
SK1
62
256
6
ByLayer
370
18
48
1
60
0
100
AcDbLine
10
-38.66
20
-5
30
0
11
0
21
-5
31
0
39
0
210
0
220
0
230
1
0
LINE
5
A1
100
AcDbEntity
8
SK1
62
256
6
ByLayer
370
18
48
1
60
0
100
AcDbLine
10
0
20
5
30
0
11
-38.66
21
5
31
0
39
0
210
0
220
0
230
1
0
LINE
5
A2
100
AcDbEntity
8
2
62
256
6
ByLayer
370
13
48
1
60
0
100
AcDbLine
10
76.75
20
-4.2
30
0
11
76.75
21
20.917465
31
0
39
0
210
0
220
0
230
1
0
LINE
5
A4
100
AcDbEntity
8
2
62
256
6
ByLayer
370
13
48
1
60
0
100
AcDbLine
10
64.5875
20
4.2
30
0
11
78.75
21
4.2
31
0
39
0
210
0
220
0
230
1
0
LINE
5
A5
100
AcDbEntity
8
2
62
256
6
ByLayer
370
13
48
1
60
0
100
AcDbLine
10
64.5875
20
-4.2
30
0
11
78.75
21
-4.2
31
0
39
0
210
0
220
0
230
1
0
LINE
5
A6
100
AcDbEntity
8
1
62
256
6
ByLayer
370
18
48
1
60
1
100
AcDbLine
10
76.75
20
4.2
30
0
11
77.210784
21
0.700002
31
0
39
0
210
0
220
0
230
1
0
LINE
5
A7
100
AcDbEntity
8
1
62
256
6
ByLayer
370
18
48
1
60
1
100
AcDbLine
10
77.210784
20
0.700002
30
0
11
76.289216
21
0.699998
31
0
39
0
210
0
220
0
230
1
0
LINE
5
A8
100
AcDbEntity
8
1
62
256
6
ByLayer
370
18
48
1
60
1
100
AcDbLine
10
76.289216
20
0.699998
30
0
11
76.75
21
4.2
31
0
39
0
210
0
220
0
230
1
0
LINE
5
A9
100
AcDbEntity
8
1
62
256
6
ByLayer
370
18
48
1
60
1
100
AcDbLine
10
76.75
20
-4.2
30
0
11
76.289216
21
-0.700002
31
0
39
0
210
0
220
0
230
1
0
LINE
5
AA
100
AcDbEntity
8
1
62
256
6
ByLayer
370
18
48
1
60
1
100
AcDbLine
10
76.289216
20
-0.700002
30
0
11
77.210784
21
-0.699998
31
0
39
0
210
0
220
0
230
1
0
LINE
5
AB
100
AcDbEntity
8
1
62
256
6
ByLayer
370
18
48
1
60
1
100
AcDbLine
10
77.210784
20
-0.699998
30
0
11
76.75
21
-4.2
31
0
39
0
210
0
220
0
230
1
0
LINE
5
AC
100
AcDbEntity
8
SK2
62
256
6
ByLayer
370
13
48
1
60
0
100
AcDbLine
10
-48.25
20
-5
30
0
11
-48.25
21
22.056066
31
0
39
0
210
0
220
0
230
1
0
LINE
5
AE
100
AcDbEntity
8
SK2
62
256
6
ByLayer
370
13
48
1
60
0
100
AcDbLine
10
-41.5875
20
5
30
0
11
-50.25
21
5
31
0
39
0
210
0
220
0
230
1
0
LINE
5
AF
100
AcDbEntity
8
SK2
62
256
6
ByLayer
370
13
48
1
60
0
100
AcDbLine
10
-41.5875
20
-5
30
0
11
-50.25
21
-5
31
0
39
0
210
0
220
0
230
1
0
LINE
5
B0
100
AcDbEntity
8
1
62
256
6
ByLayer
370
18
48
1
60
1
100
AcDbLine
10
-48.25
20
5
30
0
11
-47.789216
21
1.500002
31
0
39
0
210
0
220
0
230
1
0
LINE
5
B1
100
AcDbEntity
8
1
62
256
6
ByLayer
370
18
48
1
60
1
100
AcDbLine
10
-47.789216
20
1.500002
30
0
11
-48.710784
21
1.499998
31
0
39
0
210
0
220
0
230
1
0
LINE
5
B2
100
AcDbEntity
8
1
62
256
6
ByLayer
370
18
48
1
60
1
100
AcDbLine
10
-48.710784
20
1.499998
30
0
11
-48.25
21
5
31
0
39
0
210
0
220
0
230
1
0
LINE
5
B3
100
AcDbEntity
8
1
62
256
6
ByLayer
370
18
48
1
60
1
100
AcDbLine
10
-48.25
20
-5
30
0
11
-48.710784
21
-1.500002
31
0
39
0
210
0
220
0
230
1
0
LINE
5
B4
100
AcDbEntity
8
1
62
256
6
ByLayer
370
18
48
1
60
1
100
AcDbLine
10
-48.710784
20
-1.500002
30
0
11
-47.789216
21
-1.499998
31
0
39
0
210
0
220
0
230
1
0
LINE
5
B5
100
AcDbEntity
8
1
62
256
6
ByLayer
370
18
48
1
60
1
100
AcDbLine
10
-47.789216
20
-1.499998
30
0
11
-48.25
21
-5
31
0
39
0
210
0
220
0
230
1
0
LINE
5
B6
100
AcDbEntity
8
SK2
62
256
6
ByLayer
370
13
48
1
60
0
100
AcDbLine
10
63.543059
20
1.491725
30
0
11
74.865546
21
32.593391
31
0
39
0
210
0
220
0
230
1
0
LINE
5
B7
100
AcDbEntity
8
SK2
62
256
6
ByLayer
370
13
48
1
60
0
100
AcDbLine
10
63.543059
20
-1.491725
30
0
11
74.865546
21
-32.593391
31
0
39
0
210
0
220
0
230
1
0
LINE
5
B8
100
AcDbEntity
8
1
62
256
6
ByLayer
370
18
48
1
60
1
100
AcDbLine
10
74.181378
20
30.714052
30
0
11
77.606174
21
29.857853
31
0
39
0
210
0
220
0
230
1
0
LINE
5
B9
100
AcDbEntity
8
1
62
256
6
ByLayer
370
18
48
1
60
1
100
AcDbLine
10
77.606174
20
29.857853
30
0
11
77.267879
21
29.000623
31
0
39
0
210
0
220
0
230
1
0
LINE
5
BA
100
AcDbEntity
8
1
62
256
6
ByLayer
370
18
48
1
60
1
100
AcDbLine
10
77.267879
20
29.000623
30
0
11
74.181378
21
30.714052
31
0
39
0
210
0
220
0
230
1
0
LINE
5
BB
100
AcDbEntity
8
1
62
256
6
ByLayer
370
18
48
1
60
1
100
AcDbLine
10
74.181378
20
-30.714052
30
0
11
77.267876
21
-29.000624
31
0
39
0
210
0
220
0
230
1
0
LINE
5
BC
100
AcDbEntity
8
1
62
256
6
ByLayer
370
18
48
1
60
1
100
AcDbLine
10
77.267876
20
-29.000624
30
0
11
77.606177
21
-29.857852
31
0
39
0
210
0
220
0
230
1
0
LINE
5
BD
100
AcDbEntity
8
1
62
256
6
ByLayer
370
18
48
1
60
1
100
AcDbLine
10
77.606177
20
-29.857852
30
0
11
74.181378
21
-30.714052
31
0
39
0
210
0
220
0
230
1
0
LINE
5
10F
100
AcDbEntity
8
1
62
256
6
ByLayer
370
13
48
0.05
60
0
100
AcDbLine
10
-46.5
20
0
30
0
11
68.018822
21
0
31
0
39
0
210
0
220
0
230
1
0
LINE
5
114
100
AcDbEntity
8
1
62
256
6
ByLayer
370
18
48
1
60
1
100
AcDbLine
10
76.75
20
4.2
30
0
11
77.210784
21
0.700002
31
0
39
0
210
0
220
0
230
1
0
LINE
5
115
100
AcDbEntity
8
1
62
256
6
ByLayer
370
18
48
1
60
1
100
AcDbLine
10
77.210784
20
0.700002
30
0
11
76.289216
21
0.699998
31
0
39
0
210
0
220
0
230
1
0
LINE
5
116
100
AcDbEntity
8
1
62
256
6
ByLayer
370
18
48
1
60
1
100
AcDbLine
10
76.289216
20
0.699998
30
0
11
76.75
21
4.2
31
0
39
0
210
0
220
0
230
1
0
LINE
5
118
100
AcDbEntity
8
1
62
256
6
ByLayer
370
18
48
1
60
1
100
AcDbLine
10
76.75
20
-4.2
30
0
11
76.289216
21
-0.700002
31
0
39
0
210
0
220
0
230
1
0
LINE
5
119
100
AcDbEntity
8
1
62
256
6
ByLayer
370
18
48
1
60
1
100
AcDbLine
10
76.289216
20
-0.700002
30
0
11
77.210784
21
-0.699998
31
0
39
0
210
0
220
0
230
1
0
LINE
5
11A
100
AcDbEntity
8
1
62
256
6
ByLayer
370
18
48
1
60
1
100
AcDbLine
10
77.210784
20
-0.699998
30
0
11
76.75
21
-4.2
31
0
39
0
210
0
220
0
230
1
0
LINE
5
11E
100
AcDbEntity
8
1
62
256
6
ByLayer
370
18
48
1
60
1
100
AcDbLine
10
-48.25
20
5
30
0
11
-47.789216
21
1.500002
31
0
39
0
210
0
220
0
230
1
0
LINE
5
11F
100
AcDbEntity
8
1
62
256
6
ByLayer
370
18
48
1
60
1
100
AcDbLine
10
-47.789216
20
1.500002
30
0
11
-48.710784
21
1.499998
31
0
39
0
210
0
220
0
230
1
0
LINE
5
120
100
AcDbEntity
8
1
62
256
6
ByLayer
370
18
48
1
60
1
100
AcDbLine
10
-48.710784
20
1.499998
30
0
11
-48.25
21
5
31
0
39
0
210
0
220
0
230
1
0
LINE
5
122
100
AcDbEntity
8
1
62
256
6
ByLayer
370
18
48
1
60
1
100
AcDbLine
10
-48.25
20
-5
30
0
11
-48.710784
21
-1.500002
31
0
39
0
210
0
220
0
230
1
0
LINE
5
123
100
AcDbEntity
8
1
62
256
6
ByLayer
370
18
48
1
60
1
100
AcDbLine
10
-48.710784
20
-1.500002
30
0
11
-47.789216
21
-1.499998
31
0
39
0
210
0
220
0
230
1
0
LINE
5
124
100
AcDbEntity
8
1
62
256
6
ByLayer
370
18
48
1
60
1
100
AcDbLine
10
-47.789216
20
-1.499998
30
0
11
-48.25
21
-5
31
0
39
0
210
0
220
0
230
1
0
LINE
5
127
100
AcDbEntity
8
1
62
256
6
ByLayer
370
18
48
1
60
1
100
AcDbLine
10
74.181378
20
30.714052
30
0
11
77.606174
21
29.857853
31
0
39
0
210
0
220
0
230
1
0
LINE
5
128
100
AcDbEntity
8
1
62
256
6
ByLayer
370
18
48
1
60
1
100
AcDbLine
10
77.606174
20
29.857853
30
0
11
77.267879
21
29.000623
31
0
39
0
210
0
220
0
230
1
0
LINE
5
129
100
AcDbEntity
8
1
62
256
6
ByLayer
370
18
48
1
60
1
100
AcDbLine
10
77.267879
20
29.000623
30
0
11
74.181378
21
30.714052
31
0
39
0
210
0
220
0
230
1
0
LINE
5
12B
100
AcDbEntity
8
1
62
256
6
ByLayer
370
18
48
1
60
1
100
AcDbLine
10
74.181378
20
-30.714052
30
0
11
77.267876
21
-29.000624
31
0
39
0
210
0
220
0
230
1
0
LINE
5
12C
100
AcDbEntity
8
1
62
256
6
ByLayer
370
18
48
1
60
1
100
AcDbLine
10
77.267876
20
-29.000624
30
0
11
77.606177
21
-29.857852
31
0
39
0
210
0
220
0
230
1
0
LINE
5
12D
100
AcDbEntity
8
1
62
256
6
ByLayer
370
18
48
1
60
1
100
AcDbLine
10
77.606177
20
-29.857852
30
0
11
74.181378
21
-30.714052
31
0
39
0
210
0
220
0
230
1
0
MTEXT
5
110
100
AcDbEntity
8
2
62
256
6
ByLayer
370
18
48
1
60
0
100
AcDbMText
10
75.185366
20
8.134844
30
0
210
0
220
0
230
1
1
%%c
40
3.5
41
0
44
1.084337
50
90
71
7
72
5
7
iso_b_vert
0
MTEXT
5
113
100
AcDbEntity
8
2
62
256
6
ByLayer
370
18
48
1
60
0
100
AcDbMText
10
75.185366
20
15.1075
30
0
210
0
220
0
230
1
1
\W0.7451;8.4
40
3.5
41
0
44
1.084337
50
90
71
7
72
5
7
iso_b_vert
0
MTEXT
5
11C
100
AcDbEntity
8
SK2
62
256
6
ByLayer
370
18
48
1
60
0
100
AcDbMText
10
-49.814634
20
11.934844
30
0
210
0
220
0
230
1
1
%%c
40
3.5
41
0
44
1.084337
50
90
71
7
72
5
7
iso_b_vert
0
MTEXT
5
11D
100
AcDbEntity
8
SK2
62
256
6
ByLayer
370
18
48
1
60
0
100
AcDbMText
10
-49.814634
20
18.9075
30
0
210
0
220
0
230
1
1
\W0.5321;10
40
3.5
41
0
44
1.084337
50
90
71
7
72
5
7
iso_b_vert
0
MTEXT
5
126
100
AcDbEntity
8
SK2
62
256
6
ByLayer
370
18
48
1
60
0
100
AcDbMText
10
91.614375
20
-2.467366
30
0
210
0
220
0
230
1
1
\W0.7825;140%%d
40
3.5
41
0
44
1.084337
50
0
71
7
72
5
7
iso_b_vert
0
MTEXT
5
12F
100
AcDbEntity
8
SK6
62
256
6
ByLayer
370
18
48
1
60
0
100
AcDbMText
10
-18.290616
20
-97.467366
30
0
210
0
220
0
230
1
1
\W0.7593;860.1-0840-049A1-MM M2BM
40
3.5
41
0
44
1.084337
50
0
71
7
72
5
7
iso_b_vert
0
HATCH
5
117
100
AcDbEntity
8
2
62
256
6
ByLayer
370
13
48
1
60
0
100
AcDbHatch
10
0
20
0
30
0
210
0
220
0
230
1
2
ANSI31
70
0
71
0
91
1
92
5
93
3
72
1
10
76.75
20
4.20000000000002
11
77.2107837415528
21
0.700001692553201
72
1
10
77.2107837415528
20
0.700001692553201
11
76.2892162584472
21
0.699998307446833
72
1
10
76.2892162584472
20
0.699998307446833
11
76.75
21
4.20000000000002
97
0
75
0
76
1
52
0
41
0.0062
77
0
78
1
53
45
43
0
44
0
45
-0.0139193969876572
46
0.0139193969876572
79
0
47
0
98
1
10
0
20
0
0
HATCH
5
11B
100
AcDbEntity
8
2
62
256
6
ByLayer
370
13
48
1
60
0
100
AcDbHatch
10
0
20
0
30
0
210
0
220
0
230
1
2
ANSI31
70
0
71
0
91
1
92
5
93
3
72
1
10
76.75
20
-4.19999999999999
11
76.2892162584472
21
-0.700001692553172
72
1
10
76.2892162584472
20
-0.700001692553172
11
77.2107837415528
21
-0.699998307446805
72
1
10
77.2107837415528
20
-0.699998307446805
11
76.75
21
-4.19999999999999
97
0
75
0
76
1
52
0
41
0.0062
77
0
78
1
53
45
43
0
44
0
45
-0.0139193969876572
46
0.0139193969876572
79
0
47
0
98
1
10
0
20
0
0
HATCH
5
121
100
AcDbEntity
8
SK2
62
256
6
ByLayer
370
13
48
1
60
0
100
AcDbHatch
10
0
20
0
30
0
210
0
220
0
230
1
2
ANSI31
70
0
71
0
91
1
92
5
93
3
72
1
10
-48.25
20
5
11
-47.7892162584472
21
1.50000169255318
72
1
10
-47.7892162584472
20
1.50000169255318
11
-48.7107837415528
21
1.49999830744682
72
1
10
-48.7107837415528
20
1.49999830744682
11
-48.25
21
5
97
0
75
0
76
1
52
0
41
0.0062
77
0
78
1
53
45
43
0
44
0
45
-0.0139193969876572
46
0.0139193969876572
79
0
47
0
98
1
10
0
20
0
0
HATCH
5
125
100
AcDbEntity
8
SK2
62
256
6
ByLayer
370
13
48
1
60
0
100
AcDbHatch
10
0
20
0
30
0
210
0
220
0
230
1
2
ANSI31
70
0
71
0
91
1
92
5
93
3
72
1
10
-48.25
20
-5
11
-48.7107837415528
21
-1.50000169255318
72
1
10
-48.7107837415528
20
-1.50000169255318
11
-47.7892162584472
21
-1.49999830744682
72
1
10
-47.7892162584472
20
-1.49999830744682
11
-48.25
21
-5
97
0
75
0
76
1
52
0
41
0.0062
77
0
78
1
53
45
43
0
44
0
45
-0.0139193969876572
46
0.0139193969876572
79
0
47
0
98
1
10
0
20
0
0
HATCH
5
12A
100
AcDbEntity
8
SK2
62
256
6
ByLayer
370
13
48
1
60
0
100
AcDbHatch
10
0
20
0
30
0
210
0
220
0
230
1
2
ANSI31
70
0
71
0
91
1
92
5
93
3
72
1
10
74.1813775879604
20
30.7140522363811
11
77.6061742689546
21
29.857852783881
72
1
10
77.6061742689546
20
29.857852783881
11
77.267879361533
21
29.000622837168
72
1
10
77.267879361533
20
29.000622837168
11
74.1813775879604
21
30.7140522363811
97
0
75
0
76
1
52
0
41
0.0062
77
0
78
1
53
45
43
0
44
0
45
-0.0139193969876572
46
0.0139193969876572
79
0
47
0
98
1
10
0
20
0
0
HATCH
5
12E
100
AcDbEntity
8
SK2
62
256
6
ByLayer
370
13
48
1
60
0
100
AcDbHatch
10
0
20
0
30
0
210
0
220
0
230
1
2
ANSI31
70
0
71
0
91
1
92
5
93
3
72
1
10
74.1813775879604
20
-30.7140522363811
11
77.2678762127562
21
-29.0006240798061
72
1
10
77.2678762127562
20
-29.0006240798061
11
77.6061774177314
21
-29.8578515412428
72
1
10
77.6061774177314
20
-29.8578515412428
11
74.1813775879604
21
-30.7140522363811
97
0
75
0
76
1
52
0
41
0.0062
77
0
78
1
53
45
43
0
44
0
45
-0.0139193969876572
46
0.0139193969876572
79
0
47
0
98
1
10
0
20
0
0
DIMENSION
5
132
100
AcDbEntity
8
2
62
256
6
ByLayer
370
18
48
1
60
0
100
AcDbDimension
2
_U0
10
63
20
-63.21828
30
0
11
11.5
21
-63.21828
31
0
70
32
71
1
72
1
41
1
210
0
220
0
230
1
3
Standard
100
AcDbAlignedDimension
13
-40
23
-5
33
0
14
63
24
-4.2
34
0
50
0
100
AcDbRotatedDimension
1001
ACAD
1000
DSTYLE
1002
{
1070
   371
1070
    13
1070
   372
1070
    13
1070
     3
1000

1070
   170
1070
     0
1070
   144
1040
1.0
1070
   277
1070
     2
1070
   284
1070
     8
1070
   278
1070
    46
1070
   146
1040
1.0
1070
   345
1005
16
1070
   347
1005
16
1070
   346
1005
16
1070
   344
1005
0
1070
   343
1005
0
1070
   172
1070
     1
1070
    76
1070
     0
1070
    75
1070
     0
1070
   282
1070
     0
1070
   281
1070
     0
1070
    71
1070
     0
1070
    74
1070
     0
1070
   279
1070
     0
1070
   173
1070
     1
1070
   340
1005
111
1070
   271
1070
     2
1070
   272
1070
     2
1070
    77
1070
     1
1070
    73
1070
     1
1070
   171
1070
     3
1070
   274
1070
     4
1070
   177
1070
     2
1070
   176
1070
     2
1070
   178
1070
     2
1070
    78
1070
     8
1070
    48
1040
-0.1
1070
    41
1040
3.5
1070
   147
1040
1.75
1070
    42
1040
1.5875
1070
    44
1040
2.0
1070
   140
1040
3.5
1002
}
1001
ACAD_DSTYLE_DIM_LINETYPE
1070
   380
1005
16
1001
ACAD_DSTYLE_DIM_EXT1_LINETYPE
1070
   381
1005
16
1001
ACAD_DSTYLE_DIM_EXT2_LINETYPE
1070
   382
1005
16
0
DIMENSION
5
14B
100
AcDbEntity
8
SK2
62
256
6
ByLayer
370
18
48
1
60
0
100
AcDbDimension
2
_U1
10
2
20
-43.21828
30
0
11
32.5
21
-43.21828
31
0
70
32
71
1
72
1
41
1
210
0
220
0
230
1
3
Standard
100
AcDbAlignedDimension
13
63
23
-4.2
33
0
14
2
24
-4.2
34
0
50
0
100
AcDbRotatedDimension
1001
ACAD
1000
DSTYLE
1002
{
1070
   371
1070
    13
1070
   372
1070
    13
1070
     3
1000

1070
   170
1070
     0
1070
   144
1040
1.0
1070
   277
1070
     2
1070
   284
1070
     8
1070
   278
1070
    46
1070
   146
1040
1.0
1070
   345
1005
16
1070
   347
1005
16
1070
   346
1005
16
1070
   344
1005
0
1070
   343
1005
0
1070
   172
1070
     1
1070
    76
1070
     0
1070
    75
1070
     0
1070
   282
1070
     0
1070
   281
1070
     0
1070
    71
1070
     0
1070
    74
1070
     0
1070
   279
1070
     0
1070
   173
1070
     1
1070
   340
1005
111
1070
   271
1070
     2
1070
   272
1070
     2
1070
    77
1070
     1
1070
    73
1070
     1
1070
   171
1070
     3
1070
   274
1070
     4
1070
   177
1070
     2
1070
   176
1070
     2
1070
   178
1070
     2
1070
    78
1070
     8
1070
    48
1040
-0.1
1070
    41
1040
3.5
1070
   147
1040
1.75
1070
    42
1040
1.5875
1070
    44
1040
2.0
1070
   140
1040
3.5
1002
}
1001
ACAD_DSTYLE_DIM_LINETYPE
1070
   380
1005
16
1001
ACAD_DSTYLE_DIM_EXT1_LINETYPE
1070
   381
1005
16
1001
ACAD_DSTYLE_DIM_EXT2_LINETYPE
1070
   382
1005
16
0
DIMENSION
5
163
100
AcDbEntity
8
SK2
62
256
6
ByLayer
370
18
48
1
60
0
100
AcDbDimension
2
_U2
10
14
20
-33.21828
30
0
11
38.5
21
-33.21828
31
0
70
32
71
1
72
1
41
1
210
0
220
0
230
1
3
Standard
100
AcDbAlignedDimension
13
63
23
-4.2
33
0
14
14
24
-4.2
34
0
50
0
100
AcDbRotatedDimension
1001
ACAD
1000
DSTYLE
1002
{
1070
   371
1070
    13
1070
   372
1070
    13
1070
     3
1000

1070
   170
1070
     0
1070
   144
1040
1.0
1070
   277
1070
     2
1070
   284
1070
     8
1070
   278
1070
    46
1070
   146
1040
1.0
1070
   345
1005
16
1070
   347
1005
16
1070
   346
1005
16
1070
   344
1005
0
1070
   343
1005
0
1070
   172
1070
     1
1070
    76
1070
     0
1070
    75
1070
     0
1070
   282
1070
     0
1070
   281
1070
     0
1070
    71
1070
     0
1070
    74
1070
     0
1070
   279
1070
     0
1070
   173
1070
     1
1070
   340
1005
111
1070
   271
1070
     2
1070
   272
1070
     2
1070
    77
1070
     1
1070
    73
1070
     1
1070
   171
1070
     3
1070
   274
1070
     4
1070
   177
1070
     2
1070
   176
1070
     2
1070
   178
1070
     2
1070
    78
1070
     8
1070
    48
1040
-0.1
1070
    41
1040
3.5
1070
   147
1040
1.75
1070
    42
1040
1.5875
1070
    44
1040
2.0
1070
   140
1040
3.5
1002
}
1001
ACAD_DSTYLE_DIM_LINETYPE
1070
   380
1005
16
1001
ACAD_DSTYLE_DIM_EXT1_LINETYPE
1070
   381
1005
16
1001
ACAD_DSTYLE_DIM_EXT2_LINETYPE
1070
   382
1005
16
0
DIMENSION
5
17D
100
AcDbEntity
8
SK2
62
256
6
ByLayer
370
18
48
1
60
0
100
AcDbDimension
2
_U3
10
0
20
-43.21828
30
0
11
-20
21
-43.21828
31
0
70
32
71
1
72
1
41
1
210
0
220
0
230
1
3
Standard
100
AcDbAlignedDimension
13
-40
23
-5
33
0
14
0
24
-5
34
0
50
0
100
AcDbRotatedDimension
1001
ACAD
1000
DSTYLE
1002
{
1070
   371
1070
    13
1070
   372
1070
    13
1070
     3
1000

1070
   170
1070
     0
1070
   144
1040
1.0
1070
   277
1070
     2
1070
   284
1070
     8
1070
   278
1070
    46
1070
   146
1040
1.0
1070
   345
1005
16
1070
   347
1005
16
1070
   346
1005
16
1070
   344
1005
0
1070
   343
1005
0
1070
   172
1070
     1
1070
    76
1070
     0
1070
    75
1070
     0
1070
   282
1070
     0
1070
   281
1070
     0
1070
    71
1070
     0
1070
    74
1070
     0
1070
   279
1070
     0
1070
   173
1070
     1
1070
   340
1005
111
1070
   271
1070
     2
1070
   272
1070
     2
1070
    77
1070
     1
1070
    73
1070
     1
1070
   171
1070
     3
1070
   274
1070
     4
1070
   177
1070
     2
1070
   176
1070
     2
1070
   178
1070
     2
1070
    78
1070
     8
1070
    48
1040
-0.1
1070
    41
1040
3.5
1070
   147
1040
1.75
1070
    42
1040
1.5875
1070
    44
1040
2.0
1070
   140
1040
3.5
1002
}
1001
ACAD_DSTYLE_DIM_LINETYPE
1070
   380
1005
16
1001
ACAD_DSTYLE_DIM_EXT1_LINETYPE
1070
   381
1005
16
1001
ACAD_DSTYLE_DIM_EXT2_LINETYPE
1070
   382
1005
16
0
DIMENSION
5
195
100
AcDbEntity
8
SK2
62
256
6
ByLayer
370
18
48
1
60
0
100
AcDbDimension
2
_U4
10
63
20
-53.21828
30
0
11
31.5
21
-53.21828
31
0
70
32
71
1
72
1
41
1
210
0
220
0
230
1
3
Standard
100
AcDbAlignedDimension
13
0
23
-5
33
0
14
63
24
-4.2
34
0
50
0
100
AcDbRotatedDimension
1001
ACAD
1000
DSTYLE
1002
{
1070
   371
1070
    13
1070
   372
1070
    13
1070
     3
1000

1070
   170
1070
     0
1070
   144
1040
1.0
1070
   277
1070
     2
1070
   284
1070
     8
1070
   278
1070
    46
1070
   146
1040
1.0
1070
   345
1005
16
1070
   347
1005
16
1070
   346
1005
16
1070
   344
1005
0
1070
   343
1005
0
1070
   172
1070
     1
1070
    76
1070
     0
1070
    75
1070
     0
1070
   282
1070
     0
1070
   281
1070
     0
1070
    71
1070
     0
1070
    74
1070
     0
1070
   279
1070
     0
1070
   173
1070
     1
1070
   340
1005
111
1070
   271
1070
     2
1070
   272
1070
     2
1070
    77
1070
     1
1070
    73
1070
     1
1070
   171
1070
     3
1070
   274
1070
     4
1070
   177
1070
     2
1070
   176
1070
     2
1070
   178
1070
     2
1070
    78
1070
     8
1070
    48
1040
-0.1
1070
    41
1040
3.5
1070
   147
1040
1.75
1070
    42
1040
1.5875
1070
    44
1040
2.0
1070
   140
1040
3.5
1002
}
1001
ACAD_DSTYLE_DIM_LINETYPE
1070
   380
1005
16
1001
ACAD_DSTYLE_DIM_EXT1_LINETYPE
1070
   381
1005
16
1001
ACAD_DSTYLE_DIM_EXT2_LINETYPE
1070
   382
1005
16
0
ENDSEC
0
SECTION
2
OBJECTS
0
DICTIONARY
5
21d
330
0
100
AcDbDictionary
280
0
281
1
3
ACAD_GROUP
350
21e
3
ACAD_MLINESTYLE
350
21f
0
DICTIONARY
5
21e
330
0
100
AcDbDictionary
280
0
281
1
0
DICTIONARY
5
21f
330
0
100
AcDbDictionary
280
0
281
1
3
Standard
350
18
0
MLINESTYLE
5
18
330
21f
100
AcDbMlineStyle
2
Standard
70
0
3

62
256
51
90
52
90
71
2
49
-0.5
62
256
6
ByLayer
49
0.5
62
256
6
ByLayer
0
RASTERVARIABLES
5
20b
330

100
AcDbRasterVariables
90
0
70
1
71
1
72
1
0
ENDSEC
0
EOF
