0
SECTION
2
HEADER
9
$ACADVER
1
AC1015
9
$DWGCODEPAGE
3
ANSI_1252
9
$HANDSEED
5
248
9
$ANGBASE
50
0
9
$ANGDIR
70
0
9
$ATTMODE
70
1
9
$AUNITS
70
0
9
$AUPREC
70
0
9
$CECOLOR
62
256
9
$CELTSCALE
40
1
9
$CELTYPE
6
ByLayer
9
$CELWEIGHT
370
18
9
$CLAYER
8
0
9
$CMLJUST
70
0
9
$CMLSCALE
40
1
9
$CMLSTYLE
2
Standard
9
$DIMSTYLE
2
Standard
9
$TEXTSIZE
40
0.2
9
$TEXTSTYLE
7
Standard
9
$LUNITS
70
2
9
$LUPREC
70
4
9
$EXTNAMES
290
1
9
$INSUNITS
70
4
9
$LTSCALE
40
1
9
$LWDISPLAY
290
1
9
$PDMODE
70
0
9
$PDSIZE
40
0
9
$PLINEGEN
70
0
0
ENDSEC
0
SECTION
2
CLASSES
0
CLASS
1
RASTERVARIABLES
2
AcDbRasterVariables
3
ISM
90
0
280
0
281
0
0
ENDSEC
0
SECTION
2
TABLES
0
TABLE
2
VPORT
5
23e
100
AcDbSymbolTable
0
VPORT
5
1
100
AcDbSymbolTableRecord
100
AcDbViewportTableRecord
2
*Active
70
0
10
0
20
0
11
1
21
1
12
-1
22
1
13
0
23
0
14
0.5
24
0.5
15
10
25
10
16
0
26
0
36
1
17
0
27
0
37
0
0
ENDTAB
0
TABLE
2
LTYPE
5
23f
100
AcDbSymbolTable
0
LTYPE
5
14
100
AcDbSymbolTableRecord
100
AcDbLinetypeTableRecord
70
0
2
ByBlock
3

72
65
73
0
40
0
0
LTYPE
5
15
100
AcDbSymbolTableRecord
100
AcDbLinetypeTableRecord
70
0
2
ByLayer
3

72
65
73
0
40
0
0
LTYPE
5
16
100
AcDbSymbolTableRecord
100
AcDbLinetypeTableRecord
70
0
2
Continuous
3
Solid line
72
65
73
0
40
0
0
LTYPE
5
6E
100
AcDbSymbolTableRecord
100
AcDbLinetypeTableRecord
70
0
2
CENTER
3
____ _ ____ _ ____ _ ____
72
65
73
4
40
47.5
49
22
74
0
49
-8.5
74
0
49
8.5
74
0
49
-8.5
74
0
0
LTYPE
5
6F
100
AcDbSymbolTableRecord
100
AcDbLinetypeTableRecord
70
0
2
DASHED
3
__ __ __ __ __ __ __ __ __
72
65
73
2
40
25.72
49
12.86
74
0
49
-12.86
74
0
0
ENDTAB
0
TABLE
2
LAYER
5
240
100
AcDbSymbolTable
0
LAYER
5
10
100
AcDbSymbolTableRecord
100
AcDbLayerTableRecord
2
0
70
0
62
7
6
Continuous
290
1
370
-3
390
0
0
LAYER
5
71
100
AcDbSymbolTableRecord
100
AcDbLayerTableRecord
2
81
70
0
62
-3
6
Continuous
290
1
370
-3
390
0
0
LAYER
5
73
100
AcDbSymbolTableRecord
100
AcDbLayerTableRecord
2
80
70
0
62
-6
6
Continuous
290
1
370
-3
390
0
0
LAYER
5
75
100
AcDbSymbolTableRecord
100
AcDbLayerTableRecord
2
1
70
0
62
4
6
Continuous
290
1
370
-3
390
0
0
LAYER
5
83
100
AcDbSymbolTableRecord
100
AcDbLayerTableRecord
2
4
70
0
62
-2
6
CENTER
290
1
370
-3
390
0
0
LAYER
5
A3
100
AcDbSymbolTableRecord
100
AcDbLayerTableRecord
2
2
70
0
62
7
6
Continuous
290
1
370
-3
390
0
0
LAYER
5
153
100
AcDbSymbolTableRecord
100
AcDbLayerTableRecord
2
Defpoints
70
0
62
7
6
Continuous
290
0
370
-3
390
0
0
LAYER
5
22a
100
AcDbSymbolTableRecord
100
AcDbLayerTableRecord
2
SK4
70
0
62
2
6
CENTER
290
1
370
-3
390
0
0
LAYER
5
22b
100
AcDbSymbolTableRecord
100
AcDbLayerTableRecord
2
SK1
70
0
62
4
6
Continuous
290
1
370
-3
390
0
0
LAYER
5
22c
100
AcDbSymbolTableRecord
100
AcDbLayerTableRecord
2
SK2
70
0
62
7
6
Continuous
290
1
370
-3
390
0
0
LAYER
5
22d
100
AcDbSymbolTableRecord
100
AcDbLayerTableRecord
2
SK6
70
0
62
5
6
Continuous
290
1
370
-3
390
0
0
ENDTAB
0
TABLE
2
STYLE
5
241
100
AcDbSymbolTable
0
STYLE
5
11
100
AcDbSymbolTableRecord
100
AcDbTextStyleTableRecord
2
Standard
3
txt
70
0
71
0
40
0
41
1
42
0
50
0
0
STYLE
5
12F
100
AcDbSymbolTableRecord
100
AcDbTextStyleTableRecord
2
iso_b_vert
3
simplex.shx
70
0
71
0
40
0
41
1
42
0
50
0
0
STYLE
5
130
100
AcDbSymbolTableRecord
100
AcDbTextStyleTableRecord
2
DWGDirectTextStyle
3
simplex
70
0
71
0
40
0
41
1
42
0
50
0
0
ENDTAB
0
TABLE
2
DIMSTYLE
5
242
100
AcDbSymbolTable
100
AcDbDimStyleTable
0
DIMSTYLE
105
27
100
AcDbSymbolTableRecord
100
AcDbDimStyleTableRecord
2
Standard
70
0
3
<>
41
0.18
42
0.0625
44
0.18
140
0.18
147
0.09
73
0
74
0
77
1
271
2
275
0
278
52
280
0
340
11
0
ENDTAB
0
TABLE
2
VIEW
5
243
100
AcDbSymbolTable
0
ENDTAB
0
TABLE
2
UCS
5
244
100
AcDbSymbolTable
0
ENDTAB
0
TABLE
2
APPID
5
245
100
AcDbSymbolTable
0
APPID
5
12
100
AcDbSymbolTableRecord
100
AcDbRegAppTableRecord
2
ACAD
70
0
0
APPID
5
14F
100
AcDbSymbolTableRecord
100
AcDbRegAppTableRecord
2
ACAD_DSTYLE_DIMBREAK
70
0
0
APPID
5
1E9
100
AcDbSymbolTableRecord
100
AcDbRegAppTableRecord
2
ACAD_DSTYLE_DIM_LINETYPE
70
0
0
APPID
5
1EA
100
AcDbSymbolTableRecord
100
AcDbRegAppTableRecord
2
ACAD_DSTYLE_DIM_EXT1_LINETYPE
70
0
0
APPID
5
1EB
100
AcDbSymbolTableRecord
100
AcDbRegAppTableRecord
2
ACAD_DSTYLE_DIM_EXT2_LINETYPE
70
0
0
APPID
5
226
100
AcDbSymbolTableRecord
100
AcDbRegAppTableRecord
2
ACAD_MLEADERVER
70
0
0
ENDTAB
0
TABLE
2
BLOCK_RECORD
5
246
100
AcDbSymbolTable
0
BLOCK_RECORD
5
1F
100
AcDbSymbolTableRecord
100
AcDbBlockTableRecord
2
*Model_Space
340
0
70
0
0
BLOCK_RECORD
5
1B
100
AcDbSymbolTableRecord
100
AcDbBlockTableRecord
2
*Paper_Space
340
0
70
0
0
BLOCK_RECORD
5
23
100
AcDbSymbolTableRecord
100
AcDbBlockTableRecord
2
*Paper_Space0
340
0
70
0
0
BLOCK_RECORD
5
154
100
AcDbSymbolTableRecord
100
AcDbBlockTableRecord
2
*D1
340
0
70
0
0
BLOCK_RECORD
5
160
100
AcDbSymbolTableRecord
100
AcDbBlockTableRecord
2
_U0
340
0
70
0
0
BLOCK_RECORD
5
16C
100
AcDbSymbolTableRecord
100
AcDbBlockTableRecord
2
*D3
340
0
70
0
0
BLOCK_RECORD
5
178
100
AcDbSymbolTableRecord
100
AcDbBlockTableRecord
2
_U1
340
0
70
0
0
BLOCK_RECORD
5
184
100
AcDbSymbolTableRecord
100
AcDbBlockTableRecord
2
*D5
340
0
70
0
0
BLOCK_RECORD
5
190
100
AcDbSymbolTableRecord
100
AcDbBlockTableRecord
2
_U2
340
0
70
0
0
BLOCK_RECORD
5
19E
100
AcDbSymbolTableRecord
100
AcDbBlockTableRecord
2
*D7
340
0
70
0
0
BLOCK_RECORD
5
1AA
100
AcDbSymbolTableRecord
100
AcDbBlockTableRecord
2
_U3
340
0
70
0
0
BLOCK_RECORD
5
1B6
100
AcDbSymbolTableRecord
100
AcDbBlockTableRecord
2
*D9
340
0
70
0
0
BLOCK_RECORD
5
1C2
100
AcDbSymbolTableRecord
100
AcDbBlockTableRecord
2
_U4
340
0
70
0
0
ENDTAB
0
ENDSEC
0
SECTION
2
BLOCKS
0
BLOCK
5
20
100
AcDbEntity
8
0
100
AcDbBlockBegin
2
*Model_Space
70
0
10
0
20
0
30
0
3
*Model_Space
0
ENDBLK
5
21
100
AcDbEntity
8
0
100
AcDbBlockEnd
0
BLOCK
5
1C
100
AcDbEntity
8
0
100
AcDbBlockBegin
2
*Paper_Space
70
0
10
0
20
0
30
0
3
*Paper_Space
0
ENDBLK
5
1D
100
AcDbEntity
8
0
100
AcDbBlockEnd
0
BLOCK
5
24
100
AcDbEntity
8
0
100
AcDbBlockBegin
2
*Paper_Space0
70
0
10
0
20
0
30
0
3
*Paper_Space0
0
ENDBLK
5
25
100
AcDbEntity
8
0
100
AcDbBlockEnd
0
BLOCK
5
155
100
AcDbEntity
8
0
100
AcDbBlockBegin
2
*D1
70
1
10
0
20
0
30
0
3
*D1
0
LINE
5
157
100
AcDbEntity
8
0
62
256
6
ByLayer
370
-2
48
1
60
0
100
AcDbLine
10
-36
20
-5.5875
30
0
11
-36
21
-127.073344
31
0
39
0
210
0
220
0
230
1
0
LINE
5
158
100
AcDbEntity
8
0
62
256
6
ByLayer
370
-2
48
1
60
0
100
AcDbLine
10
55
20
-5.1375
30
0
11
55
21
-127.073344
31
0
39
0
210
0
220
0
230
1
0
LINE
5
159
100
AcDbEntity
8
0
62
256
6
ByLayer
370
-2
48
1
60
0
100
AcDbLine
10
-32.5
20
-125.073344
30
0
11
51.5
21
-125.073344
31
0
39
0
210
0
220
0
230
1
0
SOLID
5
15A
100
AcDbEntity
8
0
62
256
6
ByLayer
370
-1
48
1
60
0
100
AcDbTrace
10
-32.5
20
-124.490011
30
0
11
-32.5
21
-125.656677
31
0
12
-36
22
-125.073344
32
0
13
-36
23
-125.073344
33
0
39
0
210
0
220
0
230
1
0
SOLID
5
15B
100
AcDbEntity
8
0
62
256
6
ByLayer
370
-1
48
1
60
0
100
AcDbTrace
10
51.5
20
-125.656677
30
0
11
51.5
21
-124.490011
31
0
12
55
22
-125.073344
32
0
13
55
23
-125.073344
33
0
39
0
210
0
220
0
230
1
0
MTEXT
5
15C
100
AcDbEntity
8
0
62
256
6
ByLayer
370
18
48
1
60
0
100
AcDbMText
10
9.5
20
-118.073344
30
0
210
0
220
0
230
1
1
\A1;91
40
3.5
41
0
44
1
50
0
71
5
72
5
7
iso_b_vert
0
POINT
5
15D
100
AcDbEntity
8
Defpoints
62
0
6
ByLayer
370
-1
48
1
60
0
100
AcDbPoint
10
-36
20
-4
30
0
39
0
210
0
220
0
230
1
50
360
0
POINT
5
15E
100
AcDbEntity
8
Defpoints
62
0
6
ByLayer
370
-1
48
1
60
0
100
AcDbPoint
10
55
20
-3.55
30
0
39
0
210
0
220
0
230
1
50
360
0
POINT
5
15F
100
AcDbEntity
8
Defpoints
62
0
6
ByLayer
370
-1
48
1
60
0
100
AcDbPoint
10
55
20
-125.073344
30
0
39
0
210
0
220
0
230
1
50
360
0
ENDBLK
5
156
100
AcDbEntity
8
0
100
AcDbBlockEnd
0
BLOCK
5
167
100
AcDbEntity
8
0
100
AcDbBlockBegin
2
_U0
70
0
10
0
20
0
30
0
3
_U0
0
MTEXT
5
161
100
AcDbEntity
8
2
62
256
6
ByLayer
370
18
48
1
60
0
100
AcDbMText
10
8.032467
20
-124.04071
30
0
210
0
220
0
230
1
1
\W0.6351;91
40
3.5
41
0
44
1.084337
50
0
71
7
72
5
7
iso_b_vert
0
LINE
5
162
100
AcDbEntity
8
2
62
256
6
ByLayer
370
13
48
1
60
0
100
AcDbLine
10
-36
20
-5.5875
30
0
11
-36
21
-127.073344
31
0
39
0
210
0
220
0
230
1
0
LINE
5
163
100
AcDbEntity
8
2
62
256
6
ByLayer
370
13
48
1
60
0
100
AcDbLine
10
55
20
-5.1375
30
0
11
55
21
-127.073344
31
0
39
0
210
0
220
0
230
1
0
LINE
5
164
100
AcDbEntity
8
2
62
256
6
ByLayer
370
13
48
1
60
0
100
AcDbLine
10
-36
20
-125.073344
30
0
11
55
21
-125.073344
31
0
39
0
210
0
220
0
230
1
0
SOLID
5
165
100
AcDbEntity
8
2
62
256
6
ByLayer
370
18
48
1
60
0
100
AcDbTrace
10
-36
20
-125.073344
30
0
11
-32.500002
21
-124.61256
31
0
12
-32.499998
22
-125.534128
32
0
13
-32.499998
23
-125.534128
33
0
39
0
210
0
220
0
230
1
0
SOLID
5
166
100
AcDbEntity
8
2
62
256
6
ByLayer
370
18
48
1
60
0
100
AcDbTrace
10
55
20
-125.073344
30
0
11
51.500002
21
-125.534128
31
0
12
51.499998
22
-124.61256
32
0
13
51.499998
23
-124.61256
33
0
39
0
210
0
220
0
230
1
0
ENDBLK
5
168
100
AcDbEntity
8
0
100
AcDbBlockEnd
0
BLOCK
5
16D
100
AcDbEntity
8
0
100
AcDbBlockBegin
2
*D3
70
1
10
0
20
0
30
0
3
*D3
0
LINE
5
16F
100
AcDbEntity
8
0
62
256
6
ByLayer
370
-2
48
1
60
0
100
AcDbLine
10
55
20
-5.1375
30
0
11
55
21
-107.073344
31
0
39
0
210
0
220
0
230
1
0
LINE
5
170
100
AcDbEntity
8
0
62
256
6
ByLayer
370
-2
48
1
60
0
100
AcDbLine
10
2
20
-5.1375
30
0
11
2
21
-107.073344
31
0
39
0
210
0
220
0
230
1
0
LINE
5
171
100
AcDbEntity
8
0
62
256
6
ByLayer
370
-2
48
1
60
0
100
AcDbLine
10
51.5
20
-105.073344
30
0
11
5.5
21
-105.073344
31
0
39
0
210
0
220
0
230
1
0
SOLID
5
172
100
AcDbEntity
8
0
62
256
6
ByLayer
370
-1
48
1
60
0
100
AcDbTrace
10
51.5
20
-105.656677
30
0
11
51.5
21
-104.490011
31
0
12
55
22
-105.073344
32
0
13
55
23
-105.073344
33
0
39
0
210
0
220
0
230
1
0
SOLID
5
173
100
AcDbEntity
8
0
62
256
6
ByLayer
370
-1
48
1
60
0
100
AcDbTrace
10
5.5
20
-104.490011
30
0
11
5.5
21
-105.656677
31
0
12
2
22
-105.073344
32
0
13
2
23
-105.073344
33
0
39
0
210
0
220
0
230
1
0
MTEXT
5
174
100
AcDbEntity
8
0
62
256
6
ByLayer
370
18
48
1
60
0
100
AcDbMText
10
28.5
20
-98.073344
30
0
210
0
220
0
230
1
1
\A1;53
40
3.5
41
0
44
1
50
0
71
5
72
5
7
iso_b_vert
0
POINT
5
175
100
AcDbEntity
8
Defpoints
62
0
6
ByLayer
370
-1
48
1
60
0
100
AcDbPoint
10
55
20
-3.55
30
0
39
0
210
0
220
0
230
1
50
360
0
POINT
5
176
100
AcDbEntity
8
Defpoints
62
0
6
ByLayer
370
-1
48
1
60
0
100
AcDbPoint
10
2
20
-3.55
30
0
39
0
210
0
220
0
230
1
50
360
0
POINT
5
177
100
AcDbEntity
8
Defpoints
62
0
6
ByLayer
370
-1
48
1
60
0
100
AcDbPoint
10
2
20
-105.073344
30
0
39
0
210
0
220
0
230
1
50
360
0
ENDBLK
5
16E
100
AcDbEntity
8
0
100
AcDbBlockEnd
0
BLOCK
5
17F
100
AcDbEntity
8
0
100
AcDbBlockBegin
2
_U1
70
0
10
0
20
0
30
0
3
_U1
0
MTEXT
5
179
100
AcDbEntity
8
SK2
62
256
6
ByLayer
370
18
48
1
60
0
100
AcDbMText
10
26.595034
20
-104.04071
30
0
210
0
220
0
230
1
1
\W0.6740;53
40
3.5
41
0
44
1.084337
50
0
71
7
72
5
7
iso_b_vert
0
LINE
5
17A
100
AcDbEntity
8
SK2
62
256
6
ByLayer
370
13
48
1
60
0
100
AcDbLine
10
55
20
-5.1375
30
0
11
55
21
-107.073344
31
0
39
0
210
0
220
0
230
1
0
LINE
5
17B
100
AcDbEntity
8
SK2
62
256
6
ByLayer
370
13
48
1
60
0
100
AcDbLine
10
2
20
-5.1375
30
0
11
2
21
-107.073344
31
0
39
0
210
0
220
0
230
1
0
LINE
5
17C
100
AcDbEntity
8
SK2
62
256
6
ByLayer
370
13
48
1
60
0
100
AcDbLine
10
55
20
-105.073344
30
0
11
2
21
-105.073344
31
0
39
0
210
0
220
0
230
1
0
SOLID
5
17D
100
AcDbEntity
8
SK2
62
256
6
ByLayer
370
18
48
1
60
0
100
AcDbTrace
10
55
20
-105.073344
30
0
11
51.500002
21
-105.534128
31
0
12
51.499998
22
-104.61256
32
0
13
51.499998
23
-104.61256
33
0
39
0
210
0
220
0
230
1
0
SOLID
5
17E
100
AcDbEntity
8
SK2
62
256
6
ByLayer
370
18
48
1
60
0
100
AcDbTrace
10
2
20
-105.073344
30
0
11
5.499998
21
-104.61256
31
0
12
5.500002
22
-105.534128
32
0
13
5.500002
23
-105.534128
33
0
39
0
210
0
220
0
230
1
0
ENDBLK
5
180
100
AcDbEntity
8
0
100
AcDbBlockEnd
0
BLOCK
5
185
100
AcDbEntity
8
0
100
AcDbBlockBegin
2
*D5
70
1
10
0
20
0
30
0
3
*D5
0
LINE
5
187
100
AcDbEntity
8
0
62
256
6
ByLayer
370
-2
48
1
60
0
100
AcDbLine
10
55
20
-5.1375
30
0
11
55
21
-97.073344
31
0
39
0
210
0
220
0
230
1
0
LINE
5
188
100
AcDbEntity
8
0
62
256
6
ByLayer
370
-2
48
1
60
0
100
AcDbLine
10
12
20
-5.1375
30
0
11
12
21
-97.073344
31
0
39
0
210
0
220
0
230
1
0
LINE
5
189
100
AcDbEntity
8
0
62
256
6
ByLayer
370
-2
48
1
60
0
100
AcDbLine
10
51.5
20
-95.073344
30
0
11
15.5
21
-95.073344
31
0
39
0
210
0
220
0
230
1
0
SOLID
5
18A
100
AcDbEntity
8
0
62
256
6
ByLayer
370
-1
48
1
60
0
100
AcDbTrace
10
51.5
20
-95.656677
30
0
11
51.5
21
-94.490011
31
0
12
55
22
-95.073344
32
0
13
55
23
-95.073344
33
0
39
0
210
0
220
0
230
1
0
SOLID
5
18B
100
AcDbEntity
8
0
62
256
6
ByLayer
370
-1
48
1
60
0
100
AcDbTrace
10
15.5
20
-94.490011
30
0
11
15.5
21
-95.656677
31
0
12
12
22
-95.073344
32
0
13
12
23
-95.073344
33
0
39
0
210
0
220
0
230
1
0
MTEXT
5
18C
100
AcDbEntity
8
0
62
256
6
ByLayer
370
18
48
1
60
0
100
AcDbMText
10
33.5
20
-88.073344
30
0
210
0
220
0
230
1
1
\A1;43
40
3.5
41
0
44
1
50
0
71
5
72
5
7
iso_b_vert
0
POINT
5
18D
100
AcDbEntity
8
Defpoints
62
0
6
ByLayer
370
-1
48
1
60
0
100
AcDbPoint
10
55
20
-3.55
30
0
39
0
210
0
220
0
230
1
50
360
0
POINT
5
18E
100
AcDbEntity
8
Defpoints
62
0
6
ByLayer
370
-1
48
1
60
0
100
AcDbPoint
10
12
20
-3.55
30
0
39
0
210
0
220
0
230
1
50
360
0
POINT
5
18F
100
AcDbEntity
8
Defpoints
62
0
6
ByLayer
370
-1
48
1
60
0
100
AcDbPoint
10
12
20
-95.073344
30
0
39
0
210
0
220
0
230
1
50
360
0
ENDBLK
5
186
100
AcDbEntity
8
0
100
AcDbBlockEnd
0
BLOCK
5
199
100
AcDbEntity
8
0
100
AcDbBlockBegin
2
_U2
70
0
10
0
20
0
30
0
3
_U2
0
MTEXT
5
191
100
AcDbEntity
8
SK2
62
256
6
ByLayer
370
18
48
1
60
0
100
AcDbMText
10
31.410767
20
-94.04071
30
0
210
0
220
0
230
1
1
\W0.7361;43
40
3.5
41
0
44
1.084337
50
0
71
7
72
5
7
iso_b_vert
0
MTEXT
5
192
100
AcDbEntity
8
SK2
62
256
6
ByLayer
370
18
48
1
60
0
100
AcDbMText
10
27.542768
20
-94.04071
30
0
210
0
220
0
230
1
1
\W0.1790;(
40
3.5
41
0
44
1.084337
50
0
71
7
72
5
7
iso_b_vert
0
MTEXT
5
193
100
AcDbEntity
8
SK2
62
256
6
ByLayer
370
18
48
1
60
0
100
AcDbMText
10
39.460233
20
-94.04071
30
0
210
0
220
0
230
1
1
\W0.1969;)
40
3.5
41
0
44
1.084337
50
0
71
7
72
5
7
iso_b_vert
0
LINE
5
194
100
AcDbEntity
8
SK2
62
256
6
ByLayer
370
13
48
1
60
0
100
AcDbLine
10
55
20
-5.1375
30
0
11
55
21
-97.073344
31
0
39
0
210
0
220
0
230
1
0
LINE
5
195
100
AcDbEntity
8
SK2
62
256
6
ByLayer
370
13
48
1
60
0
100
AcDbLine
10
12
20
-5.1375
30
0
11
12
21
-97.073344
31
0
39
0
210
0
220
0
230
1
0
LINE
5
196
100
AcDbEntity
8
SK2
62
256
6
ByLayer
370
13
48
1
60
0
100
AcDbLine
10
55
20
-95.073344
30
0
11
12
21
-95.073344
31
0
39
0
210
0
220
0
230
1
0
SOLID
5
197
100
AcDbEntity
8
SK2
62
256
6
ByLayer
370
18
48
1
60
0
100
AcDbTrace
10
55
20
-95.073344
30
0
11
51.500002
21
-95.534128
31
0
12
51.499998
22
-94.61256
32
0
13
51.499998
23
-94.61256
33
0
39
0
210
0
220
0
230
1
0
SOLID
5
198
100
AcDbEntity
8
SK2
62
256
6
ByLayer
370
18
48
1
60
0
100
AcDbTrace
10
12
20
-95.073344
30
0
11
15.499998
21
-94.61256
31
0
12
15.500002
22
-95.534128
32
0
13
15.500002
23
-95.534128
33
0
39
0
210
0
220
0
230
1
0
ENDBLK
5
19A
100
AcDbEntity
8
0
100
AcDbBlockEnd
0
BLOCK
5
19F
100
AcDbEntity
8
0
100
AcDbBlockBegin
2
*D7
70
1
10
0
20
0
30
0
3
*D7
0
LINE
5
1A1
100
AcDbEntity
8
0
62
256
6
ByLayer
370
-2
48
1
60
0
100
AcDbLine
10
-36
20
-5.5875
30
0
11
-36
21
-107.073344
31
0
39
0
210
0
220
0
230
1
0
LINE
5
1A2
100
AcDbEntity
8
0
62
256
6
ByLayer
370
-2
48
1
60
0
100
AcDbLine
10
0
20
-5.5875
30
0
11
0
21
-107.073344
31
0
39
0
210
0
220
0
230
1
0
LINE
5
1A3
100
AcDbEntity
8
0
62
256
6
ByLayer
370
-2
48
1
60
0
100
AcDbLine
10
-32.5
20
-105.073344
30
0
11
-3.5
21
-105.073344
31
0
39
0
210
0
220
0
230
1
0
SOLID
5
1A4
100
AcDbEntity
8
0
62
256
6
ByLayer
370
-1
48
1
60
0
100
AcDbTrace
10
-32.5
20
-104.490011
30
0
11
-32.5
21
-105.656677
31
0
12
-36
22
-105.073344
32
0
13
-36
23
-105.073344
33
0
39
0
210
0
220
0
230
1
0
SOLID
5
1A5
100
AcDbEntity
8
0
62
256
6
ByLayer
370
-1
48
1
60
0
100
AcDbTrace
10
-3.5
20
-105.656677
30
0
11
-3.5
21
-104.490011
31
0
12
0
22
-105.073344
32
0
13
0
23
-105.073344
33
0
39
0
210
0
220
0
230
1
0
MTEXT
5
1A6
100
AcDbEntity
8
0
62
256
6
ByLayer
370
18
48
1
60
0
100
AcDbMText
10
-18
20
-98.073344
30
0
210
0
220
0
230
1
1
\A1;36
40
3.5
41
0
44
1
50
0
71
5
72
5
7
iso_b_vert
0
POINT
5
1A7
100
AcDbEntity
8
Defpoints
62
0
6
ByLayer
370
-1
48
1
60
0
100
AcDbPoint
10
-36
20
-4
30
0
39
0
210
0
220
0
230
1
50
360
0
POINT
5
1A8
100
AcDbEntity
8
Defpoints
62
0
6
ByLayer
370
-1
48
1
60
0
100
AcDbPoint
10
0
20
-4
30
0
39
0
210
0
220
0
230
1
50
360
0
POINT
5
1A9
100
AcDbEntity
8
Defpoints
62
0
6
ByLayer
370
-1
48
1
60
0
100
AcDbPoint
10
0
20
-105.073344
30
0
39
0
210
0
220
0
230
1
50
360
0
ENDBLK
5
1A0
100
AcDbEntity
8
0
100
AcDbBlockEnd
0
BLOCK
5
1B1
100
AcDbEntity
8
0
100
AcDbBlockBegin
2
_U3
70
0
10
0
20
0
30
0
3
_U3
0
MTEXT
5
1AB
100
AcDbEntity
8
SK2
62
256
6
ByLayer
370
18
48
1
60
0
100
AcDbMText
10
-19.904966
20
-104.04071
30
0
210
0
220
0
230
1
1
\W0.6740;36
40
3.5
41
0
44
1.084337
50
0
71
7
72
5
7
iso_b_vert
0
LINE
5
1AC
100
AcDbEntity
8
SK2
62
256
6
ByLayer
370
13
48
1
60
0
100
AcDbLine
10
-36
20
-5.5875
30
0
11
-36
21
-107.073344
31
0
39
0
210
0
220
0
230
1
0
LINE
5
1AD
100
AcDbEntity
8
SK2
62
256
6
ByLayer
370
13
48
1
60
0
100
AcDbLine
10
0
20
-5.5875
30
0
11
0
21
-107.073344
31
0
39
0
210
0
220
0
230
1
0
LINE
5
1AE
100
AcDbEntity
8
SK2
62
256
6
ByLayer
370
13
48
1
60
0
100
AcDbLine
10
-36
20
-105.073344
30
0
11
0
21
-105.073344
31
0
39
0
210
0
220
0
230
1
0
SOLID
5
1AF
100
AcDbEntity
8
SK2
62
256
6
ByLayer
370
18
48
1
60
0
100
AcDbTrace
10
-36
20
-105.073344
30
0
11
-32.500002
21
-104.61256
31
0
12
-32.499998
22
-105.534128
32
0
13
-32.499998
23
-105.534128
33
0
39
0
210
0
220
0
230
1
0
SOLID
5
1B0
100
AcDbEntity
8
SK2
62
256
6
ByLayer
370
18
48
1
60
0
100
AcDbTrace
10
0
20
-105.073344
30
0
11
-3.499998
21
-105.534128
31
0
12
-3.500002
22
-104.61256
32
0
13
-3.500002
23
-104.61256
33
0
39
0
210
0
220
0
230
1
0
ENDBLK
5
1B2
100
AcDbEntity
8
0
100
AcDbBlockEnd
0
BLOCK
5
1B7
100
AcDbEntity
8
0
100
AcDbBlockBegin
2
*D9
70
1
10
0
20
0
30
0
3
*D9
0
LINE
5
1B9
100
AcDbEntity
8
0
62
256
6
ByLayer
370
-2
48
1
60
0
100
AcDbLine
10
0
20
-5.5875
30
0
11
0
21
-117.073344
31
0
39
0
210
0
220
0
230
1
0
LINE
5
1BA
100
AcDbEntity
8
0
62
256
6
ByLayer
370
-2
48
1
60
0
100
AcDbLine
10
55
20
-5.1375
30
0
11
55
21
-117.073344
31
0
39
0
210
0
220
0
230
1
0
LINE
5
1BB
100
AcDbEntity
8
0
62
256
6
ByLayer
370
-2
48
1
60
0
100
AcDbLine
10
3.5
20
-115.073344
30
0
11
51.5
21
-115.073344
31
0
39
0
210
0
220
0
230
1
0
SOLID
5
1BC
100
AcDbEntity
8
0
62
256
6
ByLayer
370
-1
48
1
60
0
100
AcDbTrace
10
3.5
20
-114.490011
30
0
11
3.5
21
-115.656677
31
0
12
0
22
-115.073344
32
0
13
0
23
-115.073344
33
0
39
0
210
0
220
0
230
1
0
SOLID
5
1BD
100
AcDbEntity
8
0
62
256
6
ByLayer
370
-1
48
1
60
0
100
AcDbTrace
10
51.5
20
-115.656677
30
0
11
51.5
21
-114.490011
31
0
12
55
22
-115.073344
32
0
13
55
23
-115.073344
33
0
39
0
210
0
220
0
230
1
0
MTEXT
5
1BE
100
AcDbEntity
8
0
62
256
6
ByLayer
370
18
48
1
60
0
100
AcDbMText
10
27.5
20
-108.073344
30
0
210
0
220
0
230
1
1
\A1;55
40
3.5
41
0
44
1
50
0
71
5
72
5
7
iso_b_vert
0
POINT
5
1BF
100
AcDbEntity
8
Defpoints
62
0
6
ByLayer
370
-1
48
1
60
0
100
AcDbPoint
10
0
20
-4
30
0
39
0
210
0
220
0
230
1
50
360
0
POINT
5
1C0
100
AcDbEntity
8
Defpoints
62
0
6
ByLayer
370
-1
48
1
60
0
100
AcDbPoint
10
55
20
-3.55
30
0
39
0
210
0
220
0
230
1
50
360
0
POINT
5
1C1
100
AcDbEntity
8
Defpoints
62
0
6
ByLayer
370
-1
48
1
60
0
100
AcDbPoint
10
55
20
-115.073344
30
0
39
0
210
0
220
0
230
1
50
360
0
ENDBLK
5
1B8
100
AcDbEntity
8
0
100
AcDbBlockEnd
0
BLOCK
5
1C9
100
AcDbEntity
8
0
100
AcDbBlockBegin
2
_U4
70
0
10
0
20
0
30
0
3
_U4
0
MTEXT
5
1C3
100
AcDbEntity
8
SK2
62
256
6
ByLayer
370
18
48
1
60
0
100
AcDbMText
10
25.595034
20
-114.04071
30
0
210
0
220
0
230
1
1
\W0.6740;55
40
3.5
41
0
44
1.084337
50
0
71
7
72
5
7
iso_b_vert
0
LINE
5
1C4
100
AcDbEntity
8
SK2
62
256
6
ByLayer
370
13
48
1
60
0
100
AcDbLine
10
0
20
-5.5875
30
0
11
0
21
-117.073344
31
0
39
0
210
0
220
0
230
1
0
LINE
5
1C5
100
AcDbEntity
8
SK2
62
256
6
ByLayer
370
13
48
1
60
0
100
AcDbLine
10
55
20
-5.1375
30
0
11
55
21
-117.073344
31
0
39
0
210
0
220
0
230
1
0
LINE
5
1C6
100
AcDbEntity
8
SK2
62
256
6
ByLayer
370
13
48
1
60
0
100
AcDbLine
10
0
20
-115.073344
30
0
11
55
21
-115.073344
31
0
39
0
210
0
220
0
230
1
0
SOLID
5
1C7
100
AcDbEntity
8
SK2
62
256
6
ByLayer
370
18
48
1
60
0
100
AcDbTrace
10
0
20
-115.073344
30
0
11
3.499998
21
-114.61256
31
0
12
3.500002
22
-115.534128
32
0
13
3.500002
23
-115.534128
33
0
39
0
210
0
220
0
230
1
0
SOLID
5
1C8
100
AcDbEntity
8
SK2
62
256
6
ByLayer
370
18
48
1
60
0
100
AcDbTrace
10
55
20
-115.073344
30
0
11
51.500002
21
-115.534128
31
0
12
51.499998
22
-114.61256
32
0
13
51.499998
23
-114.61256
33
0
39
0
210
0
220
0
230
1
0
ENDBLK
5
1CA
100
AcDbEntity
8
0
100
AcDbBlockEnd
0
ENDSEC
0
SECTION
2
ENTITIES
0
ARC
5
BE
100
AcDbEntity
8
1
62
256
6
ByLayer
370
18
48
1
60
0
100
AcDbCircle
39
0
10
1.145461
20
4.317148
30
0
40
0.799999999999996
210
0
220
0
230
1
100
AcDbArc
50
224.641149
51
270.03581
0
ARC
5
BF
100
AcDbEntity
8
1
62
256
6
ByLayer
370
18
48
1
60
0
100
AcDbCircle
39
0
10
1.145461
20
-4.317148
30
0
40
0.799999999999996
210
0
220
0
230
1
100
AcDbArc
50
89.96419
51
135.358851
0
ARC
5
C0
100
AcDbEntity
8
1
62
256
6
ByLayer
370
18
48
1
60
0
100
AcDbCircle
39
0
10
0
20
3.2
30
0
40
0.800000000000011
210
0
220
0
230
1
100
AcDbArc
50
44.641149
51
90
0
ARC
5
C1
100
AcDbEntity
8
1
62
256
6
ByLayer
370
18
48
1
60
0
100
AcDbCircle
39
0
10
0
20
-3.2
30
0
40
0.800000000000011
210
0
220
0
230
1
100
AcDbArc
50
270
51
315.358851
0
ARC
5
C2
100
AcDbEntity
8
SK2
62
256
6
ByLayer
370
13
48
1
60
0
100
AcDbCircle
39
0
10
55
20
0
30
0
40
31.4120800931193
210
0
220
0
230
1
100
AcDbArc
50
5.938643
51
70.001344
0
ARC
5
C3
100
AcDbEntity
8
SK2
62
256
6
ByLayer
370
13
48
1
60
0
100
AcDbCircle
39
0
10
55
20
0
30
0
40
31.4120800931193
210
0
220
0
230
1
100
AcDbArc
50
289.998656
51
354.061357
0
ELLIPSE
5
C4
100
AcDbEntity
8
1
62
256
6
ByLayer
370
13
48
1
60
0
100
AcDbEllipse
10
8.224777
20
56.531526
30
0
11
-55.2893507476576
21
50.6401471588
31
0
210
0
220
0
230
1
40
0.61954
41
2.04318424441708
42
2.07823544491367
0
ELLIPSE
5
C5
100
AcDbEntity
8
1
62
256
6
ByLayer
370
13
48
1
60
0
100
AcDbEllipse
10
8.22204
20
56.528538
30
0
11
-55.2920058518188
21
50.6425789989938
31
0
210
0
220
0
230
1
40
0.61954
41
2.04305491948891
42
2.08369896380738
0
ELLIPSE
5
C6
100
AcDbEntity
8
1
62
256
6
ByLayer
370
13
48
1
60
0
100
AcDbEllipse
10
8.193281
20
56.497139
30
0
11
-55.2933897304936
21
50.6438465092611
31
0
210
0
220
0
230
1
40
0.61954
41
2.04191260008109
42
2.16298105108593
0
ELLIPSE
5
C7
100
AcDbEntity
8
1
62
256
6
ByLayer
370
13
48
1
60
0
100
AcDbEllipse
10
8.19071
20
56.494332
30
0
11
-55.2909543616158
21
50.6416159271203
31
0
210
0
220
0
230
1
40
0.61954
41
2.04183132870715
42
2.16785332929119
0
ELLIPSE
5
C8
100
AcDbEntity
8
1
62
256
6
ByLayer
370
13
48
1
60
0
100
AcDbEllipse
10
3.682979
20
-1.538845
30
0
11
-0.020856824177621
21
-0.0978007816186753
31
0
210
0
220
0
230
1
40
0.544606
41
-1.87191237255628
42
-0.523221703215027
0
ELLIPSE
5
C9
100
AcDbEntity
8
1
62
256
6
ByLayer
370
13
48
1
60
0
100
AcDbEllipse
10
3.75023
20
-1.561305
30
0
11
-0.0405578820327704
21
-0.0914060074886541
31
0
210
0
220
0
230
1
40
0.200931
41
-1.99945888254123
42
-0.451350963122837
0
POINT
5
70
100
AcDbEntity
8
81
62
256
6
ByLayer
370
18
48
1
60
0
100
AcDbPoint
10
55
20
0
30
0
39
0
210
0
220
0
230
1
50
360
0
POINT
5
72
100
AcDbEntity
8
80
62
256
6
ByLayer
370
18
48
1
60
0
100
AcDbPoint
10
0
20
0
30
0
39
0
210
0
220
0
230
1
50
360
0
POINT
5
74
100
AcDbEntity
8
1
62
256
6
ByLayer
370
18
48
1
60
0
100
AcDbPoint
10
-209.46896
20
-226.562832
30
0
39
0
210
0
220
0
230
1
50
360
0
POINT
5
76
100
AcDbEntity
8
1
62
256
6
ByLayer
370
13
48
1
60
1
100
AcDbPoint
10
-37.5
20
0
30
0
39
0
210
0
220
0
230
1
50
360
0
POINT
5
77
100
AcDbEntity
8
1
62
256
6
ByLayer
370
13
48
1
60
1
100
AcDbPoint
10
55.248531
20
0
30
0
39
0
210
0
220
0
230
1
50
360
0
POINT
5
78
100
AcDbEntity
8
1
62
256
6
ByLayer
370
18
48
1
60
1
100
AcDbPoint
10
-36
20
-4
30
0
39
0
210
0
220
0
230
1
50
360
0
POINT
5
79
100
AcDbEntity
8
1
62
256
6
ByLayer
370
18
48
1
60
1
100
AcDbPoint
10
55
20
-3.55
30
0
39
0
210
0
220
0
230
1
50
360
0
POINT
5
7A
100
AcDbEntity
8
1
62
256
6
ByLayer
370
18
48
1
60
1
100
AcDbPoint
10
55
20
-3.55
30
0
39
0
210
0
220
0
230
1
50
360
0
POINT
5
7B
100
AcDbEntity
8
1
62
256
6
ByLayer
370
18
48
1
60
1
100
AcDbPoint
10
2
20
-3.55
30
0
39
0
210
0
220
0
230
1
50
360
0
POINT
5
7C
100
AcDbEntity
8
1
62
256
6
ByLayer
370
18
48
1
60
1
100
AcDbPoint
10
55
20
-3.55
30
0
39
0
210
0
220
0
230
1
50
360
0
POINT
5
7D
100
AcDbEntity
8
1
62
256
6
ByLayer
370
18
48
1
60
1
100
AcDbPoint
10
12
20
-3.55
30
0
39
0
210
0
220
0
230
1
50
360
0
POINT
5
7E
100
AcDbEntity
8
1
62
256
6
ByLayer
370
18
48
1
60
1
100
AcDbPoint
10
-36
20
-4
30
0
39
0
210
0
220
0
230
1
50
360
0
POINT
5
7F
100
AcDbEntity
8
1
62
256
6
ByLayer
370
18
48
1
60
1
100
AcDbPoint
10
0
20
-4
30
0
39
0
210
0
220
0
230
1
50
360
0
POINT
5
80
100
AcDbEntity
8
1
62
256
6
ByLayer
370
18
48
1
60
1
100
AcDbPoint
10
0
20
-4
30
0
39
0
210
0
220
0
230
1
50
360
0
POINT
5
81
100
AcDbEntity
8
1
62
256
6
ByLayer
370
18
48
1
60
1
100
AcDbPoint
10
55
20
-3.55
30
0
39
0
210
0
220
0
230
1
50
360
0
SPLINE
5
CA
100
AcDbEntity
8
1
62
256
6
ByLayer
370
18
48
1
60
0
100
AcDbSpline
70
4
71
3
72
8
73
4
40
0
40
0
40
0
40
0
40
1
40
1
40
1
40
1
41
1
10
54.6615326735547
20
1.17090381290299
30
0
41
1
10
54.7765828980191
20
0.847126403755652
30
0
41
1
10
54.8883320439713
20
0.522162647789543
30
0
41
1
10
54.9967263107319
20
0.195993210031418
30
0
0
SPLINE
5
CB
100
AcDbEntity
8
1
62
256
6
ByLayer
370
18
48
1
60
0
100
AcDbSpline
70
4
71
5
72
75
73
69
40
0
40
0
40
0
40
0
40
0
40
0
40
0.125
40
0.125
40
0.125
40
0.250000000000004
40
0.250000000000004
40
0.250000000000004
40
0.375000000000003
40
0.375000000000003
40
0.375000000000003
40
0.5
40
0.5
40
0.5
40
0.5625
40
0.5625
40
0.5625
40
0.625000000000002
40
0.625000000000002
40
0.625000000000002
40
0.687500000000004
40
0.687500000000004
40
0.687500000000004
40
0.75
40
0.75
40
0.75
40
0.812499999999999
40
0.812499999999999
40
0.812499999999999
40
0.843750000000002
40
0.843750000000002
40
0.843750000000002
40
0.875000000000001
40
0.875000000000001
40
0.875000000000001
40
0.906249999999999
40
0.906249999999999
40
0.906249999999999
40
0.921875000000001
40
0.921875000000001
40
0.921875000000001
40
0.937500000000003
40
0.937500000000003
40
0.937500000000003
40
0.953125000000004
40
0.953125000000004
40
0.953125000000004
40
0.968750000000001
40
0.968750000000001
40
0.968750000000001
40
0.976562500000002
40
0.976562500000002
40
0.976562500000002
40
0.984374999999998
40
0.984374999999998
40
0.984374999999998
40
0.992187499999999
40
0.992187499999999
40
0.992187499999999
40
0.996093749999997
40
0.996093749999997
40
0.996093749999997
40
0.998046874999999
40
0.998046874999999
40
0.998046874999999
40
1
40
1
40
1
40
1
40
1
40
1
41
1
10
13.0233550956547
20
-0.194394740807269
30
0
41
1
10
13.031045956689
20
-0.197193618482316
30
0
41
1
10
13.038736193118
20
-0.199991438640467
30
0
41
1
10
13.0464257661672
20
-0.202788200953393
30
0
41
1
10
13.0618035079564
20
-0.208379609232281
30
0
41
1
10
13.0771782860275
20
-0.213966783504389
30
0
41
1
10
13.0848648786648
20
-0.216759311667175
30
0
41
1
10
13.1002363602054
20
-0.222342249103207
30
0
41
1
10
13.115604212403
20
-0.227920946873951
30
0
41
1
10
13.1232871486025
20
-0.230709235144104
30
0
41
1
10
13.1386508760756
20
-0.236283689056279
30
0
41
1
10
13.154009983443
20
-0.241853894916602
30
0
41
1
10
13.1616882243148
20
-0.244637928693152
30
0
41
1
10
13.1732033797263
20
-0.248812364916489
30
0
41
1
10
13.1847148712761
20
-0.252984363411144
30
0
41
1
10
13.1885515996298
20
-0.254374758541843
30
0
41
1
10
13.1962241285433
20
-0.257155006383869
30
0
41
1
10
13.2038946882669
20
-0.259934168685362
30
0
41
1
10
13.2077294362202
20
-0.261323477760016
30
0
41
1
10
13.2153977890878
20
-0.264101550375216
30
0
41
1
10
13.223063697433
20
-0.266878529158305
30
0
41
1
10
13.2268959795001
20
-0.268266744166169
30
0
41
1
10
13.2345590774732
20
-0.271042623563204
30
0
41
1
10
13.2422189992243
20
-0.273817398020185
30
0
41
1
10
13.2460480690908
20
-0.275204507468914
30
0
41
1
10
13.2537042328991
20
-0.277978167717265
30
0
41
1
10
13.2613560570436
20
-0.28075070448844
30
0
41
1
10
13.2651806921822
20
-0.282136689100696
30
0
41
1
10
13.2709154414631
20
-0.284215236003064
30
0
41
1
10
13.2766464535636
20
-0.286293131347378
30
0
41
1
10
13.2785563301192
20
-0.286985689899638
30
0
41
1
10
13.2823750704706
20
-0.288370658878137
30
0
41
1
10
13.2861916030266
20
-0.289755328269308
30
0
41
1
10
13.288099250603
20
-0.290447587518201
30
0
41
1
10
13.2919131748472
20
-0.291831954023024
30
0
41
1
10
13.2957240902634
20
-0.293216014342477
30
0
41
1
10
13.2976286537258
20
-0.293907963879832
30
0
41
1
10
13.3004839444931
20
-0.29494576113828
30
0
41
1
10
13.3033365840341
20
-0.295983358654269
30
0
41
1
10
13.3042871439627
20
-0.296329204267494
30
0
41
1
10
13.3061875733076
20
-0.29702085897938
30
0
41
1
10
13.308086520277
20
-0.29771244853481
30
0
41
1
10
13.3090355469626
20
-0.298058216203003
30
0
41
1
10
13.3109325543257
20
-0.298749675679346
30
0
41
1
10
13.3128271648516
20
-0.299440940154
30
0
41
1
10
13.3137738772002
20
-0.299786559887394
30
0
41
1
10
13.3156661286586
20
-0.300477846839328
30
0
41
1
10
13.317556058819
20
-0.301169373747598
30
0
41
1
10
13.3184998519102
20
-0.301515049993526
30
0
41
1
10
13.3199128960667
20
-0.302033212754282
30
0
41
1
10
13.3213206407573
20
-0.302550516908866
30
0
41
1
10
13.3217896154738
20
-0.302723010566666
30
0
41
1
10
13.3227276485107
20
-0.303068424442046
30
0
41
1
10
13.3236671100186
20
-0.303415308798094
30
0
41
1
10
13.3241354176105
20
-0.303588461629119
30
0
41
1
10
13.3250656259106
20
-0.303932874662991
30
0
41
1
10
13.3259758993243
20
-0.304270874571785
30
0
41
1
10
13.3264315387292
20
-0.304440680078841
30
0
41
1
10
13.327123981513
20
-0.304700209919304
30
0
41
1
10
13.3278422442558
20
-0.304972392005936
30
0
41
1
10
13.3280761941483
20
-0.30506138761379
30
0
41
1
10
13.3284064025954
20
-0.305187577054653
30
0
41
1
10
13.3286867716663
20
-0.305295751030371
30
0
41
1
10
13.328785265867
20
-0.305334151312081
30
0
41
1
10
13.3290134810599
20
-0.305424324471488
30
0
41
1
10
13.3293464520446
20
-0.305558618855571
30
0
41
1
10
13.3294748022724
20
-0.305614011947057
30
0
41
1
10
13.3295006930228
20
-0.305634866531278
30
0
41
1
10
13.3293598000835
20
-0.305598398201539
30
0
0
SPLINE
5
CC
100
AcDbEntity
8
1
62
256
6
ByLayer
370
13
48
1
60
0
100
AcDbSpline
70
4
71
3
72
44
73
40
40
0
40
0
40
0
40
0
40
0.005855156675356
40
0.0267065139175361
40
0.0475578711597151
40
0.0892605856440743
40
0.130963300128434
40
0.151814657370612
40
0.172666014612793
40
0.19351737185497
40
0.214368729097151
40
0.256071443581511
40
0.297774158065871
40
0.318625515308049
40
0.339476872550229
40
0.360328229792408
40
0.381179587034588
40
0.422882301518948
40
0.464585016003308
40
0.485436373245487
40
0.506287730487666
40
0.527139087729848
40
0.547990444972026
40
0.589693159456384
40
0.631395873940743
40
0.652247231182923
40
0.673098588425102
40
0.693949945667282
40
0.714801302909462
40
0.756504017393821
40
0.79820673187818
40
0.819058089120361
40
0.839909446362539
40
0.860760803604719
40
0.881612160846899
40
0.923314875331257
40
0.965017589815616
40
0.985868947057795
40
1
40
1
40
1
40
1
41
1
10
46.2216014047498
20
-1.7236689094845
30
0
41
1
10
46.1973749770213
20
-1.72487880758481
30
0
41
1
10
46.0868852471444
20
-1.73024558145917
30
0
41
1
10
45.8901562919287
20
-1.7387222717316
30
0
41
1
10
45.5459076789252
20
-1.74860940239367
30
0
41
1
10
45.1154863658493
20
-1.7533875862519
30
0
41
1
10
44.6832556819656
20
-1.75422379650908
30
0
41
1
10
44.3374225692933
20
-1.75085342217656
30
0
41
1
10
44.0786050498692
20
-1.74485862161572
30
0
41
1
10
43.8198426011153
20
-1.73658879135499
30
0
41
1
10
43.4755944632578
20
-1.71995104244732
30
0
41
1
10
43.0451741811192
20
-1.69184335339281
30
0
41
1
10
42.6129441065585
20
-1.66077102898086
30
0
41
1
10
42.2671111795625
20
-1.63207592389364
30
0
41
1
10
42.0082938663542
20
-1.60726896461364
30
0
41
1
10
41.7495312919312
20
-1.58033338507789
30
0
41
1
10
41.4052826789239
20
-1.53866864717546
30
0
41
1
10
40.9748613658433
20
-1.48018256268682
30
0
41
1
10
40.5426306819554
20
-1.41995303229135
30
0
41
1
10
40.196797569281
20
-1.36846136351673
30
0
41
1
10
39.9379800498567
20
-1.32702448570419
30
0
41
1
10
39.6792176011034
20
-1.28379341962878
30
0
41
1
10
39.3349694632465
20
-1.22077946643301
30
0
41
1
10
38.9045491811102
20
-1.13709344183397
30
0
41
1
10
38.4723191065537
20
-1.05305850795841
30
0
41
1
10
38.1264861795609
20
-0.983357175291673
30
0
41
1
10
37.8676688663538
20
-0.928986904068438
30
0
41
1
10
37.6089062919316
20
-0.873317076490764
30
0
41
1
10
37.2646576789259
20
-0.794564771012631
30
0
41
1
10
36.8342363658464
20
-0.693118405968676
30
0
41
1
10
36.4020056819579
20
-0.592732376162814
30
0
41
1
10
36.0561725692826
20
-0.510995224316247
30
0
41
1
10
35.797355049858
20
-0.448501466490171
30
0
41
1
10
35.5385926011044
20
-0.385317230967928
30
0
41
1
10
35.1943444632467
20
-0.297802952974649
30
0
41
1
10
34.7639241811095
20
-0.18759097403111
30
0
41
1
10
34.3316941065529
20
-0.0797669389878877
30
0
41
1
10
34.0137263021915
20
-0.0002273036355405
30
0
41
1
10
33.8689364377379
20
0.0361397862383797
30
0
41
1
10
33.8104655420575
20
0.0508355189570011
30
0
0
SPLINE
5
CD
100
AcDbEntity
8
1
62
256
6
ByLayer
370
18
48
1
60
0
100
AcDbSpline
70
4
71
3
72
28
73
24
40
0
40
0
40
0
40
0
40
0.054573037317446
40
0.054573037317446
40
0.159620477615496
40
0.159620477615496
40
0.369715358211597
40
0.369715358211597
40
0.422239078360638
40
0.422239078360638
40
0.474762798509678
40
0.474762798509678
40
0.579810238807723
40
0.579810238807723
40
0.684857679105769
40
0.684857679105769
40
0.737381399254791
40
0.737381399254791
40
0.789905119403814
40
0.789905119403814
40
0.894952559701907
40
0.894952559701907
40
1
40
1
40
1
40
1
41
1
10
53.5233819208791
20
0.668627974552265
30
0
41
1
10
53.5266683876162
20
0.674911120873475
30
0
41
1
10
53.5303656375357
20
0.681354307965563
30
0
41
1
10
53.5423712135997
20
0.700681187337068
30
0
41
1
10
53.5517975081426
20
0.71403183789073
30
0
41
1
10
53.5847820093437
20
0.755814419843688
30
0
41
1
10
53.6121673834592
20
0.784813661671564
30
0
41
1
10
53.6532637498273
20
0.822085615588065
30
0
41
1
10
53.6618287376312
20
0.829594735223623
30
0
41
1
10
53.6797059965082
20
0.844678138212998
30
0
41
1
10
53.6889798399706
20
0.852215922048487
30
0
41
1
10
53.7175489775843
20
0.874494198174972
30
0
41
1
10
53.7376993886562
20
0.889001006931693
30
0
41
1
10
53.7804259440826
20
0.916853948920846
30
0
41
1
10
53.803005299436
20
0.93019589458126
30
0
41
1
10
53.8389388312742
20
0.948918585264778
30
0
41
1
10
53.8512512453934
20
0.954937291485606
30
0
41
1
10
53.8761202124347
20
0.966310211568839
30
0
41
1
10
53.8887307965705
20
0.971693502774968
30
0
41
1
10
53.9270793151926
20
0.98692788821387
30
0
41
1
10
53.9533312162044
20
0.995870018880908
30
0
41
1
10
54.0071927692182
20
1.01120731548662
30
0
41
1
10
54.0348982359023
20
1.0176021092351
30
0
41
1
10
54.0628201002685
20
1.02257515630262
30
0
0
SPLINE
5
CE
100
AcDbEntity
8
1
62
256
6
ByLayer
370
18
48
1
60
0
100
AcDbSpline
70
4
71
3
72
12
73
8
40
0
40
0
40
0
40
0
40
0.500000000000033
40
0.500000000000033
40
0.750000000000016
40
0.750000000000016
40
1
40
1
40
1
40
1
41
1
10
54.0628201002685
20
1.02257515630271
30
0
41
1
10
54.1642091764048
20
1.04063314273031
30
0
41
1
10
54.2650907496332
20
1.06111736799704
30
0
41
1
10
54.4152353279935
20
1.097474371517
30
0
41
1
10
54.4651343650562
20
1.11055092492879
30
0
41
1
10
54.5640238753438
20
1.13890879460337
30
0
41
1
10
54.6130661848109
20
1.15414787424859
30
0
41
1
10
54.6615326735547
20
1.17090381290302
30
0
0
SPLINE
5
CF
100
AcDbEntity
8
1
62
256
6
ByLayer
370
18
48
1
60
0
100
AcDbSpline
70
4
71
3
72
14
73
10
40
0
40
0
40
0
40
0
40
0.49999999999999
40
0.49999999999999
40
0.749999999999985
40
0.749999999999985
40
0.874999999999993
40
0.874999999999993
40
1
40
1
40
1
40
1
41
1
10
54.2925040146527
20
1.97219448853369
30
0
41
1
10
54.3470267711498
20
1.82912191145854
30
0
41
1
10
54.4042222484442
20
1.69060330860768
30
0
41
1
10
54.4959136729675
20
1.48980028838238
30
0
41
1
10
54.5274637239874
20
1.42404601456246
30
0
41
1
10
54.5765453195759
20
1.32733140188836
30
0
41
1
10
54.5932177990355
20
1.29537445539285
30
0
41
1
10
54.6271040175567
20
1.23227960957141
30
0
41
1
10
54.644225469391
20
1.20131377659428
30
0
41
1
10
54.6615326735546
20
1.17090381290302
30
0
0
SPLINE
5
D0
100
AcDbEntity
8
1
62
256
6
ByLayer
370
18
48
1
60
0
100
AcDbSpline
70
4
71
5
72
16
73
10
40
0
40
0
40
0
40
0
40
0
40
0
40
0.33508278011787
40
0.500123552414731
40
0.566797044769517
40
0.66508278011787
40
1
40
1
40
1
40
1
40
1
40
1
41
1
10
8.01640332849834
20
1.83005129472858
30
0
41
1
10
8.35283362297699
20
1.68207336626975
30
0
41
1
10
8.85471407563062
20
1.46385001829398
30
0
41
1
10
9.42287356557608
20
1.22103120495953
30
0
41
1
10
10.088946791965
20
0.943008211666324
30
0
41
1
10
11.0896226064407
20
0.538215756439229
30
0
41
1
10
11.7547625507029
20
0.278324583724043
30
0
41
1
10
12.2547669189022
20
0.0882525134342984
30
0
41
1
10
12.6882257263328
20
-0.0724336098054152
30
0
41
1
10
13.0233550956547
20
-0.194394740807269
30
0
0
SPLINE
5
D1
100
AcDbEntity
8
1
62
256
6
ByLayer
370
13
48
1
60
0
100
AcDbSpline
70
4
71
3
72
39
73
35
40
0
40
0
40
0
40
0
40
0.0079819488561278
40
0.0530736784535757
40
0.0756195432523001
40
0.0981654080510252
40
0.12071127284975
40
0.143257137648474
40
0.188348867245923
40
0.233440596843371
40
0.255986461642096
40
0.27853232644082
40
0.301078191239544
40
0.323624056038269
40
0.368715785635718
40
0.413807515233166
40
0.436353380031891
40
0.458899244830615
40
0.481445109629339
40
0.503990974428064
40
0.549082704025512
40
0.594174433622961
40
0.616720298421686
40
0.63926616322041
40
0.661812028019135
40
0.684357892817859
40
0.729449622415308
40
0.774541352012756
40
0.797087216811481
40
0.819633081610205
40
0.842178946408929
40
0.864724811207654
40
0.909816540805103
40
1
40
1
40
1
40
1
41
1
10
24.5035891409403
20
-1.72000500848341
30
0
41
1
10
24.4730693679011
20
-1.72143005502343
30
0
41
1
10
24.2700737574359
20
-1.73068462040189
30
0
41
1
10
23.9801306819581
20
-1.7421721874729
30
0
41
1
10
23.6342975692829
20
-1.75187088098375
30
0
41
1
10
23.3754800498583
20
-1.75570484445919
30
0
41
1
10
23.1167176011047
20
-1.75726674538708
30
0
41
1
10
22.7724694634226
20
-1.75399870052524
30
0
41
1
10
22.3420491821757
20
-1.74238612874979
30
0
41
1
10
21.9098191103189
20
-1.72728062878306
30
0
41
1
10
21.5639861838304
20
-1.71121608200264
30
0
41
1
10
21.3051688665525
20
-1.69575338187818
30
0
41
1
10
21.0464062867866
20
-1.67806339905573
30
0
41
1
10
20.7021576689256
20
-1.64873112930889
30
0
41
1
10
20.2717363434758
20
-1.60512176764121
30
0
41
1
10
19.8395056300232
20
-1.55911969284244
30
0
41
1
10
19.4936725024284
20
-1.51869846611305
30
0
41
1
10
19.2348550001232
20
-1.48529208860859
30
0
41
1
10
18.9760925761641
20
-1.44990002281847
30
0
41
1
10
18.6318444283023
20
-1.3970860271003
30
0
41
1
10
18.201424078913
20
-1.32533779650143
30
0
41
1
10
17.7691937938503
20
-1.25252886108567
30
0
41
1
10
17.423360883319
20
-1.19135684703062
30
0
41
1
10
17.1645439883494
20
-1.14299142181275
30
0
41
1
10
16.9057819337412
20
-1.09305852504292
30
0
41
1
10
16.56153392383
20
-1.02146776014669
30
0
41
1
10
16.1311142158138
20
-0.927955915897144
30
0
41
1
10
15.6988877893936
20
-0.834786823284816
30
0
41
1
10
15.3530568283993
20
-0.75827219226602
30
0
41
1
10
15.0942371074759
20
-0.69922170000271
30
0
41
1
10
14.8354708792169
20
-0.639167378543135
30
0
41
1
10
14.4912237456314
20
-0.555151367474338
30
0
41
1
10
13.8911535863771
20
-0.400295736002136
30
0
41
1
10
13.3713443837537
20
-0.275507050062458
30
0
41
1
10
13.0233550956547
20
-0.194394740807269
30
0
0
SPLINE
5
D2
100
AcDbEntity
8
1
62
256
6
ByLayer
370
18
48
1
60
0
100
AcDbSpline
70
4
71
5
72
69
73
63
40
0
40
0
40
0
40
0
40
0
40
0
40
0.0019531249999988
40
0.0019531249999988
40
0.0019531249999988
40
0.003906250000002
40
0.003906250000002
40
0.003906250000002
40
0.007812499999999
40
0.007812499999999
40
0.007812499999999
40
0.0156250000000024
40
0.0156250000000024
40
0.0156250000000024
40
0.023437500000002
40
0.023437500000002
40
0.023437500000002
40
0.0312500000000004
40
0.0312500000000004
40
0.0312500000000004
40
0.046874999999999
40
0.046874999999999
40
0.046874999999999
40
0.0624999999999976
40
0.0624999999999976
40
0.0624999999999976
40
0.093749999999998
40
0.093749999999998
40
0.093749999999998
40
0.124999999999999
40
0.124999999999999
40
0.124999999999999
40
0.15625
40
0.15625
40
0.15625
40
0.1875
40
0.1875
40
0.1875
40
0.25
40
0.25
40
0.25
40
0.312500000000004
40
0.312500000000004
40
0.312500000000004
40
0.375000000000002
40
0.375000000000002
40
0.375000000000002
40
0.5
40
0.5
40
0.5
40
0.624999999999999
40
0.624999999999999
40
0.624999999999999
40
0.749999999999998
40
0.749999999999998
40
0.749999999999998
40
0.875
40
0.875
40
0.875
40
1
40
1
40
1
40
1
40
1
40
1
41
1
10
7.67183764081881
20
1.9857188981845
30
0
41
1
10
7.67176584423871
20
1.98557337105683
30
0
41
1
10
7.67183933780103
20
1.98546212209558
30
0
41
1
10
7.67200023229648
20
1.98537427406188
30
0
41
1
10
7.67237967727627
20
1.98522071664573
30
0
41
1
10
7.67264014247883
20
1.98506211012429
30
0
41
1
10
7.67275259181611
20
1.98498249468417
30
0
41
1
10
7.67307247507665
20
1.98474556211625
30
0
41
1
10
7.673447619206
20
1.98452292167784
30
0
41
1
10
7.67371297798096
20
1.98437898383335
30
0
41
1
10
7.67452694927988
20
1.98395504881398
30
0
41
1
10
7.67531092622423
20
1.98353798284916
30
0
41
1
10
7.67582648060443
20
1.98326278219744
30
0
41
1
10
7.67685586334915
20
1.98271764836704
30
0
41
1
10
7.67790672969528
20
1.98218221112961
30
0
41
1
10
7.67843557480737
20
1.98191643574603
30
0
41
1
10
7.67949617098679
20
1.98138780962282
30
0
41
1
10
7.68055474323131
20
1.98086310913513
30
0
41
1
10
7.68108388872659
20
1.98060165846877
30
0
41
1
10
7.68267199940158
20
1.97981975970799
30
0
41
1
10
7.68426542085464
20
1.9790444841795
30
0
41
1
10
7.68532947115852
20
1.97853011252988
30
0
41
1
10
7.68745992841536
20
1.9775053967239
30
0
41
1
10
7.68959273492777
20
1.97648687608003
30
0
41
1
10
7.69065972041022
20
1.9759789929671
30
0
41
1
10
7.6938624082733
20
1.97445896051067
30
0
41
1
10
7.69707024459473
20
1.97294823446748
30
0
41
1
10
7.69921069371068
20
1.97194458988824
30
0
41
1
10
7.70349458180857
20
1.96994305282743
30
0
41
1
10
7.70778286309687
20
1.96795049969219
30
0
41
1
10
7.70992799478086
20
1.96695623468022
30
0
41
1
10
7.71422002571299
20
1.96497125891594
30
0
41
1
10
7.71851516274234
20
1.96299245396799
30
0
41
1
10
7.72066342530451
20
1.96200445782739
30
0
41
1
10
7.72496117357031
20
1.96003100547176
30
0
41
1
10
7.72926103821175
20
1.95806208748448
30
0
41
1
10
7.73141145868092
20
1.95707867556138
30
0
41
1
10
7.73786406169754
20
1.95413132143889
30
0
41
1
10
7.74432032103229
20
1.95119183356289
30
0
41
1
10
7.74862592640389
20
1.94923529641002
30
0
41
1
10
7.75723961701368
20
1.94532771560967
30
0
41
1
10
7.76585749716261
20
1.94142962310644
30
0
41
1
10
7.77016739055375
20
1.93948276255921
30
0
41
1
10
7.77878889583292
20
1.93559304013368
30
0
41
1
10
7.78741346183347
20
1.93171056956638
30
0
41
1
10
7.79172644710894
20
1.92977102314279
30
0
41
1
10
7.8046673210454
20
1.92395707813859
30
0
41
1
10
7.81761338316585
20
1.91815609899356
30
0
41
1
10
7.82624612687996
20
1.91429401586984
30
0
41
1
10
7.84351514512446
20
1.90657926963931
30
0
41
1
10
7.86079014409859
20
1.89888125825146
30
0
41
1
10
7.86942899592594
20
1.89503617349729
30
0
41
1
10
7.88670911857699
20
1.88735332032658
30
0
41
1
10
7.90399350785214
20
1.87968404874749
30
0
41
1
10
7.91263668745404
20
1.8758526393122
30
0
41
1
10
7.92992485320329
20
1.86819593506289
30
0
41
1
10
7.94721630527661
20
1.86055078388151
30
0
41
1
10
7.95586279761861
20
1.85673098734151
30
0
41
1
10
7.97315720436194
20
1.84909673393025
30
0
41
1
10
7.99045423412122
20
1.84147272299123
30
0
41
1
10
7.99910336627633
20
1.83766320058561
30
0
41
1
10
8.00775307722839
20
1.83385608368974
30
0
41
1
10
8.01640332849885
20
1.83005129474941
30
0
0
SPLINE
5
D3
100
AcDbEntity
8
1
62
256
6
ByLayer
370
13
48
1
60
0
100
AcDbSpline
70
4
71
3
72
19
73
15
40
0
40
0
40
0
40
0
40
0.0575452563310549
40
0.127971792058704
40
0.198398327786352
40
0.268824863514001
40
0.33925139924165
40
0.480104470696947
40
0.620957542152245
40
0.691384077879894
40
0.761810613607542
40
0.832237149335191
40
0.90266368506284
40
1
40
1
40
1
40
1
41
1
10
54.2925040146533
20
1.97219448853346
30
0
41
1
10
54.2220019425712
20
1.97269169642902
30
0
41
1
10
54.0652066395794
20
1.97305913684767
30
0
41
1
10
53.8221048398203
20
1.97100292312558
30
0
41
1
10
53.5632909133328
20
1.96504593152696
30
0
41
1
10
53.3045268782759
20
1.95624237886699
30
0
41
1
10
52.9596059676407
20
1.9424960369688
30
0
41
1
10
52.5283980518894
20
1.91945105398156
30
0
41
1
10
52.0969744915345
20
1.88719934601363
30
0
41
1
10
51.7517940972128
20
1.85556798480997
30
0
41
1
10
51.4929799533895
20
1.82809100540911
30
0
41
1
10
51.2342154304488
20
1.79799493741768
30
0
41
1
10
50.9425758651331
20
1.76272183269177
30
0
41
1
10
50.7371451393821
20
1.73582696399583
30
0
41
1
10
50.617937391305
20
1.71947285229149
30
0
0
SPLINE
5
D4
100
AcDbEntity
8
1
62
256
6
ByLayer
370
13
48
1
60
0
100
AcDbSpline
70
4
71
3
72
39
73
35
40
0
40
0
40
0
40
0
40
0.0369413381007487
40
0.0807167318234411
40
0.102604428684788
40
0.124492125546135
40
0.146379822407482
40
0.168267519268828
40
0.212042912991522
40
0.255818306714215
40
0.277706003575562
40
0.299593700436908
40
0.321481397298254
40
0.343369094159601
40
0.387144487882294
40
0.430919881604988
40
0.452807578466334
40
0.474695275327681
40
0.496582972189028
40
0.518470669050374
40
0.562246062773067
40
0.606021456495761
40
0.627909153357107
40
0.649796850218454
40
0.671684547079801
40
0.693572243941147
40
0.73734763766384
40
0.781123031386534
40
0.80301072824788
40
0.824898425109227
40
0.846786121970574
40
0.86867381883192
40
0.912449212554614
40
1
40
1
40
1
40
1
41
1
10
19.840055949596
20
0.477156930745451
30
0
41
1
10
19.6945084412582
20
0.517380888914914
30
0
41
1
10
19.376457139588
20
0.604756344984537
30
0
41
1
10
18.9719744915344
20
0.713258041775333
30
0
41
1
10
18.6267940972129
20
0.803462922312349
30
0
41
1
10
18.3679799533896
20
0.870252245002007
30
0
41
1
10
18.109215430449
20
0.935689189206556
30
0
41
1
10
17.7642938606842
20
1.02114375263025
30
0
41
1
10
17.3330849244894
20
1.12524073161859
30
0
41
1
10
16.901660523922
20
1.22383789570631
30
0
41
1
10
16.5564798416074
20
1.29876716348883
30
0
41
1
10
16.2976659131552
20
1.35304625774302
30
0
41
1
10
16.0389018771963
20
1.40528781198262
30
0
41
1
10
15.6939809715065
20
1.47279864284184
30
0
41
1
10
15.2627730655766
20
1.55304883202106
30
0
41
1
10
14.8313495177843
20
1.62576824117917
30
0
41
1
10
14.486169133032
20
1.67878426234654
30
0
41
1
10
14.2273550153988
20
1.71574826604362
30
0
41
1
10
13.9685905123181
20
1.75017117450614
30
0
41
1
10
13.6236689239492
20
1.79376106411033
30
0
41
1
10
13.192459924268
20
1.84304948668444
30
0
41
1
10
12.7610353956175
20
1.88342934828418
30
0
41
1
10
12.4158545595445
20
1.90980909797861
30
0
41
1
10
12.1570407536947
20
1.9261577204326
30
0
41
1
10
11.8982767427101
20
1.93968695969571
30
0
41
1
10
11.5533552913728
20
1.95546906670737
30
0
41
1
10
11.1221462636372
20
1.96941318455851
30
0
41
1
10
10.6907211063229
20
1.97387911185982
30
0
41
1
10
10.3455392642485
20
1.97130481318638
30
0
41
1
10
10.0867213470053
20
1.96561537280834
30
0
41
1
10
9.8279529253933
20
1.95707594516063
30
0
41
1
10
9.48303337757324
20
1.94365865623072
30
0
41
1
10
8.87962658117567
20
1.91244947573225
30
0
41
1
10
8.36174357183634
20
1.86852527413905
30
0
41
1
10
8.01640332849885
20
1.83005129474941
30
0
0
SPLINE
5
D5
100
AcDbEntity
8
1
62
256
6
ByLayer
370
18
48
1
60
0
100
AcDbSpline
70
4
71
3
72
8
73
4
40
0
40
0
40
0
40
0
40
1
40
1
40
1
40
1
41
1
10
54.2173034064932
20
2.17642086541429
30
0
41
1
10
54.2416642260497
20
2.10813810793019
30
0
41
1
10
54.2666857776937
20
2.03994384557802
30
0
41
1
10
54.2925040146531
20
1.97219448853397
30
0
0
SPLINE
5
D6
100
AcDbEntity
8
1
62
256
6
ByLayer
370
13
48
1
60
0
100
AcDbSpline
70
4
71
3
72
45
73
41
40
0
40
0
40
0
40
0
40
0.0149487377343302
40
0.0352982725536613
40
0.0556478073729928
40
0.0759973421923233
40
0.116696411830986
40
0.157395481469648
40
0.177745016288978
40
0.19809455110831
40
0.218444085927639
40
0.238793620746971
40
0.279492690385634
40
0.320191760024297
40
0.340541294843627
40
0.360890829662958
40
0.381240364482288
40
0.40158989930162
40
0.442288968940283
40
0.482988038578946
40
0.503337573398276
40
0.523687108217607
40
0.54403664303694
40
0.56438617785627
40
0.605085247494931
40
0.645784317133593
40
0.666133851952924
40
0.686483386772255
40
0.706832921591586
40
0.727182456410917
40
0.767881526049579
40
0.808580595688242
40
0.828930130507574
40
0.849279665326904
40
0.869629200146235
40
0.889978734965567
40
0.930677804604228
40
0.97137687424289
40
0.99172640906222
40
1
40
1
40
1
40
1
41
1
10
41.5904056119511
20
0.476933384392282
30
0
41
1
10
41.5270152861287
20
0.49440015510703
30
0
41
1
10
41.3773333049685
20
0.535508332919989
30
0
41
1
10
41.1414159133367
20
0.600071130591346
30
0
41
1
10
40.8826518782825
20
0.669934225032819
30
0
41
1
10
40.5377309676498
20
0.761523815421469
30
0
41
1
10
40.1065230519013
20
0.874093760690641
30
0
41
1
10
39.6750994915476
20
0.982369582494584
30
0
41
1
10
39.3299190972258
20
1.06578483043475
30
0
41
1
10
39.0711049534006
20
1.12693432672196
30
0
41
1
10
38.8123404304574
20
1.18636605381911
30
0
41
1
10
38.4674188606507
20
1.2636136602157
30
0
41
1
10
38.0362099242546
20
1.35669375859896
30
0
41
1
10
37.604785523088
20
1.44316945899553
30
0
41
1
10
37.2596048398175
20
1.50773483006395
30
0
41
1
10
37.0007909133305
20
1.5537677331973
30
0
41
1
10
36.7420268782746
20
1.59748247176472
30
0
41
1
10
36.3971059676397
20
1.6535187325737
30
0
41
1
10
35.9658980518891
20
1.71884025431521
30
0
41
1
10
35.5344744915348
20
1.77584639516002
30
0
41
1
10
35.1892940972136
20
1.81584611738012
30
0
41
1
10
34.9304799533899
20
1.84269242658632
30
0
41
1
10
34.6717154304488
20
1.86682663002077
30
0
41
1
10
34.3267938606444
20
1.89669461491684
30
0
41
1
10
33.8955849242514
20
1.92846856871745
30
0
41
1
10
33.4641605230874
20
1.95093743844853
30
0
41
1
10
33.1189798398183
20
1.96280319368984
30
0
41
1
10
32.8601659133312
20
1.96805942682806
30
0
41
1
10
32.6014018782748
20
1.97044983174786
30
0
41
1
10
32.2564809676399
20
1.97147925424284
30
0
41
1
10
31.825273051889
20
1.96687537909287
30
0
41
1
10
31.3938494915345
20
1.95282162737672
30
0
41
1
10
31.0486690972132
20
1.93551954855738
30
0
41
1
10
30.78985495339
20
1.91874272493803
30
0
41
1
10
30.5310904304495
20
1.89920099169041
30
0
41
1
10
30.1861688606453
20
1.87132040654416
30
0
41
1
10
29.7549599242526
20
1.83075759240339
30
0
41
1
10
29.3235355230887
20
1.78141935452769
30
0
41
1
10
29.0295646413846
20
1.74313528183453
30
0
41
1
10
28.9082077061938
20
1.72613072798973
30
0
41
1
10
28.8731308892102
20
1.72112907256243
30
0
0
SPLINE
5
D7
100
AcDbEntity
8
1
62
256
6
ByLayer
370
18
48
1
60
0
100
AcDbSpline
70
4
71
3
72
8
73
4
40
0
40
0
40
0
40
0
40
1
40
1
40
1
40
1
41
1
10
3.53163507396039
20
3.32068423334459
30
0
41
1
10
3.663965095409
20
3.25830902164441
30
0
41
1
10
3.79730771751139
20
3.19610745456473
30
0
41
1
10
3.93161879972985
20
3.13409048792872
30
0
0
SPLINE
5
D8
100
AcDbEntity
8
1
62
256
6
ByLayer
370
13
48
1
60
0
100
AcDbSpline
70
4
71
3
72
14
73
10
40
0
40
0
40
0
40
0
40
0.500000000000032
40
0.500000000000032
40
0.625000000000041
40
0.625000000000041
40
0.75000000000005
40
0.75000000000005
40
1
40
1
40
1
40
1
41
1
10
3.63829874462831
20
-1.6178852661688
30
0
41
1
10
3.61414668647961
20
-1.61053323217646
30
0
41
1
10
3.59312300058338
20
-1.60122590793657
30
0
41
1
10
3.57020481613776
20
-1.58745236726182
30
0
41
1
10
3.56579648161605
20
-1.58458694873431
30
0
41
1
10
3.55746955970434
20
-1.57874371641802
30
0
41
1
10
3.55352930342477
20
-1.57575345285744
30
0
41
1
10
3.5423441979961
20
-1.56658583556052
30
0
41
1
10
3.53573155045442
20
-1.56021268516898
30
0
41
1
10
3.5299215724572
20
-1.55358792346937
30
0
0
SPLINE
5
D9
100
AcDbEntity
8
1
62
256
6
ByLayer
370
18
48
1
60
0
100
AcDbSpline
70
4
71
3
72
44
73
40
40
0
40
0
40
0
40
0
40
0.0101678336220611
40
0.0309308759827773
40
0.0516939183434924
40
0.0932200030649237
40
0.134746087786356
40
0.15550913014707
40
0.176272172507786
40
0.1970352148685
40
0.217798257229217
40
0.259324341950649
40
0.300850426672081
40
0.321613469032795
40
0.342376511393512
40
0.363139553754226
40
0.383902596114942
40
0.425428680836374
40
0.466954765557807
40
0.487717807918522
40
0.508480850279237
40
0.529243892639955
40
0.550006935000669
40
0.591533019722099
40
0.633059104443531
40
0.653822146804246
40
0.674585189164962
40
0.695348231525678
40
0.716111273886393
40
0.757637358607825
40
0.799163443329256
40
0.819926485689973
40
0.840689528050687
40
0.861452570411403
40
0.882215612772119
40
0.92374169749355
40
0.965267782214981
40
0.986030824575696
40
1
40
1
40
1
40
1
41
1
10
46.581715307606
20
-1.87588954722793
30
0
41
1
10
46.5394566315806
20
-1.87886186330073
30
0
41
1
10
46.4109427565313
20
-1.88753952146681
30
0
41
1
10
46.1961949890107
20
-1.90053693517726
30
0
41
1
10
45.8519876488057
20
-1.91600930239497
30
0
41
1
10
45.4216149073073
20
-1.92714490318903
30
0
41
1
10
44.9893343876609
20
-1.93377721607848
30
0
41
1
10
44.6434612081627
20
-1.93456362417965
30
0
41
1
10
44.3846435628136
20
-1.93137095507848
30
0
41
1
10
44.125881160526
20
-1.92564296288975
30
0
41
1
10
43.7816743649964
20
-1.91190924188362
30
0
41
1
10
43.3513027808624
20
-1.88674421177888
30
0
41
1
10
42.9190229600912
20
-1.85799330784064
30
0
41
1
10
42.5731499959925
20
-1.83061473514752
30
0
41
1
10
42.3143325554911
20
-1.80643558962967
30
0
41
1
10
42.0555699890138
20
-1.77984679149429
30
0
41
1
10
41.7113626488051
20
-1.73814751924036
30
0
41
1
10
41.2809899073016
20
-1.67892844392353
30
0
41
1
10
40.8487093876508
20
-1.61733961120996
30
0
41
1
10
40.5028362081504
20
-1.56420723583969
30
0
41
1
10
40.2440185628009
20
-1.52116799949167
30
0
41
1
10
39.9852561605138
20
-1.4760577361225
30
0
41
1
10
39.6410493649848
20
-1.41007363683465
30
0
41
1
10
39.2106777808531
20
-1.32204384537562
30
0
41
1
10
38.7783979600862
20
-1.233089365642
30
0
41
1
10
38.4325249959906
20
-1.1589355260696
30
0
41
1
10
38.1737075554906
20
-1.10087470995453
30
0
41
1
10
37.9149449890142
20
-1.04126629260315
30
0
41
1
10
37.5707376488072
20
-0.956871670787336
30
0
41
1
10
37.140364907305
20
-0.847856371729222
30
0
41
1
10
36.7080843876535
20
-0.73942752908772
30
0
41
1
10
36.3622112081521
20
-0.650821768159261
30
0
41
1
10
36.1033935628022
20
-0.582877435460119
30
0
41
1
10
35.8446311605149
20
-0.514045348083812
30
0
41
1
10
35.500424364985
20
-0.418717863824668
30
0
41
1
10
35.0700527808523
20
-0.298383671247166
30
0
41
1
10
34.6377729600852
20
-0.180106990080304
30
0
41
1
10
34.3201932351757
20
-0.0927075144158778
30
0
41
1
10
34.1758238840404
20
-0.0527159847869711
30
0
41
1
10
34.1177763227901
20
-0.0366142137085035
30
0
0
SPLINE
5
DA
100
AcDbEntity
8
1
62
256
6
ByLayer
370
18
48
1
60
0
100
AcDbSpline
70
4
71
5
72
12
73
6
40
0
40
0
40
0
40
0
40
0
40
0
40
1
40
1
40
1
40
1
40
1
40
1
41
1
10
13.3293597982879
20
-0.305598395817469
30
0
41
1
10
12.0363850545855
20
0.0290561356252681
30
0
41
1
10
10.7522853791666
20
0.404978657518541
30
0
41
1
10
9.47792989412557
20
0.82017423279413
30
0
41
1
10
8.21403240048963
20
1.27205099476453
30
0
41
1
10
6.96105499978825
20
1.75789006088741
30
0
0
SPLINE
5
DB
100
AcDbEntity
8
1
62
256
6
ByLayer
370
18
48
1
60
0
100
AcDbSpline
70
4
71
3
72
39
73
35
40
0
40
0
40
0
40
0
40
0.0132498374837931
40
0.0581021175981656
40
0.0805282576553521
40
0.102954397712539
40
0.125380537769726
40
0.147806677826912
40
0.192658957941285
40
0.237511238055658
40
0.259937378112845
40
0.282363518170032
40
0.304789658227217
40
0.327215798284404
40
0.372068078398777
40
0.416920358513151
40
0.439346498570337
40
0.461772638627523
40
0.48419877868471
40
0.506624918741897
40
0.55147719885627
40
0.596329478970642
40
0.618755619027829
40
0.641181759085016
40
0.663607899142202
40
0.686034039199389
40
0.730886319313762
40
0.775738599428135
40
0.798164739485321
40
0.820590879542508
40
0.843017019599695
40
0.865443159656881
40
0.910295439771254
40
1
40
1
40
1
40
1
41
1
10
24.8709196484574
20
-1.87128404460137
30
0
41
1
10
24.8200098097833
20
-1.87466187139958
30
0
41
1
10
24.5966577927478
20
-1.88897248201792
30
0
41
1
10
24.2862093876536
20
-1.90656760007278
30
0
41
1
10
23.9403362081525
20
-1.92173363624229
30
0
41
1
10
23.6815185628027
20
-1.92938598196235
30
0
41
1
10
23.4227561605153
20
-1.93452545597111
30
0
41
1
10
23.0785493651692
20
-1.93556498596797
30
0
41
1
10
22.6481777819686
20
-1.92867421103904
30
0
41
1
10
22.2158979640287
20
-1.91769304558642
30
0
41
1
10
21.8700250004015
20
-1.90441228640628
30
0
41
1
10
21.6112075557124
20
-1.89069639039113
30
0
41
1
10
21.3524449836303
20
-1.87447961175224
30
0
41
1
10
21.0082376379569
20
-1.84661507998666
30
0
41
1
10
20.5778648827182
20
-1.80414398137992
30
0
41
1
10
20.1455843309205
20
-1.75864931088748
30
0
41
1
10
19.7997111350436
20
-1.71808093707148
30
0
41
1
10
19.5408935061752
20
-1.68419442750391
30
0
41
1
10
19.2821311289066
20
-1.64804011888643
30
0
41
1
10
18.9379243239678
20
-1.59372348204488
30
0
41
1
10
18.5075526724318
20
-1.51942870230479
30
0
41
1
10
18.0752726362647
20
-1.44346511846999
30
0
41
1
10
17.729399699806
20
-1.37922802666341
30
0
41
1
10
17.4705826948642
20
-1.32819804175835
30
0
41
1
10
17.2118206777074
20
-1.27533501107976
30
0
41
1
10
16.8676140116582
20
-1.1994044621498
30
0
41
1
10
16.4372430423004
20
-1.09988720045863
30
0
41
1
10
16.0049671388923
20
-1.00018108829889
30
0
41
1
10
15.6590963254276
20
-0.917955774248128
30
0
41
1
10
15.4002765857638
20
-0.854293548200474
30
0
41
1
10
15.1415104266582
20
-0.789402242148128
30
0
41
1
10
14.7973045636453
20
-0.698594928360819
30
0
41
1
10
14.1974400163918
20
-0.530951422166709
30
0
41
1
10
13.6775122671744
20
-0.394728841960756
30
0
41
1
10
13.3293598000835
20
-0.305598398201539
30
0
0
SPLINE
5
DC
100
AcDbEntity
8
1
62
256
6
ByLayer
370
18
48
1
60
0
100
AcDbSpline
70
2053
71
3
72
105
73
101
40
0
40
0
40
0
40
0
40
0.0312499999999965
40
0.0312499999999965
40
0.0624999999999929
40
0.0624999999999929
40
0.0937499999999894
40
0.0937499999999894
40
0.124999999999986
40
0.124999999999986
40
0.156249999999982
40
0.156249999999982
40
0.187499999999979
40
0.187499999999979
40
0.218749999999975
40
0.218749999999975
40
0.234374999999973
40
0.234374999999973
40
0.242187499999973
40
0.242187499999973
40
0.249999999999973
40
0.249999999999973
40
0.281249999999973
40
0.281249999999973
40
0.296874999999973
40
0.296874999999973
40
0.304687499999973
40
0.304687499999973
40
0.312499999999973
40
0.312499999999973
40
0.343749999999973
40
0.343749999999973
40
0.359374999999972
40
0.359374999999972
40
0.374999999999971
40
0.39062499999997
40
0.39062499999997
40
0.39843749999997
40
0.39843749999997
40
0.406249999999969
40
0.406249999999969
40
0.437499999999967
40
0.437499999999967
40
0.453124999999968
40
0.453124999999968
40
0.46874999999997
40
0.484374999999971
40
0.484374999999971
40
0.499999999999972
40
0.499999999999972
40
0.531249999999969
40
0.531249999999969
40
0.546874999999971
40
0.546874999999971
40
0.562499999999972
40
0.562499999999972
40
0.593749999999975
40
0.593749999999975
40
0.609374999999976
40
0.609374999999976
40
0.624999999999977
40
0.624999999999977
40
0.65624999999998
40
0.65624999999998
40
0.671874999999981
40
0.671874999999981
40
0.687499999999983
40
0.687499999999983
40
0.718749999999986
40
0.718749999999986
40
0.734374999999986
40
0.734374999999986
40
0.749999999999987
40
0.765624999999987
40
0.765624999999987
40
0.781249999999988
40
0.781249999999988
40
0.81249999999999
40
0.81249999999999
40
0.82031249999999
40
0.82031249999999
40
0.828124999999991
40
0.828124999999991
40
0.843749999999992
40
0.859374999999993
40
0.859374999999993
40
0.874999999999994
40
0.874999999999994
40
0.906249999999995
40
0.906249999999995
40
0.921874999999996
40
0.921874999999996
40
0.937499999999997
40
0.953124999999998
40
0.953124999999998
40
0.968749999999998
40
0.968749999999998
40
0.984374999999999
40
0.984374999999999
40
1
40
1
40
1
40
1
41
1
10
54.1207455197702
20
-1.36006423721467
30
0
41
1
10
54.1076185438405
20
-1.37517962377032
30
0
41
1
10
54.0949342763602
20
-1.38747006438348
30
0
41
1
10
54.0702892046118
20
-1.4067470032029
30
0
41
1
10
54.0583287973015
20
-1.41373157696759
30
0
41
1
10
54.0350121177558
20
-1.42217575661598
30
0
41
1
10
54.0239838547743
20
-1.42351570420817
30
0
41
1
10
54.0029774500551
20
-1.42061109115806
30
0
41
1
10
53.9929984427406
20
-1.41636651775946
30
0
41
1
10
53.9739905540611
20
-1.40192545638749
30
0
41
1
10
53.9652385885049
20
-1.39194074684821
30
0
41
1
10
53.9490675393381
20
-1.36651738638304
30
0
41
1
10
53.9416479532705
20
-1.35108294286456
30
0
41
1
10
53.9281543867446
20
-1.3142570021968
30
0
41
1
10
53.9222990421898
20
-1.29345862992116
30
0
41
1
10
53.9148393424583
20
-1.25871501582253
30
0
41
1
10
53.9125746290504
20
-1.2465366542533
30
0
41
1
10
53.9095275807017
20
-1.22733218075689
30
0
41
1
10
53.9085703900129
20
-1.22077422962039
30
0
41
1
10
53.9067779745487
20
-1.2073343730099
30
0
41
1
10
53.9059404041006
20
-1.20043002296958
30
0
41
1
10
53.9021059162573
20
-1.1653640767378
30
0
41
1
10
53.9001619706047
20
-1.13574953069687
30
0
41
1
10
53.8990692335187
20
-1.08893808439396
30
0
41
1
10
53.8990117053929
20
-1.07293298142878
30
0
41
1
10
53.8994337495049
20
-1.04828568812036
30
0
41
1
10
53.8996605609464
20
-1.03993477405419
30
0
41
1
10
53.9002898777985
20
-1.02315229959837
30
0
41
1
10
53.9006908802327
20
-1.01474377492573
30
0
41
1
10
53.903131650943
20
-0.972616811151653
30
0
41
1
10
53.9064619632272
20
-0.938648075254577
30
0
41
1
10
53.9137972361286
20
-0.88730108385576
30
0
41
1
10
53.9166588711561
20
-0.870019499271223
30
0
41
1
10
53.9230632192736
20
-0.836267811350723
30
0
41
1
10
53.9301664812669
20
-0.803139319275658
30
0
41
1
10
53.9386854240098
20
-0.771233860712897
30
0
41
1
10
53.9456263892409
20
-0.747768830537495
30
0
41
1
10
53.9480405297039
20
-0.739999684022848
30
0
41
1
10
53.9530099984286
20
-0.724764421909555
30
0
41
1
10
53.955563815443
20
-0.717299774914437
30
0
41
1
10
53.9686714016806
20
-0.68071510099989
30
0
41
1
10
53.9802338714516
20
-0.653789178898876
30
0
41
1
10
53.9991489931203
20
-0.616693319672635
30
0
41
1
10
54.0056584591381
20
-0.605002516288835
30
0
41
1
10
54.0189378055732
20
-0.583092040603276
30
0
41
1
10
54.0325164087514
20
-0.562575640691136
30
0
41
1
10
54.0466584213856
20
-0.544698291499145
30
0
41
1
10
54.0610689570982
20
-0.528103681202424
30
0
41
1
10
54.0683473615334
20
-0.520521224103362
30
0
41
1
10
54.0902289924557
20
-0.499921334765503
30
0
41
1
10
54.1049424999602
20
-0.488959860440957
30
0
41
1
10
54.127115183184
20
-0.476376918085805
30
0
41
1
10
54.1345464506028
20
-0.472824784518877
30
0
41
1
10
54.1492186001635
20
-0.467087974001032
30
0
41
1
10
54.15647933489
20
-0.464887963221344
30
0
41
1
10
54.1780197809471
20
-0.46021561423936
30
0
41
1
10
54.1920603140967
20
-0.459654473675613
30
0
41
1
10
54.212535959226
20
-0.462648761772414
30
0
41
1
10
54.2192859248448
20
-0.464301970174631
30
0
41
1
10
54.2323674352334
20
-0.468866946594915
30
0
41
1
10
54.2387175088869
20
-0.471776636087156
30
0
41
1
10
54.2571733704233
20
-0.482375834649531
30
0
41
1
10
54.2686905447665
20
-0.491916839807658
30
0
41
1
10
54.2846059381816
20
-0.51020914010445
30
0
41
1
10
54.2896844637032
20
-0.516976533494528
30
0
41
1
10
54.2993290751198
20
-0.53194810023362
30
0
41
1
10
54.3038251776634
20
-0.540043983724473
30
0
41
1
10
54.3163009084515
20
-0.56619632037274
30
0
41
1
10
54.3232786951843
20
-0.586094316947623
30
0
41
1
10
54.3314379955652
20
-0.620131312681536
30
0
41
1
10
54.3337726048153
20
-0.632236124368319
30
0
41
1
10
54.3375024639104
20
-0.657334597737815
30
0
41
1
10
54.3403301053819
20
-0.683443411978828
30
0
41
1
10
54.3413253890815
20
-0.711623021676758
30
0
41
1
10
54.3413662095007
20
-0.740898117562267
30
0
41
1
10
54.3409068477881
20
-0.756127845950147
30
0
41
1
10
54.3380133404998
20
-0.803330703849923
30
0
41
1
10
54.3341584852789
20
-0.835652375696043
30
0
41
1
10
54.327091075374
20
-0.877132368123995
30
0
41
1
10
54.3255641136416
20
-0.885482824950145
30
0
41
1
10
54.3222830244557
20
-0.902295276969085
30
0
41
1
10
54.3205229893855
20
-0.9107838021676
30
0
41
1
10
54.3149421112768
20
-0.936227911924192
30
0
41
1
10
54.3067587898053
20
-0.969865505913845
30
0
41
1
10
54.2972256309175
20
-1.00297243932374
30
0
41
1
10
54.2870587669852
20
-1.03582662043507
30
0
41
1
10
54.281623781526
20
-1.05221989431072
30
0
41
1
10
54.264748472208
20
-1.10005681719937
30
0
41
1
10
54.2527155487998
20
-1.13033245407129
30
0
41
1
10
54.2337032983634
20
-1.17354622404238
30
0
41
1
10
54.2271889347368
20
-1.18760221995035
30
0
41
1
10
54.2141197810636
20
-1.21443801508951
30
0
41
1
10
54.2009469734003
20
-1.24014904844901
30
0
41
1
10
54.187593931106
20
-1.26372117374387
30
0
41
1
10
54.1741565570135
20
-1.286243425853
30
0
41
1
10
54.1673749441436
20
-1.29700721990767
30
0
41
1
10
54.1539290290428
20
-1.3171805411462
30
0
41
1
10
54.1472443651678
20
-1.32662764018934
30
0
41
1
10
54.1339447972521
20
-1.34427866920362
30
0
41
1
10
54.1273090077351
20
-1.35250654393684
30
0
41
1
10
54.1207455197702
20
-1.36006423721467
30
0
0
SPLINE
5
DD
100
AcDbEntity
8
1
62
256
6
ByLayer
370
18
48
1
60
0
100
AcDbSpline
70
4
71
3
72
8
73
4
40
0
40
0
40
0
40
0
40
1
40
1
40
1
40
1
41
1
10
54.2173034064932
20
-2.17642086541429
30
0
41
1
10
54.2416642260482
20
-2.10813810792988
30
0
41
1
10
54.2666857776938
20
-2.03994384557805
30
0
41
1
10
54.2925040146531
20
-1.972194488534
30
0
0
SPLINE
5
DE
100
AcDbEntity
8
1
62
256
6
ByLayer
370
18
48
1
60
0
100
AcDbSpline
70
4
71
3
72
14
73
10
40
0
40
0
40
0
40
0
40
0.49999999999999
40
0.49999999999999
40
0.749999999999985
40
0.749999999999985
40
0.874999999999993
40
0.874999999999993
40
1
40
1
40
1
40
1
41
1
10
54.2925040146527
20
-1.97219448853369
30
0
41
1
10
54.3470267711498
20
-1.82912191145854
30
0
41
1
10
54.4042222484443
20
-1.69060330860768
30
0
41
1
10
54.4959136729676
20
-1.48980028838238
30
0
41
1
10
54.5274637239874
20
-1.42404601456249
30
0
41
1
10
54.5765453195759
20
-1.32733140188836
30
0
41
1
10
54.5932177990355
20
-1.29537445539282
30
0
41
1
10
54.6271040175567
20
-1.23227960957138
30
0
41
1
10
54.644225469391
20
-1.20131377659428
30
0
41
1
10
54.6615326735546
20
-1.17090381290302
30
0
0
SPLINE
5
DF
100
AcDbEntity
8
1
62
256
6
ByLayer
370
18
48
1
60
0
100
AcDbSpline
70
4
71
3
72
8
73
4
40
0
40
0
40
0
40
0
40
1
40
1
40
1
40
1
41
1
10
54.6615326735546
20
-1.17090381290299
30
0
41
1
10
54.7765828980212
20
-0.847126403749542
30
0
41
1
10
54.8883320439755
20
-0.522162647777321
30
0
41
1
10
54.996726310738
20
-0.195993210013
30
0
0
SPLINE
5
E0
100
AcDbEntity
8
1
62
256
6
ByLayer
370
18
48
1
60
0
100
AcDbSpline
70
4
71
3
72
8
73
4
40
0
40
0
40
0
40
0
40
1
40
1
40
1
40
1
41
1
10
54.9967263107319
20
0.195993210031389
30
0
41
1
10
55.0010917071472
20
0.0653167798225525
30
0
41
1
10
55.0010907524912
20
-0.0653453570689919
30
0
41
1
10
54.9967263107324
20
-0.195993210018543
30
0
0
SPLINE
5
E1
100
AcDbEntity
8
1
62
256
6
ByLayer
370
18
48
1
60
0
100
AcDbSpline
70
4
71
3
72
8
73
4
40
0
40
0
40
0
40
0
40
1
40
1
40
1
40
1
41
1
10
54.996726310732
20
0.195993210031418
30
0
41
1
10
54.9813921509975
20
0.144883267959386
30
0
41
1
10
54.9659816229772
20
0.0937975878970292
30
0
41
1
10
54.9504950155155
20
0.0427360780790877
30
0
0
SPLINE
5
E2
100
AcDbEntity
8
1
62
256
6
ByLayer
370
18
48
1
60
0
100
AcDbSpline
70
4
71
3
72
46
73
42
40
0
40
0
40
0
40
0
40
0.124999999999999
40
0.124999999999999
40
0.156250000000005
40
0.156250000000005
40
0.18750000000001
40
0.18750000000001
40
0.250000000000021
40
0.250000000000021
40
0.312500000000032
40
0.312500000000032
40
0.343750000000037
40
0.343750000000037
40
0.375000000000043
40
0.375000000000043
40
0.437500000000039
40
0.437500000000039
40
0.468750000000038
40
0.468750000000038
40
0.500000000000036
40
0.500000000000036
40
0.562500000000032
40
0.562500000000032
40
0.593750000000031
40
0.593750000000031
40
0.625000000000029
40
0.625000000000029
40
0.687500000000025
40
0.687500000000025
40
0.718750000000018
40
0.718750000000018
40
0.75000000000001
40
0.75000000000001
40
0.875000000000001
40
0.875000000000001
40
0.906250000000001
40
0.906250000000001
40
0.937500000000001
40
0.937500000000001
40
1
40
1
40
1
40
1
41
1
10
54.9504950155155
20
0.0427360780790877
30
0
41
1
10
54.9333107514938
20
-0.0139228427485136
30
0
41
1
10
54.9135539239498
20
-0.0692864152041182
30
0
41
1
10
54.8855211189473
20
-0.136755309053768
30
0
41
1
10
54.8797455260718
20
-0.150161160278543
30
0
41
1
10
54.8678427937009
20
-0.176788584823981
30
0
41
1
10
54.8617257234579
20
-0.189982942019782
30
0
41
1
10
54.8431378086426
20
-0.228644630371775
30
0
41
1
10
54.8303407112644
20
-0.253401270297417
30
0
41
1
10
54.8039549423107
20
-0.30081567979019
30
0
41
1
10
54.7903668141752
20
-0.323474827340306
30
0
41
1
10
54.7693604801642
20
-0.35575001153299
30
0
41
1
10
54.7622182116306
20
-0.366269329184121
30
0
41
1
10
54.7479757147718
20
-0.38633298565864
30
0
41
1
10
54.7408591177913
20
-0.395907225293797
30
0
41
1
10
54.7195234178135
20
-0.423273119035628
30
0
41
1
10
54.7053192445026
20
-0.439714617970793
30
0
41
1
10
54.6840282465298
20
-0.461617132034689
30
0
41
1
10
54.676933587736
20
-0.468456379455119
30
0
41
1
10
54.6627438755428
20
-0.481181091209919
30
0
41
1
10
54.6556915253996
20
-0.487024177757888
30
0
41
1
10
54.6349119465746
20
-0.502817238249634
30
0
41
1
10
54.6214524348822
20
-0.511137780007999
30
0
41
1
10
54.6017760520276
20
-0.520436043253284
30
0
41
1
10
54.5953029491014
20
-0.523003105178219
30
0
41
1
10
54.5825172471737
20
-0.527072693155276
30
0
41
1
10
54.5762130712998
20
-0.528567606672254
30
0
41
1
10
54.5578140184853
20
-0.531429114612251
30
0
41
1
10
54.5461268040307
20
-0.531216240556489
30
0
41
1
10
54.5293261842928
20
-0.527964167424329
30
0
41
1
10
54.523848215354
20
-0.526389562571495
30
0
41
1
10
54.5131190816199
20
-0.522282260797908
30
0
41
1
10
54.5078558342218
20
-0.519739698158844
30
0
41
1
10
54.4823902842232
20
-0.504879647432233
30
0
41
1
10
54.4644502879601
20
-0.486167414825928
30
0
41
1
10
54.4441520272176
20
-0.455761532894968
30
0
41
1
10
54.4402012567676
20
-0.449324180326784
30
0
41
1
10
54.4325033250745
20
-0.435756456715381
30
0
41
1
10
54.4287562836324
20
-0.428623824707358
30
0
41
1
10
54.417878002357
20
-0.406375455849002
30
0
41
1
10
54.4110793872896
20
-0.390363671800657
30
0
41
1
10
54.4046738721519
20
-0.373264880191527
30
0
0
SPLINE
5
E3
100
AcDbEntity
8
1
62
256
6
ByLayer
370
18
48
1
60
0
100
AcDbSpline
70
4
71
3
72
8
73
4
40
0
40
0
40
0
40
0
40
1
40
1
40
1
40
1
41
1
10
54.4046738721521
20
-0.373264880191243
30
0
41
1
10
54.29991252063
20
-0.0936164085439373
30
0
41
1
10
54.1711274757013
20
0.20189210581654
30
0
41
1
10
54.0186407732593
20
0.513048060151448
30
0
0
SPLINE
5
E4
100
AcDbEntity
8
1
62
256
6
ByLayer
370
18
48
1
60
0
100
AcDbSpline
70
4
71
3
72
24
73
20
40
0
40
0
40
0
40
0
40
0.0684835149441318
40
0.0684835149441318
40
0.135020406733838
40
0.135020406733838
40
0.201557298523544
40
0.201557298523544
40
0.26809419031325
40
0.26809419031325
40
0.334631082102956
40
0.334631082102956
40
0.467704865682368
40
0.467704865682368
40
0.60077864926178
40
0.60077864926178
40
0.733852432841192
40
0.733852432841192
40
1
40
1
40
1
40
1
41
1
10
53.9783559203592
20
0.528179630410705
30
0
41
1
10
53.9639546670252
20
0.532744836790073
30
0
41
1
10
53.9493972743701
20
0.536556037408729
30
0
41
1
10
53.92049683543
20
0.543059168935486
30
0
41
1
10
53.9061714440144
20
0.545865979524706
30
0
41
1
10
53.8774472146516
20
0.551228746124423
30
0
41
1
10
53.863016506062
20
0.553576046585704
30
0
41
1
10
53.8339953955046
20
0.557331138135368
30
0
41
1
10
53.8194152830438
20
0.558810097060245
30
0
41
1
10
53.7901240827321
20
0.560903561085297
30
0
41
1
10
53.7753984294195
20
0.56151321261035
30
0
41
1
10
53.7313238862671
20
0.561892659054195
30
0
41
1
10
53.7019988687145
20
0.560140960973598
30
0
41
1
10
53.6436007108205
20
0.553148271179793
30
0
41
1
10
53.614527085299
20
0.5479445902767
30
0
41
1
10
53.5566938847265
20
0.535190381257962
30
0
41
1
10
53.5279173669545
20
0.527852725160784
30
0
41
1
10
53.4422550764596
20
0.501405960373546
30
0
41
1
10
53.3859985141116
20
0.478429334842303
30
0
41
1
10
53.3311253470752
20
0.449271175676898
30
0
0
SPLINE
5
E5
100
AcDbEntity
8
1
62
256
6
ByLayer
370
18
48
1
60
0
100
AcDbSpline
70
4
71
5
72
20
73
14
40
0
40
0
40
0
40
0
40
0
40
0
40
0.0111883553415979
40
0.0955206580750507
40
0.185459932127107
40
0.247072170123412
40
0.358688828890144
40
0.53113334092457
40
0.70349695139087
40
0.876486344216196
40
1
40
1
40
1
40
1
40
1
40
1
41
1
10
8.21286882766839
20
3.42368042455988
30
0
41
1
10
8.21194972704458
20
3.42042110878756
30
0
41
1
10
8.20408647989655
20
3.39259366586191
30
0
41
1
10
8.1885478380272
20
3.33854849312598
30
0
41
1
10
8.16715694954414
20
3.26651803408851
30
0
41
1
10
8.13481430333169
20
3.16193041727888
30
0
41
1
10
8.08540620369109
20
3.0104073655861
30
0
41
1
10
8.02409175094891
20
2.83354999324763
30
0
41
1
10
7.94987799960353
20
2.63332532759611
30
0
41
1
10
7.86345656726269
20
2.41685457516817
30
0
41
1
10
7.78542300316701
20
2.23458270679899
30
0
41
1
10
7.72619671382682
20
2.10276070752335
30
0
41
1
10
7.68792126445868
20
2.02005310481815
30
0
41
1
10
7.67183764081881
20
1.9857188981845
30
0
0
SPLINE
5
E6
100
AcDbEntity
8
1
62
256
6
ByLayer
370
18
48
1
60
0
100
AcDbSpline
70
4
71
3
72
19
73
15
40
0
40
0
40
0
40
0
40
0.121572954581272
40
0.186995964023579
40
0.252418973465886
40
0.317841982908194
40
0.383264992350501
40
0.514111011235116
40
0.644957030119731
40
0.710380039562039
40
0.775803049004346
40
0.841226058446654
40
0.906649067888961
40
1
40
1
40
1
40
1
41
1
10
54.2173034064932
20
2.17642086541429
30
0
41
1
10
54.0570011695069
20
2.17768379748247
30
0
41
1
10
53.8104067599964
20
2.17690778711932
30
0
41
1
10
53.4775009369322
20
2.16966486604372
30
0
41
1
10
53.2186873247113
20
2.15988442014518
30
0
41
1
10
52.9599231072768
20
2.14697654993483
30
0
41
1
10
52.6149558519433
20
2.12731647715049
30
0
41
1
10
52.1836940283877
20
2.09629388040568
30
0
41
1
10
51.7523257874809
20
2.05548422680238
30
0
41
1
10
51.4071903924614
20
2.01650558518651
30
0
41
1
10
51.1483765628048
20
1.98319831512788
30
0
41
1
10
50.8896118156719
20
1.94704469483847
30
0
41
1
10
50.5940706404444
20
1.90410747560139
30
0
41
1
10
50.3847506554144
20
1.87140862980817
30
0
41
1
10
50.2616714688613
20
1.85133440221139
30
0
0
SPLINE
5
E7
100
AcDbEntity
8
1
62
256
6
ByLayer
370
18
48
1
60
0
100
AcDbSpline
70
4
71
3
72
40
73
36
40
0
40
0
40
0
40
0
40
0.0088740372967996
40
0.0519664704578082
40
0.0950589036188163
40
0.116605120199321
40
0.138151336779826
40
0.15969755336033
40
0.181243769940834
40
0.224336203101843
40
0.267428636262852
40
0.288974852843356
40
0.310521069423861
40
0.332067286004365
40
0.353613502584869
40
0.396705935745878
40
0.439798368906887
40
0.461344585487391
40
0.482890802067895
40
0.5044370186484
40
0.525983235228904
40
0.569075668389913
40
0.612168101550922
40
0.633714318131426
40
0.65526053471193
40
0.676806751292435
40
0.698352967872939
40
0.741445401033948
40
0.784537834194956
40
0.806084050775461
40
0.827630267355965
40
0.849176483936469
40
0.870722700516974
40
0.913815133677982
40
1
40
1
40
1
40
1
41
1
10
19.6827562126497
20
0.555402446426257
30
0
41
1
10
19.6472356564766
20
0.566180714445977
30
0
41
1
10
19.4392274363447
20
0.629151894598294
30
0
41
1
10
19.0586940283875
20
0.743209861773522
30
0
41
1
10
18.6273257874808
20
0.869066439320022
30
0
41
1
10
18.2821903924614
20
0.966975208519841
30
0
41
1
10
18.023376562805
20
1.03926313617248
30
0
41
1
10
17.7646118156722
20
1.10996659449359
30
0
41
1
10
17.4196438219513
20
1.20197343206331
30
0
41
1
10
16.988380835608
20
1.31358423869381
30
0
41
1
10
16.557011653891
20
1.41911641442303
30
0
41
1
10
16.211875938535
20
1.49907359057193
30
0
41
1
10
15.9530623245076
20
1.5567682624912
30
0
41
1
10
15.6942981064911
20
1.61214142823931
30
0
41
1
10
15.3493308567738
20
1.68329305347243
30
0
41
1
10
14.9180690445796
20
1.76734001870909
30
0
41
1
10
14.4867008191675
20
1.84318570339397
30
0
41
1
10
14.141565435481
20
1.89810683564042
30
0
41
1
10
13.882751632563
20
1.93609966865387
30
0
41
1
10
13.6239869048667
20
1.97124075972161
30
0
41
1
10
13.2790188920307
20
2.01523628054926
30
0
41
1
10
12.847755842583
20
2.06426704167842
30
0
41
1
10
12.4163865388145
20
2.10368696504136
30
0
41
1
10
12.0712506588247
20
2.12868010442932
30
0
41
1
10
11.812437145549
20
2.14357962621665
30
0
41
1
10
11.5536729167203
20
2.15535001361448
30
0
41
1
10
11.2087050421139
20
2.16826665269426
30
0
41
1
10
10.7774419178806
20
2.17792152508923
30
0
41
1
10
10.3460716726081
20
2.17742603373284
30
0
41
1
10
10.0009345709701
20
2.17029648956208
30
0
41
1
10
9.74211686925014
20
2.16080911440417
30
0
41
1
10
9.48334823120004
20
2.1481906631966
30
0
41
1
10
9.1383823199883
20
2.12889154830251
30
0
41
1
10
8.53474630340281
20
2.0862500211949
30
0
41
1
10
8.01699576630799
20
2.03177159360456
30
0
41
1
10
7.67183764081881
20
1.9857188981845
30
0
0
SPLINE
5
E8
100
AcDbEntity
8
1
62
256
6
ByLayer
370
18
48
1
60
0
100
AcDbSpline
70
4
71
3
72
10
73
6
40
0
40
0
40
0
40
0
40
0.5
40
0.5
40
1
40
1
40
1
40
1
41
1
10
53.7899135615182
20
3.37348048900475
30
0
41
1
10
53.861940654747
20
3.17609217609521
30
0
41
1
10
53.9330337007243
20
2.97686474720751
30
0
41
1
10
54.0748975348092
20
2.57739561784291
30
0
41
1
10
54.1457353948658
20
2.37702302994154
30
0
41
1
10
54.2173034064932
20
2.1764208654144
30
0
0
SPLINE
5
E9
100
AcDbEntity
8
1
62
256
6
ByLayer
370
18
48
1
60
0
100
AcDbSpline
70
4
71
3
72
46
73
42
40
0
40
0
40
0
40
0
40
0.0085292347644305
40
0.0285819678256761
40
0.0486347008869216
40
0.0686874339481676
40
0.0887401670094127
40
0.128845633131904
40
0.168951099254395
40
0.18900383231564
40
0.209056565376886
40
0.229109298438129
40
0.249162031499376
40
0.289267497621868
40
0.329372963744359
40
0.349425696805604
40
0.36947842986685
40
0.389531162928094
40
0.40958389598934
40
0.449689362111832
40
0.489794828234324
40
0.509847561295569
40
0.529900294356814
40
0.549953027418062
40
0.570005760479306
40
0.610111226601796
40
0.650216692724287
40
0.670269425785533
40
0.690322158846778
40
0.710374891908024
40
0.730427624969269
40
0.77053309109176
40
0.810638557214252
40
0.830691290275498
40
0.850744023336742
40
0.870796756397988
40
0.890849489459234
40
0.930954955581724
40
0.971060421704215
40
0.99111315476546
40
1
40
1
40
1
40
1
41
1
10
41.4245682537928
20
0.557726376103375
30
0
41
1
10
41.3878709477225
20
0.568865484126718
30
0
41
1
10
41.2648938242321
20
0.606107341887395
30
0
41
1
10
41.0556259369341
20
0.668946683260344
30
0
41
1
10
40.7968123247157
20
0.746134242225054
30
0
41
1
10
40.538048107284
20
0.822157593765098
30
0
41
1
10
40.1930808519529
20
0.921538865928767
30
0
41
1
10
39.7618190284002
20
1.0432327286604
30
0
41
1
10
39.3304507874945
20
1.16011813471152
30
0
41
1
10
38.9853153924745
20
1.24995574906643
30
0
41
1
10
38.7265015628159
20
1.31560063578357
30
0
41
1
10
38.4677368156804
20
1.37926651682159
30
0
41
1
10
38.122768821927
20
1.46165147151191
30
0
41
1
10
37.6915058354309
20
1.56042945030904
30
0
41
1
10
37.2601366532621
20
1.65197090779151
30
0
41
1
10
36.915000936929
20
1.7200242059325
30
0
41
1
10
36.6561873247088
20
1.76829087123349
30
0
41
1
10
36.3974231072754
20
1.81393856621847
30
0
41
1
10
36.0524558519423
20
1.87200253390932
30
0
41
1
10
35.6211940283877
20
1.93909060316466
30
0
41
1
10
35.1898257874815
20
1.99716895277066
30
0
41
1
10
34.8446903924622
20
2.0374122019484
30
0
41
1
10
34.5858765628054
20
2.06403200375314
30
0
41
1
10
34.3271118156721
20
2.08762600902483
30
0
41
1
10
33.9821438219211
20
2.11623172242892
30
0
41
1
10
33.5508808354281
20
2.14568377896464
30
0
41
1
10
33.1195116532618
20
2.16513605851816
30
0
41
1
10
32.7743759369299
20
2.17397933996904
30
0
41
1
10
32.5155623247095
20
2.17656889016277
30
0
41
1
10
32.2567981072755
20
2.17599390703413
30
0
41
1
10
31.9118308519423
20
2.17258312422854
30
0
41
1
10
31.4805690283873
20
2.16177515325629
30
0
41
1
10
31.049200787481
20
2.14088400757905
30
0
41
1
10
30.7040653924618
20
2.1175620736137
30
0
41
1
10
30.4452515628054
20
2.095915478911
30
0
41
1
10
30.1864868156727
20
2.07124673020965
30
0
41
1
10
29.8415188219221
20
2.03614246306554
30
0
41
1
10
29.4102558354295
20
1.98604404219617
30
0
41
1
10
28.9788866532633
20
1.92665410419539
30
0
41
1
10
28.6817960921949
20
1.88065608943123
30
0
41
1
10
28.5572866408026
20
1.86001955114514
30
0
41
1
10
28.5190533486708
20
1.85357329263746
30
0
0
SPLINE
5
EA
100
AcDbEntity
8
1
62
256
6
ByLayer
370
18
48
1
60
0
100
AcDbSpline
70
4
71
3
72
10
73
6
40
0
40
0
40
0
40
0
40
0.5
40
0.5
40
1
40
1
40
1
40
1
41
1
10
53.7899135615182
20
-3.37348048900495
30
0
41
1
10
53.861940654747
20
-3.17609217609535
30
0
41
1
10
53.9330337007243
20
-2.97686474720763
30
0
41
1
10
54.0748975348092
20
-2.57739561784297
30
0
41
1
10
54.1457353948659
20
-2.37702302994157
30
0
41
1
10
54.2173034064932
20
-2.1764208654144
30
0
0
SPLINE
5
EB
100
AcDbEntity
8
1
62
256
6
ByLayer
370
18
48
1
60
0
100
AcDbSpline
70
4
71
3
72
14
73
10
40
0
40
0
40
0
40
0
40
0.25
40
0.25
40
0.5
40
0.5
40
0.75
40
0.75
40
1
40
1
40
1
40
1
41
1
10
5.33202923832542
20
-2.98618800454784
30
0
41
1
10
5.34001551769808
20
-2.98440171910443
30
0
41
1
10
5.34830113609704
20
-2.98328962698329
30
0
41
1
10
5.36519331779732
20
-2.98179398715152
30
0
41
1
10
5.37383302579531
20
-2.98143924046508
30
0
41
1
10
5.39102001583348
20
-2.98139277358703
30
0
41
1
10
5.39964790195927
20
-2.98170078454322
30
0
41
1
10
5.41668441650842
20
-2.98293888756047
30
0
41
1
10
5.42513100136924
20
-2.983872788421
30
0
41
1
10
5.43340931155299
20
-2.98517414567078
30
0
0
SPLINE
5
EC
100
AcDbEntity
8
1
62
256
6
ByLayer
370
18
48
1
60
0
100
AcDbSpline
70
4
71
3
72
33
73
29
40
0
40
0
40
0
40
0
40
0.0130098476123723
40
0.0130098476123723
40
0.102736225102161
40
0.102736225102161
40
0.125167819474608
40
0.125167819474608
40
0.147599413847056
40
0.192462602591948
40
0.192462602591948
40
0.282188980081732
40
0.282188980081732
40
0.327052168826625
40
0.327052168826625
40
0.371915357571517
40
0.371915357571517
40
0.461641735061301
40
0.461641735061301
40
0.551368112551085
40
0.551368112551085
40
0.641094490040869
40
0.641094490040869
40
0.730820867530654
40
0.730820867530654
40
0.820547245020438
40
0.820547245020438
40
1
40
1
40
1
40
1
41
1
10
3.32054048410393
20
-3.51850541674645
30
0
41
1
10
3.3238770795281
20
-3.51849617744594
30
0
41
1
10
3.32736042837632
20
-3.51842538230747
30
0
41
1
10
3.35599947339671
20
-3.51739312330875
30
0
41
1
10
3.38781123125105
20
-3.51364902020958
30
0
41
1
10
3.43499883913793
20
-3.5059367186077
30
0
41
1
10
3.44479375603692
20
-3.50424417022808
30
0
41
1
10
3.46494346226484
20
-3.50059730670111
30
0
41
1
10
3.49605831142992
20
-3.49472597965692
30
0
41
1
10
3.5296794502745
20
-3.48773383271012
30
0
41
1
10
3.59990483839789
20
-3.47243499167007
30
0
41
1
10
3.6506837054315
20
-3.46049069526177
30
0
41
1
10
3.73173947962184
20
-3.44048945097415
30
0
41
1
10
3.7595770494863
20
-3.43347273465216
30
0
41
1
10
3.81675695108956
20
-3.41880777546683
30
0
41
1
10
3.84613848762209
20
-3.41114871795216
30
0
41
1
10
3.93558391640454
20
-3.38752110125549
30
0
41
1
10
3.99717415867238
20
-3.37084809615087
30
0
41
1
10
4.12354688455397
20
-3.33607100262938
30
0
41
1
10
4.18833309314689
20
-3.31796482078792
30
0
41
1
10
4.3205972148632
20
-3.28060538260379
30
0
41
1
10
4.38807713737401
20
-3.26135099755209
30
0
41
1
10
4.52536087099165
20
-3.22190478406665
30
0
41
1
10
4.59516585170559
20
-3.20171229897699
30
0
41
1
10
4.7368197412234
20
-3.16055033341306
30
0
41
1
10
4.80874714292125
20
-3.13955763470872
30
0
41
1
10
5.02651047178026
20
-3.07582531100812
30
0
41
1
10
5.17438512885411
20
-3.03232021787827
30
0
41
1
10
5.32442267445788
20
-2.98814153972592
30
0
0
SPLINE
5
ED
100
AcDbEntity
8
1
62
256
6
ByLayer
370
18
48
1
60
0
100
AcDbSpline
70
4
71
3
72
20
73
16
40
0
40
0
40
0
40
0
40
0.0085047071436473
40
0.0085047071436473
40
0.0170094145655505
40
0.0170094145655505
40
0.0510284102884119
40
0.0510284102884119
40
0.187112727299427
40
0.187112727299427
40
0.459328851226993
40
0.459328851226993
40
0.731538867510279
40
0.731538867510279
40
1
40
1
40
1
40
1
41
1
10
5.32442266147007
20
-2.98814154353258
30
0
41
1
10
5.3244436128999
20
-2.98813537436382
30
0
41
1
10
5.32446456942705
20
-2.98812920997114
30
0
41
1
10
5.32450649365592
20
-2.98811689169918
30
0
41
1
10
5.32452746136372
20
-2.98811073781999
30
0
41
1
10
5.32463233074418
20
-2.98807999728007
30
0
41
1
10
5.32471634461129
20
-2.98805551645449
30
0
41
1
10
5.32513680924183
20
-2.98793347752209
30
0
41
1
10
5.32547471635695
20
-2.98783729416155
30
0
41
1
10
5.32649270415698
20
-2.98755294022689
30
0
41
1
10
5.3271771300208
20
-2.98736896600437
30
0
41
1
10
5.3285558388099
20
-2.98701180377341
30
0
41
1
10
5.32925028681589
20
-2.98683858964424
30
0
41
1
10
5.33063828621738
20
-2.98650475342342
30
0
41
1
10
5.33133187316551
20
-2.9863439837186
30
0
41
1
10
5.33202923832542
20
-2.98618800454784
30
0
0
SPLINE
5
EE
100
AcDbEntity
8
1
62
256
6
ByLayer
370
18
48
1
60
0
100
AcDbSpline
70
4
71
3
72
14
73
10
40
0
40
0
40
0
40
0
40
0.27441903293129
40
0.27441903293129
40
0.564681922654649
40
0.564681922654649
40
0.854944812321568
40
0.854944812321568
40
1
40
1
40
1
40
1
41
1
10
5.43340931154697
20
-2.98517414568346
30
0
41
1
10
5.43442332324642
20
-2.98533354916717
30
0
41
1
10
5.43543729936087
20
-2.9854929839573
30
0
41
1
10
5.43752372110535
20
-2.98582112299729
30
0
41
1
10
5.43859616264112
20
-2.98598983074291
30
0
41
1
10
5.4407409656587
20
-2.98632731634086
30
0
41
1
10
5.44181332711025
20
-2.98649609428253
30
0
41
1
10
5.44342181023387
20
-2.98674931176092
30
0
41
1
10
5.44395796098854
20
-2.98683372681069
30
0
41
1
10
5.44449410192161
20
-2.986918150234
30
0
0
SPLINE
5
EF
100
AcDbEntity
8
1
62
256
6
ByLayer
370
18
48
1
60
0
100
AcDbSpline
70
4
71
3
72
16
73
12
40
0
40
0
40
0
40
0
40
0.250000000000008
40
0.250000000000008
40
0.375000000000009
40
0.375000000000009
40
0.50000000000001
40
0.50000000000001
40
0.750000000000005
40
0.750000000000005
40
1
40
1
40
1
40
1
41
1
10
5.444493263781
20
-2.98691801825629
30
0
41
1
10
5.68402690061868
20
-3.0246361737307
30
0
41
1
10
5.92124358743183
20
-3.06405255983
30
0
41
1
10
6.27391956273496
20
-3.12358545734264
30
0
41
1
10
6.39095459907586
20
-3.14349493834558
30
0
41
1
10
6.62404866674387
20
-3.18305786209885
30
0
41
1
10
6.74000370930835
20
-3.2026930732743
30
0
41
1
10
7.0858989926877
20
-3.26051123715257
30
0
41
1
10
7.31400333216749
20
-3.29762643695293
30
0
41
1
10
7.766174993379
20
-3.3658750304208
30
0
41
1
10
7.99024387781785
20
-3.39700157759353
30
0
41
1
10
8.21286882766836
20
-3.42368042455988
30
0
0
SPLINE
5
F0
100
AcDbEntity
8
1
62
256
6
ByLayer
370
18
48
1
60
0
100
AcDbSpline
70
4
71
3
72
12
73
8
40
0
40
0
40
0
40
0
40
0.432479094450958
40
0.432479094450958
40
0.864958188901915
40
0.864958188901915
40
1
40
1
40
1
40
1
41
1
10
8.21286882766839
20
-3.42368042455988
30
0
41
1
10
8.44995809327486
20
-3.45206569815585
30
0
41
1
10
8.68632016594208
20
-3.47433014136837
30
0
41
1
10
9.15799584912162
20
-3.50665784888307
30
0
41
1
10
9.39331657670797
20
-3.51671350318674
30
0
41
1
10
9.70180316771985
20
-3.52190125723672
30
0
41
1
10
9.77518721065866
20
-3.52254108611683
30
0
41
1
10
9.84855296164403
20
-3.52258695851711
30
0
0
SPLINE
5
F1
100
AcDbEntity
8
1
62
256
6
ByLayer
370
18
48
1
60
0
100
AcDbSpline
70
4
71
3
72
8
73
4
40
0
40
0
40
0
40
0
40
1
40
1
40
1
40
1
41
1
10
53.7096158825834
20
-3.54994271290209
30
0
41
1
10
53.6949549659229
20
-3.55090414275281
30
0
41
1
10
53.6848443546656
20
-3.53959490757316
30
0
41
1
10
53.6771953400786
20
-3.51565489559116
30
0
0
SPLINE
5
F2
100
AcDbEntity
8
1
62
256
6
ByLayer
370
18
48
1
60
0
100
AcDbSpline
70
4
71
3
72
13
73
9
40
0
40
0
40
0
40
0
40
0.499999999999808
40
0.499999999999808
40
0.624999999999834
40
0.624999999999834
40
0.749999999999861
40
1
40
1
40
1
40
1
41
1
10
3.63666204817881
20
-1.64646215695657
30
0
41
1
10
3.61392647291117
20
-1.63623570387168
30
0
41
1
10
3.59349925549171
20
-1.62324021124664
30
0
41
1
10
3.57080606363721
20
-1.60352121627505
30
0
41
1
10
3.56640346244563
20
-1.59938804931301
30
0
41
1
10
3.55803715659863
20
-1.59089981430614
30
0
41
1
10
3.54609244810067
20
-1.57779026331323
30
0
41
1
10
3.53591399928723
20
-1.56357149222436
30
0
41
1
10
3.5299215724572
20
-1.55358792346934
30
0
0
SPLINE
5
F3
100
AcDbEntity
8
1
62
256
6
ByLayer
370
18
48
1
60
0
100
AcDbSpline
70
4
71
3
72
10
73
6
40
0
40
0
40
0
40
0
40
0.5
40
0.5
40
1
40
1
40
1
40
1
41
1
10
3.52992157245723
20
-1.55358792346939
30
0
41
1
10
3.52382151565809
20
-1.54342503985126
30
0
41
1
10
3.51912806570795
20
-1.53281384951828
30
0
41
1
10
3.51264195801039
20
-1.51065573107138
30
0
41
1
10
3.51087018826314
20
-1.49902932859632
30
0
41
1
10
3.51087181312917
20
-1.48735809736601
30
0
0
SPLINE
5
F4
100
AcDbEntity
8
1
62
256
6
ByLayer
370
18
48
1
60
0
100
AcDbSpline
70
4
71
3
72
51
73
47
40
0
40
0
40
0
40
0
40
0.031250000000003
40
0.031250000000003
40
0.0468750000000035
40
0.0468750000000035
40
0.062500000000004
40
0.062500000000004
40
0.125000000000006
40
0.125000000000006
40
0.156250000000007
40
0.156250000000007
40
0.187500000000008
40
0.187500000000008
40
0.25000000000001
40
0.25000000000001
40
0.26562500000001
40
0.26562500000001
40
0.28125000000001
40
0.28125000000001
40
0.312500000000012
40
0.312500000000012
40
0.375000000000015
40
0.375000000000015
40
0.390625000000015
40
0.390625000000015
40
0.406250000000016
40
0.437500000000016
40
0.437500000000016
40
0.500000000000014
40
0.500000000000014
40
0.531250000000013
40
0.531250000000013
40
0.562500000000012
40
0.562500000000012
40
0.625000000000011
40
0.625000000000011
40
0.687500000000009
40
0.687500000000009
40
0.750000000000007
40
0.750000000000007
40
0.812500000000005
40
0.812500000000005
40
0.875000000000004
40
0.875000000000004
40
1
40
1
40
1
40
1
41
1
10
3.5112986029875
20
3.31574345114842
30
0
41
1
10
3.48974731605614
20
3.32810519904905
30
0
41
1
10
3.46916717871505
20
3.34016589399383
30
0
41
1
10
3.4399531894866
20
3.35774503276497
30
0
41
1
10
3.43047487313206
20
3.36352995384394
30
0
41
1
10
3.41224520695488
20
3.37483301033572
30
0
41
1
10
3.40348228058886
20
3.38035778746868
30
0
41
1
10
3.36148845945604
20
3.40732699554297
30
0
41
1
10
3.33369184946906
20
3.42681618858262
30
0
41
1
10
3.30217845108774
20
3.4524229484725
30
0
41
1
10
3.29337280608755
20
3.46035600987159
30
0
41
1
10
3.27951143854739
20
3.47488579305008
30
0
41
1
10
3.27456689110483
20
3.48136621357386
30
0
41
1
10
3.26568198389575
20
3.49847345263621
30
0
41
1
10
3.2676805663202
20
3.50676928713358
30
0
41
1
10
3.28019640342299
20
3.51327081030067
30
0
41
1
10
3.28320122012451
20
3.51437746259595
30
0
41
1
10
3.29022013535337
20
3.51620295760088
30
0
41
1
10
3.29424384679618
20
3.516921637499
30
0
41
1
10
3.30767891910855
20
3.51848362598486
30
0
41
1
10
3.31848089956847
20
3.51874543395419
30
0
41
1
10
3.35599947340077
20
3.51739312330832
30
0
41
1
10
3.38781123125551
20
3.51364902020896
30
0
41
1
10
3.43499883914285
20
3.50593671860685
30
0
41
1
10
3.44479375604195
20
3.5042441702272
30
0
41
1
10
3.46494346226996
20
3.50059730670017
30
0
41
1
10
3.49605831143521
20
3.49472597965587
30
0
41
1
10
3.52967945027987
20
3.48773383270898
30
0
41
1
10
3.5999048384034
20
3.47243499166879
30
0
41
1
10
3.65068370543707
20
3.46049069526043
30
0
41
1
10
3.73173947962744
20
3.44048945097276
30
0
41
1
10
3.75957704949184
20
3.43347273465076
30
0
41
1
10
3.81675695109502
20
3.41880777546541
30
0
41
1
10
3.84613848762751
20
3.41114871795074
30
0
41
1
10
3.93558391640977
20
3.38752110125409
30
0
41
1
10
3.99717415867741
20
3.3708480961495
30
0
41
1
10
4.12354688455864
20
3.33607100262807
30
0
41
1
10
4.18833309315136
20
3.31796482078667
30
0
41
1
10
4.32059721486721
20
3.28060538260263
30
0
41
1
10
4.38807713737779
20
3.26135099755098
30
0
41
1
10
4.52536087099492
20
3.22190478406571
30
0
41
1
10
4.5951658517086
20
3.20171229897613
30
0
41
1
10
4.73681974122584
20
3.16055033341235
30
0
41
1
10
4.80874714292344
20
3.13955763470807
30
0
41
1
10
5.02651047178153
20
3.07582531100775
30
0
41
1
10
5.17438512885474
20
3.03232021787807
30
0
41
1
10
5.32442267445788
20
2.98814153972592
30
0
0
SPLINE
5
F5
100
AcDbEntity
8
1
62
256
6
ByLayer
370
18
48
1
60
0
100
AcDbSpline
70
4
71
3
72
20
73
16
40
0
40
0
40
0
40
0
40
0.0085045943082407
40
0.0085045943082407
40
0.0170091888980222
40
0.0170091888980222
40
0.0510277332782022
40
0.0510277332782022
40
0.187110244501668
40
0.187110244501668
40
0.459322755024753
40
0.459322755024753
40
0.731529158381214
40
0.731529158381214
40
1
40
1
40
1
40
1
41
1
10
5.32442266147007
20
2.98814154353258
30
0
41
1
10
5.32444361262188
20
2.9881353744457
30
0
41
1
10
5.32446456887089
20
2.98812921013473
30
0
41
1
10
5.32450649254315
20
2.98811689202594
30
0
41
1
10
5.3245274599725
20
2.98811073822821
30
0
41
1
10
5.32463232795982
20
2.98807999809463
30
0
41
1
10
5.32471634070799
20
2.98805551759003
30
0
41
1
10
5.32513679974846
20
2.9879334802672
30
0
41
1
10
5.32547470233584
20
2.98783729814136
30
0
41
1
10
5.32649267647582
20
2.98755294783237
30
0
41
1
10
5.32717709308128
20
2.98736897587733
30
0
41
1
10
5.32855578311541
20
2.98701181789781
30
0
41
1
10
5.32925022163158
20
2.98683860576801
30
0
41
1
10
5.33063823604749
20
2.98650476505037
30
0
41
1
10
5.33133184794605
20
2.9863439893594
30
0
41
1
10
5.33202923832539
20
2.98618800454784
30
0
0
SPLINE
5
F6
100
AcDbEntity
8
1
62
256
6
ByLayer
370
18
48
1
60
0
100
AcDbSpline
70
4
71
3
72
14
73
10
40
0
40
0
40
0
40
0
40
0.25
40
0.25
40
0.5
40
0.5
40
0.75
40
0.75
40
1
40
1
40
1
40
1
41
1
10
5.33202923832542
20
2.98618800454784
30
0
41
1
10
5.34001551769833
20
2.98440171910437
30
0
41
1
10
5.34830113609755
20
2.98328962698321
30
0
41
1
10
5.3651933177984
20
2.98179398715146
30
0
41
1
10
5.37383302579667
20
2.98143924046502
30
0
41
1
10
5.39102001583535
20
2.98139277358706
30
0
41
1
10
5.39964790196146
20
2.98170078454331
30
0
41
1
10
5.41668441651112
20
2.98293888756072
30
0
41
1
10
5.42513100137177
20
2.98387278842222
30
0
41
1
10
5.43340931155615
20
2.98517414567127
30
0
0
SPLINE
5
F7
100
AcDbEntity
8
1
62
256
6
ByLayer
370
18
48
1
60
0
100
AcDbSpline
70
4
71
3
72
14
73
10
40
0
40
0
40
0
40
0
40
0.274419032724869
40
0.274419032724869
40
0.56468192253026
40
0.56468192253026
40
0.854944812279798
40
0.854944812279798
40
1
40
1
40
1
40
1
41
1
10
5.43340931155009
20
2.98517414568397
30
0
41
1
10
5.43442332324852
20
2.98533354916745
30
0
41
1
10
5.43543729936189
20
2.98549298395747
30
0
41
1
10
5.43752372110532
20
2.98582112299729
30
0
41
1
10
5.43859616264109
20
2.98598983074291
30
0
41
1
10
5.44074096565868
20
2.98632731634086
30
0
41
1
10
5.44181332711022
20
2.9864960942825
30
0
41
1
10
5.44342181023387
20
2.98674931176092
30
0
41
1
10
5.44395796098854
20
2.98683372681069
30
0
41
1
10
5.44449410192158
20
2.986918150234
30
0
0
SPLINE
5
F8
100
AcDbEntity
8
1
62
256
6
ByLayer
370
18
48
1
60
0
100
AcDbSpline
70
4
71
3
72
16
73
12
40
0
40
0
40
0
40
0
40
0.250000000000003
40
0.250000000000003
40
0.375000000000005
40
0.375000000000005
40
0.500000000000006
40
0.500000000000006
40
0.750000000000003
40
0.750000000000003
40
1
40
1
40
1
40
1
41
1
10
5.444493263781
20
2.98691801825626
30
0
41
1
10
5.68402690061868
20
3.02463617373067
30
0
41
1
10
5.92124358743183
20
3.06405255983
30
0
41
1
10
6.27391956273493
20
3.12358545734264
30
0
41
1
10
6.39095459907583
20
3.14349493834558
30
0
41
1
10
6.62404866674385
20
3.18305786209885
30
0
41
1
10
6.74000370930833
20
3.2026930732743
30
0
41
1
10
7.0858989926877
20
3.26051123715257
30
0
41
1
10
7.31400333216749
20
3.29762643695293
30
0
41
1
10
7.76617499337897
20
3.3658750304208
30
0
41
1
10
7.99024387781787
20
3.3970015775935
30
0
41
1
10
8.21286882766836
20
3.42368042455988
30
0
0
SPLINE
5
F9
100
AcDbEntity
8
1
62
256
6
ByLayer
370
18
48
1
60
0
100
AcDbSpline
70
4
71
3
72
50
73
46
40
0
40
0
40
0
40
0
40
0.0624999999999977
40
0.0624999999999977
40
0.124999999999996
40
0.124999999999996
40
0.156249999999994
40
0.156249999999994
40
0.187499999999993
40
0.187499999999993
40
0.249999999999992
40
0.249999999999992
40
0.312499999999992
40
0.312499999999992
40
0.343749999999991
40
0.343749999999991
40
0.374999999999991
40
0.374999999999991
40
0.43749999999999
40
0.43749999999999
40
0.499999999999989
40
0.499999999999989
40
0.531249999999989
40
0.531249999999989
40
0.562499999999989
40
0.562499999999989
40
0.624999999999989
40
0.624999999999989
40
0.68749999999999
40
0.68749999999999
40
0.718749999999991
40
0.718749999999991
40
0.749999999999992
40
0.749999999999992
40
0.812499999999994
40
0.812499999999994
40
0.828124999999996
40
0.828124999999996
40
0.843749999999997
40
0.843749999999997
40
0.874999999999998
40
0.874999999999998
40
0.937499999999999
40
0.937499999999999
40
1
40
1
40
1
40
1
41
1
10
8.21286882766839
20
3.42368042455988
30
0
41
1
10
8.44995809327492
20
3.45206569815585
30
0
41
1
10
8.68632016594216
20
3.4743301413684
30
0
41
1
10
9.15799584912179
20
3.50665784888309
30
0
41
1
10
9.39331657670814
20
3.51671350318674
30
0
41
1
10
9.74593971418193
20
3.52264349224575
30
0
41
1
10
9.8634283078373
20
3.52309554791631
30
0
41
1
10
10.0983183646899
20
3.52095572178379
30
0
41
1
10
10.2157115374398
20
3.5183618211999
30
0
41
1
10
10.5679123134663
20
3.50602012530899
30
0
41
1
10
10.802801713747
20
3.49173140824195
30
0
41
1
10
11.2730303022825
20
3.4510935244158
30
0
41
1
10
11.5083748021133
20
3.42473742568919
30
0
41
1
10
11.8621388762694
20
3.37622662455621
30
0
41
1
10
11.9801915381084
20
3.3585653736499
30
0
41
1
10
12.2165714548153
20
3.32024082431954
30
0
41
1
10
12.3349504675932
20
3.29956681039252
30
0
41
1
10
12.6903690780707
20
3.23318472691281
30
0
41
1
10
12.9264955725208
20
3.18339942545288
30
0
41
1
10
13.3973786758386
20
3.0732156697278
30
0
41
1
10
13.6321505990828
20
3.01282407386122
30
0
41
1
10
13.9837070900168
20
2.91479079528861
30
0
41
1
10
14.1007953372788
20
2.88087644605613
30
0
41
1
10
14.3347876766203
20
2.81059185677205
30
0
41
1
10
14.4516995838361
20
2.77422957651126
30
0
41
1
10
14.8023613932625
20
2.66171253919708
30
0
41
1
10
15.0360635282657
20
2.58216955312073
30
0
41
1
10
15.503552948283
20
2.41435591647237
30
0
41
1
10
15.7373621126726
20
2.32610877525536
30
0
41
1
10
16.0885735320832
20
2.18778500775451
30
0
41
1
10
16.2057250571566
20
2.14068287253394
30
0
41
1
10
16.4402126147831
20
2.04450977867111
30
0
41
1
10
16.5575579413837
20
1.99545284684379
30
0
41
1
10
16.9100800887523
20
1.84565659281751
30
0
41
1
10
17.1457477157093
20
1.74230889931303
30
0
41
1
10
17.4413115732354
20
1.60896948343128
30
0
41
1
10
17.5004750960307
20
1.58209684886518
30
0
41
1
10
17.618912239735
20
1.5279549584719
30
0
41
1
10
17.6781770724157
20
1.50068933020819
30
0
41
1
10
17.8556927047429
20
1.41852980867475
30
0
41
1
10
17.9738157169988
20
1.36320500532517
30
0
41
1
10
18.3276309803337
20
1.19579053930792
30
0
41
1
10
18.562683230703
20
1.0820914226814
30
0
41
1
10
19.0319192478537
20
0.852061142183771
30
0
41
1
10
19.2661055690453
20
0.735736314440032
30
0
41
1
10
19.5
20
0.618383243006491
30
0
0
SPLINE
5
FA
100
AcDbEntity
8
1
62
256
6
ByLayer
370
18
48
1
60
0
100
AcDbSpline
70
4
71
3
72
30
73
26
40
0
40
0
40
0
40
0
40
0.0967398671281753
40
0.0967398671281753
40
0.19347973425635
40
0.19347973425635
40
0.241849667820437
40
0.241849667820437
40
0.290219601384525
40
0.290219601384525
40
0.386959468512697
40
0.386959468512697
40
0.483699335640869
40
0.483699335640869
40
0.580439202769041
40
0.580439202769041
40
0.677179069897213
40
0.677179069897213
40
0.773918937025384
40
0.773918937025384
40
0.870658804153556
40
0.870658804153556
40
0.967398671281728
40
0.967398671281728
40
1
40
1
40
1
40
1
41
1
10
19.5
20
0.638169102634691
30
0
41
1
10
19.6786462557719
20
0.552611316813085
30
0
41
1
10
19.8568897038554
20
0.466585775020604
30
0
41
1
10
20.2128009739136
20
0.294084513374827
30
0
41
1
10
20.3904502915052
20
0.207568761058468
30
0
41
1
10
20.6565817568245
20
0.0776353184028835
30
0
41
1
10
20.7452428919777
20
0.0343143988219765
30
0
41
1
10
20.9225297495691
20
-0.0522068802486899
30
0
41
1
10
21.0111559989648
20
-0.0954062026137876
30
0
41
1
10
21.2769593938968
20
-0.224882372529777
30
0
41
1
10
21.4540588025254
20
-0.311041725624051
30
0
41
1
10
21.8082468945593
20
-0.482631998500409
30
0
41
1
10
21.9853358170408
20
-0.568062153156745
30
0
41
1
10
22.3397413534564
20
-0.737693399851878
30
0
41
1
10
22.5170172763586
20
-0.821978360941472
30
0
41
1
10
22.8719527291843
20
-0.988998288294937
30
0
41
1
10
23.0496906536839
20
-1.07156563948152
30
0
41
1
10
23.4057968592365
20
-1.23464508462882
30
0
41
1
10
23.5841430324089
20
-1.31520434817605
30
0
41
1
10
23.9416247463281
20
-1.47394230667314
30
0
41
1
10
24.1209274833124
20
-1.55218192913881
30
0
41
1
10
24.4788627915384
20
-1.70508660292589
30
0
41
1
10
24.6576084945241
20
-1.77994705082131
30
0
41
1
10
24.8965240537617
20
-1.87750350086404
30
0
41
1
10
24.9567457453893
20
-1.90186049995776
30
0
41
1
10
25.0169691370732
20
-1.925987269161
30
0
0
SPLINE
5
FB
100
AcDbEntity
8
1
62
256
6
ByLayer
370
18
48
1
60
0
100
AcDbSpline
70
4
71
3
72
32
73
28
40
0
40
0
40
0
40
0
40
0.005074131776681
40
0.005074131776681
40
0.104566718599015
40
0.104566718599015
40
0.154313012010182
40
0.154313012010182
40
0.20405930542135
40
0.20405930542135
40
0.253805598832517
40
0.253805598832517
40
0.303551892243684
40
0.303551892243684
40
0.403044479066012
40
0.403044479066012
40
0.602029652710675
40
0.602029652710675
40
0.701522239533006
40
0.701522239533006
40
0.751268532944172
40
0.751268532944172
40
0.801014826355338
40
0.801014826355338
40
0.900507413177669
40
0.900507413177669
40
1
40
1
40
1
40
1
41
1
10
48.3983547141911
20
2.5204987771622
30
0
41
1
10
48.4074706601995
20
2.52345773239546
30
0
41
1
10
48.4165868277805
20
2.52641034725178
30
0
41
1
10
48.6044558006013
20
2.58712629302715
30
0
41
1
10
48.7833040376833
20
2.64243998535793
30
0
41
1
10
49.0518965150462
20
2.72145003952264
30
0
41
1
10
49.1414822725158
20
2.74711902387082
30
0
41
1
10
49.3205787697809
20
2.79706578749571
30
0
41
1
10
49.4101065933489
20
2.82136045365274
30
0
41
1
10
49.5891686555676
20
2.86853380507696
30
0
41
1
10
49.6787084401801
20
2.89141514016018
30
0
41
1
10
49.8578192660812
20
2.93563930821716
30
0
41
1
10
49.9474154754349
20
2.95697403978863
30
0
41
1
10
50.2159998544355
20
3.01869245272738
30
0
41
1
10
50.3948231842608
20
3.0568412140756
30
0
41
1
10
50.9308700669625
20
3.16208346758216
30
0
41
1
10
51.2877237062516
20
3.21989923571925
30
0
41
1
10
51.8233019199979
20
3.28713416665087
30
0
41
1
10
52.0019526360596
20
3.30624175674055
30
0
41
1
10
52.2702372147345
20
3.32989315179592
30
0
41
1
10
52.3597089265008
20
3.33695186644113
30
0
41
1
10
52.5387627200544
20
3.3494066297896
30
0
41
1
10
52.6283607824002
20
3.35480252541132
30
0
41
1
10
52.8968621169015
20
3.36845242391178
30
0
41
1
10
53.0756326031834
20
3.3741827013132
30
0
41
1
10
53.4329484163844
20
3.3788756735851
30
0
41
1
10
53.6114392137732
20
3.37785764453111
30
0
41
1
10
53.7899135615186
20
3.37348048900517
30
0
0
SPLINE
5
FC
100
AcDbEntity
8
1
62
256
6
ByLayer
370
18
48
1
60
0
100
AcDbSpline
70
4
71
3
72
10
73
6
40
0
40
0
40
0
40
0
40
0.70889218569199
40
0.70889218569199
40
1
40
1
40
1
40
1
41
1
10
53.7096158825834
20
3.54994271290209
30
0
41
1
10
53.7225414691322
20
3.52041645061843
30
0
41
1
10
53.7357165338375
20
3.4908858449339
30
0
41
1
10
53.7546265356802
20
3.44931087246576
30
0
41
1
10
53.7601700142159
20
3.43721832726112
30
0
41
1
10
53.7657508178696
20
3.42514043931044
30
0
0
SPLINE
5
FD
100
AcDbEntity
8
1
62
256
6
ByLayer
370
18
48
1
60
0
100
AcDbSpline
70
4
71
3
72
45
73
41
40
0
40
0
40
0
40
0
40
0.0431834861880058
40
0.0431834861880058
40
0.0647752292820087
40
0.0647752292820087
40
0.0863669723760117
40
0.172733944752022
40
0.172733944752022
40
0.259100917128032
40
0.259100917128032
40
0.345467889504043
40
0.345467889504043
40
0.367059632598045
40
0.367059632598045
40
0.388651375692048
40
0.431834861880052
40
0.431834861880052
40
0.518201834256058
40
0.518201834256058
40
0.561385320444061
40
0.561385320444061
40
0.604568806632063
40
0.604568806632063
40
0.690935779008067
40
0.690935779008067
40
0.734119265196069
40
0.734119265196069
40
0.75571100829007
40
0.75571100829007
40
0.77730275138407
40
0.77730275138407
40
0.863669723760077
40
0.863669723760077
40
0.950036696136083
40
0.950036696136083
40
0.971628439230084
40
0.971628439230084
40
0.993220182324085
40
1
40
1
40
1
40
1
41
1
10
19.5
20
0.767867305321658
30
0
41
1
10
19.6790561488948
20
0.678924445567759
30
0
41
1
10
19.8580763355295
20
0.589211707401574
30
0
41
1
10
20.1267186377327
20
0.453807058384598
30
0
41
1
10
20.2162711975226
20
0.408539100097471
30
0
41
1
10
20.3951217112078
20
0.317938179275984
30
0
41
1
10
20.8418077283258
20
0.0911759055701395
30
0
41
1
10
21.2866289426826
20
-0.136214675970763
30
0
41
1
10
21.9977575330871
20
-0.497277506770871
30
0
41
1
10
22.3530341359076
20
-0.676417807897167
30
0
41
1
10
23.0648290805983
20
-1.02835198851963
30
0
41
1
10
23.4213157231679
20
-1.20120879263575
30
0
41
1
10
23.8686846558486
20
-1.41138578793598
30
0
41
1
10
23.9582728646259
20
-1.45313650518278
30
0
41
1
10
24.1372321224155
20
-1.53579700321532
30
0
41
1
10
24.4054936968864
20
-1.6585986956824
30
0
41
1
10
24.6733577039059
20
-1.77760728962625
30
0
41
1
10
25.2088693091239
20
-2.01004709121779
30
0
41
1
10
25.5655791043412
20
-2.15758266361766
30
0
41
1
10
26.1015336389713
20
-2.36555995873687
30
0
41
1
10
26.2803599194926
20
-2.43267186198008
30
0
41
1
10
26.6384460916444
20
-2.56204001994792
30
0
41
1
10
26.8172357482085
20
-2.62412271864022
30
0
41
1
10
27.3531558729818
20
-2.80220732845109
30
0
41
1
10
27.7098256035185
20
-2.91005527053636
30
0
41
1
10
28.245258865093
20
-3.05398469095536
30
0
41
1
10
28.4238099751626
20
-3.09898617452177
30
0
41
1
10
28.6919265945604
20
-3.16183598893332
30
0
41
1
10
28.7813476095834
20
-3.18201024442439
30
0
41
1
10
28.9603143417477
20
-3.22077971753072
30
0
41
1
10
29.0498828525459
20
-3.23937935388463
30
0
41
1
10
29.4972455965333
20
-3.32820867700212
30
0
41
1
10
29.854217302511
20
-3.38608064520926
30
0
41
1
10
30.5679776826195
20
-3.47458312034149
30
0
41
1
10
30.9247699080962
20
-3.50520431434057
30
0
41
1
10
31.3717827633541
20
-3.52592033958675
30
0
41
1
10
31.4612612433825
20
-3.529186593059
30
0
41
1
10
31.6402431235632
20
-3.53394979623144
30
0
41
1
10
31.757663147849
20
-3.53591256273575
30
0
41
1
10
31.8748827690491
20
-3.53635243803535
30
0
41
1
10
31.9028831945773
20
-3.53637079592161
30
0
0
SPLINE
5
FE
100
AcDbEntity
8
1
62
256
6
ByLayer
370
18
48
1
60
0
100
AcDbSpline
70
4
71
3
72
24
73
20
40
0
40
0
40
0
40
0
40
0.0064579939790773
40
0.0064579939790773
40
0.205166395183268
40
0.205166395183268
40
0.254843495484319
40
0.254843495484319
40
0.30452059578537
40
0.403874796387465
40
0.403874796387465
40
0.602583197591662
40
0.602583197591662
40
0.652260297892706
40
0.652260297892706
40
0.701937398193751
40
0.801291598795834
40
0.801291598795834
40
1
40
1
40
1
40
1
41
1
10
48.3180526724157
20
2.53998646402943
30
0
41
1
10
48.3296438661758
20
2.544131431555
30
0
41
1
10
48.3412350995441
20
2.54826583303637
30
0
41
1
10
48.7094834539252
20
2.67927617193089
30
0
41
1
10
49.0662101263913
20
2.79610882681098
30
0
41
1
10
49.5133573773393
20
2.92801115805114
30
0
41
1
10
49.6028329925319
20
2.95367940635904
30
0
41
1
10
49.7816075462915
20
3.00348235721816
30
0
41
1
10
50.0496237702869
20
3.07592190271606
30
0
41
1
10
50.3173178156476
20
3.14146360571635
30
0
41
1
10
50.8526057320613
20
3.26305640041437
30
0
41
1
10
51.2093266349048
20
3.33145800970621
30
0
41
1
10
51.6562480354483
20
3.40016593483278
30
0
41
1
10
51.7457216120102
20
3.41307273066502
30
0
41
1
10
51.9245399056111
20
3.43715350443424
30
0
41
1
10
52.1926125370435
20
3.47068456472968
30
0
41
1
10
52.4603331814666
20
3.49641814455327
30
0
41
1
10
52.99562174748
20
3.53740789423054
30
0
41
1
10
53.3522782330153
20
3.55075952713179
30
0
41
1
10
53.7096158825834
20
3.54994271290209
30
0
0
SPLINE
5
FF
100
AcDbEntity
8
1
62
256
6
ByLayer
370
18
48
1
60
0
100
AcDbSpline
70
4
71
3
72
90
73
86
40
0
40
0
40
0
40
0
40
0.0172987562650447
40
0.0172987562650447
40
0.0439121965729788
40
0.0439121965729788
40
0.0572189167269457
40
0.0572189167269457
40
0.0705256368809128
40
0.0705256368809128
40
0.0971390771888452
40
0.0971390771888452
40
0.123752517496778
40
0.123752517496778
40
0.15036595780471
40
0.15036595780471
40
0.176979398112642
40
0.176979398112642
40
0.203592838420575
40
0.203592838420575
40
0.230206278728507
40
0.230206278728507
40
0.25681971903644
40
0.25681971903644
40
0.283433159344372
40
0.283433159344372
40
0.296739879498338
40
0.296739879498338
40
0.310046599652305
40
0.310046599652305
40
0.336660039960235
40
0.336660039960235
40
0.363273480268166
40
0.363273480268166
40
0.389886920576097
40
0.389886920576097
40
0.416500360884028
40
0.416500360884028
40
0.443113801191958
40
0.443113801191958
40
0.496340681807821
40
0.496340681807821
40
0.522954122115753
40
0.522954122115753
40
0.536260842269719
40
0.536260842269719
40
0.549567562423684
40
0.549567562423684
40
0.56287428257765
40
0.56287428257765
40
0.576181002731616
40
0.576181002731616
40
0.602794443039546
40
0.602794443039546
40
0.629407883347476
40
0.629407883347476
40
0.656021323655406
40
0.656021323655406
40
0.682634763963335
40
0.682634763963335
40
0.709248204271265
40
0.709248204271265
40
0.735861644579195
40
0.735861644579195
40
0.762475084887125
40
0.762475084887125
40
0.789088525195055
40
0.789088525195055
40
0.815701965502985
40
0.815701965502985
40
0.842315405810915
40
0.842315405810915
40
0.868928846118845
40
0.868928846118845
40
0.895542286426774
40
0.895542286426774
40
0.908849006580739
40
0.908849006580739
40
0.922155726734704
40
0.922155726734704
40
0.948769167042636
40
0.948769167042636
40
0.975382607350567
40
0.975382607350567
40
1
40
1
40
1
40
1
41
1
10
26.6339681323662
20
2.51595950120077
30
0
41
1
10
26.7503750977974
20
2.55391754524095
30
0
41
1
10
26.8667726943489
20
2.59082024283509
30
0
41
1
10
27.1623293922159
20
2.68156947700137
30
0
41
1
10
27.3415324186753
20
2.73377681036351
30
0
41
1
10
27.6102860224687
20
2.80802560541105
30
0
41
1
10
27.6998971779597
20
2.83209337139965
30
0
41
1
10
27.8789697844538
20
2.87876869258523
30
0
41
1
10
27.9683973460009
20
2.90136774431457
30
0
41
1
10
28.2363949460491
20
2.96690983437881
30
0
41
1
10
28.4146972600939
20
3.00758497654513
30
0
41
1
10
28.7706927882466
20
3.08276970629487
30
0
41
1
10
28.948358870902
20
3.11732769151584
30
0
41
1
10
29.3034878333936
20
3.17994539632755
30
0
41
1
10
29.4809325054115
20
3.20802360022512
30
0
41
1
10
29.8356198024684
20
3.25792818797862
30
0
41
1
10
30.0128793996268
20
3.27971848196057
30
0
41
1
10
30.3674384025332
20
3.31687143254123
30
0
41
1
10
30.5447596579335
20
3.33222312221451
30
0
41
1
10
30.8995437019559
20
3.35644860108778
30
0
41
1
10
31.0770055572348
20
3.36535603855756
30
0
41
1
10
31.4325500738424
20
3.37632144392342
30
0
41
1
10
31.6105781332346
20
3.37845201650174
30
0
41
1
10
31.9672214959224
20
3.37607750154081
30
0
41
1
10
32.1458521933748
20
3.37154825824402
30
0
41
1
10
32.4144363658607
20
3.35965823956877
30
0
41
1
10
32.5040141356814
20
3.35484789599093
30
0
41
1
10
32.6829887467367
20
3.34354860279103
30
0
41
1
10
32.772422936535
20
3.33705414831687
30
0
41
1
10
33.04059570161
20
3.31505695494303
30
0
41
1
10
33.2192340668412
20
3.29704833946025
30
0
41
1
10
33.5766289739415
20
3.25436173830769
30
0
41
1
10
33.7553172884435
20
3.22973991527488
30
0
41
1
10
34.1128150326339
20
3.17411002834197
30
0
41
1
10
34.2916319125128
20
3.14309535799822
30
0
41
1
10
34.6496252460271
20
3.07481333386011
30
0
41
1
10
34.8288204635652
20
3.03753281253859
30
0
41
1
10
35.1869467012046
20
2.95696579947682
30
0
41
1
10
35.3660515665383
20
2.91370304999893
30
0
41
1
10
35.9035207483337
20
2.77529089707105
30
0
41
1
10
36.2617978824366
20
2.67139982203571
30
0
41
1
10
36.7992235932314
20
2.50011791046734
30
0
41
1
10
36.9782997622089
20
2.44044437154767
30
0
41
1
10
37.246906018341
20
2.34730916857168
30
0
41
1
10
37.3364538138002
20
2.31566751085333
30
0
41
1
10
37.5155872625202
20
2.25126970434255
30
0
41
1
10
37.6051714337352
20
2.21851148767556
30
0
41
1
10
37.7843327885515
20
2.15189525627335
30
0
41
1
10
37.8739236757974
20
2.11803268024227
30
0
41
1
10
38.052939876154
20
2.04931391389411
30
0
41
1
10
38.1423860105833
20
2.01444973169188
30
0
41
1
10
38.4105799007614
20
1.90841940787885
30
0
41
1
10
38.5891829913653
20
1.83581573772
30
0
41
1
10
38.9462289066987
20
1.68720400559937
30
0
41
1
10
39.1246183741631
20
1.61109757550489
30
0
41
1
10
39.4814272761163
20
1.45584837693639
30
0
41
1
10
39.6599132276891
20
1.37680458902807
30
0
41
1
10
40.0170974726909
20
1.21601066922077
30
0
41
1
10
40.195792045833
20
1.13425122134666
30
0
41
1
10
40.5536027135891
20
0.968385023053116
30
0
41
1
10
40.732795688649
20
0.884259359771249
30
0
41
1
10
41.0909627310199
20
0.714472452560557
30
0
41
1
10
41.2699935643699
20
0.628635141664802
30
0
41
1
10
41.62819839563
20
0.455999831092186
30
0
41
1
10
41.8073928295067
20
0.369294285432971
30
0
41
1
10
42.1657168720529
20
0.195223573864524
30
0
41
1
10
42.3448933099998
20
0.107868938176466
30
0
41
1
10
42.7026876135617
20
-0.0666322380639031
30
0
41
1
10
42.8814073526781
20
-0.153784715622919
30
0
41
1
10
43.2386229174147
20
-0.327627636988723
30
0
41
1
10
43.4170785210221
20
-0.414403184297782
30
0
41
1
10
43.7741363078927
20
-0.586738571414116
30
0
41
1
10
43.9527354929607
20
-0.672300975471018
30
0
41
1
10
44.3100975541243
20
-0.84218065387671
30
0
41
1
10
44.4888788916457
20
-0.926458059431098
30
0
41
1
10
44.7573760435318
20
-1.05151728237348
30
0
41
1
10
44.8469529504312
20
-1.09298690514046
30
0
41
1
10
45.0260647702963
20
-1.17531007410423
30
0
41
1
10
45.1156119412647
20
-1.21617703199959
30
0
41
1
10
45.3842120411867
20
-1.33794348189184
30
0
41
1
10
45.5632666824777
20
-1.41798952458933
30
0
41
1
10
45.9215496255691
20
-1.57464762189755
30
0
41
1
10
46.1007233393186
20
-1.6514094332112
30
0
41
1
10
46.4455794387188
20
-1.79596955126874
30
0
41
1
10
46.6113394028902
20
-1.86399516641114
30
0
41
1
10
46.776945983984
20
-1.93027729852568
30
0
0
SPLINE
5
100
100
AcDbEntity
8
1
62
256
6
ByLayer
370
18
48
1
60
0
100
AcDbSpline
70
4
71
3
72
22
73
18
40
0
40
0
40
0
40
0
40
0.49999999999997
40
0.49999999999997
40
0.749999999999955
40
0.749999999999955
40
0.874999999999977
40
0.874999999999977
40
0.93749999999996
40
0.93749999999996
40
0.968749999999953
40
0.98437499999995
40
0.992187499999975
40
0.992187499999975
40
0.996093749999987
40
0.996093749999987
40
1
40
1
40
1
40
1
41
1
10
53.7096158825834
20
-3.54994271290212
30
0
41
1
10
53.7225414691322
20
-3.52041645061848
30
0
41
1
10
53.7357165338375
20
-3.49088584493399
30
0
41
1
10
53.755824262644
20
-3.4466775852795
30
0
41
1
10
53.7625841064781
20
-3.43195670044941
30
0
41
1
10
53.7728062425961
20
-3.40991009748558
30
0
41
1
10
53.7762235814198
20
-3.40258235388197
30
0
41
1
10
53.7814040969521
20
-3.39146183888818
30
0
41
1
10
53.7831424947093
20
-3.38772331087372
30
0
41
1
10
53.7857450547096
20
-3.38215909742217
30
0
41
1
10
53.7870446450241
20
-3.37938963876309
30
0
41
1
10
53.7885554478704
20
-3.37619054979021
30
0
41
1
10
53.7892014801394
20
-3.37482748395277
30
0
41
1
10
53.7895242245122
20
-3.37414738964478
30
0
41
1
10
53.7896344525258
20
-3.37391064963759
30
0
41
1
10
53.7898396776944
20
-3.37349540018914
30
0
41
1
10
53.7899230667671
20
-3.37337201299832
30
0
41
1
10
53.7899135615181
20
-3.37348048900512
30
0
0
SPLINE
5
101
100
AcDbEntity
8
1
62
256
6
ByLayer
370
18
48
1
60
0
100
AcDbSpline
70
4
71
3
72
85
73
81
40
0
40
0
40
0
40
0
40
0.0155154789028473
40
0.0155154789028473
40
0.0548948597467378
40
0.0548948597467378
40
0.0745845501686831
40
0.0745845501686831
40
0.0844293953796558
40
0.0844293953796558
40
0.0942742405906284
40
0.0942742405906284
40
0.133653621434519
40
0.133653621434519
40
0.17303300227841
40
0.17303300227841
40
0.182877847489382
40
0.182877847489382
40
0.192722692700354
40
0.212412383122298
40
0.212412383122298
40
0.251791763966186
40
0.251791763966186
40
0.291171144810074
40
0.291171144810074
40
0.330550525653962
40
0.330550525653962
40
0.36992990649785
40
0.36992990649785
40
0.379774751708823
40
0.379774751708823
40
0.389619596919795
40
0.40930928734174
40
0.40930928734174
40
0.44868866818563
40
0.44868866818563
40
0.458533513396603
40
0.458533513396603
40
0.468378358607575
40
0.468378358607575
40
0.488068049029519
40
0.488068049029519
40
0.527447429873407
40
0.527447429873407
40
0.566826810717295
40
0.566826810717295
40
0.606206191561183
40
0.606206191561183
40
0.645585572405071
40
0.645585572405071
40
0.655430417616042
40
0.655430417616042
40
0.665275262827013
40
0.665275262827013
40
0.684964953248954
40
0.684964953248954
40
0.724344334092836
40
0.724344334092836
40
0.744034024514778
40
0.744034024514778
40
0.753878869725749
40
0.753878869725749
40
0.76372371493672
40
0.803103095780602
40
0.803103095780602
40
0.842482476624484
40
0.842482476624484
40
0.852327321835453
40
0.852327321835453
40
0.862172167046423
40
0.881861857468362
40
0.881861857468362
40
0.92124123831224
40
0.92124123831224
40
0.931086083523209
40
0.931086083523209
40
0.940930928734179
40
0.960620619156119
40
0.960620619156119
40
1
40
1
40
1
40
1
41
1
10
26.5732411493509
20
2.53814309698359
30
0
41
1
10
26.7142461299769
20
2.58824076647693
30
0
41
1
10
26.8551074111652
20
2.63670735580681
30
0
41
1
10
27.3531558729819
20
2.80220732845109
30
0
41
1
10
27.7098256035186
20
2.91005527053639
30
0
41
1
10
28.245258865093
20
3.05398469095536
30
0
41
1
10
28.4238099751626
20
3.09898617452177
30
0
41
1
10
28.6919265945604
20
3.16183598893335
30
0
41
1
10
28.7813476095835
20
3.18201024442442
30
0
41
1
10
28.9603143417478
20
3.22077971753075
30
0
41
1
10
29.049882852546
20
3.23937935388463
30
0
41
1
10
29.4972455965334
20
3.32820867700215
30
0
41
1
10
29.8542173025111
20
3.38608064520926
30
0
41
1
10
30.5679776826195
20
3.47458312034149
30
0
41
1
10
30.9247699080963
20
3.50520431434057
30
0
41
1
10
31.3717827633541
20
3.52592033958675
30
0
41
1
10
31.4612612433825
20
3.529186593059
30
0
41
1
10
31.6402431235633
20
3.53394979623144
30
0
41
1
10
31.9083252730471
20
3.53843099666219
30
0
41
1
10
32.175362808472
20
3.53497402808995
30
0
41
1
10
32.7083946907068
20
3.51763614480282
30
0
41
1
10
33.0623804762316
20
3.49217887564578
30
0
41
1
10
33.7693519465584
20
3.41447728471039
30
0
41
1
10
34.1222924499371
20
3.3622196754327
30
0
41
1
10
34.8286568793125
20
3.23182647639285
30
0
41
1
10
35.1820844781111
20
3.15368486631098
30
0
41
1
10
35.8911992034134
20
2.97269922128711
30
0
41
1
10
36.2469030913176
20
2.86987859573591
30
0
41
1
10
36.6940225441828
20
2.72673348455948
30
0
41
1
10
36.7835588849372
20
2.69737633084864
30
0
41
1
10
36.9623875199729
20
2.63740364217256
30
0
41
1
10
37.2304587414252
20
2.54549588797244
30
0
41
1
10
37.4981422185369
20
2.44792710603465
30
0
41
1
10
38.0333384403756
20
2.24575575053723
30
0
41
1
10
38.389926841518
20
2.1016250206705
30
0
41
1
10
38.83643720938
20
1.91135292767743
30
0
41
1
10
38.9257778705668
20
1.87279280677959
30
0
41
1
10
39.1045633675895
20
1.79470244246909
30
0
41
1
10
39.1940479866847
20
1.75515439609322
30
0
41
1
10
39.4624336401965
20
1.63523861308286
30
0
41
1
10
39.6408385956756
20
1.55379228475081
30
0
41
1
10
40.1748361500176
20
1.30560869325981
30
0
41
1
10
40.5292146653021
20
1.13503215967259
30
0
41
1
10
41.2365061396488
20
0.787126190830946
30
0
41
1
10
41.5894179745555
20
0.609795513492827
30
0
41
1
10
42.2953861007776
20
0.251568362145917
30
0
41
1
10
42.6484563088435
20
0.070698762017571
30
0
41
1
10
43.3564939552339
20
-0.291120679454082
30
0
41
1
10
43.7114322436693
20
-0.472129215268041
30
0
41
1
10
44.1573187125373
20
-0.696390350418085
30
0
41
1
10
44.2466072486621
20
-0.741141416179318
30
0
41
1
10
44.4254353520003
20
-0.830383983984632
30
0
41
1
10
44.5149302445784
20
-0.874852803613891
30
0
41
1
10
44.7830678185063
20
-1.00740660213413
30
0
41
1
10
44.9616028032403
20
-1.09475568047523
30
0
41
1
10
45.4968659894849
20
-1.35314483825815
30
0
41
1
10
45.8532368010345
20
-1.5205530595826
30
0
41
1
10
46.3884510203923
20
-1.7619298969482
30
0
41
1
10
46.5669674332173
20
-1.84076321819236
30
0
41
1
10
46.8350924153212
20
-1.95625359997564
30
0
41
1
10
46.9245633158393
20
-1.99430497543597
30
0
41
1
10
47.1034678690895
20
-2.06936829419325
30
0
41
1
10
47.5504293050863
20
-2.25434173103702
30
0
41
1
10
47.9961693492467
20
-2.42550308243739
30
0
41
1
10
48.7094834539252
20
-2.67927617193092
30
0
41
1
10
49.0662101263913
20
-2.79610882681101
30
0
41
1
10
49.5133573773394
20
-2.92801115805114
30
0
41
1
10
49.6028329925319
20
-2.95367940635907
30
0
41
1
10
49.7816075462915
20
-3.00348235721816
30
0
41
1
10
50.0496237702869
20
-3.07592190271609
30
0
41
1
10
50.3173178156476
20
-3.14146360571635
30
0
41
1
10
50.8526057320613
20
-3.26305640041437
30
0
41
1
10
51.2093266349049
20
-3.33145800970621
30
0
41
1
10
51.6562480354484
20
-3.40016593483278
30
0
41
1
10
51.7457216120103
20
-3.41307273066502
30
0
41
1
10
51.9245399056111
20
-3.43715350443424
30
0
41
1
10
52.1926125370435
20
-3.47068456472968
30
0
41
1
10
52.4603331814666
20
-3.49641814455327
30
0
41
1
10
52.99562174748
20
-3.53740789423054
30
0
41
1
10
53.3522782330153
20
-3.55075952713179
30
0
41
1
10
53.7096158825834
20
-3.54994271290209
30
0
0
SPLINE
5
102
100
AcDbEntity
8
1
62
256
6
ByLayer
370
18
48
1
60
0
100
AcDbSpline
70
4
71
3
72
156
73
152
40
0
40
0
40
0
40
0
40
0.0049466099301558
40
0.0049466099301558
40
0.0117413806324418
40
0.0117413806324418
40
0.0185361513347277
40
0.0185361513347277
40
0.0321256927392997
40
0.0321256927392997
40
0.0457152341438718
40
0.0457152341438718
40
0.0593047755484438
40
0.0593047755484438
40
0.0728943169530158
40
0.0728943169530158
40
0.0864838583575877
40
0.0864838583575877
40
0.10007339976216
40
0.10007339976216
40
0.113662941166732
40
0.113662941166732
40
0.127252482571304
40
0.127252482571304
40
0.140842023975876
40
0.140842023975876
40
0.154431565380448
40
0.154431565380448
40
0.16802110678502
40
0.16802110678502
40
0.181610648189591
40
0.181610648189591
40
0.195200189594162
40
0.195200189594162
40
0.208789730998733
40
0.208789730998733
40
0.222379272403303
40
0.222379272403303
40
0.235968813807874
40
0.235968813807874
40
0.249558355212445
40
0.249558355212445
40
0.263147896617015
40
0.263147896617015
40
0.276737438021586
40
0.276737438021586
40
0.290326979426157
40
0.290326979426157
40
0.303916520830727
40
0.303916520830727
40
0.317506062235298
40
0.317506062235298
40
0.331095603639869
40
0.331095603639869
40
0.344685145044439
40
0.344685145044439
40
0.35827468644901
40
0.35827468644901
40
0.371864227853581
40
0.371864227853581
40
0.385453769258152
40
0.385453769258152
40
0.399043310662722
40
0.399043310662722
40
0.412632852067293
40
0.412632852067293
40
0.426222393471864
40
0.426222393471864
40
0.439811934876435
40
0.439811934876435
40
0.453401476281005
40
0.453401476281005
40
0.466991017685576
40
0.466991017685576
40
0.480580559090147
40
0.480580559090147
40
0.494170100494717
40
0.494170100494717
40
0.507759641899288
40
0.507759641899288
40
0.521349183303859
40
0.521349183303859
40
0.528143954006144
40
0.528143954006144
40
0.53493872470843
40
0.53493872470843
40
0.548528266112999
40
0.548528266112999
40
0.562117807517568
40
0.562117807517568
40
0.575707348922138
40
0.575707348922138
40
0.589296890326707
40
0.589296890326707
40
0.602886431731277
40
0.602886431731277
40
0.616475973135846
40
0.616475973135846
40
0.630065514540415
40
0.630065514540415
40
0.643655055944985
40
0.643655055944985
40
0.670834138754124
40
0.670834138754124
40
0.684423680158694
40
0.684423680158694
40
0.698013221563264
40
0.698013221563264
40
0.725192304372404
40
0.725192304372404
40
0.731987075074689
40
0.731987075074689
40
0.738781845776975
40
0.738781845776975
40
0.752371387181547
40
0.752371387181547
40
0.76596092858612
40
0.76596092858612
40
0.779550469990693
40
0.779550469990693
40
0.793140011395265
40
0.793140011395265
40
0.806729552799838
40
0.806729552799838
40
0.820319094204411
40
0.820319094204411
40
0.833908635608983
40
0.833908635608983
40
0.847498177013556
40
0.847498177013556
40
0.861087718418129
40
0.861087718418129
40
0.888266801227274
40
0.888266801227274
40
0.901856342631847
40
0.901856342631847
40
0.91544588403642
40
0.91544588403642
40
0.929035425440994
40
0.929035425440994
40
0.942624966845567
40
0.942624966845567
40
0.95621450825014
40
0.95621450825014
40
0.969804049654713
40
0.969804049654713
40
0.983393591059286
40
0.983393591059286
40
0.99698313246386
40
0.99698313246386
40
1
40
1
40
1
40
1
41
1
10
21.681513732047
20
3.35374334502197
30
0
41
1
10
21.7255773382899
20
3.35378644609372
30
0
41
1
10
21.7696618363366
20
3.35363891450373
30
0
41
1
10
21.8743646868426
20
3.35280889651787
30
0
41
1
10
21.9350111740168
20
3.35193064845529
30
0
41
1
10
22.0564686028862
20
3.34924877910967
30
0
41
1
10
22.117299327365
20
3.34743813254087
30
0
41
1
10
22.2998981277878
20
3.34070916980656
30
0
41
1
10
22.4213960667958
20
3.33453602076011
30
0
41
1
10
22.6638861899022
20
3.3192810969891
30
0
41
1
10
22.7848920921485
20
3.3101642060335
30
0
41
1
10
23.0265123961656
20
3.289104727943
30
0
41
1
10
23.1471098504996
20
3.27716386977843
30
0
41
1
10
23.3881595104707
20
3.25061573681796
30
0
41
1
10
23.5085913215497
20
3.23594718722967
30
0
41
1
10
23.7493172724796
20
3.20330826125377
30
0
41
1
10
23.869633582442
20
3.18540645040093
30
0
41
1
10
24.1101303005204
20
3.14680927237291
30
0
41
1
10
24.2303090254991
20
3.12610655614216
30
0
41
1
10
24.4704586384877
20
3.08202575972263
30
0
41
1
10
24.5904185878854
20
3.05863969079061
30
0
41
1
10
24.830203654384
20
3.00908830703642
30
0
41
1
10
24.9500362125654
20
2.98293153493054
30
0
41
1
10
25.1897701299096
20
2.92779751540613
30
0
41
1
10
25.3097085206991
20
2.89883279908355
30
0
41
1
10
25.549885153536
20
2.83840431629562
30
0
41
1
10
25.6700669066918
20
2.80687437558006
30
0
41
1
10
25.9105515255805
20
2.74137833535613
30
0
41
1
10
26.0308514115861
20
2.70745358818783
30
0
41
1
10
26.2715846621958
20
2.63718009270011
30
0
41
1
10
26.3920237818875
20
2.60081673231699
30
0
41
1
10
26.6331326886299
20
2.52547723824733
30
0
41
1
10
26.7538078409296
20
2.48647537008284
30
0
41
1
10
26.9955350985743
20
2.40595580078056
30
0
41
1
10
27.11656805387
20
2.36444253849345
30
0
41
1
10
27.3590504876557
20
2.27922999560161
30
0
41
1
10
27.4806016447309
20
2.23560128551816
30
0
41
1
10
27.7238931879618
20
2.14639931528794
30
0
41
1
10
27.8452822784244
20
2.10089395612451
30
0
41
1
10
28.0877330562849
20
2.00815265114045
30
0
41
1
10
28.2087840192359
20
1.96091826053077
30
0
41
1
10
28.4505568409709
20
1.86476916011418
30
0
41
1
10
28.5712742802486
20
1.81585425416486
30
0
41
1
10
28.812329506461
20
1.71635622276722
30
0
41
1
10
28.9326740481828
20
1.66578333207551
30
0
41
1
10
29.1730640093741
20
1.56317996886
30
0
41
1
10
29.2930742638524
20
1.51110382546449
30
0
41
1
10
29.5331009969429
20
1.40594623777736
30
0
41
1
10
29.6531469032838
20
1.35290899035738
30
0
41
1
10
29.8931731405904
20
1.24568769650517
30
0
41
1
10
30.0131826949097
20
1.19155822089704
30
0
41
1
10
30.25319355907
20
1.08234064782428
30
0
41
1
10
30.373188423281
20
1.02724177124006
30
0
41
1
10
30.6130994910582
20
0.915991121018521
30
0
41
1
10
30.7330003583849
20
0.859816393244131
30
0
41
1
10
30.9727864651741
20
0.746473922752131
30
0
41
1
10
31.0926897426269
20
0.689336344387954
30
0
41
1
10
31.3326884149172
20
0.574429674478949
30
0
41
1
10
31.4527909090432
20
0.5166679003772
30
0
41
1
10
31.6934430414207
20
0.40108009203712
30
0
41
1
10
31.8139409105499
20
0.343147803734155
30
0
41
1
10
32.0551386084209
20
0.226793787957291
30
0
41
1
10
32.1758391364135
20
0.168394156872012
30
0
41
1
10
32.4174894883362
20
0.0512014177595574
30
0
41
1
10
32.5384726217431
20
-0.0075503745560184
30
0
41
1
10
32.7808774898733
20
-0.125207477845066
30
0
41
1
10
32.9022720799729
20
-0.184157029827588
30
0
41
1
10
33.1455019377693
20
-0.302147461201173
30
0
41
1
10
33.2669924870573
20
-0.361008837165428
30
0
41
1
10
33.5097883068702
20
-0.478283518059442
30
0
41
1
10
33.6311397466331
20
-0.536627765263773
30
0
41
1
10
33.8737598838651
20
-0.652769884923288
30
0
41
1
10
33.9949921084633
20
-0.710620739280841
30
0
41
1
10
34.2375364326563
20
-0.825257722221835
30
0
41
1
10
34.3588382240667
20
-0.882078705134774
30
0
41
1
10
34.6014758715243
20
-0.994818190057998
30
0
41
1
10
34.7228099543618
20
-1.05074022830152
30
0
41
1
10
34.9654591849167
20
-1.16182204483417
30
0
41
1
10
35.0867723707902
20
-1.21698623722699
30
0
41
1
10
35.3293771495494
20
-1.32664136485735
30
0
41
1
10
35.4506477796958
20
-1.38117193332246
30
0
41
1
10
35.6328465716619
20
-1.46173834792424
30
0
41
1
10
35.6936705264355
20
-1.4883803794155
30
0
41
1
10
35.8152271683778
20
-1.54114527986445
30
0
41
1
10
35.8759628040587
20
-1.56727873772576
30
0
41
1
10
36.0580171487616
20
-1.64501273366452
30
0
41
1
10
36.1791998876786
20
-1.69591335803946
30
0
41
1
10
36.4212483472608
20
-1.79592009350401
30
0
41
1
10
36.5421105750431
20
-1.8450257013971
30
0
41
1
10
36.7834443733334
20
-1.94182310521885
30
0
41
1
10
36.9038941122559
20
-1.98961232712881
30
0
41
1
10
37.1444558469667
20
-2.08339761507099
30
0
41
1
10
37.2646003546316
20
-2.12926304269121
30
0
41
1
10
37.5047682495026
20
-2.21864740494357
30
0
41
1
10
37.6247739724028
20
-2.26222031301464
30
0
41
1
10
37.8648825519557
20
-2.34690803297201
30
0
41
1
10
37.984951534802
20
-2.38807622021534
30
0
41
1
10
38.2249756574455
20
-2.4684839238119
30
0
41
1
10
38.3449438404472
20
-2.50774482494978
30
0
41
1
10
38.5848110341072
20
-2.58431260627822
30
0
41
1
10
38.7047348022631
20
-2.62150616765183
30
0
41
1
10
39.0646944113672
20
-2.72895939754778
30
0
41
1
10
39.3047983445726
20
-2.79544566582322
30
0
41
1
10
39.6653708981282
20
-2.88810086114111
30
0
41
1
10
39.7856603613934
20
-2.91777777637145
30
0
41
1
10
40.0264997219832
20
-2.97482906327591
30
0
41
1
10
40.1469978296847
20
-3.00223274497685
30
0
41
1
10
40.5092202007619
20
-3.07965554087787
30
0
41
1
10
40.7517533517732
20
-3.12482939789032
30
0
41
1
10
41.0557952899695
20
-3.17454150886704
30
0
41
1
10
41.1166487751952
20
-3.18414956437496
30
0
41
1
10
41.238147842907
20
-3.20266025979839
30
0
41
1
10
41.2988312084736
20
-3.21156800072535
30
0
41
1
10
41.4806994919863
20
-3.23726416453798
30
0
41
1
10
41.6016849384529
20
-3.2530762387828
30
0
41
1
10
41.8433738959278
20
-3.2814892869649
30
0
41
1
10
41.9641436278683
20
-3.29399086871175
30
0
41
1
10
42.205473410276
20
-3.31579299788947
30
0
41
1
10
42.3260132668477
20
-3.32512031744986
30
0
41
1
10
42.5668849266886
20
-3.34091437583712
30
0
41
1
10
42.6872067396234
20
-3.34739955017679
30
0
41
1
10
42.9275639695769
20
-3.35773145056893
30
0
41
1
10
43.0475783204786
20
-3.36165074058891
30
0
41
1
10
43.287381825759
20
-3.36641460034909
30
0
41
1
10
43.4072085820068
20
-3.36713989401539
30
0
41
1
10
43.6468981883287
20
-3.36512611890441
30
0
41
1
10
43.7667334247436
20
-3.36242670517723
30
0
41
1
10
44.006627782962
20
-3.35386275798126
30
0
41
1
10
44.126696044719
20
-3.34800247275123
30
0
41
1
10
44.366919886383
20
-3.33322426619773
30
0
41
1
10
44.4871047159602
20
-3.32430602389454
30
0
41
1
10
44.8479226132933
20
-3.29309367748948
30
0
41
1
10
45.0887908783943
20
-3.26634561054539
30
0
41
1
10
45.4503921721101
20
-3.21758623906172
30
0
41
1
10
45.5709924230006
20
-3.19989943447746
30
0
41
1
10
45.812385114939
20
-3.16176003143025
30
0
41
1
10
45.9331791754232
20
-3.1413032851076
30
0
41
1
10
46.1753108027345
20
-3.09760509521135
30
0
41
1
10
46.2965936741781
20
-3.07432274195674
30
0
41
1
10
46.5397044880854
20
-3.0246416236063
30
0
41
1
10
46.6612770852614
20
-2.99830929651054
30
0
41
1
10
46.904191191293
20
-2.94285888795534
30
0
41
1
10
47.0255736964301
20
-2.91373224328308
30
0
41
1
10
47.2681502910103
20
-2.85276876918198
30
0
41
1
10
47.3893304119679
20
-2.82092688440767
30
0
41
1
10
47.6315791807618
20
-2.75461646300542
30
0
41
1
10
47.7526477426051
20
-2.72014326620629
30
0
41
1
10
47.9948390525765
20
-2.64871896092848
30
0
41
1
10
48.1160179838326
20
-2.61183079707112
30
0
41
1
10
48.2642131970196
20
-2.56537429898563
30
0
41
1
10
48.2911385004919
20
-2.55687728814496
30
0
41
1
10
48.3180666993926
20
-2.54832336223501
30
0
0
SPLINE
5
103
100
AcDbEntity
8
1
62
256
6
ByLayer
370
18
48
1
60
0
100
AcDbSpline
70
4
71
3
72
113
73
109
40
0
40
0
40
0
40
0
40
0.0369221680306284
40
0.0369221680306284
40
0.0553832520459427
40
0.0553832520459427
40
0.0738443360612569
40
0.0738443360612569
40
0.0923054200765711
40
0.0923054200765711
40
0.110766504091885
40
0.110766504091885
40
0.147688672122515
40
0.147688672122515
40
0.184610840153144
40
0.184610840153144
40
0.203071924168459
40
0.203071924168459
40
0.221533008183773
40
0.221533008183773
40
0.23076355019143
40
0.23076355019143
40
0.239994092199087
40
0.258455176214401
40
0.258455176214401
40
0.276916260229715
40
0.276916260229715
40
0.295377344245028
40
0.295377344245028
40
0.313838428260342
40
0.313838428260342
40
0.332299512275656
40
0.332299512275656
40
0.35076059629097
40
0.35076059629097
40
0.369221680306284
40
0.369221680306284
40
0.387682764321598
40
0.387682764321598
40
0.406143848336911
40
0.406143848336911
40
0.424604932352225
40
0.424604932352225
40
0.443066016367539
40
0.443066016367539
40
0.461527100382853
40
0.461527100382853
40
0.479988184398167
40
0.479988184398167
40
0.498449268413481
40
0.498449268413481
40
0.516910352428794
40
0.516910352428794
40
0.535371436444108
40
0.535371436444108
40
0.553832520459422
40
0.553832520459422
40
0.572293604474736
40
0.572293604474736
40
0.59075468849005
40
0.59075468849005
40
0.609215772505364
40
0.609215772505364
40
0.627676856520677
40
0.627676856520677
40
0.646137940535991
40
0.646137940535991
40
0.664599024551305
40
0.664599024551305
40
0.683060108566619
40
0.683060108566619
40
0.701521192581933
40
0.701521192581933
40
0.719982276597247
40
0.719982276597247
40
0.73844336061256
40
0.73844336061256
40
0.756904444627874
40
0.756904444627874
40
0.766134986635531
40
0.766134986635531
40
0.775365528643187
40
0.775365528643187
40
0.7938266126585
40
0.7938266126585
40
0.812287696673813
40
0.812287696673813
40
0.830748780689126
40
0.830748780689126
40
0.849209864704439
40
0.849209864704439
40
0.867670948719752
40
0.867670948719752
40
0.886132032735065
40
0.886132032735065
40
0.904593116750377
40
0.904593116750377
40
0.92305420076569
40
0.92305420076569
40
0.941515284781003
40
0.941515284781003
40
0.959976368796316
40
0.959976368796316
40
0.978437452811629
40
0.978437452811629
40
0.996898536826942
40
0.996898536826942
40
1
40
1
40
1
40
1
41
1
10
6.96105499985777
20
1.75789006085702
30
0
41
1
10
7.20515373407665
20
1.65892116764795
30
0
41
1
10
7.44891811847094
20
1.55629711718228
30
0
41
1
10
7.81409270131601
20
1.39735296227153
30
0
41
1
10
7.9357674560539
20
1.34350973339778
30
0
41
1
10
8.17857115532971
20
1.23447303637272
30
0
41
1
10
8.29977610943365
20
1.1792898933613
30
0
41
1
10
8.54209059188165
20
1.06816270243692
30
0
41
1
10
8.66320035747961
20
1.01222157761688
30
0
41
1
10
8.90546843214301
20
0.899908137846012
30
0
41
1
10
9.02660709017206
20
0.843497172856985
30
0
41
1
10
9.38980515193722
20
0.673082443674218
30
0
41
1
10
9.6317709897221
20
0.558159547790041
30
0
41
1
10
10.1157478157085
20
0.326238920681533
30
0
41
1
10
10.3577349848706
20
0.209161717774037
30
0
41
1
10
10.7211136614147
20
0.0328251049832033
30
0
41
1
10
10.8423251665136
20
-0.0260287756223363
30
0
41
1
10
11.0851067835234
20
-0.143490082156262
30
0
41
1
10
11.2066185544049
20
-0.20222363118296
30
0
41
1
10
11.3891348027896
20
-0.290207790083599
30
0
41
1
10
11.4500189661528
20
-0.319508389878195
30
0
41
1
10
11.5716202935765
20
-0.377908700297638
30
0
41
1
10
11.7538717926771
20
-0.465250208947424
30
0
41
1
10
11.9356690622234
20
-0.551872947574736
30
0
41
1
10
12.1776344236595
20
-0.666874476064692
30
0
41
1
10
12.298391872011
20
-0.724153006642268
30
0
41
1
10
12.5395459086918
20
-0.838114928880543
30
0
41
1
10
12.6599369308373
20
-0.89479892208422
30
0
41
1
10
12.9005514006391
20
-1.00707914543187
30
0
41
1
10
13.0208307847202
20
-1.06255958090273
30
0
41
1
10
13.2613249987122
20
-1.17217292602345
30
0
41
1
10
13.3815143952898
20
-1.22636493789281
30
0
41
1
10
13.6218430497151
20
-1.33347003671486
30
0
41
1
10
13.7419753980843
20
-1.38639777179037
30
0
41
1
10
13.9821249220244
20
-1.4911806982787
30
0
41
1
10
14.1021395631904
20
-1.5430387178186
30
0
41
1
10
14.3420769363686
20
-1.64555493573428
30
0
41
1
10
14.4620058652742
20
-1.69620033871323
30
0
41
1
10
14.701964749519
20
-1.79584310309056
30
0
41
1
10
14.8219841481997
20
-1.84485023431202
30
0
41
1
10
15.0623143543851
20
-1.94094862670133
30
0
41
1
10
15.182643932552
20
-1.98801144006453
30
0
41
1
10
15.4234077131415
20
-2.08066328896888
30
0
41
1
10
15.5438458972565
20
-2.12627024480804
30
0
41
1
10
15.7850326083257
20
-2.21550111845997
30
0
41
1
10
15.9058078743726
20
-2.25904185439933
30
0
41
1
10
16.1477222391787
20
-2.34397723024443
30
0
41
1
10
16.2688427922047
20
-2.38541838899968
30
0
41
1
10
16.5113822540735
20
-2.46636195030322
30
0
41
1
10
16.6328247353364
20
-2.50584619307725
30
0
41
1
10
16.8760182433657
20
-2.58284505056145
30
0
41
1
10
16.9973577857406
20
-2.62028991872543
30
0
41
1
10
17.2397939601784
20
-2.69252749835925
30
0
41
1
10
17.3608502867118
20
-2.72727002343274
30
0
41
1
10
17.6026864059315
20
-2.79366645540128
30
0
41
1
10
17.7234796067574
20
-2.82538465340693
30
0
41
1
10
17.9647949082343
20
-2.88619239095166
30
0
41
1
10
18.0853170936344
20
-2.91526920261163
30
0
41
1
10
18.3260430723556
20
-2.97098545855897
30
0
41
1
10
18.4462343377623
20
-2.99764851239502
30
0
41
1
10
18.686326972522
20
-3.04860615475573
30
0
41
1
10
18.8062387197572
20
-3.07283358618125
30
0
41
1
10
19.0460963382247
20
-3.11790310276362
30
0
41
1
10
19.1660831835643
20
-3.13876054247183
30
0
41
1
10
19.4061492555412
20
-3.17754726902243
30
0
41
1
10
19.5261799383819
20
-3.19550607090108
30
0
41
1
10
19.7662701467032
20
-3.2286829886643
30
0
41
1
10
19.8863302424918
20
-3.24390251433485
30
0
41
1
10
20.1264147243899
20
-3.27179164483721
30
0
41
1
10
20.2464174134805
20
-3.2845196180163
30
0
41
1
10
20.4865802328473
20
-3.30665171280717
30
0
41
1
10
20.6067772253554
20
-3.31593881719761
30
0
41
1
10
20.8474320023697
20
-3.33128803550784
30
0
41
1
10
20.9678553784714
20
-3.33741392802352
30
0
41
1
10
21.2090164013762
20
-3.34676839202788
30
0
41
1
10
21.3298055366082
20
-3.34998104030987
30
0
41
1
10
21.5716055808454
20
-3.35368484979969
30
0
41
1
10
21.6925891657174
20
-3.35424989789647
30
0
41
1
10
21.8743646868426
20
-3.35280889651787
30
0
41
1
10
21.9350111740168
20
-3.35193064845529
30
0
41
1
10
22.0564686028862
20
-3.34924877910967
30
0
41
1
10
22.1172993273651
20
-3.34743813254087
30
0
41
1
10
22.2998981277878
20
-3.34070916980656
30
0
41
1
10
22.4213960667958
20
-3.33453602076011
30
0
41
1
10
22.6638861899023
20
-3.3192810969891
30
0
41
1
10
22.7848920921485
20
-3.3101642060335
30
0
41
1
10
23.0265123961656
20
-3.289104727943
30
0
41
1
10
23.1471098504996
20
-3.27716386977843
30
0
41
1
10
23.3881595104708
20
-3.25061573681796
30
0
41
1
10
23.5085913215497
20
-3.23594718722967
30
0
41
1
10
23.7493172724796
20
-3.20330826125377
30
0
41
1
10
23.8696335824421
20
-3.18540645040091
30
0
41
1
10
24.1101303005204
20
-3.14680927237288
30
0
41
1
10
24.2303090254991
20
-3.12610655614216
30
0
41
1
10
24.4704586384877
20
-3.0820257597226
30
0
41
1
10
24.5904185878854
20
-3.05863969079059
30
0
41
1
10
24.830203654384
20
-3.00908830703642
30
0
41
1
10
24.9500362125654
20
-2.98293153493054
30
0
41
1
10
25.1897701299096
20
-2.92779751540613
30
0
41
1
10
25.3097085206991
20
-2.89883279908355
30
0
41
1
10
25.549885153536
20
-2.83840431629562
30
0
41
1
10
25.6700669066919
20
-2.80687437558006
30
0
41
1
10
25.9105515255805
20
-2.7413783353561
30
0
41
1
10
26.0308514115861
20
-2.70745358818783
30
0
41
1
10
26.2715846621959
20
-2.63718009270011
30
0
41
1
10
26.3920237818875
20
-2.60081673231699
30
0
41
1
10
26.5328313903372
20
-2.55681846562047
30
0
41
1
10
26.5530879520246
20
-2.55045234814637
30
0
41
1
10
26.5733482416975
20
-2.54404898471131
30
0
0
SPLINE
5
104
100
AcDbEntity
8
1
62
256
6
ByLayer
370
18
48
1
60
0
100
AcDbSpline
70
4
71
3
72
54
73
50
40
0
40
0
40
0
40
0
40
0.0176817037990779
40
0.0176817037990779
40
0.0554631767298819
40
0.0554631767298819
40
0.0932446496606853
40
0.0932446496606853
40
0.16880759552229
40
0.16880759552229
40
0.206589068453094
40
0.206589068453094
40
0.244370541383898
40
0.244370541383898
40
0.282152014314702
40
0.282152014314702
40
0.319933487245506
40
0.319933487245506
40
0.357714960176309
40
0.357714960176309
40
0.395496433107113
40
0.395496433107113
40
0.433277906037917
40
0.433277906037917
40
0.471059378968721
40
0.471059378968721
40
0.546622324830332
40
0.546622324830332
40
0.584403797761138
40
0.584403797761138
40
0.622185270691944
40
0.622185270691944
40
0.65996674362275
40
0.65996674362275
40
0.697748216553556
40
0.697748216553556
40
0.735529689484362
40
0.735529689484362
40
0.773311162415168
40
0.773311162415168
40
0.811092635345974
40
0.811092635345974
40
0.848874108276781
40
0.848874108276781
40
0.886655581207586
40
0.886655581207586
40
0.924437054138392
40
0.924437054138392
40
1
40
1
40
1
40
1
41
1
10
43.7183361067039
20
3.36310548920088
30
0
41
1
10
43.7744347243919
20
3.36180603548738
30
0
41
1
10
43.8305454050895
20
3.36014869232937
30
0
41
1
10
44.006627782962
20
3.35386275798126
30
0
41
1
10
44.126696044719
20
3.34800247275123
30
0
41
1
10
44.366919886383
20
3.33322426619776
30
0
41
1
10
44.4871047159603
20
3.32430602389454
30
0
41
1
10
44.8479226132933
20
3.29309367748948
30
0
41
1
10
45.0887908783943
20
3.26634561054539
30
0
41
1
10
45.4503921721102
20
3.21758623906172
30
0
41
1
10
45.5709924230006
20
3.19989943447746
30
0
41
1
10
45.8123851149391
20
3.16176003143025
30
0
41
1
10
45.9331791754232
20
3.1413032851076
30
0
41
1
10
46.1753108027345
20
3.09760509521135
30
0
41
1
10
46.2965936741782
20
3.07432274195674
30
0
41
1
10
46.5397044880855
20
3.0246416236063
30
0
41
1
10
46.6612770852615
20
2.99830929651054
30
0
41
1
10
46.904191191293
20
2.94285888795534
30
0
41
1
10
47.0255736964301
20
2.91373224328308
30
0
41
1
10
47.2681502910103
20
2.85276876918198
30
0
41
1
10
47.3893304119679
20
2.82092688440767
30
0
41
1
10
47.6315791807617
20
2.75461646300542
30
0
41
1
10
47.7526477426051
20
2.72014326620629
30
0
41
1
10
47.9948390525766
20
2.64871896092848
30
0
41
1
10
48.1160179838326
20
2.61183079707112
30
0
41
1
10
48.4798362529274
20
2.49778040125747
30
0
41
1
10
48.7226128078169
20
2.41709525266526
30
0
41
1
10
49.0871777030132
20
2.28952485358352
30
0
41
1
10
49.2088088945311
20
2.24586011631973
30
0
41
1
10
49.4516404500203
20
2.15642592702608
30
0
41
1
10
49.572909434354
20
2.11063472902296
30
0
41
1
10
49.8153144158596
20
2.01710616355118
30
0
41
1
10
49.936428826967
20
1.96934371623601
30
0
41
1
10
50.1787007636486
20
1.87227616098926
30
0
41
1
10
50.2998913463706
20
1.82303187167048
30
0
41
1
10
50.5421898454792
20
1.72288076550947
30
0
41
1
10
50.6633216463001
20
1.67200433121201
30
0
41
1
10
50.9057553873262
20
1.56877253223928
30
0
41
1
10
51.0270591115626
20
1.51641353741533
30
0
41
1
10
51.2697746983537
20
1.41021428166349
30
0
41
1
10
51.3911767625796
20
1.35636102882285
30
0
41
1
10
51.6340805867187
20
1.24719040461667
30
0
41
1
10
51.7556744647815
20
1.19185776149871
30
0
41
1
10
51.9985386969286
20
1.0802264079918
30
0
41
1
10
52.1198299217845
20
1.02390866226128
30
0
41
1
10
52.3624102118105
20
0.910813164390163
30
0
41
1
10
52.483647807738
20
0.853937487485496
30
0
41
1
10
52.847118075647
20
0.682172383884705
30
0
41
1
10
53.0892180796134
20
0.56636696642758
30
0
41
1
10
53.3311253470751
20
0.449271175676898
30
0
0
SPLINE
5
105
100
AcDbEntity
8
1
62
256
6
ByLayer
370
18
48
1
60
0
100
AcDbSpline
70
4
71
3
72
30
73
26
40
0
40
0
40
0
40
0
40
0.0625000000000012
40
0.0625000000000012
40
0.125000000000002
40
0.125000000000002
40
0.187500000000004
40
0.187500000000004
40
0.250000000000005
40
0.250000000000005
40
0.312500000000006
40
0.312500000000006
40
0.343750000000007
40
0.343750000000007
40
0.375000000000007
40
0.375000000000007
40
0.500000000000006
40
0.500000000000006
40
0.625000000000005
40
0.625000000000005
40
0.750000000000003
40
0.750000000000003
40
0.875000000000002
40
0.875000000000002
40
1
40
1
40
1
40
1
41
1
10
3.93161879972985
20
3.13409048792872
30
0
41
1
10
3.97380807421502
20
3.11023681953404
30
0
41
1
10
4.01915212497619
20
3.08552356479115
30
0
41
1
10
4.11474816414184
20
3.03475784765999
30
0
41
1
10
4.16501016483482
20
3.00870285010723
30
0
41
1
10
4.26955579122969
20
2.95550135340869
30
0
41
1
10
4.32384442370238
20
2.92835356263018
30
0
41
1
10
4.43582726027333
20
2.87314419393235
30
0
41
1
10
4.49352370878316
20
2.84508206418144
30
0
41
1
10
4.61186736359372
20
2.78818025999755
30
0
41
1
10
4.67251606287331
20
2.75934019995978
30
0
41
1
10
4.76544316382422
20
2.71557772827089
30
0
41
1
10
4.79667021819614
20
2.7009417693715
30
0
41
1
10
4.85941390698972
20
2.67166453394492
30
0
41
1
10
4.89095895967148
20
2.65700987475617
30
0
41
1
10
5.04948685737321
20
2.58366774339953
30
0
41
1
10
5.17885308751136
20
2.52477706562598
30
0
41
1
10
5.44150853761525
20
2.40679274690521
30
0
41
1
10
5.57480833281727
20
2.34769765741848
30
0
41
1
10
5.84461749955668
20
2.22947355751228
30
0
41
1
10
5.98113455967464
20
2.17034319048707
30
0
41
1
10
6.25685733951025
20
2.05219195462513
30
0
41
1
10
6.39603583672519
20
1.99317782497633
30
0
41
1
10
6.67671014804191
20
1.87537661953567
30
0
41
1
10
6.81827288728246
20
1.8165735782072
30
0
41
1
10
6.96105502875221
20
1.75789004898323
30
0
0
SPLINE
5
106
100
AcDbEntity
8
1
62
256
6
ByLayer
370
18
48
1
60
0
100
AcDbSpline
70
4
71
3
72
8
73
4
40
0
40
0
40
0
40
0
40
1
40
1
40
1
40
1
41
1
10
3.75160377325335
20
3.16280813617408
30
0
41
1
10
3.81166069969328
20
3.15360949530023
30
0
41
1
10
3.87166635514012
20
3.14403372233605
30
0
41
1
10
3.93161879972993
20
3.13409048792869
30
0
0
SPLINE
5
107
100
AcDbEntity
8
1
62
256
6
ByLayer
370
18
48
1
60
0
100
AcDbSpline
70
4
71
3
72
48
73
44
40
0
40
0
40
0
40
0
40
0.0624999999999992
40
0.0624999999999992
40
0.124999999999998
40
0.124999999999998
40
0.156249999999998
40
0.171874999999998
40
0.171874999999998
40
0.187499999999998
40
0.187499999999998
40
0.249999999999998
40
0.249999999999998
40
0.312499999999999
40
0.312499999999999
40
0.375
40
0.375
40
0.390625
40
0.390625
40
0.406250000000001
40
0.437500000000002
40
0.437500000000002
40
0.500000000000005
40
0.562500000000008
40
0.562500000000008
40
0.593750000000009
40
0.593750000000009
40
0.60937500000001
40
0.60937500000001
40
0.62500000000001
40
0.687500000000009
40
0.750000000000007
40
0.750000000000007
40
0.812500000000006
40
0.812500000000006
40
0.828125000000005
40
0.828125000000005
40
0.843750000000005
40
0.875000000000004
40
0.875000000000004
40
0.937500000000002
40
0.937500000000002
40
1
40
1
40
1
40
1
41
1
10
53.3311253470752
20
0.44927117567687
30
0
41
1
10
53.3258054675912
20
0.341432856704472
30
0
41
1
10
53.3239255069167
20
0.233533912140501
30
0
41
1
10
53.325750847334
20
0.0176025421084773
30
0
41
1
10
53.3294581997271
20
-0.0904298637726129
30
0
41
1
10
53.3383601849464
20
-0.252590608781702
30
0
41
1
10
53.3436479963819
20
-0.333699062767352
30
0
41
1
10
53.3500435574084
20
-0.414852379822094
30
0
41
1
10
53.3545377161337
20
-0.468964903328072
30
0
41
1
10
53.3568983579978
20
-0.496002825043775
30
0
41
1
10
53.3691661453421
20
-0.630480530885535
30
0
41
1
10
53.3805033381336
20
-0.736356065595857
30
0
41
1
10
53.4050744013534
20
-0.944926537125582
30
0
41
1
10
53.4183106776266
20
-1.04762085433794
30
0
41
1
10
53.445741121762
20
-1.2499396516522
30
0
41
1
10
53.4599367004573
20
-1.34956410024117
30
0
41
1
10
53.4777851459629
20
-1.47217655217486
30
0
41
1
10
53.4813557336337
20
-1.49657099754785
30
0
41
1
10
53.4884615401122
20
-1.54492897768776
30
0
41
1
10
53.4990789006984
20
-1.61689856466256
30
0
41
1
10
53.5095255363046
20
-1.68718816819145
30
0
41
1
10
53.5300844459971
20
-1.82556786889617
30
0
41
1
10
53.5565942935319
20
-2.0042204593758
30
0
41
1
10
53.5804348207723
20
-2.17130098243518
30
0
41
1
10
53.5971129907398
20
-2.29218130858871
30
0
41
1
10
53.6024732052784
20
-2.33173493715688
30
0
41
1
10
53.610201005464
20
-2.3899303935892
30
0
41
1
10
53.6127204225708
20
-2.40910612444333
30
0
41
1
10
53.6176292575896
20
-2.44687853813005
30
0
41
1
10
53.6295918013749
20
-2.53996378769708
30
0
41
1
10
53.6483580852292
20
-2.69556177984376
30
0
41
1
10
53.6615915686481
20
-2.81717112130139
30
0
41
1
10
53.6735120872485
20
-2.93034658015176
30
0
41
1
10
53.6788146634145
20
-2.98271807651565
30
0
41
1
10
53.6849967262418
20
-3.04270957051608
30
0
41
1
10
53.6862102966042
20
-3.05442295498136
30
0
41
1
10
53.6885936174992
20
-3.07718258763978
30
0
41
1
10
53.6921074642479
20
-3.11036466744872
30
0
41
1
10
53.6954952343638
20
-3.1406993697793
30
0
41
1
10
53.7022652200856
20
-3.19761320578209
30
0
41
1
10
53.7067668755993
20
-3.23055596459818
30
0
41
1
10
53.7167078989124
20
-3.28646019897442
30
0
41
1
10
53.7221453341324
20
-3.30942309280414
30
0
41
1
10
53.728610423511
20
-3.32727294762185
30
0
0
SPLINE
5
108
100
AcDbEntity
8
1
62
256
6
ByLayer
370
13
48
1
60
0
100
AcDbSpline
70
4
71
3
72
16
73
12
40
0
40
0
40
0
40
0
40
0.250000000000025
40
0.250000000000025
40
0.375000000000038
40
0.375000000000038
40
0.500000000000051
40
0.500000000000051
40
0.750000000000025
40
0.750000000000025
40
1
40
1
40
1
40
1
41
1
10
3.63829874462831
20
-1.49899050062658
30
0
41
1
10
3.62216023654835
20
-1.49847093994222
30
0
41
1
10
3.60742906719048
20
-1.49784128133328
30
0
41
1
10
3.58718494740404
20
-1.4967199719319
30
0
41
1
10
3.58074906721117
20
-1.49631647588973
30
0
41
1
10
3.56849298906417
20
-1.49544517277462
30
0
41
1
10
3.56270202344956
20
-1.49497872543569
30
0
41
1
10
3.54660982128451
20
-1.49351155498269
30
0
41
1
10
3.53743500982466
20
-1.49243369468783
30
0
41
1
10
3.52194714481311
20
-1.49005927379204
30
0
41
1
10
3.51561223279089
20
-1.48875123533603
30
0
41
1
10
3.51087181313039
20
-1.48735809736499
30
0
0
SPLINE
5
109
100
AcDbEntity
8
1
62
256
6
ByLayer
370
13
48
1
60
0
100
AcDbSpline
70
4
71
3
72
12
73
8
40
0
40
0
40
0
40
0
40
0.5
40
0.5
40
0.75
40
0.75
40
1
40
1
40
1
40
1
41
1
10
3.75038371543778
20
-1.5158996144786
30
0
41
1
10
3.73091709721712
20
-1.51086203920602
30
0
41
1
10
3.71182423361015
20
-1.50696348057522
30
0
41
1
10
3.6837381809959
20
-1.50272298296144
30
0
41
1
10
3.67446923815976
20
-1.50158013031759
30
0
41
1
10
3.65612728689007
20
-1.49985264414863
30
0
41
1
10
3.64708622559721
20
-1.49927340345749
30
0
41
1
10
3.63829874462831
20
-1.49899050062658
30
0
0
SPLINE
5
10A
100
AcDbEntity
8
1
62
256
6
ByLayer
370
13
48
1
60
0
100
AcDbSpline
70
4
71
3
72
58
73
54
40
0
40
0
40
0
40
0
40
0.0019531249999998
40
0.0019531249999998
40
0.0039062499999997
40
0.0078124999999997
40
0.0156249999999998
40
0.0312499999999999
40
0.0625
40
0.078125
40
0.078125
40
0.0937500000000001
40
0.0937500000000001
40
0.125
40
0.125
40
0.1875
40
0.25
40
0.25
40
0.28125
40
0.28125
40
0.3125
40
0.3125
40
0.375
40
0.4375
40
0.4375
40
0.46875
40
0.46875
40
0.484375
40
0.484375
40
0.5
40
0.5
40
0.5625
40
0.5625
40
0.59375
40
0.609375
40
0.609375
40
0.625
40
0.625
40
0.6875
40
0.6875
40
0.75
40
0.75
40
0.8125
40
0.8125
40
0.828125
40
0.828125
40
0.84375
40
0.84375
40
0.875
40
0.875
40
0.9375
40
0.9375
40
1
40
1
40
1
40
1
41
1
10
3.75160377325335
20
3.16280813617408
30
0
41
1
10
3.75160395104606
20
3.16160599194015
30
0
41
1
10
3.7516041300741
20
3.16037051590558
30
0
41
1
10
3.75160447705988
20
3.15791514260403
30
0
41
1
10
3.75160498768247
20
3.15421455752005
30
0
41
1
10
3.75160611039379
20
3.14545726489615
30
0
41
1
10
3.75160808282385
20
3.12745290235716
30
0
41
1
10
3.75161095099833
20
3.08948901630723
30
0
41
1
10
3.75161183520098
20
3.04164685120128
30
0
41
1
10
3.75161078894695
20
3.00241879276928
30
0
41
1
10
3.75160971943956
20
2.97551944296978
30
0
41
1
10
3.75160899864232
20
2.96170344810952
30
0
41
1
10
3.75160630495526
20
2.91931670236693
30
0
41
1
10
3.75160379945913
20
2.88975361246904
30
0
41
1
10
3.75159430494591
20
2.79722495755627
30
0
41
1
10
3.75157638591128
20
2.66363643662777
30
0
41
1
10
3.75154915601206
20
2.50988603383593
30
0
41
1
10
3.75152551912194
20
2.3868543301129
30
0
41
1
10
3.75151709379136
20
2.3445107409384
30
0
41
1
10
3.75149923147609
20
2.25736754322043
30
0
41
1
10
3.75148985889763
20
2.21287866709542
30
0
41
1
10
3.75146051067642
20
2.07672141201201
30
0
41
1
10
3.75141811289072
20
1.88801844599735
30
0
41
1
10
3.75136980211994
20
1.68526151861732
30
0
41
1
10
3.75133141225945
20
1.5278417288894
30
0
41
1
10
3.75131825449171
20
1.47447458968011
30
0
41
1
10
3.75129796752367
20
1.39305497097757
30
0
41
1
10
3.75129110618533
20
1.36565855734392
30
0
41
1
10
3.7512772650671
20
1.31067242344079
30
0
41
1
10
3.75127027904381
20
1.28305736285972
30
0
41
1
10
3.75123502187486
20
1.14437666915532
30
0
41
1
10
3.7512057775171
20
1.03150007965985
30
0
41
1
10
3.75116026212302
20
0.859311315524906
30
0
41
1
10
3.75113708985543
20
0.772496913813029
30
0
41
1
10
3.75111325675112
20
0.684592903205527
30
0
41
1
10
3.75109721523225
20
0.625746025851072
30
0
41
1
10
3.7510891123238
20
0.596179806773137
30
0
41
1
10
3.75104841587734
20
0.448511853952937
30
0
41
1
10
3.7510151264018
20
0.330324852331159
30
0
41
1
10
3.75094676045327
20
0.093849184895106
30
0
41
1
10
3.7509116844372
20
-0.024439491316798
30
0
41
1
10
3.75083928005807
20
-0.261118469549729
30
0
41
1
10
3.75080195303974
20
-0.379508761884523
30
0
41
1
10
3.75075349024132
20
-0.527562309937139
30
0
41
1
10
3.75074369251809
20
-0.55721951464372
30
0
41
1
10
3.75072398353657
20
-0.61630212371216
30
0
41
1
10
3.75071407682896
20
-0.645714875925506
30
0
41
1
10
3.75068418752033
20
-0.733571514114971
30
0
41
1
10
3.75066403586104
20
-0.791634061294161
30
0
41
1
10
3.75060280002114
20
-0.964317912383393
30
0
41
1
10
3.75056093775481
20
-1.07743964097975
30
0
41
1
10
3.75047452253452
20
-1.29969338370961
30
0
41
1
10
3.75042997101014
20
-1.40882572753591
30
0
41
1
10
3.75038371543775
20
-1.5158996144786
30
0
0
SPLINE
5
10B
100
AcDbEntity
8
1
62
256
6
ByLayer
370
18
48
1
60
0
100
AcDbSpline
70
4
71
3
72
19
73
15
40
0
40
0
40
0
40
0
40
0.249999999999919
40
0.249999999999919
40
0.312499999999932
40
0.312499999999932
40
0.374999999999946
40
0.374999999999946
40
0.499999999999969
40
0.624999999999993
40
0.624999999999993
40
0.750000000000016
40
0.750000000000016
40
1
40
1
40
1
40
1
41
1
10
3.5316350739603
20
3.32068423334454
30
0
41
1
10
3.54301681793069
20
3.29925355073584
30
0
41
1
10
3.55683029804268
20
3.2795934346735
30
0
41
1
10
3.57690936204645
20
3.25706360932301
30
0
41
1
10
3.58108567591361
20
3.2526455320384
30
0
41
1
10
3.58961306837406
20
3.24413346383579
30
0
41
1
10
3.59396826059094
20
3.24003246578502
30
0
41
1
10
3.60729682563422
20
3.22817537566109
30
0
41
1
10
3.6257673930196
20
3.21355121061382
30
0
41
1
10
3.64557378478494
20
3.20119824101511
30
0
41
1
10
3.66605074403762
20
3.1899909089241
30
0
41
1
10
3.67653037111188
20
3.18501954370851
30
0
41
1
10
3.70814780213783
20
3.17215586776226
30
0
41
1
10
3.72966645171456
20
3.16616817396709
30
0
41
1
10
3.75160377325335
20
3.16280813617408
30
0
0
SPLINE
5
10C
100
AcDbEntity
8
1
62
256
6
ByLayer
370
18
48
1
60
0
100
AcDbSpline
70
4
71
3
72
8
73
4
40
0
40
0
40
0
40
0
40
1
40
1
40
1
40
1
41
1
10
3.51129860299304
20
3.3157434511464
30
0
41
1
10
3.51618347566676
20
3.31809050487001
30
0
41
1
10
3.52239005538212
20
3.31998884572715
30
0
41
1
10
3.5316350739603
20
3.32068423334462
30
0
0
SPLINE
5
10D
100
AcDbEntity
8
1
62
256
6
ByLayer
370
18
48
1
60
0
100
AcDbSpline
70
4
71
3
72
51
73
47
40
0
40
0
40
0
40
0
40
0.0312500000000001
40
0.0468750000000001
40
0.0468750000000001
40
0.0625000000000001
40
0.0625000000000001
40
0.125
40
0.187500000000001
40
0.187500000000001
40
0.218750000000001
40
0.218750000000001
40
0.234375000000001
40
0.234375000000001
40
0.250000000000001
40
0.250000000000001
40
0.312500000000001
40
0.375000000000001
40
0.375000000000001
40
0.406250000000001
40
0.421875000000001
40
0.421875000000001
40
0.437500000000001
40
0.437500000000001
40
0.500000000000002
40
0.500000000000002
40
0.562500000000002
40
0.562500000000002
40
0.625000000000002
40
0.625000000000002
40
0.640625000000002
40
0.640625000000002
40
0.656250000000002
40
0.687500000000002
40
0.687500000000002
40
0.750000000000001
40
0.812500000000001
40
0.812500000000001
40
0.828125000000001
40
0.828125000000001
40
0.843750000000001
40
0.843750000000001
40
0.875000000000001
40
0.875000000000001
40
0.9375
40
1
40
1
40
1
40
1
41
1
10
3.51087181312917
20
-1.48735809736652
30
0
41
1
10
3.51087956794319
20
-1.43165613687913
30
0
41
1
10
3.51089103714907
20
-1.34714035160573
30
0
41
1
10
3.51090228892284
20
-1.2611802446788
30
0
41
1
10
3.51090974468079
20
-1.20355129857864
30
0
41
1
10
3.51091345322433
20
-1.17454896904468
30
0
41
1
10
3.51093184393156
20
-1.02909045092031
30
0
41
1
10
3.5109602603996
20
-0.793841524012691
30
0
41
1
10
3.51098709695725
20
-0.553693359250076
30
0
41
1
10
3.51100676964205
20
-0.371733725591071
30
0
41
1
10
3.51101325117458
20
-0.310771813711426
30
0
41
1
10
3.51102287472389
20
-0.218858730249394
30
0
41
1
10
3.51102607001357
20
-0.18810461925105
30
0
41
1
10
3.51103241041884
20
-0.12662867284368
30
0
41
1
10
3.5110355523056
20
-0.0959388535252117
30
0
41
1
10
3.51105112842254
20
0.0572723088765201
30
0
41
1
10
3.51107520200338
20
0.300891440416621
30
0
41
1
10
3.51109792084145
20
0.541552077893272
30
0
41
1
10
3.51111453977103
20
0.720931448709109
30
0
41
1
10
3.51112274359534
20
0.810341553948177
30
0
41
1
10
3.51113080020445
20
0.899325845302968
30
0
41
1
10
3.51113613945174
20
0.958552982447685
30
0
41
1
10
3.5111387968758
20
0.988160135103868
30
0
41
1
10
3.5111519580004
20
1.13541115799794
30
0
41
1
10
3.51116205461568
20
1.2503431719164
30
0
41
1
10
3.5111814597779
20
1.47466435064365
30
0
41
1
10
3.51119076813785
20
1.58405296306091
30
0
41
1
10
3.51120860355184
20
1.79729654401228
30
0
41
1
10
3.51121713077759
20
1.90115194741494
30
0
41
1
10
3.51122726309421
20
2.02740545619588
30
0
41
1
10
3.5112292658934
20
2.05251346894283
30
0
41
1
10
3.51123320110011
20
2.10216931387092
30
0
41
1
10
3.51123899578238
20
2.17577961996904
30
0
41
1
10
3.51124446513944
20
2.2468021903299
30
0
41
1
10
3.51125496102225
20
2.38545574180213
30
0
41
1
10
3.5112677788683
20
2.56130048573195
30
0
41
1
10
3.51127803865126
20
2.71926771589386
30
0
41
1
10
3.51128353948894
20
2.81228243003667
30
0
41
1
10
3.51128459387715
20
2.83059889384063
30
0
41
1
10
3.51128660744345
20
2.86665260825305
30
0
41
1
10
3.51128756790854
20
2.8844150938649
30
0
41
1
10
3.51129028918402
20
2.93660319118021
30
0
41
1
10
3.51129189010047
20
2.96992246068433
30
0
41
1
10
3.51129603195591
20
3.06555140175558
30
0
41
1
10
3.51129979593321
20
3.18153595821855
30
0
41
1
10
3.51129971897484
20
3.27484821325018
30
0
41
1
10
3.51129860299193
20
3.3157434511497
30
0
0
SPLINE
5
10E
100
AcDbEntity
8
1
62
256
6
ByLayer
370
13
48
1
60
0
100
AcDbSpline
70
4
71
3
72
16
73
12
40
0
40
0
40
0
40
0
40
0.372231565728616
40
0.372231565728616
40
0.558347348592923
40
0.558347348592923
40
0.65140524002508
40
0.65140524002508
40
0.744463131457237
40
0.744463131457237
40
1
40
1
40
1
40
1
41
1
10
3.75038371543775
20
-1.51589961447857
30
0
41
1
10
4.27483895010593
20
-1.74179932059755
30
0
41
1
10
4.79702936832933
20
-1.95326189146039
30
0
41
1
10
5.58048311726606
20
-2.24338996315956
30
0
41
1
10
5.84166925786104
20
-2.33558365892574
30
0
41
1
10
6.23399518032247
20
-2.46636598130371
30
0
41
1
10
6.36486307390243
20
-2.5087003037701
30
0
41
1
10
6.62687831791621
20
-2.59068012676099
30
0
41
1
10
6.75805886389162
20
-2.63034398530704
30
0
41
1
10
7.24981781359304
20
-2.77364966047477
30
0
41
1
10
7.60832749961062
20
-2.86728106056981
30
0
41
1
10
7.96566528004695
20
-2.94887923224667
30
0
0
SPLINE
5
10F
100
AcDbEntity
8
1
62
256
6
ByLayer
370
18
48
1
60
0
100
AcDbSpline
70
4
71
3
72
12
73
8
40
0
40
0
40
0
40
0
40
0.14477030992191
40
0.14477030992191
40
0.606557375466089
40
0.606557375466089
40
1
40
1
40
1
40
1
41
1
10
7.96566548576519
20
-2.9488792792225
30
0
41
1
10
8.12884900892379
20
-2.98614227555163
30
0
41
1
10
8.29178813990183
20
-3.02089583136359
30
0
41
1
10
8.97376496633973
20
-3.15574670416137
30
0
41
1
10
9.49129182514952
20
-3.23233532560113
30
0
41
1
10
10.4511035004578
20
-3.32317010052415
30
0
41
1
10
10.8931943410219
20
-3.34497355833076
30
0
41
1
10
11.3373338191411
20
-3.34611854531715
30
0
0
SPLINE
5
110
100
AcDbEntity
8
1
62
256
6
ByLayer
370
13
48
1
60
0
100
AcDbSpline
70
4
71
3
72
40
73
36
40
0
40
0
40
0
40
0
40
0.0204500391563924
40
0.0204500391563924
40
0.0558307359089834
40
0.0558307359089834
40
0.0735210842852786
40
0.0735210842852786
40
0.0912114326615739
40
0.0912114326615739
40
0.232734219671944
40
0.232734219671944
40
0.303495613177129
40
0.303495613177129
40
0.374257006682314
40
0.374257006682314
40
0.515779793692684
40
0.515779793692684
40
0.551160490445275
40
0.551160490445275
40
0.568850838821569
40
0.568850838821569
40
0.586541187197863
40
0.586541187197863
40
0.657302580703042
40
0.657302580703042
40
0.728063974208221
40
0.728063974208221
40
0.7988253677134
40
0.7988253677134
40
0.869586761218578
40
0.869586761218578
40
0.940348154723757
40
0.940348154723757
40
1
40
1
40
1
40
1
41
1
10
40.2435459824482
20
1.73279605834287
30
0
41
1
10
40.3188884518344
20
1.70143895674755
30
0
41
1
10
40.394295942509
20
1.66974402934653
30
0
41
1
10
40.6003625733744
20
1.58232128116188
30
0
41
1
10
40.7311653024705
20
1.52594714203215
30
0
41
1
10
40.9277505184579
20
1.44003015717774
30
0
41
1
10
40.9933310666383
20
1.4111699079655
30
0
41
1
10
41.1242741033396
20
1.35317297575875
30
0
41
1
10
41.18968029922
20
1.32401671900385
30
0
41
1
10
41.777798559903
20
1.06029507198502
30
0
41
1
10
42.2967590033306
20
0.816537325954982
30
0
41
1
10
43.073081952429
20
0.444470588494937
30
0
41
1
10
43.3315322098148
20
0.319435078574287
30
0
41
1
10
43.8483939666075
20
0.068624292817276
30
0
41
1
10
44.1068254052805
20
-0.0571070158917166
30
0
41
1
10
44.8828591858969
20
-0.433726677538061
30
0
41
1
10
45.4012156167072
20
-0.684007952426128
30
0
41
1
10
46.0535208814617
20
-0.989294744935535
30
0
41
1
10
46.1842016202862
20
-1.04997003789498
30
0
41
1
10
46.3806183645596
20
-1.14026944140827
30
0
41
1
10
46.4461996164957
20
-1.1702698152173
30
0
41
1
10
46.5771909431504
20
-1.22986557451813
30
0
41
1
10
46.6426208302272
20
-1.25947020103754
30
0
41
1
10
46.9694648195494
20
-1.40648770388196
30
0
41
1
10
47.2299599593649
20
-1.52088354441901
30
0
41
1
10
47.7495883644317
20
-1.74226244504376
30
0
41
1
10
48.0087342570675
20
-1.84923986855915
30
0
41
1
10
48.5263433089646
20
-2.05474004163798
30
0
41
1
10
48.7847992267891
20
-2.15325994455952
30
0
41
1
10
49.3015745991837
20
-2.34088125240203
30
0
41
1
10
49.5598941515478
20
-2.42999289088334
30
0
41
1
10
50.0769861172142
20
-2.59791289260752
30
0
41
1
10
50.33576241832
20
-2.67670466185729
30
0
41
1
10
50.8137293529648
20
-2.8115073111197
30
0
41
1
10
51.0327860354064
20
-2.86917077430536
30
0
41
1
10
51.2524109956636
20
-2.92257690923913
30
0
0
SPLINE
5
111
100
AcDbEntity
8
1
62
256
6
ByLayer
370
18
48
1
60
0
100
AcDbSpline
70
4
71
3
72
20
73
16
40
0
40
0
40
0
40
0
40
0.0497307989944318
40
0.0497307989944318
40
0.208108999162025
40
0.208108999162025
40
0.366487199329617
40
0.366487199329617
40
0.683243599664801
40
0.683243599664801
40
0.841621799832394
40
0.920810899916191
40
0.960405449958096
40
0.960405449958096
40
1
40
1
40
1
40
1
41
1
10
51.2524109911087
20
-2.92257690813148
30
0
41
1
10
51.2933139031216
20
-2.93252325684372
30
0
41
1
10
51.3342365260032
20
-2.94232193898136
30
0
41
1
10
51.5055720376082
20
-2.98270158472872
30
0
41
1
10
51.6361750278238
20
-3.01191832491597
30
0
41
1
10
51.8978923285185
20
-3.06721244668327
30
0
41
1
10
52.0290783554422
20
-3.0933001490412
30
0
41
1
10
52.4219505043786
20
-3.16640636376039
30
0
41
1
10
52.6834366331767
20
-3.20837390850903
30
0
41
1
10
53.0754350690878
20
-3.26085135250258
30
0
41
1
10
53.271376657498
20
-3.2844750124496
30
0
41
1
10
53.4999667597093
20
-3.30741883181128
30
0
41
1
10
53.5979417053653
20
-3.31625812998561
30
0
41
1
10
53.6632611147478
20
-3.32192967280921
30
0
41
1
10
53.6959049268965
20
-3.32462997269201
30
0
41
1
10
53.728610423512
20
-3.32727294762182
30
0
0
SPLINE
5
112
100
AcDbEntity
8
1
62
256
6
ByLayer
370
18
48
1
60
0
100
AcDbSpline
70
4
71
3
72
24
73
20
40
0
40
0
40
0
40
0
40
0.125000000000026
40
0.125000000000026
40
0.250000000000052
40
0.250000000000052
40
0.375000000000077
40
0.375000000000077
40
0.43750000000009
40
0.43750000000009
40
0.500000000000103
40
0.500000000000103
40
0.625000000000077
40
0.625000000000077
40
0.750000000000052
40
0.750000000000052
40
0.875000000000026
40
0.875000000000026
40
1
40
1
40
1
40
1
41
1
10
53.728610423511
20
-3.32727294762176
30
0
41
1
10
53.7290116849338
20
-3.32838081446187
30
0
41
1
10
53.729244601535
20
-3.32998325086589
30
0
41
1
10
53.7293480368027
20
-3.33423471519458
30
0
41
1
10
53.7292164068066
20
-3.33690723305753
30
0
41
1
10
53.7285356296995
20
-3.34336650234374
30
0
41
1
10
53.727995579224
20
-3.34708633075428
30
0
41
1
10
53.7268641837874
20
-3.35345176319837
30
0
41
1
10
53.7264331802664
20
-3.35570536078842
30
0
41
1
10
53.7254549083669
20
-3.36049731088269
30
0
41
1
10
53.7249033617393
20
-3.36305318086116
30
0
41
1
10
53.7231125227496
20
-3.37095085995151
30
0
41
1
10
53.7217294983489
20
-3.3765701951433
30
0
41
1
10
53.7185793940291
20
-3.38854032310709
30
0
41
1
10
53.7168030793434
20
-3.39491173468281
30
0
41
1
10
53.7130743100687
20
-3.4076612683084
30
0
41
1
10
53.7110757778112
20
-3.41420167603397
30
0
41
1
10
53.7069859856886
20
-3.42709663151678
30
0
41
1
10
53.7049086511748
20
-3.43341394718718
30
0
41
1
10
53.7028055747662
20
-3.4396124777756
30
0
0
SPLINE
5
113
100
AcDbEntity
8
1
62
256
6
ByLayer
370
18
48
1
60
0
100
AcDbSpline
70
4
71
3
72
8
73
4
40
0
40
0
40
0
40
0
40
1
40
1
40
1
40
1
41
1
10
53.7028055747579
20
-3.43961247780013
30
0
41
1
10
53.6942057000394
20
-3.46495943442
30
0
41
1
10
53.6856684319759
20
-3.49030645570394
30
0
41
1
10
53.6771953400737
20
-3.51565489560747
30
0
0
SPLINE
5
114
100
AcDbEntity
8
1
62
256
6
ByLayer
370
13
48
1
60
0
100
AcDbSpline
70
4
71
3
72
23
73
19
40
0
40
0
40
0
40
0
40
0.021607603644221
40
0.021607603644221
40
0.0432152072884408
40
0.0864304145768741
40
0.172860829153742
40
0.172860829153742
40
0.345721658307468
40
0.388936865595898
40
0.388936865595898
40
0.432152072884328
40
0.432152072884328
40
0.518582487461188
40
0.518582487461188
40
0.691443316614914
40
0.691443316614914
40
1
40
1
40
1
40
1
41
1
10
53.7028055746952
20
-3.43961247777057
30
0
41
1
10
53.6701319786385
20
-3.43729575903515
30
0
41
1
10
53.637456504717
20
-3.43498850995158
30
0
41
1
10
53.572110796691
20
-3.43007140900653
30
0
41
1
10
53.4740965512688
20
-3.4223515949017
30
0
41
1
10
53.2454149772002
20
-3.40193456368857
30
0
41
1
10
53.0493925200353
20
-3.38033007766217
30
0
41
1
10
52.6572205373201
20
-3.33169484445011
30
0
41
1
10
52.3301978011122
20
-3.28211086657151
30
0
41
1
10
52.0024669226988
20
-3.22150293009594
30
0
41
1
10
51.8713074322822
20
-3.19638522377761
30
0
41
1
10
51.8057230805392
20
-3.18339412063594
30
0
41
1
10
51.6092666420185
20
-3.14320837935128
30
0
41
1
10
51.478565647122
20
-3.11477759945993
30
0
41
1
10
51.087130368945
20
-3.02473850300575
30
0
41
1
10
50.8270567994445
20
-2.95837670009783
30
0
41
1
10
50.1045868829084
20
-2.75703283432497
30
0
41
1
10
49.6433982899204
20
-2.60912133912933
30
0
41
1
10
49.1821991917187
20
-2.445033545895
30
0
0
SPLINE
5
115
100
AcDbEntity
8
1
62
256
6
ByLayer
370
18
48
1
60
0
100
AcDbSpline
70
4
71
3
72
23
73
19
40
0
40
0
40
0
40
0
40
0.0309129864846302
40
0.0309129864846302
40
0.174694441242451
40
0.174694441242451
40
0.318475896000272
40
0.318475896000272
40
0.462257350758092
40
0.49820271444755
40
0.49820271444755
40
0.534148078137008
40
0.534148078137008
40
0.606038805515924
40
0.606038805515924
40
0.893601715031601
40
0.893601715031601
40
1
40
1
40
1
40
1
41
1
10
49.1821995134105
20
-2.44503366034817
30
0
41
1
10
49.1266489875966
20
-2.42526960874531
30
0
41
1
10
49.0710983093823
20
-2.40527087577721
30
0
41
1
10
48.7571527654114
20
-2.29095501304116
30
0
41
1
10
48.4986901015989
20
-2.19188107509663
30
0
41
1
10
47.981048840539
20
-1.98468190909477
30
0
41
1
10
47.721881608823
20
-1.87655228297129
30
0
41
1
10
47.2021601224566
20
-1.65228144059967
30
0
41
1
10
46.8764454306735
20
-1.50712325934657
30
0
41
1
10
46.549143076855
20
-1.3564568205272
30
0
41
1
10
46.4180865869331
20
-1.29576368969086
30
0
41
1
10
46.3524543865201
20
-1.26518657158684
30
0
41
1
10
46.1558765541494
20
-1.17310039549781
30
0
41
1
10
46.0251054246004
20
-1.11117090701271
30
0
41
1
10
45.3724083394662
20
-0.7993348460856
30
0
41
1
10
44.8539030211709
20
-0.542977830793404
30
0
41
1
10
44.145011480453
20
-0.18959891612144
30
0
41
1
10
43.9537032047617
20
-0.0939477331386058
30
0
41
1
10
43.7624402346319
20
0.0017138669558392
30
0
0
SPLINE
5
116
100
AcDbEntity
8
1
62
256
6
ByLayer
370
13
48
1
60
0
100
AcDbSpline
70
4
71
3
72
27
73
23
40
0
40
0
40
0
40
0
40
0.0472891285119092
40
0.0472891285119092
40
0.0689416483184557
40
0.0689416483184557
40
0.0905941681250028
40
0.133899207738098
40
0.133899207738098
40
0.30711936619048
40
0.30711936619048
40
0.480339524642861
40
0.480339524642861
40
0.653559683095242
40
0.653559683095242
40
0.696864722708337
40
0.696864722708337
40
0.740169762321433
40
0.740169762321433
40
0.826779841547622
40
0.826779841547622
40
1
40
1
40
1
40
1
41
1
10
12.7428961696915
20
-3.35391983623759
30
0
41
1
10
12.6002631902197
20
-3.37011716496727
30
0
41
1
10
12.4573769608112
20
-3.38420684745339
30
0
41
1
10
12.248616382517
20
-3.40160503339956
30
0
41
1
10
12.1829606794655
20
-3.40661878888343
30
0
41
1
10
12.0516209530601
20
-3.41572630358868
30
0
41
1
10
11.8548156478587
20
-3.42799159601466
30
0
41
1
10
11.6585763229841
20
-3.43608547017348
30
0
41
1
10
11.0055022791795
20
-3.45385251894581
30
0
41
1
10
10.4863984466801
20
-3.43856020866227
30
0
41
1
10
9.44973241541089
20
-3.35099710954631
30
0
41
1
10
8.93218029965223
20
-3.27870693354473
30
0
41
1
10
7.89354114680765
20
-3.07982664017854
30
0
41
1
10
7.37243733238142
20
-2.9531980824575
30
0
41
1
10
6.71557611043386
20
-2.76307632154348
30
0
41
1
10
6.58429642556939
20
-2.72356465454655
30
0
41
1
10
6.32210070302963
20
-2.64175036477232
30
0
41
1
10
6.1911435899211
20
-2.59943034926135
30
0
41
1
10
5.79855703307976
20
-2.46846680482042
30
0
41
1
10
5.53720810243505
20
-2.37584911002335
30
0
41
1
10
4.75323539356287
20
-2.08361481582625
30
0
41
1
10
4.23066590783094
20
-1.86963525310367
30
0
41
1
10
3.70572281273655
20
-1.64000286176045
30
0
0
SPLINE
5
117
100
AcDbEntity
8
1
62
256
6
ByLayer
370
13
48
1
60
0
100
AcDbSpline
70
4
71
3
72
10
73
6
40
0
40
0
40
0
40
0
40
0.5
40
0.5
40
1
40
1
40
1
40
1
41
1
10
3.70572281273652
20
-1.64000286176042
30
0
41
1
10
3.69406584915873
20
-1.63490361110416
30
0
41
1
10
3.68260580056315
20
-1.63052342895165
30
0
41
1
10
3.6600829306233
20
-1.62312932437365
30
0
41
1
10
3.64894193858359
20
-1.62010244356915
30
0
41
1
10
3.63829874462831
20
-1.6178852661688
30
0
0
SPLINE
5
118
100
AcDbEntity
8
1
62
256
6
ByLayer
370
13
48
1
60
0
100
AcDbSpline
70
4
71
3
72
8
73
4
40
0
40
0
40
0
40
0
40
1
40
1
40
1
40
1
41
1
10
3.63666204817895
20
-1.64646215695487
30
0
41
1
10
3.63720461012792
20
-1.63693959163382
30
0
41
1
10
3.63775017566476
20
-1.6274139858665
30
0
41
1
10
3.63829874462831
20
-1.6178852661688
30
0
0
SPLINE
5
119
100
AcDbEntity
8
1
62
256
6
ByLayer
370
18
48
1
60
0
100
AcDbSpline
70
4
71
3
72
62
73
58
40
0
40
0
40
0
40
0
40
0.0751455933033253
40
0.0751455933033253
40
0.0845387924662406
40
0.0845387924662406
40
0.0939319916291558
40
0.0939319916291558
40
0.112718389954986
40
0.112718389954986
40
0.150291186606647
40
0.150291186606647
40
0.225436779909968
40
0.225436779909968
40
0.263009576561627
40
0.263009576561627
40
0.281795974887457
40
0.281795974887457
40
0.291189174050372
40
0.291189174050372
40
0.300582373213287
40
0.300582373213287
40
0.338155169864946
40
0.338155169864946
40
0.375727966516605
40
0.375727966516605
40
0.450873559819924
40
0.450873559819924
40
0.488446356471583
40
0.488446356471583
40
0.526019153123241
40
0.526019153123241
40
0.54480555144907
40
0.54480555144907
40
0.554198750611985
40
0.554198750611985
40
0.5635919497749
40
0.601164746426557
40
0.601164746426557
40
0.676310339729871
40
0.676310339729871
40
0.751455933033185
40
0.751455933033185
40
0.789028729684842
40
0.789028729684842
40
0.798421928847756
40
0.798421928847756
40
0.807815128010669
40
0.826601526336496
40
0.826601526336496
40
0.901747119639799
40
0.901747119639799
40
0.939319916291449
40
0.939319916291449
40
0.9768927129431
40
0.9768927129431
40
1
40
1
40
1
40
1
41
1
10
53.6771953400744
20
-3.5156548955915
30
0
41
1
10
53.1532901462327
20
-3.47797000748528
30
0
41
1
10
52.6303292963511
20
-3.41017552418646
30
0
41
1
10
52.0403605561057
20
-3.30157172826134
30
0
41
1
10
51.9747858169289
20
-3.28905490231759
30
0
41
1
10
51.8435796842422
20
-3.26312770692186
30
0
41
1
10
51.7779560502877
20
-3.2497184503336
30
0
41
1
10
51.5813428615331
20
-3.20824081554804
30
0
41
1
10
51.4504919959999
20
-3.17889923003347
30
0
41
1
10
51.058464182067
20
-3.08598340171886
30
0
41
1
10
50.7978132166401
20
-3.01752251200119
30
0
41
1
10
50.0172227011965
20
-2.79353711748908
30
0
41
1
10
49.4983365480166
20
-2.61971416430356
30
0
41
1
10
48.7181182401754
20
-2.32772150146653
30
0
41
1
10
48.4577323438589
20
-2.22518518079946
30
0
41
1
10
48.0662210102892
20
-2.06419606105314
30
0
41
1
10
47.9355625620541
20
-2.00933403341787
30
0
41
1
10
47.7392753806581
20
-1.92533570407707
30
0
41
1
10
47.6737961900649
20
-1.89705242280937
30
0
41
1
10
47.5427253910481
20
-1.83993563163196
30
0
41
1
10
47.4770937154922
20
-1.81108431061003
30
0
41
1
10
47.1491360466769
20
-1.66572444679656
30
0
41
1
10
46.8878527553192
20
-1.54613527991904
30
0
41
1
10
46.3668296099641
20
-1.30157378229163
30
0
41
1
10
46.1071073836703
20
-1.17656694503972
30
0
41
1
10
45.3291290368812
20
-0.795669079810324
30
0
41
1
10
44.8119973271225
20
-0.534026184430218
30
0
41
1
10
44.0347219926706
20
-0.137636173918338
30
0
41
1
10
43.7753656850953
20
-0.0048560072817452
30
0
41
1
10
43.2555860748447
20
0.260945350532978
30
0
41
1
10
42.9951541321273
20
0.393950410076371
30
0
41
1
10
42.6030998554273
20
0.592430038254435
30
0
41
1
10
42.4721771761812
20
0.658411070805727
30
0
41
1
10
42.2753707302796
20
0.756982724930253
30
0
41
1
10
42.2097221628121
20
0.789761592877994
30
0
41
1
10
42.0786452570974
20
0.854982625370724
30
0
41
1
10
41.7512795681437
20
1.01730280148519
30
0
41
1
10
41.4254332017711
20
1.17576809711747
30
0
41
1
10
40.6453007992712
20
1.54691525239451
30
0
41
1
10
40.1276867010426
20
1.78200659006672
30
0
41
1
10
39.0921969662156
20
2.21872254555717
30
0
41
1
10
38.5742828271791
20
2.42027942525181
30
0
41
1
10
37.7931685142634
20
2.6909183285596
30
0
41
1
10
37.5320846453107
20
2.77584330928113
30
0
41
1
10
37.2044131349714
20
2.87471461815363
30
0
41
1
10
37.1387819479684
20
2.89413370351633
30
0
41
1
10
37.0075178369161
20
2.93218565235708
30
0
41
1
10
36.8108310461188
20
2.98802383073161
30
0
41
1
10
36.6147195821929
20
3.04010746138559
30
0
41
1
10
35.9620787695217
20
3.20524713083532
30
0
41
1
10
35.4433449717248
20
3.31020573420585
30
0
41
1
10
34.6663208526107
20
3.42477348417501
30
0
41
1
10
34.4075044263241
20
3.45582596334759
30
0
41
1
10
33.8895333975302
20
3.50332494710301
30
0
41
1
10
33.6303706787076
20
3.51977287353216
30
0
41
1
10
33.2110484072037
20
3.53434562407679
30
0
41
1
10
33.0511901197897
20
3.53708574355727
30
0
41
1
10
32.8910692310284
20
3.53698788962217
30
0
0
SPLINE
5
11A
100
AcDbEntity
8
1
62
256
6
ByLayer
370
18
48
1
60
0
100
AcDbSpline
70
4
71
3
72
29
73
25
40
0
40
0
40
0
40
0
40
0.0258158803129718
40
0.0258158803129718
40
0.188179900260811
40
0.188179900260811
40
0.228770905247771
40
0.228770905247771
40
0.269361910234731
40
0.350543920208652
40
0.350543920208652
40
0.431725930182573
40
0.431725930182573
40
0.472316935169532
40
0.472316935169532
40
0.512907940156492
40
0.512907940156492
40
0.594089950130411
40
0.594089950130411
40
0.675271960104329
40
0.675271960104329
40
0.837635980052165
40
0.837635980052165
40
1
40
1
40
1
40
1
41
1
10
13.279357811411
20
-3.35792311316428
30
0
41
1
10
13.1968990285127
20
-3.37063612638221
30
0
41
1
10
13.1144147540211
20
-3.38263803662554
30
0
41
1
10
12.5128993059503
20
-3.46488228230106
30
0
41
1
10
11.9924728348538
20
-3.50739157623542
30
0
41
1
10
11.3367706036463
20
-3.52273885565973
30
0
41
1
10
11.2052585702345
20
-3.52391636106577
30
0
41
1
10
10.9426673383309
20
-3.52245934562063
30
0
41
1
10
10.5491379172528
20
-3.51457251538093
30
0
41
1
10
10.156278669696
20
-3.48969693941214
30
0
41
1
10
9.63240435576142
20
-3.4416376931832
30
0
41
1
10
9.3704332676823
20
-3.4101607555107
30
0
41
1
10
8.97688198915162
20
-3.35197808733028
30
0
41
1
10
8.84559970336804
20
-3.3307562849397
30
0
41
1
10
8.58275420920705
20
-3.28469142930501
30
0
41
1
10
8.45152872935341
20
-3.259906452759
30
0
41
1
10
8.05869424175961
20
-3.18051230693737
30
0
41
1
10
7.79776035676099
20
-3.12083719201479
30
0
41
1
10
7.27707809060996
20
-2.98889283393785
30
0
41
1
10
7.01733316588741
20
-2.91662321161007
30
0
41
1
10
6.23898184807479
20
-2.68210275680013
30
0
41
1
10
5.72127430687402
20
-2.50208183176531
30
0
41
1
10
4.682621054827
20
-2.10229993568811
30
0
41
1
10
4.1616652573469
20
-1.88260840022375
30
0
41
1
10
3.6366620481794
20
-1.64646215695683
30
0
0
SPLINE
5
11B
100
AcDbEntity
8
1
62
256
6
ByLayer
370
13
48
1
60
0
100
AcDbSpline
70
4
71
3
72
52
73
48
40
0
40
0
40
0
40
0
40
0.0118651559342806
40
0.0118651559342806
40
0.0480393701579223
40
0.0480393701579223
40
0.0842135843815641
40
0.0842135843815641
40
0.156562012828848
40
0.156562012828848
40
0.19273622705249
40
0.19273622705249
40
0.228910441276132
40
0.228910441276132
40
0.301258869723417
40
0.301258869723417
40
0.337433083947059
40
0.337433083947059
40
0.373607298170701
40
0.373607298170701
40
0.391694405282522
40
0.391694405282522
40
0.409781512394344
40
0.409781512394344
40
0.445955726617988
40
0.445955726617988
40
0.518304155065274
40
0.518304155065274
40
0.590652583512561
40
0.590652583512561
40
0.663001011959847
40
0.663001011959847
40
0.735349440407133
40
0.735349440407133
40
0.807697868854421
40
0.807697868854421
40
0.825784975966241
40
0.825784975966241
40
0.843872083078061
40
0.843872083078061
40
0.880046297301703
40
0.880046297301703
40
0.952394725748988
40
0.952394725748988
40
0.988568939972632
40
0.988568939972632
40
1
40
1
40
1
40
1
41
1
10
18.4733239048931
20
1.73430385202076
30
0
41
1
10
18.5160156224321
20
1.71663087308076
30
0
41
1
10
18.5586891989997
20
1.69886433873148
30
0
41
1
10
18.7313972355473
20
1.62656392123748
30
0
41
1
10
18.861298941102
20
1.57129376641714
30
0
41
1
10
19.1209137232935
20
1.45933550654675
30
0
41
1
10
19.2506204616493
20
1.40263027624053
30
0
41
1
10
19.6394960034238
20
1.2304187257669
30
0
41
1
10
19.8984286358706
20
1.11283833542535
30
0
41
1
10
20.286810792049
20
0.933215001433524
30
0
41
1
10
20.4162739699053
20
0.87281593716844
30
0
41
1
10
20.6753119093166
20
0.751212178443637
30
0
41
1
10
20.8048815783613
20
0.689991129271817
30
0
41
1
10
21.1938045970631
20
0.505152864361918
30
0
41
1
10
21.4533790358748
20
0.380383865365275
30
0
41
1
10
21.8436559549162
20
0.19187431001771
30
0
41
1
10
21.973902838411
20
0.128822295208607
30
0
41
1
10
22.2347963920307
20
0.0025031020750248
30
0
41
1
10
22.3654403612145
20
-0.0607766777005168
30
0
41
1
10
22.5617468925522
20
-0.155807152847814
30
0
41
1
10
22.6272398225451
20
-0.18749986795325
30
0
41
1
10
22.7583540924372
20
-0.250885355657061
30
0
41
1
10
22.8239843298954
20
-0.282581499309316
30
0
41
1
10
23.020604554188
20
-0.377397412082615
30
0
41
1
10
23.1514801700648
20
-0.440325937976127
30
0
41
1
10
23.5435759894842
20
-0.628081985682911
30
0
41
1
10
23.8042729281029
20
-0.751897675411499
30
0
41
1
10
24.3248983941585
20
-0.995538577058596
30
0
41
1
10
24.5848236194244
20
-1.11535238383573
30
0
41
1
10
25.1045711097279
20
-1.34969598391191
30
0
41
1
10
25.3643996058177
20
-1.46423318951028
30
0
41
1
10
25.8845286536174
20
-1.68690820427531
30
0
41
1
10
26.1448228630068
20
-1.79503388354152
30
0
41
1
10
26.6665258252207
20
-2.0036623608481
30
0
41
1
10
26.9279406018502
20
-2.10417914385829
30
0
41
1
10
27.2557790490262
20
-2.22433927957442
30
0
41
1
10
27.3213820984464
20
-2.2480894687582
30
0
41
1
10
27.4524877504078
20
-2.29494201622924
30
0
41
1
10
27.5180162928502
20
-2.3180539586786
30
0
41
1
10
27.7145470605329
20
-2.38642115309139
30
0
41
1
10
27.845496790959
20
-2.43070164045085
30
0
41
1
10
28.2382344255085
20
-2.55956093990662
30
0
41
1
10
28.4999118964789
20
-2.64015769183661
30
0
41
1
10
28.8926404256064
20
-2.75239864397642
30
0
41
1
10
29.0235883681631
20
-2.78836962094215
30
0
41
1
10
29.1960312901219
20
-2.83373044678905
30
0
41
1
10
29.2374524052014
20
-2.84447343937416
30
0
41
1
10
29.278882691712
20
-2.85506510079307
30
0
0
SPLINE
5
11C
100
AcDbEntity
8
1
62
256
6
ByLayer
370
18
48
1
60
0
100
AcDbSpline
70
4
71
3
72
18
73
14
40
0
40
0
40
0
40
0
40
0.0698957489988619
40
0.0698957489988619
40
0.274269352496464
40
0.274269352496464
40
0.478642955994065
40
0.478642955994065
40
0.683016559491667
40
0.683016559491667
40
0.887390162989268
40
0.887390162989268
40
1
40
1
40
1
40
1
41
1
10
29.278882691168
20
-2.855065100654
30
0
41
1
10
29.3685608108828
20
-2.87799133073403
30
0
41
1
10
29.4582819014756
20
-2.90020852937423
30
0
41
1
10
29.8103288697621
20
-2.98451836575902
30
0
41
1
10
30.072511891261
20
-3.04106382238169
30
0
41
1
10
30.5972416424032
20
-3.14087897947832
30
0
41
1
10
30.8585506570287
20
-3.18388099438704
30
0
41
1
10
31.3796593894847
20
-3.25602271178838
30
0
41
1
10
31.6394856407092
20
-3.2852100624921
30
0
41
1
10
32.1583089405928
20
-3.3295909551064
30
0
41
1
10
32.417293470176
20
-3.34471254166326
30
0
41
1
10
32.8187580923084
20
-3.35728088379264
30
0
41
1
10
32.9613394469961
20
-3.35961853700039
30
0
41
1
10
33.1039350276151
20
-3.35982239124158
30
0
0
SPLINE
5
11D
100
AcDbEntity
8
1
62
256
6
ByLayer
370
13
48
1
60
0
100
AcDbSpline
70
4
71
3
72
31
73
27
40
0
40
0
40
0
40
0
40
0.0393819499629802
40
0.0393819499629802
40
0.146689604238904
40
0.146689604238904
40
0.253997258514826
40
0.253997258514826
40
0.361304912790748
40
0.361304912790748
40
0.468612567066671
40
0.468612567066671
40
0.575920221342594
40
0.575920221342594
40
0.683227875618517
40
0.683227875618517
40
0.73688170275648
40
0.73688170275648
40
0.790535529894444
40
0.790535529894444
40
0.897843184170366
40
0.897843184170366
40
0.951497011308327
40
0.978323924877308
40
0.978323924877308
40
1
40
1
40
1
40
1
41
1
10
34.4842133898734
20
-3.36831234502063
30
0
41
1
10
34.388772760564
20
-3.37913241921689
30
0
41
1
10
34.2934172673743
20
-3.38898576493017
30
0
41
1
10
33.9384894653997
20
-3.4220810420486
30
0
41
1
10
33.679343140221
20
-3.43908264196153
30
0
41
1
10
33.1614523779423
20
-3.45848925208375
30
0
41
1
10
32.9027171655246
20
-3.4609434990189
30
0
41
1
10
32.3849897608358
20
-3.45140810976974
30
0
41
1
10
32.1259884415826
20
-3.43940950835878
30
0
41
1
10
31.6070695476116
20
-3.40081527237447
30
0
41
1
10
31.3471836479508
20
-3.37427804444042
30
0
41
1
10
30.8259110408772
20
-3.30690767536996
30
0
41
1
10
30.5644968571539
20
-3.26603888099419
30
0
41
1
10
30.0394101405682
20
-3.16993879733582
30
0
41
1
10
29.7770016633526
20
-3.11495663835177
30
0
41
1
10
29.3832266347065
20
-3.02261617815819
30
0
41
1
10
29.2519520042279
20
-2.99019318738334
30
0
41
1
10
28.9896911453374
20
-2.92222370104412
30
0
41
1
10
28.8586507469859
20
-2.88666638818921
30
0
41
1
10
28.4656495885919
20
-2.77545502631503
30
0
41
1
10
28.2038003698153
20
-2.69525904666796
30
0
41
1
10
27.81082194937
20
-2.56651831296509
30
0
41
1
10
27.6142801558133
20
-2.50003772035134
30
0
41
1
10
27.4175620609085
20
-2.43048294911614
30
0
41
1
10
27.2989603281814
20
-2.38796407605636
30
0
41
1
10
27.245924497406
20
-2.36873937864897
30
0
41
1
10
27.1928957649832
20
-2.34931183868582
30
0
0
SPLINE
5
11E
100
AcDbEntity
8
1
62
256
6
ByLayer
370
18
48
1
60
0
100
AcDbSpline
70
4
71
3
72
27
73
23
40
0
40
0
40
0
40
0
40
0.0072528666122432
40
0.0072528666122432
40
0.158355923610169
40
0.158355923610169
40
0.309458980608094
40
0.309458980608094
40
0.460562037606016
40
0.460562037606016
40
0.611665094603937
40
0.611665094603937
40
0.762768151601859
40
0.762768151601859
40
0.838319680100819
40
0.838319680100819
40
0.876095444350301
40
0.913871208599783
40
0.913871208599783
40
0.989422737098747
40
0.989422737098747
40
1
40
1
40
1
40
1
41
1
10
27.1928948259858
20
-2.34931149467584
30
0
41
1
10
27.1802940369984
20
-2.34469508483545
30
0
41
1
10
27.1676936488268
20
-2.34006722166419
30
0
41
1
10
26.8926026244037
20
-2.23878029613499
30
0
41
1
10
26.6310169221728
20
-2.13746055607103
30
0
41
1
10
26.1090541558748
20
-1.92664664923447
30
0
41
1
10
25.8486535940116
20
-1.81716991658288
30
0
41
1
10
25.3283268792454
20
-1.59128888957619
30
0
41
1
10
25.0684246181233
20
-1.47486400054308
30
0
41
1
10
24.5485414295141
20
-1.23620143575374
30
0
41
1
10
24.2885424514507
20
-1.11397926766821
30
0
41
1
10
23.7677257670397
20
-0.865037205897011
30
0
41
1
10
23.5069286557952
20
-0.738293411934848
30
0
41
1
10
23.1146411265307
20
-0.545752222231215
30
0
41
1
10
22.9836898235383
20
-0.481172995085302
30
0
41
1
10
22.7869411976096
20
-0.383786728378681
30
0
41
1
10
22.6555854812248
20
-0.318644423205967
30
0
41
1
10
22.5244982664676
20
-0.253462009652679
30
0
41
1
10
22.3280464758157
20
-0.155707932875998
30
0
41
1
10
22.1973135129695
20
-0.0905762450011025
30
0
41
1
10
22.04852444568
20
-0.0163977536812467
30
0
41
1
10
22.0302563584236
20
-0.0072890127603102
30
0
41
1
10
22.0119924278619
20
0.0018184107945274
30
0
0
SPLINE
5
11F
100
AcDbEntity
8
1
62
256
6
ByLayer
370
18
48
1
60
0
100
AcDbSpline
70
4
71
3
72
83
73
79
40
0
40
0
40
0
40
0
40
0.0034731163299129
40
0.0034731163299129
40
0.0362385159962153
40
0.0362385159962153
40
0.0690039156625177
40
0.0690039156625177
40
0.10176931532882
40
0.10176931532882
40
0.118152015161972
40
0.118152015161972
40
0.126343365078547
40
0.126343365078547
40
0.134534714995123
40
0.134534714995123
40
0.200065514327719
40
0.200065514327719
40
0.232830913994017
40
0.232830913994017
40
0.241022263910591
40
0.241022263910591
40
0.249213613827165
40
0.265596313660313
40
0.265596313660313
40
0.29836171332661
40
0.29836171332661
40
0.331127112992907
40
0.331127112992907
40
0.363892512659204
40
0.363892512659204
40
0.3966579123255
40
0.3966579123255
40
0.429423311991797
40
0.429423311991797
40
0.445806011824945
40
0.445806011824945
40
0.462188711658093
40
0.462188711658093
40
0.527719510990686
40
0.527719510990686
40
0.544102210823834
40
0.544102210823834
40
0.560484910656982
40
0.560484910656982
40
0.593250310323278
40
0.593250310323278
40
0.609633010156425
40
0.609633010156425
40
0.626015709989572
40
0.626015709989572
40
0.658781109655867
40
0.658781109655867
40
0.675163809489014
40
0.675163809489014
40
0.691546509322161
40
0.691546509322161
40
0.724311908988455
40
0.724311908988455
40
0.740694608821602
40
0.740694608821602
40
0.757077308654749
40
0.757077308654749
40
0.773460008487896
40
0.773460008487896
40
0.78165135840447
40
0.78165135840447
40
0.789842708321043
40
0.789842708321043
40
0.822608107987338
40
0.822608107987338
40
0.855373507653633
40
0.855373507653633
40
0.920904306986224
40
0.920904306986224
40
0.986435106318814
40
0.986435106318814
40
1
40
1
40
1
40
1
41
1
10
35.007699513015
20
-3.37419947888847
30
0
41
1
10
34.9802403592787
20
-3.3784078697964
30
0
41
1
10
34.9527836177709
20
-3.38253619237543
30
0
41
1
10
34.6663208526107
20
-3.42477348417501
30
0
41
1
10
34.4075044263241
20
-3.45582596334759
30
0
41
1
10
33.8895333975302
20
-3.50332494710301
30
0
41
1
10
33.6303706787076
20
-3.51977287353216
30
0
41
1
10
33.1110862784291
20
-3.53781961834216
30
0
41
1
10
32.8509728884284
20
-3.53941552165497
30
0
41
1
10
32.4595518522196
20
-3.53048300321771
30
0
41
1
10
32.3288691693507
20
-3.52561839116984
30
0
41
1
10
32.1324627699177
20
-3.51547322335182
30
0
41
1
10
32.0669300782068
20
-3.51161688446922
30
0
41
1
10
31.935727414687
20
-3.50295185818618
30
0
41
1
10
31.8700330114371
20
-3.49814075102049
30
0
41
1
10
31.2793361226169
20
-3.45064263140892
30
0
41
1
10
30.7564400213014
20
-3.37840984733427
30
0
41
1
10
29.9708984260819
20
-3.22774773647834
30
0
41
1
10
29.7088824829677
20
-3.17046273520376
30
0
41
1
10
29.3807136243855
20
-3.09032139451304
30
0
41
1
10
29.3150189182874
20
-3.073859118363
30
0
41
1
10
29.1838131486654
20
-3.04015642172811
30
0
41
1
10
28.9872077977386
20
-2.9884180704903
30
0
41
1
10
28.7911596958214
20
-2.93320035623591
30
0
41
1
10
28.399654373524
20
-2.81834245536615
30
0
41
1
10
28.1394406308378
20
-2.73587367882956
30
0
41
1
10
27.6199929490608
20
-2.56005256962192
30
0
41
1
10
27.3607599225205
20
-2.46669534378236
30
0
41
1
10
26.8425367706347
20
-2.27020417118229
30
0
41
1
10
26.583553326992
20
-2.16706339523904
30
0
41
1
10
26.0652382330964
20
-1.95192916783466
30
0
41
1
10
25.8058763656163
20
-1.83998336508074
30
0
41
1
10
25.2860665492842
20
-1.60842635345173
30
0
41
1
10
25.0256444309005
20
-1.48877014327042
30
0
41
1
10
24.6337432889987
20
-1.30425634647119
30
0
41
1
10
24.5028954847359
20
-1.24191864619209
30
0
41
1
10
24.2406720970002
20
-1.11574620417611
30
0
41
1
10
24.1092123945065
20
-1.05186976007477
30
0
41
1
10
23.4531022586067
20
-0.730434882110188
30
0
41
1
10
22.9300651056372
20
-0.465802195413005
30
0
41
1
10
22.2751506084517
20
-0.132362457071963
30
0
41
1
10
22.144101667743
20
-0.0655623521723498
30
0
41
1
10
21.8818407532159
20
0.0682028917821071
30
0
41
1
10
21.7506088181211
20
0.135176791393633
30
0
41
1
10
21.3565630767593
20
0.335845755656749
30
0
41
1
10
21.0949338068412
20
0.468512578495506
30
0
41
1
10
20.7036079377422
20
0.664950372647638
30
0
41
1
10
20.5733527993273
20
0.730003863953414
30
0
41
1
10
20.3131853793978
20
0.859206895161719
30
0
41
1
10
20.1832719099958
20
0.923353063717371
30
0
41
1
10
19.7938134824146
20
1.11398634227928
30
0
41
1
10
19.5345543152082
20
1.23867848518805
30
0
41
1
10
19.1457855997965
20
1.42130831112115
30
0
41
1
10
19.0162161300925
20
1.48145058781913
30
0
41
1
10
18.7570812556567
20
1.60019835238219
30
0
41
1
10
18.6275151534238
20
1.65880174185256
30
0
41
1
10
18.2386058608812
20
1.83191130006494
30
0
41
1
10
17.979054609724
20
1.94372431726214
30
0
41
1
10
17.5888530526534
20
2.10524002025821
30
0
41
1
10
17.4586402703042
20
2.15804517429777
30
0
41
1
10
17.1978825609901
20
2.26150726680643
30
0
41
1
10
17.067336256054
20
2.31216112400466
30
0
41
1
10
16.8057649816918
20
2.41106967207836
30
0
41
1
10
16.6747411925448
20
2.45932676799538
30
0
41
1
10
16.4777892472143
20
2.5298136068925
30
0
41
1
10
16.4120603123263
20
2.55299518888719
30
0
41
1
10
16.2808264138717
20
2.59858046129099
30
0
41
1
10
16.2152751540726
20
2.62100087879523
30
0
41
1
10
15.8878222457547
20
2.73122036281418
30
0
41
1
10
15.6268783299502
20
2.81343472854806
30
0
41
1
10
15.106279890843
20
2.96521579732536
30
0
41
1
10
14.846596026065
20
3.03475227058334
30
0
41
1
10
14.0684622367469
20
3.22355583986413
30
0
41
1
10
13.5508897191042
20
3.32295951236708
30
0
41
1
10
12.5128993059504
20
3.46488228230106
30
0
41
1
10
11.9924728348539
20
3.50739157623542
30
0
41
1
10
11.3593266145575
20
3.52221091266111
30
0
41
1
10
11.2504874243242
20
3.52345533108595
30
0
41
1
10
11.14172726933
20
3.52339467216351
30
0
0
SPLINE
5
120
100
AcDbEntity
8
SK1
62
256
6
ByLayer
370
18
48
1
60
0
100
AcDbSpline
70
4
71
3
72
8
73
4
40
0
40
0
40
0
40
0
40
1
40
1
40
1
40
1
41
1
10
-35.5
20
-0.0241550784810158
30
0
41
1
10
-35.6671072586489
20
-0.0624203947293154
30
0
41
1
10
-35.8338565504682
20
-0.100762389305714
30
0
41
1
10
-36
20
-0.139234158402644
30
0
0
SPLINE
5
121
100
AcDbEntity
8
SK1
62
256
6
ByLayer
370
18
48
1
60
0
100
AcDbSpline
70
4
71
3
72
10
73
6
40
0
40
0
40
0
40
0
40
0.27539680515616
40
0.27539680515616
40
1
40
1
40
1
40
1
41
1
10
-35.45349520812
20
-0.0017494298000997
30
0
41
1
10
-35.4574789809671
20
-0.0048033940077801
30
0
41
1
10
-35.4615764416279
20
-0.0075894800475851
30
0
41
1
10
-35.476826532951
20
-0.0167798550917837
30
0
41
1
10
-35.4882298632593
20
-0.0214598753624387
30
0
41
1
10
-35.5
20
-0.0241550784811295
30
0
0
SPLINE
5
122
100
AcDbEntity
8
SK1
62
256
6
ByLayer
370
18
48
1
60
0
100
AcDbSpline
70
4
71
3
72
8
73
4
40
0
40
0
40
0
40
0
40
1
40
1
40
1
40
1
41
1
10
-35.5
20
0.0241550784810158
30
0
41
1
10
-35.6671072586489
20
0.0624203947293154
30
0
41
1
10
-35.8338565504682
20
0.100762389305714
30
0
41
1
10
-36
20
0.139234158402615
30
0
0
SPLINE
5
123
100
AcDbEntity
8
SK1
62
256
6
ByLayer
370
18
48
1
60
0
100
AcDbSpline
70
4
71
3
72
22
73
18
40
0
40
0
40
0
40
0
40
0.0624999999999994
40
0.0624999999999994
40
0.124999999999999
40
0.124999999999999
40
0.187499999999998
40
0.187499999999998
40
0.249999999999998
40
0.249999999999998
40
0.374999999999998
40
0.374999999999998
40
0.499999999999998
40
0.499999999999998
40
0.749999999999999
40
0.749999999999999
40
1
40
1
40
1
40
1
41
1
10
-35.4
20
-0.100957288085539
30
0
41
1
10
-35.4
20
-0.0967111222476831
30
0
41
1
10
-35.4002593711603
20
-0.0924759808509918
30
0
41
1
10
-35.4012586213713
20
-0.084026127146501
30
0
41
1
10
-35.4019982904561
20
-0.0798437135082679
30
0
41
1
10
-35.4038577960222
20
-0.0717521536327581
30
0
41
1
10
-35.4049815019166
20
-0.0678103582689005
30
0
41
1
10
-35.4075716365044
20
-0.060110417261825
30
0
41
1
10
-35.4090489365252
20
-0.056330593146356
30
0
41
1
10
-35.4138573413159
20
-0.0454573012130766
30
0
41
1
10
-35.4175572189291
20
-0.0387929855965865
30
0
41
1
10
-35.4257321189722
20
-0.0263765771701685
30
0
41
1
10
-35.4302443207472
20
-0.020600495080231
30
0
41
1
10
-35.4443843974886
20
-0.0049641841124526
30
0
41
1
10
-35.4547260031623
20
0.0034611048541251
30
0
41
1
10
-35.476826532951
20
0.0167798550917837
30
0
41
1
10
-35.4882298632593
20
0.0214598753624387
30
0
41
1
10
-35.5
20
0.0241550784811295
30
0
0
SPLINE
5
124
100
AcDbEntity
8
SK1
62
256
6
ByLayer
370
18
48
1
60
0
100
AcDbSpline
70
4
71
3
72
20
73
16
40
0
40
0
40
0
40
0
40
0.250000000000003
40
0.250000000000003
40
0.375000000000002
40
0.375000000000002
40
0.500000000000002
40
0.500000000000002
40
0.625000000000001
40
0.625000000000001
40
0.750000000000001
40
0.750000000000001
40
0.875
40
0.875
40
1
40
1
40
1
40
1
41
1
10
-35.5
20
-1.43812601185363
30
0
41
1
10
-35.4882267853228
20
-1.44082191977841
30
0
41
1
10
-35.4768284287078
20
-1.44157349193407
30
0
41
1
10
-35.460270322179
20
-1.4397959388169
30
0
41
1
10
-35.4548935789762
20
-1.43870710449718
30
0
41
1
10
-35.4446281317026
20
-1.43554216952131
30
0
41
1
10
-35.4397086144297
20
-1.43346450153317
30
0
41
1
10
-35.4303421404714
20
-1.42819781450379
30
0
41
1
10
-35.4258783488616
20
-1.42499882723615
30
0
41
1
10
-35.4176059338444
20
-1.41725446808255
30
0
41
1
10
-35.4138878532275
20
-1.41280157641137
30
0
41
1
10
-35.4074805084037
20
-1.40245807384602
30
0
41
1
10
-35.4047944770761
20
-1.39652118147359
30
0
41
1
10
-35.4010706922354
20
-1.38339731732938
30
0
41
1
10
-35.4
20
-1.37601706233497
30
0
41
1
10
-35.4
20
-1.36826756637544
30
0
0
SPLINE
5
125
100
AcDbEntity
8
SK1
62
256
6
ByLayer
370
18
48
1
60
0
100
AcDbSpline
70
4
71
3
72
8
73
4
40
0
40
0
40
0
40
0
40
1
40
1
40
1
40
1
41
1
10
-36
20
-1.32304693193188
30
0
41
1
10
-35.8338578604967
20
-1.36151839768181
30
0
41
1
10
-35.6671083682166
20
-1.39986044152911
30
0
41
1
10
-35.5
20
-1.43812601185351
30
0
0
SPLINE
5
126
100
AcDbEntity
8
1
62
256
6
ByLayer
370
18
48
1
60
0
100
AcDbSpline
70
4
71
3
72
17
73
13
40
0
40
0
40
0
40
0
40
0.140555640420612
40
0.255299261131839
40
0.344352080229435
40
0.419692316792437
40
0.489284219839667
40
0.554036720379366
40
0.634319620760622
40
0.738536942578802
40
0.866683018934651
40
1
40
1
40
1
40
1
41
1
10
34.2572840271086
20
-0.075259282951265
30
0
41
1
10
33.9732036308234
20
0.0033142245012527
30
0
41
1
10
33.4583212134917
20
0.150073610526618
30
0
41
1
10
32.7664512778279
20
0.358036433813737
30
0
41
1
10
32.2075207622959
20
0.532864663643323
30
0
41
1
10
31.7403046393832
20
0.68358563269544
30
0
41
1
10
31.3225901325242
20
0.82192320336884
30
0
41
1
10
30.8959920036184
20
0.966581179252927
30
0
41
1
10
30.4017789367851
20
1.13835865097974
30
0
41
1
10
29.7838481881794
20
1.35982789335583
30
0
41
1
10
29.0639356647507
20
1.62724216255131
30
0
41
1
10
28.5518502006917
20
1.82579532510209
30
0
41
1
10
28.2914022316842
20
1.92889414853076
30
0
0
SPLINE
5
127
100
AcDbEntity
8
1
62
256
6
ByLayer
370
18
48
1
60
0
100
AcDbSpline
70
4
71
3
72
14
73
10
40
0
40
0
40
0
40
0
40
0.0716141463918644
40
0.119929349221147
40
0.176156679867059
40
0.305526412720227
40
0.488916793690346
40
0.726301402017404
40
1
40
1
40
1
40
1
41
1
10
53.9791628124153
20
0.528025960231986
30
0
41
1
10
53.882062883718
20
0.558711782254136
30
0
41
1
10
53.7196180023061
20
0.610543074367882
30
0
41
1
10
53.4814100904822
20
0.687807096166665
30
0
41
1
10
53.1655919174777
20
0.791541913912369
30
0
41
1
10
52.6685008559139
20
0.958531237035857
30
0
41
1
10
51.9302066475497
20
1.21579100498801
30
0
41
1
10
51.0030092195419
20
1.55415294887359
30
0
41
1
10
50.3253939603966
20
1.81550087042873
30
0
41
1
10
49.9638296562429
20
1.95898231345606
30
0
0
SPLINE
5
128
100
AcDbEntity
8
1
62
256
6
ByLayer
370
18
48
1
60
0
100
AcDbSpline
70
4
71
2
72
6
73
3
40
0
40
0
40
0
40
1
40
1
40
1
41
1
10
13.7285055356118
20
-0.408803647847122
30
0
41
1
10
13.2572880505707
20
-0.289191255164013
30
0
41
1
10
12.7868106329822
20
-0.162108180527383
30
0
0
SPLINE
5
129
100
AcDbEntity
8
1
62
256
6
ByLayer
370
18
48
1
60
0
100
AcDbSpline
70
4
71
3
72
27
73
23
40
0
40
0
40
0
40
0
40
0.068700968837049
40
0.122943614731723
40
0.165512076085042
40
0.198298343848767
40
0.231525791546222
40
0.270537904630395
40
0.308139997528058
40
0.353109484364505
40
0.401177951349106
40
0.461999140532081
40
0.532196309767473
40
0.590509181070145
40
0.638574893454587
40
0.703375644666312
40
0.76209822646133
40
0.816827384548223
40
0.861562231009386
40
0.909777236825914
40
0.964393519878849
40
1
40
1
40
1
40
1
41
1
10
33.0462954803569
20
-3.35978261050027
30
0
41
1
10
33.2898551875043
20
-3.35952203302159
30
0
41
1
10
33.7256431507982
20
-3.35932924661034
30
0
41
1
10
34.31662250593
20
-3.36060142702957
30
0
41
1
10
34.7729945857538
20
-3.36078421208543
30
0
41
1
10
35.1609389321077
20
-3.36077833390615
30
0
41
1
10
35.5343791901573
20
-3.36135023831307
30
0
41
1
10
35.9258654031164
20
-3.36169056104515
30
0
41
1
10
36.359039395764
20
-3.36170781869592
30
0
41
1
10
36.8233295339405
20
-3.36133900114711
30
0
41
1
10
37.3710612580401
20
-3.36239150202971
30
0
41
1
10
38.009334695048
20
-3.36155381329871
30
0
41
1
10
38.6829682066523
20
-3.36326280450194
30
0
41
1
10
39.3118528595407
20
-3.36334683937892
30
0
41
1
10
39.9217233015383
20
-3.36275709257043
30
0
41
1
10
40.5330031996345
20
-3.36524367179914
30
0
41
1
10
41.1680374022054
20
-3.36350004089303
30
0
41
1
10
41.7315709200205
20
-3.36445688642308
30
0
41
1
10
42.2575836299072
20
-3.36443443848617
30
0
41
1
10
42.775657775706
20
-3.36237496972271
30
0
41
1
10
43.2654437589332
20
-3.36083295409671
30
0
41
1
10
43.5862402256484
20
-3.36207100066216
30
0
41
1
10
43.7131235775931
20
-3.3627903100948
30
0
0
SPLINE
5
12A
100
AcDbEntity
8
1
62
256
6
ByLayer
370
18
48
1
60
0
100
AcDbSpline
70
4
71
3
72
27
73
23
40
0
40
0
40
0
40
0
40
0.0105832542670966
40
0.0552990812744367
40
0.100752366498823
40
0.149721328185025
40
0.208495413283758
40
0.305716785545438
40
0.385698597408404
40
0.451535787227917
40
0.515248157905599
40
0.57175525596518
40
0.621460697639713
40
0.670214363669711
40
0.735959133906711
40
0.796606525892758
40
0.825683543644298
40
0.854322744366551
40
0.884746593147101
40
0.92130022715246
40
0.973908153494876
40
1
40
1
40
1
40
1
41
1
10
21.6811093385473
20
3.35371051648516
30
0
41
1
10
21.6515279950763
20
3.35363781851117
30
0
41
1
10
21.4968594988073
20
3.35329742797947
30
0
41
1
10
21.2128963651478
20
3.35304314457701
30
0
41
1
10
20.8219030504896
20
3.35356543286326
30
0
41
1
10
20.3910608498204
20
3.35419202633821
30
0
41
1
10
19.8147756589576
20
3.35145561014247
30
0
41
1
10
19.1512350748967
20
3.35334723446113
30
0
41
1
10
18.4678344584436
20
3.35116311197166
30
0
41
1
10
17.8786768633391
20
3.35119286313133
30
0
41
1
10
17.3555177947437
20
3.35179406689684
30
0
41
1
10
16.8777153098481
20
3.3500959091626
30
0
41
1
10
16.4419709277868
20
3.35008924652615
30
0
41
1
10
15.9802437372059
20
3.35043439818051
30
0
41
1
10
15.4877888346248
20
3.3494592393246
30
0
41
1
10
15.050546193741
20
3.34905784924516
30
0
41
1
10
14.7180172874363
20
3.34887896132582
30
0
41
1
10
14.4699396373954
20
3.34869687147952
30
0
41
1
10
14.2021697153862
20
3.34846098037931
30
0
41
1
10
13.8673133008322
20
3.34784171199979
30
0
41
1
10
13.5428452715315
20
3.34769646931071
30
0
41
1
10
13.3215261859555
20
3.34758582929896
30
0
41
1
10
13.2481662638323
20
3.34754713196921
30
0
0
SPLINE
5
12B
100
AcDbEntity
8
1
62
256
6
ByLayer
370
18
48
1
60
0
100
AcDbSpline
70
4
71
3
72
24
73
20
40
0
40
0
40
0
40
0
40
0.0707232337934446
40
0.137956805930763
40
0.204031825175108
40
0.264632574469683
40
0.314533057476688
40
0.360002592335787
40
0.421249569865385
40
0.486191391646233
40
0.538945794156638
40
0.592366375569816
40
0.670948547942461
40
0.745328377294751
40
0.815149952026194
40
0.88703234075133
40
0.926965622474111
40
0.963199558074661
40
1
40
1
40
1
40
1
41
1
10
11.2927293663108
20
-3.34609467768001
30
0
41
1
10
11.5267416309798
20
-3.34437004738675
30
0
41
1
10
11.9889724842873
20
-3.34211151504618
30
0
41
1
10
12.700922088535
20
-3.33525912731508
30
0
41
1
10
13.3706810410397
20
-3.34430483560263
30
0
41
1
10
13.9691055835792
20
-3.34825819461363
30
0
41
1
10
14.5103626788143
20
-3.34882065207265
30
0
41
1
10
15.0546903877203
20
-3.34896201601333
30
0
41
1
10
15.651071651063
20
-3.35001626953829
30
0
41
1
10
16.2728400678817
20
-3.35027456854868
30
0
41
1
10
16.867395900644
20
-3.34996724356716
30
0
41
1
10
17.5093418283477
20
-3.35222894026458
30
0
41
1
10
18.2263996055414
20
-3.35034289946637
30
0
41
1
10
19.0005051190246
20
-3.35346366575084
30
0
41
1
10
19.7512270543959
20
-3.35132387696638
30
0
41
1
10
20.382510973557
20
-3.35439792018596
30
0
41
1
10
20.8965541508437
20
-3.35340490683666
30
0
41
1
10
21.2892929315515
20
-3.3528687395621
30
0
41
1
10
21.5420467603003
20
-3.35338482800054
30
0
41
1
10
21.6692343066999
20
-3.35380284169696
30
0
0
SPLINE
5
12C
100
AcDbEntity
8
1
62
256
6
ByLayer
370
18
48
1
60
0
100
AcDbSpline
70
4
71
3
72
26
73
22
40
0
40
0
40
0
40
0
40
0.030261221732603
40
0.0942724252360793
40
0.149258484051513
40
0.200625892140361
40
0.248885490899156
40
0.296887527458853
40
0.352851317808672
40
0.416929204063811
40
0.470304433867652
40
0.515777761255478
40
0.573684509364913
40
0.661167150695319
40
0.736588053467961
40
0.795827711906221
40
0.85251728303515
40
0.918805500903787
40
0.959859977246354
40
0.994917659431141
40
1
40
1
40
1
40
1
41
1
10
43.7185939146199
20
3.36273933378581
30
0
41
1
10
43.6308654218769
20
3.36229827429287
30
0
41
1
10
43.3578663618817
20
3.36127571747096
30
0
41
1
10
42.9223823917985
20
3.3612224810239
30
0
41
1
10
42.437501225215
20
3.36401548964613
30
0
41
1
10
41.9890779036094
20
3.36462918845189
30
0
41
1
10
41.559772664293
20
3.36397222562667
30
0
41
1
10
41.1170462602977
20
3.36380731296998
30
0
41
1
10
40.6283266680164
20
3.36483153251209
30
0
41
1
10
40.1239696086351
20
3.36384996917573
30
0
41
1
10
39.6501319409996
20
3.36279694832277
30
0
41
1
10
39.1942185211421
20
3.36347844576989
30
0
41
1
10
38.6393474359914
20
3.36309378719926
30
0
41
1
10
37.9979901012406
20
3.36158431981465
30
0
41
1
10
37.3515847319388
20
3.36237300336342
30
0
41
1
10
36.7956450732706
20
3.36132017829544
30
0
41
1
10
36.2667891737934
20
3.36177515468299
30
0
41
1
10
35.7895750509234
20
3.36164838061256
30
0
41
1
10
35.3753192860632
20
3.36109935144645
30
0
41
1
10
35.139758150634
20
3.36080518884128
30
0
41
1
10
35.022977711149
20
3.36077519776399
30
0
41
1
10
35.0081888112243
20
3.36077279835018
30
0
0
LINE
5
82
100
AcDbEntity
8
4
62
256
6
ByLayer
370
18
48
0.05
60
0
100
AcDbLine
10
0
20
0
30
0
11
55
21
0
31
0
39
0
210
0
220
0
230
1
0
LINE
5
84
100
AcDbEntity
8
81
62
256
6
ByLayer
370
18
48
1
60
0
100
AcDbLine
10
55
20
0
30
0
11
58
21
0
31
0
39
0
210
0
220
0
230
1
0
LINE
5
85
100
AcDbEntity
8
80
62
256
6
ByLayer
370
18
48
1
60
0
100
AcDbLine
10
0
20
0
30
0
11
-3
21
0
31
0
39
0
210
0
220
0
230
1
0
LINE
5
86
100
AcDbEntity
8
SK4
62
256
6
ByLayer
370
18
48
0.05
60
0
100
AcDbLine
10
-39
20
0
30
0
11
58
21
0
31
0
39
0
210
0
220
0
230
1
0
LINE
5
88
100
AcDbEntity
8
1
62
256
6
ByLayer
370
13
48
1
60
0
100
AcDbLine
10
54.950495
20
0.042736
30
0
11
54.06282
21
1.022575
31
0
39
0
210
0
220
0
230
1
0
LINE
5
89
100
AcDbEntity
8
1
62
256
6
ByLayer
370
18
48
1
60
0
100
AcDbLine
10
19.5
20
0.767867
30
0
11
19.5
21
0.618383
31
0
39
0
210
0
220
0
230
1
0
LINE
5
8A
100
AcDbEntity
8
1
62
256
6
ByLayer
370
13
48
1
60
0
100
AcDbLine
10
1.145961
20
3.517148
30
0
11
1.145961
21
-3.517148
31
0
39
0
210
0
220
0
230
1
0
LINE
5
8B
100
AcDbEntity
8
1
62
256
6
ByLayer
370
13
48
1
60
0
100
AcDbLine
10
0.576244
20
3.755016
30
0
11
0.576244
21
-3.755016
31
0
39
0
210
0
220
0
230
1
0
LINE
5
8C
100
AcDbEntity
8
1
62
256
6
ByLayer
370
18
48
1
60
0
100
AcDbLine
10
0
20
4
30
0
11
0
21
-4
31
0
39
0
210
0
220
0
230
1
0
LINE
5
8D
100
AcDbEntity
8
1
62
256
6
ByLayer
370
13
48
1
60
0
100
AcDbLine
10
0.569217
20
3.762131
30
0
11
0.569217
21
-3.762131
31
0
39
0
210
0
220
0
230
1
0
LINE
5
8E
100
AcDbEntity
8
SK1
62
256
6
ByLayer
370
18
48
1
60
0
100
AcDbLine
10
-36
20
-0.139234
30
0
11
-36
21
-1.323047
31
0
39
0
210
0
220
0
230
1
0
LINE
5
90
100
AcDbEntity
8
SK1
62
256
6
ByLayer
370
13
48
1
60
0
100
AcDbLine
10
-35.5
20
-1.438126
30
0
11
-35.5
21
-0.024155
31
0
39
0
210
0
220
0
230
1
0
LINE
5
91
100
AcDbEntity
8
SK1
62
256
6
ByLayer
370
18
48
1
60
0
100
AcDbLine
10
-36
20
2.76
30
0
11
-36
21
0.139234
31
0
39
0
210
0
220
0
230
1
0
LINE
5
92
100
AcDbEntity
8
SK1
62
256
6
ByLayer
370
18
48
1
60
0
100
AcDbLine
10
-35.4
20
-1.368268
30
0
11
-35.4
21
-0.100957
31
0
39
0
210
0
220
0
230
1
0
LINE
5
93
100
AcDbEntity
8
SK1
62
256
6
ByLayer
370
18
48
1
60
0
100
AcDbLine
10
-36
20
-2.76
30
0
11
-36
21
-1.323047
31
0
39
0
210
0
220
0
230
1
0
LINE
5
94
100
AcDbEntity
8
SK1
62
256
6
ByLayer
370
18
48
1
60
0
100
AcDbLine
10
-34.76
20
-4
30
0
11
-34.76
21
4
31
0
39
0
210
0
220
0
230
1
0
LINE
5
95
100
AcDbEntity
8
SK1
62
256
6
ByLayer
370
18
48
1
60
0
100
AcDbLine
10
0
20
4
30
0
11
0
21
-4
31
0
39
0
210
0
220
0
230
1
0
LINE
5
96
100
AcDbEntity
8
1
62
256
6
ByLayer
370
18
48
1
60
0
100
AcDbLine
10
1.145961
20
-3.517148
30
0
11
3.332767
21
-3.518514
31
0
39
0
210
0
220
0
230
1
0
LINE
5
97
100
AcDbEntity
8
1
62
256
6
ByLayer
370
18
48
1
60
0
100
AcDbLine
10
9.848456
20
-3.522587
30
0
11
11.141151
21
-3.523395
31
0
39
0
210
0
220
0
230
1
0
LINE
5
98
100
AcDbEntity
8
1
62
256
6
ByLayer
370
18
48
1
60
0
100
AcDbLine
10
31.902958
20
-3.536371
30
0
11
32.891172
21
-3.536988
31
0
39
0
210
0
220
0
230
1
0
LINE
5
99
100
AcDbEntity
8
1
62
256
6
ByLayer
370
18
48
1
60
0
100
AcDbLine
10
32.891172
20
3.536988
30
0
11
31.902958
21
3.536371
31
0
39
0
210
0
220
0
230
1
0
LINE
5
9A
100
AcDbEntity
8
1
62
256
6
ByLayer
370
18
48
1
60
0
100
AcDbLine
10
11.141151
20
3.523395
30
0
11
9.848456
21
3.522587
31
0
39
0
210
0
220
0
230
1
0
LINE
5
9B
100
AcDbEntity
8
1
62
256
6
ByLayer
370
18
48
1
60
0
100
AcDbLine
10
3.332767
20
3.518514
30
0
11
1.145961
21
3.517148
31
0
39
0
210
0
220
0
230
1
0
LINE
5
9C
100
AcDbEntity
8
1
62
256
6
ByLayer
370
18
48
1
60
0
100
AcDbLine
10
0.576244
20
3.755016
30
0
11
0.569217
21
3.762131
31
0
39
0
210
0
220
0
230
1
0
LINE
5
9D
100
AcDbEntity
8
1
62
256
6
ByLayer
370
18
48
1
60
0
100
AcDbLine
10
0.569217
20
-3.762131
30
0
11
0.576244
21
-3.755016
31
0
39
0
210
0
220
0
230
1
0
LINE
5
9E
100
AcDbEntity
8
SK1
62
256
6
ByLayer
370
18
48
1
60
0
100
AcDbLine
10
-36
20
-2.76
30
0
11
-34.76
21
-4
31
0
39
0
210
0
220
0
230
1
0
LINE
5
9F
100
AcDbEntity
8
SK1
62
256
6
ByLayer
370
18
48
1
60
0
100
AcDbLine
10
-34.76
20
4
30
0
11
-36
21
2.76
31
0
39
0
210
0
220
0
230
1
0
LINE
5
A0
100
AcDbEntity
8
SK1
62
256
6
ByLayer
370
18
48
1
60
0
100
AcDbLine
10
-34.76
20
-4
30
0
11
0
21
-4
31
0
39
0
210
0
220
0
230
1
0
LINE
5
A1
100
AcDbEntity
8
SK1
62
256
6
ByLayer
370
18
48
1
60
0
100
AcDbLine
10
0
20
4
30
0
11
-34.76
21
4
31
0
39
0
210
0
220
0
230
1
0
LINE
5
A2
100
AcDbEntity
8
2
62
256
6
ByLayer
370
13
48
1
60
0
100
AcDbLine
10
68.75
20
-3.55
30
0
11
68.75
21
19.024065
31
0
39
0
210
0
220
0
230
1
0
LINE
5
A4
100
AcDbEntity
8
2
62
256
6
ByLayer
370
13
48
1
60
0
100
AcDbLine
10
56.5875
20
3.55
30
0
11
70.75
21
3.55
31
0
39
0
210
0
220
0
230
1
0
LINE
5
A5
100
AcDbEntity
8
2
62
256
6
ByLayer
370
13
48
1
60
0
100
AcDbLine
10
56.5875
20
-3.55
30
0
11
70.75
21
-3.55
31
0
39
0
210
0
220
0
230
1
0
LINE
5
A6
100
AcDbEntity
8
1
62
256
6
ByLayer
370
18
48
1
60
1
100
AcDbLine
10
68.75
20
3.55
30
0
11
69.210784
21
0.050002
31
0
39
0
210
0
220
0
230
1
0
LINE
5
A7
100
AcDbEntity
8
1
62
256
6
ByLayer
370
18
48
1
60
1
100
AcDbLine
10
69.210784
20
0.050002
30
0
11
68.289216
21
0.049998
31
0
39
0
210
0
220
0
230
1
0
LINE
5
A8
100
AcDbEntity
8
1
62
256
6
ByLayer
370
18
48
1
60
1
100
AcDbLine
10
68.289216
20
0.049998
30
0
11
68.75
21
3.55
31
0
39
0
210
0
220
0
230
1
0
LINE
5
A9
100
AcDbEntity
8
1
62
256
6
ByLayer
370
18
48
1
60
1
100
AcDbLine
10
68.75
20
-3.55
30
0
11
68.289216
21
-0.050002
31
0
39
0
210
0
220
0
230
1
0
LINE
5
AA
100
AcDbEntity
8
1
62
256
6
ByLayer
370
18
48
1
60
1
100
AcDbLine
10
68.289216
20
-0.050002
30
0
11
69.210784
21
-0.049998
31
0
39
0
210
0
220
0
230
1
0
LINE
5
AB
100
AcDbEntity
8
1
62
256
6
ByLayer
370
18
48
1
60
1
100
AcDbLine
10
69.210784
20
-0.049998
30
0
11
68.75
21
-3.55
31
0
39
0
210
0
220
0
230
1
0
LINE
5
AC
100
AcDbEntity
8
SK2
62
256
6
ByLayer
370
13
48
1
60
0
100
AcDbLine
10
-44.25
20
-4
30
0
11
-44.25
21
20.315466
31
0
39
0
210
0
220
0
230
1
0
LINE
5
AE
100
AcDbEntity
8
SK2
62
256
6
ByLayer
370
13
48
1
60
0
100
AcDbLine
10
-37.5875
20
4
30
0
11
-46.25
21
4
31
0
39
0
210
0
220
0
230
1
0
LINE
5
AF
100
AcDbEntity
8
SK2
62
256
6
ByLayer
370
13
48
1
60
0
100
AcDbLine
10
-37.5875
20
-4
30
0
11
-46.25
21
-4
31
0
39
0
210
0
220
0
230
1
0
LINE
5
B0
100
AcDbEntity
8
1
62
256
6
ByLayer
370
18
48
1
60
1
100
AcDbLine
10
-44.25
20
4
30
0
11
-43.789216
21
0.500002
31
0
39
0
210
0
220
0
230
1
0
LINE
5
B1
100
AcDbEntity
8
1
62
256
6
ByLayer
370
18
48
1
60
1
100
AcDbLine
10
-43.789216
20
0.500002
30
0
11
-44.710784
21
0.499998
31
0
39
0
210
0
220
0
230
1
0
LINE
5
B2
100
AcDbEntity
8
1
62
256
6
ByLayer
370
18
48
1
60
1
100
AcDbLine
10
-44.710784
20
0.499998
30
0
11
-44.25
21
4
31
0
39
0
210
0
220
0
230
1
0
LINE
5
B3
100
AcDbEntity
8
1
62
256
6
ByLayer
370
18
48
1
60
1
100
AcDbLine
10
-44.25
20
-4
30
0
11
-44.710784
21
-0.500002
31
0
39
0
210
0
220
0
230
1
0
LINE
5
B4
100
AcDbEntity
8
1
62
256
6
ByLayer
370
18
48
1
60
1
100
AcDbLine
10
-44.710784
20
-0.500002
30
0
11
-43.789216
21
-0.499998
31
0
39
0
210
0
220
0
230
1
0
LINE
5
B5
100
AcDbEntity
8
1
62
256
6
ByLayer
370
18
48
1
60
1
100
AcDbLine
10
-43.789216
20
-0.499998
30
0
11
-44.25
21
-4
31
0
39
0
210
0
220
0
230
1
0
LINE
5
B6
100
AcDbEntity
8
SK2
62
256
6
ByLayer
370
13
48
1
60
0
100
AcDbLine
10
55.542922
20
1.491775
30
0
11
66.426868
21
31.397353
31
0
39
0
210
0
220
0
230
1
0
LINE
5
B7
100
AcDbEntity
8
SK2
62
256
6
ByLayer
370
13
48
1
60
0
100
AcDbLine
10
55.542922
20
-1.491775
30
0
11
66.426868
21
-31.397353
31
0
39
0
210
0
220
0
230
1
0
LINE
5
B8
100
AcDbEntity
8
1
62
256
6
ByLayer
370
18
48
1
60
1
100
AcDbLine
10
65.742872
20
29.517952
30
0
11
69.166818
21
28.65836
31
0
39
0
210
0
220
0
230
1
0
LINE
5
B9
100
AcDbEntity
8
1
62
256
6
ByLayer
370
18
48
1
60
1
100
AcDbLine
10
69.166818
20
28.65836
30
0
11
68.827674
21
27.801466
31
0
39
0
210
0
220
0
230
1
0
LINE
5
BA
100
AcDbEntity
8
1
62
256
6
ByLayer
370
18
48
1
60
1
100
AcDbLine
10
68.827674
20
27.801466
30
0
11
65.742872
21
29.517952
31
0
39
0
210
0
220
0
230
1
0
LINE
5
BB
100
AcDbEntity
8
1
62
256
6
ByLayer
370
18
48
1
60
1
100
AcDbLine
10
65.742872
20
-29.517952
30
0
11
68.827671
21
-27.801467
31
0
39
0
210
0
220
0
230
1
0
LINE
5
BC
100
AcDbEntity
8
1
62
256
6
ByLayer
370
18
48
1
60
1
100
AcDbLine
10
68.827671
20
-27.801467
30
0
11
69.166821
21
-28.658359
31
0
39
0
210
0
220
0
230
1
0
LINE
5
BD
100
AcDbEntity
8
1
62
256
6
ByLayer
370
18
48
1
60
1
100
AcDbLine
10
69.166821
20
-28.658359
30
0
11
65.742872
21
-29.517952
31
0
39
0
210
0
220
0
230
1
0
LINE
5
12D
100
AcDbEntity
8
1
62
256
6
ByLayer
370
13
48
0.05
60
0
100
AcDbLine
10
-42.5
20
0
30
0
11
60.248531
21
0
31
0
39
0
210
0
220
0
230
1
0
LINE
5
132
100
AcDbEntity
8
1
62
256
6
ByLayer
370
18
48
1
60
1
100
AcDbLine
10
68.75
20
3.55
30
0
11
69.210784
21
0.050002
31
0
39
0
210
0
220
0
230
1
0
LINE
5
133
100
AcDbEntity
8
1
62
256
6
ByLayer
370
18
48
1
60
1
100
AcDbLine
10
69.210784
20
0.050002
30
0
11
68.289216
21
0.049998
31
0
39
0
210
0
220
0
230
1
0
LINE
5
134
100
AcDbEntity
8
1
62
256
6
ByLayer
370
18
48
1
60
1
100
AcDbLine
10
68.289216
20
0.049998
30
0
11
68.75
21
3.55
31
0
39
0
210
0
220
0
230
1
0
LINE
5
136
100
AcDbEntity
8
1
62
256
6
ByLayer
370
18
48
1
60
1
100
AcDbLine
10
68.75
20
-3.55
30
0
11
68.289216
21
-0.050002
31
0
39
0
210
0
220
0
230
1
0
LINE
5
137
100
AcDbEntity
8
1
62
256
6
ByLayer
370
18
48
1
60
1
100
AcDbLine
10
68.289216
20
-0.050002
30
0
11
69.210784
21
-0.049998
31
0
39
0
210
0
220
0
230
1
0
LINE
5
138
100
AcDbEntity
8
1
62
256
6
ByLayer
370
18
48
1
60
1
100
AcDbLine
10
69.210784
20
-0.049998
30
0
11
68.75
21
-3.55
31
0
39
0
210
0
220
0
230
1
0
LINE
5
13C
100
AcDbEntity
8
1
62
256
6
ByLayer
370
18
48
1
60
1
100
AcDbLine
10
-44.25
20
4
30
0
11
-43.789216
21
0.500002
31
0
39
0
210
0
220
0
230
1
0
LINE
5
13D
100
AcDbEntity
8
1
62
256
6
ByLayer
370
18
48
1
60
1
100
AcDbLine
10
-43.789216
20
0.500002
30
0
11
-44.710784
21
0.499998
31
0
39
0
210
0
220
0
230
1
0
LINE
5
13E
100
AcDbEntity
8
1
62
256
6
ByLayer
370
18
48
1
60
1
100
AcDbLine
10
-44.710784
20
0.499998
30
0
11
-44.25
21
4
31
0
39
0
210
0
220
0
230
1
0
LINE
5
140
100
AcDbEntity
8
1
62
256
6
ByLayer
370
18
48
1
60
1
100
AcDbLine
10
-44.25
20
-4
30
0
11
-44.710784
21
-0.500002
31
0
39
0
210
0
220
0
230
1
0
LINE
5
141
100
AcDbEntity
8
1
62
256
6
ByLayer
370
18
48
1
60
1
100
AcDbLine
10
-44.710784
20
-0.500002
30
0
11
-43.789216
21
-0.499998
31
0
39
0
210
0
220
0
230
1
0
LINE
5
142
100
AcDbEntity
8
1
62
256
6
ByLayer
370
18
48
1
60
1
100
AcDbLine
10
-43.789216
20
-0.499998
30
0
11
-44.25
21
-4
31
0
39
0
210
0
220
0
230
1
0
LINE
5
145
100
AcDbEntity
8
1
62
256
6
ByLayer
370
18
48
1
60
1
100
AcDbLine
10
65.742872
20
29.517952
30
0
11
69.166818
21
28.65836
31
0
39
0
210
0
220
0
230
1
0
LINE
5
146
100
AcDbEntity
8
1
62
256
6
ByLayer
370
18
48
1
60
1
100
AcDbLine
10
69.166818
20
28.65836
30
0
11
68.827674
21
27.801466
31
0
39
0
210
0
220
0
230
1
0
LINE
5
147
100
AcDbEntity
8
1
62
256
6
ByLayer
370
18
48
1
60
1
100
AcDbLine
10
68.827674
20
27.801466
30
0
11
65.742872
21
29.517952
31
0
39
0
210
0
220
0
230
1
0
LINE
5
149
100
AcDbEntity
8
1
62
256
6
ByLayer
370
18
48
1
60
1
100
AcDbLine
10
65.742872
20
-29.517952
30
0
11
68.827671
21
-27.801467
31
0
39
0
210
0
220
0
230
1
0
LINE
5
14A
100
AcDbEntity
8
1
62
256
6
ByLayer
370
18
48
1
60
1
100
AcDbLine
10
68.827671
20
-27.801467
30
0
11
69.166821
21
-28.658359
31
0
39
0
210
0
220
0
230
1
0
LINE
5
14B
100
AcDbEntity
8
1
62
256
6
ByLayer
370
18
48
1
60
1
100
AcDbLine
10
69.166821
20
-28.658359
30
0
11
65.742872
21
-29.517952
31
0
39
0
210
0
220
0
230
1
0
MTEXT
5
12E
100
AcDbEntity
8
2
62
256
6
ByLayer
370
18
48
1
60
0
100
AcDbMText
10
67.185366
20
7.484844
30
0
210
0
220
0
230
1
1
%%c
40
3.5
41
0
44
1.084337
50
90
71
7
72
5
7
iso_b_vert
0
MTEXT
5
131
100
AcDbEntity
8
2
62
256
6
ByLayer
370
18
48
1
60
0
100
AcDbMText
10
67.185366
20
14.4575
30
0
210
0
220
0
230
1
1
\W0.6883;7.1
40
3.5
41
0
44
1.084337
50
90
71
7
72
5
7
iso_b_vert
0
MTEXT
5
13A
100
AcDbEntity
8
SK2
62
256
6
ByLayer
370
18
48
1
60
0
100
AcDbMText
10
-45.814634
20
11.934844
30
0
210
0
220
0
230
1
1
%%c
40
3.5
41
0
44
1.084337
50
90
71
7
72
5
7
iso_b_vert
0
MTEXT
5
13B
100
AcDbEntity
8
SK2
62
256
6
ByLayer
370
18
48
1
60
0
100
AcDbMText
10
-45.814634
20
18.9075
30
0
210
0
220
0
230
1
1
\W0.5404;8
40
3.5
41
0
44
1.084337
50
90
71
7
72
5
7
iso_b_vert
0
MTEXT
5
144
100
AcDbEntity
8
SK2
62
256
6
ByLayer
370
18
48
1
60
0
100
AcDbMText
10
82.340431
20
-2.467366
30
0
210
0
220
0
230
1
1
\W0.7825;140%%d
40
3.5
41
0
44
1.084337
50
0
71
7
72
5
7
iso_b_vert
0
MTEXT
5
14D
100
AcDbEntity
8
SK6
62
256
6
ByLayer
370
18
48
1
60
0
100
AcDbMText
10
-20.305889
20
-124.030198
30
0
210
0
220
0
230
1
1
\W0.7442;860.1-0710-043A1-MM M2BM
40
3.5
41
0
44
1.084337
50
0
71
7
72
5
7
iso_b_vert
0
HATCH
5
135
100
AcDbEntity
8
2
62
256
6
ByLayer
370
13
48
1
60
0
100
AcDbHatch
10
0
20
0
30
0
210
0
220
0
230
1
2
ANSI31
70
0
71
0
91
1
92
5
93
3
72
1
10
68.75
20
3.55000000000001
11
69.2107837415528
21
0.0500016925531952
72
1
10
69.2107837415528
20
0.0500016925531952
11
68.2892162584472
21
0.0499983074468275
72
1
10
68.2892162584472
20
0.0499983074468275
11
68.75
21
3.55000000000001
97
0
75
0
76
1
52
0
41
0.0062
77
0
78
1
53
45
43
0
44
0
45
-0.0139193969876572
46
0.0139193969876572
79
0
47
0
98
1
10
0
20
0
0
HATCH
5
139
100
AcDbEntity
8
2
62
256
6
ByLayer
370
13
48
1
60
0
100
AcDbHatch
10
0
20
0
30
0
210
0
220
0
230
1
2
ANSI31
70
0
71
0
91
1
92
5
93
3
72
1
10
68.75
20
-3.55000000000001
11
68.2892162584472
21
-0.0500016925531952
72
1
10
68.2892162584472
20
-0.0500016925531952
11
69.2107837415528
21
-0.0499983074468275
72
1
10
69.2107837415528
20
-0.0499983074468275
11
68.75
21
-3.55000000000001
97
0
75
0
76
1
52
0
41
0.0062
77
0
78
1
53
45
43
0
44
0
45
-0.0139193969876572
46
0.0139193969876572
79
0
47
0
98
1
10
0
20
0
0
HATCH
5
13F
100
AcDbEntity
8
SK2
62
256
6
ByLayer
370
13
48
1
60
0
100
AcDbHatch
10
0
20
0
30
0
210
0
220
0
230
1
2
ANSI31
70
0
71
0
91
1
92
5
93
3
72
1
10
-44.25
20
4
11
-43.7892162584472
21
0.500001692553184
72
1
10
-43.7892162584472
20
0.500001692553184
11
-44.7107837415528
21
0.499998307446816
72
1
10
-44.7107837415528
20
0.499998307446816
11
-44.25
21
4
97
0
75
0
76
1
52
0
41
0.0062
77
0
78
1
53
45
43
0
44
0
45
-0.0139193969876572
46
0.0139193969876572
79
0
47
0
98
1
10
0
20
0
0
HATCH
5
143
100
AcDbEntity
8
SK2
62
256
6
ByLayer
370
13
48
1
60
0
100
AcDbHatch
10
0
20
0
30
0
210
0
220
0
230
1
2
ANSI31
70
0
71
0
91
1
92
5
93
3
72
1
10
-44.25
20
-4
11
-44.7107837415528
21
-0.500001692553184
72
1
10
-44.7107837415528
20
-0.500001692553184
11
-43.7892162584472
21
-0.499998307446816
72
1
10
-43.7892162584472
20
-0.499998307446816
11
-44.25
21
-4
97
0
75
0
76
1
52
0
41
0.0062
77
0
78
1
53
45
43
0
44
0
45
-0.0139193969876572
46
0.0139193969876572
79
0
47
0
98
1
10
0
20
0
0
HATCH
5
148
100
AcDbEntity
8
SK2
62
256
6
ByLayer
370
13
48
1
60
0
100
AcDbHatch
10
0
20
0
30
0
210
0
220
0
230
1
2
ANSI31
70
0
71
0
91
1
92
5
93
3
72
1
10
65.7428715255958
20
29.5179519472657
11
69.166818332546
21
28.6583601419388
72
1
10
69.166818332546
20
28.6583601419388
11
68.8276743767458
21
27.8014657475277
72
1
10
68.8276743767458
20
27.8014657475277
11
65.7428715255958
21
29.5179519472657
97
0
75
0
76
1
52
0
41
0.0062
77
0
78
1
53
45
43
0
44
0
45
-0.0139193969876572
46
0.0139193969876572
79
0
47
0
98
1
10
0
20
0
0
HATCH
5
14C
100
AcDbEntity
8
SK2
62
256
6
ByLayer
370
13
48
1
60
0
100
AcDbHatch
10
0
20
0
30
0
210
0
220
0
230
1
2
ANSI31
70
0
71
0
91
1
92
5
93
3
72
1
10
65.7428715255958
20
-29.5179519472657
11
68.8276712292015
21
-27.8014669932846
72
1
10
68.8276712292015
20
-27.8014669932846
11
69.1668214800903
21
-28.6583588961819
72
1
10
69.1668214800903
20
-28.6583588961819
11
65.7428715255958
21
-29.5179519472657
97
0
75
0
76
1
52
0
41
0.0062
77
0
78
1
53
45
43
0
44
0
45
-0.0139193969876572
46
0.0139193969876572
79
0
47
0
98
1
10
0
20
0
0
DIMENSION
5
150
100
AcDbEntity
8
2
62
256
6
ByLayer
370
18
48
1
60
0
100
AcDbDimension
2
_U0
10
55
20
-125.073344
30
0
11
9.5
21
-125.073344
31
0
70
32
71
1
72
1
41
1
210
0
220
0
230
1
3
Standard
100
AcDbAlignedDimension
13
-36
23
-4
33
0
14
55
24
-3.55
34
0
50
0
100
AcDbRotatedDimension
1001
ACAD
1000
DSTYLE
1002
{
1070
   371
1070
    13
1070
   372
1070
    13
1070
     3
1000

1070
   170
1070
     0
1070
   144
1040
1.0
1070
   277
1070
     2
1070
   284
1070
     8
1070
   278
1070
    46
1070
   146
1040
1.0
1070
   345
1005
16
1070
   347
1005
16
1070
   346
1005
16
1070
   344
1005
0
1070
   343
1005
0
1070
   172
1070
     1
1070
    76
1070
     0
1070
    75
1070
     0
1070
   282
1070
     0
1070
   281
1070
     0
1070
    71
1070
     0
1070
    74
1070
     0
1070
   279
1070
     0
1070
   173
1070
     1
1070
   340
1005
12F
1070
   271
1070
     2
1070
   272
1070
     2
1070
    77
1070
     1
1070
    73
1070
     1
1070
   171
1070
     3
1070
   274
1070
     4
1070
   177
1070
     2
1070
   176
1070
     2
1070
   178
1070
     2
1070
    78
1070
     8
1070
    48
1040
-0.1
1070
    41
1040
3.5
1070
   147
1040
1.75
1070
    42
1040
1.5875
1070
    44
1040
2.0
1070
   140
1040
3.5
1002
}
1001
ACAD_DSTYLE_DIM_LINETYPE
1070
   380
1005
16
1001
ACAD_DSTYLE_DIM_EXT1_LINETYPE
1070
   381
1005
16
1001
ACAD_DSTYLE_DIM_EXT2_LINETYPE
1070
   382
1005
16
0
DIMENSION
5
169
100
AcDbEntity
8
SK2
62
256
6
ByLayer
370
18
48
1
60
0
100
AcDbDimension
2
_U1
10
2
20
-105.073344
30
0
11
28.5
21
-105.073344
31
0
70
32
71
1
72
1
41
1
210
0
220
0
230
1
3
Standard
100
AcDbAlignedDimension
13
55
23
-3.55
33
0
14
2
24
-3.55
34
0
50
0
100
AcDbRotatedDimension
1001
ACAD
1000
DSTYLE
1002
{
1070
   371
1070
    13
1070
   372
1070
    13
1070
     3
1000

1070
   170
1070
     0
1070
   144
1040
1.0
1070
   277
1070
     2
1070
   284
1070
     8
1070
   278
1070
    46
1070
   146
1040
1.0
1070
   345
1005
16
1070
   347
1005
16
1070
   346
1005
16
1070
   344
1005
0
1070
   343
1005
0
1070
   172
1070
     1
1070
    76
1070
     0
1070
    75
1070
     0
1070
   282
1070
     0
1070
   281
1070
     0
1070
    71
1070
     0
1070
    74
1070
     0
1070
   279
1070
     0
1070
   173
1070
     1
1070
   340
1005
12F
1070
   271
1070
     2
1070
   272
1070
     2
1070
    77
1070
     1
1070
    73
1070
     1
1070
   171
1070
     3
1070
   274
1070
     4
1070
   177
1070
     2
1070
   176
1070
     2
1070
   178
1070
     2
1070
    78
1070
     8
1070
    48
1040
-0.1
1070
    41
1040
3.5
1070
   147
1040
1.75
1070
    42
1040
1.5875
1070
    44
1040
2.0
1070
   140
1040
3.5
1002
}
1001
ACAD_DSTYLE_DIM_LINETYPE
1070
   380
1005
16
1001
ACAD_DSTYLE_DIM_EXT1_LINETYPE
1070
   381
1005
16
1001
ACAD_DSTYLE_DIM_EXT2_LINETYPE
1070
   382
1005
16
0
DIMENSION
5
181
100
AcDbEntity
8
SK2
62
256
6
ByLayer
370
18
48
1
60
0
100
AcDbDimension
2
_U2
10
12
20
-95.073344
30
0
11
33.5
21
-95.073344
31
0
70
32
71
1
72
1
41
1
210
0
220
0
230
1
3
Standard
100
AcDbAlignedDimension
13
55
23
-3.55
33
0
14
12
24
-3.55
34
0
50
0
100
AcDbRotatedDimension
1001
ACAD
1000
DSTYLE
1002
{
1070
   371
1070
    13
1070
   372
1070
    13
1070
     3
1000

1070
   170
1070
     0
1070
   144
1040
1.0
1070
   277
1070
     2
1070
   284
1070
     8
1070
   278
1070
    46
1070
   146
1040
1.0
1070
   345
1005
16
1070
   347
1005
16
1070
   346
1005
16
1070
   344
1005
0
1070
   343
1005
0
1070
   172
1070
     1
1070
    76
1070
     0
1070
    75
1070
     0
1070
   282
1070
     0
1070
   281
1070
     0
1070
    71
1070
     0
1070
    74
1070
     0
1070
   279
1070
     0
1070
   173
1070
     1
1070
   340
1005
12F
1070
   271
1070
     2
1070
   272
1070
     2
1070
    77
1070
     1
1070
    73
1070
     1
1070
   171
1070
     3
1070
   274
1070
     4
1070
   177
1070
     2
1070
   176
1070
     2
1070
   178
1070
     2
1070
    78
1070
     8
1070
    48
1040
-0.1
1070
    41
1040
3.5
1070
   147
1040
1.75
1070
    42
1040
1.5875
1070
    44
1040
2.0
1070
   140
1040
3.5
1002
}
1001
ACAD_DSTYLE_DIM_LINETYPE
1070
   380
1005
16
1001
ACAD_DSTYLE_DIM_EXT1_LINETYPE
1070
   381
1005
16
1001
ACAD_DSTYLE_DIM_EXT2_LINETYPE
1070
   382
1005
16
0
DIMENSION
5
19B
100
AcDbEntity
8
SK2
62
256
6
ByLayer
370
18
48
1
60
0
100
AcDbDimension
2
_U3
10
0
20
-105.073344
30
0
11
-18
21
-105.073344
31
0
70
32
71
1
72
1
41
1
210
0
220
0
230
1
3
Standard
100
AcDbAlignedDimension
13
-36
23
-4
33
0
14
0
24
-4
34
0
50
0
100
AcDbRotatedDimension
1001
ACAD
1000
DSTYLE
1002
{
1070
   371
1070
    13
1070
   372
1070
    13
1070
     3
1000

1070
   170
1070
     0
1070
   144
1040
1.0
1070
   277
1070
     2
1070
   284
1070
     8
1070
   278
1070
    46
1070
   146
1040
1.0
1070
   345
1005
16
1070
   347
1005
16
1070
   346
1005
16
1070
   344
1005
0
1070
   343
1005
0
1070
   172
1070
     1
1070
    76
1070
     0
1070
    75
1070
     0
1070
   282
1070
     0
1070
   281
1070
     0
1070
    71
1070
     0
1070
    74
1070
     0
1070
   279
1070
     0
1070
   173
1070
     1
1070
   340
1005
12F
1070
   271
1070
     2
1070
   272
1070
     2
1070
    77
1070
     1
1070
    73
1070
     1
1070
   171
1070
     3
1070
   274
1070
     4
1070
   177
1070
     2
1070
   176
1070
     2
1070
   178
1070
     2
1070
    78
1070
     8
1070
    48
1040
-0.1
1070
    41
1040
3.5
1070
   147
1040
1.75
1070
    42
1040
1.5875
1070
    44
1040
2.0
1070
   140
1040
3.5
1002
}
1001
ACAD_DSTYLE_DIM_LINETYPE
1070
   380
1005
16
1001
ACAD_DSTYLE_DIM_EXT1_LINETYPE
1070
   381
1005
16
1001
ACAD_DSTYLE_DIM_EXT2_LINETYPE
1070
   382
1005
16
0
DIMENSION
5
1B3
100
AcDbEntity
8
SK2
62
256
6
ByLayer
370
18
48
1
60
0
100
AcDbDimension
2
_U4
10
55
20
-115.073344
30
0
11
27.5
21
-115.073344
31
0
70
32
71
1
72
1
41
1
210
0
220
0
230
1
3
Standard
100
AcDbAlignedDimension
13
0
23
-4
33
0
14
55
24
-3.55
34
0
50
0
100
AcDbRotatedDimension
1001
ACAD
1000
DSTYLE
1002
{
1070
   371
1070
    13
1070
   372
1070
    13
1070
     3
1000

1070
   170
1070
     0
1070
   144
1040
1.0
1070
   277
1070
     2
1070
   284
1070
     8
1070
   278
1070
    46
1070
   146
1040
1.0
1070
   345
1005
16
1070
   347
1005
16
1070
   346
1005
16
1070
   344
1005
0
1070
   343
1005
0
1070
   172
1070
     1
1070
    76
1070
     0
1070
    75
1070
     0
1070
   282
1070
     0
1070
   281
1070
     0
1070
    71
1070
     0
1070
    74
1070
     0
1070
   279
1070
     0
1070
   173
1070
     1
1070
   340
1005
12F
1070
   271
1070
     2
1070
   272
1070
     2
1070
    77
1070
     1
1070
    73
1070
     1
1070
   171
1070
     3
1070
   274
1070
     4
1070
   177
1070
     2
1070
   176
1070
     2
1070
   178
1070
     2
1070
    78
1070
     8
1070
    48
1040
-0.1
1070
    41
1040
3.5
1070
   147
1040
1.75
1070
    42
1040
1.5875
1070
    44
1040
2.0
1070
   140
1040
3.5
1002
}
1001
ACAD_DSTYLE_DIM_LINETYPE
1070
   380
1005
16
1001
ACAD_DSTYLE_DIM_EXT1_LINETYPE
1070
   381
1005
16
1001
ACAD_DSTYLE_DIM_EXT2_LINETYPE
1070
   382
1005
16
0
ENDSEC
0
SECTION
2
OBJECTS
0
DICTIONARY
5
23b
330
0
100
AcDbDictionary
280
0
281
1
3
ACAD_GROUP
350
23c
3
ACAD_MLINESTYLE
350
23d
0
DICTIONARY
5
23c
330
0
100
AcDbDictionary
280
0
281
1
0
DICTIONARY
5
23d
330
0
100
AcDbDictionary
280
0
281
1
3
Standard
350
18
0
MLINESTYLE
5
18
330
23d
100
AcDbMlineStyle
2
Standard
70
0
3

62
256
51
90
52
90
71
2
49
-0.5
62
256
6
ByLayer
49
0.5
62
256
6
ByLayer
0
RASTERVARIABLES
5
229
330

100
AcDbRasterVariables
90
0
70
1
71
1
72
1
0
ENDSEC
0
EOF
