0
SECTION
2
HEADER
9
$ACADVER
1
AC1015
9
$DWGCODEPAGE
3
ANSI_1252
9
$HANDSEED
5
252
9
$ANGBASE
50
0
9
$ANGDIR
70
0
9
$ATTMODE
70
1
9
$AUNITS
70
0
9
$AUPREC
70
0
9
$CECOLOR
62
256
9
$CELTSCALE
40
1
9
$CELTYPE
6
ByLayer
9
$CELWEIGHT
370
18
9
$CLAYER
8
0
9
$CMLJUST
70
0
9
$CMLSCALE
40
1
9
$CMLSTYLE
2
Standard
9
$DIMSTYLE
2
Standard
9
$TEXTSIZE
40
0.2
9
$TEXTSTYLE
7
Standard
9
$LUNITS
70
2
9
$LUPREC
70
4
9
$EXTNAMES
290
1
9
$INSUNITS
70
4
9
$LTSCALE
40
1
9
$LWDISPLAY
290
1
9
$PDMODE
70
0
9
$PDSIZE
40
0
9
$PLINEGEN
70
0
0
ENDSEC
0
SECTION
2
CLASSES
0
CLASS
1
RASTERVARIABLES
2
AcDbRasterVariables
3
ISM
90
0
280
0
281
0
0
ENDSEC
0
SECTION
2
TABLES
0
TABLE
2
VPORT
5
248
100
AcDbSymbolTable
0
VPORT
5
1
100
AcDbSymbolTableRecord
100
AcDbViewportTableRecord
2
*Active
70
0
10
0
20
0
11
1
21
1
12
-1
22
1
13
0
23
0
14
0.5
24
0.5
15
10
25
10
16
0
26
0
36
1
17
0
27
0
37
0
0
ENDTAB
0
TABLE
2
LTYPE
5
249
100
AcDbSymbolTable
0
LTYPE
5
14
100
AcDbSymbolTableRecord
100
AcDbLinetypeTableRecord
70
0
2
ByBlock
3

72
65
73
0
40
0
0
LTYPE
5
15
100
AcDbSymbolTableRecord
100
AcDbLinetypeTableRecord
70
0
2
ByLayer
3

72
65
73
0
40
0
0
LTYPE
5
16
100
AcDbSymbolTableRecord
100
AcDbLinetypeTableRecord
70
0
2
Continuous
3
Solid line
72
65
73
0
40
0
0
LTYPE
5
6E
100
AcDbSymbolTableRecord
100
AcDbLinetypeTableRecord
70
0
2
CENTER
3
____ _ ____ _ ____ _ ____
72
65
73
4
40
47.5
49
22
74
0
49
-8.5
74
0
49
8.5
74
0
49
-8.5
74
0
0
LTYPE
5
6F
100
AcDbSymbolTableRecord
100
AcDbLinetypeTableRecord
70
0
2
DASHED
3
__ __ __ __ __ __ __ __ __
72
65
73
2
40
25.72
49
12.86
74
0
49
-12.86
74
0
0
ENDTAB
0
TABLE
2
LAYER
5
24a
100
AcDbSymbolTable
0
LAYER
5
10
100
AcDbSymbolTableRecord
100
AcDbLayerTableRecord
2
0
70
0
62
7
6
Continuous
290
1
370
-3
390
0
0
LAYER
5
71
100
AcDbSymbolTableRecord
100
AcDbLayerTableRecord
2
81
70
0
62
-3
6
Continuous
290
1
370
-3
390
0
0
LAYER
5
73
100
AcDbSymbolTableRecord
100
AcDbLayerTableRecord
2
80
70
0
62
-6
6
Continuous
290
1
370
-3
390
0
0
LAYER
5
75
100
AcDbSymbolTableRecord
100
AcDbLayerTableRecord
2
1
70
0
62
4
6
Continuous
290
1
370
-3
390
0
0
LAYER
5
83
100
AcDbSymbolTableRecord
100
AcDbLayerTableRecord
2
4
70
0
62
-2
6
CENTER
290
1
370
-3
390
0
0
LAYER
5
A4
100
AcDbSymbolTableRecord
100
AcDbLayerTableRecord
2
2
70
0
62
7
6
Continuous
290
1
370
-3
390
0
0
LAYER
5
15D
100
AcDbSymbolTableRecord
100
AcDbLayerTableRecord
2
Defpoints
70
0
62
7
6
Continuous
290
0
370
-3
390
0
0
LAYER
5
234
100
AcDbSymbolTableRecord
100
AcDbLayerTableRecord
2
SK4
70
0
62
2
6
CENTER
290
1
370
-3
390
0
0
LAYER
5
235
100
AcDbSymbolTableRecord
100
AcDbLayerTableRecord
2
SK1
70
0
62
4
6
Continuous
290
1
370
-3
390
0
0
LAYER
5
236
100
AcDbSymbolTableRecord
100
AcDbLayerTableRecord
2
SK2
70
0
62
7
6
Continuous
290
1
370
-3
390
0
0
LAYER
5
237
100
AcDbSymbolTableRecord
100
AcDbLayerTableRecord
2
SK6
70
0
62
5
6
Continuous
290
1
370
-3
390
0
0
ENDTAB
0
TABLE
2
STYLE
5
24b
100
AcDbSymbolTable
0
STYLE
5
11
100
AcDbSymbolTableRecord
100
AcDbTextStyleTableRecord
2
Standard
3
txt
70
0
71
0
40
0
41
1
42
0
50
0
0
STYLE
5
139
100
AcDbSymbolTableRecord
100
AcDbTextStyleTableRecord
2
iso_b_vert
3
simplex.shx
70
0
71
0
40
0
41
1
42
0
50
0
0
STYLE
5
13A
100
AcDbSymbolTableRecord
100
AcDbTextStyleTableRecord
2
DWGDirectTextStyle
3
simplex
70
0
71
0
40
0
41
1
42
0
50
0
0
ENDTAB
0
TABLE
2
DIMSTYLE
5
24c
100
AcDbSymbolTable
100
AcDbDimStyleTable
0
DIMSTYLE
105
27
100
AcDbSymbolTableRecord
100
AcDbDimStyleTableRecord
2
Standard
70
0
3
<>
41
0.18
42
0.0625
44
0.18
140
0.18
147
0.09
73
0
74
0
77
1
271
2
275
0
278
52
280
0
340
11
0
ENDTAB
0
TABLE
2
VIEW
5
24d
100
AcDbSymbolTable
0
ENDTAB
0
TABLE
2
UCS
5
24e
100
AcDbSymbolTable
0
ENDTAB
0
TABLE
2
APPID
5
24f
100
AcDbSymbolTable
0
APPID
5
12
100
AcDbSymbolTableRecord
100
AcDbRegAppTableRecord
2
ACAD
70
0
0
APPID
5
159
100
AcDbSymbolTableRecord
100
AcDbRegAppTableRecord
2
ACAD_DSTYLE_DIMBREAK
70
0
0
APPID
5
1F3
100
AcDbSymbolTableRecord
100
AcDbRegAppTableRecord
2
ACAD_DSTYLE_DIM_LINETYPE
70
0
0
APPID
5
1F4
100
AcDbSymbolTableRecord
100
AcDbRegAppTableRecord
2
ACAD_DSTYLE_DIM_EXT1_LINETYPE
70
0
0
APPID
5
1F5
100
AcDbSymbolTableRecord
100
AcDbRegAppTableRecord
2
ACAD_DSTYLE_DIM_EXT2_LINETYPE
70
0
0
APPID
5
230
100
AcDbSymbolTableRecord
100
AcDbRegAppTableRecord
2
ACAD_MLEADERVER
70
0
0
ENDTAB
0
TABLE
2
BLOCK_RECORD
5
250
100
AcDbSymbolTable
0
BLOCK_RECORD
5
1F
100
AcDbSymbolTableRecord
100
AcDbBlockTableRecord
2
*Model_Space
340
0
70
0
0
BLOCK_RECORD
5
1B
100
AcDbSymbolTableRecord
100
AcDbBlockTableRecord
2
*Paper_Space
340
0
70
0
0
BLOCK_RECORD
5
23
100
AcDbSymbolTableRecord
100
AcDbBlockTableRecord
2
*Paper_Space0
340
0
70
0
0
BLOCK_RECORD
5
15E
100
AcDbSymbolTableRecord
100
AcDbBlockTableRecord
2
*D1
340
0
70
0
0
BLOCK_RECORD
5
16A
100
AcDbSymbolTableRecord
100
AcDbBlockTableRecord
2
_U0
340
0
70
0
0
BLOCK_RECORD
5
176
100
AcDbSymbolTableRecord
100
AcDbBlockTableRecord
2
*D3
340
0
70
0
0
BLOCK_RECORD
5
182
100
AcDbSymbolTableRecord
100
AcDbBlockTableRecord
2
_U1
340
0
70
0
0
BLOCK_RECORD
5
18E
100
AcDbSymbolTableRecord
100
AcDbBlockTableRecord
2
*D5
340
0
70
0
0
BLOCK_RECORD
5
19A
100
AcDbSymbolTableRecord
100
AcDbBlockTableRecord
2
_U2
340
0
70
0
0
BLOCK_RECORD
5
1A8
100
AcDbSymbolTableRecord
100
AcDbBlockTableRecord
2
*D7
340
0
70
0
0
BLOCK_RECORD
5
1B4
100
AcDbSymbolTableRecord
100
AcDbBlockTableRecord
2
_U3
340
0
70
0
0
BLOCK_RECORD
5
1C0
100
AcDbSymbolTableRecord
100
AcDbBlockTableRecord
2
*D9
340
0
70
0
0
BLOCK_RECORD
5
1CC
100
AcDbSymbolTableRecord
100
AcDbBlockTableRecord
2
_U4
340
0
70
0
0
ENDTAB
0
ENDSEC
0
SECTION
2
BLOCKS
0
BLOCK
5
20
100
AcDbEntity
8
0
100
AcDbBlockBegin
2
*Model_Space
70
0
10
0
20
0
30
0
3
*Model_Space
0
ENDBLK
5
21
100
AcDbEntity
8
0
100
AcDbBlockEnd
0
BLOCK
5
1C
100
AcDbEntity
8
0
100
AcDbBlockBegin
2
*Paper_Space
70
0
10
0
20
0
30
0
3
*Paper_Space
0
ENDBLK
5
1D
100
AcDbEntity
8
0
100
AcDbBlockEnd
0
BLOCK
5
24
100
AcDbEntity
8
0
100
AcDbBlockBegin
2
*Paper_Space0
70
0
10
0
20
0
30
0
3
*Paper_Space0
0
ENDBLK
5
25
100
AcDbEntity
8
0
100
AcDbBlockEnd
0
BLOCK
5
15F
100
AcDbEntity
8
0
100
AcDbBlockBegin
2
*D1
70
1
10
0
20
0
30
0
3
*D1
0
LINE
5
161
100
AcDbEntity
8
0
62
256
6
ByLayer
370
-2
48
1
60
0
100
AcDbLine
10
-36
20
-5.5875
30
0
11
-36
21
-125.75884
31
0
39
0
210
0
220
0
230
1
0
LINE
5
162
100
AcDbEntity
8
0
62
256
6
ByLayer
370
-2
48
1
60
0
100
AcDbLine
10
55
20
-4.7625
30
0
11
55
21
-125.75884
31
0
39
0
210
0
220
0
230
1
0
LINE
5
163
100
AcDbEntity
8
0
62
256
6
ByLayer
370
-2
48
1
60
0
100
AcDbLine
10
-32.5
20
-123.75884
30
0
11
51.5
21
-123.75884
31
0
39
0
210
0
220
0
230
1
0
SOLID
5
164
100
AcDbEntity
8
0
62
256
6
ByLayer
370
-1
48
1
60
0
100
AcDbTrace
10
-32.5
20
-123.175507
30
0
11
-32.5
21
-124.342173
31
0
12
-36
22
-123.75884
32
0
13
-36
23
-123.75884
33
0
39
0
210
0
220
0
230
1
0
SOLID
5
165
100
AcDbEntity
8
0
62
256
6
ByLayer
370
-1
48
1
60
0
100
AcDbTrace
10
51.5
20
-124.342173
30
0
11
51.5
21
-123.175507
31
0
12
55
22
-123.75884
32
0
13
55
23
-123.75884
33
0
39
0
210
0
220
0
230
1
0
MTEXT
5
166
100
AcDbEntity
8
0
62
256
6
ByLayer
370
18
48
1
60
0
100
AcDbMText
10
9.5
20
-116.75884
30
0
210
0
220
0
230
1
1
\A1;91
40
3.5
41
0
44
1
50
0
71
5
72
5
7
iso_b_vert
0
POINT
5
167
100
AcDbEntity
8
Defpoints
62
0
6
ByLayer
370
-1
48
1
60
0
100
AcDbPoint
10
-36
20
-4
30
0
39
0
210
0
220
0
230
1
50
360
0
POINT
5
168
100
AcDbEntity
8
Defpoints
62
0
6
ByLayer
370
-1
48
1
60
0
100
AcDbPoint
10
55
20
-3.175
30
0
39
0
210
0
220
0
230
1
50
360
0
POINT
5
169
100
AcDbEntity
8
Defpoints
62
0
6
ByLayer
370
-1
48
1
60
0
100
AcDbPoint
10
55
20
-123.75884
30
0
39
0
210
0
220
0
230
1
50
360
0
ENDBLK
5
160
100
AcDbEntity
8
0
100
AcDbBlockEnd
0
BLOCK
5
171
100
AcDbEntity
8
0
100
AcDbBlockBegin
2
_U0
70
0
10
0
20
0
30
0
3
_U0
0
MTEXT
5
16B
100
AcDbEntity
8
2
62
256
6
ByLayer
370
18
48
1
60
0
100
AcDbMText
10
8.032467
20
-122.726206
30
0
210
0
220
0
230
1
1
\W0.6351;91
40
3.5
41
0
44
1.084337
50
0
71
7
72
5
7
iso_b_vert
0
LINE
5
16C
100
AcDbEntity
8
2
62
256
6
ByLayer
370
13
48
1
60
0
100
AcDbLine
10
-36
20
-5.5875
30
0
11
-36
21
-125.75884
31
0
39
0
210
0
220
0
230
1
0
LINE
5
16D
100
AcDbEntity
8
2
62
256
6
ByLayer
370
13
48
1
60
0
100
AcDbLine
10
55
20
-4.7625
30
0
11
55
21
-125.75884
31
0
39
0
210
0
220
0
230
1
0
LINE
5
16E
100
AcDbEntity
8
2
62
256
6
ByLayer
370
13
48
1
60
0
100
AcDbLine
10
-36
20
-123.75884
30
0
11
55
21
-123.75884
31
0
39
0
210
0
220
0
230
1
0
SOLID
5
16F
100
AcDbEntity
8
2
62
256
6
ByLayer
370
18
48
1
60
0
100
AcDbTrace
10
-36
20
-123.75884
30
0
11
-32.500002
21
-123.298056
31
0
12
-32.499998
22
-124.219624
32
0
13
-32.499998
23
-124.219624
33
0
39
0
210
0
220
0
230
1
0
SOLID
5
170
100
AcDbEntity
8
2
62
256
6
ByLayer
370
18
48
1
60
0
100
AcDbTrace
10
55
20
-123.75884
30
0
11
51.500002
21
-124.219624
31
0
12
51.499998
22
-123.298056
32
0
13
51.499998
23
-123.298056
33
0
39
0
210
0
220
0
230
1
0
ENDBLK
5
172
100
AcDbEntity
8
0
100
AcDbBlockEnd
0
BLOCK
5
177
100
AcDbEntity
8
0
100
AcDbBlockBegin
2
*D3
70
1
10
0
20
0
30
0
3
*D3
0
LINE
5
179
100
AcDbEntity
8
0
62
256
6
ByLayer
370
-2
48
1
60
0
100
AcDbLine
10
55
20
-4.7625
30
0
11
55
21
-105.75884
31
0
39
0
210
0
220
0
230
1
0
LINE
5
17A
100
AcDbEntity
8
0
62
256
6
ByLayer
370
-2
48
1
60
0
100
AcDbLine
10
2
20
-4.7625
30
0
11
2
21
-105.75884
31
0
39
0
210
0
220
0
230
1
0
LINE
5
17B
100
AcDbEntity
8
0
62
256
6
ByLayer
370
-2
48
1
60
0
100
AcDbLine
10
51.5
20
-103.75884
30
0
11
5.5
21
-103.75884
31
0
39
0
210
0
220
0
230
1
0
SOLID
5
17C
100
AcDbEntity
8
0
62
256
6
ByLayer
370
-1
48
1
60
0
100
AcDbTrace
10
51.5
20
-104.342173
30
0
11
51.5
21
-103.175507
31
0
12
55
22
-103.75884
32
0
13
55
23
-103.75884
33
0
39
0
210
0
220
0
230
1
0
SOLID
5
17D
100
AcDbEntity
8
0
62
256
6
ByLayer
370
-1
48
1
60
0
100
AcDbTrace
10
5.5
20
-103.175507
30
0
11
5.5
21
-104.342173
31
0
12
2
22
-103.75884
32
0
13
2
23
-103.75884
33
0
39
0
210
0
220
0
230
1
0
MTEXT
5
17E
100
AcDbEntity
8
0
62
256
6
ByLayer
370
18
48
1
60
0
100
AcDbMText
10
28.5
20
-96.75884
30
0
210
0
220
0
230
1
1
\A1;53
40
3.5
41
0
44
1
50
0
71
5
72
5
7
iso_b_vert
0
POINT
5
17F
100
AcDbEntity
8
Defpoints
62
0
6
ByLayer
370
-1
48
1
60
0
100
AcDbPoint
10
55
20
-3.175
30
0
39
0
210
0
220
0
230
1
50
360
0
POINT
5
180
100
AcDbEntity
8
Defpoints
62
0
6
ByLayer
370
-1
48
1
60
0
100
AcDbPoint
10
2
20
-3.175
30
0
39
0
210
0
220
0
230
1
50
360
0
POINT
5
181
100
AcDbEntity
8
Defpoints
62
0
6
ByLayer
370
-1
48
1
60
0
100
AcDbPoint
10
2
20
-103.75884
30
0
39
0
210
0
220
0
230
1
50
360
0
ENDBLK
5
178
100
AcDbEntity
8
0
100
AcDbBlockEnd
0
BLOCK
5
189
100
AcDbEntity
8
0
100
AcDbBlockBegin
2
_U1
70
0
10
0
20
0
30
0
3
_U1
0
MTEXT
5
183
100
AcDbEntity
8
SK2
62
256
6
ByLayer
370
18
48
1
60
0
100
AcDbMText
10
26.595034
20
-102.726206
30
0
210
0
220
0
230
1
1
\W0.6740;53
40
3.5
41
0
44
1.084337
50
0
71
7
72
5
7
iso_b_vert
0
LINE
5
184
100
AcDbEntity
8
SK2
62
256
6
ByLayer
370
13
48
1
60
0
100
AcDbLine
10
55
20
-4.7625
30
0
11
55
21
-105.75884
31
0
39
0
210
0
220
0
230
1
0
LINE
5
185
100
AcDbEntity
8
SK2
62
256
6
ByLayer
370
13
48
1
60
0
100
AcDbLine
10
2
20
-4.7625
30
0
11
2
21
-105.75884
31
0
39
0
210
0
220
0
230
1
0
LINE
5
186
100
AcDbEntity
8
SK2
62
256
6
ByLayer
370
13
48
1
60
0
100
AcDbLine
10
55
20
-103.75884
30
0
11
2
21
-103.75884
31
0
39
0
210
0
220
0
230
1
0
SOLID
5
187
100
AcDbEntity
8
SK2
62
256
6
ByLayer
370
18
48
1
60
0
100
AcDbTrace
10
55
20
-103.75884
30
0
11
51.500002
21
-104.219624
31
0
12
51.499998
22
-103.298056
32
0
13
51.499998
23
-103.298056
33
0
39
0
210
0
220
0
230
1
0
SOLID
5
188
100
AcDbEntity
8
SK2
62
256
6
ByLayer
370
18
48
1
60
0
100
AcDbTrace
10
2
20
-103.75884
30
0
11
5.499998
21
-103.298056
31
0
12
5.500002
22
-104.219624
32
0
13
5.500002
23
-104.219624
33
0
39
0
210
0
220
0
230
1
0
ENDBLK
5
18A
100
AcDbEntity
8
0
100
AcDbBlockEnd
0
BLOCK
5
18F
100
AcDbEntity
8
0
100
AcDbBlockBegin
2
*D5
70
1
10
0
20
0
30
0
3
*D5
0
LINE
5
191
100
AcDbEntity
8
0
62
256
6
ByLayer
370
-2
48
1
60
0
100
AcDbLine
10
55
20
-4.7625
30
0
11
55
21
-95.75884
31
0
39
0
210
0
220
0
230
1
0
LINE
5
192
100
AcDbEntity
8
0
62
256
6
ByLayer
370
-2
48
1
60
0
100
AcDbLine
10
12
20
-4.7625
30
0
11
12
21
-95.75884
31
0
39
0
210
0
220
0
230
1
0
LINE
5
193
100
AcDbEntity
8
0
62
256
6
ByLayer
370
-2
48
1
60
0
100
AcDbLine
10
51.5
20
-93.75884
30
0
11
15.5
21
-93.75884
31
0
39
0
210
0
220
0
230
1
0
SOLID
5
194
100
AcDbEntity
8
0
62
256
6
ByLayer
370
-1
48
1
60
0
100
AcDbTrace
10
51.5
20
-94.342173
30
0
11
51.5
21
-93.175507
31
0
12
55
22
-93.75884
32
0
13
55
23
-93.75884
33
0
39
0
210
0
220
0
230
1
0
SOLID
5
195
100
AcDbEntity
8
0
62
256
6
ByLayer
370
-1
48
1
60
0
100
AcDbTrace
10
15.5
20
-93.175507
30
0
11
15.5
21
-94.342173
31
0
12
12
22
-93.75884
32
0
13
12
23
-93.75884
33
0
39
0
210
0
220
0
230
1
0
MTEXT
5
196
100
AcDbEntity
8
0
62
256
6
ByLayer
370
18
48
1
60
0
100
AcDbMText
10
33.5
20
-86.75884
30
0
210
0
220
0
230
1
1
\A1;43
40
3.5
41
0
44
1
50
0
71
5
72
5
7
iso_b_vert
0
POINT
5
197
100
AcDbEntity
8
Defpoints
62
0
6
ByLayer
370
-1
48
1
60
0
100
AcDbPoint
10
55
20
-3.175
30
0
39
0
210
0
220
0
230
1
50
360
0
POINT
5
198
100
AcDbEntity
8
Defpoints
62
0
6
ByLayer
370
-1
48
1
60
0
100
AcDbPoint
10
12
20
-3.175
30
0
39
0
210
0
220
0
230
1
50
360
0
POINT
5
199
100
AcDbEntity
8
Defpoints
62
0
6
ByLayer
370
-1
48
1
60
0
100
AcDbPoint
10
12
20
-93.75884
30
0
39
0
210
0
220
0
230
1
50
360
0
ENDBLK
5
190
100
AcDbEntity
8
0
100
AcDbBlockEnd
0
BLOCK
5
1A3
100
AcDbEntity
8
0
100
AcDbBlockBegin
2
_U2
70
0
10
0
20
0
30
0
3
_U2
0
MTEXT
5
19B
100
AcDbEntity
8
SK2
62
256
6
ByLayer
370
18
48
1
60
0
100
AcDbMText
10
31.410767
20
-92.726206
30
0
210
0
220
0
230
1
1
\W0.7361;43
40
3.5
41
0
44
1.084337
50
0
71
7
72
5
7
iso_b_vert
0
MTEXT
5
19C
100
AcDbEntity
8
SK2
62
256
6
ByLayer
370
18
48
1
60
0
100
AcDbMText
10
27.542768
20
-92.726206
30
0
210
0
220
0
230
1
1
\W0.1790;(
40
3.5
41
0
44
1.084337
50
0
71
7
72
5
7
iso_b_vert
0
MTEXT
5
19D
100
AcDbEntity
8
SK2
62
256
6
ByLayer
370
18
48
1
60
0
100
AcDbMText
10
39.460233
20
-92.726206
30
0
210
0
220
0
230
1
1
\W0.1969;)
40
3.5
41
0
44
1.084337
50
0
71
7
72
5
7
iso_b_vert
0
LINE
5
19E
100
AcDbEntity
8
SK2
62
256
6
ByLayer
370
13
48
1
60
0
100
AcDbLine
10
55
20
-4.7625
30
0
11
55
21
-95.75884
31
0
39
0
210
0
220
0
230
1
0
LINE
5
19F
100
AcDbEntity
8
SK2
62
256
6
ByLayer
370
13
48
1
60
0
100
AcDbLine
10
12
20
-4.7625
30
0
11
12
21
-95.75884
31
0
39
0
210
0
220
0
230
1
0
LINE
5
1A0
100
AcDbEntity
8
SK2
62
256
6
ByLayer
370
13
48
1
60
0
100
AcDbLine
10
55
20
-93.75884
30
0
11
12
21
-93.75884
31
0
39
0
210
0
220
0
230
1
0
SOLID
5
1A1
100
AcDbEntity
8
SK2
62
256
6
ByLayer
370
18
48
1
60
0
100
AcDbTrace
10
55
20
-93.75884
30
0
11
51.500002
21
-94.219624
31
0
12
51.499998
22
-93.298056
32
0
13
51.499998
23
-93.298056
33
0
39
0
210
0
220
0
230
1
0
SOLID
5
1A2
100
AcDbEntity
8
SK2
62
256
6
ByLayer
370
18
48
1
60
0
100
AcDbTrace
10
12
20
-93.75884
30
0
11
15.499998
21
-93.298056
31
0
12
15.500002
22
-94.219624
32
0
13
15.500002
23
-94.219624
33
0
39
0
210
0
220
0
230
1
0
ENDBLK
5
1A4
100
AcDbEntity
8
0
100
AcDbBlockEnd
0
BLOCK
5
1A9
100
AcDbEntity
8
0
100
AcDbBlockBegin
2
*D7
70
1
10
0
20
0
30
0
3
*D7
0
LINE
5
1AB
100
AcDbEntity
8
0
62
256
6
ByLayer
370
-2
48
1
60
0
100
AcDbLine
10
-36
20
-5.5875
30
0
11
-36
21
-105.75884
31
0
39
0
210
0
220
0
230
1
0
LINE
5
1AC
100
AcDbEntity
8
0
62
256
6
ByLayer
370
-2
48
1
60
0
100
AcDbLine
10
0
20
-5.5875
30
0
11
0
21
-105.75884
31
0
39
0
210
0
220
0
230
1
0
LINE
5
1AD
100
AcDbEntity
8
0
62
256
6
ByLayer
370
-2
48
1
60
0
100
AcDbLine
10
-32.5
20
-103.75884
30
0
11
-3.5
21
-103.75884
31
0
39
0
210
0
220
0
230
1
0
SOLID
5
1AE
100
AcDbEntity
8
0
62
256
6
ByLayer
370
-1
48
1
60
0
100
AcDbTrace
10
-32.5
20
-103.175507
30
0
11
-32.5
21
-104.342173
31
0
12
-36
22
-103.75884
32
0
13
-36
23
-103.75884
33
0
39
0
210
0
220
0
230
1
0
SOLID
5
1AF
100
AcDbEntity
8
0
62
256
6
ByLayer
370
-1
48
1
60
0
100
AcDbTrace
10
-3.5
20
-104.342173
30
0
11
-3.5
21
-103.175507
31
0
12
0
22
-103.75884
32
0
13
0
23
-103.75884
33
0
39
0
210
0
220
0
230
1
0
MTEXT
5
1B0
100
AcDbEntity
8
0
62
256
6
ByLayer
370
18
48
1
60
0
100
AcDbMText
10
-18
20
-96.75884
30
0
210
0
220
0
230
1
1
\A1;36
40
3.5
41
0
44
1
50
0
71
5
72
5
7
iso_b_vert
0
POINT
5
1B1
100
AcDbEntity
8
Defpoints
62
0
6
ByLayer
370
-1
48
1
60
0
100
AcDbPoint
10
-36
20
-4
30
0
39
0
210
0
220
0
230
1
50
360
0
POINT
5
1B2
100
AcDbEntity
8
Defpoints
62
0
6
ByLayer
370
-1
48
1
60
0
100
AcDbPoint
10
0
20
-4
30
0
39
0
210
0
220
0
230
1
50
360
0
POINT
5
1B3
100
AcDbEntity
8
Defpoints
62
0
6
ByLayer
370
-1
48
1
60
0
100
AcDbPoint
10
0
20
-103.75884
30
0
39
0
210
0
220
0
230
1
50
360
0
ENDBLK
5
1AA
100
AcDbEntity
8
0
100
AcDbBlockEnd
0
BLOCK
5
1BB
100
AcDbEntity
8
0
100
AcDbBlockBegin
2
_U3
70
0
10
0
20
0
30
0
3
_U3
0
MTEXT
5
1B5
100
AcDbEntity
8
SK2
62
256
6
ByLayer
370
18
48
1
60
0
100
AcDbMText
10
-19.904966
20
-102.726206
30
0
210
0
220
0
230
1
1
\W0.6740;36
40
3.5
41
0
44
1.084337
50
0
71
7
72
5
7
iso_b_vert
0
LINE
5
1B6
100
AcDbEntity
8
SK2
62
256
6
ByLayer
370
13
48
1
60
0
100
AcDbLine
10
-36
20
-5.5875
30
0
11
-36
21
-105.75884
31
0
39
0
210
0
220
0
230
1
0
LINE
5
1B7
100
AcDbEntity
8
SK2
62
256
6
ByLayer
370
13
48
1
60
0
100
AcDbLine
10
0
20
-5.5875
30
0
11
0
21
-105.75884
31
0
39
0
210
0
220
0
230
1
0
LINE
5
1B8
100
AcDbEntity
8
SK2
62
256
6
ByLayer
370
13
48
1
60
0
100
AcDbLine
10
-36
20
-103.75884
30
0
11
0
21
-103.75884
31
0
39
0
210
0
220
0
230
1
0
SOLID
5
1B9
100
AcDbEntity
8
SK2
62
256
6
ByLayer
370
18
48
1
60
0
100
AcDbTrace
10
-36
20
-103.75884
30
0
11
-32.500002
21
-103.298056
31
0
12
-32.499998
22
-104.219624
32
0
13
-32.499998
23
-104.219624
33
0
39
0
210
0
220
0
230
1
0
SOLID
5
1BA
100
AcDbEntity
8
SK2
62
256
6
ByLayer
370
18
48
1
60
0
100
AcDbTrace
10
0
20
-103.75884
30
0
11
-3.499998
21
-104.219624
31
0
12
-3.500002
22
-103.298056
32
0
13
-3.500002
23
-103.298056
33
0
39
0
210
0
220
0
230
1
0
ENDBLK
5
1BC
100
AcDbEntity
8
0
100
AcDbBlockEnd
0
BLOCK
5
1C1
100
AcDbEntity
8
0
100
AcDbBlockBegin
2
*D9
70
1
10
0
20
0
30
0
3
*D9
0
LINE
5
1C3
100
AcDbEntity
8
0
62
256
6
ByLayer
370
-2
48
1
60
0
100
AcDbLine
10
0
20
-5.5875
30
0
11
0
21
-115.75884
31
0
39
0
210
0
220
0
230
1
0
LINE
5
1C4
100
AcDbEntity
8
0
62
256
6
ByLayer
370
-2
48
1
60
0
100
AcDbLine
10
55
20
-4.7625
30
0
11
55
21
-115.75884
31
0
39
0
210
0
220
0
230
1
0
LINE
5
1C5
100
AcDbEntity
8
0
62
256
6
ByLayer
370
-2
48
1
60
0
100
AcDbLine
10
3.5
20
-113.75884
30
0
11
51.5
21
-113.75884
31
0
39
0
210
0
220
0
230
1
0
SOLID
5
1C6
100
AcDbEntity
8
0
62
256
6
ByLayer
370
-1
48
1
60
0
100
AcDbTrace
10
3.5
20
-113.175507
30
0
11
3.5
21
-114.342173
31
0
12
0
22
-113.75884
32
0
13
0
23
-113.75884
33
0
39
0
210
0
220
0
230
1
0
SOLID
5
1C7
100
AcDbEntity
8
0
62
256
6
ByLayer
370
-1
48
1
60
0
100
AcDbTrace
10
51.5
20
-114.342173
30
0
11
51.5
21
-113.175507
31
0
12
55
22
-113.75884
32
0
13
55
23
-113.75884
33
0
39
0
210
0
220
0
230
1
0
MTEXT
5
1C8
100
AcDbEntity
8
0
62
256
6
ByLayer
370
18
48
1
60
0
100
AcDbMText
10
27.5
20
-106.75884
30
0
210
0
220
0
230
1
1
\A1;55
40
3.5
41
0
44
1
50
0
71
5
72
5
7
iso_b_vert
0
POINT
5
1C9
100
AcDbEntity
8
Defpoints
62
0
6
ByLayer
370
-1
48
1
60
0
100
AcDbPoint
10
0
20
-4
30
0
39
0
210
0
220
0
230
1
50
360
0
POINT
5
1CA
100
AcDbEntity
8
Defpoints
62
0
6
ByLayer
370
-1
48
1
60
0
100
AcDbPoint
10
55
20
-3.175
30
0
39
0
210
0
220
0
230
1
50
360
0
POINT
5
1CB
100
AcDbEntity
8
Defpoints
62
0
6
ByLayer
370
-1
48
1
60
0
100
AcDbPoint
10
55
20
-113.75884
30
0
39
0
210
0
220
0
230
1
50
360
0
ENDBLK
5
1C2
100
AcDbEntity
8
0
100
AcDbBlockEnd
0
BLOCK
5
1D3
100
AcDbEntity
8
0
100
AcDbBlockBegin
2
_U4
70
0
10
0
20
0
30
0
3
_U4
0
MTEXT
5
1CD
100
AcDbEntity
8
SK2
62
256
6
ByLayer
370
18
48
1
60
0
100
AcDbMText
10
25.595034
20
-112.726206
30
0
210
0
220
0
230
1
1
\W0.6740;55
40
3.5
41
0
44
1.084337
50
0
71
7
72
5
7
iso_b_vert
0
LINE
5
1CE
100
AcDbEntity
8
SK2
62
256
6
ByLayer
370
13
48
1
60
0
100
AcDbLine
10
0
20
-5.5875
30
0
11
0
21
-115.75884
31
0
39
0
210
0
220
0
230
1
0
LINE
5
1CF
100
AcDbEntity
8
SK2
62
256
6
ByLayer
370
13
48
1
60
0
100
AcDbLine
10
55
20
-4.7625
30
0
11
55
21
-115.75884
31
0
39
0
210
0
220
0
230
1
0
LINE
5
1D0
100
AcDbEntity
8
SK2
62
256
6
ByLayer
370
13
48
1
60
0
100
AcDbLine
10
0
20
-113.75884
30
0
11
55
21
-113.75884
31
0
39
0
210
0
220
0
230
1
0
SOLID
5
1D1
100
AcDbEntity
8
SK2
62
256
6
ByLayer
370
18
48
1
60
0
100
AcDbTrace
10
0
20
-113.75884
30
0
11
3.499998
21
-113.298056
31
0
12
3.500002
22
-114.219624
32
0
13
3.500002
23
-114.219624
33
0
39
0
210
0
220
0
230
1
0
SOLID
5
1D2
100
AcDbEntity
8
SK2
62
256
6
ByLayer
370
18
48
1
60
0
100
AcDbTrace
10
55
20
-113.75884
30
0
11
51.500002
21
-114.219624
31
0
12
51.499998
22
-113.298056
32
0
13
51.499998
23
-113.298056
33
0
39
0
210
0
220
0
230
1
0
ENDBLK
5
1D4
100
AcDbEntity
8
0
100
AcDbBlockEnd
0
ENDSEC
0
SECTION
2
ENTITIES
0
ARC
5
BF
100
AcDbEntity
8
1
62
256
6
ByLayer
370
18
48
1
60
0
100
AcDbCircle
39
0
10
1.417459
20
3.942232
30
0
40
0.799999999999998
210
0
220
0
230
1
100
AcDbArc
50
207.99625
51
270.03581
0
ARC
5
C0
100
AcDbEntity
8
1
62
256
6
ByLayer
370
18
48
1
60
0
100
AcDbCircle
39
0
10
1.417459
20
-3.942232
30
0
40
0.799999999999998
210
0
220
0
230
1
100
AcDbArc
50
89.96419
51
152.00375
0
ARC
5
C1
100
AcDbEntity
8
1
62
256
6
ByLayer
370
18
48
1
60
0
100
AcDbCircle
39
0
10
0
20
3.2
30
0
40
0.799999999999998
210
0
220
0
230
1
100
AcDbArc
50
27.99625
51
90
0
ARC
5
C2
100
AcDbEntity
8
1
62
256
6
ByLayer
370
18
48
1
60
0
100
AcDbCircle
39
0
10
0
20
-3.2
30
0
40
0.799999999999998
210
0
220
0
230
1
100
AcDbArc
50
270
51
332.00375
0
ARC
5
C3
100
AcDbEntity
8
SK2
62
256
6
ByLayer
370
13
48
1
60
0
100
AcDbCircle
39
0
10
55
20
0
30
0
40
31.050878363843
210
0
220
0
230
1
100
AcDbArc
50
6.007977
51
69.993714
0
ARC
5
C4
100
AcDbEntity
8
SK2
62
256
6
ByLayer
370
13
48
1
60
0
100
AcDbCircle
39
0
10
55
20
0
30
0
40
31.050878363843
210
0
220
0
230
1
100
AcDbArc
50
290.006286
51
353.992023
0
ELLIPSE
5
C5
100
AcDbEntity
8
1
62
256
6
ByLayer
370
13
48
1
60
0
100
AcDbEllipse
10
8.22485
20
54.64227
30
0
11
-56.2003064037165
21
49.6270877977332
31
0
210
0
220
0
230
1
40
0.598681
41
2.02231881607766
42
2.04720121579907
0
ELLIPSE
5
C6
100
AcDbEntity
8
1
62
256
6
ByLayer
370
13
48
1
60
0
100
AcDbEllipse
10
8.22204
20
54.639087
30
0
11
-56.203077876565
21
49.6295351176
31
0
210
0
220
0
230
1
40
0.598681
41
2.02218577850729
42
2.05295528280368
0
ELLIPSE
5
C7
100
AcDbEntity
8
1
62
256
6
ByLayer
370
13
48
1
60
0
100
AcDbEllipse
10
8.19335
20
54.606597
30
0
11
-56.2045427735831
21
49.6308286794608
31
0
210
0
220
0
230
1
40
0.598681
41
2.02104059405272
42
2.13420486053527
0
ELLIPSE
5
C8
100
AcDbEntity
8
1
62
256
6
ByLayer
370
13
48
1
60
0
100
AcDbEllipse
10
8.19071
20
54.603607
30
0
11
-56.2020090566731
21
49.6285913074678
31
0
210
0
220
0
230
1
40
0.598681
41
2.02095637791491
42
2.13933460580709
0
ELLIPSE
5
C9
100
AcDbEntity
8
1
62
256
6
ByLayer
370
13
48
1
60
0
100
AcDbEllipse
10
3.688723
20
-1.319767
30
0
11
-0.0198235926922532
21
-0.0980154333397126
31
0
210
0
220
0
230
1
40
0.500719
41
-1.87605458607144
42
-0.497777930364283
0
ELLIPSE
5
CA
100
AcDbEntity
8
1
62
256
6
ByLayer
370
13
48
1
60
0
100
AcDbEllipse
10
3.750234
20
-1.33859
30
0
11
-0.0373174112369422
21
-0.0927761328067351
31
0
210
0
220
0
230
1
40
0.175578
41
-1.98621223911923
42
-0.441865406041838
0
POINT
5
70
100
AcDbEntity
8
81
62
256
6
ByLayer
370
18
48
1
60
0
100
AcDbPoint
10
55
20
0
30
0
39
0
210
0
220
0
230
1
50
360
0
POINT
5
72
100
AcDbEntity
8
80
62
256
6
ByLayer
370
18
48
1
60
0
100
AcDbPoint
10
0
20
0
30
0
39
0
210
0
220
0
230
1
50
360
0
POINT
5
74
100
AcDbEntity
8
1
62
256
6
ByLayer
370
18
48
1
60
0
100
AcDbPoint
10
-209.649561
20
-225.900161
30
0
39
0
210
0
220
0
230
1
50
360
0
POINT
5
76
100
AcDbEntity
8
1
62
256
6
ByLayer
370
13
48
1
60
1
100
AcDbPoint
10
-37.5
20
0
30
0
39
0
210
0
220
0
230
1
50
360
0
POINT
5
77
100
AcDbEntity
8
1
62
256
6
ByLayer
370
13
48
1
60
1
100
AcDbPoint
10
55.380534
20
0
30
0
39
0
210
0
220
0
230
1
50
360
0
POINT
5
78
100
AcDbEntity
8
1
62
256
6
ByLayer
370
18
48
1
60
1
100
AcDbPoint
10
-36
20
-4
30
0
39
0
210
0
220
0
230
1
50
360
0
POINT
5
79
100
AcDbEntity
8
1
62
256
6
ByLayer
370
18
48
1
60
1
100
AcDbPoint
10
55
20
-3.175
30
0
39
0
210
0
220
0
230
1
50
360
0
POINT
5
7A
100
AcDbEntity
8
1
62
256
6
ByLayer
370
18
48
1
60
1
100
AcDbPoint
10
55
20
-3.175
30
0
39
0
210
0
220
0
230
1
50
360
0
POINT
5
7B
100
AcDbEntity
8
1
62
256
6
ByLayer
370
18
48
1
60
1
100
AcDbPoint
10
2
20
-3.175
30
0
39
0
210
0
220
0
230
1
50
360
0
POINT
5
7C
100
AcDbEntity
8
1
62
256
6
ByLayer
370
18
48
1
60
1
100
AcDbPoint
10
55
20
-3.175
30
0
39
0
210
0
220
0
230
1
50
360
0
POINT
5
7D
100
AcDbEntity
8
1
62
256
6
ByLayer
370
18
48
1
60
1
100
AcDbPoint
10
12
20
-3.175
30
0
39
0
210
0
220
0
230
1
50
360
0
POINT
5
7E
100
AcDbEntity
8
1
62
256
6
ByLayer
370
18
48
1
60
1
100
AcDbPoint
10
-36
20
-4
30
0
39
0
210
0
220
0
230
1
50
360
0
POINT
5
7F
100
AcDbEntity
8
1
62
256
6
ByLayer
370
18
48
1
60
1
100
AcDbPoint
10
0
20
-4
30
0
39
0
210
0
220
0
230
1
50
360
0
POINT
5
80
100
AcDbEntity
8
1
62
256
6
ByLayer
370
18
48
1
60
1
100
AcDbPoint
10
0
20
-4
30
0
39
0
210
0
220
0
230
1
50
360
0
POINT
5
81
100
AcDbEntity
8
1
62
256
6
ByLayer
370
18
48
1
60
1
100
AcDbPoint
10
55
20
-3.175
30
0
39
0
210
0
220
0
230
1
50
360
0
SPLINE
5
CB
100
AcDbEntity
8
1
62
256
6
ByLayer
370
18
48
1
60
0
100
AcDbSpline
70
4
71
3
72
8
73
4
40
0
40
0
40
0
40
0
40
1
40
1
40
1
40
1
41
1
10
54.6862558318799
20
1.07822311583959
30
0
41
1
10
54.7930442287917
20
0.778388993091767
30
0
41
1
10
54.8966674659337
20
0.477417586666633
30
0
41
1
10
54.9970721229682
20
0.175289701932002
30
0
0
SPLINE
5
CC
100
AcDbEntity
8
1
62
256
6
ByLayer
370
18
48
1
60
0
100
AcDbSpline
70
4
71
5
72
75
73
69
40
0
40
0
40
0
40
0
40
0
40
0
40
0.125
40
0.125
40
0.125
40
0.250000000000001
40
0.250000000000001
40
0.250000000000001
40
0.375000000000002
40
0.375000000000002
40
0.375000000000002
40
0.5
40
0.5
40
0.5
40
0.5625
40
0.5625
40
0.5625
40
0.625000000000003
40
0.625000000000003
40
0.625000000000003
40
0.687500000000005
40
0.687500000000005
40
0.687500000000005
40
0.75
40
0.75
40
0.75
40
0.812500000000002
40
0.812500000000002
40
0.812500000000002
40
0.84375
40
0.84375
40
0.84375
40
0.874999999999999
40
0.874999999999999
40
0.874999999999999
40
0.906249999999998
40
0.906249999999998
40
0.906249999999998
40
0.921874999999998
40
0.921874999999998
40
0.921874999999998
40
0.937499999999997
40
0.937499999999997
40
0.937499999999997
40
0.953124999999997
40
0.953124999999997
40
0.953124999999997
40
0.968749999999996
40
0.968749999999996
40
0.968749999999996
40
0.976562499999999
40
0.976562499999999
40
0.976562499999999
40
0.984375000000001
40
0.984375000000001
40
0.984375000000001
40
0.992187500000003
40
0.992187500000003
40
0.992187500000003
40
0.996093749999999
40
0.996093749999999
40
0.996093749999999
40
0.998046875000002
40
0.998046875000002
40
0.998046875000002
40
1
40
1
40
1
40
1
40
1
40
1
41
1
10
13.0899929883795
20
-0.347638910610641
30
0
41
1
10
13.0980906221306
20
-0.35072786390387
30
0
41
1
10
13.1061876151325
20
-0.353815721259252
30
0
41
1
10
13.1142839215862
20
-0.356902482710325
30
0
41
1
10
13.1304750697977
20
-0.363073813871296
30
0
41
1
10
13.1466631054195
20
-0.369240761684694
30
0
41
1
10
13.1547562869716
20
-0.37232314267905
30
0
41
1
10
13.1709408613356
20
-0.378485724692268
30
0
41
1
10
13.1871216257738
20
-0.384643958452841
30
0
41
1
10
13.1952109705227
20
-0.387721993114667
30
0
41
1
10
13.2113874151028
20
-0.39387590769087
30
0
41
1
10
13.2275590298923
20
-0.400025532150948
30
0
41
1
10
13.2356434829313
20
-0.403099279739962
30
0
41
1
10
13.2477679105937
20
-0.407708315993943
30
0
41
1
10
13.2598886298687
20
-0.412314992301646
30
0
41
1
10
13.2639284287028
20
-0.413850290743397
30
0
41
1
10
13.27200708676
20
-0.41692037074958
30
0
41
1
10
13.2800837500706
20
-0.419989424556263
30
0
41
1
10
13.2841215401582
20
-0.421523696002623
30
0
41
1
10
13.2921959514359
20
-0.424591730167123
30
0
41
1
10
13.3002678533946
20
-0.427658751246781
30
0
41
1
10
13.3043031133299
20
-0.42919201124198
30
0
41
1
10
13.312372123683
20
-0.432258035596192
30
0
41
1
10
13.320437860144
20
-0.435323079584322
30
0
41
1
10
13.3244698108139
20
-0.436855361577841
30
0
41
1
10
13.3325316788572
20
-0.439919455745894
30
0
41
1
10
13.3405890839574
20
-0.442982630639847
30
0
41
1
10
13.3446164729116
20
-0.444513997939964
30
0
41
1
10
13.3506552891591
20
-0.446810733177443
30
0
41
1
10
13.3566902594456
20
-0.449107016607087
30
0
41
1
10
13.3587014428766
20
-0.449872396694104
30
0
41
1
10
13.3627227710716
20
-0.451403066378475
30
0
41
1
10
13.3667418379239
20
-0.452933564995476
30
0
41
1
10
13.3687507342594
20
-0.453698774353654
30
0
41
1
10
13.3727671092396
20
-0.455229118802237
30
0
41
1
10
13.3767803618182
20
-0.456759325981295
30
0
41
1
10
13.3787860560935
20
-0.457524398047951
30
0
41
1
10
13.3817929723651
20
-0.458671963055423
30
0
41
1
10
13.3847971102439
20
-0.459819469711789
30
0
41
1
10
13.3857981540454
20
-0.460201969452413
30
0
41
1
10
13.3877995171026
20
-0.460966971987972
30
0
41
1
10
13.3897993239436
20
-0.461731996653384
30
0
41
1
10
13.3907987607381
20
-0.462114506479764
30
0
41
1
10
13.3927965459307
20
-0.462879505042366
30
0
41
1
10
13.3947918440427
20
-0.463644429269635
30
0
41
1
10
13.3957888593471
20
-0.464026911117543
30
0
41
1
10
13.39778159849
20
-0.464791990918116
30
0
41
1
10
13.3997717067751
20
-0.465557456200628
30
0
41
1
10
13.4007655383798
20
-0.46594015746507
30
0
41
1
10
13.4022536047447
20
-0.466513970675578
30
0
41
1
10
13.4037363786937
20
-0.467087138425399
30
0
41
1
10
13.4042303762259
20
-0.467278296648118
30
0
41
1
10
13.4052185055798
20
-0.467661165753839
30
0
41
1
10
13.4062082138943
20
-0.468045836275934
30
0
41
1
10
13.4067016244137
20
-0.468237915328587
30
0
41
1
10
13.407681881421
20
-0.468620147892039
30
0
41
1
10
13.408641656853
20
-0.468995703121777
30
0
41
1
10
13.4091220905915
20
-0.469184475723921
30
0
41
1
10
13.4098520598576
20
-0.469473123589211
30
0
41
1
10
13.4106087565479
20
-0.469775999619202
30
0
41
1
10
13.4108552642645
20
-0.469875121491043
30
0
41
1
10
13.411203397728
20
-0.470015922523459
30
0
41
1
10
13.4114995270129
20
-0.470137211040878
30
0
41
1
10
13.4116033735908
20
-0.470180226563116
30
0
41
1
10
13.4118431704954
20
-0.470280937787805
30
0
41
1
10
13.4121908351309
20
-0.470430025667611
30
0
41
1
10
13.4123249829615
20
-0.470492102519131
30
0
41
1
10
13.412352794885
20
-0.470517151030094
30
0
41
1
10
13.4122076194817
20
-0.470480609948368
30
0
0
SPLINE
5
CD
100
AcDbEntity
8
1
62
256
6
ByLayer
370
13
48
1
60
0
100
AcDbSpline
70
4
71
3
72
46
73
42
40
0
40
0
40
0
40
0
40
0.0120083946559593
40
0.0318991942744371
40
0.0517899938929154
40
0.0716807935113927
40
0.111462392748348
40
0.151243991985304
40
0.171134791603781
40
0.19102559122226
40
0.210916390840735
40
0.230807190459214
40
0.270588789696171
40
0.310370388933127
40
0.330261188551604
40
0.350151988170082
40
0.370042787788558
40
0.389933587407037
40
0.429715186643993
40
0.46949678588095
40
0.489387585499427
40
0.509278385117904
40
0.529169184736384
40
0.549059984354861
40
0.588841583591815
40
0.628623182828771
40
0.648513982447249
40
0.668404782065727
40
0.688295581684204
40
0.708186381302682
40
0.747967980539638
40
0.787749579776594
40
0.807640379395072
40
0.827531179013549
40
0.847421978632027
40
0.867312778250505
40
0.90709437748746
40
0.946875976724416
40
0.966766776342892
40
0.986657575961371
40
1
40
1
40
1
40
1
41
1
10
46.63092865001
20
-1.64304964140828
30
0
41
1
10
46.5787510755012
20
-1.64755106697254
30
0
41
1
10
46.4401782051998
20
-1.65911644375336
30
0
41
1
10
46.2155778515502
20
-1.67560379896506
30
0
41
1
10
45.956789217808
20
-1.6923493742857
30
0
41
1
10
45.6124721004384
20
-1.70967273619368
30
0
41
1
10
45.1819668452046
20
-1.72391274850085
30
0
41
1
10
44.7498224338341
20
-1.734720366228
30
0
41
1
10
44.4040486129893
20
-1.73935351172958
30
0
41
1
10
44.145263994434
20
-1.73932982351988
30
0
41
1
10
43.8864754818576
20
-1.73697014054082
30
0
41
1
10
43.5421588787403
20
-1.72809800531616
30
0
41
1
10
43.1116546907344
20
-1.70968281711995
30
0
41
1
10
42.6795108917839
20
-1.68853437375429
30
0
41
1
10
42.3337372397884
20
-1.66769369780701
30
0
41
1
10
42.0749528515552
20
-1.64867119999036
30
0
41
1
10
41.8161642178106
20
-1.62743595031054
30
0
41
1
10
41.4718471004373
20
-1.59317741178816
30
0
41
1
10
41.0413418451986
20
-1.54375449371244
30
0
41
1
10
40.6091974338239
20
-1.49252008000937
30
0
41
1
10
40.263423612977
20
-1.44803591966752
30
0
41
1
10
40.0046389944214
20
-1.41168274793446
30
0
41
1
10
39.7458504818457
20
-1.3734355866126
30
0
41
1
10
39.401533878729
20
-1.31681043214923
30
0
41
1
10
38.9710296907254
20
-1.24075347279256
30
0
41
1
10
38.5388858917791
20
-1.16398689679986
30
0
41
1
10
38.1931122397867
20
-1.09982495069079
30
0
41
1
10
37.9343278515548
20
-1.04938707151456
30
0
41
1
10
37.675539217811
20
-0.997543011119234
30
0
41
1
10
37.3312221004393
20
-0.92359574220896
30
0
41
1
10
36.9007168452017
20
-0.827667519090483
30
0
41
1
10
36.4685724338264
20
-0.73217757684111
30
0
41
1
10
36.1227986129786
20
-0.654019200347363
30
0
41
1
10
35.8640139944227
20
-0.593956886516736
30
0
41
1
10
35.6052254818467
20
-0.533100104365445
30
0
41
1
10
35.2609088787292
20
-0.448379879297789
30
0
41
1
10
34.8304046907246
20
-0.341085029078784
30
0
41
1
10
34.3982608917781
20
-0.235350550765048
30
0
41
1
10
34.0524872397858
20
-0.150141750392038
30
0
41
1
10
33.822101531695
20
-0.0928594209176197
30
0
41
1
10
33.6779753111109
20
-0.0569730035309419
30
0
41
1
10
33.6201393375043
20
-0.0424862341872938
30
0
0
SPLINE
5
CE
100
AcDbEntity
8
1
62
256
6
ByLayer
370
18
48
1
60
0
100
AcDbSpline
70
4
71
3
72
36
73
32
40
0
40
0
40
0
40
0
40
0.0239330177065754
40
0.0239330177065754
40
0.0990150932676256
40
0.0990150932676256
40
0.249179244389726
40
0.249179244389726
40
0.324261319950776
40
0.324261319950776
40
0.399343395511826
40
0.399343395511826
40
0.436884433292351
40
0.436884433292351
40
0.474425471072876
40
0.474425471072876
40
0.54950754663391
40
0.54950754663391
40
0.624589622194945
40
0.624589622194945
40
0.662130659975462
40
0.662130659975462
40
0.699671697755979
40
0.699671697755979
40
0.774753773316985
40
0.774753773316985
40
0.812294811097487
40
0.812294811097487
40
0.84983584887799
40
0.84983584887799
40
1
40
1
40
1
40
1
41
1
10
53.7249001817236
20
0.44617700347905
30
0
41
1
10
53.7221524334427
20
0.44920402093652
30
0
41
1
10
53.7195380965071
20
0.452287834532626
30
0
41
1
10
53.7092837045149
20
0.465300090532679
30
0
41
1
10
53.7030018864557
20
0.475573854090044
30
0
41
1
10
53.6884938716124
20
0.507864133208955
30
0
41
1
10
53.6845225024468
20
0.531349183728366
30
0
41
1
10
53.6875232789005
20
0.5707222604631
30
0
41
1
10
53.690017837767
20
0.58426971253499
30
0
41
1
10
53.6979033877815
20
0.612153161693527
30
0
41
1
10
53.7032972684027
20
0.626503674448259
30
0
41
1
10
53.7136458278748
20
0.648662843683013
30
0
41
1
10
53.7174712671444
20
0.656156344601811
30
0
41
1
10
53.7258954897517
20
0.671370033209513
30
0
41
1
10
53.7305164914928
20
0.679123508180567
30
0
41
1
10
53.7453872918696
20
0.702422806491342
30
0
41
1
10
53.7566230023068
20
0.718041010345303
30
0
41
1
10
53.7818920314137
20
0.749238873507039
30
0
41
1
10
53.7959284952098
20
0.764815069190774
30
0
41
1
10
53.8193814766823
20
0.787915395146257
30
0
41
1
10
53.8276388684651
20
0.795602988386634
30
0
41
1
10
53.8448549860026
20
0.810676362912176
30
0
41
1
10
53.8537661570135
20
0.818024178846542
30
0
41
1
10
53.8814298815796
20
0.839433260911051
30
0
41
1
10
53.9011198067412
20
0.852846651281595
30
0
41
1
10
53.9325847839881
20
0.871494204615658
30
0
41
1
10
53.9433944889044
20
0.877465781443362
30
0
41
1
10
53.9656734566999
20
0.888886482429086
30
0
41
1
10
53.9771869076831
20
0.894351454542829
30
0
41
1
10
54.0352937814731
20
0.919790466118656
30
0
41
1
10
54.0842179246136
20
0.934529940080694
30
0
41
1
10
54.1353727000143
20
0.943747650918851
30
0
0
SPLINE
5
CF
100
AcDbEntity
8
1
62
256
6
ByLayer
370
18
48
1
60
0
100
AcDbSpline
70
4
71
3
72
12
73
8
40
0
40
0
40
0
40
0
40
0.5
40
0.5
40
0.75
40
0.75
40
1
40
1
40
1
40
1
41
1
10
54.1353727000143
20
0.94374765091888
30
0
41
1
10
54.2286520153232
20
0.960555891185123
30
0
41
1
10
54.3214405341206
20
0.979453765778715
30
0
41
1
10
54.4593208496734
20
1.01248030715937
30
0
41
1
10
54.5050720816135
20
1.02426898732412
30
0
41
1
10
54.5960715392457
20
1.04972433299321
30
0
41
1
10
54.6413275030158
20
1.06336210820652
30
0
41
1
10
54.6862558318802
20
1.07822311583911
30
0
0
SPLINE
5
D0
100
AcDbEntity
8
1
62
256
6
ByLayer
370
18
48
1
60
0
100
AcDbSpline
70
4
71
3
72
16
73
12
40
0
40
0
40
0
40
0
40
0.250000000000004
40
0.250000000000004
40
0.500000000000009
40
0.500000000000009
40
0.750000000000013
40
0.750000000000013
40
0.875000000000007
40
0.875000000000007
40
1
40
1
40
1
40
1
41
1
10
54.2891387376732
20
1.9684236031847
30
0
41
1
10
54.3181714848056
20
1.88934597451617
30
0
41
1
10
54.3478730747694
20
1.81133212915529
30
0
41
1
10
54.4092204876714
20
1.65762589333221
30
0
41
1
10
54.4408566904274
20
1.58191887349369
30
0
41
1
10
54.5065222501177
20
1.43289172950111
30
0
41
1
10
54.5405660524203
20
1.35959310694517
30
0
41
1
10
54.5938827092143
20
1.25168084300176
30
0
41
1
10
54.6120558844455
20
1.21600396625098
30
0
41
1
10
54.6487889967324
20
1.14615233164525
30
0
41
1
10
54.6673961586532
20
1.11187665895929
30
0
41
1
10
54.68625583188
20
1.07822311583962
30
0
0
SPLINE
5
D1
100
AcDbEntity
8
1
62
256
6
ByLayer
370
18
48
1
60
0
100
AcDbSpline
70
4
71
5
72
16
73
10
40
0
40
0
40
0
40
0
40
0
40
0
40
0.33507472886469
40
0.50011153561894
40
0.566787666766246
40
0.66507472886469
40
1
40
1
40
1
40
1
40
1
40
1
41
1
10
7.95808096322878
20
1.81448119317133
30
0
41
1
10
8.30288332968843
20
1.65716128485133
30
0
41
1
10
8.81726555835448
20
1.4250254085878
30
0
41
1
10
9.39961177055091
20
1.16648492548598
30
0
41
1
10
10.0823300594971
20
0.870058441763376
30
0
41
1
10
11.1080271505261
20
0.437697346728101
30
0
41
1
10
11.7897879677157
20
0.159559068215969
30
0
41
1
10
12.3022768861555
20
-0.0441640976801523
30
0
41
1
10
12.7465302072469
20
-0.216620328937495
30
0
41
1
10
13.0899929883795
20
-0.347638910610641
30
0
0
SPLINE
5
D2
100
AcDbEntity
8
1
62
256
6
ByLayer
370
13
48
1
60
0
100
AcDbSpline
70
4
71
3
72
39
73
35
40
0
40
0
40
0
40
0
40
0.0367719609634608
40
0.080555053646939
40
0.102446599988679
40
0.124338146330419
40
0.146229692672158
40
0.168121239013898
40
0.211904331697377
40
0.255687424380856
40
0.277578970722596
40
0.299470517064335
40
0.321362063406074
40
0.343253609747814
40
0.387036702431293
40
0.430819795114772
40
0.452711341456512
40
0.474602887798251
40
0.496494434139991
40
0.51838598048173
40
0.562169073165209
40
0.605952165848688
40
0.627843712190428
40
0.649735258532168
40
0.671626804873907
40
0.693518351215647
40
0.737301443899126
40
0.781084536582605
40
0.802976082924344
40
0.824867629266084
40
0.846759175607823
40
0.868650721949563
40
0.912433814633042
40
1
40
1
40
1
40
1
41
1
10
24.9127037281946
20
-1.64055630426048
30
0
41
1
10
24.7680870564155
20
-1.65190744848343
30
0
41
1
10
24.4511615585474
20
-1.67409963344511
30
0
41
1
10
24.0466974338265
20
-1.69916500945163
30
0
41
1
10
23.7009236129789
20
-1.71667069254053
30
0
41
1
10
23.4421389944231
20
-1.72636775571652
30
0
41
1
10
23.1833504818471
20
-1.73374570808608
30
0
41
1
10
22.8390338789079
20
-1.73816238732004
30
0
41
1
10
22.4085296918047
20
-1.73623365239428
30
0
41
1
10
21.9763858955818
20
-1.73118838790956
30
0
41
1
10
21.6306122440756
20
-1.72314325076223
30
0
41
1
10
21.371827851729
20
-1.71362587769607
30
0
41
1
10
21.1130392127552
20
-1.70180797511236
30
0
41
1
10
20.76872209091
20
-1.68014936213041
30
0
41
1
10
20.338216823658
20
-1.64602728484314
30
0
41
1
10
19.906072381438
20
-1.60959659523346
30
0
41
1
10
19.5602985450155
20
-1.57669479992481
30
0
41
1
10
19.3015139433487
20
-1.5487876086649
30
0
41
1
10
19.0427254547448
20
-1.51880182271756
30
0
41
1
10
18.698408839618
20
-1.47296875847883
30
0
41
1
10
18.2679045835082
20
-1.40966887021475
30
0
41
1
10
17.8357605856358
20
-1.34509334306668
30
0
41
1
10
17.4899869492453
20
-1.290274126654
30
0
41
1
10
17.2312029817036
20
-1.24647432703466
30
0
41
1
10
16.9724148460671
20
-1.20100270764865
30
0
41
1
10
16.6280982722047
20
-1.13508118447487
30
0
41
1
10
16.1975945664549
20
-1.04822909076313
30
0
41
1
10
15.7654545263267
20
-0.9612238993586
30
0
41
1
10
15.4196829916863
20
-0.889330228806898
30
0
41
1
10
15.1608962354035
20
-0.833505690749661
30
0
41
1
10
14.9021041072949
20
-0.776570625711969
30
0
41
1
10
14.5577891802563
20
-0.696407465998533
30
0
41
1
10
13.9576538835316
20
-0.547129699192823
30
0
41
1
10
13.4380403181015
20
-0.426167271963379
30
0
41
1
10
13.0899929883795
20
-0.347638910610641
30
0
0
SPLINE
5
D3
100
AcDbEntity
8
1
62
256
6
ByLayer
370
18
48
1
60
0
100
AcDbSpline
70
4
71
5
72
69
73
63
40
0
40
0
40
0
40
0
40
0
40
0
40
0.0019531249999993
40
0.0019531249999993
40
0.0019531249999993
40
0.0039062499999992
40
0.0039062499999992
40
0.0039062499999992
40
0.0078124999999984
40
0.0078124999999984
40
0.0078124999999984
40
0.0156249999999974
40
0.0156249999999974
40
0.0156249999999974
40
0.0234374999999964
40
0.0234374999999964
40
0.0234374999999964
40
0.0312499999999993
40
0.0312499999999993
40
0.0312499999999993
40
0.0468750000000007
40
0.0468750000000007
40
0.0468750000000007
40
0.0624999999999981
40
0.0624999999999981
40
0.0624999999999981
40
0.0937500000000013
40
0.0937500000000013
40
0.0937500000000013
40
0.125000000000001
40
0.125000000000001
40
0.125000000000001
40
0.15625
40
0.15625
40
0.15625
40
0.187500000000003
40
0.187500000000003
40
0.187500000000003
40
0.25
40
0.25
40
0.25
40
0.3125
40
0.3125
40
0.3125
40
0.375000000000002
40
0.375000000000002
40
0.375000000000002
40
0.5
40
0.5
40
0.5
40
0.625000000000003
40
0.625000000000003
40
0.625000000000003
40
0.750000000000004
40
0.750000000000004
40
0.750000000000004
40
0.875
40
0.875
40
0.875
40
1
40
1
40
1
40
1
40
1
40
1
41
1
10
7.59512503020801
20
1.98437324981603
30
0
41
1
10
7.59506164413108
20
1.98421150081305
30
0
41
1
10
7.5951428786536
20
1.98409280622826
30
0
41
1
10
7.59531035763919
20
1.98400102138757
30
0
41
1
10
7.59570216852956
20
1.98384166379455
30
0
41
1
10
7.59597641324433
20
1.98367151557829
30
0
41
1
10
7.5960959709731
20
1.98358526876359
30
0
41
1
10
7.59643743101944
20
1.98332758504756
30
0
41
1
10
7.59683369388347
20
1.98308679605884
30
0
41
1
10
7.59711301707424
20
1.98293147655909
30
0
41
1
10
7.59796880391141
20
1.98247423071288
30
0
41
1
10
7.59879516280506
20
1.98202240235088
30
0
41
1
10
7.59933913065908
20
1.98172368503967
30
0
41
1
10
7.60042547223884
20
1.98113144126299
30
0
41
1
10
7.60153318960568
20
1.98054995448186
30
0
41
1
10
7.60209045087183
20
1.98026132381361
30
0
41
1
10
7.60320789584145
20
1.97968713486867
30
0
41
1
10
7.60432342022949
20
1.97911678460051
30
0
41
1
10
7.60488106213578
20
1.97883250453327
30
0
41
1
10
7.60655470656445
20
1.97798215572507
30
0
41
1
10
7.60823374584152
20
1.9771386996762
30
0
41
1
10
7.6093549067711
20
1.97657896686221
30
0
41
1
10
7.61159963885555
20
1.97546365921124
30
0
41
1
10
7.61384680619517
20
1.97435469859431
30
0
41
1
10
7.61497099072704
20
1.97380163176311
30
0
41
1
10
7.6183453230534
20
1.97214615185769
30
0
41
1
10
7.62172492000636
20
1.97050027418564
30
0
41
1
10
7.62397992001786
20
1.96940663929834
30
0
41
1
10
7.62849298187769
20
1.96722530178161
30
0
41
1
10
7.63301054957972
20
1.96505322571983
30
0
41
1
10
7.63527035091715
20
1.96396926166082
30
0
41
1
10
7.63979177061643
20
1.96180499870297
30
0
41
1
10
7.64431638846804
20
1.9596471004981
30
0
41
1
10
7.64657941169486
20
1.9585696023193
30
0
41
1
10
7.65110671627662
20
1.95641722727976
30
0
41
1
10
7.65563619616637
20
1.95426953381784
30
0
41
1
10
7.65790143761558
20
1.95319676850482
30
0
41
1
10
7.66469853950838
20
1.94998144989026
30
0
41
1
10
7.67149939313265
20
1.94677426246091
30
0
41
1
10
7.67603476581593
20
1.94463936568857
30
0
41
1
10
7.68510805737853
20
1.94037525714609
30
0
41
1
10
7.69418565265684
20
1.93612097588982
30
0
41
1
10
7.69872542955926
20
1.93399609987054
30
0
41
1
10
7.70780674855922
20
1.92975049262432
30
0
41
1
10
7.71689121128671
20
1.92551240611192
30
0
41
1
10
7.72143416391845
20
1.9233951154041
30
0
41
1
10
7.73506499162579
20
1.91704811802052
30
0
41
1
10
7.74870114679447
20
1.91071459614085
30
0
41
1
10
7.75779400962958
20
1.90649769403834
30
0
41
1
10
7.77598337066922
20
1.89807369487664
30
0
41
1
10
7.79417890229601
20
1.88966713261922
30
0
41
1
10
7.80327806240513
20
1.88546794105014
30
0
41
1
10
7.82147887451288
20
1.87707719769835
30
0
41
1
10
7.83968407699552
20
1.86870065525358
30
0
41
1
10
7.8487876916945
20
1.86451576017131
30
0
41
1
10
7.86699677973564
20
1.85615237411369
30
0
41
1
10
7.88520924851903
20
1.84780109992332
30
0
41
1
10
7.89431627143958
20
1.84362837825341
30
0
41
1
10
7.91253178102488
20
1.83528854068098
30
0
41
1
10
7.93074999147183
20
1.82695946447709
30
0
41
1
10
7.93985973239054
20
1.82279753682351
30
0
41
1
10
7.94897006948437
20
1.81863813972461
30
0
41
1
10
7.95808096323316
20
1.81448119328664
30
0
0
SPLINE
5
D4
100
AcDbEntity
8
1
62
256
6
ByLayer
370
13
48
1
60
0
100
AcDbSpline
70
4
71
3
72
20
73
16
40
0
40
0
40
0
40
0
40
0.0663525064640452
40
0.130810348187635
40
0.195268189911225
40
0.259726031634815
40
0.324183873358405
40
0.453099556805585
40
0.582015240252765
40
0.646473081976355
40
0.710930923699945
40
0.775388765423535
40
0.839846607147125
40
0.968762290594304
40
1
40
1
40
1
40
1
41
1
10
54.2891387376741
20
1.96842360318436
30
0
41
1
10
54.2003221925223
20
1.96884934475784
30
0
41
1
10
54.0252103062625
20
1.96864252311718
30
0
41
1
10
53.7637884643239
20
1.96517796420926
30
0
41
1
10
53.5049806458573
20
1.95802947075427
30
0
41
1
10
53.2462113206411
20
1.94809520375887
30
0
41
1
10
52.9012893994018
20
1.9329612474441
30
0
41
1
10
52.4700783781017
20
1.90823041468568
30
0
41
1
10
52.038657857344
20
1.87411232705861
30
0
41
1
10
51.6934777600376
20
1.84099697587351
30
0
41
1
10
51.4346697153459
20
1.81244749299589
30
0
41
1
10
51.1758998911487
20
1.78133482105321
30
0
41
1
10
50.8309772985185
20
1.7383876633987
30
0
41
1
10
50.5304550652999
20
1.69725714009266
30
0
41
1
10
50.316110632321
20
1.66540466700567
30
0
41
1
10
50.2743009638015
20
1.65909548881598
30
0
0
SPLINE
5
D5
100
AcDbEntity
8
1
62
256
6
ByLayer
370
13
48
1
60
0
100
AcDbSpline
70
4
71
3
72
39
73
35
40
0
40
0
40
0
40
0
40
0.0293575552039583
40
0.0734776663310506
40
0.095537721894597
40
0.117597777458144
40
0.13965783302169
40
0.161717888585237
40
0.205837999712329
40
0.249958110839422
40
0.272018166402969
40
0.294078221966515
40
0.316138277530061
40
0.338198333093608
40
0.382318444220701
40
0.426438555347794
40
0.44849861091134
40
0.470558666474886
40
0.492618722038433
40
0.514678777601979
40
0.558798888729072
40
0.602918999856165
40
0.624979055419711
40
0.647039110983257
40
0.669099166546804
40
0.69115922211035
40
0.735279333237443
40
0.779399444364536
40
0.801459499928083
40
0.823519555491629
40
0.845579611055175
40
0.867639666618722
40
0.911759777745815
40
1
40
1
40
1
40
1
41
1
10
19.6893859695269
20
0.531528932697341
30
0
41
1
10
19.5746161980432
20
0.562986314506702
30
0
41
1
10
19.287337185694
20
0.64123387770411
30
0
41
1
10
18.9136578573439
20
0.74053622398003
30
0
41
1
10
18.5684777600377
20
0.829832636436151
30
0
41
1
10
18.3096697153461
20
0.895981013843254
30
0
41
1
10
18.050899891149
20
0.960805959403302
30
0
41
1
10
17.7059772985606
20
1.04545267780998
30
0
41
1
10
17.2747652407507
20
1.14842334965206
30
0
41
1
10
16.8433438597898
20
1.24545834846049
30
0
41
1
10
16.4981634661621
20
1.31910052612906
30
0
41
1
10
16.2393556456713
20
1.37246406449623
30
0
41
1
10
15.9805863195445
20
1.42383362874028
30
0
41
1
10
15.6356644034067
20
1.49022652599655
30
0
41
1
10
15.204453392202
20
1.56899662438323
30
0
41
1
10
14.7730328839886
20
1.63981235828564
30
0
41
1
10
14.4278527965042
20
1.69127686050729
30
0
41
1
10
14.1690447786324
20
1.72713183052593
30
0
41
1
10
13.9102749746865
20
1.76050000573463
30
0
41
1
10
13.5653523627018
20
1.80276097369105
30
0
41
1
10
13.1341402389591
20
1.85034683561949
30
0
41
1
10
12.7027187266545
20
1.88865031494532
30
0
41
1
10
12.3575381775871
20
1.91335175668632
30
0
41
1
10
12.0987304837052
20
1.92849633344625
30
0
41
1
10
11.8399611801073
20
1.94088180064716
30
0
41
1
10
11.4950386985871
20
1.95524210997959
30
0
41
1
10
11.0638265329363
20
1.96741255683858
30
0
41
1
10
10.6324044143412
20
1.96981409520839
30
0
41
1
10
10.2872228354729
20
1.96558378987695
30
0
41
1
10
10.0284109291074
20
1.95870183977061
30
0
41
1
10
9.76963713830264
20
1.94903049076783
30
0
41
1
10
9.42471672084298
20
1.93422386926213
30
0
41
1
10
8.8213570142558
20
1.90079187835082
30
0
41
1
10
8.30347976112301
20
1.85450505633699
30
0
41
1
10
7.95808096323316
20
1.81448119328664
30
0
0
SPLINE
5
D6
100
AcDbEntity
8
1
62
256
6
ByLayer
370
18
48
1
60
0
100
AcDbSpline
70
4
71
3
72
8
73
4
40
0
40
0
40
0
40
0
40
1
40
1
40
1
40
1
41
1
10
54.2110352567778
20
2.18748015079959
30
0
41
1
10
54.2364186851122
20
2.11445492936306
30
0
41
1
10
54.2623793269754
20
2.0413092564763
30
0
41
1
10
54.2891387376739
20
1.96842360318513
30
0
0
SPLINE
5
D7
100
AcDbEntity
8
1
62
256
6
ByLayer
370
13
48
1
60
0
100
AcDbSpline
70
4
71
3
72
46
73
42
40
0
40
0
40
0
40
0
40
0.0151229192196799
40
0.0350228965663019
40
0.0549228739129245
40
0.0748228512595459
40
0.11462280595279
40
0.154422760646035
40
0.174322737992655
40
0.194222715339278
40
0.214122692685898
40
0.234022670032522
40
0.273822624725766
40
0.313622579419011
40
0.333522556765632
40
0.353422534112254
40
0.373322511458875
40
0.393222488805498
40
0.433022443498743
40
0.472822398191988
40
0.492722375538609
40
0.512622352885231
40
0.532522330231855
40
0.552422307578476
40
0.592222262271719
40
0.632022216964963
40
0.651922194311585
40
0.671822171658207
40
0.691722149004829
40
0.711622126351451
40
0.751422081044695
40
0.79122203573794
40
0.811122013084562
40
0.831021990431183
40
0.850921967777805
40
0.870821945124428
40
0.910621899817671
40
0.950421854510915
40
0.970321831857536
40
0.990221809204159
40
1
40
1
40
1
40
1
41
1
10
41.5386510483698
20
0.504030840304068
30
0
41
1
10
41.4730735342162
20
0.521975432864508
30
0
41
1
10
41.321204228146
20
0.563385914174177
30
0
41
1
10
41.0831056458613
20
0.628103516874575
30
0
41
1
10
40.8243363206478
20
0.697505062245796
30
0
41
1
10
40.479414399411
20
0.788468725048176
30
0
41
1
10
40.0482033781137
20
0.900126544833824
30
0
41
1
10
39.6167828573573
20
1.00706269370224
30
0
41
1
10
39.2716027600506
20
1.08936561354494
30
0
41
1
10
39.012794715357
20
1.14972648318511
30
0
41
1
10
38.7540248911574
20
1.20840632700734
30
0
41
1
10
38.4091022985246
20
1.28467838555824
30
0
41
1
10
37.9778902405012
20
1.37643856061194
30
0
41
1
10
37.5464688589052
20
1.46115981882016
30
0
41
1
10
37.201288464321
20
1.52428835469669
30
0
41
1
10
36.9424806458549
20
1.56929644177035
30
0
41
1
10
36.6837113206398
20
1.61203591588975
30
0
41
1
10
36.3387893994009
20
1.66683376140963
30
0
41
1
10
35.9075783781015
20
1.73054476138145
30
0
41
1
10
35.4761578573444
20
1.78553750804605
30
0
41
1
10
35.1309777600384
20
1.82390342613397
30
0
41
1
10
34.8721697153463
20
1.84957962510612
30
0
41
1
10
34.6133998911488
20
1.87260165955729
30
0
41
1
10
34.2684772985183
20
1.90107819424856
30
0
41
1
10
33.8372652404981
20
1.93109392736918
30
0
41
1
10
33.4058438589047
20
1.95146902075379
30
0
41
1
10
33.0606634643218
20
1.96164890630789
30
0
41
1
10
32.8018556458556
20
1.96569352218879
30
0
41
1
10
32.54308632064
20
1.96693351939967
30
0
41
1
10
32.198164399401
20
1.96654196627986
30
0
41
1
10
31.7669533781013
20
1.96018828067437
30
0
41
1
10
31.335532857344
20
1.94414638203517
30
0
41
1
10
30.990352760038
20
1.92525621333775
30
0
41
1
10
30.7315447153464
20
1.90733401053995
30
0
41
1
10
30.4727748911495
20
1.88670592239961
30
0
41
1
10
30.1278522985193
20
1.85750103955996
30
0
41
1
10
29.6966402404993
20
1.81535209003854
30
0
41
1
10
29.265218858906
20
1.76430761557626
30
0
41
1
10
28.9200384643231
20
1.71800480893418
30
0
41
1
10
28.7051100508523
20
1.68617927283188
30
0
41
1
10
28.5764651794933
20
1.66625063595069
30
0
41
1
10
28.5340823408755
20
1.65961854505204
30
0
0
SPLINE
5
D8
100
AcDbEntity
8
1
62
256
6
ByLayer
370
18
48
1
60
0
100
AcDbSpline
70
4
71
3
72
8
73
4
40
0
40
0
40
0
40
0
40
1
40
1
40
1
40
1
41
1
10
4.1746367954951
20
2.92799037272448
30
0
41
1
10
4.33885377398366
20
2.85120898536178
30
0
41
1
10
4.50446412870036
20
2.77488652405231
30
0
41
1
10
4.67139086835735
20
2.69904074964316
30
0
0
SPLINE
5
D9
100
AcDbEntity
8
1
62
256
6
ByLayer
370
13
48
1
60
0
100
AcDbSpline
70
4
71
3
72
12
73
8
40
0
40
0
40
0
40
0
40
0.499999999999997
40
0.499999999999997
40
0.749999999999999
40
0.749999999999999
40
1
40
1
40
1
40
1
41
1
10
3.64787130647164
20
-1.40114843159205
30
0
41
1
10
3.62756187492136
20
-1.39544299259566
30
0
41
1
10
3.60927900319319
20
-1.38829753425566
30
0
41
1
10
3.58449431442412
20
-1.37567647791977
30
0
41
1
10
3.57663504535509
20
-1.37111273631774
30
0
41
1
10
3.5621802046737
20
-1.36159222227221
30
0
41
1
10
3.55554318171301
20
-1.35662168773823
30
0
41
1
10
3.54945394270956
20
-1.35145392376015
30
0
0
SPLINE
5
DA
100
AcDbEntity
8
1
62
256
6
ByLayer
370
18
48
1
60
0
100
AcDbSpline
70
4
71
5
72
12
73
6
40
0
40
0
40
0
40
0
40
0
40
0
40
1
40
1
40
1
40
1
40
1
40
1
41
1
10
13.4122076166015
20
-0.470480605029479
30
0
41
1
10
12.3251773334275
20
-0.196900464888728
30
0
41
1
10
11.2443917089038
20
0.106169473781506
30
0
41
1
10
10.1703658089168
20
0.437614856998749
30
0
41
1
10
9.10354516899343
20
0.796004166531304
30
0
41
1
10
8.04425480341115
20
1.17978630103326
30
0
0
SPLINE
5
DB
100
AcDbEntity
8
1
62
256
6
ByLayer
370
18
48
1
60
0
100
AcDbSpline
70
4
71
3
72
40
73
36
40
0
40
0
40
0
40
0
40
0.0019325558327206
40
0.0453267925356459
40
0.0887210292385705
40
0.110418147590033
40
0.132115265941496
40
0.153812384292959
40
0.175509502644422
40
0.218903739347347
40
0.262297976050272
40
0.283995094401734
40
0.305692212753197
40
0.327389331104659
40
0.349086449456122
40
0.392480686159047
40
0.435874922861972
40
0.457572041213435
40
0.479269159564898
40
0.50096627791636
40
0.522663396267823
40
0.566057632970748
40
0.609451869673673
40
0.631148988025136
40
0.652846106376599
40
0.674543224728061
40
0.696240343079524
40
0.739634579782449
40
0.783028816485374
40
0.804725934836837
40
0.826423053188299
40
0.848120171539762
40
0.869817289891224
40
0.91321152659415
40
1
40
1
40
1
40
1
41
1
10
25.3406968713105
20
-1.78184977746289
30
0
41
1
10
25.3330300467719
20
-1.78264669483698
30
0
41
1
10
25.1532101941764
20
-1.80123980004359
30
0
41
1
10
24.801173677521
20
-1.83319942905939
30
0
41
1
10
24.3689832652727
20
-1.86809394561536
30
0
41
1
10
24.0231719755634
20
-1.89164567903884
30
0
41
1
10
23.7643889050205
20
-1.90558950538906
30
0
41
1
10
23.5055991449046
20
-1.91696465709862
30
0
41
1
10
23.1613207863081
20
-1.92623001695529
30
0
41
1
10
22.7308615865749
20
-1.92967548778361
30
0
41
1
10
22.2986718830707
20
-1.92938064023943
30
0
41
1
10
21.9528607926961
20
-1.92459919886954
30
0
41
1
10
21.6940779477621
20
-1.91717701771856
30
0
41
1
10
21.4352880209659
20
-1.9071705398049
30
0
41
1
10
21.091009068212
20
-1.88740867233636
30
0
41
1
10
20.6605486537269
20
-1.85492727972962
30
0
41
1
10
20.2283582079023
20
-1.819461943786
30
0
41
1
10
19.8825469010691
20
-1.78675146826967
30
0
41
1
10
19.6237638467008
20
-1.75860156078156
30
0
41
1
10
19.3649741107063
20
-1.72808027151677
30
0
41
1
10
19.0206957404535
20
-1.68102335078942
30
0
41
1
10
18.5902364716201
20
-1.615484725654
30
0
41
1
10
18.1580465622507
20
-1.5480037310293
30
0
41
1
10
17.8122354986109
20
-1.49028645878963
30
0
41
1
10
17.5534530962377
20
-1.44392750877657
30
0
41
1
10
17.2946637020769
20
-1.39562092956322
30
0
41
1
10
16.9503853684534
20
-1.32546348467753
30
0
41
1
10
16.519926687043
20
-1.23269188201672
30
0
41
1
10
16.0877410217095
20
-1.13916793895928
30
0
41
1
10
15.7419322484816
20
-1.06154427350501
30
0
41
1
10
15.4831471605164
20
-1.0010719978884
30
0
41
1
10
15.2243538236989
20
-0.939255031592609
30
0
41
1
10
14.8800770992494
20
-0.852220145128655
30
0
41
1
10
14.2801459745294
20
-0.68992834950717
30
0
41
1
10
13.7604224962436
20
-0.557232824176765
30
0
41
1
10
13.4122076194817
20
-0.470480609948368
30
0
0
SPLINE
5
DC
100
AcDbEntity
8
1
62
256
6
ByLayer
370
18
48
1
60
0
100
AcDbSpline
70
4
71
3
72
47
73
43
40
0
40
0
40
0
40
0
40
0.0186292599732933
40
0.0379638959636154
40
0.0572985319539381
40
0.0766331679442597
40
0.115302439924904
40
0.153971711905549
40
0.17330634789587
40
0.192640983886193
40
0.211975619876513
40
0.231310255866836
40
0.269979527847481
40
0.308648799828126
40
0.327983435818447
40
0.34731807180877
40
0.366652707799091
40
0.385987343789414
40
0.424656615770058
40
0.463325887750704
40
0.482660523741026
40
0.501995159731347
40
0.521329795721671
40
0.540664431711993
40
0.579333703692636
40
0.61800297567328
40
0.637337611663602
40
0.656672247653924
40
0.676006883644246
40
0.695341519634569
40
0.734010791615213
40
0.772680063595858
40
0.792014699586181
40
0.811349335576502
40
0.830683971566824
40
0.850018607557147
40
0.88868787953779
40
0.927357151518435
40
0.946691787508756
40
0.966026423499079
40
0.985361059489401
40
1
40
1
40
1
40
1
41
1
10
47.0465026468285
20
-1.7855404013961
30
0
41
1
10
46.9632084333401
20
-1.79474783247801
30
0
41
1
10
46.7934637725515
20
-1.81284515550271
30
0
41
1
10
46.53782794756
20
-1.83673030859134
30
0
41
1
10
46.2790380262561
20
-1.85843413811585
30
0
41
1
10
45.9347590785919
20
-1.88192201603212
30
0
41
1
10
45.5042986775234
20
-1.90322527069844
30
0
41
1
10
45.0721082652798
20
-1.92051839768695
30
0
41
1
10
44.7262969755736
20
-1.92984303148572
30
0
41
1
10
44.4675139050314
20
-1.93301377116435
30
0
41
1
10
44.2087241449153
20
-1.93357864723444
30
0
41
1
10
43.8644457861323
20
-1.92810041948525
30
0
41
1
10
43.4339865854537
20
-1.91321096025356
30
0
41
1
10
43.0017968790918
20
-1.89493111659777
30
0
41
1
10
42.6559857882666
20
-1.87581998353966
30
0
41
1
10
42.3972029475658
20
-1.8577208852619
30
0
41
1
10
42.1384130262593
20
-1.83711746060175
30
0
41
1
10
41.7941340785914
20
-1.80318143368808
30
0
41
1
10
41.3636736775177
20
-1.75343411347316
30
0
41
1
10
40.9314832652697
20
-1.70119676455104
30
0
41
1
10
40.5856719755613
20
-1.65532651174024
30
0
41
1
10
40.3268889050187
20
-1.61754357314973
30
0
41
1
10
40.0680991449031
20
-1.57757923332346
30
0
41
1
10
39.7238207861207
20
-1.51817640988338
30
0
41
1
10
39.2933615854442
20
-1.43797349818948
30
0
41
1
10
38.8611718790867
20
-1.35642131100005
30
0
41
1
10
38.5153607882647
20
-1.28788050998352
30
0
41
1
10
38.2565779475653
20
-1.23378639132386
30
0
41
1
10
37.9977880262597
20
-1.17802838283629
30
0
41
1
10
37.6535090785935
20
-1.0984496582326
30
0
41
1
10
37.2230486775211
20
-0.994922007693958
30
0
41
1
10
36.7908582652724
20
-0.89128886402753
30
0
41
1
10
36.445046975563
20
-0.806148009181413
30
0
41
1
10
36.1862639050201
20
-0.740528090600066
30
0
41
1
10
35.9274741449042
20
-0.673908526867734
30
0
41
1
10
35.5831957861208
20
-0.581203349971673
30
0
41
1
10
35.1527365854434
20
-0.463530171999395
30
0
41
1
10
34.7205468790857
20
-0.347017240986048
30
0
41
1
10
34.3747357882637
20
-0.252841348086605
30
0
41
1
10
34.1159529475643
20
-0.181531485076107
30
0
41
1
10
33.8781133157511
20
-0.11576858036841
30
0
41
1
10
33.7268358174704
20
-0.0730133809266817
30
0
41
1
10
33.6616618039187
20
-0.0545705648172827
30
0
0
SPLINE
5
DD
100
AcDbEntity
8
1
62
256
6
ByLayer
370
18
48
1
60
0
100
AcDbSpline
70
4
71
3
72
22
73
18
40
0
40
0
40
0
40
0
40
0.49999999999994
40
0.49999999999994
40
0.749999999999912
40
0.749999999999912
40
0.874999999999928
40
0.874999999999928
40
0.937499999999968
40
0.937499999999968
40
0.968749999999986
40
0.968749999999986
40
0.984374999999995
40
0.984374999999995
40
0.992187499999998
40
0.992187499999998
40
1
40
1
40
1
40
1
41
1
10
53.8460515056412
20
3.17493994839143
30
0
41
1
10
53.8575595365257
20
3.14854807120702
30
0
41
1
10
53.8692808283975
20
3.12216615701286
30
0
41
1
10
53.8871799889121
20
3.0825995263977
30
0
41
1
10
53.8931949200899
20
3.06942900018578
30
0
41
1
10
53.9023216827945
20
3.04956856116149
30
0
41
1
10
53.9053797293897
20
3.04293723250331
30
0
41
1
10
53.9099465490624
20
3.03315423181385
30
0
41
1
10
53.9114579176082
20
3.02995137981878
30
0
41
1
10
53.9137573903348
20
3.02503518584717
30
0
41
1
10
53.914531996014
20
3.02336675439972
30
0
41
1
10
53.9157175465912
20
3.02076593844308
30
0
41
1
10
53.9161206513097
20
3.01986448877128
30
0
41
1
10
53.9167075415594
20
3.01859294773621
30
0
41
1
10
53.9169041305339
20
3.01817267896897
30
0
41
1
10
53.9172434156918
20
3.01752413494239
30
0
41
1
10
53.9173600207356
20
3.01737857019469
30
0
41
1
10
53.9173839782353
20
3.01746799686586
30
0
0
SPLINE
5
DE
100
AcDbEntity
8
1
62
256
6
ByLayer
370
18
48
1
60
0
100
AcDbSpline
70
4
71
3
72
47
73
43
40
0
40
0
40
0
40
0
40
0.0087193161650946
40
0.0282960483510564
40
0.0478727805370182
40
0.0674495127229808
40
0.087026244908942
40
0.126179709280866
40
0.16533317365279
40
0.184909905838751
40
0.204486638024713
40
0.224063370210673
40
0.243640102396636
40
0.28279356676856
40
0.321947031140485
40
0.341523763326445
40
0.361100495512408
40
0.380677227698368
40
0.400253959884331
40
0.439407424256255
40
0.47856088862818
40
0.498137620814141
40
0.517714353000102
40
0.537291085186067
40
0.556867817372027
40
0.59602128174395
40
0.635174746115874
40
0.654751478301835
40
0.674328210487797
40
0.693904942673759
40
0.713481674859721
40
0.752635139231645
40
0.791788603603569
40
0.811365335789531
40
0.830942067975492
40
0.850518800161454
40
0.870095532347416
40
0.909248996719339
40
0.948402461091263
40
0.967979193277224
40
0.987555925463187
40
1
40
1
40
1
40
1
41
1
10
41.353054385807
20
0.585188923479507
30
0
41
1
10
41.3146269577798
20
0.596863088388773
30
0
41
1
10
41.1899191957814
20
0.634652961863793
30
0
41
1
10
40.9789195318246
20
0.698032330273549
30
0
41
1
10
40.7201101192916
20
0.775280006743827
30
0
41
1
10
40.461342096406
20
0.851379148630372
30
0
41
1
10
40.1163773818688
20
0.950839192706269
30
0
41
1
10
39.6851167771612
20
1.07249156884237
30
0
41
1
10
39.2537471212647
20
1.18890686069264
30
0
41
1
10
38.9086090350218
20
1.2783172217207
30
0
41
1
10
38.6497993972739
20
1.3436805934837
30
0
41
1
10
38.391030832003
20
1.40709383390501
30
0
41
1
10
38.0460653609464
20
1.48915056666354
30
0
41
1
10
37.6148035695507
20
1.58739337132903
30
0
41
1
10
37.1834329479556
20
1.67794031871893
30
0
41
1
10
36.8382945318194
20
1.7451436663747
30
0
41
1
10
36.5794851192844
20
1.79281245157549
30
0
41
1
10
36.3207170963973
20
1.83790179526389
30
0
41
1
10
35.975752381858
20
1.89525991249013
30
0
41
1
10
35.5444917771486
20
1.9613667047775
30
0
41
1
10
35.1131221212516
20
2.01801448820601
30
0
41
1
10
34.7679840350095
20
2.0570604740216
30
0
41
1
10
34.5091743972633
20
2.08281896393524
30
0
41
1
10
34.2504058319947
20
2.1055983118417
30
0
41
1
10
33.9054403609405
20
2.13318304428137
30
0
41
1
10
33.474178569548
20
2.16129473151406
30
0
41
1
10
33.0428079479554
20
2.1790072461047
30
0
41
1
10
32.6976695318203
20
2.1864121596922
30
0
41
1
10
32.4388601192852
20
2.18795339181321
30
0
41
1
10
32.1800920963974
20
2.18637975258662
30
0
41
1
10
31.835127381858
20
2.1817235394883
30
0
41
1
10
31.4038667771481
20
2.16933516059498
30
0
41
1
10
30.972497121251
20
2.14654963110763
30
0
41
1
10
30.627359035009
20
2.12167606484826
30
0
41
1
10
30.3685493972634
20
2.09888737374547
30
0
41
1
10
30.1097808319954
20
2.07312476680616
30
0
41
1
10
29.7648153609415
20
2.03666120269566
30
0
41
1
10
29.3335535695494
20
1.98488253901269
30
0
41
1
10
28.9021829479569
20
1.92361155675482
30
0
41
1
10
28.5570445318218
20
1.8686473517088
30
0
41
1
10
28.3296669728163
20
1.82900587275174
30
0
41
1
10
28.1885776734383
20
1.80325937146924
30
0
41
1
10
28.1337498149301
20
1.79314351620388
30
0
0
SPLINE
5
DF
100
AcDbEntity
8
1
62
256
6
ByLayer
370
18
48
1
60
0
100
AcDbSpline
70
4
71
5
72
16
73
10
40
0
40
0
40
0
40
0
40
0
40
0
40
0.1112129499981
40
0.350238754392367
40
0.589150070033683
40
0.828883782162231
40
1
40
1
40
1
40
1
40
1
40
1
41
1
10
7.95048660535838
20
3.01093826783543
30
0
41
1
10
7.94417731088114
20
2.98771798933066
30
0
41
1
10
7.92398232112202
20
2.91462396230361
30
0
41
1
10
7.88832014546981
20
2.79186228661291
30
0
41
1
10
7.83437113483916
20
2.61974972049356
30
0
41
1
10
7.76344357723747
20
2.41357063884757
30
0
41
1
10
7.69541522689383
20
2.23225285303516
30
0
41
1
10
7.64326410140967
20
2.10099691402837
30
0
41
1
10
7.60938735270605
20
2.01858884175564
30
0
41
1
10
7.59512503020801
20
1.98437324981603
30
0
0
SPLINE
5
E0
100
AcDbEntity
8
1
62
256
6
ByLayer
370
18
48
1
60
0
100
AcDbSpline
70
4
71
3
72
21
73
17
40
0
40
0
40
0
40
0
40
0.0078120771791355
40
0.127602414772962
40
0.187497583569876
40
0.24739275236679
40
0.307287921163703
40
0.367183089960616
40
0.486973427554444
40
0.60676376514827
40
0.666658933945184
40
0.726554102742097
40
0.786449271539011
40
0.846344440335924
40
0.966134777929751
40
1
40
1
40
1
40
1
41
1
10
54.2110352567778
20
2.18748015079959
30
0
41
1
10
54.1997841969432
20
2.18756218719949
30
0
41
1
10
54.0160079833779
20
2.18875762152916
30
0
41
1
10
53.7459329479577
20
2.18700592989347
30
0
41
1
10
53.4007945318227
20
2.17798434590642
30
0
41
1
10
53.1419851192871
20
2.16709571873872
30
0
41
1
10
52.8832170963988
20
2.15312916729758
30
0
41
1
10
52.5382523818589
20
2.13215135531399
30
0
41
1
10
52.1069917771486
20
2.09947948797225
30
0
41
1
10
51.675622121251
20
2.05676095209202
30
0
41
1
10
51.3304840350086
20
2.01622563308163
30
0
41
1
10
51.0716743972627
20
1.98176721654173
30
0
41
1
10
50.8129058319945
20
1.94450832106975
30
0
41
1
10
50.4679403609405
20
1.89301903303945
30
0
41
1
10
50.1604154918767
20
1.84299156844679
30
0
41
1
10
49.9391071687755
20
1.80413238139121
30
0
41
1
10
49.8903299181216
20
1.79542762371776
30
0
0
SPLINE
5
E1
100
AcDbEntity
8
1
62
256
6
ByLayer
370
18
48
1
60
0
100
AcDbSpline
70
4
71
3
72
40
73
36
40
0
40
0
40
0
40
0
40
0.0016667815524057
40
0.0450725736588231
40
0.0884783657652396
40
0.110181261818448
40
0.131884157871657
40
0.153587053924866
40
0.175289949978074
40
0.218695742084491
40
0.262101534190909
40
0.283804430244117
40
0.305507326297326
40
0.327210222350533
40
0.348913118403743
40
0.39231891051016
40
0.435724702616577
40
0.457427598669786
40
0.479130494722994
40
0.500833390776203
40
0.522536286829411
40
0.565942078935829
40
0.609347871042246
40
0.631050767095454
40
0.652753663148663
40
0.674456559201871
40
0.69615945525508
40
0.739565247361497
40
0.782971039467914
40
0.804673935521123
40
0.826376831574331
40
0.84807972762754
40
0.869782623680749
40
0.913188415787166
40
1
40
1
40
1
40
1
41
1
10
19.5193606511489
20
0.610788976676304
30
0
41
1
10
19.512737089958
20
0.612796915012382
30
0
41
1
10
19.3336244203692
20
0.667075302809195
30
0
41
1
10
18.9819917771483
20
0.772644222447326
30
0
41
1
10
18.5506221212509
20
0.898314835331803
30
0
41
1
10
18.2054840350086
20
0.99602707153386
30
0
41
1
10
17.9466743972629
20
1.06820488519153
30
0
41
1
10
17.6879058319948
20
1.13882067668769
30
0
41
1
10
17.3429403609729
20
1.23070361649457
30
0
41
1
10
16.911678569741
20
1.34202562577963
30
0
41
1
10
16.4803079486302
20
1.4468202045442
30
0
41
1
10
16.135169533473
20
1.52613402100138
30
0
41
1
10
15.8763601190753
20
1.5833859069364
30
0
41
1
10
15.6175920955974
20
1.63835081751787
30
0
41
1
10
15.2726273868316
20
1.70898178043109
30
0
41
1
10
14.8413667937933
20
1.79226452187024
30
0
41
1
10
14.4099971535435
20
1.86688648473057
30
0
41
1
10
14.064859079005
20
1.92077442123053
30
0
41
1
10
13.8060494686981
20
1.95803089109896
30
0
41
1
10
13.5472809233269
20
1.99247915178464
30
0
41
1
10
13.2023154324755
20
2.03560326568916
30
0
41
1
10
12.7710535755955
20
2.08346211144036
30
0
41
1
10
12.3396828282949
20
2.12128065985655
30
0
41
1
10
11.9945442465226
20
2.14494245973842
30
0
41
1
10
11.735734936313
20
2.15887748804675
30
0
41
1
10
11.476966899893
20
2.16973211273242
30
0
41
1
10
11.1320015472343
20
2.18150416635572
30
0
41
1
10
10.7007396059123
20
2.18968372372072
30
0
41
1
10
10.2693679252593
20
2.1873517035759
30
0
41
1
10
9.92422807882124
20
2.17871087867437
30
0
41
1
10
9.6654144679438
20
2.16811608854064
30
0
41
1
10
9.40664192863412
20
2.15443949443195
30
0
41
1
10
9.06167865733659
20
2.13382320557361
30
0
41
1
10
8.4580914547976
20
2.08898618324466
30
0
41
1
10
7.94033670454289
20
2.03205089350252
30
0
41
1
10
7.59512503020801
20
1.98437324981603
30
0
0
SPLINE
5
E2
100
AcDbEntity
8
1
62
256
6
ByLayer
370
18
48
1
60
0
100
AcDbSpline
70
4
71
3
72
10
73
6
40
0
40
0
40
0
40
0
40
0.5
40
0.5
40
1
40
1
40
1
40
1
41
1
10
53.9173839782353
20
3.01746799686586
30
0
41
1
10
53.9672851005291
20
2.8804385675526
30
0
41
1
10
54.016496597143
20
2.74253602866224
30
0
41
1
10
54.1141708250403
20
2.46567948254685
30
0
41
1
10
54.1626246852282
20
2.32675247166924
30
0
41
1
10
54.2110352567775
20
2.1874801507999
30
0
0
SPLINE
5
E3
100
AcDbEntity
8
1
62
256
6
ByLayer
370
18
48
1
60
0
100
AcDbSpline
70
4
71
3
72
14
73
10
40
0
40
0
40
0
40
0
40
0.259538045845336
40
0.259538045845336
40
0.519076091690674
40
0.519076091690674
40
0.778614137536011
40
0.778614137536011
40
1
40
1
40
1
40
1
41
1
10
23.25
20
-0.986015835953253
30
0
41
1
10
23.4102760258882
20
-1.05206470004106
30
0
41
1
10
23.5703475459825
20
-1.11729085633928
30
0
41
1
10
23.8902243966909
20
-1.24579731551631
30
0
41
1
10
24.0500533849896
20
-1.30902930875422
30
0
41
1
10
24.3695071159625
20
-1.43342221419312
30
0
41
1
10
24.5291112292847
20
-1.49463160088951
30
0
41
1
10
24.8249828631573
20
-1.60546884075092
30
0
41
1
10
24.9612397325802
20
-1.65545886913239
30
0
41
1
10
25.0975224738084
20
-1.70448817066349
30
0
0
SPLINE
5
E4
100
AcDbEntity
8
1
62
256
6
ByLayer
370
18
48
1
60
0
100
AcDbSpline
70
4
71
3
72
32
73
28
40
0
40
0
40
0
40
0
40
0.030409952908982
40
0.030409952908982
40
0.11855450264453
40
0.11855450264453
40
0.206699052380079
40
0.206699052380079
40
0.294843602115629
40
0.294843602115629
40
0.471132701586726
40
0.471132701586726
40
0.559277251322275
40
0.559277251322275
40
0.647421801057824
40
0.647421801057824
40
0.691494075925599
40
0.691494075925599
40
0.735566350793373
40
0.735566350793373
40
0.823710900528915
40
0.823710900528915
40
0.911855450264458
40
0.911855450264458
40
0.955927725132229
40
0.955927725132229
40
1
40
1
40
1
40
1
41
1
10
48.4989260155485
20
2.24507872734264
30
0
41
1
10
48.5536240874279
20
2.26103748285445
30
0
41
1
10
48.6083067812237
20
2.27678505246928
30
0
41
1
10
48.8214417007859
20
2.33733671835071
30
0
41
1
10
48.9798211990566
20
2.38051688269573
30
0
41
1
10
49.296383888001
20
2.46325964706315
30
0
41
1
10
49.4545848133886
20
2.50280634918516
30
0
41
1
10
49.7711932123833
20
2.57762323698407
30
0
41
1
10
49.9295596909139
20
2.61297576755192
30
0
41
1
10
50.4047867973282
20
2.71298449163942
30
0
41
1
10
50.7218442273058
20
2.77139906926169
30
0
41
1
10
51.1985567182693
20
2.84582857719553
30
0
41
1
10
51.3575881545771
20
2.86850627897303
30
0
41
1
10
51.6762237305747
20
2.90926738149898
30
0
41
1
10
51.835879737142
20
2.92728474534212
30
0
41
1
10
52.0758035578198
20
2.95087307834498
30
0
41
1
10
52.1558529106071
20
2.95815864297634
30
0
41
1
10
52.3161134029064
20
2.97156011143002
30
0
41
1
10
52.3963680474906
20
2.97767898176551
30
0
41
1
10
52.6370485112082
20
2.99423540929627
30
0
41
1
10
52.7973078986024
20
3.00286967847663
30
0
41
1
10
53.1176151670971
20
3.01531014715971
30
0
41
1
10
53.277626829214
20
3.01912521525426
30
0
41
1
10
53.5175242677212
20
3.02125245360645
30
0
41
1
10
53.5974767101764
20
3.02135983443986
30
0
41
1
10
53.757409519461
20
3.02033760537699
30
0
41
1
10
53.8373937780948
20
3.01920545997368
30
0
41
1
10
53.9173839782354
20
3.01746799686555
30
0
0
SPLINE
5
E5
100
AcDbEntity
8
1
62
256
6
ByLayer
370
18
48
1
60
0
100
AcDbSpline
70
2053
71
3
72
112
73
108
40
0
40
0
40
0
40
0
40
0.0312499999999947
40
0.0312499999999947
40
0.0624999999999894
40
0.0624999999999894
40
0.0937499999999841
40
0.0937499999999841
40
0.109374999999981
40
0.109374999999981
40
0.124999999999979
40
0.124999999999979
40
0.156249999999976
40
0.156249999999976
40
0.171874999999977
40
0.171874999999977
40
0.187499999999977
40
0.187499999999977
40
0.218749999999978
40
0.218749999999978
40
0.23437499999998
40
0.23437499999998
40
0.24218749999998
40
0.24218749999998
40
0.249999999999979
40
0.249999999999979
40
0.281249999999982
40
0.281249999999982
40
0.296874999999982
40
0.296874999999982
40
0.304687499999983
40
0.304687499999983
40
0.312499999999983
40
0.312499999999983
40
0.343749999999984
40
0.343749999999984
40
0.359374999999985
40
0.359374999999985
40
0.374999999999985
40
0.390624999999985
40
0.390624999999985
40
0.398437499999985
40
0.398437499999985
40
0.406249999999986
40
0.406249999999986
40
0.437499999999982
40
0.437499999999982
40
0.453124999999981
40
0.453124999999981
40
0.46874999999998
40
0.484374999999978
40
0.484374999999978
40
0.499999999999977
40
0.499999999999977
40
0.531249999999979
40
0.531249999999979
40
0.54687499999998
40
0.54687499999998
40
0.562499999999981
40
0.562499999999981
40
0.593749999999984
40
0.593749999999984
40
0.609374999999985
40
0.609374999999985
40
0.624999999999986
40
0.624999999999986
40
0.656249999999985
40
0.656249999999985
40
0.671874999999984
40
0.671874999999984
40
0.687499999999983
40
0.687499999999983
40
0.718749999999978
40
0.718749999999978
40
0.726562499999977
40
0.726562499999977
40
0.734374999999977
40
0.749999999999976
40
0.765624999999976
40
0.765624999999976
40
0.773437499999975
40
0.773437499999975
40
0.781249999999975
40
0.781249999999975
40
0.812499999999975
40
0.812499999999975
40
0.820312499999976
40
0.820312499999976
40
0.828124999999976
40
0.828124999999976
40
0.843749999999977
40
0.859374999999978
40
0.859374999999978
40
0.874999999999979
40
0.874999999999979
40
0.906249999999981
40
0.906249999999981
40
0.921874999999984
40
0.921874999999984
40
0.937499999999987
40
0.95312499999999
40
0.95312499999999
40
0.968749999999994
40
0.968749999999994
40
0.984374999999997
40
0.984374999999997
40
1
40
1
40
1
40
1
41
1
10
54.1351397380934
20
-1.31696245008257
30
0
41
1
10
54.1226920715302
20
-1.33125249260073
30
0
41
1
10
54.1106917974101
20
-1.34265264207372
30
0
41
1
10
54.0873991972188
20
-1.36001206007745
30
0
41
1
10
54.0760893024646
20
-1.36597447249352
30
0
41
1
10
54.0541038343732
20
-1.3721950025863
30
0
41
1
10
54.0437035480955
20
-1.37238347396016
30
0
41
1
10
54.0288167696069
20
-1.36841778564585
30
0
41
1
10
54.023974352365
20
-1.36638347664794
30
0
41
1
10
54.014509468777
20
-1.36086065299688
30
0
41
1
10
54.0098733341861
20
-1.35735908580679
30
0
41
1
10
53.9963651597411
20
-1.34466141421279
30
0
41
1
10
53.9880310270498
20
-1.33344628230174
30
0
41
1
10
53.9764025058316
20
-1.31255362533676
30
0
41
1
10
53.9726731488921
20
-1.30490696982349
30
0
41
1
10
53.9655019995186
20
-1.28820549241161
30
0
41
1
10
53.9620471606004
20
-1.27911141721992
30
0
41
1
10
53.9522127405627
20
-1.24986353150999
30
0
41
1
10
53.946444879042
20
-1.22806820395294
30
0
41
1
10
53.9389610039338
20
-1.19191123336489
30
0
41
1
10
53.9366630110094
20
-1.17927770535741
30
0
41
1
10
53.933529021959
20
-1.15941368526475
30
0
41
1
10
53.9325366754641
20
-1.15263975631817
30
0
41
1
10
53.9306616705131
20
-1.13877559904807
30
0
41
1
10
53.9297789885702
20
-1.13168011928673
30
0
41
1
10
53.9257039637472
20
-1.09584440012878
30
0
41
1
10
53.92346288608
20
-1.06570169126866
30
0
41
1
10
53.9218021811623
20
-1.01820855681311
30
0
41
1
10
53.9215348110636
20
-1.0019948037752
30
0
41
1
10
53.9216150225137
20
-0.977060671024816
30
0
41
1
10
53.9217232059713
20
-0.96862348246853
30
0
41
1
10
53.9221054727168
20
-0.951768410164249
30
0
41
1
10
53.9223791950486
20
-0.943327900915733
30
0
41
1
10
53.9241677269519
20
-0.901061979058426
30
0
41
1
10
53.9269257632762
20
-0.867048496048994
30
0
41
1
10
53.9333776269476
20
-0.815730825001225
30
0
41
1
10
53.9359348122996
20
-0.798507633296879
30
0
41
1
10
53.9417324262913
20
-0.764956161330673
30
0
41
1
10
53.9482364728724
20
-0.7320629537206
30
0
41
1
10
53.9561835406431
20
-0.700467849382022
30
0
41
1
10
53.9627102502558
20
-0.677266384282945
30
0
41
1
10
53.9649883498004
20
-0.669590882585027
30
0
41
1
10
53.9696861518941
20
-0.654574851547693
30
0
41
1
10
53.9721075196071
20
-0.647225218025653
30
0
41
1
10
53.9845698906645
20
-0.611242781234978
30
0
41
1
10
53.9956707524851
20
-0.584885045129681
30
0
41
1
10
54.0139761208845
20
-0.548780051158531
30
0
41
1
10
54.0202832993888
20
-0.537466727195095
30
0
41
1
10
54.033196300743
20
-0.516324760916973
30
0
41
1
10
54.0464350088679
20
-0.496613715647271
30
0
41
1
10
54.0602839041446
20
-0.479613511738307
30
0
41
1
10
54.074422007223
20
-0.463932108069741
30
0
41
1
10
54.0815515011781
20
-0.456844723171884
30
0
41
1
10
54.1030456161132
20
-0.437721275023904
30
0
41
1
10
54.1175368524162
20
-0.427782733240974
30
0
41
1
10
54.1394110136585
20
-0.41679441768278
30
0
41
1
10
54.1467371964171
20
-0.413791145975551
30
0
41
1
10
54.1611953571988
20
-0.409156129376413
30
0
41
1
10
54.1683547079602
20
-0.407508159965602
30
0
41
1
10
54.1896031689049
20
-0.404498423925247
30
0
41
1
10
54.2034651892395
20
-0.405053962332005
30
0
41
1
10
54.2236815273246
20
-0.409752439813047
30
0
41
1
10
54.2303307505552
20
-0.411976778578719
30
0
41
1
10
54.2431973764208
20
-0.417662044311982
30
0
41
1
10
54.2494426110891
20
-0.421126960728202
30
0
41
1
10
54.2675877840168
20
-0.433383027326897
30
0
41
1
10
54.2789029249842
20
-0.444016468462252
30
0
41
1
10
54.2945087119039
20
-0.463956034189721
30
0
41
1
10
54.2995001206637
20
-0.471304662251185
30
0
41
1
10
54.308882951526
20
-0.487301117894617
30
0
41
1
10
54.3132504456324
20
-0.495898819109868
30
0
41
1
10
54.3253442412856
20
-0.523531223067323
30
0
41
1
10
54.3320724679233
20
-0.54438182022173
30
0
41
1
10
54.3385594032859
20
-0.573915831745552
30
0
41
1
10
54.3397627572768
20
-0.580017601760375
30
0
41
1
10
54.3419422847233
20
-0.592449602132234
30
0
41
1
10
54.3448775130103
20
-0.611463160561669
30
0
41
1
10
54.3481042681485
20
-0.644980523027868
30
0
41
1
10
54.3488816176509
20
-0.673800248090686
30
0
41
1
10
54.3487602869984
20
-0.696213791141361
30
0
41
1
10
54.3486022658789
20
-0.703818372946927
30
0
41
1
10
54.3480438445197
20
-0.719305931742383
30
0
41
1
10
54.3476409743325
20
-0.727220199314502
30
0
41
1
10
54.3450368947779
20
-0.766986498808876
30
0
41
1
10
54.3410934250687
20
-0.799567470042945
30
0
41
1
10
54.3339980194863
20
-0.84127693908016
30
0
41
1
10
54.33246965625
20
-0.849668504548333
30
0
41
1
10
54.3291943951031
20
-0.866553693548042
30
0
41
1
10
54.3274408728851
20
-0.875076087062922
30
0
41
1
10
54.3219217561372
20
-0.900481137356621
30
0
41
1
10
54.3138600569426
20
-0.93403697685946
30
0
41
1
10
54.3045229951921
20
-0.967003702969464
30
0
41
1
10
54.2945887661036
20
-0.999687957666652
30
0
41
1
10
54.2892938929568
20
-1.0159651726226
30
0
41
1
10
54.2729191512909
20
-1.06332807380267
30
0
41
1
10
54.2612831907733
20
-1.09324776175302
30
0
41
1
10
54.242952145791
20
-1.13584888127659
30
0
41
1
10
54.2366888154846
20
-1.14966665318335
30
0
41
1
10
54.2241441451703
20
-1.17599974280498
30
0
41
1
10
54.2115170488833
20
-1.20118573485607
30
0
41
1
10
54.1987487108984
20
-1.2241801885755
30
0
41
1
10
54.1859137942795
20
-1.24609377047275
30
0
41
1
10
54.1794464410798
20
-1.25653111604942
30
0
41
1
10
54.1666463385852
20
-1.27601119239304
30
0
41
1
10
54.1602906073666
20
-1.28509611448317
30
0
41
1
10
54.1476584979006
20
-1.30198862955515
30
0
41
1
10
54.141363571375
20
-1.30981742882349
30
0
41
1
10
54.1351397380934
20
-1.31696245008257
30
0
0
SPLINE
5
E6
100
AcDbEntity
8
1
62
256
6
ByLayer
370
18
48
1
60
0
100
AcDbSpline
70
4
71
3
72
10
73
6
40
0
40
0
40
0
40
0
40
0.5
40
0.5
40
1
40
1
40
1
40
1
41
1
10
53.9173839782353
20
-3.01746799686586
30
0
41
1
10
53.9672851005291
20
-2.8804385675526
30
0
41
1
10
54.016496597143
20
-2.74253602866224
30
0
41
1
10
54.1141708250403
20
-2.46567948254685
30
0
41
1
10
54.1626246852282
20
-2.32675247166924
30
0
41
1
10
54.2110352567775
20
-2.1874801507999
30
0
0
SPLINE
5
E7
100
AcDbEntity
8
1
62
256
6
ByLayer
370
18
48
1
60
0
100
AcDbSpline
70
4
71
3
72
8
73
4
40
0
40
0
40
0
40
0
40
1
40
1
40
1
40
1
41
1
10
54.2110352567778
20
-2.18748015079959
30
0
41
1
10
54.2364186851112
20
-2.11445492936306
30
0
41
1
10
54.2623793269754
20
-2.0413092564763
30
0
41
1
10
54.2891387376738
20
-1.96842360318513
30
0
0
SPLINE
5
E8
100
AcDbEntity
8
1
62
256
6
ByLayer
370
18
48
1
60
0
100
AcDbSpline
70
4
71
3
72
16
73
12
40
0
40
0
40
0
40
0
40
0.25
40
0.25
40
0.5
40
0.5
40
0.75
40
0.75
40
0.875
40
0.875
40
1
40
1
40
1
40
1
41
1
10
54.2891387376731
20
-1.9684236031847
30
0
41
1
10
54.3181714848055
20
-1.88934597451617
30
0
41
1
10
54.3478730747694
20
-1.81133212915529
30
0
41
1
10
54.4092204876715
20
-1.65762589333221
30
0
41
1
10
54.4408566904274
20
-1.58191887349369
30
0
41
1
10
54.5065222501178
20
-1.43289172950114
30
0
41
1
10
54.5405660524203
20
-1.3595931069452
30
0
41
1
10
54.5938827092144
20
-1.25168084300179
30
0
41
1
10
54.6120558844455
20
-1.21600396625098
30
0
41
1
10
54.6487889967324
20
-1.14615233164528
30
0
41
1
10
54.6673961586532
20
-1.11187665895929
30
0
41
1
10
54.68625583188
20
-1.07822311583962
30
0
0
SPLINE
5
E9
100
AcDbEntity
8
1
62
256
6
ByLayer
370
18
48
1
60
0
100
AcDbSpline
70
4
71
3
72
8
73
4
40
0
40
0
40
0
40
0
40
1
40
1
40
1
40
1
41
1
10
54.6862558318799
20
-1.07822311583959
30
0
41
1
10
54.7930442287933
20
-0.778388993087191
30
0
41
1
10
54.8966674659367
20
-0.477417586657509
30
0
41
1
10
54.9970721229728
20
-0.175289701918246
30
0
0
SPLINE
5
EA
100
AcDbEntity
8
1
62
256
6
ByLayer
370
18
48
1
60
0
100
AcDbSpline
70
4
71
3
72
8
73
4
40
0
40
0
40
0
40
0
40
1
40
1
40
1
40
1
41
1
10
54.9970721229682
20
0.175289701931973
30
0
41
1
10
55.0009784708982
20
0.0583547081585323
30
0
41
1
10
55.0009734503436
20
-0.0585049964865902
30
0
41
1
10
54.9970721229686
20
-0.175289701922281
30
0
0
SPLINE
5
EB
100
AcDbEntity
8
1
62
256
6
ByLayer
370
18
48
1
60
0
100
AcDbSpline
70
4
71
3
72
8
73
4
40
0
40
0
40
0
40
0
40
1
40
1
40
1
40
1
41
1
10
54.9970721229682
20
0.175289701931973
30
0
41
1
10
54.9833577138199
20
0.129578514017425
30
0
41
1
10
54.9695750580022
20
0.0838892090180821
30
0
41
1
10
54.9557244152772
20
0.0382217036427335
30
0
0
SPLINE
5
EC
100
AcDbEntity
8
1
62
256
6
ByLayer
370
18
48
1
60
0
100
AcDbSpline
70
4
71
3
72
44
73
40
40
0
40
0
40
0
40
0
40
0.124999999999984
40
0.124999999999984
40
0.15624999999998
40
0.15624999999998
40
0.187499999999976
40
0.187499999999976
40
0.249999999999968
40
0.249999999999968
40
0.31249999999996
40
0.31249999999996
40
0.343749999999963
40
0.343749999999963
40
0.374999999999967
40
0.374999999999967
40
0.437499999999975
40
0.437499999999975
40
0.468749999999987
40
0.468749999999987
40
0.499999999999998
40
0.499999999999998
40
0.562500000000006
40
0.562500000000006
40
0.593750000000003
40
0.593750000000003
40
0.625
40
0.625
40
0.687499999999993
40
0.687499999999993
40
0.718749999999996
40
0.718749999999996
40
0.75
40
0.75
40
0.875
40
0.875
40
0.9375
40
0.9375
40
1
40
1
40
1
40
1
41
1
10
54.9557244152772
20
0.0382217036427335
30
0
41
1
10
54.9403553904129
20
-0.0124521199144567
30
0
41
1
10
54.9226855516943
20
-0.0619674276741762
30
0
41
1
10
54.897613958488
20
-0.122309325694829
30
0
41
1
10
54.8924484634516
20
-0.134299065874785
30
0
41
1
10
54.8818030619649
20
-0.15811373430634
30
0
41
1
10
54.8763321611139
20
-0.169914321375842
30
0
41
1
10
54.8597077584271
20
-0.204492028564033
30
0
41
1
10
54.8482624671101
20
-0.226633530469456
30
0
41
1
10
54.8246639272713
20
-0.269039375579382
30
0
41
1
10
54.8125111647841
20
-0.28930495120531
30
0
41
1
10
54.7937238097179
20
-0.318170784955242
30
0
41
1
10
54.7873360061703
20
-0.327578907079925
30
0
41
1
10
54.7745979984164
20
-0.345523163222737
30
0
41
1
10
54.7682331546382
20
-0.354086039516147
30
0
41
1
10
54.7491512257848
20
-0.378561169834683
30
0
41
1
10
54.7364474933168
20
-0.393265890713394
30
0
41
1
10
54.7174055444256
20
-0.412854758925562
30
0
41
1
10
54.7110603214199
20
-0.418971550632648
30
0
41
1
10
54.6983695224865
20
-0.43035210269511
30
0
41
1
10
54.6920621389078
20
-0.435577961790869
30
0
41
1
10
54.673477586015
20
-0.449702741244835
30
0
41
1
10
54.6614398537266
20
-0.457144352535835
30
0
41
1
10
54.6438419620187
20
-0.465460404874989
30
0
41
1
10
54.6380526375707
20
-0.46775629828673
30
0
41
1
10
54.6266175379592
20
-0.471396000209921
30
0
41
1
10
54.6209792961565
20
-0.472733000327224
30
0
41
1
10
54.6045238052589
20
-0.475292236301755
30
0
41
1
10
54.5940711557116
20
-0.475101848941961
30
0
41
1
10
54.5790452493262
20
-0.4721933046618
30
0
41
1
10
54.5741459390782
20
-0.470785031307486
30
0
41
1
10
54.5645501645413
20
-0.467111599439534
30
0
41
1
10
54.559842893981
20
-0.464837617360928
30
0
41
1
10
54.5370673668696
20
-0.451547290302557
30
0
41
1
10
54.5210224406342
20
-0.434811701985581
30
0
41
1
10
54.4992375467104
20
-0.402178910391939
30
0
41
1
10
54.4923419854066
20
-0.38997938980188
30
0
41
1
10
54.479369762665
20
-0.36344847106929
30
0
41
1
10
54.473289311161
20
-0.349128072659795
30
0
41
1
10
54.4675604349462
20
-0.333835491431841
30
0
0
SPLINE
5
ED
100
AcDbEntity
8
1
62
256
6
ByLayer
370
18
48
1
60
0
100
AcDbSpline
70
4
71
3
72
8
73
4
40
0
40
0
40
0
40
0
40
1
40
1
40
1
40
1
41
1
10
54.4675604349466
20
-0.333835491431358
30
0
41
1
10
54.3992260382187
20
-0.15142461825954
30
0
41
1
10
54.3194699084214
20
0.038545139175028
30
0
41
1
10
54.2283535345348
20
0.236033087566995
30
0
0
SPLINE
5
EE
100
AcDbEntity
8
1
62
256
6
ByLayer
370
18
48
1
60
0
100
AcDbSpline
70
4
71
3
72
8
73
4
40
0
40
0
40
0
40
0
40
1
40
1
40
1
40
1
41
1
10
54.2283535345351
20
0.236033087567563
30
0
41
1
10
54.2127673663294
20
0.24128786917575
30
0
41
1
10
54.1972923584123
20
0.247660046246523
30
0
41
1
10
54.1819102697281
20
0.255258216054074
30
0
0
SPLINE
5
EF
100
AcDbEntity
8
1
62
256
6
ByLayer
370
18
48
1
60
0
100
AcDbSpline
70
4
71
3
72
16
73
12
40
0
40
0
40
0
40
0
40
0.499999999999963
40
0.499999999999963
40
0.749999999999943
40
0.749999999999943
40
0.874999999999975
40
0.937499999999989
40
0.968749999999994
40
0.968749999999994
40
1
40
1
40
1
40
1
41
1
10
54.1819102697281
20
0.255258216054074
30
0
41
1
10
54.1664819118168
20
0.262879241109545
30
0
41
1
10
54.1512300945126
20
0.27164681852102
30
0
41
1
10
54.1285455258003
20
0.286227790595575
30
0
41
1
10
54.1210185523888
20
0.291326076273975
30
0
41
1
10
54.109772698658
20
0.299318976781763
30
0
41
1
10
54.1041619397285
20
0.303401088128908
30
0
41
1
10
54.097635370017
20
0.30830927167483
30
0
41
1
10
54.0948420530068
20
0.310442961982943
30
0
41
1
10
54.0929805697729
20
0.311871715578206
30
0
41
1
10
54.0920635299948
20
0.312643132981322
30
0
41
1
10
54.0911195744366
20
0.313307486934292
30
0
0
SPLINE
5
F0
100
AcDbEntity
8
1
62
256
6
ByLayer
370
18
48
1
60
0
100
AcDbSpline
70
4
71
3
72
34
73
30
40
0
40
0
40
0
40
0
40
0.0625000000000112
40
0.0625000000000112
40
0.0937500000000091
40
0.0937500000000091
40
0.125000000000007
40
0.125000000000007
40
0.187500000000003
40
0.187500000000003
40
0.249999999999999
40
0.249999999999999
40
0.312499999999995
40
0.312499999999995
40
0.374999999999991
40
0.374999999999991
40
0.437499999999987
40
0.437499999999987
40
0.499999999999982
40
0.499999999999982
40
0.624999999999991
40
0.624999999999991
40
0.75
40
0.75
40
0.875000000000008
40
0.875000000000008
40
0.937500000000004
40
0.937500000000004
40
1
40
1
40
1
40
1
41
1
10
54.0911195744366
20
0.313307486934292
30
0
41
1
10
54.0799653131803
20
0.321158676182421
30
0
41
1
10
54.0685658045263
20
0.327808466814616
30
0
41
1
10
54.0514866351338
20
0.338339589191435
30
0
41
1
10
54.0457802490905
20
0.341842614158594
30
0
41
1
10
54.0342832943685
20
0.348447122726498
30
0
41
1
10
54.0285001460063
20
0.351595542097897
30
0
41
1
10
54.0110707751718
20
0.360712562992035
30
0
41
1
10
53.9993352165164
20
0.366293798685348
30
0
41
1
10
53.9756044353451
20
0.376110794195853
30
0
41
1
10
53.9636090668046
20
0.380342784812882
30
0
41
1
10
53.9393861562445
20
0.387456528040246
30
0
41
1
10
53.9271659758288
20
0.390389575424479
30
0
41
1
10
53.9025767151574
20
0.395360652871489
30
0
41
1
10
53.8902006983077
20
0.397342816408525
30
0
41
1
10
53.8653740709264
20
0.400885864299511
30
0
41
1
10
53.8529366851478
20
0.402564984450521
30
0
41
1
10
53.8279651526982
20
0.405254884684069
30
0
41
1
10
53.8154254246433
20
0.406211272247248
30
0
41
1
10
53.7776870042741
20
0.408097394362727
30
0
41
1
10
53.7525409452344
20
0.408031251628785
30
0
41
1
10
53.7024146176676
20
0.404758649524609
30
0
41
1
10
53.6774368934422
20
0.401512841158677
30
0
41
1
10
53.6277612485328
20
0.39213528254956
30
0
41
1
10
53.6030617551326
20
0.386044555218319
30
0
41
1
10
53.5662688978156
20
0.37526004929174
30
0
41
1
10
53.5540450902604
20
0.371420780017616
30
0
41
1
10
53.5296828633287
20
0.363322214998931
30
0
41
1
10
53.5175461536659
20
0.35903583955934
30
0
41
1
10
53.5054651928369
20
0.354435712390199
30
0
0
SPLINE
5
F1
100
AcDbEntity
8
1
62
256
6
ByLayer
370
18
48
1
60
0
100
AcDbSpline
70
4
71
3
72
14
73
10
40
0
40
0
40
0
40
0
40
0.25
40
0.25
40
0.5
40
0.5
40
0.75
40
0.75
40
1
40
1
40
1
40
1
41
1
10
5.90089572545085
20
-2.71278416427083
30
0
41
1
10
5.90892985419765
20
-2.71112566606158
30
0
41
1
10
5.91724342255475
20
-2.7101020063572
30
0
41
1
10
5.93417396862995
20
-2.7087502753252
30
0
41
1
10
5.94282708383221
20
-2.70844853324539
30
0
41
1
10
5.96003074692899
20
-2.70847638571817
30
0
41
1
10
5.9686611193967
20
-2.70880600571709
30
0
41
1
10
5.98569678283513
20
-2.71005841524621
30
0
41
1
10
5.99413522812222
20
-2.71098422419269
30
0
41
1
10
6.00240288897947
20
-2.71225861052025
30
0
0
SPLINE
5
F2
100
AcDbEntity
8
1
62
256
6
ByLayer
370
18
48
1
60
0
100
AcDbSpline
70
4
71
3
72
26
73
22
40
0
40
0
40
0
40
0
40
0.0726146006095888
40
0.0726146006095888
40
0.165353140548625
40
0.165353140548625
40
0.258091680487662
40
0.258091680487662
40
0.350830220426698
40
0.350830220426698
40
0.443568760365735
40
0.443568760365735
40
0.489938030335253
40
0.489938030335253
40
0.536307300304771
40
0.536307300304771
40
0.629045840243814
40
0.629045840243814
40
0.814522920121907
40
0.814522920121907
40
1
40
1
40
1
40
1
41
1
10
4.05768243464462
20
-3.14388171041486
30
0
41
1
10
4.07981864577354
20
-3.14382993213343
30
0
41
1
10
4.1054053048714
20
-3.14221993288939
30
0
41
1
10
4.17030433964683
20
-3.13561165091645
30
0
41
1
10
4.21149530821751
20
-3.12978706626734
30
0
41
1
10
4.30180112208333
20
-3.11468260260568
30
0
41
1
10
4.35007026612868
20
-3.10554936426791
30
0
41
1
10
4.45148520779708
20
-3.08488536217465
30
0
41
1
10
4.50464020291446
20
-3.07334945737372
30
0
41
1
10
4.61495468307686
20
-3.04837413610696
30
0
41
1
10
4.67211867484855
20
-3.03493219961058
30
0
41
1
10
4.76040751290745
20
-3.01360386869132
30
0
41
1
10
4.79028883837537
20
-3.00629275545666
30
0
41
1
10
4.85072305690599
20
-2.99134450959923
30
0
41
1
10
4.88121181136086
20
-2.98372342515802
30
0
41
1
10
4.97342190288731
20
-2.96046761047631
30
0
41
1
10
5.03588435262873
20
-2.94444215583226
30
0
41
1
10
5.22579340535799
20
-2.89510409646721
30
0
41
1
10
5.3557398359834
20
-2.86054455055353
30
0
41
1
10
5.62075503359756
20
-2.78915419614879
30
0
41
1
10
5.75583703854568
20
-2.75231442473162
30
0
41
1
10
5.89300845842666
20
-2.71466358554198
30
0
0
SPLINE
5
F3
100
AcDbEntity
8
1
62
256
6
ByLayer
370
18
48
1
60
0
100
AcDbSpline
70
4
71
3
72
20
73
16
40
0
40
0
40
0
40
0
40
0.0084154394308501
40
0.0084154394308501
40
0.0168308791873791
40
0.0168308791873791
40
0.050492815192224
40
0.050492815192224
40
0.185148794048048
40
0.185148794048048
40
0.724242195441936
40
0.724242195441936
40
0.993598178282173
40
0.993598178282173
40
1
40
1
40
1
40
1
41
1
10
5.89300843512953
20
-2.71466359190725
30
0
41
1
10
5.89302994006175
20
-2.71465768922383
30
0
41
1
10
5.89305144994762
20
-2.71465179107611
30
0
41
1
10
5.89309448078936
20
-2.71464000496212
30
0
41
1
10
5.89311600175103
20
-2.71463411699574
30
0
41
1
10
5.89322363777182
20
-2.71460470570258
30
0
41
1
10
5.89330986933885
20
-2.71458128989548
30
0
41
1
10
5.89374143629664
20
-2.71446458109497
30
0
41
1
10
5.89408821757888
20
-2.71437262255904
30
0
41
1
10
5.89582988025373
20
-2.71391968182374
30
0
41
1
10
5.89724679552967
20
-2.71357939584195
30
0
41
1
10
5.89939756649639
20
-2.71309963024439
30
0
41
1
10
5.90011885047889
20
-2.71294481339621
30
0
41
1
10
5.90086124549705
20
-2.71279128520203
30
0
41
1
10
5.90087848436653
20
-2.71278772337575
30
0
41
1
10
5.90089572545082
20
-2.7127841642708
30
0
0
SPLINE
5
F4
100
AcDbEntity
8
1
62
256
6
ByLayer
370
18
48
1
60
0
100
AcDbSpline
70
4
71
3
72
16
73
12
40
0
40
0
40
0
40
0
40
0.0895335120196162
40
0.0895335120196162
40
0.271626808049442
40
0.271626808049442
40
0.453720104075362
40
0.453720104075362
40
0.817906703979001
40
0.817906703979001
40
1
40
1
40
1
40
1
41
1
10
6.00240288894426
20
-2.71225861058781
30
0
41
1
10
6.00274230229473
20
-2.71231092813596
30
0
41
1
10
6.00308171161933
20
-2.71236324804394
30
0
41
1
10
6.00411139939305
20
-2.71252198331524
30
0
41
1
10
6.00480166521237
20
-2.71262840607127
30
0
41
1
10
6.00618216349727
20
-2.71284127103459
30
0
41
1
10
6.0068723959948
20
-2.71294771319773
30
0
41
1
10
6.0089430435126
20
-2.7132670686594
30
0
41
1
10
6.01032340859445
20
-2.71348001089663
30
0
41
1
10
6.01239385589622
20
-2.71379948216304
30
0
41
1
10
6.01308398838276
20
-2.71390598206739
30
0
41
1
10
6.01377410415679
20
-2.71401249157117
30
0
0
SPLINE
5
F5
100
AcDbEntity
8
1
62
256
6
ByLayer
370
18
48
1
60
0
100
AcDbSpline
70
4
71
3
72
10
73
6
40
0
40
0
40
0
40
0
40
0.5
40
0.5
40
1
40
1
40
1
40
1
41
1
10
6.01377666949045
20
-2.71401288749391
30
0
41
1
10
6.34529642924227
20
-2.76517823742262
30
0
41
1
10
6.67188770018004
20
-2.81843818160436
30
0
41
1
10
7.31679428201727
20
-2.92042015116462
30
0
41
1
10
7.63510885661793
20
-2.96910336806201
30
0
41
1
10
7.95048660535838
20
-3.01093826783543
30
0
0
SPLINE
5
F6
100
AcDbEntity
8
1
62
256
6
ByLayer
370
18
48
1
60
0
100
AcDbSpline
70
4
71
3
72
14
73
10
40
0
40
0
40
0
40
0
40
0.470920707536922
40
0.470920707536922
40
0.706381061305383
40
0.706381061305383
40
0.941841415073844
40
0.941841415073844
40
1
40
1
40
1
40
1
41
1
10
7.95048660535835
20
-3.01093826783543
30
0
41
1
10
8.27207427734535
20
-3.05349658597444
30
0
41
1
10
8.59253608313287
20
-3.08618229841596
30
0
41
1
10
9.0721396473115
20
-3.12027824818716
30
0
41
1
10
9.23182893026106
20
-3.12914979061748
30
0
41
1
10
9.55104628107617
20
-3.141867852866
30
0
41
1
10
9.71059084116806
20
-3.14571674723919
30
0
41
1
10
9.90945156897496
20
-3.14738727276713
30
0
41
1
10
9.94883828748473
20
-3.14756447031507
30
0
41
1
10
9.98822481077923
20
-3.14758826924526
30
0
0
SPLINE
5
F7
100
AcDbEntity
8
1
62
256
6
ByLayer
370
18
48
1
60
0
100
AcDbSpline
70
4
71
3
72
8
73
4
40
0
40
0
40
0
40
0
40
1
40
1
40
1
40
1
41
1
10
53.846051505648
20
-3.17493994837284
30
0
41
1
10
53.8330079247654
20
-3.1758644246753
30
0
41
1
10
53.8239527855423
20
-3.16597525018196
30
0
41
1
10
53.8170914582394
20
-3.14479008847832
30
0
0
SPLINE
5
F8
100
AcDbEntity
8
1
62
256
6
ByLayer
370
18
48
1
60
0
100
AcDbSpline
70
4
71
3
72
12
73
8
40
0
40
0
40
0
40
0
40
0.500000000000066
40
0.500000000000066
40
0.750000000000033
40
0.750000000000033
40
1
40
1
40
1
40
1
41
1
10
3.64656831982526
20
-1.4217850548014
30
0
41
1
10
3.62725043887758
20
-1.41394987624358
30
0
41
1
10
3.60944448680505
20
-1.4041078014466
30
0
41
1
10
3.58493139556421
20
-1.38638337777769
30
0
41
1
10
3.57707946079731
20
-1.37992390184618
30
0
41
1
10
3.56246589737958
20
-1.36624295374247
30
0
41
1
10
3.55569732835932
20
-1.35903150653695
30
0
41
1
10
3.54945394270956
20
-1.35145392376037
30
0
0
SPLINE
5
F9
100
AcDbEntity
8
1
62
256
6
ByLayer
370
18
48
1
60
0
100
AcDbSpline
70
4
71
3
72
12
73
8
40
0
40
0
40
0
40
0
40
0.500000000000003
40
0.500000000000003
40
0.750000000000001
40
0.750000000000001
40
1
40
1
40
1
40
1
41
1
10
3.54945394270948
20
-1.35145392376012
30
0
41
1
10
3.53948490189924
20
-1.33935452190028
30
0
41
1
10
3.53162102080046
20
-1.3262502611629
30
0
41
1
10
3.52327852184382
20
-1.30492048849681
30
0
41
1
10
3.52110460896128
20
-1.29754100546191
30
0
41
1
10
3.51818677978969
20
-1.28268394681135
30
0
41
1
10
3.51741450534595
20
-1.27514698555362
30
0
41
1
10
3.51741622984577
20
-1.26748834169868
30
0
0
SPLINE
5
FA
100
AcDbEntity
8
1
62
256
6
ByLayer
370
18
48
1
60
0
100
AcDbSpline
70
4
71
3
72
8
73
4
40
0
40
0
40
0
40
0
40
1
40
1
40
1
40
1
41
1
10
3.51877713603656
20
3.02425007456867
30
0
41
1
10
3.73728991334221
20
2.99657223465689
30
0
41
1
10
3.95588077280755
20
2.96439394857768
30
0
41
1
10
4.17463679549493
20
2.92799037271658
30
0
0
SPLINE
5
FB
100
AcDbEntity
8
1
62
256
6
ByLayer
370
18
48
1
60
0
100
AcDbSpline
70
4
71
3
72
44
73
40
40
0
40
0
40
0
40
0
40
0.0625000000000061
40
0.0625000000000061
40
0.0781250000000066
40
0.0781250000000066
40
0.093750000000007
40
0.125000000000006
40
0.125000000000006
40
0.187500000000004
40
0.187500000000004
40
0.203125000000004
40
0.203125000000004
40
0.218750000000004
40
0.250000000000004
40
0.281250000000003
40
0.296875000000003
40
0.296875000000003
40
0.312500000000004
40
0.312500000000004
40
0.375000000000004
40
0.375000000000004
40
0.437500000000004
40
0.437500000000004
40
0.500000000000004
40
0.500000000000004
40
0.562500000000004
40
0.562500000000004
40
0.625000000000004
40
0.625000000000004
40
0.656250000000002
40
0.656250000000002
40
0.6875
40
0.6875
40
0.75
40
0.75
40
0.875
40
0.875
40
1
40
1
40
1
40
1
41
1
10
4.17463679550994
20
2.92799037271948
30
0
41
1
10
4.13576512823366
20
2.95266635546673
30
0
41
1
10
4.10096808232595
20
2.97612604322822
30
0
41
1
10
4.0638495529256
20
3.0035596561159
30
0
41
1
10
4.05674480547699
20
3.00895383995484
30
0
41
1
10
4.04333612899495
20
3.01944579495037
30
0
41
1
10
4.02437395467925
20
3.03477573619216
30
0
41
1
10
4.00894891034915
20
3.04885419903445
30
0
41
1
10
3.98308343677652
20
3.07525650334154
30
0
41
1
10
3.97246339875716
20
3.09052519164513
30
0
41
1
10
3.96864810707135
20
3.10632416055393
30
0
41
1
10
3.96836419644131
20
3.10931704225379
30
0
41
1
10
3.96876004107685
20
3.11489300061732
30
0
41
1
10
3.97078900104907
20
3.12267489649463
30
0
41
1
10
3.98119911575864
20
3.13280482883977
30
0
41
1
10
4.00065243274588
20
3.13931037300347
30
0
41
1
10
4.01627361928647
20
3.14164509957487
30
0
41
1
10
4.02755450021104
20
3.14285897454388
30
0
41
1
10
4.03364087474162
20
3.14329431333204
30
0
41
1
10
4.06586058223732
20
3.14462307074507
30
0
41
1
10
4.0975069109611
20
3.14302417927414
30
0
41
1
10
4.17030433964683
20
3.13561165091642
30
0
41
1
10
4.21149530821748
20
3.12978706626734
30
0
41
1
10
4.30180112208328
20
3.11468260260568
30
0
41
1
10
4.35007026612868
20
3.10554936426791
30
0
41
1
10
4.45148520779705
20
3.08488536217465
30
0
41
1
10
4.50464020291446
20
3.07334945737372
30
0
41
1
10
4.61495468307683
20
3.04837413610696
30
0
41
1
10
4.67211867484849
20
3.03493219961058
30
0
41
1
10
4.76040751290739
20
3.01360386869132
30
0
41
1
10
4.79028883837535
20
3.00629275545666
30
0
41
1
10
4.85072305690599
20
2.99134450959923
30
0
41
1
10
4.88121181136086
20
2.98372342515802
30
0
41
1
10
4.97342190288731
20
2.96046761047634
30
0
41
1
10
5.03588435262873
20
2.94444215583229
30
0
41
1
10
5.22579340535799
20
2.89510409646721
30
0
41
1
10
5.35573983598337
20
2.86054455055353
30
0
41
1
10
5.62075503359756
20
2.78915419614879
30
0
41
1
10
5.75583703854568
20
2.75231442473162
30
0
41
1
10
5.89300845842666
20
2.71466358554198
30
0
0
SPLINE
5
FC
100
AcDbEntity
8
1
62
256
6
ByLayer
370
18
48
1
60
0
100
AcDbSpline
70
4
71
3
72
20
73
16
40
0
40
0
40
0
40
0
40
0.0084154342786438
40
0.0084154342786438
40
0.0168308688819583
40
0.0168308688819583
40
0.050492784272115
40
0.050492784272115
40
0.185148680652244
40
0.185148680652244
40
0.724241751316679
40
0.724241751316679
40
0.993597569131956
40
0.993597569131956
40
1
40
1
40
1
40
1
41
1
10
5.89300843512956
20
2.71466359190725
30
0
41
1
10
5.89302994004856
20
2.71465768922744
30
0
41
1
10
5.89305144992125
20
2.71465179108333
30
0
41
1
10
5.89309448073664
20
2.71464000497656
30
0
41
1
10
5.89311600168509
20
2.71463411701376
30
0
41
1
10
5.89322363763984
20
2.71460470573857
30
0
41
1
10
5.89330986915385
20
2.71458128994561
30
0
41
1
10
5.89374143584672
20
2.71446458121619
30
0
41
1
10
5.89408821691438
20
2.71437262273471
30
0
41
1
10
5.89582987850966
20
2.71391968226592
30
0
41
1
10
5.89724679289333
20
2.71357939647015
30
0
41
1
10
5.89939756249697
20
2.71309963111645
30
0
41
1
10
5.9001188460208
20
2.71294481434367
30
0
41
1
10
5.90086124221639
20
2.71279128587989
30
0
41
1
10
5.900878482726
20
2.71278772371443
30
0
41
1
10
5.90089572545082
20
2.7127841642708
30
0
0
SPLINE
5
FD
100
AcDbEntity
8
1
62
256
6
ByLayer
370
18
48
1
60
0
100
AcDbSpline
70
4
71
3
72
14
73
10
40
0
40
0
40
0
40
0
40
0.25
40
0.25
40
0.5
40
0.5
40
0.75
40
0.75
40
1
40
1
40
1
40
1
41
1
10
5.90089572545085
20
2.7127841642708
30
0
41
1
10
5.90892985419734
20
2.71112566606163
30
0
41
1
10
5.91724342255418
20
2.71010200635726
30
0
41
1
10
5.93417396862867
20
2.70875027532529
30
0
41
1
10
5.94282708383059
20
2.70844853324542
30
0
41
1
10
5.96003074692672
20
2.70847638571811
30
0
41
1
10
5.96866111939411
20
2.70880600571698
30
0
41
1
10
5.98569678283195
20
2.7100584152459
30
0
41
1
10
5.99413522811926
20
2.71098422419124
30
0
41
1
10
6.00240288897572
20
2.71225861051968
30
0
0
SPLINE
5
FE
100
AcDbEntity
8
1
62
256
6
ByLayer
370
18
48
1
60
0
100
AcDbSpline
70
4
71
3
72
16
73
12
40
0
40
0
40
0
40
0
40
0.089533512315609
40
0.089533512315609
40
0.271626808286504
40
0.271626808286504
40
0.453720104253259
40
0.453720104253259
40
0.817906704038589
40
0.817906704038589
40
1
40
1
40
1
40
1
41
1
10
6.00240288894054
20
2.71225861058724
30
0
41
1
10
6.00274230229223
20
2.71231092813559
30
0
41
1
10
6.00308171161808
20
2.71236324804374
30
0
41
1
10
6.00411139939305
20
2.71252198331524
30
0
41
1
10
6.00480166521237
20
2.71262840607127
30
0
41
1
10
6.00618216349727
20
2.71284127103459
30
0
41
1
10
6.0068723959948
20
2.71294771319773
30
0
41
1
10
6.0089430435126
20
2.71326706865938
30
0
41
1
10
6.01032340859445
20
2.71348001089663
30
0
41
1
10
6.01239385589622
20
2.71379948216304
30
0
41
1
10
6.01308398838279
20
2.71390598206739
30
0
41
1
10
6.01377410415679
20
2.71401249157117
30
0
0
SPLINE
5
FF
100
AcDbEntity
8
1
62
256
6
ByLayer
370
18
48
1
60
0
100
AcDbSpline
70
4
71
3
72
10
73
6
40
0
40
0
40
0
40
0
40
0.5
40
0.5
40
1
40
1
40
1
40
1
41
1
10
6.01377666949048
20
2.71401288749391
30
0
41
1
10
6.34529642924227
20
2.76517823742262
30
0
41
1
10
6.67188770018004
20
2.81843818160434
30
0
41
1
10
7.31679428201727
20
2.92042015116462
30
0
41
1
10
7.6351088566179
20
2.96910336806201
30
0
41
1
10
7.95048660535835
20
3.01093826783543
30
0
0
SPLINE
5
100
100
AcDbEntity
8
1
62
256
6
ByLayer
370
18
48
1
60
0
100
AcDbSpline
70
4
71
3
72
66
73
62
40
0
40
0
40
0
40
0
40
0.0624999999999998
40
0.0624999999999998
40
0.0937499999999997
40
0.0937499999999997
40
0.125
40
0.125
40
0.15625
40
0.15625
40
0.187499999999999
40
0.187499999999999
40
0.218749999999999
40
0.218749999999999
40
0.249999999999999
40
0.249999999999999
40
0.265624999999999
40
0.265624999999999
40
0.281249999999999
40
0.281249999999999
40
0.312499999999999
40
0.312499999999999
40
0.374999999999999
40
0.374999999999999
40
0.406249999999999
40
0.406249999999999
40
0.4375
40
0.4375
40
0.500000000000001
40
0.500000000000001
40
0.53125
40
0.53125
40
0.5625
40
0.5625
40
0.59375
40
0.59375
40
0.625
40
0.625
40
0.640625000000001
40
0.640625000000001
40
0.656250000000001
40
0.656250000000001
40
0.687500000000001
40
0.687500000000001
40
0.718750000000001
40
0.718750000000001
40
0.750000000000001
40
0.750000000000001
40
0.781250000000001
40
0.781250000000001
40
0.812500000000001
40
0.812500000000001
40
0.875
40
0.875
40
0.90625
40
0.90625
40
0.9375
40
0.9375
40
0.96875
40
0.96875
40
1
40
1
40
1
40
1
41
1
10
7.95048660535835
20
3.01093826783543
30
0
41
1
10
8.27207427734538
20
3.05349658597444
30
0
41
1
10
8.59253608313287
20
3.08618229841596
30
0
41
1
10
9.07213964731147
20
3.12027824818716
30
0
41
1
10
9.23182893026106
20
3.12914979061748
30
0
41
1
10
9.55104628107617
20
3.141867852866
30
0
41
1
10
9.71059084116808
20
3.14571674723919
30
0
41
1
10
10.0295336009794
20
3.14839601945195
30
0
41
1
10
10.1889618822846
20
3.14721647771799
30
0
41
1
10
10.5080553156437
20
3.13985795999236
30
0
41
1
10
10.6676724337002
20
3.13368134293103
30
0
41
1
10
10.9870607314287
20
3.11632351248318
30
0
41
1
10
11.1468403099833
20
3.10514124542698
30
0
41
1
10
11.4667138952363
20
3.0777791046084
30
0
41
1
10
11.6268263648566
20
3.06160904439483
30
0
41
1
10
11.8673145811034
20
3.0336134681844
30
0
41
1
10
11.947523149427
20
3.02365312870947
30
0
41
1
10
12.1080728447147
20
3.00249167271599
30
0
41
1
10
12.1884561332326
20
2.99128316870645
30
0
41
1
10
12.4292505343091
20
2.95593460676602
30
0
41
1
10
12.5894878569995
20
2.93007344685688
30
0
41
1
10
13.0692379068444
20
2.84563443414154
30
0
41
1
10
13.3878009057785
20
2.7801853707746
30
0
41
1
10
13.8646288871349
20
2.66937344886134
30
0
41
1
10
14.0233648623632
20
2.63028713010101
30
0
41
1
10
14.3406124945337
20
2.54805491937393
30
0
41
1
10
14.4991773809365
20
2.50498002253056
30
0
41
1
10
14.9748301642944
20
2.37011857198152
30
0
41
1
10
15.291702350487
20
2.27244264159995
30
0
41
1
10
15.767439449163
20
2.11539314415438
30
0
41
1
10
15.9261085798562
20
2.06132118304163
30
0
41
1
10
16.2436452570336
20
1.94973455899338
30
0
41
1
10
16.4025412344328
20
1.89226413229267
30
0
41
1
10
16.7209016379084
20
1.77453668510589
30
0
41
1
10
16.880318818443
20
1.71419662816802
30
0
41
1
10
17.199644332152
20
1.59056307014444
30
0
41
1
10
17.359560919783
20
1.52728357938597
30
0
41
1
10
17.5999244799197
20
1.43035126192257
30
0
41
1
10
17.6801278675488
20
1.39770662446668
30
0
41
1
10
17.8407225798315
20
1.33179389275375
30
0
41
1
10
17.9210920246656
20
1.29853816127874
30
0
41
1
10
18.1617162381268
20
1.1981256342481
30
0
41
1
10
18.3217205140107
20
1.13019241778838
30
0
41
1
10
18.6412385303032
20
0.993089387631642
30
0
41
1
10
18.8007753232692
20
0.92397145373937
30
0
41
1
10
19.1193446002753
20
0.784470605916368
30
0
41
1
10
19.2783876275098
20
0.714111198029485
30
0
41
1
10
19.5961056525233
20
0.572433513808534
30
0
41
1
10
19.7547840940023
20
0.501122935764045
30
0
41
1
10
20.0719489385541
20
0.357939063717964
30
0
41
1
10
20.230393278664
20
0.285971101735697
30
0
41
1
10
20.7055871433683
20
0.0695585045865244
30
0
41
1
10
21.022446656563
20
-0.074832189338963
30
0
41
1
10
21.4980796520339
20
-0.291029590238907
30
0
41
1
10
21.6566889869831
20
-0.363013388296224
30
0
41
1
10
21.9742020851459
20
-0.506445493106156
30
0
41
1
10
22.1331166545927
20
-0.577869203114858
30
0
41
1
10
22.4512812182083
20
-0.72008933514627
30
0
41
1
10
22.6105581421919
20
-0.790824816251302
30
0
41
1
10
22.929815376902
20
-0.930833145745225
30
0
41
1
10
23.0897500288434
20
-1.00020965910554
30
0
41
1
10
23.2500000000002
20
-1.06893816319268
30
0
0
SPLINE
5
101
100
AcDbEntity
8
1
62
256
6
ByLayer
370
18
48
1
60
0
100
AcDbSpline
70
4
71
3
72
31
73
27
40
0
40
0
40
0
40
0
40
0.108997766173011
40
0.108997766173011
40
0.217995532346022
40
0.217995532346022
40
0.245244973889274
40
0.245244973889274
40
0.272494415432527
40
0.272494415432527
40
0.326993298519029
40
0.326993298519029
40
0.435991064692035
40
0.435991064692035
40
0.54498883086504
40
0.54498883086504
40
0.653986597038045
40
0.653986597038045
40
0.76298436321105
40
0.76298436321105
40
0.817483246297553
40
0.844732687840802
40
0.844732687840802
40
0.871982129384051
40
0.871982129384051
40
1
40
1
40
1
40
1
41
1
10
23.25
20
-0.942178677569785
30
0
41
1
10
23.5707487611577
20
-1.08168214715553
30
0
41
1
10
23.8909460623396
20
-1.21795734165201
30
0
41
1
10
24.5312935175655
20
-1.48191083433954
30
0
41
1
10
24.8514466383995
20
-1.60958122372196
30
0
41
1
10
25.2523283720845
20
-1.76238621221583
30
0
41
1
10
25.3325396296796
20
-1.79260759242194
30
0
41
1
10
25.4930464464462
20
-1.85234333485994
30
0
41
1
10
25.5733602288745
20
-1.88186414732945
30
0
41
1
10
25.813933851992
20
-1.96914084760329
30
0
41
1
10
25.9739901537307
20
-2.02567325804643
30
0
41
1
10
26.4533604693256
20
-2.19005799512337
30
0
41
1
10
26.7718744239957
20
-2.29269672130454
30
0
41
1
10
27.4077816647925
20
-2.48265735716586
30
0
41
1
10
27.725168749562
20
-2.56998788166735
30
0
41
1
10
28.3598278608128
20
-2.7280185253897
30
0
41
1
10
28.6771026331028
20
-2.79871146370243
30
0
41
1
10
29.3126502521963
20
-2.92217199521147
30
0
41
1
10
29.6309416967567
20
-2.97492977848538
30
0
41
1
10
30.1098522288551
20
-3.0398773493915
30
0
41
1
10
30.3496741584469
20
-3.06880486537406
30
0
41
1
10
30.5901855408249
20
-3.09227056051637
30
0
41
1
10
30.7506963058792
20
-3.10668459050373
30
0
41
1
10
30.8309061476532
20
-3.11326462265583
30
0
41
1
10
31.2872962106182
20
-3.14714962769224
30
0
41
1
10
31.6616381847577
20
-3.16112568098742
30
0
41
1
10
32.0348656009946
20
-3.16135159527499
30
0
0
SPLINE
5
102
100
AcDbEntity
8
1
62
256
6
ByLayer
370
18
48
1
60
0
100
AcDbSpline
70
4
71
3
72
22
73
18
40
0
40
0
40
0
40
0
40
0.119408295325187
40
0.119408295325187
40
0.295526636260148
40
0.295526636260148
40
0.47164497719511
40
0.47164497719511
40
0.647763318130071
40
0.647763318130071
40
0.823881659065034
40
0.823881659065034
40
0.867911244298775
40
0.867911244298775
40
0.911940829532516
40
0.911940829532516
40
1
40
1
40
1
40
1
41
1
10
48.4308235201407
20
2.26507477844652
30
0
41
1
10
48.6469988652604
20
2.33439749423275
30
0
41
1
10
48.862657372968
20
2.40027723371367
30
0
41
1
10
49.3955072842445
20
2.55430143034241
30
0
41
1
10
49.7122787618044
20
2.63815365905251
30
0
41
1
10
50.345345603269
20
2.78872464481356
30
0
41
1
10
50.6616532708966
20
2.85543547684586
30
0
41
1
10
51.2947549740863
20
2.97074748179622
30
0
41
1
10
51.6115448592499
20
3.01934754069271
30
0
41
1
10
52.2466514350394
20
3.09745984266411
30
0
41
1
10
52.5649765555367
20
3.12697075318627
30
0
41
1
10
52.9644615862346
20
3.15141541008259
30
0
41
1
10
53.0444377831654
20
3.1556821604112
30
0
41
1
10
53.2045650672152
20
3.16295879004764
30
0
41
1
10
53.2847483123832
20
3.16596953293964
30
0
41
1
10
53.5253455238672
20
3.1730916655458
30
0
41
1
10
53.6856903423215
20
3.17529153296309
30
0
41
1
10
53.8460515056369
20
3.17493994837278
30
0
0
SPLINE
5
103
100
AcDbEntity
8
1
62
256
6
ByLayer
370
18
48
1
60
0
100
AcDbSpline
70
4
71
3
72
92
73
88
40
0
40
0
40
0
40
0
40
0.0171889966486535
40
0.0171889966486535
40
0.0646723775279417
40
0.0646723775279417
40
0.0884140679675865
40
0.0884140679675865
40
0.112155758407232
40
0.112155758407232
40
0.135897448846876
40
0.135897448846876
40
0.159639139286521
40
0.159639139286521
40
0.183380829726166
40
0.183380829726166
40
0.207122520165811
40
0.207122520165811
40
0.230864210605456
40
0.230864210605456
40
0.254605901045101
40
0.254605901045101
40
0.266476746264923
40
0.266476746264923
40
0.278347591484744
40
0.278347591484744
40
0.302089281924386
40
0.302089281924386
40
0.325830972364027
40
0.325830972364027
40
0.349572662803669
40
0.349572662803669
40
0.373314353243311
40
0.373314353243311
40
0.397056043682952
40
0.397056043682952
40
0.408926888902774
40
0.408926888902774
40
0.420797734122595
40
0.420797734122595
40
0.444539424562238
40
0.444539424562238
40
0.468281115001882
40
0.468281115001882
40
0.492022805441525
40
0.492022805441525
40
0.515764495881168
40
0.515764495881168
40
0.539506186320811
40
0.539506186320811
40
0.586989567200096
40
0.586989567200096
40
0.610731257639739
40
0.610731257639739
40
0.634472948079381
40
0.634472948079381
40
0.681956328958666
40
0.681956328958666
40
0.705698019398308
40
0.705698019398308
40
0.72943970983795
40
0.72943970983795
40
0.753181400277593
40
0.753181400277593
40
0.776923090717235
40
0.776923090717235
40
0.800664781156878
40
0.800664781156878
40
0.82440647159652
40
0.82440647159652
40
0.848148162036163
40
0.848148162036163
40
0.871889852475805
40
0.871889852475805
40
0.895631542915447
40
0.895631542915447
40
0.91937323335509
40
0.91937323335509
40
0.943114923794732
40
0.943114923794732
40
0.966856614234374
40
0.966856614234374
40
0.978727459454196
40
0.978727459454196
40
0.990598304674017
40
0.990598304674017
40
1
40
1
40
1
40
1
41
1
10
26.7416284080313
20
2.24324426233139
30
0
41
1
10
26.8577466509091
20
2.27716452297233
30
0
41
1
10
26.9738511347829
20
2.31006699088715
30
0
41
1
10
27.4106323732176
20
2.43011382179867
30
0
41
1
10
27.731088453698
20
2.51088148573638
30
0
41
1
10
28.2122210292367
20
2.61981331334985
30
0
41
1
10
28.3727224483572
20
2.65409405872822
30
0
41
1
10
28.6935883216743
20
2.71844499625544
30
0
41
1
10
28.8540349129693
20
2.7484657085198
30
0
41
1
10
29.1751042705108
20
2.80376762983531
30
0
41
1
10
29.3357074485093
20
2.82915535245445
30
0
41
1
10
29.6564909311262
20
2.87526304821753
30
0
41
1
10
29.8167031697872
20
2.89599158205078
30
0
41
1
10
30.1369202286525
20
2.93274602252441
30
0
41
1
10
30.2969498943995
20
2.94875609704559
30
0
41
1
10
30.6168355623155
20
2.97610948285657
30
0
41
1
10
30.7766898379069
20
2.98746378574657
30
0
41
1
10
31.0966106183016
20
3.00525765620174
30
0
41
1
10
31.2566629991393
20
3.01172148346319
30
0
41
1
10
31.5768610978275
20
3.01991511192185
30
0
41
1
10
31.7370264192245
20
3.0216139781821
30
0
41
1
10
31.9774696017719
20
3.0205143972025
30
0
41
1
10
32.0576505975117
20
3.01954129627578
30
0
41
1
10
32.2181012855089
20
3.01638096206463
30
0
41
1
10
32.2983582161868
20
3.01419393202932
30
0
41
1
10
32.5389043114644
20
3.00582472704255
30
0
41
1
10
32.6990440261402
20
2.99783153022136
30
0
41
1
10
33.0191733354839
20
2.97707754949502
30
0
41
1
10
33.1792209583142
20
2.96429107629277
30
0
41
1
10
33.4992317242734
20
2.93398756746737
30
0
41
1
10
33.659190022517
20
2.91645741746962
30
0
41
1
10
33.979114326316
20
2.87671742594264
30
0
41
1
10
34.1390804393537
20
2.85450849615936
30
0
41
1
10
34.4591929228912
20
2.80555753095206
30
0
41
1
10
34.6193145411104
20
2.77879787100562
30
0
41
1
10
34.8596558889807
20
2.73529564781302
30
0
41
1
10
34.9398032339009
20
2.72024026723366
30
0
41
1
10
35.1002194940424
20
2.6890502756292
30
0
41
1
10
35.1804967787785
20
2.67291691881715
30
0
41
1
10
35.4209494488005
20
2.62303010109793
30
0
41
1
10
35.5809115789752
20
2.58773890431743
30
0
41
1
10
35.900225353853
20
2.51318022073625
30
0
41
1
10
36.059576918908
20
2.47390903017029
30
0
41
1
10
36.3778212128575
20
2.39158102970254
30
0
41
1
10
36.5367355275047
20
2.34854800643046
30
0
41
1
10
36.8541338351611
20
2.25876840639256
30
0
41
1
10
37.0126282129501
20
2.21204825593787
30
0
41
1
10
37.3295753073129
20
2.11547493888463
30
0
41
1
10
37.4879999010926
20
2.06559869545669
30
0
41
1
10
37.9630297106418
20
1.91120874550347
30
0
41
1
10
38.279445821362
20
1.8019617592258
30
0
41
1
10
38.7544502343701
20
1.62999577250198
30
0
41
1
10
38.9127894223363
20
1.57121581254779
30
0
41
1
10
39.2297674217537
20
1.45129030990469
30
0
41
1
10
39.388464651038
20
1.39023849527956
30
0
41
1
10
39.8650939444505
20
1.203705028196
30
0
41
1
10
40.1835130502435
20
1.07469619749895
30
0
41
1
10
40.6629576545913
20
0.875876137185344
30
0
41
1
10
40.8230631540206
20
0.808693516692102
30
0
41
1
10
41.1439285302482
20
0.672667607470345
30
0
41
1
10
41.3043050723898
20
0.604135260995548
30
0
41
1
10
41.6250454546645
20
0.466594076016946
30
0
41
1
10
41.7853648864395
20
0.397433771479172
30
0
41
1
10
42.1059689033984
20
0.258488200854373
30
0
41
1
10
42.2662541135195
20
0.188704142518333
30
0
41
1
10
42.5869451876375
20
0.0488674506410121
30
0
41
1
10
42.7474087781436
20
-0.0211483769990082
30
0
41
1
10
43.068314265658
20
-0.161331510365585
30
0
41
1
10
43.2287127405342
20
-0.231451772321435
30
0
41
1
10
43.5497264178521
20
-0.370797405836384
30
0
41
1
10
43.7103314542539
20
-0.44011736822884
30
0
41
1
10
44.0310599616734
20
-0.577905353972085
30
0
41
1
10
44.1912511691247
20
-0.646358844745919
30
0
41
1
10
44.5114157857149
20
-0.782103796404385
30
0
41
1
10
44.6714058188817
20
-0.849357567641221
30
0
41
1
10
44.9912904188105
20
-0.982437792593373
30
0
41
1
10
45.1511318642779
20
-1.04838524116991
30
0
41
1
10
45.4709493076779
20
-1.17833847189934
30
0
41
1
10
45.6309765595692
20
-1.24222091690098
30
0
41
1
10
45.9511730377093
20
-1.3680528492817
30
0
41
1
10
46.1113457216782
20
-1.42999312813197
30
0
41
1
10
46.3517968342799
20
-1.52126081796567
30
0
41
1
10
46.4319799204125
20
-1.55140805098358
30
0
41
1
10
46.5924328669948
20
-1.61110643511787
30
0
41
1
10
46.6726622268656
20
-1.64064178158588
30
0
41
1
10
46.8162154429116
20
-1.69287782996525
30
0
41
1
10
46.8796034591231
20
-1.71574316997996
30
0
41
1
10
46.9429383116119
20
-1.73837989838259
30
0
0
SPLINE
5
104
100
AcDbEntity
8
1
62
256
6
ByLayer
370
18
48
1
60
0
100
AcDbSpline
70
4
71
3
72
22
73
18
40
0
40
0
40
0
40
0
40
0.500000000000027
40
0.500000000000027
40
0.750000000000009
40
0.750000000000009
40
0.875000000000003
40
0.875000000000003
40
0.937500000000032
40
0.937500000000032
40
0.968750000000014
40
0.968750000000014
40
0.984375000000004
40
0.984375000000004
40
0.992187500000002
40
0.992187500000002
40
1
40
1
40
1
40
1
41
1
10
53.8460515056412
20
-3.17493994839168
30
0
41
1
10
53.8575595365256
20
-3.14854807120724
30
0
41
1
10
53.8692808283975
20
-3.12216615701303
30
0
41
1
10
53.8871799889121
20
-3.08259952639781
30
0
41
1
10
53.8931949200898
20
-3.06942900018583
30
0
41
1
10
53.9023216827945
20
-3.04956856116152
30
0
41
1
10
53.9053797293897
20
-3.04293723250331
30
0
41
1
10
53.9099465490624
20
-3.03315423181385
30
0
41
1
10
53.9114579176082
20
-3.02995137981878
30
0
41
1
10
53.9137573903347
20
-3.02503518584717
30
0
41
1
10
53.914531996014
20
-3.02336675439969
30
0
41
1
10
53.9157175465912
20
-3.02076593844305
30
0
41
1
10
53.9161206513097
20
-3.01986448877128
30
0
41
1
10
53.9167075415594
20
-3.01859294773621
30
0
41
1
10
53.9169041305339
20
-3.01817267896897
30
0
41
1
10
53.9172434156918
20
-3.01752413494239
30
0
41
1
10
53.9173600207355
20
-3.01737857019469
30
0
41
1
10
53.9173839782353
20
-3.01746799686586
30
0
0
SPLINE
5
105
100
AcDbEntity
8
1
62
256
6
ByLayer
370
18
48
1
60
0
100
AcDbSpline
70
4
71
3
72
78
73
74
40
0
40
0
40
0
40
0
40
0.0155750143412122
40
0.0155750143412122
40
0.05073304954331
40
0.05073304954331
40
0.0858910847454079
40
0.0858910847454079
40
0.121049119947506
40
0.121049119947506
40
0.138628137548555
40
0.14741764634908
40
0.14741764634908
40
0.156207155149605
40
0.156207155149605
40
0.226523225553802
40
0.226523225553802
40
0.2616812607559
40
0.2616812607559
40
0.296839295957998
40
0.296839295957998
40
0.331997331160096
40
0.331997331160096
40
0.349576348761144
40
0.349576348761144
40
0.367155366362192
40
0.367155366362192
40
0.40231340156429
40
0.40231340156429
40
0.437471436766388
40
0.437471436766388
40
0.455050454367437
40
0.455050454367437
40
0.463839963167962
40
0.463839963167962
40
0.472629471968487
40
0.507787507170583
40
0.507787507170583
40
0.54294554237268
40
0.54294554237268
40
0.578103577574777
40
0.578103577574777
40
0.64841964797897
40
0.64841964797897
40
0.665998665580019
40
0.665998665580019
40
0.674788174380543
40
0.674788174380543
40
0.683577683181067
40
0.718735718383167
40
0.718735718383167
40
0.753893753585267
40
0.753893753585267
40
0.771472771186317
40
0.771472771186317
40
0.780262279986843
40
0.780262279986843
40
0.789051788787369
40
0.824209823989474
40
0.824209823989474
40
0.859367859191578
40
0.859367859191578
40
0.894525894393683
40
0.894525894393683
40
0.929683929595788
40
0.929683929595788
40
0.964841964797893
40
0.964841964797893
40
0.973631473598419
40
0.973631473598419
40
0.982420982398946
40
0.982420982398946
40
1
40
1
40
1
40
1
41
1
10
26.6668936747865
20
2.25700078297021
30
0
41
1
10
26.8080110857599
20
2.30202149602522
30
0
41
1
10
26.9489745476308
20
2.34560074556865
30
0
41
1
10
27.4077816647925
20
2.48265735716586
30
0
41
1
10
27.725168749562
20
2.56998788166735
30
0
41
1
10
28.3598278608128
20
2.7280185253897
30
0
41
1
10
28.6771026331028
20
2.79871146370243
30
0
41
1
10
29.3126502521962
20
2.92217199521144
30
0
41
1
10
29.6309416967567
20
2.97492977848538
30
0
41
1
10
30.109852228855
20
3.0398773493915
30
0
41
1
10
30.3496741584468
20
3.06880486537406
30
0
41
1
10
30.5901855408249
20
3.09227056051637
30
0
41
1
10
30.7506963058792
20
3.10668459050373
30
0
41
1
10
30.8309061476531
20
3.11326462265583
30
0
41
1
10
31.5517749996906
20
3.16678604361576
30
0
41
1
10
32.186888391936
20
3.17387457408563
30
0
41
1
10
33.1372694106365
20
3.12534839466716
30
0
41
1
10
33.4536915634599
20
3.09933371281517
30
0
41
1
10
34.0868108896249
20
3.02811576455
30
0
41
1
10
34.4034835225152
20
2.9829024883316
30
0
41
1
10
35.0380020268576
20
2.87376876759069
30
0
41
1
10
35.3558500844334
20
2.80984402612214
30
0
41
1
10
35.8343154256661
20
2.7004750315312
30
0
41
1
10
35.9940869162522
20
2.66177404308607
30
0
41
1
10
36.314337274338
20
2.58000326400992
30
0
41
1
10
36.4749661520415
20
2.53689078953258
30
0
41
1
10
36.9559753898042
20
2.40180913692583
30
0
41
1
10
37.2760188683868
20
2.30394910430306
30
0
41
1
10
37.9158150739168
20
2.09414220036658
30
0
41
1
10
38.2355693767267
20
1.98219415181637
30
0
41
1
10
38.7157908549653
20
1.80501817132406
30
0
41
1
10
38.8759634258983
20
1.74441864509967
30
0
41
1
10
39.1164735414787
20
1.6513839813766
30
0
41
1
10
39.1967299768846
20
1.61999899024715
30
0
41
1
10
39.3571137645922
20
1.55663914605026
30
0
41
1
10
39.7576092307121
20
1.39681913223652
30
0
41
1
10
40.1560166635071
20
1.23040171053816
30
0
41
1
10
40.7918045301155
20
0.957907876577877
30
0
41
1
10
41.1088649530263
20
0.818544495200854
30
0
41
1
10
41.7423448189626
20
0.53585566092093
30
0
41
1
10
42.0587703787872
20
0.392544203820705
30
0
41
1
10
43.0085189259714
20
-0.040138516589252
30
0
41
1
10
43.6423089286851
20
-0.332281103346588
30
0
41
1
10
44.4405219229205
20
-0.690371794360942
30
0
41
1
10
44.6004598892207
20
-0.761642738447108
30
0
41
1
10
44.8409063061209
20
-0.867809700434577
30
0
41
1
10
44.9211663492461
20
-0.903084332326387
30
0
41
1
10
45.0815076553902
20
-0.973185056143961
30
0
41
1
10
45.4821358212121
20
-1.14741777507859
30
0
41
1
10
45.8818672071295
20
-1.3160846588043
30
0
41
1
10
46.5213458907517
20
-1.57673008430925
30
0
41
1
10
46.8410355437334
20
-1.7024478299594
30
0
41
1
10
47.3213457640227
20
-1.88248636356025
30
0
41
1
10
47.481581500275
20
-1.94107163186791
30
0
41
1
10
47.7222288510778
20
-2.0266307762603
30
0
41
1
10
47.802420149171
20
-2.05473885224876
30
0
41
1
10
47.9625653581264
20
-2.11004147694473
30
0
41
1
10
48.3624914570076
20
-2.24606882424777
30
0
41
1
10
48.76040620822
20
-2.37072078043971
30
0
41
1
10
49.3955072842443
20
-2.55430143034235
30
0
41
1
10
49.7122787618042
20
-2.63815365905245
30
0
41
1
10
50.3453456032689
20
-2.78872464481353
30
0
41
1
10
50.6616532708965
20
-2.85543547684586
30
0
41
1
10
51.2947549740861
20
-2.9707474817962
30
0
41
1
10
51.6115448592498
20
-3.01934754069268
30
0
41
1
10
52.2466514350393
20
-3.09745984266411
30
0
41
1
10
52.5649765555365
20
-3.12697075318627
30
0
41
1
10
52.9644615862344
20
-3.15141541008256
30
0
41
1
10
53.0444377831653
20
-3.15568216041118
30
0
41
1
10
53.2045650672151
20
-3.16295879004761
30
0
41
1
10
53.2847483123829
20
-3.16596953293961
30
0
41
1
10
53.525345523867
20
-3.1730916655458
30
0
41
1
10
53.6856903423214
20
-3.17529153296309
30
0
41
1
10
53.8460515056368
20
-3.17493994837278
30
0
0
SPLINE
5
106
100
AcDbEntity
8
1
62
256
6
ByLayer
370
18
48
1
60
0
100
AcDbSpline
70
4
71
3
72
156
73
152
40
0
40
0
40
0
40
0
40
0.007149689578951
40
0.007149689578951
40
0.0204390791579198
40
0.0204390791579198
40
0.0337284687368887
40
0.0337284687368887
40
0.0470178583158576
40
0.0470178583158576
40
0.0603072478948264
40
0.0603072478948264
40
0.0735966374737953
40
0.0735966374737953
40
0.0868860270527641
40
0.0868860270527641
40
0.100175416631733
40
0.100175416631733
40
0.113464806210702
40
0.113464806210702
40
0.126754195789671
40
0.126754195789671
40
0.14004358536864
40
0.14004358536864
40
0.153332974947608
40
0.153332974947608
40
0.166622364526577
40
0.166622364526577
40
0.179911754105546
40
0.179911754105546
40
0.193201143684514
40
0.193201143684514
40
0.206490533263482
40
0.206490533263482
40
0.219779922842451
40
0.219779922842451
40
0.233069312421419
40
0.233069312421419
40
0.246358702000387
40
0.246358702000387
40
0.259648091579355
40
0.259648091579355
40
0.272937481158323
40
0.272937481158323
40
0.286226870737292
40
0.286226870737292
40
0.29951626031626
40
0.29951626031626
40
0.312805649895228
40
0.312805649895228
40
0.326095039474196
40
0.326095039474196
40
0.339384429053165
40
0.339384429053165
40
0.352673818632133
40
0.352673818632133
40
0.365963208211101
40
0.365963208211101
40
0.379252597790069
40
0.379252597790069
40
0.385897292579553
40
0.385897292579553
40
0.392541987369037
40
0.392541987369037
40
0.405831376948006
40
0.405831376948006
40
0.419120766526974
40
0.419120766526974
40
0.432410156105942
40
0.432410156105942
40
0.44569954568491
40
0.44569954568491
40
0.458988935263879
40
0.458988935263879
40
0.472278324842847
40
0.472278324842847
40
0.485567714421815
40
0.485567714421815
40
0.498857104000783
40
0.498857104000783
40
0.512146493579751
40
0.512146493579751
40
0.525435883158719
40
0.525435883158719
40
0.552014662316656
40
0.552014662316656
40
0.565304051895624
40
0.565304051895624
40
0.578593441474592
40
0.578593441474592
40
0.59188283105356
40
0.59188283105356
40
0.605172220632529
40
0.605172220632529
40
0.618461610211497
40
0.618461610211497
40
0.631750999790465
40
0.631750999790465
40
0.63839569457995
40
0.63839569457995
40
0.645040389369435
40
0.645040389369435
40
0.658329778948406
40
0.658329778948406
40
0.684908558106347
40
0.684908558106347
40
0.698197947685317
40
0.698197947685317
40
0.711487337264288
40
0.711487337264288
40
0.724776726843258
40
0.724776726843258
40
0.738066116422228
40
0.738066116422228
40
0.751355506001198
40
0.751355506001198
40
0.764644895580169
40
0.764644895580169
40
0.777934285159139
40
0.777934285159139
40
0.791223674738109
40
0.791223674738109
40
0.804513064317079
40
0.804513064317079
40
0.81780245389605
40
0.81780245389605
40
0.844381233053991
40
0.844381233053991
40
0.857670622632962
40
0.857670622632962
40
0.870960012211933
40
0.870960012211933
40
0.884249401790904
40
0.884249401790904
40
0.897538791369875
40
0.897538791369875
40
0.910828180948846
40
0.910828180948846
40
0.924117570527816
40
0.924117570527816
40
0.937406960106787
40
0.937406960106787
40
0.950696349685758
40
0.950696349685758
40
0.963985739264729
40
0.963985739264729
40
0.9772751288437
40
0.9772751288437
40
0.990564518422671
40
0.990564518422671
40
1
40
1
40
1
40
1
41
1
10
21.7280997081443
20
2.99752022960143
30
0
41
1
10
21.791721021743
20
2.99765121296306
30
0
41
1
10
21.8553280686286
20
2.99741953322746
30
0
41
1
10
22.0371749705834
20
2.99557983694783
30
0
41
1
10
22.1554367846659
20
2.99283711313316
30
0
41
1
10
22.3923384706529
20
2.98444330351367
30
0
41
1
10
22.5109275867207
20
2.978876217097
30
0
41
1
10
22.7481683626336
20
2.96525997934484
30
0
41
1
10
22.866864540893
20
2.95719630465922
30
0
41
1
10
23.1043864281696
20
2.93866690201227
30
0
41
1
10
23.2232470250558
20
2.9282201474422
30
0
41
1
10
23.4605880671752
20
2.90490039238489
30
0
41
1
10
23.5791137040119
20
2.8919469325746
30
0
41
1
10
23.8160229089909
20
2.86301188676663
30
0
41
1
10
23.934408807048
20
2.84710875281124
30
0
41
1
10
24.1710782816278
20
2.81287967736026
30
0
41
1
10
24.2893762604205
20
2.79454250607452
30
0
41
1
10
24.5261437954562
20
2.75572402678574
30
0
41
1
10
24.6445439022735
20
2.73518722143851
30
0
41
1
10
24.8813094096371
20
2.6918681981679
30
0
41
1
10
24.999698783402
20
2.66912738685861
30
0
41
1
10
25.2365888104745
20
2.62112941546184
30
0
41
1
10
25.3551029505304
20
2.59583559186618
30
0
41
1
10
25.5921964809566
20
2.54279371992686
30
0
41
1
10
25.7107603333934
20
2.51504604981955
30
0
41
1
10
25.9479476202535
20
2.45730236077887
30
0
41
1
10
26.0666573915584
20
2.42729870288338
30
0
41
1
10
26.3036331069754
20
2.36533563532939
30
0
41
1
10
26.4219759187669
20
2.33343418644725
30
0
41
1
10
26.6584886648925
20
2.26790032189649
30
0
41
1
10
26.776595635839
20
2.23415375655654
30
0
41
1
10
27.0125827014183
20
2.1648009007325
30
0
41
1
10
27.1304699031263
20
2.12922349353076
30
0
41
1
10
27.3659921127261
20
2.05632136075607
30
0
41
1
10
27.4836247418089
20
2.01899849780801
30
0
41
1
10
27.7185723320012
20
1.94259536619955
30
0
41
1
10
27.8358819123789
20
1.90348642558789
30
0
41
1
10
28.0703120668946
20
1.82356310085478
30
0
41
1
10
28.1874248909525
20
1.78273535337669
30
0
41
1
10
28.4216513427436
20
1.69963124925269
30
0
41
1
10
28.5388278732887
20
1.65747846308017
30
0
41
1
10
28.773241168918
20
1.57199690645456
30
0
41
1
10
28.8904332795811
20
1.52857692216
30
0
41
1
10
29.1248184773483
20
1.44058503028941
30
0
41
1
10
29.2419940520668
20
1.39600365264371
30
0
41
1
10
29.4763498968097
20
1.30556917583624
30
0
41
1
10
29.5935420251902
20
1.25971280712054
30
0
41
1
10
29.8279578138506
20
1.16668116853617
30
0
41
1
10
29.9451747646033
20
1.11950015420675
30
0
41
1
10
30.179733111022
20
1.02406317962425
30
0
41
1
10
30.2970631423954
20
0.975775088842852
30
0
41
1
10
30.5319813158208
20
0.878492502468816
30
0
41
1
10
30.6496166435779
20
0.829632426372626
30
0
41
1
10
30.8850803482188
20
0.73115660894689
30
0
41
1
10
31.0029114398974
20
0.681510237099161
30
0
41
1
10
31.2389800184396
20
0.581700485006849
30
0
41
1
10
31.3571962998758
20
0.531507698471501
30
0
41
1
10
31.5939502365386
20
0.430477759773197
30
0
41
1
10
31.7124863111543
20
0.379636418664916
30
0
41
1
10
31.8905009679095
20
0.302830647277119
30
0
41
1
10
31.9498703831548
20
0.277143044805996
30
0
41
1
10
32.0684920119769
20
0.225698534289563
30
0
41
1
10
32.1277689169896
20
0.199930973712043
30
0
41
1
10
32.3055069612519
20
0.122507529065018
30
0
41
1
10
32.4238513967805
20
0.0706739940336831
30
0
41
1
10
32.6605985879243
20
-0.0325487502108501
30
0
41
1
10
32.77904278744
20
-0.0838390098292052
30
0
41
1
10
33.0158640679703
20
-0.18627618906757
30
0
41
1
10
33.1342689738363
20
-0.237358404235863
30
0
41
1
10
33.3711083903988
20
-0.339168771073645
30
0
41
1
10
33.4895369125019
20
-0.389909560347348
30
0
41
1
10
33.726324918865
20
-0.491287582092184
30
0
41
1
10
33.844663245827
20
-0.54198044087201
30
0
41
1
10
34.0812765883901
20
-0.643233153727522
30
0
41
1
10
34.199585071324
20
-0.693707144823634
30
0
41
1
10
34.4363858570275
20
-0.793914511266166
30
0
41
1
10
34.5548513020638
20
-0.843713145932185
30
0
41
1
10
34.7922085560409
20
-0.942047325671666
30
0
41
1
10
34.9110867668616
20
-0.990657480111082
30
0
41
1
10
35.1484965012392
20
-1.08699132778645
30
0
41
1
10
35.2671302697972
20
-1.13467782016843
30
0
41
1
10
35.5042288956079
20
-1.22925236674607
30
0
41
1
10
35.6226951649201
20
-1.27610676809184
30
0
41
1
10
35.9779358430462
20
-1.41476552334237
30
0
41
1
10
36.2144731356844
20
-1.50488925103184
30
0
41
1
10
36.5692905624163
20
-1.63604774864348
30
0
41
1
10
36.6875805907868
20
-1.67906327032239
30
0
41
1
10
36.9243863126239
20
-1.76347407672273
30
0
41
1
10
37.0428175451547
20
-1.8050595791623
30
0
41
1
10
37.279813142522
20
-1.88658117868863
30
0
41
1
10
37.3984271598937
20
-1.9263900726425
30
0
41
1
10
37.6358822530192
20
-2.00412999022285
30
0
41
1
10
37.7547777635188
20
-2.04210336744956
30
0
41
1
10
37.9922336692395
20
-2.11627043597744
30
0
41
1
10
38.1108220295681
20
-2.15248913529374
30
0
41
1
10
38.3477665948522
20
-2.22327723853718
30
0
41
1
10
38.4661172124452
20
-2.25789358000597
30
0
41
1
10
38.6435502629906
20
-2.30845135099196
30
0
41
1
10
38.7026856587442
20
-2.32505477689415
30
0
41
1
10
38.8209990773656
20
-2.3576167726406
30
0
41
1
10
38.8801819109544
20
-2.37356274701941
30
0
41
1
10
39.0577667396058
20
-2.42046406068525
30
0
41
1
10
39.1761752220604
20
-2.4505342571108
30
0
41
1
10
39.5314961247153
20
-2.5373541805572
30
0
41
1
10
39.768543659815
20
-2.59070617836852
30
0
41
1
10
40.1238864903195
20
-2.66534467296597
30
0
41
1
10
40.2422873187146
20
-2.68931535611728
30
0
41
1
10
40.4792792069582
20
-2.73458345498443
30
0
41
1
10
40.5979406877906
20
-2.75586882624936
30
0
41
1
10
40.8352272120283
20
-2.79567790348179
30
0
41
1
10
40.9538837509621
20
-2.81414673984745
30
0
41
1
10
41.1911293414025
20
-2.84858087848778
30
0
41
1
10
41.3096798089778
20
-2.86458656703496
30
0
41
1
10
41.5467164531195
20
-2.8942133627809
30
0
41
1
10
41.6651888127279
20
-2.90786978945965
30
0
41
1
10
41.9020489458706
20
-2.93264817644717
30
0
41
1
10
42.0204462496248
20
-2.9437101717908
30
0
41
1
10
42.2571734673095
20
-2.9631152143356
30
0
41
1
10
42.3755001454327
20
-2.971489095805
30
0
41
1
10
42.6121502169079
20
-2.98574979338164
30
0
41
1
10
42.7304515003022
20
-2.99165138356395
30
0
41
1
10
42.9671947489112
20
-3.00112095213532
30
0
41
1
10
43.0856873019772
20
-3.00469176187769
30
0
41
1
10
43.3227460397151
20
-3.00939914688513
30
0
41
1
10
43.4413951570068
20
-3.01040109404141
30
0
41
1
10
43.7976501777573
20
-3.0087579651717
30
0
41
1
10
44.0348648493552
20
-3.00172854679522
30
0
41
1
10
44.390091906439
20
-2.98308032700314
30
0
41
1
10
44.5084173998478
20
-2.97550123267286
30
0
41
1
10
44.7450064138316
20
-2.95770322660499
30
0
41
1
10
44.8632493946666
20
-2.94747263306059
30
0
41
1
10
45.0999263664345
20
-2.9245817849997
30
0
41
1
10
45.2183581761161
20
-2.91193011013914
30
0
41
1
10
45.4552023434339
20
-2.88420847840479
30
0
41
1
10
45.5736521443961
20
-2.86915786577802
30
0
41
1
10
45.8106063559867
20
-2.83677285776645
30
0
41
1
10
45.9290969781872
20
-2.81945373495475
30
0
41
1
10
46.1660893184326
20
-2.78240028540515
30
0
41
1
10
46.2845874187583
20
-2.76264606585448
30
0
41
1
10
46.5216942049111
20
-2.72045904880454
30
0
41
1
10
46.6401743278481
20
-2.69804643576441
30
0
41
1
10
46.8769393793086
20
-2.65065978379187
30
0
41
1
10
46.9952506921013
20
-2.62569866245892
30
0
41
1
10
47.2320147561622
20
-2.57372618874248
30
0
41
1
10
47.3504056702752
20
-2.54665156226042
30
0
41
1
10
47.5871075936698
20
-2.49033280269777
30
0
41
1
10
47.7054549180321
20
-2.46112273235312
30
0
41
1
10
47.9421470809808
20
-2.40058077025557
30
0
41
1
10
48.0604887781148
20
-2.36924485182848
30
0
41
1
10
48.2628332570898
20
-2.31377489515225
30
0
41
1
10
48.3468372857134
20
-2.29018071717724
30
0
41
1
10
48.4308396587876
20
-2.2660466531722
30
0
0
SPLINE
5
107
100
AcDbEntity
8
1
62
256
6
ByLayer
370
18
48
1
60
0
100
AcDbSpline
70
4
71
3
72
106
73
102
40
0
40
0
40
0
40
0
40
0.0191000073029097
40
0.0191000073029097
40
0.0382000146058195
40
0.0382000146058195
40
0.0573000219087292
40
0.0573000219087292
40
0.076400029211639
40
0.076400029211639
40
0.0955000365145487
40
0.0955000365145487
40
0.114600043817459
40
0.114600043817459
40
0.133700051120368
40
0.133700051120368
40
0.152800058423278
40
0.152800058423278
40
0.171900065726188
40
0.171900065726188
40
0.191000073029097
40
0.191000073029097
40
0.210100080332007
40
0.210100080332007
40
0.229200087634917
40
0.229200087634917
40
0.267400102240736
40
0.267400102240736
40
0.305600116846556
40
0.305600116846556
40
0.324700124149466
40
0.324700124149466
40
0.343800131452375
40
0.343800131452375
40
0.362900138755285
40
0.362900138755285
40
0.382000146058195
40
0.382000146058195
40
0.401100153361105
40
0.401100153361105
40
0.420200160664014
40
0.420200160664014
40
0.439300167966924
40
0.439300167966924
40
0.458400175269834
40
0.458400175269834
40
0.477500182572744
40
0.477500182572744
40
0.496600189875653
40
0.496600189875653
40
0.515700197178563
40
0.515700197178563
40
0.534800204481473
40
0.534800204481473
40
0.553900211784383
40
0.553900211784383
40
0.573000219087292
40
0.573000219087292
40
0.592100226390202
40
0.592100226390202
40
0.611200233693112
40
0.611200233693112
40
0.630300240996021
40
0.630300240996021
40
0.649400248298931
40
0.649400248298931
40
0.668500255601841
40
0.668500255601841
40
0.687600262904751
40
0.687600262904751
40
0.72580027751057
40
0.72580027751057
40
0.74490028481348
40
0.74490028481348
40
0.764000292116391
40
0.764000292116391
40
0.783100299419301
40
0.783100299419301
40
0.802200306722211
40
0.802200306722211
40
0.821300314025121
40
0.821300314025121
40
0.840400321328031
40
0.840400321328031
40
0.859500328630941
40
0.859500328630941
40
0.878600335933851
40
0.878600335933851
40
0.897700343236762
40
0.897700343236762
40
0.916800350539672
40
0.916800350539672
40
0.935900357842582
40
0.935900357842582
40
0.955000365145492
40
0.955000365145492
40
0.974100372448402
40
0.974100372448402
40
0.993200379751312
40
0.993200379751312
40
1
40
1
40
1
40
1
41
1
10
8.04425480432221
20
1.17978630065505
30
0
41
1
10
8.16352443250523
20
1.13350226838824
30
0
41
1
10
8.28266906083033
20
1.08650177380721
30
0
41
1
10
8.52079311030531
20
0.991180194766514
30
0
41
1
10
8.6397718362397
20
0.942861136017626
30
0
41
1
10
8.87759227052189
20
0.844995002395336
30
0
41
1
10
8.99631488938721
20
0.795492210640447
30
0
41
1
10
9.23340051735357
20
0.69543770499277
30
0
41
1
10
9.35177932479408
20
0.644915260610873
30
0
41
1
10
9.58849858951618
20
0.543529846090678
30
0
41
1
10
9.70684189920649
20
0.492673416151121
30
0
41
1
10
9.94370219634908
20
0.391097504919742
30
0
41
1
10
10.0622279520986
20
0.340396739691187
30
0
41
1
10
10.2992610051404
20
0.238693497615912
30
0
41
1
10
10.4178006552959
20
0.18776650453313
30
0
41
1
10
10.6549446657245
20
0.0858192561578051
30
0
41
1
10
10.7735368263706
20
0.0347722641254791
30
0
41
1
10
11.0107135995952
20
-0.0675776476511203
30
0
41
1
10
11.1292962677576
20
-0.118886941371215
30
0
41
1
10
11.3665002878682
20
-0.221674275547258
30
0
41
1
10
11.4851366769917
20
-0.273117898032183
30
0
41
1
10
11.7226302941558
20
-0.375761264618177
30
0
41
1
10
11.8413436357374
20
-0.426943292157034
30
0
41
1
10
12.0787687888545
20
-0.528253220422329
30
0
41
1
10
12.1974742269945
20
-0.578504933922801
30
0
41
1
10
12.553348616175
20
-0.72864463947235
30
0
41
1
10
12.7904445496489
20
-0.827527456762283
30
0
41
1
10
13.2643855635018
20
-1.02237494853569
30
0
41
1
10
13.5011827366529
20
-1.11840647794969
30
0
41
1
10
13.8565384012851
20
-1.25966539474959
30
0
41
1
10
13.9750358315968
20
-1.30625438187363
30
0
41
1
10
14.2123534615488
20
-1.39793972404536
30
0
41
1
10
14.3311021239724
20
-1.44318468604388
30
0
41
1
10
14.5688063784712
20
-1.53237425958079
30
0
41
1
10
14.6877297347545
20
-1.57622135785283
30
0
41
1
10
14.9253047135677
20
-1.66230798741046
30
0
41
1
10
15.0440107532606
20
-1.7045925310353
30
0
41
1
10
15.2812014731452
20
-1.78788043104183
30
0
41
1
10
15.3996718061734
20
-1.82892500329399
30
0
41
1
10
15.6364377812362
20
-1.9096844295305
30
0
41
1
10
15.75474243211
20
-1.94934061250655
30
0
41
1
10
15.9914194050854
20
-2.02653029404561
30
0
41
1
10
16.109842692375
20
-2.06400691510723
30
0
41
1
10
16.3468812944007
20
-2.13682984184922
30
0
41
1
10
16.4654345382558
20
-2.17227792446124
30
0
41
1
10
16.7026463473256
20
-2.24130562368993
30
0
41
1
10
16.8213071060751
20
-2.27488344164033
30
0
41
1
10
17.058652857338
20
-2.34042259755847
30
0
41
1
10
17.1773274657277
20
-2.37241434539757
30
0
41
1
10
17.4148034701319
20
-2.43424568568656
30
0
41
1
10
17.5336010458276
20
-2.46402524366127
30
0
41
1
10
17.7708638067675
20
-2.52117859616078
30
0
41
1
10
17.8893860979635
20
-2.54860569805865
30
0
41
1
10
18.1263895878748
20
-2.60110264572489
30
0
41
1
10
18.244935503818
20
-2.62609898755298
30
0
41
1
10
18.4819652189022
20
-2.67395842742252
30
0
41
1
10
18.6004165009944
20
-2.696901041882
30
0
41
1
10
18.8373298468644
20
-2.74043021568852
30
0
41
1
10
18.9558000155638
20
-2.76092245057401
30
0
41
1
10
19.19280318478
20
-2.79912234962922
30
0
41
1
10
19.3113205172313
20
-2.81691075036653
30
0
41
1
10
19.5483148073876
20
-2.85014051169159
30
0
41
1
10
19.6668015515046
20
-2.8655586017604
30
0
41
1
10
19.9038314361756
20
-2.89405478156274
30
0
41
1
10
20.022350948633
20
-2.90715303610693
30
0
41
1
10
20.2596291422849
20
-2.93101753093174
30
0
41
1
10
20.3784670429959
20
-2.94172630090091
30
0
41
1
10
20.6158831078375
20
-2.96000735120526
30
0
41
1
10
20.7345498651065
20
-2.96759704759322
30
0
41
1
10
21.0904399088512
20
-2.98641271639454
30
0
41
1
10
21.3275034236367
20
-2.99374407114226
30
0
41
1
10
21.6824804914333
20
-2.9977454030724
30
0
41
1
10
21.8007030331607
20
-2.99797216004401
30
0
41
1
10
22.0371749705834
20
-2.99557983694783
30
0
41
1
10
22.1554367846659
20
-2.99283711313316
30
0
41
1
10
22.3923384706529
20
-2.98444330351367
30
0
41
1
10
22.5109275867207
20
-2.978876217097
30
0
41
1
10
22.7481683626336
20
-2.96525997934484
30
0
41
1
10
22.8668645408931
20
-2.95719630465922
30
0
41
1
10
23.1043864281697
20
-2.93866690201227
30
0
41
1
10
23.2232470250559
20
-2.9282201474422
30
0
41
1
10
23.4605880671753
20
-2.90490039238489
30
0
41
1
10
23.5791137040119
20
-2.89194693257457
30
0
41
1
10
23.816022908991
20
-2.86301188676663
30
0
41
1
10
23.934408807048
20
-2.84710875281124
30
0
41
1
10
24.1710782816278
20
-2.81287967736023
30
0
41
1
10
24.2893762604206
20
-2.79454250607452
30
0
41
1
10
24.5261437954563
20
-2.75572402678574
30
0
41
1
10
24.6445439022736
20
-2.73518722143851
30
0
41
1
10
24.8813094096372
20
-2.6918681981679
30
0
41
1
10
24.999698783402
20
-2.66912738685861
30
0
41
1
10
25.2365888104746
20
-2.62112941546181
30
0
41
1
10
25.3551029505305
20
-2.59583559186618
30
0
41
1
10
25.5921964809566
20
-2.54279371992683
30
0
41
1
10
25.7107603333934
20
-2.51504604981955
30
0
41
1
10
25.9479476202535
20
-2.45730236077887
30
0
41
1
10
26.0666573915585
20
-2.42729870288335
30
0
41
1
10
26.3036331069755
20
-2.36533563532939
30
0
41
1
10
26.4219759187669
20
-2.33343418644725
30
0
41
1
10
26.5823316699118
20
-2.28900219600442
30
0
41
1
10
26.6244121132689
20
-2.27721298241636
30
0
41
1
10
26.6664752445362
20
-2.2653018589711
30
0
0
SPLINE
5
108
100
AcDbEntity
8
1
62
256
6
ByLayer
370
18
48
1
60
0
100
AcDbSpline
70
4
71
3
72
60
73
56
40
0
40
0
40
0
40
0
40
0.0492211374348452
40
0.0492211374348452
40
0.0857895552258131
40
0.0857895552258131
40
0.122357973016781
40
0.122357973016781
40
0.158926390807748
40
0.158926390807748
40
0.195494808598716
40
0.195494808598716
40
0.232063226389683
40
0.232063226389683
40
0.268631644180651
40
0.268631644180651
40
0.305200061971618
40
0.305200061971618
40
0.341768479762585
40
0.341768479762585
40
0.378336897553553
40
0.378336897553553
40
0.414905315344521
40
0.414905315344521
40
0.451473733135488
40
0.451473733135488
40
0.488042150926455
40
0.488042150926455
40
0.524610568717423
40
0.524610568717423
40
0.56117898650839
40
0.56117898650839
40
0.597747404299358
40
0.597747404299358
40
0.634315822090325
40
0.634315822090325
40
0.670884239881293
40
0.670884239881293
40
0.70745265767226
40
0.70745265767226
40
0.744021075463228
40
0.744021075463228
40
0.780589493254195
40
0.780589493254195
40
0.817157911045163
40
0.817157911045163
40
0.85372632883613
40
0.85372632883613
40
0.890294746627097
40
0.890294746627097
40
0.926863164418065
40
0.926863164418065
40
0.963431582209033
40
0.963431582209033
40
1
40
1
40
1
40
1
41
1
10
43.7930407776031
20
3.0068938141662
30
0
41
1
10
43.9527458560663
20
3.00358302856151
30
0
41
1
10
44.1123041953274
20
2.99766324288484
30
0
41
1
10
44.3900919064391
20
2.98308032700314
30
0
41
1
10
44.508417399848
20
2.97550123267283
30
0
41
1
10
44.7450064138317
20
2.95770322660499
30
0
41
1
10
44.8632493946668
20
2.94747263306059
30
0
41
1
10
45.0999263664347
20
2.9245817849997
30
0
41
1
10
45.2183581761162
20
2.91193011013911
30
0
41
1
10
45.4552023434341
20
2.88420847840479
30
0
41
1
10
45.5736521443962
20
2.86915786577799
30
0
41
1
10
45.8106063559869
20
2.83677285776642
30
0
41
1
10
45.9290969781873
20
2.81945373495472
30
0
41
1
10
46.1660893184328
20
2.78240028540515
30
0
41
1
10
46.2845874187584
20
2.76264606585445
30
0
41
1
10
46.5216942049112
20
2.72045904880454
30
0
41
1
10
46.6401743278482
20
2.69804643576438
30
0
41
1
10
46.8769393793087
20
2.65065978379181
30
0
41
1
10
46.9952506921014
20
2.62569866245892
30
0
41
1
10
47.2320147561623
20
2.57372618874246
30
0
41
1
10
47.3504056702753
20
2.54665156226039
30
0
41
1
10
47.5871075936699
20
2.49033280269774
30
0
41
1
10
47.7054549180322
20
2.46112273235309
30
0
41
1
10
47.942147080981
20
2.40058077025554
30
0
41
1
10
48.0604887781149
20
2.36924485182843
30
0
41
1
10
48.2971488314774
20
2.30436775227273
30
0
41
1
10
48.4154581804418
20
2.27081281826526
30
0
41
1
10
48.6520845187992
20
2.20159806239647
30
0
41
1
10
48.7704092552357
20
2.16594987057942
30
0
41
1
10
49.007155602587
20
2.09276269852725
30
0
41
1
10
49.1256077490799
20
2.05528578437568
30
0
41
1
10
49.3628655226924
20
1.9788404864338
30
0
41
1
10
49.4814981742236
20
1.93977618348779
30
0
41
1
10
49.7185290536842
20
1.8600594700649
30
0
41
1
10
49.8369927785955
20
1.81942448004614
30
0
41
1
10
50.0737980346709
20
1.73658609166497
30
0
41
1
10
50.1921361362973
20
1.69438415402394
30
0
41
1
10
50.4286307027818
20
1.6083789800692
30
0
41
1
10
50.5467737215778
20
1.56455806831781
30
0
41
1
10
50.7829441982611
20
1.47545362075363
30
0
41
1
10
50.9009765512309
20
1.43015379778186
30
0
41
1
10
51.1371818378159
20
1.33836382867008
30
0
41
1
10
51.2554087808319
20
1.29200702612988
30
0
41
1
10
51.4920702560003
20
1.19842333855942
30
0
41
1
10
51.6104514030739
20
1.15108089338264
30
0
41
1
10
51.8473904153897
20
1.05548921980767
30
0
41
1
10
51.9659457253156
20
1.00723560592698
30
0
41
1
10
52.2031843719893
20
0.909744734757055
30
0
41
1
10
52.3219238484376
20
0.860478527947578
30
0
41
1
10
52.5590702040119
20
0.761046667126806
30
0
41
1
10
52.6774981853437
20
0.710863041904673
30
0
41
1
10
52.9141756541012
20
0.609801858225893
30
0
41
1
10
53.0324076769567
20
0.558886864554864
30
0
41
1
10
53.2688719621797
20
0.456751297521834
30
0
41
1
10
53.387171964773
20
0.405678134635565
30
0
41
1
10
53.5054651928369
20
0.354435712390256
30
0
0
SPLINE
5
109
100
AcDbEntity
8
1
62
256
6
ByLayer
370
18
48
1
60
0
100
AcDbSpline
70
4
71
3
72
32
73
28
40
0
40
0
40
0
40
0
40
0.062500000000001
40
0.062500000000001
40
0.125000000000002
40
0.125000000000002
40
0.187500000000003
40
0.187500000000003
40
0.250000000000004
40
0.250000000000004
40
0.281250000000005
40
0.281250000000005
40
0.312500000000005
40
0.312500000000005
40
0.375000000000006
40
0.375000000000006
40
0.500000000000009
40
0.500000000000009
40
0.562500000000008
40
0.562500000000008
40
0.625000000000007
40
0.625000000000007
40
0.750000000000004
40
0.750000000000004
40
0.875000000000002
40
0.875000000000002
40
1
40
1
40
1
40
1
41
1
10
4.67139086835732
20
2.69904074964319
30
0
41
1
10
4.72289110531736
20
2.66949300568373
30
0
41
1
10
4.77741298001297
20
2.63938839239035
30
0
41
1
10
4.89100997821427
20
2.57834997364941
30
0
41
1
10
4.95009775114607
20
2.54741399849789
30
0
41
1
10
5.07192536309134
20
2.48489435282005
30
0
41
1
10
5.13467078769909
20
2.4533097197488
30
0
41
1
10
5.26320066257526
20
2.38962294115657
30
0
41
1
10
5.32898820379697
20
2.35752023950414
30
0
41
1
10
5.42962120827798
20
2.30905165404465
30
0
41
1
10
5.46349194691538
20
2.29284283298861
30
0
41
1
10
5.53184209798877
20
2.26033029536055
30
0
41
1
10
5.56634789002567
20
2.24401419647356
30
0
41
1
10
5.67054486508846
20
2.19502011966094
30
0
41
1
10
5.74062229204733
20
2.16243272270213
30
0
41
1
10
5.95242745388572
20
2.0648982250311
30
0
41
1
10
6.09572331311949
20
2.00017790462451
30
0
41
1
10
6.31304221737216
20
1.90357839733531
30
0
41
1
10
6.38587647798081
20
1.87145913512913
30
0
41
1
10
6.53226256431358
20
1.80738665960831
30
0
41
1
10
6.60581931467286
20
1.77543321604719
30
0
41
1
10
6.8275663815823
20
1.67982638590115
30
0
41
1
10
6.97686699495657
20
1.61642469361325
30
0
41
1
10
7.2779754668112
20
1.49035019178385
30
0
41
1
10
7.42977611728412
20
1.42767799898195
30
0
41
1
10
7.73546922877406
20
1.30312517840986
30
0
41
1
10
7.88936365840661
20
1.24124423522827
30
0
41
1
10
8.04425486632789
20
1.17978627606908
30
0
0
SPLINE
5
10A
100
AcDbEntity
8
1
62
256
6
ByLayer
370
18
48
1
60
0
100
AcDbSpline
70
4
71
3
72
9
73
5
40
0
40
0
40
0
40
0
40
0.6240824656481
40
1
40
1
40
1
40
1
41
1
10
3.75168678881982
20
2.84360627949181
30
0
41
1
10
3.94377637303469
20
2.81898377729516
30
0
41
1
10
4.25084919872756
20
2.77381187876503
30
0
41
1
10
4.55663090433279
20
2.72027916434408
30
0
41
1
10
4.67139086835732
20
2.69904074964319
30
0
0
SPLINE
5
10B
100
AcDbEntity
8
1
62
256
6
ByLayer
370
18
48
1
60
0
100
AcDbSpline
70
4
71
3
72
47
73
43
40
0
40
0
40
0
40
0
40
0.0624999999999983
40
0.0624999999999983
40
0.124999999999997
40
0.124999999999997
40
0.187499999999995
40
0.187499999999995
40
0.203124999999995
40
0.203124999999995
40
0.218749999999995
40
0.249999999999994
40
0.249999999999994
40
0.312499999999993
40
0.312499999999993
40
0.374999999999992
40
0.374999999999992
40
0.390624999999993
40
0.390624999999993
40
0.406249999999993
40
0.406249999999993
40
0.437499999999993
40
0.437499999999993
40
0.499999999999993
40
0.562499999999992
40
0.562499999999992
40
0.593749999999993
40
0.609374999999993
40
0.609374999999993
40
0.624999999999993
40
0.624999999999993
40
0.687499999999994
40
0.749999999999996
40
0.812499999999997
40
0.812499999999997
40
0.843749999999997
40
0.843749999999997
40
0.874999999999998
40
0.874999999999998
40
0.937499999999999
40
0.937499999999999
40
1
40
1
40
1
40
1
41
1
10
53.5054651928368
20
0.354435712390199
30
0
41
1
10
53.5017229183521
20
0.25867959910417
30
0
41
1
10
53.500919191191
20
0.163077753745455
30
0
41
1
10
53.5040231519374
20
-0.0278559213817857
30
0
41
1
10
53.5079328296875
20
-0.123187682845497
30
0
41
1
10
53.5194599866172
20
-0.313611102019195
30
0
41
1
10
53.5270788374499
20
-0.408702727138774
30
0
41
1
10
53.5383594290035
20
-0.527431572312139
30
0
41
1
10
53.5407019124077
20
-0.55115018155098
30
0
41
1
10
53.545522439739
20
-0.598322067321135
30
0
41
1
10
53.5529652474433
20
-0.668772303008495
30
0
41
1
10
53.5609708015741
20
-0.73831855555548
30
0
41
1
10
53.5775555387447
20
-0.876244777077062
30
0
41
1
10
53.5893721598957
20
-0.966643864794491
30
0
41
1
10
53.6137172336479
20
-1.14446056141068
30
0
41
1
10
53.6262469621125
20
-1.23187802201286
30
0
41
1
10
53.6419358951543
20
-1.33929672057084
30
0
41
1
10
53.6450753071641
20
-1.36068754927112
30
0
41
1
10
53.6513479887059
20
-1.40328261364257
30
0
41
1
10
53.6544845518658
20
-1.42450901662355
30
0
41
1
10
53.6638273441856
20
-1.48760845995972
30
0
41
1
10
53.6699772234579
20
-1.52897665451147
30
0
41
1
10
53.6881021675101
20
-1.6510328031824
30
0
41
1
10
53.7113932646209
20
-1.80832259550326
30
0
41
1
10
53.7322318388851
20
-1.95492577043419
30
0
41
1
10
53.7467856155079
20
-2.06082711728763
30
0
41
1
10
53.7537953401258
20
-2.11276311877413
30
0
41
1
10
53.7603900794313
20
-2.16315107728173
30
0
41
1
10
53.7646938419477
20
-2.19639484266969
30
0
41
1
10
53.7668018842882
20
-2.21286310310632
30
0
41
1
10
53.7770770825407
20
-2.29406376268406
30
0
41
1
10
53.7917513120602
20
-2.41621161958003
30
0
41
1
10
53.8091817791797
20
-2.57678350789232
30
0
41
1
10
53.8184938077037
20
-2.66875968482711
30
0
41
1
10
53.8250052128472
20
-2.73194766737302
30
0
41
1
10
53.8270986791617
20
-2.75204792190937
30
0
41
1
10
53.831210671354
20
-2.7902497735117
30
0
41
1
10
53.8332159301779
20
-2.80822582112796
30
0
41
1
10
53.8392217963996
20
-2.85882493063284
30
0
41
1
10
53.8432090780631
20
-2.88812575219657
30
0
41
1
10
53.8519837466842
20
-2.93793031633709
30
0
41
1
10
53.8567695872169
20
-2.95843505423451
30
0
41
1
10
53.8624342038515
20
-2.97446130158986
30
0
0
SPLINE
5
10C
100
AcDbEntity
8
1
62
256
6
ByLayer
370
13
48
1
60
0
100
AcDbSpline
70
4
71
3
72
18
73
14
40
0
40
0
40
0
40
0
40
0.249999999999949
40
0.249999999999949
40
0.37499999999996
40
0.37499999999996
40
0.499999999999971
40
0.499999999999971
40
0.749999999999988
40
0.749999999999988
40
0.874999999999994
40
0.874999999999994
40
1
40
1
40
1
40
1
41
1
10
3.64787130647164
20
-1.28084235568028
30
0
41
1
10
3.63220940006099
20
-1.28024636627464
30
0
41
1
10
3.61775111410179
20
-1.279519705208
30
0
41
1
10
3.59766135631031
20
-1.27822688138139
30
0
41
1
10
3.59123367404914
20
-1.27776184150045
30
0
41
1
10
3.57890836635667
20
-1.27675915586582
30
0
41
1
10
3.57301805986805
20
-1.27622122010084
30
0
41
1
10
3.55650947129936
20
-1.27453130662374
30
0
41
1
10
3.54689293038288
20
-1.27329226574628
30
0
41
1
10
3.53437675607503
20
-1.27125259852596
30
0
41
1
10
3.53052534400197
20
-1.27054239676246
30
0
41
1
10
3.5234620375243
20
-1.26905770716689
30
0
41
1
10
3.52025574109888
20
-1.26828333852771
30
0
41
1
10
3.5174162298508
20
-1.26748834169646
30
0
0
SPLINE
5
10D
100
AcDbEntity
8
1
62
256
6
ByLayer
370
13
48
1
60
0
100
AcDbSpline
70
4
71
3
72
12
73
8
40
0
40
0
40
0
40
0
40
0.499999999999909
40
0.499999999999909
40
0.749999999999954
40
0.749999999999954
40
1
40
1
40
1
40
1
41
1
10
3.75039059069965
20
-1.29515391421896
30
0
41
1
10
3.73267509889064
20
-1.29101205175687
30
0
41
1
10
3.71526857846703
20
-1.28777535611701
30
0
41
1
10
3.68961316485198
20
-1.28419486316111
30
0
41
1
10
3.68113769272301
20
-1.2832156406817
30
0
41
1
10
3.66434534280677
20
-1.28169396132364
30
0
41
1
10
3.65600968013564
20
-1.28115204878881
30
0
41
1
10
3.64787130647164
20
-1.28084235568028
30
0
0
SPLINE
5
10E
100
AcDbEntity
8
1
62
256
6
ByLayer
370
13
48
1
60
0
100
AcDbSpline
70
4
71
3
72
57
73
53
40
0
40
0
40
0
40
0
40
0.0019531249999999
40
0.0019531249999999
40
0.0039062499999999
40
0.0078124999999999
40
0.0156249999999999
40
0.0312499999999999
40
0.0624999999999996
40
0.0624999999999996
40
0.0937499999999993
40
0.0937499999999993
40
0.124999999999999
40
0.124999999999999
40
0.187499999999999
40
0.249999999999998
40
0.265624999999998
40
0.265624999999998
40
0.281249999999998
40
0.281249999999998
40
0.312499999999998
40
0.312499999999998
40
0.374999999999998
40
0.437499999999997
40
0.437499999999997
40
0.468749999999997
40
0.468749999999997
40
0.484374999999997
40
0.484374999999997
40
0.499999999999997
40
0.499999999999997
40
0.562499999999998
40
0.562499999999998
40
0.593749999999998
40
0.609374999999998
40
0.609374999999998
40
0.624999999999998
40
0.624999999999998
40
0.687499999999999
40
0.687499999999999
40
0.749999999999999
40
0.749999999999999
40
0.812499999999999
40
0.812499999999999
40
0.828124999999999
40
0.828124999999999
40
0.84375
40
0.875
40
0.875
40
0.9375
40
0.9375
40
1
40
1
40
1
40
1
41
1
10
3.75168678881982
20
2.84360627949181
30
0
41
1
10
3.75168704926119
20
2.84259459492284
30
0
41
1
10
3.75168731321284
20
2.84155338759899
30
0
41
1
10
3.75168782798119
20
2.83948454535167
30
0
41
1
10
3.7516885904611
20
2.83636555729882
30
0
41
1
10
3.75169030206649
20
2.82897791797242
30
0
41
1
10
3.75169345673504
20
2.81376316545425
30
0
41
1
10
3.75169870353062
20
2.78157923647609
30
0
41
1
10
3.75170141727375
20
2.75099466708093
30
0
41
1
10
3.75170350448337
20
2.70754565498871
30
0
41
1
10
3.75170378000189
20
2.68443366197403
30
0
41
1
10
3.75170285269041
20
2.63587663781331
30
0
41
1
10
3.75170165420914
20
2.61041948781653
30
0
41
1
10
3.7516959743437
20
2.53058011307493
30
0
41
1
10
3.7516828575408
20
2.41489905012651
30
0
41
1
10
3.75165662961331
20
2.26426073240893
30
0
41
1
10
3.75163824005765
20
2.17330359286322
30
0
41
1
10
3.75163057788157
20
2.13633014832277
30
0
41
1
10
3.75162658952232
20
2.11752790554138
30
0
41
1
10
3.75161419777797
20
2.06036971204233
30
0
41
1
10
3.75160540389854
20
2.0214232173908
30
0
41
1
10
3.75157750143202
20
1.90211627894158
30
0
41
1
10
3.75153625670293
20
1.73647422574473
30
0
41
1
10
3.75148738718212
20
1.55794026930917
30
0
41
1
10
3.75144787872531
20
1.41912954935057
30
0
41
1
10
3.75143423150203
20
1.37203923231584
30
0
41
1
10
3.75141302825577
20
1.30014783120492
30
0
41
1
10
3.75140583093915
20
1.2759503831378
30
0
41
1
10
3.75139126138396
20
1.22737442837504
30
0
41
1
10
3.75138388224673
20
1.20297212976831
30
0
41
1
10
3.75134651571671
20
1.08039349359009
30
0
41
1
10
3.75131512347835
20
0.980520595410923
30
0
41
1
10
3.7512657118063
20
0.828022403658053
30
0
41
1
10
3.75124042286146
20
0.751099649712927
30
0
41
1
10
3.75121422409779
20
0.673158173939981
30
0
41
1
10
3.75119655063418
20
0.620968961376917
30
0
41
1
10
3.75118759904274
20
0.594728027686529
30
0
41
1
10
3.7511424502535
20
0.463362371496544
30
0
41
1
10
3.75110520792291
20
0.358101159390657
30
0
41
1
10
3.75102825955363
20
0.147252960921747
30
0
41
1
10
3.75098855377846
20
0.041665941142611
30
0
41
1
10
3.7509063212579
20
-0.169833725049045
30
0
41
1
10
3.75086379562725
20
-0.275746340623726
30
0
41
1
10
3.75080855260558
20
-0.408347546583258
30
0
41
1
10
3.75079739253891
20
-0.434893402461341
30
0
41
1
10
3.75077498402575
20
-0.487700563609621
30
0
41
1
10
3.75074119270295
20
-0.566595640524213
30
0
41
1
10
3.75070684013076
20
-0.644554064385602
30
0
41
1
10
3.7506373128187
20
-0.79923909745682
30
0
41
1
10
3.75058986763631
20
-0.900723472786552
30
0
41
1
10
3.75049234100962
20
-1.10041978925381
30
0
41
1
10
3.75044226066538
20
-1.19863202320434
30
0
41
1
10
3.75039059069968
20
-1.29515391421896
30
0
0
SPLINE
5
10F
100
AcDbEntity
8
1
62
256
6
ByLayer
370
18
48
1
60
0
100
AcDbSpline
70
4
71
3
72
19
73
15
40
0
40
0
40
0
40
0
40
0.125
40
0.125
40
0.25
40
0.25
40
0.375000000000001
40
0.375000000000001
40
0.500000000000001
40
0.625000000000001
40
0.625000000000001
40
0.750000000000001
40
0.750000000000001
40
1
40
1
40
1
40
1
41
1
10
3.51877713603653
20
3.02425007456864
30
0
41
1
10
3.52368221962516
20
3.01206323351582
30
0
41
1
10
3.52958064942555
20
3.00000327151278
30
0
41
1
10
3.54279381835576
20
2.97716173161578
30
0
41
1
10
3.55012842320139
20
2.96629153091453
30
0
41
1
10
3.56617688266027
20
2.94559353017766
30
0
41
1
10
3.57490796980841
20
2.93574945182076
30
0
41
1
10
3.59370031947026
20
2.91718702129896
30
0
41
1
10
3.61339406986824
20
2.90016368698846
30
0
41
1
10
3.63475782552976
20
2.88599703750026
30
0
41
1
10
3.65694589076719
20
2.87324626433883
30
0
41
1
10
3.66852029497187
20
2.86756120725917
30
0
41
1
10
3.70346199266913
20
2.8531188137124
30
0
41
1
10
3.72731225881165
20
2.84673066502847
30
0
41
1
10
3.75168678881982
20
2.84360627949181
30
0
0
SPLINE
5
110
100
AcDbEntity
8
1
62
256
6
ByLayer
370
18
48
1
60
0
100
AcDbSpline
70
4
71
3
72
55
73
51
40
0
40
0
40
0
40
0
40
0.0624999999999998
40
0.0624999999999998
40
0.0781249999999997
40
0.0781249999999997
40
0.0937499999999996
40
0.124999999999999
40
0.124999999999999
40
0.187499999999999
40
0.187499999999999
40
0.249999999999998
40
0.249999999999998
40
0.265624999999998
40
0.265624999999998
40
0.281249999999998
40
0.312499999999998
40
0.312499999999998
40
0.374999999999997
40
0.437499999999997
40
0.437499999999997
40
0.468749999999997
40
0.468749999999997
40
0.499999999999997
40
0.499999999999997
40
0.562499999999996
40
0.624999999999996
40
0.624999999999996
40
0.640624999999996
40
0.640624999999996
40
0.656249999999996
40
0.656249999999996
40
0.687499999999996
40
0.687499999999996
40
0.749999999999997
40
0.812499999999998
40
0.812499999999998
40
0.843749999999998
40
0.843749999999998
40
0.859374999999998
40
0.859374999999998
40
0.874999999999998
40
0.874999999999998
40
0.937499999999999
40
0.937499999999999
40
0.96875
40
0.96875
40
0.984375
40
0.984375
40
1
40
1
40
1
40
1
41
1
10
3.51741622984577
20
-1.26748834170112
30
0
41
1
10
3.51743943482916
20
-1.16443312921228
30
0
41
1
10
3.51746211411907
20
-1.05914132521502
30
0
41
1
10
3.51748992672628
20
-0.924714366134566
30
0
41
1
10
3.51749546078156
20
-0.897694947996996
30
0
41
1
10
3.5175064305933
20
-0.843609219099875
30
0
41
1
10
3.51752275587899
20
-0.762323318453895
30
0
41
1
10
3.51753871140571
20
-0.68057080814836
30
0
41
1
10
3.51757017343775
20
-0.516452548862503
30
0
41
1
10
3.51759055090832
20
-0.406224432471731
30
0
41
1
10
3.51763030623513
20
-0.184141259922399
30
0
41
1
10
3.5176496838551
20
-0.0722863358815857
30
0
41
1
10
3.51767337505231
20
0.0685812978826164
30
0
41
1
10
3.51767808968222
20
0.0968263437081589
30
0
41
1
10
3.51768741298258
20
0.153090791094058
30
0
41
1
10
3.51770125900336
20
0.237267411718392
30
0
41
1
10
3.51771470479849
20
0.320791860339824
30
0
41
1
10
3.51774109893231
20
0.486985048835095
30
0
41
1
10
3.5177749694123
20
0.706298685546614
30
0
41
1
10
3.51780645854737
20
0.921087031244099
30
0
41
1
10
3.51782922386312
20
1.08043341140714
30
0
41
1
10
3.51783668770952
20
1.13338915196257
30
0
41
1
10
3.51785117051216
20
1.23754363189977
30
0
41
1
10
3.51785820545433
20
1.28885061907903
30
0
41
1
10
3.51787870900296
20
1.44050391702425
30
0
41
1
10
3.51790444961745
20
1.63667361590078
30
0
41
1
10
3.51792703696606
20
1.82091610996775
30
0
41
1
10
3.51794011961635
20
1.93225645444065
30
0
41
1
10
3.5179426841724
20
1.95433344542363
30
0
41
1
10
3.51794770707281
20
1.99810103532693
30
0
41
1
10
3.51795016898566
20
2.01982376338833
30
0
41
1
10
3.51795736147366
20
2.08413635023763
30
0
41
1
10
3.51796189603903
20
2.12584034998554
30
0
41
1
10
3.51797471715128
20
2.24751454323538
30
0
41
1
10
3.51798973129684
20
2.40059847367192
30
0
41
1
10
3.5180004108914
20
2.53569914004626
30
0
41
1
10
3.51800664911255
20
2.63016693182897
30
0
41
1
10
3.51800843241872
20
2.6605108540208
30
0
41
1
10
3.51801063650129
20
2.70427153635131
30
0
41
1
10
3.51801129245803
20
2.71856678895969
30
0
41
1
10
3.51801243682851
20
2.74641384680487
30
0
41
1
10
3.51801292633729
20
2.75998608567593
30
0
41
1
10
3.51801495643195
20
2.82610575989449
30
0
41
1
10
3.51801524864226
20
2.87344359635821
30
0
41
1
10
3.51801356350933
20
2.93621664022038
30
0
41
1
10
3.51801264710912
20
2.95576573722792
30
0
41
1
10
3.51801071737464
20
2.98301276763789
30
0
41
1
10
3.51795976988078
20
2.99174882181004
30
0
41
1
10
3.51813269467749
20
3.00852380516699
30
0
41
1
10
3.51837239074132
20
3.01656273940227
30
0
41
1
10
3.51877713603645
20
3.02425007456867
30
0
0
SPLINE
5
111
100
AcDbEntity
8
1
62
256
6
ByLayer
370
13
48
1
60
0
100
AcDbSpline
70
4
71
3
72
12
73
8
40
0
40
0
40
0
40
0
40
0.379290764291391
40
0.379290764291391
40
0.758581528582782
40
0.758581528582782
40
1
40
1
40
1
40
1
41
1
10
3.75039059069968
20
-1.29515391421896
30
0
41
1
10
4.27609481214805
20
-1.49969030423657
30
0
41
1
10
4.79799181767521
20
-1.69115773979107
30
0
41
1
10
5.83817500251044
20
-2.04165289138862
30
0
41
1
10
6.35650583895608
20
-2.20074261460445
30
0
41
1
10
7.20523365138146
20
-2.42874339145291
30
0
41
1
10
7.53543675111888
20
-2.50948284538563
30
0
41
1
10
7.86625154395429
20
-2.58153001593448
30
0
0
SPLINE
5
112
100
AcDbEntity
8
1
62
256
6
ByLayer
370
18
48
1
60
0
100
AcDbSpline
70
4
71
3
72
16
73
12
40
0
40
0
40
0
40
0
40
0.156613646035158
40
0.156613646035158
40
0.372038027356196
40
0.479750218016716
40
0.533606313346974
40
0.533606313346974
40
0.587462408677235
40
0.587462408677235
40
1
40
1
40
1
40
1
41
1
10
7.86625151804304
20
-2.58153001029137
30
0
41
1
10
8.05517739358979
20
-2.62267561550146
30
0
41
1
10
8.24430277084315
20
-2.66098626081254
30
0
41
1
10
8.69427359683226
20
-2.74492602013086
30
0
41
1
10
9.08594715045308
20
-2.8093901406682
30
0
41
1
10
9.54504821135913
20
-2.86903139626116
30
0
41
1
10
9.74233826742108
20
-2.89116176947584
30
0
41
1
10
9.87399174875486
20
-2.90514200753762
30
0
41
1
10
9.93983852792664
20
-2.9117403427872
30
0
41
1
10
10.509288951672
20
-2.96537392021901
30
0
41
1
10
11.0096824746237
20
-2.98930716670216
30
0
41
1
10
11.5085776634595
20
-2.98991200070088
30
0
0
SPLINE
5
113
100
AcDbEntity
8
1
62
256
6
ByLayer
370
13
48
1
60
0
100
AcDbSpline
70
4
71
3
72
36
73
32
40
0
40
0
40
0
40
0
40
0.0561852676569167
40
0.0561852676569167
40
0.0909533659448545
40
0.0909533659448545
40
0.125721464232793
40
0.125721464232793
40
0.264793857384548
40
0.264793857384548
40
0.334330053960426
40
0.334330053960426
40
0.403866250536305
40
0.403866250536305
40
0.542938643688059
40
0.542938643688059
40
0.577706741975997
40
0.577706741975997
40
0.612474840263934
40
0.612474840263934
40
0.682011036839811
40
0.682011036839811
40
0.751547233415688
40
0.751547233415688
40
0.821083429991565
40
0.821083429991565
40
0.890619626567443
40
0.890619626567443
40
0.96015582314332
40
0.96015582314332
40
1
40
1
40
1
40
1
41
1
10
39.9194706093569
20
1.72279679081447
30
0
41
1
10
40.130660150771
20
1.64767780921741
30
0
41
1
10
40.3422925855434
20
1.56998286980996
30
0
41
1
10
40.6858137231871
20
1.44041223520352
30
0
41
1
10
40.8174936234527
20
1.38993111156148
30
0
41
1
10
41.0802325572753
20
1.28775225444309
30
0
41
1
10
41.2113736895473
20
1.23602512783711
30
0
41
1
10
41.8661036560857
20
0.974588460203137
30
0
41
1
10
42.3867860967803
20
0.756510814741006
30
0
41
1
10
43.1661607337453
20
0.423069347910882
30
0
41
1
10
43.425696084981
20
0.310909540766829
30
0
41
1
10
43.9447748189051
20
0.0857934188732941
30
0
41
1
10
44.2043303282483
20
-0.0271321038998735
30
0
41
1
10
44.9836900436937
20
-0.365483299734962
30
0
41
1
10
45.5041887541943
20
-0.590479872917996
30
0
41
1
10
46.1585588202834
20
-0.864865012257582
30
0
41
1
10
46.2896211204368
20
-0.919396476170164
30
0
41
1
10
46.5521944363339
20
-1.02759553619862
30
0
41
1
10
46.6838494694012
20
-1.08131887846909
30
0
41
1
10
47.0778640816808
20
-1.24023925249884
30
0
41
1
10
47.3396327920065
20
-1.34334990627238
30
0
41
1
10
47.8618509536784
20
-1.54295931815855
30
0
41
1
10
48.1223101277177
20
-1.63945741228971
30
0
41
1
10
48.6424840529877
20
-1.82487118363613
30
0
41
1
10
48.9021933368873
20
-1.91378083972401
30
0
41
1
10
49.4213265636961
20
-2.08308356192396
30
0
41
1
10
49.6807497420451
20
-2.16349029033307
30
0
41
1
10
50.1997945204039
20
-2.31499899334929
30
0
41
1
10
50.4594213237118
20
-2.38608378299574
30
0
41
1
10
50.8684223552194
20
-2.48984902662514
30
0
41
1
10
51.0175485876775
20
-2.52597817899562
30
0
41
1
10
51.166848453749
20
-2.56036620283933
30
0
0
SPLINE
5
114
100
AcDbEntity
8
1
62
256
6
ByLayer
370
18
48
1
60
0
100
AcDbSpline
70
4
71
3
72
20
73
16
40
0
40
0
40
0
40
0
40
0.124598690793841
40
0.124598690793841
40
0.416399127195898
40
0.416399127195898
40
0.562299345396921
40
0.562299345396921
40
0.708199563597944
40
0.708199563597944
40
0.854099781798965
40
0.927049890899483
40
0.963524945449742
40
0.963524945449742
40
1
40
1
40
1
40
1
41
1
10
51.1668494266917
20
-2.56036642693581
30
0
41
1
10
51.2781078844528
20
-2.58599242204247
30
0
41
1
10
51.3894627653433
20
-2.61065152485224
30
0
41
1
10
51.7619726301754
20
-2.68973011385452
30
0
41
1
10
52.023627636631
20
-2.73968678857449
30
0
41
1
10
52.4174713321548
20
-2.80586046974017
30
0
41
1
10
52.5490732127128
20
-2.82646946375223
30
0
41
1
10
52.8119915461758
20
-2.86455811811572
30
0
41
1
10
52.943375483523
20
-2.88205116441318
30
0
41
1
10
53.2060496597728
20
-2.91388653919
30
0
41
1
10
53.4029854551189
20
-2.93540177753451
30
0
41
1
10
53.6327012453873
20
-2.95632942307677
30
0
41
1
10
53.7311499955002
20
-2.96439973336757
30
0
41
1
10
53.7967832130665
20
-2.96957975148072
30
0
41
1
10
53.8295842483699
20
-2.97205061290668
30
0
41
1
10
53.8624342038526
20
-2.97446130158986
30
0
0
SPLINE
5
115
100
AcDbEntity
8
1
62
256
6
ByLayer
370
18
48
1
60
0
100
AcDbSpline
70
4
71
3
72
24
73
20
40
0
40
0
40
0
40
0
40
0.124999999999956
40
0.124999999999956
40
0.249999999999913
40
0.249999999999913
40
0.374999999999869
40
0.374999999999869
40
0.499999999999826
40
0.499999999999826
40
0.624999999999783
40
0.624999999999783
40
0.687499999999795
40
0.687499999999795
40
0.749999999999807
40
0.749999999999807
40
0.874999999999904
40
0.874999999999904
40
1
40
1
40
1
40
1
41
1
10
53.8624342038515
20
-2.97446130158977
30
0
41
1
10
53.8628282184624
20
-2.97557604174307
30
0
41
1
10
53.8630494751991
20
-2.97719847459601
30
0
41
1
10
53.8631221022297
20
-2.98150985196119
30
0
41
1
10
53.8629702185225
20
-2.98422943529306
30
0
41
1
10
53.8622477167029
20
-2.99075940770027
30
0
41
1
10
53.8616857378288
20
-2.99451657697335
30
0
41
1
10
53.8601337797874
20
-3.00307571875913
30
0
41
1
10
53.8591237316187
20
-3.00796175933527
30
0
41
1
10
53.8567202408724
20
-3.01845592438085
30
0
41
1
10
53.8553333191242
20
-3.02405353941117
30
0
41
1
10
53.8529707159682
20
-3.03299406928329
30
0
41
1
10
53.852130725602
20
-3.03608303686641
30
0
41
1
10
53.850400265228
20
-3.04228307091364
30
0
41
1
10
53.8495058396024
20
-3.04541002044533
30
0
41
1
10
53.8467397920856
20
-3.05486933904493
30
0
41
1
10
53.8447624370859
20
-3.06135284179203
30
0
41
1
10
53.840731772284
20
-3.07410741113998
30
0
41
1
10
53.8386819977256
20
-3.08037420295949
30
0
41
1
10
53.8366044843797
20
-3.08653904370075
30
0
0
SPLINE
5
116
100
AcDbEntity
8
1
62
256
6
ByLayer
370
18
48
1
60
0
100
AcDbSpline
70
4
71
3
72
91
73
87
40
0
40
0
40
0
40
0
40
0.0082915611663567
40
0.0082915611663567
40
0.0410644771351813
40
0.0410644771351813
40
0.0738373931040058
40
0.0738373931040058
40
0.10661030907283
40
0.10661030907283
40
0.122996767057242
40
0.122996767057242
40
0.139383225041653
40
0.139383225041653
40
0.204929056979297
40
0.204929056979297
40
0.237701972948119
40
0.237701972948119
40
0.254088430932531
40
0.254088430932531
40
0.270474888916943
40
0.270474888916943
40
0.303247804885768
40
0.303247804885768
40
0.336020720854594
40
0.336020720854594
40
0.352407178839007
40
0.352407178839007
40
0.368793636823419
40
0.368793636823419
40
0.401566552792245
40
0.401566552792245
40
0.43433946876107
40
0.43433946876107
40
0.467112384729895
40
0.467112384729895
40
0.475305613722102
40
0.475305613722102
40
0.483498842714308
40
0.499885300698721
40
0.499885300698721
40
0.532658216667547
40
0.532658216667547
40
0.54904467465196
40
0.54904467465196
40
0.565431132636372
40
0.565431132636372
40
0.581817590620785
40
0.581817590620785
40
0.590010819612991
40
0.590010819612991
40
0.598204048605198
40
0.61459050658961
40
0.61459050658961
40
0.630976964574022
40
0.630976964574022
40
0.663749880542845
40
0.663749880542845
40
0.680136338527257
40
0.680136338527257
40
0.696522796511669
40
0.696522796511669
40
0.729295712480494
40
0.729295712480494
40
0.745682170464906
40
0.745682170464906
40
0.762068628449319
40
0.762068628449319
40
0.794841544418144
40
0.794841544418144
40
0.811228002402557
40
0.811228002402557
40
0.819421231394763
40
0.819421231394763
40
0.827614460386969
40
0.827614460386969
40
0.860387376355795
40
0.860387376355795
40
0.925933208293445
40
0.925933208293445
40
0.942319666277857
40
0.942319666277857
40
0.95870612426227
40
0.991479040231096
40
0.991479040231096
40
1
40
1
40
1
40
1
41
1
10
35.2105821666054
20
-3.00670945200085
30
0
41
1
10
35.1450445354451
20
-3.01597776043448
30
0
41
1
10
35.0795087559744
20
-3.02484108095035
30
0
41
1
10
34.7549255964726
20
-3.06671484963897
30
0
41
1
10
34.4958563357979
20
-3.09376975441984
30
0
41
1
10
33.9770660484416
20
-3.13478792931042
30
0
41
1
10
33.7173356309122
20
-3.14875109465217
30
0
41
1
10
33.1966877767977
20
-3.16332781861783
30
0
41
1
10
32.9357865107236
20
-3.16394026138755
30
0
41
1
10
32.5431130410515
20
-3.15466335056181
30
0
41
1
10
32.4119656135447
20
-3.14987085148133
30
0
41
1
10
32.1493015750158
20
-3.13687497023034
30
0
41
1
10
32.0180933735276
20
-3.12868823538503
30
0
41
1
10
31.3625138350693
20
-3.07940251760584
30
0
41
1
10
30.8395130603499
20
-3.0132151677409
30
0
41
1
10
30.0537223184745
20
-2.87604401955483
30
0
41
1
10
29.7915577049661
20
-2.8240307597853
30
0
41
1
10
29.3975641506331
20
-2.7368860692105
30
0
41
1
10
29.2662658069385
20
-2.7063501796334
30
0
41
1
10
29.003952744275
20
-2.64246824441798
30
0
41
1
10
28.8728924293466
20
-2.60911127599755
30
0
41
1
10
28.4798758162512
20
-2.5049616958832
30
0
41
1
10
28.2180918784326
20
-2.43008160373407
30
0
41
1
10
27.6944681868907
20
-2.27014583813673
30
0
41
1
10
27.4325973801133
20
-2.18513226235021
30
0
41
1
10
27.0392328608311
20
-2.05076324953822
30
0
41
1
10
26.9080224855375
20
-2.00482619589712
30
0
41
1
10
26.6453703645727
20
-1.91073635178981
30
0
41
1
10
26.5140208374702
20
-1.86261355889832
30
0
41
1
10
26.1204797372238
20
-1.71549588165948
30
0
41
1
10
25.858507853348
20
-1.6136736881775
30
0
41
1
10
25.3347350826631
20
-1.40372821424359
30
0
41
1
10
25.072963316444
20
-1.295548912686
30
0
41
1
10
24.5490711569839
20
-1.0739188216476
30
0
41
1
10
24.286933709955
20
-0.960501964526912
30
0
41
1
10
23.9586260290303
20
-0.81629500092609
30
0
41
1
10
23.8929144399763
20
-0.787324428074243
30
0
41
1
10
23.7615803811048
20
-0.729213370658101
30
0
41
1
10
23.5646718118717
20
-0.641775504911834
30
0
41
1
10
23.3680339455755
20
-0.553538730721897
30
0
41
1
10
22.9749246704419
20
-0.376426617644711
30
0
41
1
10
22.7130726687078
20
-0.25750311988304
30
0
41
1
10
22.3202230057276
20
-0.0787344909124386
30
0
41
1
10
22.1892608000051
20
-0.0190819378777007
30
0
41
1
10
21.9272931718077
20
0.100308649516649
30
0
41
1
10
21.7962882497197
20
0.160047927515961
30
0
41
1
10
21.5340959283087
20
0.279304221549381
30
0
41
1
10
21.4029083877203
20
0.338820838025555
30
0
41
1
10
21.2059421675786
20
0.427822393049979
30
0
41
1
10
21.1402244233662
20
0.45745813384255
30
0
41
1
10
21.008897833605
20
0.516539904268541
30
0
41
1
10
20.8120889498142
20
0.604870167313493
30
0
41
1
10
20.6157853526508
20
0.692247526523317
30
0
41
1
10
20.3544717133839
20
0.807860926848463
30
0
41
1
10
20.2240272777901
20
0.865221770556616
30
0
41
1
10
19.8331366705862
20
1.03554497867529
30
0
41
1
10
19.5731333952847
20
1.14675182566572
30
0
41
1
10
19.1836373327777
20
1.30931305952888
30
0
41
1
10
19.0538898627016
20
1.36279180024604
30
0
41
1
10
18.7945369760874
20
1.46828007464657
30
0
41
1
10
18.6649321410055
20
1.52028971304415
30
0
41
1
10
18.2761485489564
20
1.67375077885075
30
0
41
1
10
18.0169994178979
20
1.77263447892605
30
0
41
1
10
17.627962280536
20
1.91512705248553
30
0
41
1
10
17.4982304839393
20
1.96165186079406
30
0
41
1
10
17.2386310054368
20
2.05269395454727
30
0
41
1
10
17.1087643799116
20
2.09721208253041
30
0
41
1
10
16.7187841314245
20
2.22743331473384
30
0
41
1
10
16.4582882757669
20
2.30980272171396
30
0
41
1
10
16.0664031069856
20
2.42601700150968
30
0
41
1
10
15.9355840732066
20
2.46353145792489
30
0
41
1
10
15.7390396355548
20
2.51790759444151
30
0
41
1
10
15.6734722774082
20
2.5357170806665
30
0
41
1
10
15.5422185040134
20
2.57068096580113
30
0
41
1
10
15.476500939318
20
2.58784315876113
30
0
41
1
10
15.1481027706931
20
2.67182971419763
30
0
41
1
10
14.8858500489753
20
2.73322452187395
30
0
41
1
10
14.0996948380641
20
2.89928642419332
30
0
41
1
10
13.5763637634959
20
2.98576856355427
30
0
41
1
10
12.9203139599095
20
3.06121049153373
30
0
41
1
10
12.7890015636784
20
3.07466919556643
30
0
41
1
10
12.5261530424713
20
3.098266537548
30
0
41
1
10
12.132258969813
20
3.1286187938106
30
0
41
1
10
11.7391606107427
20
3.1437928041241
30
0
41
1
10
11.4090595433304
20
3.14801888332167
30
0
41
1
10
11.3409483147361
20
3.14843324050793
30
0
41
1
10
11.2728369064118
20
3.14839031306579
30
0
0
SPLINE
5
117
100
AcDbEntity
8
1
62
256
6
ByLayer
370
13
48
1
60
0
100
AcDbSpline
70
4
71
3
72
52
73
48
40
0
40
0
40
0
40
0
40
0.0234639988803162
40
0.0234639988803162
40
0.0595624766809454
40
0.0595624766809454
40
0.0956609544815746
40
0.0956609544815746
40
0.167857910082831
40
0.167857910082831
40
0.203956387883459
40
0.203956387883459
40
0.240054865684087
40
0.240054865684087
40
0.276153343484715
40
0.276153343484715
40
0.294202582385029
40
0.294202582385029
40
0.312251821285344
40
0.312251821285344
40
0.348350299085973
40
0.348350299085973
40
0.384448776886603
40
0.384448776886603
40
0.456645732487859
40
0.456645732487859
40
0.492744210288487
40
0.492744210288487
40
0.528842688089115
40
0.528842688089115
40
0.60103964369037
40
0.60103964369037
40
0.673236599291625
40
0.673236599291625
40
0.745433554892881
40
0.745433554892881
40
0.817630510494136
40
0.817630510494136
40
0.853728988294765
40
0.853728988294765
40
0.889827466095394
40
0.889827466095394
40
0.962024421696653
40
0.962024421696653
40
0.998122899497281
40
0.998122899497281
40
1
40
1
40
1
40
1
41
1
10
18.364453704717
20
1.64555158655369
30
0
41
1
10
18.4488988770829
20
1.61505933529406
30
0
41
1
10
18.5333348148706
20
1.58419509773779
30
0
41
1
10
18.7476712114103
20
1.5049474158813
30
0
41
1
10
18.877574596724
20
1.45609436840789
30
0
41
1
10
19.137476181587
20
1.35695994943168
30
0
41
1
10
19.2674703898394
20
1.30666267119378
30
0
41
1
10
19.6576349477358
20
1.15362608598224
30
0
41
1
10
19.9179931075206
20
1.04876475969922
30
0
41
1
10
20.3092912539222
20
0.888018476845474
30
0
41
1
10
20.439853233626
20
0.833876046445027
30
0
41
1
10
20.7013220275725
20
0.724709927006558
30
0
41
1
10
20.8322261286167
20
0.669670602559876
30
0
41
1
10
21.0944150507516
20
0.558717331781935
30
0
41
1
10
21.225701176363
20
0.502810389994721
30
0
41
1
10
21.4229676212159
20
0.418411250193628
30
0
41
1
10
21.48881897962
20
0.39017134224585
30
0
41
1
10
21.6203845991201
20
0.333640633216987
30
0
41
1
10
21.6861069028819
20
0.30534562085154
30
0
41
1
10
21.8831094694853
20
0.220410230126248
30
0
41
1
10
22.0142289392034
20
0.163724934982525
30
0
41
1
10
22.2761437325665
20
0.0504644295119476
30
0
41
1
10
22.4069317771395
20
-0.0061231508011588
30
0
41
1
10
22.7988185508086
20
-0.175651020078902
30
0
41
1
10
23.0594509584188
20
-0.288337404137621
30
0
41
1
10
23.449854452661
20
-0.455934247118591
30
0
41
1
10
23.5799027644869
20
-0.511555181153199
30
0
41
1
10
23.8399193319206
20
-0.622115354042734
30
0
41
1
10
23.9698822569796
20
-0.6770619433089
30
0
41
1
10
24.3596744015737
20
-0.840773248110736
30
0
41
1
10
24.6194182811819
20
-0.948393545962801
30
0
41
1
10
25.1392505751435
20
-1.15928787942491
30
0
41
1
10
25.3993405623332
20
-1.2625798173242
30
0
41
1
10
25.9203504859127
20
-1.46374315991289
30
0
41
1
10
26.1812660399131
20
-1.56160694640363
30
0
41
1
10
26.7044578652165
20
-1.75074692379252
30
0
41
1
10
26.9667387927618
20
-1.8420304625389
30
0
41
1
10
27.3615567750244
20
-1.973180183583
30
0
41
1
10
27.4931483204227
20
-2.01584949410602
30
0
41
1
10
27.7561056751817
20
-2.09888756959791
30
0
41
1
10
27.8875148382729
20
-2.13927331264284
30
0
41
1
10
28.2816560821719
20
-2.25688547069973
30
0
41
1
10
28.5443080593289
20
-2.33058580026474
30
0
41
1
10
28.9384714141596
20
-2.43343242117078
30
0
41
1
10
29.0698919440067
20
-2.46642671571919
30
0
41
1
10
29.2082245007128
20
-2.49972103619547
30
0
41
1
10
29.2150623567938
20
-2.50136312223458
30
0
41
1
10
29.2219004125349
20
-2.50300158053202
30
0
0
SPLINE
5
118
100
AcDbEntity
8
1
62
256
6
ByLayer
370
18
48
1
60
0
100
AcDbSpline
70
4
71
3
72
20
73
16
40
0
40
0
40
0
40
0
40
0.0435120933039749
40
0.0435120933039749
40
0.0920746365775092
40
0.0920746365775092
40
0.286324809671626
40
0.286324809671626
40
0.480574982765742
40
0.480574982765742
40
0.674825155859859
40
0.674825155859859
40
0.869075328953974
40
0.869075328953974
40
1
40
1
40
1
40
1
41
1
10
29.2219004133591
20
-2.50300158072952
30
0
41
1
10
29.280813605881
20
-2.51711769980716
30
0
41
1
10
29.3397416185026
20
-2.53096454378857
30
0
41
1
10
29.4644743004793
20
-2.55969039785737
30
0
41
1
10
29.5303084880748
20
-2.57450838754824
30
0
41
1
10
29.8591498094372
20
-2.64678277892563
30
0
41
1
10
30.1213449683621
20
-2.69883521886445
30
0
41
1
10
30.6444581591064
20
-2.79094808244761
30
0
41
1
10
30.9054153847101
20
-2.83098699731562
30
0
41
1
10
31.4265995403974
20
-2.89882546728216
30
0
41
1
10
31.6868235058802
20
-2.92663961614895
30
0
41
1
10
32.2070843031917
20
-2.96978374148176
30
0
41
1
10
32.4671221174782
20
-2.98505652234087
30
0
41
1
10
32.9026613525371
20
-3.00002992379959
30
0
41
1
10
33.0780879917443
20
-3.00319207181613
30
0
41
1
10
33.2536659255725
20
-3.00346506050502
30
0
0
SPLINE
5
119
100
AcDbEntity
8
1
62
256
6
ByLayer
370
13
48
1
60
0
100
AcDbSpline
70
4
71
3
72
27
73
23
40
0
40
0
40
0
40
0
40
0.0048522584335574
40
0.0575948772459184
40
0.0575948772459184
40
0.163080114870637
40
0.163080114870637
40
0.374050590120075
40
0.374050590120075
40
0.585021065369513
40
0.585021065369513
40
0.690506302994231
40
0.690506302994231
40
0.716877612400409
40
0.716877612400409
40
0.743248921806588
40
0.743248921806588
40
0.795991540618945
40
0.795991540618945
40
0.901476778243654
40
0.901476778243654
40
1
40
1
40
1
40
1
41
1
10
34.6963442838765
20
-3.01280907636888
30
0
41
1
10
34.684257875946
20
-3.01409802347664
30
0
41
1
10
34.5408175909439
20
-3.02923250679873
30
0
41
1
10
34.3976319951291
20
-3.04240888281049
30
0
41
1
10
34.0047922760364
20
-3.07366197651208
30
0
41
1
10
33.7435955190106
20
-3.08788960926046
30
0
41
1
10
32.9613291369228
20
-3.11059301923322
30
0
41
1
10
32.4416195526434
20
-3.0994171809111
30
0
41
1
10
31.4012930962206
20
-3.02487388036664
30
0
41
1
10
30.8807398855111
20
-2.96171222930653
30
0
41
1
10
30.0960475629738
20
-2.82927688180177
30
0
41
1
10
29.8338156235017
20
-2.77886610279583
30
0
41
1
10
29.5048803365255
20
-2.70825869616112
30
0
41
1
10
29.4390157676118
20
-2.69375265775835
30
0
41
1
10
29.3073775419515
20
-2.66403611871539
30
0
41
1
10
29.2415817828081
20
-2.64882093884242
30
0
41
1
10
29.0442508205289
20
-2.60211769506446
30
0
41
1
10
28.9127727525819
20
-2.56956796965176
30
0
41
1
10
28.5184434301985
20
-2.46783900579862
30
0
41
1
10
28.2556965012671
20
-2.39458518108282
30
0
41
1
10
27.7473521732774
20
-2.24318360948541
30
0
41
1
10
27.5017032602655
20
-2.1656656227002
30
0
41
1
10
27.2557519197635
20
-2.0841282516399
30
0
0
SPLINE
5
11A
100
AcDbEntity
8
1
62
256
6
ByLayer
370
18
48
1
60
0
100
AcDbSpline
70
4
71
3
72
26
73
22
40
0
40
0
40
0
40
0
40
0.0099893915577005
40
0.0099893915577005
40
0.161344022974361
40
0.161344022974361
40
0.312698654391019
40
0.312698654391019
40
0.464053285807679
40
0.464053285807679
40
0.615407917224338
40
0.615407917224338
40
0.691085232932669
40
0.691085232932669
40
0.766762548640998
40
0.766762548640998
40
0.918117180057658
40
0.918117180057658
40
0.993794495765988
40
0.993794495765988
40
1
40
1
40
1
40
1
41
1
10
27.2557519195912
20
-2.08412825158277
30
0
41
1
10
27.2383720867026
20
-2.07836651887445
30
0
41
1
10
27.2209907436851
20
-2.07258471593687
30
0
41
1
10
26.9402300905906
20
-1.97887772178069
30
0
41
1
10
26.677847592228
20
-1.88682955266378
30
0
41
1
10
26.1545570110548
20
-1.69558127841748
30
0
41
1
10
25.8936309552993
20
-1.59640076195691
30
0
41
1
10
25.3726397818227
20
-1.3921088952479
30
0
41
1
10
25.1125965371613
20
-1.28696784319121
30
0
41
1
10
24.5928962071177
20
-1.07184229871834
30
0
41
1
10
24.3332222196944
20
-0.961871647034314
30
0
41
1
10
23.943526637196
20
-0.794278918599076
30
0
41
1
10
23.8135935731664
20
-0.737981257487832
30
0
41
1
10
23.55364498873
20
-0.624567549271973
30
0
41
1
10
23.4236371089311
20
-0.567439345781168
30
0
41
1
10
23.033336427681
20
-0.39515815887691
30
0
41
1
10
22.7727422373073
20
-0.279140556188992
30
0
41
1
10
22.3808662840519
20
-0.10427699137054
30
0
41
1
10
22.2500732810217
20
-0.0458565676880767
30
0
41
1
10
22.1083683309118
20
0.0174775581364202
30
0
41
1
10
22.0976280994764
20
0.0222782335362695
30
0
41
1
10
22.0868867352412
20
0.0270797164312455
30
0
0
SPLINE
5
11B
100
AcDbEntity
8
1
62
256
6
ByLayer
370
18
48
1
60
0
100
AcDbSpline
70
4
71
3
72
8
73
4
40
0
40
0
40
0
40
0
40
1
40
1
40
1
40
1
41
1
10
53.8366044843791
20
-3.08653904370254
30
0
41
1
10
53.8300614843619
20
-3.10595482900001
30
0
41
1
10
53.8235568676338
20
-3.12537163053625
30
0
41
1
10
53.8170914582334
20
-3.14479008849821
30
0
0
SPLINE
5
11C
100
AcDbEntity
8
1
62
256
6
ByLayer
370
13
48
1
60
0
100
AcDbSpline
70
4
71
3
72
26
73
22
40
0
40
0
40
0
40
0
40
0.0177254669866593
40
0.0177254669866593
40
0.0354509339733186
40
0.0709018679466421
40
0.141803735893296
40
0.141803735893296
40
0.212705603839951
40
0.212705603839951
40
0.283607471786605
40
0.283607471786605
40
0.425411207679919
40
0.425411207679919
40
0.567214943573234
40
0.567214943573234
40
0.850822415359869
40
0.850822415359869
40
0.992626151253187
40
0.992626151253187
40
1
40
1
40
1
40
1
41
1
10
53.8366044843739
20
-3.08653904370036
30
0
41
1
10
53.8037812804674
20
-3.08446748473128
30
0
41
1
10
53.770956916264
20
-3.0823910285277
30
0
41
1
10
53.705310186103
20
-3.07796172650481
30
0
41
1
10
53.606841026147
20
-3.07100511810864
30
0
41
1
10
53.3770758886506
20
-3.0525894788135
30
0
41
1
10
53.1800922528497
20
-3.03307874920722
30
0
41
1
10
52.9173442964722
20
-3.00378382753141
30
0
41
1
10
52.7859183254283
20
-2.98749500434766
30
0
41
1
10
52.5229037835093
20
-2.95167729250272
30
0
41
1
10
52.3912284132898
20
-2.93213264890153
30
0
41
1
10
51.9971890803602
20
-2.86893495051399
30
0
41
1
10
51.7354592049812
20
-2.82068023396269
30
0
41
1
10
51.2132959900147
20
-2.71271703120374
30
0
41
1
10
50.9528628779064
20
-2.65299566847543
30
0
41
1
10
50.1729537632403
20
-2.45765862801983
30
0
41
1
10
49.6546125498156
20
-2.30590036284479
30
0
41
1
10
48.8761640850089
20
-2.05114291801218
30
0
41
1
10
48.6165284090494
20
-1.96168798152806
30
0
41
1
10
48.3429789884354
20
-1.86327203993761
30
0
41
1
10
48.3294564036171
20
-1.85839625904691
30
0
41
1
10
48.3159327412088
20
-1.85350946784186
30
0
0
SPLINE
5
11D
100
AcDbEntity
8
1
62
256
6
ByLayer
370
18
48
1
60
0
100
AcDbSpline
70
4
71
3
72
18
73
14
40
0
40
0
40
0
40
0
40
0.167936155821878
40
0.167936155821878
40
0.345084072534789
40
0.345084072534789
40
0.433658030891249
40
0.433658030891249
40
0.522231989247709
40
0.522231989247709
40
0.876527822673539
40
0.876527822673539
40
1
40
1
40
1
40
1
41
1
10
48.3159327360887
20
-1.85350946599172
30
0
41
1
10
48.0693878907533
20
-1.76442019815011
30
0
41
1
10
47.8224849021536
20
-1.67167158890211
30
0
41
1
10
47.3138769375443
20
-1.47444018135815
30
0
41
1
10
47.052088740174
20
-1.36960235456658
30
0
41
1
10
46.6579857809684
20
-1.20762651643596
30
0
41
1
10
46.5262632421345
20
-1.1527929719077
30
0
41
1
10
46.2635726437522
20
-1.04223800101425
30
0
41
1
10
46.1324675816492
20
-0.986464724793422
30
0
41
1
10
45.4779398654902
20
-0.705590131314125
30
0
41
1
10
44.9574711709838
20
-0.474557004199852
30
0
41
1
10
44.2569568105311
20
-0.161158069654817
30
0
41
1
10
44.0760396535831
20
-0.0799978669235486
30
0
41
1
10
43.8951701345259
20
0.0011617033730147
30
0
0
SPLINE
5
11E
100
AcDbEntity
8
1
62
256
6
ByLayer
370
13
48
1
60
0
100
AcDbSpline
70
4
71
3
72
30
73
26
40
0
40
0
40
0
40
0
40
0.152829571529544
40
0.152829571529544
40
0.322263657223635
40
0.322263657223635
40
0.364622178647159
40
0.364622178647159
40
0.406980700070682
40
0.406980700070682
40
0.491697742917728
40
0.491697742917728
40
0.576414785764774
40
0.576414785764774
40
0.661131828611819
40
0.661131828611819
40
0.830565914305909
40
0.830565914305909
40
0.915282957152954
40
0.915282957152954
40
0.957641478576478
40
0.957641478576478
40
0.978820739288239
40
0.978820739288239
40
1
40
1
40
1
40
1
41
1
10
12.9559513058332
20
-2.99849268875286
30
0
41
1
10
12.4872354761925
20
-3.04856436062164
30
0
41
1
10
12.0187801329006
20
-3.07796225081592
30
0
41
1
10
11.028206697982
20
-3.09499988989356
30
0
41
1
10
10.5057979457535
20
-3.07774202318021
30
0
41
1
10
9.84804541395346
20
-3.022882652991
30
0
41
1
10
9.7161663251274
20
-3.01023114520959
30
0
41
1
10
9.45317175482143
20
-2.98175749589436
30
0
41
1
10
9.32190595718518
20
-2.96592572212063
30
0
41
1
10
8.92869650294804
20
-2.91376080246911
30
0
41
1
10
8.66733940111718
20
-2.87276094878155
30
0
41
1
10
8.14566141050943
20
-2.77892060540282
30
0
41
1
10
7.88534275132753
20
-2.72607053912088
30
0
41
1
10
7.36517536097051
20
-2.60922030227329
30
0
41
1
10
7.10532539440658
20
-2.5452179804536
30
0
41
1
10
6.32575539780692
20
-2.33750175399786
30
0
41
1
10
5.80600786983919
20
-2.17792640224238
30
0
41
1
10
5.02303120358019
20
-1.9121948800273
30
0
41
1
10
4.76147139505647
20
-1.81920871434681
30
0
41
1
10
4.36788191590759
20
-1.67370182455869
30
0
41
1
10
4.23647731073726
20
-1.62419545844932
30
0
41
1
10
4.03900872635828
20
-1.54849739623026
30
0
41
1
10
3.97310276931037
20
-1.52301584662149
30
0
41
1
10
3.84131300227432
20
-1.47164248084141
30
0
41
1
10
3.7754233989794
20
-1.44574862035515
30
0
41
1
10
3.70953529208768
20
-1.41965410734431
30
0
0
SPLINE
5
11F
100
AcDbEntity
8
1
62
256
6
ByLayer
370
13
48
1
60
0
100
AcDbSpline
70
4
71
3
72
10
73
6
40
0
40
0
40
0
40
0
40
0.5
40
0.5
40
1
40
1
40
1
40
1
41
1
10
3.70953529208768
20
-1.41965410734431
30
0
41
1
10
3.69891364790951
20
-1.41544748121285
30
0
41
1
10
3.68845946778416
20
-1.41181650462494
30
0
41
1
10
3.66788479321232
20
-1.40564179779057
30
0
41
1
10
3.6577039510471
20
-1.40308711788566
30
0
41
1
10
3.64787130647164
20
-1.40114843159205
30
0
0
SPLINE
5
120
100
AcDbEntity
8
1
62
256
6
ByLayer
370
13
48
1
60
0
100
AcDbSpline
70
4
71
3
72
8
73
4
40
0
40
0
40
0
40
0
40
1
40
1
40
1
40
1
41
1
10
3.64656831982538
20
-1.42178505479984
30
0
41
1
10
3.64700098228713
20
-1.41490816072326
30
0
41
1
10
3.6474353126346
20
-1.40802929716708
30
0
41
1
10
3.64787130647162
20
-1.40114843159205
30
0
0
SPLINE
5
121
100
AcDbEntity
8
1
62
256
6
ByLayer
370
18
48
1
60
0
100
AcDbSpline
70
4
71
3
72
62
73
58
40
0
40
0
40
0
40
0
40
0.0753125482724636
40
0.0753125482724636
40
0.0941406853405799
40
0.0941406853405799
40
0.112968822408696
40
0.112968822408696
40
0.150625096544931
40
0.150625096544931
40
0.188281370681165
40
0.188281370681165
40
0.207109507749283
40
0.216523576283342
40
0.216523576283342
40
0.225937644817401
40
0.225937644817401
40
0.26359391895364
40
0.26359391895364
40
0.301250193089879
40
0.301250193089879
40
0.338906467226118
40
0.338906467226118
40
0.376562741362357
40
0.376562741362357
40
0.451875289634837
40
0.451875289634837
40
0.489531563771077
40
0.489531563771077
40
0.498945632305136
40
0.498945632305136
40
0.508359700839196
40
0.508359700839196
40
0.527187837907314
40
0.602500386179781
40
0.602500386179781
40
0.621328523247897
40
0.621328523247897
40
0.640156660316014
40
0.640156660316014
40
0.677812934452248
40
0.677812934452248
40
0.753125482724718
40
0.753125482724718
40
0.771953619792836
40
0.771953619792836
40
0.790781756860953
40
0.790781756860953
40
0.82843803099719
40
0.82843803099719
40
0.903750579269662
40
0.903750579269662
40
0.941406853405897
40
0.941406853405897
40
0.979063127542132
40
0.979063127542132
40
1
40
1
40
1
40
1
41
1
10
53.8170914582342
20
-3.14479008847886
30
0
41
1
10
53.2929356027979
20
-3.11131189958323
30
0
41
1
10
52.7696127336195
20
-3.05085181068262
30
0
41
1
10
52.1139884376512
20
-2.94316238402328
30
0
41
1
10
51.9827214271706
20
-2.92000296268671
30
0
41
1
10
51.720312593195
20
-2.87058974569391
30
0
41
1
10
51.5892276091574
20
-2.84434884434293
30
0
41
1
10
51.1962038067123
20
-2.76117054084253
30
0
41
1
10
50.9345028688152
20
-2.69977595800492
30
0
41
1
10
50.4113215473217
20
-2.56558606404795
30
0
41
1
10
50.1497769454082
20
-2.49286257637641
30
0
41
1
10
49.7570694434215
20
-2.37593438301394
30
0
41
1
10
49.5606175282965
20
-2.31551121098067
30
0
41
1
10
49.3639367879371
20
-2.25226202158569
30
0
41
1
10
49.2327567178417
20
-2.20948016490522
30
0
41
1
10
49.1671068832412
20
-2.1877713287862
30
0
41
1
10
48.8390761060199
20
-2.07785125244897
30
0
41
1
10
48.5776310807307
20
-1.98561870699939
30
0
41
1
10
48.0561824695661
20
-1.79360634743091
30
0
41
1
10
47.7961841970076
20
-1.69381481660159
30
0
41
1
10
47.2770220764647
20
-1.48791081273154
30
0
41
1
10
47.0178485875271
20
-1.38181927225534
30
0
41
1
10
46.4998320441348
20
-1.16436621867149
30
0
41
1
10
46.2410024970048
20
-1.05297445755755
30
0
41
1
10
45.4640751459149
20
-0.712852154957858
30
0
41
1
10
44.9454956482116
20
-0.478267295505361
30
0
41
1
10
44.1634664380881
20
-0.121632786620012
30
0
41
1
10
43.9020944156022
20
-0.0019697860518875
30
0
41
1
10
43.5742127420577
20
0.147947367082907
30
0
41
1
10
43.5085467285473
20
0.177958706894344
30
0
41
1
10
43.3773053619199
20
0.237889803104821
30
0
41
1
10
43.3117172980557
20
0.267817272327676
30
0
41
1
10
43.1150388999851
20
0.35745907401693
30
0
41
1
10
42.4599869612837
20
0.655262562845252
30
0
41
1
10
41.8064820749029
20
0.945521173275608
30
0
41
1
10
41.1514568089727
20
1.22389461638437
30
0
41
1
10
41.0203712882821
20
1.27896613343813
30
0
41
1
10
40.7579682331856
20
1.38775422271496
30
0
41
1
10
40.6266046062065
20
1.4414895089914
30
0
41
1
10
40.2330726988272
20
1.60005353537855
30
0
41
1
10
39.9711571852787
20
1.70237404952644
30
0
41
1
10
39.1858089900143
20
1.99751440003482
30
0
41
1
10
38.6627993356677
20
2.17854230146568
30
0
41
1
10
38.0068096973791
20
2.38018915453324
30
0
41
1
10
37.8754014187972
20
2.41931540882388
30
0
41
1
10
37.6132374461906
20
2.49472592604553
30
0
41
1
10
37.4823904148684
20
2.53104011740257
30
0
41
1
10
37.0904496274103
20
2.63570857963703
30
0
41
1
10
36.8299542160452
20
2.6997832902278
30
0
41
1
10
36.0499840035727
20
2.87410260713068
30
0
41
1
10
35.5320598024845
20
2.96645845299631
30
0
41
1
10
34.7549255964726
20
3.06671484963897
30
0
41
1
10
34.495856335798
20
3.09376975441984
30
0
41
1
10
33.9770660484417
20
3.13478792931042
30
0
41
1
10
33.7173356309122
20
3.14875109465214
30
0
41
1
10
33.3122717107581
20
3.16009178280805
30
0
41
1
10
33.1673532416592
20
3.16208034516597
30
0
41
1
10
33.022204095459
20
3.16198432384553
30
0
0
SPLINE
5
122
100
AcDbEntity
8
1
62
256
6
ByLayer
370
18
48
1
60
0
100
AcDbSpline
70
4
71
3
72
32
73
28
40
0
40
0
40
0
40
0
40
0.0323360858510417
40
0.0323360858510417
40
0.0726554156072477
40
0.0726554156072477
40
0.112974745363454
40
0.193613404875868
40
0.193613404875868
40
0.354890723900694
40
0.354890723900694
40
0.3952100536569
40
0.3952100536569
40
0.435529383413107
40
0.51616804292552
40
0.51616804292552
40
0.596806702437934
40
0.596806702437934
40
0.677445361950347
40
0.677445361950347
40
0.838722680975173
40
0.838722680975173
40
0.919361340487586
40
0.919361340487586
40
0.959680670243793
40
0.959680670243793
40
1
40
1
40
1
40
1
41
1
10
13.3670513520427
20
-3.00668368053326
30
0
41
1
10
13.2619239366876
20
-3.02086997282493
30
0
41
1
10
13.1567542550575
20
-3.03402122690704
30
0
41
1
10
12.9203139599096
20
-3.06121049153373
30
0
41
1
10
12.7890015636785
20
-3.0746691955664
30
0
41
1
10
12.5261530424713
20
-3.09826653754797
30
0
41
1
10
12.1322589698131
20
-3.1286187938106
30
0
41
1
10
11.7391606107427
20
-3.1437928041241
30
0
41
1
10
10.9532057191093
20
-3.15385489705764
30
0
41
1
10
10.4295242492434
20
-3.13348065962072
30
0
41
1
10
9.77240709256327
20
-3.0743912157179
30
0
41
1
10
9.64113016905395
20
-3.06091674840573
30
0
41
1
10
9.37911526063544
20
-3.03075717118014
30
0
41
1
10
8.9867470664235
20
-2.98068842667172
30
0
41
1
10
8.59600965701259
20
-2.91647938338585
30
0
41
1
10
8.07594458394436
20
-2.8189023426423
30
0
41
1
10
7.81636975377299
20
-2.764130364838
30
0
41
1
10
7.29754645067376
20
-2.64333113518504
30
0
41
1
10
7.03829976001646
20
-2.57730531997373
30
0
41
1
10
6.2603259711145
20
-2.36328769207154
30
0
41
1
10
5.74134071682039
20
-2.19934377063933
30
0
41
1
10
4.95890743065556
20
-1.92644888630036
30
0
41
1
10
4.69743499634657
20
-1.83100139884388
30
0
41
1
10
4.3038366580177
20
-1.68171871387017
30
0
41
1
10
4.17231893770341
20
-1.63090450854648
30
0
41
1
10
3.90942463661838
20
-1.5275999706638
30
0
41
1
10
3.77799987070821
20
-1.47509264439103
30
0
41
1
10
3.64656831982543
20
-1.42178505480146
30
0
0
SPLINE
5
123
100
AcDbEntity
8
SK1
62
256
6
ByLayer
370
18
48
1
60
0
100
AcDbSpline
70
4
71
3
72
8
73
4
40
0
40
0
40
0
40
0
40
1
40
1
40
1
40
1
41
1
10
-35.5
20
-0.151797411515275
30
0
41
1
10
-35.6671079128114
20
-0.183478154005059
30
0
41
1
10
-35.83385732282
20
-0.21522228004477
30
0
41
1
10
-36
20
-0.247073676879182
30
0
0
SPLINE
5
124
100
AcDbEntity
8
SK1
62
256
6
ByLayer
370
18
48
1
60
0
100
AcDbSpline
70
4
71
3
72
22
73
18
40
0
40
0
40
0
40
0
40
0.0625000000000014
40
0.0625000000000014
40
0.125000000000003
40
0.125000000000003
40
0.187500000000004
40
0.187500000000004
40
0.250000000000006
40
0.250000000000006
40
0.375000000000006
40
0.375000000000006
40
0.500000000000006
40
0.500000000000006
40
0.750000000000003
40
0.750000000000003
40
1
40
1
40
1
40
1
41
1
10
-35.4
20
-0.0306411959976174
30
0
41
1
10
-35.4
20
-0.0348891032302276
30
0
41
1
10
-35.4002593711603
20
-0.0391155042257481
30
0
41
1
10
-35.4012586213713
20
-0.0475284274260162
30
0
41
1
10
-35.4019982904561
20
-0.0516826462647089
30
0
41
1
10
-35.4038577960222
20
-0.0597023172335867
30
0
41
1
10
-35.4049815019166
20
-0.0636002757772758
30
0
41
1
10
-35.4075716365044
20
-0.0711986117727577
30
0
41
1
10
-35.4090489365252
20
-0.07492023720161
30
0
41
1
10
-35.4138573413159
20
-0.0856035653548588
30
0
41
1
10
-35.4175572189291
20
-0.0921210742037317
30
0
41
1
10
-35.4257321189722
20
-0.104212553229218
30
0
41
1
10
-35.4302443207473
20
-0.109809028027911
30
0
41
1
10
-35.4443843974886
20
-0.124882435272639
30
0
41
1
10
-35.4547260031623
20
-0.132895978908436
30
0
41
1
10
-35.476826532951
20
-0.145337430630207
30
0
41
1
10
-35.4882298632593
20
-0.149565999101242
30
0
41
1
10
-35.5
20
-0.151797411515389
30
0
0
SPLINE
5
125
100
AcDbEntity
8
SK1
62
256
6
ByLayer
370
18
48
1
60
0
100
AcDbSpline
70
4
71
3
72
8
73
4
40
0
40
0
40
0
40
0
40
1
40
1
40
1
40
1
41
1
10
-35.5
20
0.151797411515247
30
0
41
1
10
-35.6671079128114
20
0.183478154005059
30
0
41
1
10
-35.83385732282
20
0.21522228004477
30
0
41
1
10
-36
20
0.247073676879154
30
0
0
SPLINE
5
126
100
AcDbEntity
8
SK1
62
256
6
ByLayer
370
18
48
1
60
0
100
AcDbSpline
70
4
71
3
72
22
73
18
40
0
40
0
40
0
40
0
40
0.0625000000000015
40
0.0625000000000015
40
0.125000000000003
40
0.125000000000003
40
0.187500000000004
40
0.187500000000004
40
0.250000000000006
40
0.250000000000006
40
0.375000000000006
40
0.375000000000006
40
0.500000000000006
40
0.500000000000006
40
0.750000000000003
40
0.750000000000003
40
1
40
1
40
1
40
1
41
1
10
-35.4
20
0.0306411959976174
30
0
41
1
10
-35.4
20
0.0348891032301992
30
0
41
1
10
-35.4002593711603
20
0.0391155042257481
30
0
41
1
10
-35.4012586213713
20
0.0475284274259877
30
0
41
1
10
-35.4019982904561
20
0.0516826462646804
30
0
41
1
10
-35.4038577960222
20
0.0597023172335582
30
0
41
1
10
-35.4049815019166
20
0.0636002757772758
30
0
41
1
10
-35.4075716365044
20
0.0711986117727292
30
0
41
1
10
-35.4090489365252
20
0.07492023720161
30
0
41
1
10
-35.4138573413159
20
0.0856035653548588
30
0
41
1
10
-35.4175572189291
20
0.0921210742037317
30
0
41
1
10
-35.4257321189722
20
0.104212553229218
30
0
41
1
10
-35.4302443207473
20
0.109809028027911
30
0
41
1
10
-35.4443843974886
20
0.124882435272639
30
0
41
1
10
-35.4547260031623
20
0.132895978908408
30
0
41
1
10
-35.476826532951
20
0.145337430630207
30
0
41
1
10
-35.4882298632593
20
0.149565999101213
30
0
41
1
10
-35.5
20
0.151797411515361
30
0
0
SPLINE
5
127
100
AcDbEntity
8
SK1
62
256
6
ByLayer
370
18
48
1
60
0
100
AcDbSpline
70
4
71
3
72
20
73
16
40
0
40
0
40
0
40
0
40
0.249999999999996
40
0.249999999999996
40
0.374999999999997
40
0.374999999999997
40
0.499999999999997
40
0.499999999999997
40
0.624999999999998
40
0.624999999999998
40
0.749999999999999
40
0.749999999999999
40
0.874999999999999
40
0.874999999999999
40
1
40
1
40
1
40
1
41
1
10
-35.5
20
-1.32245214699481
30
0
41
1
10
-35.4882267853228
20
-1.32468414293197
30
0
41
1
10
-35.4768284287078
20
-1.32495230544706
30
0
41
1
10
-35.460270322179
20
-1.32242126671605
30
0
41
1
10
-35.4548935789762
20
-1.32107863235097
30
0
41
1
10
-35.4446281317026
20
-1.3174101409397
30
0
41
1
10
-35.4397086144297
20
-1.31508134244609
30
0
41
1
10
-35.4303421404714
20
-1.30931402344976
30
0
41
1
10
-35.4258783488616
20
-1.30586462332189
30
0
41
1
10
-35.4176059338444
20
-1.29762550631617
30
0
41
1
10
-35.4138878532275
20
-1.29293381837363
30
0
41
1
10
-35.4074805084037
20
-1.28213411679178
30
0
41
1
10
-35.4047944770761
20
-1.27597919564184
30
0
41
1
10
-35.4010706922354
20
-1.26247142397551
30
0
41
1
10
-35.4
20
-1.25492061623791
30
0
41
1
10
-35.4
20
-1.24704175471101
30
0
0
SPLINE
5
128
100
AcDbEntity
8
SK1
62
256
6
ByLayer
370
18
48
1
60
0
100
AcDbSpline
70
4
71
3
72
8
73
4
40
0
40
0
40
0
40
0
40
1
40
1
40
1
40
1
41
1
10
-36
20
-1.22717588163078
30
0
41
1
10
-35.8338640750586
20
-1.25902598398602
30
0
41
1
10
-35.6671136322638
20
-1.29077032019657
30
0
41
1
10
-35.5
20
-1.32245214699469
30
0
0
SPLINE
5
129
100
AcDbEntity
8
1
62
256
6
ByLayer
370
18
48
1
60
0
100
AcDbSpline
70
4
71
2
72
6
73
3
40
0
40
0
40
0
40
1
40
1
40
1
41
1
10
53.964648596761
20
0.392137288165714
30
0
41
1
10
52.2796043229893
20
0.883551369913022
30
0
41
1
10
50.6442369861493
20
1.52780654747198
30
0
0
SPLINE
5
12A
100
AcDbEntity
8
1
62
256
6
ByLayer
370
18
48
1
60
0
100
AcDbSpline
70
4
71
3
72
13
73
9
40
0
40
0
40
0
40
0
40
0.126192493334148
40
0.274529122476951
40
0.443650037942112
40
0.633444447673339
40
0.843751527688952
40
1
40
1
40
1
40
1
41
1
10
48.4411996220107
20
2.25370656631421
30
0
41
1
10
48.6617895730373
20
2.32112134821202
30
0
41
1
10
49.1424607311567
20
2.45968600780188
30
0
41
1
10
49.920169151775
20
2.65423695915834
30
0
41
1
10
50.8106473674773
20
2.83468277095349
30
0
41
1
10
51.810894523422
20
2.97922755770173
30
0
41
1
10
52.7894328324792
20
3.06177981066006
30
0
41
1
10
53.4346151265704
20
3.0647276438977
30
0
41
1
10
53.70972147921
20
3.05769676414013
30
0
0
SPLINE
5
12B
100
AcDbEntity
8
1
62
256
6
ByLayer
370
18
48
1
60
0
100
AcDbSpline
70
4
71
1
72
4
73
2
40
0
40
0
40
1
40
1
41
1
10
53.70972147921
20
3.05769676414013
30
0
41
1
10
53.898644013553
20
3.05880257020135
30
0
0
SPLINE
5
12C
100
AcDbEntity
8
1
62
256
6
ByLayer
370
18
48
1
60
0
100
AcDbSpline
70
4
71
3
72
8
73
4
40
0
40
0
40
0
40
0
40
1
40
1
40
1
40
1
41
1
10
47.4229469201702
20
-1.91561625461361
30
0
41
1
10
47.3560375150826
20
-1.89096253671065
30
0
41
1
10
47.2891661011638
20
-1.86589006798661
30
0
41
1
10
47.2223278821377
20
-1.84041920823839
30
0
0
SPLINE
5
12D
100
AcDbEntity
8
1
62
256
6
ByLayer
370
18
48
1
60
0
100
AcDbSpline
70
4
71
2
72
6
73
3
40
0
40
0
40
0
40
1
40
1
40
1
41
1
10
13.8012878582299
20
-0.56837750367464
30
0
41
1
10
13.3984576986337
20
-0.469353922331862
30
0
41
1
10
12.9962118262862
20
-0.36365466809599
30
0
0
SPLINE
5
12E
100
AcDbEntity
8
1
62
256
6
ByLayer
370
18
48
1
60
0
100
AcDbSpline
70
4
71
1
72
4
73
2
40
0
40
0
40
1
40
1
41
1
10
12.9962118262862
20
-0.36365466809599
30
0
41
1
10
12.8731977074348
20
-0.331772297212581
30
0
0
SPLINE
5
12F
100
AcDbEntity
8
1
62
256
6
ByLayer
370
18
48
1
60
0
100
AcDbSpline
70
4
71
3
72
14
73
10
40
0
40
0
40
0
40
0
40
0.192722135352053
40
0.35113019783588
40
0.475229183755393
40
0.569173319811503
40
0.690894379684902
40
0.840384217998752
40
1
40
1
40
1
40
1
41
1
10
34.0005138946471
20
-0.149578910807065
30
0
41
1
10
33.6777310491396
20
-0.0599630704707579
30
0
41
1
10
33.0910920993064
20
0.10852257554771
30
0
41
1
10
32.3007187121276
20
0.349515383361393
30
0
41
1
10
31.6768991141184
20
0.548446112931657
30
0
41
1
10
31.1154866313565
20
0.733501951641472
30
0
41
1
10
30.5140199080489
20
0.938154648001472
30
0
41
1
10
29.8070832235017
20
1.18782132955812
30
0
41
1
10
29.302400109205
20
1.37409827319212
30
0
41
1
10
29.0424376636767
20
1.47215600681287
30
0
0
SPLINE
5
130
100
AcDbEntity
8
1
62
256
6
ByLayer
370
18
48
1
60
0
100
AcDbSpline
70
4
71
3
72
9
73
5
40
0
40
0
40
0
40
0
40
0.618743651316822
40
1
40
1
40
1
40
1
41
1
10
26.7064101169927
20
2.25231962791855
30
0
41
1
10
27.0255067408917
20
2.35089042984427
30
0
41
1
10
27.5452983906779
20
2.49846108734437
30
0
41
1
10
28.0613732774941
20
2.6075801363784
30
0
41
1
10
28.2584585792505
20
2.6452361073336
30
0
0
SPLINE
5
131
100
AcDbEntity
8
1
62
256
6
ByLayer
370
18
48
1
60
0
100
AcDbSpline
70
4
71
1
72
4
73
2
40
0
40
0
40
1
40
1
41
1
10
47.2223278821384
20
-1.84041920823864
30
0
41
1
10
46.8698020945119
20
-1.71163989864226
30
0
0
SPLINE
5
132
100
AcDbEntity
8
1
62
256
6
ByLayer
370
18
48
1
60
0
100
AcDbSpline
70
4
71
3
72
27
73
23
40
0
40
0
40
0
40
0
40
0.0740032626302486
40
0.133671520575433
40
0.180207729791392
40
0.216798708886497
40
0.257359214583382
40
0.301018549632896
40
0.34132910053934
40
0.380849841947975
40
0.427182886635289
40
0.485395801303788
40
0.553969649754006
40
0.618534141405013
40
0.671617009097785
40
0.729397493044228
40
0.7821610081416
40
0.830891074006043
40
0.870911636257502
40
0.913946354627793
40
0.960464094817258
40
1
40
1
40
1
40
1
41
1
10
33.2002352957276
20
-3.0034296204787
30
0
41
1
10
33.4518792861418
20
-3.00306296810916
30
0
41
1
10
33.9064745269556
20
-3.00271677647672
30
0
41
1
10
34.5207166746521
20
-3.00449559591971
30
0
41
1
10
35.0057466538688
20
-3.00430823657294
30
0
41
1
10
35.4284257734425
20
-3.00463908636004
30
0
41
1
10
35.8408333538635
20
-3.0051956627168
30
0
41
1
10
36.2661814847236
20
-3.00534765916262
30
0
41
1
10
36.6879145268381
20
-3.00513144982526
30
0
41
1
10
37.1187812889901
20
-3.00565955503012
30
0
41
1
10
37.6107940214286
20
-3.00643548423363
30
0
41
1
10
38.2020341428545
20
-3.0055152146692
30
0
41
1
10
38.8555217344579
20
-3.0070213811762
30
0
41
1
10
39.4914955262313
20
-3.00671685194746
30
0
41
1
10
40.0906170030064
20
-3.00674736185596
30
0
41
1
10
40.6494343277617
20
-3.00847904626832
30
0
41
1
10
41.1933813088045
20
-3.0074324322776
30
0
41
1
10
41.676683275282
20
-3.00758566412639
30
0
41
1
10
42.1267338629777
20
-3.00798595992558
30
0
41
1
10
42.5682302387626
20
-3.00745294004247
30
0
41
1
10
43.0015689541286
20
-3.00556856871881
30
0
41
1
10
43.2953195421415
20
-3.00542388806866
30
0
41
1
10
43.430271153745
20
-3.00557967566172
30
0
0
SPLINE
5
133
100
AcDbEntity
8
1
62
256
6
ByLayer
370
18
48
1
60
0
100
AcDbSpline
70
4
71
3
72
8
73
4
40
0
40
0
40
0
40
0
40
1
40
1
40
1
40
1
41
1
10
43.6069722258505
20
-3.00590988471015
30
0
41
1
10
43.6692916337895
20
-3.00607065135139
30
0
41
1
10
43.7315398713862
20
-3.00627812309176
30
0
41
1
10
43.7938311667614
20
-3.00653366154654
30
0
0
SPLINE
5
134
100
AcDbEntity
8
1
62
256
6
ByLayer
370
18
48
1
60
0
100
AcDbSpline
70
4
71
3
72
26
73
22
40
0
40
0
40
0
40
0
40
0.0170223847611954
40
0.0600013850079468
40
0.0960623426374191
40
0.136530598464037
40
0.182534368135743
40
0.307433355834643
40
0.439309309498439
40
0.491860091962661
40
0.537437177397011
40
0.575189863926743
40
0.613685545773249
40
0.669829846703963
40
0.727130928642796
40
0.761562169310987
40
0.792921245127927
40
0.824834723067721
40
0.862409784230402
40
0.920958090578479
40
1
40
1
40
1
40
1
41
1
10
21.7278268212048
20
2.99750247895568
30
0
41
1
10
21.6805113342792
20
2.99738403401761
30
0
41
1
10
21.513659566192
20
2.99703103320604
30
0
41
1
10
21.2456719894295
20
2.9968487027418
30
0
41
1
10
20.9126503365838
20
2.99717530309474
30
0
41
1
10
20.5709876454913
20
2.99774911222084
30
0
41
1
10
19.9815451142142
20
2.99585403441964
30
0
41
1
10
19.1372357348324
20
2.99710432661931
30
0
41
1
10
18.2746324239225
20
2.99461749877167
30
0
41
1
10
17.6332632872543
20
2.99534202236944
30
0
41
1
10
17.2543518959423
20
2.99499312535548
30
0
41
1
10
16.9146313464536
20
2.99404556345277
30
0
41
1
10
16.5454400270618
20
2.99388553072308
30
0
41
1
10
16.121737287932
20
2.99408653700604
30
0
41
1
10
15.7093656898159
20
2.99371826442464
30
0
41
1
10
15.3661180906486
20
2.99304555758258
30
0
41
1
10
15.0936522863254
20
2.99286182362508
30
0
41
1
10
14.8124628634655
20
2.99274166167851
30
0
41
1
10
14.455434191279
20
2.992480898476
30
0
41
1
10
13.9669855235476
20
2.99187193779898
30
0
41
1
10
13.5833516092262
20
2.99169516885993
30
0
41
1
10
13.3629477781698
20
2.99153636051324
30
0
0
SPLINE
5
135
100
AcDbEntity
8
1
62
256
6
ByLayer
370
18
48
1
60
0
100
AcDbSpline
70
4
71
3
72
25
73
21
40
0
40
0
40
0
40
0
40
0.0761981507477866
40
0.144778550017233
40
0.199601386067934
40
0.240749160209612
40
0.294319525254864
40
0.340472320209352
40
0.402555540962005
40
0.462514935176924
40
0.50875120032762
40
0.56262276901575
40
0.628187415739095
40
0.69871517905105
40
0.780968393853959
40
0.872063341848487
40
0.915768068470849
40
0.953867795160732
40
0.984708124240989
40
1
40
1
40
1
40
1
41
1
10
11.508630084865
20
-2.98989912895422
30
0
41
1
10
11.7676223035241
20
-2.99011511327396
30
0
41
1
10
12.259694029602
20
-2.9904712181978
30
0
41
1
10
12.9380029226453
20
-2.99094323833438
30
0
41
1
10
13.4972216510415
20
-2.99104966816017
30
0
41
1
10
14.0063161948045
20
-2.99155770430269
30
0
41
1
10
14.4816072889908
20
-2.99264618771761
30
0
41
1
10
15.0327480951459
20
-2.99273213090172
30
0
41
1
10
15.6042602001692
20
-2.99351045436606
30
0
41
1
10
16.1765115462099
20
-2.99415315242979
30
0
41
1
10
16.7207288798277
20
-2.993686704569
30
0
41
1
10
17.2840283526278
20
-2.99525839594298
30
0
41
1
10
17.929906334267
20
-2.99487900540723
30
0
41
1
10
18.6722743351111
20
-2.9957900541109
30
0
41
1
10
19.5014794853884
20
-2.99585790824125
30
0
41
1
10
20.2394387195942
20
-2.99732632976145
30
0
41
1
10
20.8273104042984
20
-2.9973977029756
30
0
41
1
10
21.2103007189471
20
-2.99691841020024
30
0
41
1
10
21.496696069542
20
-2.99698917365507
30
0
41
1
10
21.6535465566262
20
-2.99736036398744
30
0
41
1
10
21.7055392160802
20
-2.99751222238263
30
0
0
SPLINE
5
136
100
AcDbEntity
8
1
62
256
6
ByLayer
370
18
48
1
60
0
100
AcDbSpline
70
4
71
3
72
25
73
21
40
0
40
0
40
0
40
0
40
0.0245328996233963
40
0.0895298293466813
40
0.144997160780265
40
0.1963113685916
40
0.24403152398862
40
0.292289073768318
40
0.343175740979427
40
0.399567471387568
40
0.455800959187547
40
0.508230875601002
40
0.574230351187305
40
0.676333590034385
40
0.757299105375858
40
0.819152552126371
40
0.880267658666122
40
0.94242663161361
40
0.986360606070791
40
1
40
1
40
1
40
1
41
1
10
43.7938311667614
20
3.00653366154654
30
0
41
1
10
43.723736054673
20
3.00624610938499
30
0
41
1
10
43.4681314508107
20
3.00541886311461
30
0
41
1
10
43.0518348864029
20
3.00534978361353
30
0
41
1
10
42.5682302183855
20
3.00745354006332
30
0
41
1
10
42.126733930852
20
3.00798396132086
30
0
41
1
10
41.7048871281246
20
3.00761768081159
30
0
41
1
10
41.2842447337535
20
3.00742811545661
30
0
41
1
10
40.8387696731162
20
3.00806763621833
30
0
41
1
10
40.3704445569786
20
3.00800849542989
30
0
41
1
10
39.8977031581746
20
3.00638259620504
30
0
41
1
10
39.3974398181283
20
3.00695023258916
30
0
41
1
10
38.7658099711503
20
3.00677530842711
30
0
41
1
10
38.0524524839597
20
3.00574371057414
30
0
41
1
10
37.3509519137599
20
3.00632632418598
30
0
41
1
10
36.76685929372
20
3.00500284510059
30
0
41
1
10
36.2366678802208
20
3.00539913397464
30
0
41
1
10
35.7576027189004
20
3.0051225663332
30
0
41
1
10
35.4150183796241
20
3.00462681759311
30
0
41
1
10
35.2499680296564
20
3.00451072182525
30
0
41
1
10
35.2108734259067
20
3.00448824902557
30
0
0
LINE
5
82
100
AcDbEntity
8
4
62
256
6
ByLayer
370
18
48
0.05
60
0
100
AcDbLine
10
0
20
0
30
0
11
55
21
0
31
0
39
0
210
0
220
0
230
1
0
LINE
5
84
100
AcDbEntity
8
81
62
256
6
ByLayer
370
18
48
1
60
0
100
AcDbLine
10
55
20
0
30
0
11
58
21
0
31
0
39
0
210
0
220
0
230
1
0
LINE
5
85
100
AcDbEntity
8
80
62
256
6
ByLayer
370
18
48
1
60
0
100
AcDbLine
10
0
20
0
30
0
11
-3
21
0
31
0
39
0
210
0
220
0
230
1
0
LINE
5
86
100
AcDbEntity
8
SK4
62
256
6
ByLayer
370
18
48
0.05
60
0
100
AcDbLine
10
-39
20
0
30
0
11
58
21
0
31
0
39
0
210
0
220
0
230
1
0
LINE
5
88
100
AcDbEntity
8
1
62
256
6
ByLayer
370
13
48
1
60
0
100
AcDbLine
10
54.955724
20
0.038222
30
0
11
54.135373
21
0.943748
31
0
39
0
210
0
220
0
230
1
0
LINE
5
89
100
AcDbEntity
8
1
62
256
6
ByLayer
370
18
48
1
60
0
100
AcDbLine
10
23.25
20
-0.942179
30
0
11
23.25
21
-1.068938
31
0
39
0
210
0
220
0
230
1
0
LINE
5
8A
100
AcDbEntity
8
1
62
256
6
ByLayer
370
13
48
1
60
0
100
AcDbLine
10
1.417959
20
3.142232
30
0
11
1.417959
21
-3.142232
31
0
39
0
210
0
220
0
230
1
0
LINE
5
8B
100
AcDbEntity
8
1
62
256
6
ByLayer
370
13
48
1
60
0
100
AcDbLine
10
0.711077
20
3.566701
30
0
11
0.711077
21
-3.566701
31
0
39
0
210
0
220
0
230
1
0
LINE
5
8C
100
AcDbEntity
8
1
62
256
6
ByLayer
370
13
48
1
60
0
100
AcDbLine
10
0.706383
20
3.575531
30
0
11
0.706383
21
-3.575531
31
0
39
0
210
0
220
0
230
1
0
LINE
5
8D
100
AcDbEntity
8
1
62
256
6
ByLayer
370
18
48
1
60
0
100
AcDbLine
10
0
20
4
30
0
11
0
21
-4
31
0
39
0
210
0
220
0
230
1
0
LINE
5
8E
100
AcDbEntity
8
SK1
62
256
6
ByLayer
370
18
48
1
60
0
100
AcDbLine
10
-36
20
-0.247074
30
0
11
-36
21
-1.227176
31
0
39
0
210
0
220
0
230
1
0
LINE
5
90
100
AcDbEntity
8
SK1
62
256
6
ByLayer
370
13
48
1
60
0
100
AcDbLine
10
-35.5
20
-1.322452
30
0
11
-35.5
21
-0.151797
31
0
39
0
210
0
220
0
230
1
0
LINE
5
91
100
AcDbEntity
8
SK1
62
256
6
ByLayer
370
18
48
1
60
0
100
AcDbLine
10
0
20
4
30
0
11
0
21
-4
31
0
39
0
210
0
220
0
230
1
0
LINE
5
92
100
AcDbEntity
8
SK1
62
256
6
ByLayer
370
18
48
1
60
0
100
AcDbLine
10
-36
20
2.76
30
0
11
-36
21
0.247074
31
0
39
0
210
0
220
0
230
1
0
LINE
5
93
100
AcDbEntity
8
SK1
62
256
6
ByLayer
370
18
48
1
60
0
100
AcDbLine
10
-35.4
20
-1.247042
30
0
11
-35.4
21
0.030641
31
0
39
0
210
0
220
0
230
1
0
LINE
5
94
100
AcDbEntity
8
SK1
62
256
6
ByLayer
370
18
48
1
60
0
100
AcDbLine
10
-36
20
-2.76
30
0
11
-36
21
-1.227176
31
0
39
0
210
0
220
0
230
1
0
LINE
5
95
100
AcDbEntity
8
SK1
62
256
6
ByLayer
370
18
48
1
60
0
100
AcDbLine
10
-34.76
20
-4
30
0
11
-34.76
21
4
31
0
39
0
210
0
220
0
230
1
0
LINE
5
96
100
AcDbEntity
8
1
62
256
6
ByLayer
370
18
48
1
60
0
100
AcDbLine
10
1.417959
20
-3.142232
30
0
11
4.067803
21
-3.143889
31
0
39
0
210
0
220
0
230
1
0
LINE
5
97
100
AcDbEntity
8
1
62
256
6
ByLayer
370
18
48
1
60
0
100
AcDbLine
10
9.988033
20
-3.147589
30
0
11
11.272753
21
-3.148392
31
0
39
0
210
0
220
0
230
1
0
LINE
5
98
100
AcDbEntity
8
1
62
256
6
ByLayer
370
18
48
1
60
0
100
AcDbLine
10
32.034515
20
-3.161368
30
0
11
33.022742
21
-3.161985
31
0
39
0
210
0
220
0
230
1
0
LINE
5
99
100
AcDbEntity
8
1
62
256
6
ByLayer
370
18
48
1
60
0
100
AcDbLine
10
53.880534
20
3.175022
30
0
11
53.803461
21
3.174973
31
0
39
0
210
0
220
0
230
1
0
LINE
5
9A
100
AcDbEntity
8
1
62
256
6
ByLayer
370
18
48
1
60
0
100
AcDbLine
10
33.022742
20
3.161985
30
0
11
32.034515
21
3.161368
31
0
39
0
210
0
220
0
230
1
0
LINE
5
9B
100
AcDbEntity
8
1
62
256
6
ByLayer
370
18
48
1
60
0
100
AcDbLine
10
11.272753
20
3.148392
30
0
11
9.988033
21
3.147589
31
0
39
0
210
0
220
0
230
1
0
LINE
5
9C
100
AcDbEntity
8
1
62
256
6
ByLayer
370
18
48
1
60
0
100
AcDbLine
10
4.067803
20
3.143889
30
0
11
1.417959
21
3.142232
31
0
39
0
210
0
220
0
230
1
0
LINE
5
9D
100
AcDbEntity
8
1
62
256
6
ByLayer
370
18
48
1
60
0
100
AcDbLine
10
0.711077
20
3.566701
30
0
11
0.706383
21
3.575531
31
0
39
0
210
0
220
0
230
1
0
LINE
5
9E
100
AcDbEntity
8
1
62
256
6
ByLayer
370
18
48
1
60
0
100
AcDbLine
10
0.706383
20
-3.575531
30
0
11
0.711077
21
-3.566701
31
0
39
0
210
0
220
0
230
1
0
LINE
5
9F
100
AcDbEntity
8
SK1
62
256
6
ByLayer
370
18
48
1
60
0
100
AcDbLine
10
-34.76
20
-4
30
0
11
0
21
-4
31
0
39
0
210
0
220
0
230
1
0
LINE
5
A0
100
AcDbEntity
8
SK1
62
256
6
ByLayer
370
18
48
1
60
0
100
AcDbLine
10
0
20
4
30
0
11
-34.76
21
4
31
0
39
0
210
0
220
0
230
1
0
LINE
5
A1
100
AcDbEntity
8
SK1
62
256
6
ByLayer
370
18
48
1
60
0
100
AcDbLine
10
-36
20
-2.76
30
0
11
-34.76
21
-4
31
0
39
0
210
0
220
0
230
1
0
LINE
5
A2
100
AcDbEntity
8
SK1
62
256
6
ByLayer
370
18
48
1
60
0
100
AcDbLine
10
-34.76
20
4
30
0
11
-36
21
2.76
31
0
39
0
210
0
220
0
230
1
0
LINE
5
A3
100
AcDbEntity
8
2
62
256
6
ByLayer
370
13
48
1
60
0
100
AcDbLine
10
68.75
20
22.139398
30
0
11
68.75
21
-11.925
31
0
39
0
210
0
220
0
230
1
0
LINE
5
A5
100
AcDbEntity
8
2
62
256
6
ByLayer
370
13
48
1
60
0
100
AcDbLine
10
56.5875
20
3.175
30
0
11
70.75
21
3.175
31
0
39
0
210
0
220
0
230
1
0
LINE
5
A6
100
AcDbEntity
8
2
62
256
6
ByLayer
370
13
48
1
60
0
100
AcDbLine
10
56.5875
20
-3.175
30
0
11
70.75
21
-3.175
31
0
39
0
210
0
220
0
230
1
0
LINE
5
A7
100
AcDbEntity
8
1
62
256
6
ByLayer
370
18
48
1
60
1
100
AcDbLine
10
68.75
20
3.175
30
0
11
68.289216
21
6.674998
31
0
39
0
210
0
220
0
230
1
0
LINE
5
A8
100
AcDbEntity
8
1
62
256
6
ByLayer
370
18
48
1
60
1
100
AcDbLine
10
68.289216
20
6.674998
30
0
11
69.210784
21
6.675002
31
0
39
0
210
0
220
0
230
1
0
LINE
5
A9
100
AcDbEntity
8
1
62
256
6
ByLayer
370
18
48
1
60
1
100
AcDbLine
10
69.210784
20
6.675002
30
0
11
68.75
21
3.175
31
0
39
0
210
0
220
0
230
1
0
LINE
5
AA
100
AcDbEntity
8
1
62
256
6
ByLayer
370
18
48
1
60
1
100
AcDbLine
10
68.75
20
-3.175
30
0
11
69.210784
21
-6.674998
31
0
39
0
210
0
220
0
230
1
0
LINE
5
AB
100
AcDbEntity
8
1
62
256
6
ByLayer
370
18
48
1
60
1
100
AcDbLine
10
69.210784
20
-6.674998
30
0
11
68.289216
21
-6.675002
31
0
39
0
210
0
220
0
230
1
0
LINE
5
AC
100
AcDbEntity
8
1
62
256
6
ByLayer
370
18
48
1
60
1
100
AcDbLine
10
68.289216
20
-6.675002
30
0
11
68.75
21
-3.175
31
0
39
0
210
0
220
0
230
1
0
LINE
5
AD
100
AcDbEntity
8
SK2
62
256
6
ByLayer
370
13
48
1
60
0
100
AcDbLine
10
-44.25
20
-4
30
0
11
-44.25
21
20.315466
31
0
39
0
210
0
220
0
230
1
0
LINE
5
AF
100
AcDbEntity
8
SK2
62
256
6
ByLayer
370
13
48
1
60
0
100
AcDbLine
10
-37.5875
20
4
30
0
11
-46.25
21
4
31
0
39
0
210
0
220
0
230
1
0
LINE
5
B0
100
AcDbEntity
8
SK2
62
256
6
ByLayer
370
13
48
1
60
0
100
AcDbLine
10
-37.5875
20
-4
30
0
11
-46.25
21
-4
31
0
39
0
210
0
220
0
230
1
0
LINE
5
B1
100
AcDbEntity
8
1
62
256
6
ByLayer
370
18
48
1
60
1
100
AcDbLine
10
-44.25
20
4
30
0
11
-43.789216
21
0.500002
31
0
39
0
210
0
220
0
230
1
0
LINE
5
B2
100
AcDbEntity
8
1
62
256
6
ByLayer
370
18
48
1
60
1
100
AcDbLine
10
-43.789216
20
0.500002
30
0
11
-44.710784
21
0.499998
31
0
39
0
210
0
220
0
230
1
0
LINE
5
B3
100
AcDbEntity
8
1
62
256
6
ByLayer
370
18
48
1
60
1
100
AcDbLine
10
-44.710784
20
0.499998
30
0
11
-44.25
21
4
31
0
39
0
210
0
220
0
230
1
0
LINE
5
B4
100
AcDbEntity
8
1
62
256
6
ByLayer
370
18
48
1
60
1
100
AcDbLine
10
-44.25
20
-4
30
0
11
-44.710784
21
-0.500002
31
0
39
0
210
0
220
0
230
1
0
LINE
5
B5
100
AcDbEntity
8
1
62
256
6
ByLayer
370
18
48
1
60
1
100
AcDbLine
10
-44.710784
20
-0.500002
30
0
11
-43.789216
21
-0.499998
31
0
39
0
210
0
220
0
230
1
0
LINE
5
B6
100
AcDbEntity
8
1
62
256
6
ByLayer
370
18
48
1
60
1
100
AcDbLine
10
-43.789216
20
-0.499998
30
0
11
-44.25
21
-4
31
0
39
0
210
0
220
0
230
1
0
LINE
5
B7
100
AcDbEntity
8
SK2
62
256
6
ByLayer
370
13
48
1
60
0
100
AcDbLine
10
55.543121
20
1.491702
30
0
11
66.307474
21
31.056426
31
0
39
0
210
0
220
0
230
1
0
LINE
5
B8
100
AcDbEntity
8
SK2
62
256
6
ByLayer
370
13
48
1
60
0
100
AcDbLine
10
55.543121
20
-1.491702
30
0
11
66.307474
21
-31.056426
31
0
39
0
210
0
220
0
230
1
0
LINE
5
B9
100
AcDbEntity
8
1
62
256
6
ByLayer
370
18
48
1
60
1
100
AcDbLine
10
65.623227
20
29.177116
30
0
11
69.046781
21
28.315962
31
0
39
0
210
0
220
0
230
1
0
LINE
5
BA
100
AcDbEntity
8
1
62
256
6
ByLayer
370
18
48
1
60
1
100
AcDbLine
10
69.046781
20
28.315962
30
0
11
68.707247
21
27.459223
31
0
39
0
210
0
220
0
230
1
0
LINE
5
BB
100
AcDbEntity
8
1
62
256
6
ByLayer
370
18
48
1
60
1
100
AcDbLine
10
68.707247
20
27.459223
30
0
11
65.623227
21
29.177116
31
0
39
0
210
0
220
0
230
1
0
LINE
5
BC
100
AcDbEntity
8
1
62
256
6
ByLayer
370
18
48
1
60
1
100
AcDbLine
10
65.623227
20
-29.177116
30
0
11
68.707243
21
-27.459224
31
0
39
0
210
0
220
0
230
1
0
LINE
5
BD
100
AcDbEntity
8
1
62
256
6
ByLayer
370
18
48
1
60
1
100
AcDbLine
10
68.707243
20
-27.459224
30
0
11
69.046785
21
-28.315961
31
0
39
0
210
0
220
0
230
1
0
LINE
5
BE
100
AcDbEntity
8
1
62
256
6
ByLayer
370
18
48
1
60
1
100
AcDbLine
10
69.046785
20
-28.315961
30
0
11
65.623227
21
-29.177116
31
0
39
0
210
0
220
0
230
1
0
LINE
5
137
100
AcDbEntity
8
1
62
256
6
ByLayer
370
13
48
0.05
60
0
100
AcDbLine
10
-42.5
20
0
30
0
11
60.380534
21
0
31
0
39
0
210
0
220
0
230
1
0
LINE
5
13C
100
AcDbEntity
8
1
62
256
6
ByLayer
370
18
48
1
60
1
100
AcDbLine
10
68.75
20
3.175
30
0
11
68.289216
21
6.674998
31
0
39
0
210
0
220
0
230
1
0
LINE
5
13D
100
AcDbEntity
8
1
62
256
6
ByLayer
370
18
48
1
60
1
100
AcDbLine
10
68.289216
20
6.674998
30
0
11
69.210784
21
6.675002
31
0
39
0
210
0
220
0
230
1
0
LINE
5
13E
100
AcDbEntity
8
1
62
256
6
ByLayer
370
18
48
1
60
1
100
AcDbLine
10
69.210784
20
6.675002
30
0
11
68.75
21
3.175
31
0
39
0
210
0
220
0
230
1
0
LINE
5
140
100
AcDbEntity
8
1
62
256
6
ByLayer
370
18
48
1
60
1
100
AcDbLine
10
68.75
20
-3.175
30
0
11
69.210784
21
-6.674998
31
0
39
0
210
0
220
0
230
1
0
LINE
5
141
100
AcDbEntity
8
1
62
256
6
ByLayer
370
18
48
1
60
1
100
AcDbLine
10
69.210784
20
-6.674998
30
0
11
68.289216
21
-6.675002
31
0
39
0
210
0
220
0
230
1
0
LINE
5
142
100
AcDbEntity
8
1
62
256
6
ByLayer
370
18
48
1
60
1
100
AcDbLine
10
68.289216
20
-6.675002
30
0
11
68.75
21
-3.175
31
0
39
0
210
0
220
0
230
1
0
LINE
5
146
100
AcDbEntity
8
1
62
256
6
ByLayer
370
18
48
1
60
1
100
AcDbLine
10
-44.25
20
4
30
0
11
-43.789216
21
0.500002
31
0
39
0
210
0
220
0
230
1
0
LINE
5
147
100
AcDbEntity
8
1
62
256
6
ByLayer
370
18
48
1
60
1
100
AcDbLine
10
-43.789216
20
0.500002
30
0
11
-44.710784
21
0.499998
31
0
39
0
210
0
220
0
230
1
0
LINE
5
148
100
AcDbEntity
8
1
62
256
6
ByLayer
370
18
48
1
60
1
100
AcDbLine
10
-44.710784
20
0.499998
30
0
11
-44.25
21
4
31
0
39
0
210
0
220
0
230
1
0
LINE
5
14A
100
AcDbEntity
8
1
62
256
6
ByLayer
370
18
48
1
60
1
100
AcDbLine
10
-44.25
20
-4
30
0
11
-44.710784
21
-0.500002
31
0
39
0
210
0
220
0
230
1
0
LINE
5
14B
100
AcDbEntity
8
1
62
256
6
ByLayer
370
18
48
1
60
1
100
AcDbLine
10
-44.710784
20
-0.500002
30
0
11
-43.789216
21
-0.499998
31
0
39
0
210
0
220
0
230
1
0
LINE
5
14C
100
AcDbEntity
8
1
62
256
6
ByLayer
370
18
48
1
60
1
100
AcDbLine
10
-43.789216
20
-0.499998
30
0
11
-44.25
21
-4
31
0
39
0
210
0
220
0
230
1
0
LINE
5
14F
100
AcDbEntity
8
1
62
256
6
ByLayer
370
18
48
1
60
1
100
AcDbLine
10
65.623227
20
29.177116
30
0
11
69.046781
21
28.315962
31
0
39
0
210
0
220
0
230
1
0
LINE
5
150
100
AcDbEntity
8
1
62
256
6
ByLayer
370
18
48
1
60
1
100
AcDbLine
10
69.046781
20
28.315962
30
0
11
68.707247
21
27.459223
31
0
39
0
210
0
220
0
230
1
0
LINE
5
151
100
AcDbEntity
8
1
62
256
6
ByLayer
370
18
48
1
60
1
100
AcDbLine
10
68.707247
20
27.459223
30
0
11
65.623227
21
29.177116
31
0
39
0
210
0
220
0
230
1
0
LINE
5
153
100
AcDbEntity
8
1
62
256
6
ByLayer
370
18
48
1
60
1
100
AcDbLine
10
65.623227
20
-29.177116
30
0
11
68.707243
21
-27.459224
31
0
39
0
210
0
220
0
230
1
0
LINE
5
154
100
AcDbEntity
8
1
62
256
6
ByLayer
370
18
48
1
60
1
100
AcDbLine
10
68.707243
20
-27.459224
30
0
11
69.046785
21
-28.315961
31
0
39
0
210
0
220
0
230
1
0
LINE
5
155
100
AcDbEntity
8
1
62
256
6
ByLayer
370
18
48
1
60
1
100
AcDbLine
10
69.046785
20
-28.315961
30
0
11
65.623227
21
-29.177116
31
0
39
0
210
0
220
0
230
1
0
MTEXT
5
138
100
AcDbEntity
8
2
62
256
6
ByLayer
370
18
48
1
60
0
100
AcDbMText
10
67.185366
20
7.109844
30
0
210
0
220
0
230
1
1
%%c
40
3.5
41
0
44
1.084337
50
90
71
7
72
5
7
iso_b_vert
0
MTEXT
5
13B
100
AcDbEntity
8
2
62
256
6
ByLayer
370
18
48
1
60
0
100
AcDbMText
10
67.185366
20
14.0825
30
0
210
0
220
0
230
1
1
\W0.7346;6.35
40
3.5
41
0
44
1.084337
50
90
71
7
72
5
7
iso_b_vert
0
MTEXT
5
144
100
AcDbEntity
8
SK2
62
256
6
ByLayer
370
18
48
1
60
0
100
AcDbMText
10
-45.814634
20
11.934844
30
0
210
0
220
0
230
1
1
%%c
40
3.5
41
0
44
1.084337
50
90
71
7
72
5
7
iso_b_vert
0
MTEXT
5
145
100
AcDbEntity
8
SK2
62
256
6
ByLayer
370
18
48
1
60
0
100
AcDbMText
10
-45.814634
20
18.9075
30
0
210
0
220
0
230
1
1
\W0.5404;8
40
3.5
41
0
44
1.084337
50
90
71
7
72
5
7
iso_b_vert
0
MTEXT
5
14E
100
AcDbEntity
8
SK2
62
256
6
ByLayer
370
18
48
1
60
0
100
AcDbMText
10
81.979229
20
-2.467366
30
0
210
0
220
0
230
1
1
\W0.7825;140%%d
40
3.5
41
0
44
1.084337
50
0
71
7
72
5
7
iso_b_vert
0
MTEXT
5
157
100
AcDbEntity
8
SK6
62
256
6
ByLayer
370
18
48
1
60
0
100
AcDbMText
10
-20.923923
20
-123.367527
30
0
210
0
220
0
230
1
1
\W0.7547;860.1-0635-043A1-MM M2BM
40
3.5
41
0
44
1.084337
50
0
71
7
72
5
7
iso_b_vert
0
HATCH
5
13F
100
AcDbEntity
8
2
62
256
6
ByLayer
370
13
48
1
60
0
100
AcDbHatch
10
0
20
0
30
0
210
0
220
0
230
1
2
ANSI31
70
0
71
0
91
1
92
5
93
3
72
1
10
68.75
20
3.17500000000001
11
68.2892162584472
21
6.67499830744683
72
1
10
68.2892162584472
20
6.67499830744683
11
69.2107837415528
21
6.6750016925532
72
1
10
69.2107837415528
20
6.6750016925532
11
68.75
21
3.17500000000001
97
0
75
0
76
1
52
0
41
0.0062
77
0
78
1
53
45
43
0
44
0
45
-0.0139193969876572
46
0.0139193969876572
79
0
47
0
98
1
10
0
20
0
0
HATCH
5
143
100
AcDbEntity
8
2
62
256
6
ByLayer
370
13
48
1
60
0
100
AcDbHatch
10
0
20
0
30
0
210
0
220
0
230
1
2
ANSI31
70
0
71
0
91
1
92
5
93
3
72
1
10
68.75
20
-3.17500000000001
11
69.2107837415528
21
-6.67499830744683
72
1
10
69.2107837415528
20
-6.67499830744683
11
68.2892162584472
21
-6.6750016925532
72
1
10
68.2892162584472
20
-6.6750016925532
11
68.75
21
-3.17500000000001
97
0
75
0
76
1
52
0
41
0.0062
77
0
78
1
53
45
43
0
44
0
45
-0.0139193969876572
46
0.0139193969876572
79
0
47
0
98
1
10
0
20
0
0
HATCH
5
149
100
AcDbEntity
8
SK2
62
256
6
ByLayer
370
13
48
1
60
0
100
AcDbHatch
10
0
20
0
30
0
210
0
220
0
230
1
2
ANSI31
70
0
71
0
91
1
92
5
93
3
72
1
10
-44.25
20
4
11
-43.7892162584472
21
0.500001692553184
72
1
10
-43.7892162584472
20
0.500001692553184
11
-44.7107837415528
21
0.499998307446816
72
1
10
-44.7107837415528
20
0.499998307446816
11
-44.25
21
4
97
0
75
0
76
1
52
0
41
0.0062
77
0
78
1
53
45
43
0
44
0
45
-0.0139193969876572
46
0.0139193969876572
79
0
47
0
98
1
10
0
20
0
0
HATCH
5
14D
100
AcDbEntity
8
SK2
62
256
6
ByLayer
370
13
48
1
60
0
100
AcDbHatch
10
0
20
0
30
0
210
0
220
0
230
1
2
ANSI31
70
0
71
0
91
1
92
5
93
3
72
1
10
-44.25
20
-4
11
-44.7107837415528
21
-0.500001692553184
72
1
10
-44.7107837415528
20
-0.500001692553184
11
-43.7892162584472
21
-0.499998307446816
72
1
10
-43.7892162584472
20
-0.499998307446816
11
-44.25
21
-4
97
0
75
0
76
1
52
0
41
0.0062
77
0
78
1
53
45
43
0
44
0
45
-0.0139193969876572
46
0.0139193969876572
79
0
47
0
98
1
10
0
20
0
0
HATCH
5
152
100
AcDbEntity
8
SK2
62
256
6
ByLayer
370
13
48
1
60
0
100
AcDbHatch
10
0
20
0
30
0
210
0
220
0
230
1
2
ANSI31
70
0
71
0
91
1
92
5
93
3
72
1
10
65.6232270877218
20
29.1771159199957
11
69.0467813960562
21
28.3159622133353
72
1
10
69.0467813960562
20
28.3159622133353
11
68.7072465637656
21
27.4592226242007
72
1
10
68.7072465637656
20
27.4592226242007
11
65.6232270877218
21
29.1771159199957
97
0
75
0
76
1
52
0
41
0.0062
77
0
78
1
53
45
43
0
44
0
45
-0.0139193969876572
46
0.0139193969876572
79
0
47
0
98
1
10
0
20
0
0
HATCH
5
156
100
AcDbEntity
8
SK2
62
256
6
ByLayer
370
13
48
1
60
0
100
AcDbHatch
10
0
20
0
30
0
210
0
220
0
230
1
2
ANSI31
70
0
71
0
91
1
92
5
93
3
72
1
10
65.6232270877218
20
-29.1771159199957
11
68.7072434167899
21
-27.4592238713934
72
1
10
68.7072434167899
20
-27.4592238713934
11
69.0467845430318
21
-28.3159609661426
72
1
10
69.0467845430318
20
-28.3159609661426
11
65.6232270877218
21
-29.1771159199957
97
0
75
0
76
1
52
0
41
0.0062
77
0
78
1
53
45
43
0
44
0
45
-0.0139193969876572
46
0.0139193969876572
79
0
47
0
98
1
10
0
20
0
0
DIMENSION
5
15A
100
AcDbEntity
8
2
62
256
6
ByLayer
370
18
48
1
60
0
100
AcDbDimension
2
_U0
10
55
20
-123.75884
30
0
11
9.5
21
-123.75884
31
0
70
32
71
1
72
1
41
1
210
0
220
0
230
1
3
Standard
100
AcDbAlignedDimension
13
-36
23
-4
33
0
14
55
24
-3.175
34
0
50
0
100
AcDbRotatedDimension
1001
ACAD
1000
DSTYLE
1002
{
1070
   371
1070
    13
1070
   372
1070
    13
1070
     3
1000

1070
   170
1070
     0
1070
   144
1040
1.0
1070
   277
1070
     2
1070
   284
1070
     8
1070
   278
1070
    46
1070
   146
1040
1.0
1070
   345
1005
16
1070
   347
1005
16
1070
   346
1005
16
1070
   344
1005
0
1070
   343
1005
0
1070
   172
1070
     1
1070
    76
1070
     0
1070
    75
1070
     0
1070
   282
1070
     0
1070
   281
1070
     0
1070
    71
1070
     0
1070
    74
1070
     0
1070
   279
1070
     0
1070
   173
1070
     1
1070
   340
1005
139
1070
   271
1070
     2
1070
   272
1070
     2
1070
    77
1070
     1
1070
    73
1070
     1
1070
   171
1070
     3
1070
   274
1070
     4
1070
   177
1070
     2
1070
   176
1070
     2
1070
   178
1070
     2
1070
    78
1070
     8
1070
    48
1040
-0.1
1070
    41
1040
3.5
1070
   147
1040
1.75
1070
    42
1040
1.5875
1070
    44
1040
2.0
1070
   140
1040
3.5
1002
}
1001
ACAD_DSTYLE_DIM_LINETYPE
1070
   380
1005
16
1001
ACAD_DSTYLE_DIM_EXT1_LINETYPE
1070
   381
1005
16
1001
ACAD_DSTYLE_DIM_EXT2_LINETYPE
1070
   382
1005
16
0
DIMENSION
5
173
100
AcDbEntity
8
SK2
62
256
6
ByLayer
370
18
48
1
60
0
100
AcDbDimension
2
_U1
10
2
20
-103.75884
30
0
11
28.5
21
-103.75884
31
0
70
32
71
1
72
1
41
1
210
0
220
0
230
1
3
Standard
100
AcDbAlignedDimension
13
55
23
-3.175
33
0
14
2
24
-3.175
34
0
50
0
100
AcDbRotatedDimension
1001
ACAD
1000
DSTYLE
1002
{
1070
   371
1070
    13
1070
   372
1070
    13
1070
     3
1000

1070
   170
1070
     0
1070
   144
1040
1.0
1070
   277
1070
     2
1070
   284
1070
     8
1070
   278
1070
    46
1070
   146
1040
1.0
1070
   345
1005
16
1070
   347
1005
16
1070
   346
1005
16
1070
   344
1005
0
1070
   343
1005
0
1070
   172
1070
     1
1070
    76
1070
     0
1070
    75
1070
     0
1070
   282
1070
     0
1070
   281
1070
     0
1070
    71
1070
     0
1070
    74
1070
     0
1070
   279
1070
     0
1070
   173
1070
     1
1070
   340
1005
139
1070
   271
1070
     2
1070
   272
1070
     2
1070
    77
1070
     1
1070
    73
1070
     1
1070
   171
1070
     3
1070
   274
1070
     4
1070
   177
1070
     2
1070
   176
1070
     2
1070
   178
1070
     2
1070
    78
1070
     8
1070
    48
1040
-0.1
1070
    41
1040
3.5
1070
   147
1040
1.75
1070
    42
1040
1.5875
1070
    44
1040
2.0
1070
   140
1040
3.5
1002
}
1001
ACAD_DSTYLE_DIM_LINETYPE
1070
   380
1005
16
1001
ACAD_DSTYLE_DIM_EXT1_LINETYPE
1070
   381
1005
16
1001
ACAD_DSTYLE_DIM_EXT2_LINETYPE
1070
   382
1005
16
0
DIMENSION
5
18B
100
AcDbEntity
8
SK2
62
256
6
ByLayer
370
18
48
1
60
0
100
AcDbDimension
2
_U2
10
12
20
-93.75884
30
0
11
33.5
21
-93.75884
31
0
70
32
71
1
72
1
41
1
210
0
220
0
230
1
3
Standard
100
AcDbAlignedDimension
13
55
23
-3.175
33
0
14
12
24
-3.175
34
0
50
0
100
AcDbRotatedDimension
1001
ACAD
1000
DSTYLE
1002
{
1070
   371
1070
    13
1070
   372
1070
    13
1070
     3
1000

1070
   170
1070
     0
1070
   144
1040
1.0
1070
   277
1070
     2
1070
   284
1070
     8
1070
   278
1070
    46
1070
   146
1040
1.0
1070
   345
1005
16
1070
   347
1005
16
1070
   346
1005
16
1070
   344
1005
0
1070
   343
1005
0
1070
   172
1070
     1
1070
    76
1070
     0
1070
    75
1070
     0
1070
   282
1070
     0
1070
   281
1070
     0
1070
    71
1070
     0
1070
    74
1070
     0
1070
   279
1070
     0
1070
   173
1070
     1
1070
   340
1005
139
1070
   271
1070
     2
1070
   272
1070
     2
1070
    77
1070
     1
1070
    73
1070
     1
1070
   171
1070
     3
1070
   274
1070
     4
1070
   177
1070
     2
1070
   176
1070
     2
1070
   178
1070
     2
1070
    78
1070
     8
1070
    48
1040
-0.1
1070
    41
1040
3.5
1070
   147
1040
1.75
1070
    42
1040
1.5875
1070
    44
1040
2.0
1070
   140
1040
3.5
1002
}
1001
ACAD_DSTYLE_DIM_LINETYPE
1070
   380
1005
16
1001
ACAD_DSTYLE_DIM_EXT1_LINETYPE
1070
   381
1005
16
1001
ACAD_DSTYLE_DIM_EXT2_LINETYPE
1070
   382
1005
16
0
DIMENSION
5
1A5
100
AcDbEntity
8
SK2
62
256
6
ByLayer
370
18
48
1
60
0
100
AcDbDimension
2
_U3
10
0
20
-103.75884
30
0
11
-18
21
-103.75884
31
0
70
32
71
1
72
1
41
1
210
0
220
0
230
1
3
Standard
100
AcDbAlignedDimension
13
-36
23
-4
33
0
14
0
24
-4
34
0
50
0
100
AcDbRotatedDimension
1001
ACAD
1000
DSTYLE
1002
{
1070
   371
1070
    13
1070
   372
1070
    13
1070
     3
1000

1070
   170
1070
     0
1070
   144
1040
1.0
1070
   277
1070
     2
1070
   284
1070
     8
1070
   278
1070
    46
1070
   146
1040
1.0
1070
   345
1005
16
1070
   347
1005
16
1070
   346
1005
16
1070
   344
1005
0
1070
   343
1005
0
1070
   172
1070
     1
1070
    76
1070
     0
1070
    75
1070
     0
1070
   282
1070
     0
1070
   281
1070
     0
1070
    71
1070
     0
1070
    74
1070
     0
1070
   279
1070
     0
1070
   173
1070
     1
1070
   340
1005
139
1070
   271
1070
     2
1070
   272
1070
     2
1070
    77
1070
     1
1070
    73
1070
     1
1070
   171
1070
     3
1070
   274
1070
     4
1070
   177
1070
     2
1070
   176
1070
     2
1070
   178
1070
     2
1070
    78
1070
     8
1070
    48
1040
-0.1
1070
    41
1040
3.5
1070
   147
1040
1.75
1070
    42
1040
1.5875
1070
    44
1040
2.0
1070
   140
1040
3.5
1002
}
1001
ACAD_DSTYLE_DIM_LINETYPE
1070
   380
1005
16
1001
ACAD_DSTYLE_DIM_EXT1_LINETYPE
1070
   381
1005
16
1001
ACAD_DSTYLE_DIM_EXT2_LINETYPE
1070
   382
1005
16
0
DIMENSION
5
1BD
100
AcDbEntity
8
SK2
62
256
6
ByLayer
370
18
48
1
60
0
100
AcDbDimension
2
_U4
10
55
20
-113.75884
30
0
11
27.5
21
-113.75884
31
0
70
32
71
1
72
1
41
1
210
0
220
0
230
1
3
Standard
100
AcDbAlignedDimension
13
0
23
-4
33
0
14
55
24
-3.175
34
0
50
0
100
AcDbRotatedDimension
1001
ACAD
1000
DSTYLE
1002
{
1070
   371
1070
    13
1070
   372
1070
    13
1070
     3
1000

1070
   170
1070
     0
1070
   144
1040
1.0
1070
   277
1070
     2
1070
   284
1070
     8
1070
   278
1070
    46
1070
   146
1040
1.0
1070
   345
1005
16
1070
   347
1005
16
1070
   346
1005
16
1070
   344
1005
0
1070
   343
1005
0
1070
   172
1070
     1
1070
    76
1070
     0
1070
    75
1070
     0
1070
   282
1070
     0
1070
   281
1070
     0
1070
    71
1070
     0
1070
    74
1070
     0
1070
   279
1070
     0
1070
   173
1070
     1
1070
   340
1005
139
1070
   271
1070
     2
1070
   272
1070
     2
1070
    77
1070
     1
1070
    73
1070
     1
1070
   171
1070
     3
1070
   274
1070
     4
1070
   177
1070
     2
1070
   176
1070
     2
1070
   178
1070
     2
1070
    78
1070
     8
1070
    48
1040
-0.1
1070
    41
1040
3.5
1070
   147
1040
1.75
1070
    42
1040
1.5875
1070
    44
1040
2.0
1070
   140
1040
3.5
1002
}
1001
ACAD_DSTYLE_DIM_LINETYPE
1070
   380
1005
16
1001
ACAD_DSTYLE_DIM_EXT1_LINETYPE
1070
   381
1005
16
1001
ACAD_DSTYLE_DIM_EXT2_LINETYPE
1070
   382
1005
16
0
ENDSEC
0
SECTION
2
OBJECTS
0
DICTIONARY
5
245
330
0
100
AcDbDictionary
280
0
281
1
3
ACAD_GROUP
350
246
3
ACAD_MLINESTYLE
350
247
0
DICTIONARY
5
246
330
0
100
AcDbDictionary
280
0
281
1
0
DICTIONARY
5
247
330
0
100
AcDbDictionary
280
0
281
1
3
Standard
350
18
0
MLINESTYLE
5
18
330
247
100
AcDbMlineStyle
2
Standard
70
0
3

62
256
51
90
52
90
71
2
49
-0.5
62
256
6
ByLayer
49
0.5
62
256
6
ByLayer
0
RASTERVARIABLES
5
233
330

100
AcDbRasterVariables
90
0
70
1
71
1
72
1
0
ENDSEC
0
EOF
