0
SECTION
2
HEADER
9
$ACADVER
1
AC1015
9
$DWGCODEPAGE
3
ANSI_1252
9
$HANDSEED
5
233
9
$ANGBASE
50
0
9
$ANGDIR
70
0
9
$ATTMODE
70
1
9
$AUNITS
70
0
9
$AUPREC
70
0
9
$CECOLOR
62
256
9
$CELTSCALE
40
1
9
$CELTYPE
6
ByLayer
9
$CELWEIGHT
370
18
9
$CLAYER
8
0
9
$CMLJUST
70
0
9
$CMLSCALE
40
1
9
$CMLSTYLE
2
Standard
9
$DIMSTYLE
2
Standard
9
$TEXTSIZE
40
0.2
9
$TEXTSTYLE
7
Standard
9
$LUNITS
70
2
9
$LUPREC
70
4
9
$EXTNAMES
290
1
9
$INSUNITS
70
4
9
$LTSCALE
40
1
9
$LWDISPLAY
290
1
9
$PDMODE
70
0
9
$PDSIZE
40
0
9
$PLINEGEN
70
0
0
ENDSEC
0
SECTION
2
CLASSES
0
CLASS
1
RASTERVARIABLES
2
AcDbRasterVariables
3
ISM
90
0
280
0
281
0
0
ENDSEC
0
SECTION
2
TABLES
0
TABLE
2
VPORT
5
229
100
AcDbSymbolTable
0
VPORT
5
1
100
AcDbSymbolTableRecord
100
AcDbViewportTableRecord
2
*Active
70
0
10
0
20
0
11
1
21
1
12
-1
22
1
13
0
23
0
14
0.5
24
0.5
15
10
25
10
16
0
26
0
36
1
17
0
27
0
37
0
0
ENDTAB
0
TABLE
2
LTYPE
5
22a
100
AcDbSymbolTable
0
LTYPE
5
14
100
AcDbSymbolTableRecord
100
AcDbLinetypeTableRecord
70
0
2
ByBlock
3

72
65
73
0
40
0
0
LTYPE
5
15
100
AcDbSymbolTableRecord
100
AcDbLinetypeTableRecord
70
0
2
ByLayer
3

72
65
73
0
40
0
0
LTYPE
5
16
100
AcDbSymbolTableRecord
100
AcDbLinetypeTableRecord
70
0
2
Continuous
3
Solid line
72
65
73
0
40
0
0
LTYPE
5
6E
100
AcDbSymbolTableRecord
100
AcDbLinetypeTableRecord
70
0
2
CENTER
3
____ _ ____ _ ____ _ ____
72
65
73
4
40
47.5
49
22
74
0
49
-8.5
74
0
49
8.5
74
0
49
-8.5
74
0
0
LTYPE
5
6F
100
AcDbSymbolTableRecord
100
AcDbLinetypeTableRecord
70
0
2
DASHED
3
__ __ __ __ __ __ __ __ __
72
65
73
2
40
25.72
49
12.86
74
0
49
-12.86
74
0
0
ENDTAB
0
TABLE
2
LAYER
5
22b
100
AcDbSymbolTable
0
LAYER
5
10
100
AcDbSymbolTableRecord
100
AcDbLayerTableRecord
2
0
70
0
62
7
6
Continuous
290
1
370
-3
390
0
0
LAYER
5
71
100
AcDbSymbolTableRecord
100
AcDbLayerTableRecord
2
81
70
0
62
-3
6
Continuous
290
1
370
-3
390
0
0
LAYER
5
73
100
AcDbSymbolTableRecord
100
AcDbLayerTableRecord
2
80
70
0
62
-6
6
Continuous
290
1
370
-3
390
0
0
LAYER
5
75
100
AcDbSymbolTableRecord
100
AcDbLayerTableRecord
2
1
70
0
62
4
6
Continuous
290
1
370
-3
390
0
0
LAYER
5
87
100
AcDbSymbolTableRecord
100
AcDbLayerTableRecord
2
4
70
0
62
-2
6
CENTER
290
1
370
-3
390
0
0
LAYER
5
A3
100
AcDbSymbolTableRecord
100
AcDbLayerTableRecord
2
2
70
0
62
7
6
Continuous
290
1
370
-3
390
0
0
LAYER
5
13E
100
AcDbSymbolTableRecord
100
AcDbLayerTableRecord
2
Defpoints
70
0
62
7
6
Continuous
290
0
370
-3
390
0
0
LAYER
5
215
100
AcDbSymbolTableRecord
100
AcDbLayerTableRecord
2
SK4
70
0
62
2
6
CENTER
290
1
370
-3
390
0
0
LAYER
5
216
100
AcDbSymbolTableRecord
100
AcDbLayerTableRecord
2
SK1
70
0
62
4
6
Continuous
290
1
370
-3
390
0
0
LAYER
5
217
100
AcDbSymbolTableRecord
100
AcDbLayerTableRecord
2
SK2
70
0
62
7
6
Continuous
290
1
370
-3
390
0
0
LAYER
5
218
100
AcDbSymbolTableRecord
100
AcDbLayerTableRecord
2
SK6
70
0
62
5
6
Continuous
290
1
370
-3
390
0
0
ENDTAB
0
TABLE
2
STYLE
5
22c
100
AcDbSymbolTable
0
STYLE
5
11
100
AcDbSymbolTableRecord
100
AcDbTextStyleTableRecord
2
Standard
3
txt
70
0
71
0
40
0
41
1
42
0
50
0
0
STYLE
5
11A
100
AcDbSymbolTableRecord
100
AcDbTextStyleTableRecord
2
iso_b_vert
3
simplex.shx
70
0
71
0
40
0
41
1
42
0
50
0
0
STYLE
5
11B
100
AcDbSymbolTableRecord
100
AcDbTextStyleTableRecord
2
DWGDirectTextStyle
3
simplex
70
0
71
0
40
0
41
1
42
0
50
0
0
ENDTAB
0
TABLE
2
DIMSTYLE
5
22d
100
AcDbSymbolTable
100
AcDbDimStyleTable
0
DIMSTYLE
105
27
100
AcDbSymbolTableRecord
100
AcDbDimStyleTableRecord
2
Standard
70
0
3
<>
41
0.18
42
0.0625
44
0.18
140
0.18
147
0.09
73
0
74
0
77
1
271
2
275
0
278
52
280
0
340
11
0
ENDTAB
0
TABLE
2
VIEW
5
22e
100
AcDbSymbolTable
0
ENDTAB
0
TABLE
2
UCS
5
22f
100
AcDbSymbolTable
0
ENDTAB
0
TABLE
2
APPID
5
230
100
AcDbSymbolTable
0
APPID
5
12
100
AcDbSymbolTableRecord
100
AcDbRegAppTableRecord
2
ACAD
70
0
0
APPID
5
13A
100
AcDbSymbolTableRecord
100
AcDbRegAppTableRecord
2
ACAD_DSTYLE_DIMBREAK
70
0
0
APPID
5
1D4
100
AcDbSymbolTableRecord
100
AcDbRegAppTableRecord
2
ACAD_DSTYLE_DIM_LINETYPE
70
0
0
APPID
5
1D5
100
AcDbSymbolTableRecord
100
AcDbRegAppTableRecord
2
ACAD_DSTYLE_DIM_EXT1_LINETYPE
70
0
0
APPID
5
1D6
100
AcDbSymbolTableRecord
100
AcDbRegAppTableRecord
2
ACAD_DSTYLE_DIM_EXT2_LINETYPE
70
0
0
APPID
5
211
100
AcDbSymbolTableRecord
100
AcDbRegAppTableRecord
2
ACAD_MLEADERVER
70
0
0
ENDTAB
0
TABLE
2
BLOCK_RECORD
5
231
100
AcDbSymbolTable
0
BLOCK_RECORD
5
1F
100
AcDbSymbolTableRecord
100
AcDbBlockTableRecord
2
*Model_Space
340
0
70
0
0
BLOCK_RECORD
5
1B
100
AcDbSymbolTableRecord
100
AcDbBlockTableRecord
2
*Paper_Space
340
0
70
0
0
BLOCK_RECORD
5
23
100
AcDbSymbolTableRecord
100
AcDbBlockTableRecord
2
*Paper_Space0
340
0
70
0
0
BLOCK_RECORD
5
13F
100
AcDbSymbolTableRecord
100
AcDbBlockTableRecord
2
*D1
340
0
70
0
0
BLOCK_RECORD
5
14B
100
AcDbSymbolTableRecord
100
AcDbBlockTableRecord
2
_U0
340
0
70
0
0
BLOCK_RECORD
5
157
100
AcDbSymbolTableRecord
100
AcDbBlockTableRecord
2
*D3
340
0
70
0
0
BLOCK_RECORD
5
163
100
AcDbSymbolTableRecord
100
AcDbBlockTableRecord
2
_U1
340
0
70
0
0
BLOCK_RECORD
5
16F
100
AcDbSymbolTableRecord
100
AcDbBlockTableRecord
2
*D5
340
0
70
0
0
BLOCK_RECORD
5
17B
100
AcDbSymbolTableRecord
100
AcDbBlockTableRecord
2
_U2
340
0
70
0
0
BLOCK_RECORD
5
189
100
AcDbSymbolTableRecord
100
AcDbBlockTableRecord
2
*D7
340
0
70
0
0
BLOCK_RECORD
5
195
100
AcDbSymbolTableRecord
100
AcDbBlockTableRecord
2
_U3
340
0
70
0
0
BLOCK_RECORD
5
1A1
100
AcDbSymbolTableRecord
100
AcDbBlockTableRecord
2
*D9
340
0
70
0
0
BLOCK_RECORD
5
1AD
100
AcDbSymbolTableRecord
100
AcDbBlockTableRecord
2
_U4
340
0
70
0
0
ENDTAB
0
ENDSEC
0
SECTION
2
BLOCKS
0
BLOCK
5
20
100
AcDbEntity
8
0
100
AcDbBlockBegin
2
*Model_Space
70
0
10
0
20
0
30
0
3
*Model_Space
0
ENDBLK
5
21
100
AcDbEntity
8
0
100
AcDbBlockEnd
0
BLOCK
5
1C
100
AcDbEntity
8
0
100
AcDbBlockBegin
2
*Paper_Space
70
0
10
0
20
0
30
0
3
*Paper_Space
0
ENDBLK
5
1D
100
AcDbEntity
8
0
100
AcDbBlockEnd
0
BLOCK
5
24
100
AcDbEntity
8
0
100
AcDbBlockBegin
2
*Paper_Space0
70
0
10
0
20
0
30
0
3
*Paper_Space0
0
ENDBLK
5
25
100
AcDbEntity
8
0
100
AcDbBlockEnd
0
BLOCK
5
140
100
AcDbEntity
8
0
100
AcDbBlockBegin
2
*D1
70
1
10
0
20
0
30
0
3
*D1
0
LINE
5
142
100
AcDbEntity
8
0
62
256
6
ByLayer
370
-2
48
1
60
0
100
AcDbLine
10
-36
20
-4.5875
30
0
11
-36
21
-58.773323
31
0
39
0
210
0
220
0
230
1
0
LINE
5
143
100
AcDbEntity
8
0
62
256
6
ByLayer
370
-2
48
1
60
0
100
AcDbLine
10
46
20
-4.4375
30
0
11
46
21
-58.773323
31
0
39
0
210
0
220
0
230
1
0
LINE
5
144
100
AcDbEntity
8
0
62
256
6
ByLayer
370
-2
48
1
60
0
100
AcDbLine
10
-32.5
20
-56.773323
30
0
11
42.5
21
-56.773323
31
0
39
0
210
0
220
0
230
1
0
SOLID
5
145
100
AcDbEntity
8
0
62
256
6
ByLayer
370
-1
48
1
60
0
100
AcDbTrace
10
-32.5
20
-56.189989
30
0
11
-32.5
21
-57.356656
31
0
12
-36
22
-56.773323
32
0
13
-36
23
-56.773323
33
0
39
0
210
0
220
0
230
1
0
SOLID
5
146
100
AcDbEntity
8
0
62
256
6
ByLayer
370
-1
48
1
60
0
100
AcDbTrace
10
42.5
20
-57.356656
30
0
11
42.5
21
-56.189989
31
0
12
46
22
-56.773323
32
0
13
46
23
-56.773323
33
0
39
0
210
0
220
0
230
1
0
MTEXT
5
147
100
AcDbEntity
8
0
62
256
6
ByLayer
370
18
48
1
60
0
100
AcDbMText
10
5
20
-49.773323
30
0
210
0
220
0
230
1
1
\A1;82
40
3.5
41
0
44
1
50
0
71
5
72
5
7
iso_b_vert
0
POINT
5
148
100
AcDbEntity
8
Defpoints
62
0
6
ByLayer
370
-1
48
1
60
0
100
AcDbPoint
10
-36
20
-3
30
0
39
0
210
0
220
0
230
1
50
360
0
POINT
5
149
100
AcDbEntity
8
Defpoints
62
0
6
ByLayer
370
-1
48
1
60
0
100
AcDbPoint
10
46
20
-2.85
30
0
39
0
210
0
220
0
230
1
50
360
0
POINT
5
14A
100
AcDbEntity
8
Defpoints
62
0
6
ByLayer
370
-1
48
1
60
0
100
AcDbPoint
10
46
20
-56.773323
30
0
39
0
210
0
220
0
230
1
50
360
0
ENDBLK
5
141
100
AcDbEntity
8
0
100
AcDbBlockEnd
0
BLOCK
5
152
100
AcDbEntity
8
0
100
AcDbBlockBegin
2
_U0
70
0
10
0
20
0
30
0
3
_U0
0
MTEXT
5
14C
100
AcDbEntity
8
2
62
256
6
ByLayer
370
18
48
1
60
0
100
AcDbMText
10
3.095034
20
-55.740689
30
0
210
0
220
0
230
1
1
\W0.6740;82
40
3.5
41
0
44
1.084337
50
0
71
7
72
5
7
iso_b_vert
0
LINE
5
14D
100
AcDbEntity
8
2
62
256
6
ByLayer
370
13
48
1
60
0
100
AcDbLine
10
-36
20
-4.5875
30
0
11
-36
21
-58.773323
31
0
39
0
210
0
220
0
230
1
0
LINE
5
14E
100
AcDbEntity
8
2
62
256
6
ByLayer
370
13
48
1
60
0
100
AcDbLine
10
46
20
-4.4375
30
0
11
46
21
-58.773323
31
0
39
0
210
0
220
0
230
1
0
LINE
5
14F
100
AcDbEntity
8
2
62
256
6
ByLayer
370
13
48
1
60
0
100
AcDbLine
10
-36
20
-56.773323
30
0
11
46
21
-56.773323
31
0
39
0
210
0
220
0
230
1
0
SOLID
5
150
100
AcDbEntity
8
2
62
256
6
ByLayer
370
18
48
1
60
0
100
AcDbTrace
10
-36
20
-56.773323
30
0
11
-32.500002
21
-56.312539
31
0
12
-32.499998
22
-57.234107
32
0
13
-32.499998
23
-57.234107
33
0
39
0
210
0
220
0
230
1
0
SOLID
5
151
100
AcDbEntity
8
2
62
256
6
ByLayer
370
18
48
1
60
0
100
AcDbTrace
10
46
20
-56.773323
30
0
11
42.500002
21
-57.234107
31
0
12
42.499998
22
-56.312539
32
0
13
42.499998
23
-56.312539
33
0
39
0
210
0
220
0
230
1
0
ENDBLK
5
153
100
AcDbEntity
8
0
100
AcDbBlockEnd
0
BLOCK
5
158
100
AcDbEntity
8
0
100
AcDbBlockBegin
2
*D3
70
1
10
0
20
0
30
0
3
*D3
0
LINE
5
15A
100
AcDbEntity
8
0
62
256
6
ByLayer
370
-2
48
1
60
0
100
AcDbLine
10
46
20
-4.4375
30
0
11
46
21
-38.773323
31
0
39
0
210
0
220
0
230
1
0
LINE
5
15B
100
AcDbEntity
8
0
62
256
6
ByLayer
370
-2
48
1
60
0
100
AcDbLine
10
2
20
-4.4375
30
0
11
2
21
-38.773323
31
0
39
0
210
0
220
0
230
1
0
LINE
5
15C
100
AcDbEntity
8
0
62
256
6
ByLayer
370
-2
48
1
60
0
100
AcDbLine
10
42.5
20
-36.773323
30
0
11
5.5
21
-36.773323
31
0
39
0
210
0
220
0
230
1
0
SOLID
5
15D
100
AcDbEntity
8
0
62
256
6
ByLayer
370
-1
48
1
60
0
100
AcDbTrace
10
42.5
20
-37.356656
30
0
11
42.5
21
-36.189989
31
0
12
46
22
-36.773323
32
0
13
46
23
-36.773323
33
0
39
0
210
0
220
0
230
1
0
SOLID
5
15E
100
AcDbEntity
8
0
62
256
6
ByLayer
370
-1
48
1
60
0
100
AcDbTrace
10
5.5
20
-36.189989
30
0
11
5.5
21
-37.356656
31
0
12
2
22
-36.773323
32
0
13
2
23
-36.773323
33
0
39
0
210
0
220
0
230
1
0
MTEXT
5
15F
100
AcDbEntity
8
0
62
256
6
ByLayer
370
18
48
1
60
0
100
AcDbMText
10
24
20
-29.773323
30
0
210
0
220
0
230
1
1
\A1;44
40
3.5
41
0
44
1
50
0
71
5
72
5
7
iso_b_vert
0
POINT
5
160
100
AcDbEntity
8
Defpoints
62
0
6
ByLayer
370
-1
48
1
60
0
100
AcDbPoint
10
46
20
-2.85
30
0
39
0
210
0
220
0
230
1
50
360
0
POINT
5
161
100
AcDbEntity
8
Defpoints
62
0
6
ByLayer
370
-1
48
1
60
0
100
AcDbPoint
10
2
20
-2.85
30
0
39
0
210
0
220
0
230
1
50
360
0
POINT
5
162
100
AcDbEntity
8
Defpoints
62
0
6
ByLayer
370
-1
48
1
60
0
100
AcDbPoint
10
2
20
-36.773323
30
0
39
0
210
0
220
0
230
1
50
360
0
ENDBLK
5
159
100
AcDbEntity
8
0
100
AcDbBlockEnd
0
BLOCK
5
16A
100
AcDbEntity
8
0
100
AcDbBlockBegin
2
_U1
70
0
10
0
20
0
30
0
3
_U1
0
MTEXT
5
164
100
AcDbEntity
8
SK2
62
256
6
ByLayer
370
18
48
1
60
0
100
AcDbMText
10
21.7265
20
-35.740689
30
0
210
0
220
0
230
1
1
\W0.7685;44
40
3.5
41
0
44
1.084337
50
0
71
7
72
5
7
iso_b_vert
0
LINE
5
165
100
AcDbEntity
8
SK2
62
256
6
ByLayer
370
13
48
1
60
0
100
AcDbLine
10
46
20
-4.4375
30
0
11
46
21
-38.773323
31
0
39
0
210
0
220
0
230
1
0
LINE
5
166
100
AcDbEntity
8
SK2
62
256
6
ByLayer
370
13
48
1
60
0
100
AcDbLine
10
2
20
-4.4375
30
0
11
2
21
-38.773323
31
0
39
0
210
0
220
0
230
1
0
LINE
5
167
100
AcDbEntity
8
SK2
62
256
6
ByLayer
370
13
48
1
60
0
100
AcDbLine
10
46
20
-36.773323
30
0
11
2
21
-36.773323
31
0
39
0
210
0
220
0
230
1
0
SOLID
5
168
100
AcDbEntity
8
SK2
62
256
6
ByLayer
370
18
48
1
60
0
100
AcDbTrace
10
46
20
-36.773323
30
0
11
42.500002
21
-37.234107
31
0
12
42.499998
22
-36.312539
32
0
13
42.499998
23
-36.312539
33
0
39
0
210
0
220
0
230
1
0
SOLID
5
169
100
AcDbEntity
8
SK2
62
256
6
ByLayer
370
18
48
1
60
0
100
AcDbTrace
10
2
20
-36.773323
30
0
11
5.499998
21
-36.312539
31
0
12
5.500002
22
-37.234107
32
0
13
5.500002
23
-37.234107
33
0
39
0
210
0
220
0
230
1
0
ENDBLK
5
16B
100
AcDbEntity
8
0
100
AcDbBlockEnd
0
BLOCK
5
170
100
AcDbEntity
8
0
100
AcDbBlockBegin
2
*D5
70
1
10
0
20
0
30
0
3
*D5
0
LINE
5
172
100
AcDbEntity
8
0
62
256
6
ByLayer
370
-2
48
1
60
0
100
AcDbLine
10
46
20
-4.4375
30
0
11
46
21
-28.773323
31
0
39
0
210
0
220
0
230
1
0
LINE
5
173
100
AcDbEntity
8
0
62
256
6
ByLayer
370
-2
48
1
60
0
100
AcDbLine
10
11
20
-4.4375
30
0
11
11
21
-28.773323
31
0
39
0
210
0
220
0
230
1
0
LINE
5
174
100
AcDbEntity
8
0
62
256
6
ByLayer
370
-2
48
1
60
0
100
AcDbLine
10
42.5
20
-26.773323
30
0
11
14.5
21
-26.773323
31
0
39
0
210
0
220
0
230
1
0
SOLID
5
175
100
AcDbEntity
8
0
62
256
6
ByLayer
370
-1
48
1
60
0
100
AcDbTrace
10
42.5
20
-27.356656
30
0
11
42.5
21
-26.189989
31
0
12
46
22
-26.773323
32
0
13
46
23
-26.773323
33
0
39
0
210
0
220
0
230
1
0
SOLID
5
176
100
AcDbEntity
8
0
62
256
6
ByLayer
370
-1
48
1
60
0
100
AcDbTrace
10
14.5
20
-26.189989
30
0
11
14.5
21
-27.356656
31
0
12
11
22
-26.773323
32
0
13
11
23
-26.773323
33
0
39
0
210
0
220
0
230
1
0
MTEXT
5
177
100
AcDbEntity
8
0
62
256
6
ByLayer
370
18
48
1
60
0
100
AcDbMText
10
28.5
20
-19.773323
30
0
210
0
220
0
230
1
1
\A1;35
40
3.5
41
0
44
1
50
0
71
5
72
5
7
iso_b_vert
0
POINT
5
178
100
AcDbEntity
8
Defpoints
62
0
6
ByLayer
370
-1
48
1
60
0
100
AcDbPoint
10
46
20
-2.85
30
0
39
0
210
0
220
0
230
1
50
360
0
POINT
5
179
100
AcDbEntity
8
Defpoints
62
0
6
ByLayer
370
-1
48
1
60
0
100
AcDbPoint
10
11
20
-2.85
30
0
39
0
210
0
220
0
230
1
50
360
0
POINT
5
17A
100
AcDbEntity
8
Defpoints
62
0
6
ByLayer
370
-1
48
1
60
0
100
AcDbPoint
10
11
20
-26.773323
30
0
39
0
210
0
220
0
230
1
50
360
0
ENDBLK
5
171
100
AcDbEntity
8
0
100
AcDbBlockEnd
0
BLOCK
5
184
100
AcDbEntity
8
0
100
AcDbBlockBegin
2
_U2
70
0
10
0
20
0
30
0
3
_U2
0
MTEXT
5
17C
100
AcDbEntity
8
SK2
62
256
6
ByLayer
370
18
48
1
60
0
100
AcDbMText
10
26.595034
20
-25.740689
30
0
210
0
220
0
230
1
1
\W0.6740;35
40
3.5
41
0
44
1.084337
50
0
71
7
72
5
7
iso_b_vert
0
MTEXT
5
17D
100
AcDbEntity
8
SK2
62
256
6
ByLayer
370
18
48
1
60
0
100
AcDbMText
10
22.727034
20
-25.740689
30
0
210
0
220
0
230
1
1
\W0.1790;(
40
3.5
41
0
44
1.084337
50
0
71
7
72
5
7
iso_b_vert
0
MTEXT
5
17E
100
AcDbEntity
8
SK2
62
256
6
ByLayer
370
18
48
1
60
0
100
AcDbMText
10
34.275966
20
-25.740689
30
0
210
0
220
0
230
1
1
\W0.1969;)
40
3.5
41
0
44
1.084337
50
0
71
7
72
5
7
iso_b_vert
0
LINE
5
17F
100
AcDbEntity
8
SK2
62
256
6
ByLayer
370
13
48
1
60
0
100
AcDbLine
10
46
20
-4.4375
30
0
11
46
21
-28.773323
31
0
39
0
210
0
220
0
230
1
0
LINE
5
180
100
AcDbEntity
8
SK2
62
256
6
ByLayer
370
13
48
1
60
0
100
AcDbLine
10
11
20
-4.4375
30
0
11
11
21
-28.773323
31
0
39
0
210
0
220
0
230
1
0
LINE
5
181
100
AcDbEntity
8
SK2
62
256
6
ByLayer
370
13
48
1
60
0
100
AcDbLine
10
46
20
-26.773323
30
0
11
11
21
-26.773323
31
0
39
0
210
0
220
0
230
1
0
SOLID
5
182
100
AcDbEntity
8
SK2
62
256
6
ByLayer
370
18
48
1
60
0
100
AcDbTrace
10
46
20
-26.773323
30
0
11
42.500002
21
-27.234107
31
0
12
42.499998
22
-26.312539
32
0
13
42.499998
23
-26.312539
33
0
39
0
210
0
220
0
230
1
0
SOLID
5
183
100
AcDbEntity
8
SK2
62
256
6
ByLayer
370
18
48
1
60
0
100
AcDbTrace
10
11
20
-26.773323
30
0
11
14.499998
21
-26.312539
31
0
12
14.500002
22
-27.234107
32
0
13
14.500002
23
-27.234107
33
0
39
0
210
0
220
0
230
1
0
ENDBLK
5
185
100
AcDbEntity
8
0
100
AcDbBlockEnd
0
BLOCK
5
18A
100
AcDbEntity
8
0
100
AcDbBlockBegin
2
*D7
70
1
10
0
20
0
30
0
3
*D7
0
LINE
5
18C
100
AcDbEntity
8
0
62
256
6
ByLayer
370
-2
48
1
60
0
100
AcDbLine
10
-36
20
-4.5875
30
0
11
-36
21
-38.773323
31
0
39
0
210
0
220
0
230
1
0
LINE
5
18D
100
AcDbEntity
8
0
62
256
6
ByLayer
370
-2
48
1
60
0
100
AcDbLine
10
0
20
-4.5875
30
0
11
0
21
-38.773323
31
0
39
0
210
0
220
0
230
1
0
LINE
5
18E
100
AcDbEntity
8
0
62
256
6
ByLayer
370
-2
48
1
60
0
100
AcDbLine
10
-32.5
20
-36.773323
30
0
11
-3.5
21
-36.773323
31
0
39
0
210
0
220
0
230
1
0
SOLID
5
18F
100
AcDbEntity
8
0
62
256
6
ByLayer
370
-1
48
1
60
0
100
AcDbTrace
10
-32.5
20
-36.189989
30
0
11
-32.5
21
-37.356656
31
0
12
-36
22
-36.773323
32
0
13
-36
23
-36.773323
33
0
39
0
210
0
220
0
230
1
0
SOLID
5
190
100
AcDbEntity
8
0
62
256
6
ByLayer
370
-1
48
1
60
0
100
AcDbTrace
10
-3.5
20
-37.356656
30
0
11
-3.5
21
-36.189989
31
0
12
0
22
-36.773323
32
0
13
0
23
-36.773323
33
0
39
0
210
0
220
0
230
1
0
MTEXT
5
191
100
AcDbEntity
8
0
62
256
6
ByLayer
370
18
48
1
60
0
100
AcDbMText
10
-18
20
-29.773323
30
0
210
0
220
0
230
1
1
\A1;36
40
3.5
41
0
44
1
50
0
71
5
72
5
7
iso_b_vert
0
POINT
5
192
100
AcDbEntity
8
Defpoints
62
0
6
ByLayer
370
-1
48
1
60
0
100
AcDbPoint
10
-36
20
-3
30
0
39
0
210
0
220
0
230
1
50
360
0
POINT
5
193
100
AcDbEntity
8
Defpoints
62
0
6
ByLayer
370
-1
48
1
60
0
100
AcDbPoint
10
0
20
-3
30
0
39
0
210
0
220
0
230
1
50
360
0
POINT
5
194
100
AcDbEntity
8
Defpoints
62
0
6
ByLayer
370
-1
48
1
60
0
100
AcDbPoint
10
0
20
-36.773323
30
0
39
0
210
0
220
0
230
1
50
360
0
ENDBLK
5
18B
100
AcDbEntity
8
0
100
AcDbBlockEnd
0
BLOCK
5
19C
100
AcDbEntity
8
0
100
AcDbBlockBegin
2
_U3
70
0
10
0
20
0
30
0
3
_U3
0
MTEXT
5
196
100
AcDbEntity
8
SK2
62
256
6
ByLayer
370
18
48
1
60
0
100
AcDbMText
10
-19.904966
20
-35.740689
30
0
210
0
220
0
230
1
1
\W0.6740;36
40
3.5
41
0
44
1.084337
50
0
71
7
72
5
7
iso_b_vert
0
LINE
5
197
100
AcDbEntity
8
SK2
62
256
6
ByLayer
370
13
48
1
60
0
100
AcDbLine
10
-36
20
-4.5875
30
0
11
-36
21
-38.773323
31
0
39
0
210
0
220
0
230
1
0
LINE
5
198
100
AcDbEntity
8
SK2
62
256
6
ByLayer
370
13
48
1
60
0
100
AcDbLine
10
0
20
-4.5875
30
0
11
0
21
-38.773323
31
0
39
0
210
0
220
0
230
1
0
LINE
5
199
100
AcDbEntity
8
SK2
62
256
6
ByLayer
370
13
48
1
60
0
100
AcDbLine
10
-36
20
-36.773323
30
0
11
0
21
-36.773323
31
0
39
0
210
0
220
0
230
1
0
SOLID
5
19A
100
AcDbEntity
8
SK2
62
256
6
ByLayer
370
18
48
1
60
0
100
AcDbTrace
10
-36
20
-36.773323
30
0
11
-32.500002
21
-36.312539
31
0
12
-32.499998
22
-37.234107
32
0
13
-32.499998
23
-37.234107
33
0
39
0
210
0
220
0
230
1
0
SOLID
5
19B
100
AcDbEntity
8
SK2
62
256
6
ByLayer
370
18
48
1
60
0
100
AcDbTrace
10
0
20
-36.773323
30
0
11
-3.499998
21
-37.234107
31
0
12
-3.500002
22
-36.312539
32
0
13
-3.500002
23
-36.312539
33
0
39
0
210
0
220
0
230
1
0
ENDBLK
5
19D
100
AcDbEntity
8
0
100
AcDbBlockEnd
0
BLOCK
5
1A2
100
AcDbEntity
8
0
100
AcDbBlockBegin
2
*D9
70
1
10
0
20
0
30
0
3
*D9
0
LINE
5
1A4
100
AcDbEntity
8
0
62
256
6
ByLayer
370
-2
48
1
60
0
100
AcDbLine
10
0
20
-4.5875
30
0
11
0
21
-48.773323
31
0
39
0
210
0
220
0
230
1
0
LINE
5
1A5
100
AcDbEntity
8
0
62
256
6
ByLayer
370
-2
48
1
60
0
100
AcDbLine
10
46
20
-4.4375
30
0
11
46
21
-48.773323
31
0
39
0
210
0
220
0
230
1
0
LINE
5
1A6
100
AcDbEntity
8
0
62
256
6
ByLayer
370
-2
48
1
60
0
100
AcDbLine
10
3.5
20
-46.773323
30
0
11
42.5
21
-46.773323
31
0
39
0
210
0
220
0
230
1
0
SOLID
5
1A7
100
AcDbEntity
8
0
62
256
6
ByLayer
370
-1
48
1
60
0
100
AcDbTrace
10
3.5
20
-46.189989
30
0
11
3.5
21
-47.356656
31
0
12
0
22
-46.773323
32
0
13
0
23
-46.773323
33
0
39
0
210
0
220
0
230
1
0
SOLID
5
1A8
100
AcDbEntity
8
0
62
256
6
ByLayer
370
-1
48
1
60
0
100
AcDbTrace
10
42.5
20
-47.356656
30
0
11
42.5
21
-46.189989
31
0
12
46
22
-46.773323
32
0
13
46
23
-46.773323
33
0
39
0
210
0
220
0
230
1
0
MTEXT
5
1A9
100
AcDbEntity
8
0
62
256
6
ByLayer
370
18
48
1
60
0
100
AcDbMText
10
23
20
-39.773323
30
0
210
0
220
0
230
1
1
\A1;46
40
3.5
41
0
44
1
50
0
71
5
72
5
7
iso_b_vert
0
POINT
5
1AA
100
AcDbEntity
8
Defpoints
62
0
6
ByLayer
370
-1
48
1
60
0
100
AcDbPoint
10
0
20
-3
30
0
39
0
210
0
220
0
230
1
50
360
0
POINT
5
1AB
100
AcDbEntity
8
Defpoints
62
0
6
ByLayer
370
-1
48
1
60
0
100
AcDbPoint
10
46
20
-2.85
30
0
39
0
210
0
220
0
230
1
50
360
0
POINT
5
1AC
100
AcDbEntity
8
Defpoints
62
0
6
ByLayer
370
-1
48
1
60
0
100
AcDbPoint
10
46
20
-46.773323
30
0
39
0
210
0
220
0
230
1
50
360
0
ENDBLK
5
1A3
100
AcDbEntity
8
0
100
AcDbBlockEnd
0
BLOCK
5
1B4
100
AcDbEntity
8
0
100
AcDbBlockBegin
2
_U4
70
0
10
0
20
0
30
0
3
_U4
0
MTEXT
5
1AE
100
AcDbEntity
8
SK2
62
256
6
ByLayer
370
18
48
1
60
0
100
AcDbMText
10
20.910767
20
-45.740689
30
0
210
0
220
0
230
1
1
\W0.7361;46
40
3.5
41
0
44
1.084337
50
0
71
7
72
5
7
iso_b_vert
0
LINE
5
1AF
100
AcDbEntity
8
SK2
62
256
6
ByLayer
370
13
48
1
60
0
100
AcDbLine
10
0
20
-4.5875
30
0
11
0
21
-48.773323
31
0
39
0
210
0
220
0
230
1
0
LINE
5
1B0
100
AcDbEntity
8
SK2
62
256
6
ByLayer
370
13
48
1
60
0
100
AcDbLine
10
46
20
-4.4375
30
0
11
46
21
-48.773323
31
0
39
0
210
0
220
0
230
1
0
LINE
5
1B1
100
AcDbEntity
8
SK2
62
256
6
ByLayer
370
13
48
1
60
0
100
AcDbLine
10
0
20
-46.773323
30
0
11
46
21
-46.773323
31
0
39
0
210
0
220
0
230
1
0
SOLID
5
1B2
100
AcDbEntity
8
SK2
62
256
6
ByLayer
370
18
48
1
60
0
100
AcDbTrace
10
0
20
-46.773323
30
0
11
3.499998
21
-46.312539
31
0
12
3.500002
22
-47.234107
32
0
13
3.500002
23
-47.234107
33
0
39
0
210
0
220
0
230
1
0
SOLID
5
1B3
100
AcDbEntity
8
SK2
62
256
6
ByLayer
370
18
48
1
60
0
100
AcDbTrace
10
46
20
-46.773323
30
0
11
42.500002
21
-47.234107
31
0
12
42.499998
22
-46.312539
32
0
13
42.499998
23
-46.312539
33
0
39
0
210
0
220
0
230
1
0
ENDBLK
5
1B5
100
AcDbEntity
8
0
100
AcDbBlockEnd
0
ENDSEC
0
SECTION
2
ENTITIES
0
ARC
5
BE
100
AcDbEntity
8
1
62
256
6
ByLayer
370
18
48
1
60
0
100
AcDbCircle
39
0
10
0.33282
20
3.022105
30
0
40
0.200000000002073
210
0
220
0
230
1
100
AcDbArc
50
215.148958
51
270.03581
0
ARC
5
BF
100
AcDbEntity
8
1
62
256
6
ByLayer
370
18
48
1
60
0
100
AcDbCircle
39
0
10
0.33282
20
-3.022105
30
0
40
0.200000000002073
210
0
220
0
230
1
100
AcDbArc
50
89.96419
51
144.851042
0
ARC
5
C0
100
AcDbEntity
8
1
62
256
6
ByLayer
370
18
48
1
60
0
100
AcDbCircle
39
0
10
0
20
2.8
30
0
40
0.199999999999996
210
0
220
0
230
1
100
AcDbArc
50
35.148958
51
90
0
ARC
5
C1
100
AcDbEntity
8
1
62
256
6
ByLayer
370
18
48
1
60
0
100
AcDbCircle
39
0
10
0
20
-2.8
30
0
40
0.199999999999996
210
0
220
0
230
1
100
AcDbArc
50
270
51
324.851042
0
ARC
5
C2
100
AcDbEntity
8
SK2
62
256
6
ByLayer
370
13
48
1
60
0
100
AcDbCircle
39
0
10
46
20
0
30
0
40
30.8013634335704
210
0
220
0
230
1
100
AcDbArc
50
6.056828
51
70.005595
0
ARC
5
C3
100
AcDbEntity
8
SK2
62
256
6
ByLayer
370
13
48
1
60
0
100
AcDbCircle
39
0
10
46
20
0
30
0
40
30.8013634335704
210
0
220
0
230
1
100
AcDbArc
50
289.994405
51
353.943172
0
ELLIPSE
5
C4
100
AcDbEntity
8
1
62
256
6
ByLayer
370
13
48
1
60
0
100
AcDbEllipse
10
3.678938
20
0.69971
30
0
11
-0.0538459995671064
21
-0.08426510743255
31
0
210
0
220
0
230
1
40
0.312876
41
-1.11500674308458
42
0.145688096104515
0
ELLIPSE
5
C5
100
AcDbEntity
8
1
62
256
6
ByLayer
370
13
48
1
60
0
100
AcDbEllipse
10
3.750265
20
0.6588
30
0
11
-0.0460689867347941
21
-0.0887561178805685
31
0
210
0
220
0
230
1
40
0.112918
41
-0.183200875385821
42
1.36033283835383
0
ELLIPSE
5
C6
100
AcDbEntity
8
1
62
256
6
ByLayer
370
18
48
1
60
0
100
AcDbEllipse
10
3.75
20
-2.93333
30
0
11
-0.25
21
3.06151588455594E-17
31
0
210
0
220
0
230
1
40
1
41
-1.56556743992782
42
-0.547913421445663
0
ELLIPSE
5
C7
100
AcDbEntity
8
1
62
256
6
ByLayer
370
18
48
1
60
0
100
AcDbEllipse
10
3.75
20
2.93333
30
0
11
-0.25
21
3.06151588455594E-17
31
0
210
0
220
0
230
1
40
1
41
0.543694322566729
42
1.58838153233566
0
POINT
5
70
100
AcDbEntity
8
81
62
256
6
ByLayer
370
18
48
1
60
0
100
AcDbPoint
10
46
20
0
30
0
39
0
210
0
220
0
230
1
50
360
0
POINT
5
72
100
AcDbEntity
8
80
62
256
6
ByLayer
370
18
48
1
60
0
100
AcDbPoint
10
0
20
0
30
0
39
0
210
0
220
0
230
1
50
360
0
POINT
5
74
100
AcDbEntity
8
1
62
256
6
ByLayer
370
18
48
1
60
0
100
AcDbPoint
10
-214.274318
20
-200
30
0
39
0
210
0
220
0
230
1
50
360
0
POINT
5
76
100
AcDbEntity
8
1
62
256
6
ByLayer
370
13
48
1
60
1
100
AcDbPoint
10
-37.5
20
0
30
0
39
0
210
0
220
0
230
1
50
360
0
POINT
5
77
100
AcDbEntity
8
1
62
256
6
ByLayer
370
13
48
1
60
1
100
AcDbPoint
10
46.528125
20
0
30
0
39
0
210
0
220
0
230
1
50
360
0
POINT
5
78
100
AcDbEntity
8
1
62
256
6
ByLayer
370
18
48
1
60
1
100
AcDbPoint
10
-36
20
-3
30
0
39
0
210
0
220
0
230
1
50
360
0
POINT
5
79
100
AcDbEntity
8
1
62
256
6
ByLayer
370
18
48
1
60
1
100
AcDbPoint
10
46
20
-2.85
30
0
39
0
210
0
220
0
230
1
50
360
0
POINT
5
7A
100
AcDbEntity
8
1
62
256
6
ByLayer
370
18
48
1
60
1
100
AcDbPoint
10
46
20
-2.85
30
0
39
0
210
0
220
0
230
1
50
360
0
POINT
5
7B
100
AcDbEntity
8
1
62
256
6
ByLayer
370
18
48
1
60
1
100
AcDbPoint
10
2
20
-2.85
30
0
39
0
210
0
220
0
230
1
50
360
0
POINT
5
7C
100
AcDbEntity
8
1
62
256
6
ByLayer
370
18
48
1
60
1
100
AcDbPoint
10
46
20
-2.85
30
0
39
0
210
0
220
0
230
1
50
360
0
POINT
5
7D
100
AcDbEntity
8
1
62
256
6
ByLayer
370
18
48
1
60
1
100
AcDbPoint
10
11
20
-2.85
30
0
39
0
210
0
220
0
230
1
50
360
0
POINT
5
7E
100
AcDbEntity
8
1
62
256
6
ByLayer
370
18
48
1
60
1
100
AcDbPoint
10
-36
20
-3
30
0
39
0
210
0
220
0
230
1
50
360
0
POINT
5
7F
100
AcDbEntity
8
1
62
256
6
ByLayer
370
18
48
1
60
1
100
AcDbPoint
10
0
20
-3
30
0
39
0
210
0
220
0
230
1
50
360
0
POINT
5
80
100
AcDbEntity
8
1
62
256
6
ByLayer
370
18
48
1
60
1
100
AcDbPoint
10
0
20
-3
30
0
39
0
210
0
220
0
230
1
50
360
0
POINT
5
81
100
AcDbEntity
8
1
62
256
6
ByLayer
370
18
48
1
60
1
100
AcDbPoint
10
46
20
-2.85
30
0
39
0
210
0
220
0
230
1
50
360
0
SPLINE
5
C8
100
AcDbEntity
8
1
62
256
6
ByLayer
370
18
48
1
60
0
100
AcDbSpline
70
4
71
3
72
8
73
4
40
0
40
0
40
0
40
0
40
1
40
1
40
1
40
1
41
1
10
45.7534591045967
20
0.902003536997569
30
0
41
1
10
45.8362882760691
20
0.669510559561189
30
0
41
1
10
45.9170952301439
20
0.436287451978188
30
0
41
1
10
45.9958517309448
20
0.202324019565907
30
0
0
SPLINE
5
C9
100
AcDbEntity
8
1
62
256
6
ByLayer
370
18
48
1
60
0
100
AcDbSpline
70
4
71
3
72
28
73
24
40
0
40
0
40
0
40
0
40
0.0484196927829152
40
0.0484196927829152
40
0.104395004972147
40
0.104395004972147
40
0.160370317161379
40
0.160370317161379
40
0.21634562935061
40
0.21634562935061
40
0.328296253729074
40
0.328296253729074
40
0.384271565918332
40
0.384271565918332
40
0.44024687810759
40
0.44024687810759
40
0.552197502486105
40
0.552197502486105
40
0.776098751243081
40
0.776098751243081
40
0.88804937562154
40
0.88804937562154
40
1
40
1
40
1
40
1
41
1
10
45.2704274553769
20
-0.232054392056597
30
0
41
1
10
45.2743324401394
20
-0.232602677087357
30
0
41
1
10
45.2786870698145
20
-0.233587662457893
30
0
41
1
10
45.2888222405716
20
-0.236430233018211
30
0
41
1
10
45.2947223274346
20
-0.238403274366021
30
0
41
1
10
45.3072623295249
20
-0.243063263318334
30
0
41
1
10
45.3138736398769
20
-0.245741871406722
30
0
41
1
10
45.3274408756916
20
-0.251571750810456
30
0
41
1
10
45.3344278463269
20
-0.254735138322701
30
0
41
1
10
45.355875336375
20
-0.264836466418302
30
0
41
1
10
45.3708162923291
20
-0.272377488139256
30
0
41
1
10
45.3939024797398
20
-0.284623221201258
30
0
41
1
10
45.4017111393115
20
-0.288863361974677
30
0
41
1
10
45.4173784462559
20
-0.297553102744047
30
0
41
1
10
45.4252565567113
20
-0.302012957698452
30
0
41
1
10
45.4489971780297
20
-0.315713626177512
30
0
41
1
10
45.4649651471665
20
-0.325272714733274
30
0
41
1
10
45.5131254439654
20
-0.355165049194596
30
0
41
1
10
45.545575844362
20
-0.376669287457304
30
0
41
1
10
45.5942284399384
20
-0.411852086126515
30
0
41
1
10
45.6104617326142
20
-0.42409620019626
30
0
41
1
10
45.6424442423625
20
-0.44954258941516
30
0
41
1
10
45.6582369945532
20
-0.462771039665483
30
0
41
1
10
45.6737331651726
20
-0.476678232549972
30
0
0
SPLINE
5
CA
100
AcDbEntity
8
1
62
256
6
ByLayer
370
13
48
1
60
0
100
AcDbSpline
70
4
71
3
72
12
73
8
40
0
40
0
40
0
40
0
40
0.499999999999924
40
0.499999999999924
40
0.749999999999962
40
0.749999999999962
40
1
40
1
40
1
40
1
41
1
10
3.7504415757488
20
0.635170191752707
30
0
41
1
10
3.72971583462316
20
0.641389082277044
30
0
41
1
10
3.70941071277235
20
0.648031687253138
30
0
41
1
10
3.67958474085151
20
0.658678501305843
30
0
41
1
10
3.66974911253445
20
0.66234227363617
30
0
41
1
10
3.65030485512085
20
0.669921556922901
30
0
41
1
10
3.64079572592013
20
0.673799070471091
30
0
41
1
10
3.63156359639632
20
0.677746165682294
30
0
0
SPLINE
5
CB
100
AcDbEntity
8
1
62
256
6
ByLayer
370
18
48
1
60
0
100
AcDbSpline
70
4
71
3
72
8
73
4
40
0
40
0
40
0
40
0
40
1
40
1
40
1
40
1
41
1
10
3.63156359639629
20
0.613779388227698
30
0
41
1
10
3.60934864138019
20
0.626961802050857
30
0
41
1
10
3.58996293566471
20
0.64312487760111
30
0
41
1
10
3.57300603174175
20
0.661857743341812
30
0
0
SPLINE
5
CC
100
AcDbEntity
8
1
62
256
6
ByLayer
370
13
48
1
60
0
100
AcDbSpline
70
4
71
3
72
16
73
12
40
0
40
0
40
0
40
0
40
0.249999999999985
40
0.249999999999985
40
0.49999999999997
40
0.49999999999997
40
0.624999999999963
40
0.624999999999963
40
0.749999999999955
40
0.749999999999955
40
1
40
1
40
1
40
1
41
1
10
3.63156359639632
20
0.677746165682294
30
0
41
1
10
3.61934511160837
20
0.682970044167746
30
0
41
1
10
3.60799014999731
20
0.688867702043353
30
0
41
1
10
3.58682187845841
20
0.701883546808602
30
0
41
1
10
3.57701011504562
20
0.709002874912557
30
0
41
1
10
3.56341496294147
20
0.720584085909564
30
0
41
1
10
3.55908172901732
20
0.724590048621451
30
0
41
1
10
3.55093544639277
20
0.732750776079797
30
0
41
1
10
3.54710103372611
20
0.736923177499477
30
0
41
1
10
3.53627871228784
20
0.749705745702784
30
0
41
1
10
3.52996787511313
20
0.75857987872746
30
0
41
1
10
3.52452110391445
20
0.767797201204047
30
0
0
SPLINE
5
CD
100
AcDbEntity
8
1
62
256
6
ByLayer
370
18
48
1
60
0
100
AcDbSpline
70
4
71
3
72
23
73
19
40
0
40
0
40
0
40
0
40
0.249999999999978
40
0.249999999999978
40
0.312499999999973
40
0.312499999999973
40
0.374999999999967
40
0.374999999999967
40
0.499999999999956
40
0.499999999999956
40
0.624999999999945
40
0.624999999999945
40
0.687499999999955
40
0.687499999999955
40
0.749999999999964
40
0.749999999999964
40
0.874999999999982
40
1
40
1
40
1
40
1
41
1
10
45.9487866126796
20
0.0442384753599185
30
0
41
1
10
45.9329316439458
20
-0.008659723127721
30
0
41
1
10
45.9148318491093
20
-0.0604370589186374
30
0
41
1
10
45.8893884376417
20
-0.123699038085078
30
0
41
1
10
45.8841573335903
20
-0.13627767021282
30
0
41
1
10
45.8734030621563
20
-0.161282298212939
30
0
41
1
10
45.8678590239818
20
-0.173753084132727
30
0
41
1
10
45.850941497881
20
-0.210561393866357
30
0
41
1
10
45.8393201910189
20
-0.234232319614335
30
0
41
1
10
45.8154298610698
20
-0.27981875944019
30
0
41
1
10
45.8031610661679
20
-0.30173493927623
30
0
41
1
10
45.7842699480766
20
-0.33321690369209
30
0
41
1
10
45.777891248033
20
-0.34347814444169
30
0
41
1
10
45.7649653297565
20
-0.36351225534284
30
0
41
1
10
45.7583931646029
20
-0.373318316090149
30
0
41
1
10
45.7387686709227
20
-0.401458505814588
30
0
41
1
10
45.7126707653652
20
-0.435879299114788
30
0
41
1
10
45.6867002725491
20
-0.464149948272564
30
0
41
1
10
45.6737331651725
20
-0.476678232549972
30
0
0
SPLINE
5
CE
100
AcDbEntity
8
1
62
256
6
ByLayer
370
18
48
1
60
0
100
AcDbSpline
70
4
71
3
72
56
73
52
40
0
40
0
40
0
40
0
40
0.0624999999999891
40
0.0624999999999891
40
0.0937499999999909
40
0.0937499999999909
40
0.124999999999993
40
0.124999999999993
40
0.156249999999995
40
0.156249999999995
40
0.187499999999996
40
0.218749999999998
40
0.218749999999998
40
0.25
40
0.25
40
0.281250000000002
40
0.281250000000002
40
0.312500000000004
40
0.312500000000004
40
0.375000000000007
40
0.375000000000007
40
0.40625
40
0.40625
40
0.437499999999992
40
0.437499999999992
40
0.499999999999994
40
0.499999999999994
40
0.531249999999987
40
0.531249999999987
40
0.562499999999979
40
0.562499999999979
40
0.624999999999979
40
0.624999999999979
40
0.656249999999979
40
0.656249999999979
40
0.687499999999979
40
0.687499999999979
40
0.749999999999979
40
0.749999999999979
40
0.781249999999982
40
0.781249999999982
40
0.812499999999985
40
0.843749999999987
40
0.843749999999987
40
0.87499999999999
40
0.87499999999999
40
0.937499999999995
40
0.937499999999995
40
0.968749999999997
40
0.968749999999997
40
1
40
1
40
1
40
1
41
1
10
45.6737331651725
20
-0.476678232549972
30
0
41
1
10
45.6695170100722
20
-0.495131337248466
30
0
41
1
10
45.6642807537515
20
-0.513491297015094
30
0
41
1
10
45.6550601553612
20
-0.540919621726573
30
0
41
1
10
45.6517762556249
20
-0.549976960619148
30
0
41
1
10
45.6449346358533
20
-0.567631852120599
30
0
41
1
10
45.6413608280074
20
-0.576277496538381
30
0
41
1
10
45.6339298234024
20
-0.593224907685112
30
0
41
1
10
45.6300527308058
20
-0.60156619404458
30
0
41
1
10
45.6221249397717
20
-0.617709526802116
30
0
41
1
10
45.6140560394737
20
-0.633258599886545
30
0
41
1
10
45.6057337466608
20
-0.647699710221985
30
0
41
1
10
45.5972922454828
20
-0.661604609396136
30
0
41
1
10
45.5929939983743
20
-0.668314336037241
30
0
41
1
10
45.5843878253964
20
-0.681040186876317
30
0
41
1
10
45.5800795487402
20
-0.687060737146794
30
0
41
1
10
45.571453393389
20
-0.698440830464932
30
0
41
1
10
45.5671184084578
20
-0.703820041611777
30
0
41
1
10
45.5542085268958
20
-0.718839043385628
30
0
41
1
10
45.5457975945838
20
-0.727302691958442
30
0
41
1
10
45.5334385686872
20
-0.737805728858746
30
0
41
1
10
45.5293620181924
20
-0.740938311981466
30
0
41
1
10
45.5212914488884
20
-0.746454099790498
30
0
41
1
10
45.5172779553291
20
-0.748846342893216
30
0
41
1
10
45.5055164743426
20
-0.754770032117676
30
0
41
1
10
45.4980704301716
20
-0.757065503147516
30
0
41
1
10
45.4874488899691
20
-0.758027505099733
30
0
41
1
10
45.4840002563283
20
-0.757931720644223
30
0
41
1
10
45.4772869130403
20
-0.756869016285918
30
0
41
1
10
45.4740092783795
20
-0.755892267438412
30
0
41
1
10
45.4646584913539
20
-0.751665828038995
30
0
41
1
10
45.4590017673059
20
-0.747140049137698
30
0
41
1
10
45.4513729906097
20
-0.7376767549828
30
0
41
1
10
45.4489739275988
20
-0.734073315629928
30
0
41
1
10
45.4444783122164
20
-0.725901585438265
30
0
41
1
10
45.4423962171596
20
-0.721348613047923
30
0
41
1
10
45.436776501449
20
-0.706554490272367
30
0
41
1
10
45.4338010501124
20
-0.695099266047094
30
0
41
1
10
45.4305800151765
20
-0.675324280047903
30
0
41
1
10
45.4297120656229
20
-0.668236325042699
30
0
41
1
10
45.4284669085077
20
-0.653491211729261
30
0
41
1
10
45.4277000463994
20
-0.638163737753274
30
0
41
1
10
45.4278991589007
20
-0.621671251649985
30
0
41
1
10
45.4286083122666
20
-0.604572563976518
30
0
41
1
10
45.4292267249253
20
-0.59564576705796
30
0
41
1
10
45.4318456026919
20
-0.568625204295813
30
0
41
1
10
45.4345836889058
20
-0.550227945129933
30
0
41
1
10
45.440248618902
20
-0.522068514696656
30
0
41
1
10
45.4424000657572
20
-0.512606082549667
30
0
41
1
10
45.4471066833715
20
-0.49405068951998
30
0
41
1
10
45.4496752780841
20
-0.484886936350222
30
0
41
1
10
45.452457605883
20
-0.475834872646686
30
0
0
SPLINE
5
CF
100
AcDbEntity
8
1
62
256
6
ByLayer
370
18
48
1
60
0
100
AcDbSpline
70
4
71
3
72
8
73
4
40
0
40
0
40
0
40
0
40
1
40
1
40
1
40
1
41
1
10
45.452457605883
20
-0.475834872646658
30
0
41
1
10
45.4491253368816
20
-0.47097371260466
30
0
41
1
10
45.445859325083
20
-0.465866716551972
30
0
41
1
10
45.4426552667898
20
-0.46051944098059
30
0
0
SPLINE
5
D0
100
AcDbEntity
8
1
62
256
6
ByLayer
370
18
48
1
60
0
100
AcDbSpline
70
4
71
3
72
10
73
6
40
0
40
0
40
0
40
0
40
0.5
40
0.5
40
1
40
1
40
1
40
1
41
1
10
45.44265526679
20
-0.460519440980477
30
0
41
1
10
45.3647832719311
20
-0.330558317399465
30
0
41
1
10
45.278574244423
20
-0.193026352228941
30
0
41
1
10
45.0882821555523
20
0.0982689501819607
30
0
41
1
10
44.9841952052046
20
0.252035819001236
30
0
41
1
10
44.8707413644014
20
0.414308741090395
30
0
0
SPLINE
5
D1
100
AcDbEntity
8
1
62
256
6
ByLayer
370
18
48
1
60
0
100
AcDbSpline
70
4
71
3
72
8
73
4
40
0
40
0
40
0
40
0
40
1
40
1
40
1
40
1
41
1
10
45.7534591045967
20
-0.902003536997569
30
0
41
1
10
45.8362882760713
20
-0.669510559554965
30
0
41
1
10
45.9170952301482
20
-0.436287451965683
30
0
41
1
10
45.9958517309511
20
-0.202324019547092
30
0
0
SPLINE
5
D2
100
AcDbEntity
8
1
62
256
6
ByLayer
370
18
48
1
60
0
100
AcDbSpline
70
4
71
3
72
8
73
4
40
0
40
0
40
0
40
0
40
1
40
1
40
1
40
1
41
1
10
45.9958517309448
20
0.202324019565907
30
0
41
1
10
46.0013850539032
20
0.0673853104334228
30
0
41
1
10
46.0013804607035
20
-0.0674973227628755
30
0
41
1
10
45.9958517309453
20
-0.202324019552691
30
0
0
SPLINE
5
D3
100
AcDbEntity
8
1
62
256
6
ByLayer
370
18
48
1
60
0
100
AcDbSpline
70
4
71
3
72
8
73
4
40
0
40
0
40
0
40
0
40
1
40
1
40
1
40
1
41
1
10
45.9958517309448
20
0.202324019565907
30
0
41
1
10
45.9802600131197
20
0.149597955338834
30
0
41
1
10
45.9645714899218
20
0.0969028220058021
30
0
41
1
10
45.9487866126796
20
0.0442384753599185
30
0
0
SPLINE
5
D4
100
AcDbEntity
8
1
62
256
6
ByLayer
370
18
48
1
60
0
100
AcDbSpline
70
4
71
3
72
22
73
18
40
0
40
0
40
0
40
0
40
0.500000000000071
40
0.500000000000071
40
0.750000000000104
40
0.750000000000104
40
0.875000000000123
40
0.875000000000123
40
0.937500000000132
40
0.937500000000132
40
0.968750000000137
40
0.968750000000137
40
0.984375000000103
40
0.984375000000103
40
0.992187500000051
40
0.992187500000051
40
1
40
1
40
1
40
1
41
1
10
44.9648527931056
20
-2.84992354114473
30
0
41
1
10
44.9762412371534
20
-2.82539633227364
30
0
41
1
10
44.9878460644076
20
-2.80090733095258
30
0
41
1
10
45.0056021733073
20
-2.76411247887515
30
0
41
1
10
45.0115852498006
20
-2.75181055027372
30
0
41
1
10
45.0206724688148
20
-2.73323133700563
30
0
41
1
10
45.0237213984725
20
-2.72701250787441
30
0
41
1
10
45.0282719784705
20
-2.71786565390636
30
0
41
1
10
45.029773116132
20
-2.71489699874198
30
0
41
1
10
45.0320368379093
20
-2.71041530722834
30
0
41
1
10
45.0328037702593
20
-2.70887311226903
30
0
41
1
10
45.0339940965672
20
-2.70639715931429
30
0
41
1
10
45.0344002890248
20
-2.70553308739611
30
0
41
1
10
45.0349911847026
20
-2.70431567203289
30
0
41
1
10
45.0351856014945
20
-2.70392080970908
30
0
41
1
10
45.0355497557846
20
-2.70323541700142
30
0
41
1
10
45.0357265167088
20
-2.70294425356946
30
0
41
1
10
45.0357896091511
20
-2.7029619779504
30
0
0
SPLINE
5
D5
100
AcDbEntity
8
1
62
256
6
ByLayer
370
18
48
1
60
0
100
AcDbSpline
70
4
71
3
72
12
73
8
40
0
40
0
40
0
40
0
40
0.250000000000001
40
0.250000000000001
40
0.500000000000001
40
0.500000000000001
40
1
40
1
40
1
40
1
41
1
10
44.8707413644014
20
0.414308741090395
30
0
41
1
10
44.8526070608357
20
0.406942467805948
30
0
41
1
10
44.8346409947587
20
0.398823514434525
30
0
41
1
10
44.7990398154087
20
0.38142613985363
30
0
41
1
10
44.7814164018346
20
0.372051968549556
30
0
41
1
10
44.7291911737359
20
0.341531286223756
30
0
41
1
10
44.6952086070936
20
0.318173728966343
30
0
41
1
10
44.6622623467093
20
0.291607254556539
30
0
0
SPLINE
5
D6
100
AcDbEntity
8
1
62
256
6
ByLayer
370
18
48
1
60
0
100
AcDbSpline
70
4
71
3
72
26
73
22
40
0
40
0
40
0
40
0
40
0.129718857119722
40
0.129718857119722
40
0.259437714239443
40
0.259437714239443
40
0.518875428478885
40
0.518875428478885
40
0.583734857038738
40
0.583734857038738
40
0.648594285598592
40
0.648594285598592
40
0.713453714158445
40
0.713453714158445
40
0.778313142718299
40
0.778313142718299
40
0.908031999838006
40
0.908031999838006
40
0.97289142839785
40
0.97289142839785
40
1
40
1
40
1
40
1
41
1
10
44.8707413644014
20
0.414308741090366
30
0
41
1
10
44.8524544425436
20
0.430608515600028
30
0
41
1
10
44.8343841191689
20
0.446547279632142
30
0
41
1
10
44.7990798787808
20
0.477293126210242
30
0
41
1
10
44.7818469564633
20
0.492100040736517
30
0
41
1
10
44.7316555305622
20
0.534485544417038
30
0
41
1
10
44.7001854063581
20
0.560054496075082
30
0
41
1
10
44.6636587169135
20
0.588220267374595
30
0
41
1
10
44.6564942882858
20
0.593663163331456
30
0
41
1
10
44.6424770188142
20
0.60412824362956
30
0
41
1
10
44.6356434805082
20
0.609132388762475
30
0
41
1
10
44.622417073829
20
0.618613734105594
30
0
41
1
10
44.6160026511923
20
0.623111439823447
30
0
41
1
10
44.6034142185997
20
0.631812998103356
30
0
41
1
10
44.5972383043909
20
0.636019178208187
30
0
41
1
10
44.5793594651384
20
0.647844572740098
30
0
41
1
10
44.56836614301
20
0.654596449159271
30
0
41
1
10
44.5538334347756
20
0.662331913183863
30
0
41
1
10
44.5493325025173
20
0.664491607173915
30
0
41
1
10
44.5436338893675
20
0.66681546749939
30
0
41
1
10
44.5420326620213
20
0.667413509042262
30
0
41
1
10
44.5405087504802
20
0.667925921638016
30
0
0
SPLINE
5
D7
100
AcDbEntity
8
1
62
256
6
ByLayer
370
18
48
1
60
0
100
AcDbSpline
70
4
71
3
72
28
73
24
40
0
40
0
40
0
40
0
40
0.0220584649774984
40
0.0220584649774984
40
0.130718635535543
40
0.130718635535543
40
0.239378806093588
40
0.239378806093588
40
0.348038976651633
40
0.348038976651633
40
0.565359317767723
40
0.565359317767723
40
0.619689403046758
40
0.619689403046758
40
0.674019488325793
40
0.674019488325793
40
0.782679658883862
40
0.782679658883862
40
0.891339829441931
40
0.891339829441931
40
0.945669914720966
40
0.945669914720966
40
1
40
1
40
1
40
1
41
1
10
44.7067861381093
20
0.543588841017822
30
0
41
1
10
44.7094902373719
20
0.545158738735381
30
0
41
1
10
44.7122319547732
20
0.546751735369639
30
0
41
1
10
44.7287056448963
20
0.55632034240071
30
0
41
1
10
44.7433389269298
20
0.564780491793869
30
0
41
1
10
44.7744573367009
20
0.582722100839163
30
0
41
1
10
44.7909288990013
20
0.592224427091054
30
0
41
1
10
44.8258550238283
20
0.61216207591508
30
0
41
1
10
44.8440411693565
20
0.622432436035581
30
0
41
1
10
44.9006579344428
20
0.653614976646082
30
0
41
1
10
44.9411954776978
20
0.675012865213603
30
0
41
1
10
44.9962232332062
20
0.700769680325692
30
0
41
1
10
45.0074294700672
20
0.705856891265938
30
0
41
1
10
45.0300118260908
20
0.715741822786839
30
0
41
1
10
45.0414215654479
20
0.720555442263361
30
0
41
1
10
45.0760212255437
20
0.734540356978727
30
0
41
1
10
45.099585907559
20
0.74324251017606
30
0
41
1
10
45.1477426636677
20
0.75918940130606
30
0
41
1
10
45.1723320035015
20
0.766442472111436
30
0
41
1
10
45.210020700923
20
0.776057011519214
30
0
41
1
10
45.2227274826091
20
0.779048467411258
30
0
41
1
10
45.2482112200161
20
0.784516109455069
30
0
41
1
10
45.2610133341075
20
0.786999242958416
30
0
41
1
10
45.2738772266784
20
0.789221328097028
30
0
0
SPLINE
5
D8
100
AcDbEntity
8
1
62
256
6
ByLayer
370
18
48
1
60
0
100
AcDbSpline
70
4
71
3
72
12
73
8
40
0
40
0
40
0
40
0
40
0.25
40
0.25
40
0.5
40
0.5
40
1
40
1
40
1
40
1
41
1
10
45.2738772266784
20
0.789221328097028
30
0
41
1
10
45.3143603338972
20
0.796214305566338
30
0
41
1
10
45.3547547197037
20
0.803754438466143
30
0
41
1
10
45.4353763183859
20
0.819865679475981
30
0
41
1
10
45.4756144988884
20
0.828385054098248
30
0
41
1
10
45.5958345658075
20
0.855616382523806
30
0
41
1
10
45.6753198318322
20
0.876268469431579
30
0
41
1
10
45.7534591045967
20
0.902003536997512
30
0
0
SPLINE
5
D9
100
AcDbEntity
8
1
62
256
6
ByLayer
370
18
48
1
60
0
100
AcDbSpline
70
4
71
3
72
26
73
22
40
0
40
0
40
0
40
0
40
0.250000000000008
40
0.250000000000008
40
0.375000000000016
40
0.375000000000016
40
0.500000000000023
40
0.500000000000023
40
0.531250000000021
40
0.531250000000021
40
0.562500000000019
40
0.562500000000019
40
0.625000000000015
40
0.625000000000015
40
0.750000000000007
40
0.750000000000007
40
0.874999999999999
40
0.874999999999999
40
0.937499999999999
40
0.937499999999999
40
1
40
1
40
1
40
1
41
1
10
45.0357896091524
20
2.70296197794951
30
0
41
1
10
45.0908947711103
20
2.55063530243379
30
0
41
1
10
45.1454600021
20
2.39699314015067
30
0
41
1
10
45.2277157294254
20
2.16526392722275
30
0
41
1
10
45.2551955752169
20
2.08780625110106
30
0
41
1
10
45.3103698388061
20
1.93281121921174
30
0
41
1
10
45.3380751421533
20
1.85526567274332
30
0
41
1
10
45.3728946854888
20
1.75835902725893
30
0
41
1
10
45.379868080458
20
1.73897814582489
30
0
41
1
10
45.3938344286339
20
1.70021789325264
30
0
41
1
10
45.4008219189182
20
1.68083739821421
30
0
41
1
10
45.4220528402334
20
1.62274374688812
30
0
41
1
10
45.4365341144151
20
1.58399408784331
30
0
41
1
10
45.4807085393244
20
1.46905496806454
30
0
41
1
10
45.5112467748303
20
1.39392957525854
30
0
41
1
10
45.5751932803418
20
1.2468684593662
30
0
41
1
10
45.6085867993998
20
1.17491515292016
30
0
41
1
10
45.6613428047002
20
1.06959121021586
30
0
41
1
10
45.6794216195362
20
1.03483801765302
30
0
41
1
10
45.7160219674506
20
0.967202894358536
30
0
41
1
10
45.7345961531225
20
0.934208158153496
30
0
41
1
10
45.7534591045966
20
0.902003536997142
30
0
0
SPLINE
5
DA
100
AcDbEntity
8
1
62
256
6
ByLayer
370
18
48
1
60
0
100
AcDbSpline
70
4
71
3
72
8
73
4
40
0
40
0
40
0
40
0
40
1
40
1
40
1
40
1
41
1
10
17.5
20
1.36883697744659
30
0
41
1
10
17.5
20
1.36161219165669
30
0
41
1
10
17.5
20
1.35347278892212
30
0
41
1
10
17.5
20
1.34445440428564
30
0
0
SPLINE
5
DB
100
AcDbEntity
8
1
62
256
6
ByLayer
370
18
48
1
60
0
100
AcDbSpline
70
4
71
3
72
26
73
22
40
0
40
0
40
0
40
0
40
0.250000000000003
40
0.250000000000003
40
0.375000000000001
40
0.375000000000001
40
0.499999999999999
40
0.499999999999999
40
0.531249999999999
40
0.531249999999999
40
0.562499999999999
40
0.562499999999999
40
0.624999999999998
40
0.624999999999998
40
0.749999999999995
40
0.749999999999995
40
0.874999999999993
40
0.874999999999993
40
0.937499999999996
40
0.937499999999996
40
1
40
1
40
1
40
1
41
1
10
45.0357896091506
20
-2.70296197795429
30
0
41
1
10
45.0908947711087
20
-2.5506353024382
30
0
41
1
10
45.1454600020986
20
-2.39699314015465
30
0
41
1
10
45.2277157294242
20
-2.16526392722611
30
0
41
1
10
45.2551955752158
20
-2.08780625110418
30
0
41
1
10
45.3103698388051
20
-1.93281121921444
30
0
41
1
10
45.3380751421523
20
-1.85526567274582
30
0
41
1
10
45.372894685488
20
-1.75835902726115
30
0
41
1
10
45.3798680804572
20
-1.73897814582705
30
0
41
1
10
45.3938344286331
20
-1.70021789325472
30
0
41
1
10
45.4008219189175
20
-1.68083739821623
30
0
41
1
10
45.4220528402327
20
-1.62274374688997
30
0
41
1
10
45.4365341144144
20
-1.58399408784507
30
0
41
1
10
45.4807085393238
20
-1.46905496806607
30
0
41
1
10
45.5112467748297
20
-1.3939295752599
30
0
41
1
10
45.5751932803413
20
-1.24686845936714
30
0
41
1
10
45.6085867993994
20
-1.17491515292088
30
0
41
1
10
45.6613428047001
20
-1.0695912102162
30
0
41
1
10
45.679421619536
20
-1.03483801765327
30
0
41
1
10
45.7160219674505
20
-0.967202894358678
30
0
41
1
10
45.7345961531225
20
-0.934208158153581
30
0
41
1
10
45.7534591045966
20
-0.902003536997142
30
0
0
SPLINE
5
DC
100
AcDbEntity
8
1
62
256
6
ByLayer
370
18
48
1
60
0
100
AcDbSpline
70
4
71
3
72
90
73
86
40
0
40
0
40
0
40
0
40
0.0103464735170501
40
0.0103464735170501
40
0.038084955322703
40
0.038084955322703
40
0.0519541962255284
40
0.0519541962255284
40
0.0658234371283538
40
0.0658234371283538
40
0.0935619189340046
40
0.0935619189340046
40
0.121300400739655
40
0.121300400739655
40
0.149038882545306
40
0.149038882545306
40
0.176777364350957
40
0.176777364350957
40
0.204515846156608
40
0.204515846156608
40
0.232254327962258
40
0.232254327962258
40
0.259992809767909
40
0.259992809767909
40
0.28773129157356
40
0.28773129157356
40
0.301600532476385
40
0.301600532476385
40
0.31546977337921
40
0.31546977337921
40
0.343208255184863
40
0.343208255184863
40
0.370946736990516
40
0.370946736990516
40
0.398685218796169
40
0.398685218796169
40
0.426423700601822
40
0.426423700601822
40
0.454162182407475
40
0.454162182407475
40
0.481900664213128
40
0.481900664213128
40
0.509639146018781
40
0.509639146018781
40
0.537377627824434
40
0.537377627824434
40
0.551246868727259
40
0.551246868727259
40
0.565116109630084
40
0.565116109630084
40
0.592854591435737
40
0.592854591435737
40
0.62059307324139
40
0.62059307324139
40
0.648331555047043
40
0.648331555047043
40
0.676070036852696
40
0.676070036852696
40
0.689939277755522
40
0.689939277755522
40
0.703808518658349
40
0.703808518658349
40
0.731547000464004
40
0.731547000464004
40
0.759285482269659
40
0.759285482269659
40
0.787023964075313
40
0.787023964075313
40
0.814762445880968
40
0.814762445880968
40
0.842500927686623
40
0.842500927686623
40
0.870239409492278
40
0.870239409492278
40
0.897977891297933
40
0.897977891297933
40
0.925716373103588
40
0.925716373103588
40
0.939585614006416
40
0.939585614006416
40
0.953454854909244
40
0.953454854909244
40
0.9811933367149
40
0.9811933367149
40
1
40
1
40
1
40
1
41
1
10
40.0317420249336
20
-1.67814945758124
30
0
41
1
10
39.9781510374596
20
-1.6562669315141
30
0
41
1
10
39.9245611185194
20
-1.63411949585174
30
0
41
1
10
39.7272805083037
20
-1.55165566621881
30
0
41
1
10
39.5835568293426
20
-1.48976364360053
30
0
41
1
10
39.3677600587535
20
-1.3944081515541
30
0
41
1
10
39.2957915646204
20
-1.36220571272528
30
0
41
1
10
39.1517767611808
20
-1.29695684458275
30
0
41
1
10
39.0796901771188
20
-1.26387726976418
30
0
41
1
10
38.8636011418972
20
-1.16355852710956
30
0
41
1
10
38.7200087392509
20
-1.09542804059103
30
0
41
1
10
38.4334127019536
20
-0.957339698207477
30
0
41
1
10
38.2904565366618
20
-0.88729043304707
30
0
41
1
10
38.0049923006494
20
-0.745643039692084
30
0
41
1
10
37.8624825357084
20
-0.674048250567125
30
0
41
1
10
37.5777091540878
20
-0.529704399858218
30
0
41
1
10
37.4354488035096
20
-0.456949541414872
30
0
41
1
10
37.1511203054732
20
-0.310374603877136
30
0
41
1
10
37.0090118029816
20
-0.236634851996968
30
0
41
1
10
36.7245852540178
20
-0.0888814972426246
30
0
41
1
10
36.5823120201558
20
-0.0147797138625947
30
0
41
1
10
36.2974192847755
20
0.133423309593553
30
0
41
1
10
36.1547974987714
20
0.207520004618033
30
0
41
1
10
35.8690017179134
20
0.355305581952876
30
0
41
1
10
35.7258291948573
20
0.428996635682608
30
0
41
1
10
35.5105952701891
20
0.539121857026714
30
0
41
1
10
35.4387650504292
20
0.575748660802958
30
0
41
1
10
35.2948846363277
20
0.648739977688052
30
0
41
1
10
35.2227566177361
20
0.685132908183874
30
0
41
1
10
35.0067488480636
20
0.793456995525901
30
0
41
1
10
34.863180983763
20
0.864632584142498
30
0
41
1
10
34.5766910539373
20
1.00452618255946
30
0
41
1
10
34.4337662604714
20
1.0732398403344
30
0
41
1
10
34.1483598370893
20
1.20786554746277
30
0
41
1
10
34.0058796217712
20
1.27378298606175
30
0
41
1
10
33.7213161882108
20
1.40264169193827
30
0
41
1
10
33.5791938996608
20
1.46552397442946
30
0
41
1
10
33.2949203788309
20
1.58769923608639
30
0
41
1
10
33.1528166279464
20
1.64706160308626
30
0
41
1
10
32.8684522903976
20
1.76201708418901
30
0
41
1
10
32.7261886037938
20
1.81760554110426
30
0
41
1
10
32.4412967901124
20
1.92471644115702
30
0
41
1
10
32.2986677668533
20
1.97624462340031
30
0
41
1
10
32.0129765763191
20
2.07503557466774
30
0
41
1
10
31.8698819226116
20
2.12226380299728
30
0
41
1
10
31.6546139699818
20
2.18950420281462
30
0
41
1
10
31.582763011888
20
2.21132606607779
30
0
41
1
10
31.4388506303132
20
2.25374381987615
30
0
41
1
10
31.3667319509949
20
2.27435232452697
30
0
41
1
10
31.1506079744771
20
2.33409376039074
30
0
41
1
10
31.0067337862569
20
2.3711813528773
30
0
41
1
10
30.7191673355814
20
2.43978284909781
30
0
41
1
10
30.5754749020466
20
2.47130032523296
30
0
41
1
10
30.2881967253755
20
2.5286891021575
30
0
41
1
10
30.1445733374412
20
2.55455118513487
30
0
41
1
10
29.8570201982255
20
2.60040638133881
30
0
41
1
10
29.7131387222041
20
2.6204208602995
30
0
41
1
10
29.496993433692
20
2.64593819550089
30
0
41
1
10
29.424875839363
20
2.65369245990976
30
0
41
1
10
29.2809587927323
20
2.66763862471686
30
0
41
1
10
29.2091029090005
20
2.67383885680087
30
0
41
1
10
28.9938033532227
20
2.69013977451553
30
0
41
1
10
28.8506256114877
20
2.69794876604593
30
0
41
1
10
28.5649164579783
20
2.7074142116731
30
0
41
1
10
28.4223455830882
20
2.70908568790509
30
0
41
1
10
28.1374440364378
20
2.70637763508881
30
0
41
1
10
27.9951622926754
20
2.7019781835325
30
0
41
1
10
27.7107269544503
20
2.68707528005962
30
0
41
1
10
27.5685719267567
20
2.67655671455034
30
0
41
1
10
27.2841701979646
20
2.64950440178455
30
0
41
1
10
27.1419209385498
20
2.63298800446455
30
0
41
1
10
26.8572513633333
20
2.59396617875802
30
0
41
1
10
26.7147979380863
20
2.57149487429476
30
0
41
1
10
26.4293186199305
20
2.52086459871376
30
0
41
1
10
26.2863389520067
20
2.49266176843375
30
0
41
1
10
25.9996889053247
20
2.43055102003547
30
0
41
1
10
25.8560146301671
20
2.39664785786047
30
0
41
1
10
25.6398200417154
20
2.34154862271294
30
0
41
1
10
25.5676950352248
20
2.32249191710955
30
0
41
1
10
25.423506576595
20
2.28305267102596
30
0
41
1
10
25.3514258266871
20
2.26265537846996
30
0
41
1
10
25.1352298678944
20
2.19948275489784
30
0
41
1
10
24.9911063237988
20
2.15476232127509
30
0
41
1
10
24.7494390152366
20
2.07589390697629
30
0
41
1
10
24.6518339198333
20
2.04293499836362
30
0
41
1
10
24.5542359001043
20
2.00892570154861
30
0
0
SPLINE
5
DD
100
AcDbEntity
8
1
62
256
6
ByLayer
370
18
48
1
60
0
100
AcDbSpline
70
4
71
3
72
26
73
22
40
0
40
0
40
0
40
0
40
0.103648425921583
40
0.103648425921583
40
0.207296851843167
40
0.207296851843167
40
0.31094527776475
40
0.31094527776475
40
0.414593703686333
40
0.414593703686333
40
0.518242129607916
40
0.518242129607916
40
0.6218905555295
40
0.6218905555295
40
0.725538981451083
40
0.725538981451083
40
0.829187407372666
40
0.829187407372666
40
0.93283583329425
40
0.93283583329425
40
1
40
1
40
1
40
1
41
1
10
45.0357896091481
20
2.70296197795048
30
0
41
1
10
44.8936200805528
20
2.70729932035644
30
0
41
1
10
44.7514921350711
20
2.70862349435032
30
0
41
1
10
44.4671196827422
20
2.70526962834717
30
0
41
1
10
44.3248751129472
20
2.70059924048184
30
0
41
1
10
44.0402072521621
20
2.68511646313343
30
0
41
1
10
43.8977491368479
20
2.67433012079289
30
0
41
1
10
43.612252765368
20
2.64669936590781
30
0
41
1
10
43.469259744677
20
2.6298214131962
30
0
41
1
10
43.1825600810992
20
2.59004467269185
30
0
41
1
10
43.0388499503276
20
2.56714879448265
30
0
41
1
10
42.7505001266001
20
2.51541880774011
30
0
41
1
10
42.6062535165262
20
2.48666133603999
30
0
41
1
10
42.3179643565374
20
2.42335479300596
30
0
41
1
10
42.1738031560955
20
2.38883021159785
30
0
41
1
10
41.8856758983996
20
2.31454646627813
30
0
41
1
10
41.7417265123254
20
2.27472853056315
30
0
41
1
10
41.4538250094362
20
2.19002052925791
30
0
41
1
10
41.3098697677367
20
2.14513499107318
30
0
41
1
10
41.0724533485097
20
2.06718196797891
30
0
41
1
10
40.9790069634039
20
2.03549753342787
30
0
41
1
10
40.8856146101537
20
2.00282885319169
30
0
0
SPLINE
5
DE
100
AcDbEntity
8
1
62
256
6
ByLayer
370
18
48
1
60
0
100
AcDbSpline
70
4
71
3
72
36
73
32
40
0
40
0
40
0
40
0
40
0.0446947115388227
40
0.0446947115388227
40
0.112930803571764
40
0.112930803571764
40
0.181166895604705
40
0.181166895604705
40
0.249402987637646
40
0.249402987637646
40
0.317639079670587
40
0.317639079670587
40
0.385875171703529
40
0.385875171703529
40
0.45411126373647
40
0.45411126373647
40
0.522347355769411
40
0.522347355769411
40
0.590583447802353
40
0.590583447802353
40
0.658819539835294
40
0.658819539835294
40
0.727055631868235
40
0.727055631868235
40
0.795291723901176
40
0.795291723901176
40
0.863527815934118
40
0.863527815934118
40
0.931763907967059
40
0.931763907967059
40
1
40
1
40
1
40
1
41
1
10
23.8339667929195
20
-1.73962029631352
30
0
41
1
10
23.739534334322
20
-1.70200347975467
30
0
41
1
10
23.6450780603288
20
-1.66349648892978
30
0
41
1
10
23.4065427973712
20
-1.56407997351096
30
0
41
1
10
23.2624346857306
20
-1.50210614262696
30
0
41
1
10
22.9744032008217
20
-1.37515531486213
30
0
41
1
10
22.830466742788
20
-1.3100665139375
30
0
41
1
10
22.5425254710342
20
-1.17704340392524
30
0
41
1
10
22.3985179300341
20
-1.10911480036535
30
0
41
1
10
22.1102231987345
20
-0.970751232342053
30
0
41
1
10
21.9659851210031
20
-0.900322416407249
30
0
41
1
10
21.6777498408402
20
-0.757321208781036
30
0
41
1
10
21.5336281481486
20
-0.684816985062923
30
0
41
1
10
21.2456082047591
20
-0.538751280845759
30
0
41
1
10
21.1016951986227
20
-0.465062570822909
30
0
41
1
10
20.8138262431974
20
-0.316829092476979
30
0
41
1
10
20.6698685674616
20
-0.242287726077791
30
0
41
1
10
20.3817015390632
20
-0.0927469948836972
30
0
41
1
10
20.2374576594391
20
-0.0177124730260516
30
0
41
1
10
19.9492013200829
20
0.132384023591499
30
0
41
1
10
19.8050652075623
20
0.207391337181264
30
0
41
1
10
19.5169941106128
20
0.356447377989554
30
0
41
1
10
19.3730465955891
20
0.430616215348778
30
0
41
1
10
19.0850938069986
20
0.577791774640303
30
0
41
1
10
18.9410874227685
20
0.65079670449316
30
0
41
1
10
18.6528139229474
20
0.795253018852776
30
0
41
1
10
18.508562999694
20
0.866716713188282
30
0
41
1
10
18.2203188892605
20
1.00759154766976
30
0
41
1
10
18.0761904923416
20
1.07696160708915
30
0
41
1
10
17.7880641516644
20
1.21282366523516
30
0
41
1
10
17.6440642317618
20
1.27941143964836
30
0
41
1
10
17.5000000000003
20
1.34445440428547
30
0
0
SPLINE
5
DF
100
AcDbEntity
8
1
62
256
6
ByLayer
370
18
48
1
60
0
100
AcDbSpline
70
4
71
3
72
22
73
18
40
0
40
0
40
0
40
0
40
0.500000000000093
40
0.500000000000093
40
0.750000000000109
40
0.750000000000109
40
0.875000000000119
40
0.875000000000119
40
0.937500000000125
40
0.937500000000125
40
0.968750000000094
40
0.968750000000094
40
0.984375000000079
40
0.984375000000079
40
0.99218750000004
40
0.99218750000004
40
1
40
1
40
1
40
1
41
1
10
44.9648527931056
20
2.84992354114488
30
0
41
1
10
44.9762412371534
20
2.82539633227367
30
0
41
1
10
44.9878460644077
20
2.80090733095253
30
0
41
1
10
45.0056021733073
20
2.76411247887495
30
0
41
1
10
45.0115852498007
20
2.75181055027349
30
0
41
1
10
45.0206724688149
20
2.73323133700532
30
0
41
1
10
45.0237213984727
20
2.72701250787409
30
0
41
1
10
45.0282719784707
20
2.71786565390605
30
0
41
1
10
45.0297731161322
20
2.71489699874166
30
0
41
1
10
45.0320368379095
20
2.71041530722798
30
0
41
1
10
45.0328037702595
20
2.70887311226866
30
0
41
1
10
45.0339940965674
20
2.70639715931389
30
0
41
1
10
45.034400289025
20
2.70553308739565
30
0
41
1
10
45.0349911847027
20
2.70431567203249
30
0
41
1
10
45.0351856014947
20
2.70392080970868
30
0
41
1
10
45.0355497557847
20
2.70323541700111
30
0
41
1
10
45.0357265167089
20
2.70294425356931
30
0
41
1
10
45.0357896091512
20
2.7029619779504
30
0
0
SPLINE
5
E0
100
AcDbEntity
8
1
62
256
6
ByLayer
370
18
48
1
60
0
100
AcDbSpline
70
4
71
3
72
8
73
4
40
0
40
0
40
0
40
0
40
1
40
1
40
1
40
1
41
1
10
3.52512476193812
20
-2.82411376081404
30
0
41
1
10
3.52513551330639
20
-2.82415503581777
30
0
41
1
10
3.52514468701361
20
-2.81628413967621
30
0
41
1
10
3.52515195801661
20
-2.8004261982436
30
0
0
SPLINE
5
E1
100
AcDbEntity
8
1
62
256
6
ByLayer
370
18
48
1
60
0
100
AcDbSpline
70
4
71
3
72
30
73
26
40
0
40
0
40
0
40
0
40
0.124142646361347
40
0.124142646361347
40
0.248285292722694
40
0.248285292722694
40
0.372427939084041
40
0.372427939084041
40
0.496570585445388
40
0.496570585445388
40
0.620713231806735
40
0.620713231806735
40
0.651748893397071
40
0.651748893397071
40
0.682784554987406
40
0.682784554987406
40
0.744855878168074
40
0.744855878168074
40
0.868998524529407
40
0.868998524529407
40
0.931069847710074
40
0.931069847710074
40
0.99314117089074
40
0.99314117089074
40
1
40
1
40
1
40
1
41
1
10
6.32495721961501
20
-1.32792641047041
30
0
41
1
10
6.56000242884335
20
-1.44073060606519
30
0
41
1
10
6.79384594433907
20
-1.54877979843215
30
0
41
1
10
7.25992057503609
20
-1.75440637518938
30
0
41
1
10
7.4921789442476
20
-1.8519345956656
30
0
41
1
10
7.95609122807994
20
-2.03518927957015
30
0
41
1
10
8.18768120822264
20
-2.12099302592316
30
0
41
1
10
8.65139831919853
20
-2.27937282732594
30
0
41
1
10
8.88340957531804
20
-2.35209717711345
30
0
41
1
10
9.34864921510746
20
-2.48346844543562
30
0
41
1
10
9.58188219996649
20
-2.54210964264607
30
0
41
1
10
9.87480062324644
20
-2.60586082624596
30
0
41
1
10
9.93345788035617
20
-2.61812982314024
30
0
41
1
10
10.0509409429028
20
-2.64168417501938
30
0
41
1
10
10.1096658087655
20
-2.65295005843353
30
0
41
1
10
10.2855461964341
20
-2.68517353366204
30
0
41
1
10
10.4025113873668
20
-2.70457888113776
30
0
41
1
10
10.7527079462535
20
-2.75654640082001
30
0
41
1
10
10.9852557303228
20
-2.7828504160525
30
0
41
1
10
11.3334097265653
20
-2.80971428978742
30
0
41
1
10
11.449330402848
20
-2.81657386129646
30
0
41
1
10
11.6811073262436
20
-2.82607674981639
30
0
41
1
10
11.7969747401067
20
-2.82872126570055
30
0
41
1
10
11.9256584664025
20
-2.82932370041203
30
0
41
1
10
11.93846307081
20
-2.82935796409325
30
0
41
1
10
11.9512678071132
20
-2.8293665427544
30
0
0
SPLINE
5
E2
100
AcDbEntity
8
1
62
256
6
ByLayer
370
18
48
1
60
0
100
AcDbSpline
70
4
71
3
72
78
73
74
40
0
40
0
40
0
40
0
40
0.0355989623602377
40
0.0355989623602377
40
0.0565642023089261
40
0.0565642023089261
40
0.0670468222832703
40
0.0670468222832703
40
0.0775294422576145
40
0.0775294422576145
40
0.119459922154991
40
0.119459922154991
40
0.161390402052368
40
0.161390402052368
40
0.203320881949745
40
0.203320881949745
40
0.245251361847121
40
0.245251361847121
40
0.255733981821466
40
0.255733981821466
40
0.266216601795811
40
0.266216601795811
40
0.287181841744501
40
0.287181841744501
40
0.32911232164188
40
0.32911232164188
40
0.371042801539258
40
0.371042801539258
40
0.412973281436636
40
0.412973281436636
40
0.433938521385326
40
0.433938521385326
40
0.444421141359671
40
0.444421141359671
40
0.454903761334016
40
0.454903761334016
40
0.4968342412314
40
0.4968342412314
40
0.517799481180092
40
0.517799481180092
40
0.528282101154438
40
0.528282101154438
40
0.538764721128784
40
0.538764721128784
40
0.580695201026167
40
0.580695201026167
40
0.62262568092355
40
0.62262568092355
40
0.664556160820934
40
0.664556160820934
40
0.706486640718317
40
0.706486640718317
40
0.716969260692662
40
0.716969260692662
40
0.727451880667007
40
0.748417120615698
40
0.748417120615698
40
0.79034760051308
40
0.79034760051308
40
0.800830220487425
40
0.800830220487425
40
0.811312840461771
40
0.832278080410463
40
0.832278080410463
40
0.916139040205231
40
0.916139040205231
40
0.958069520102614
40
0.958069520102614
40
0.968552140076961
40
0.968552140076961
40
0.979034760051308
40
0.979034760051308
40
1
40
1
40
1
40
1
41
1
10
24.5063110106445
20
2.01927102470103
30
0
41
1
10
24.747801224657
20
2.11171624489879
30
0
41
1
10
24.9894761869159
20
2.19776932003162
30
0
41
1
10
25.3746054620727
20
2.32318842938875
30
0
41
1
10
25.5175994903095
20
2.36720234285531
30
0
41
1
10
25.7326373885485
20
2.42927988225182
30
0
41
1
10
25.8044082483083
20
2.44931482341215
30
0
41
1
10
25.9481600709183
20
2.48803313195683
30
0
41
1
10
26.020168700931
20
2.50672379464808
30
0
41
1
10
26.3805065282411
20
2.59663552750737
30
0
41
1
10
26.6668439617172
20
2.65652621858661
30
0
41
1
10
27.2374867960031
20
2.75160917538037
30
0
41
1
10
27.5218020366721
20
2.78679028241694
30
0
41
1
10
28.0903097223304
20
2.83198325670497
30
0
41
1
10
28.3744614779048
20
2.84202079283719
30
0
41
1
10
28.9441490156453
20
2.83662212181338
30
0
41
1
10
29.2296910241261
20
2.82117510254145
30
0
41
1
10
29.5886473007303
20
2.78574296346491
30
0
41
1
10
29.6605395038825
20
2.77785058823363
30
0
41
1
10
29.8045523414059
20
2.76044889989404
30
0
41
1
10
29.8766447329009
20
2.75094088633489
30
0
41
1
10
30.0923575929758
20
2.72013623383376
30
0
41
1
10
30.2357234063807
20
2.69652289307541
30
0
41
1
10
30.6648352629707
20
2.61677973824328
30
0
41
1
10
30.9495962715546
20
2.55174111581095
30
0
41
1
10
31.5183553284022
20
2.39978178157102
30
0
41
1
10
31.8023617857823
20
2.31288116361594
30
0
41
1
10
32.3711749162308
20
2.11885709806788
30
0
41
1
10
32.6559814291762
20
2.01172366854584
30
0
41
1
10
33.0851478788385
20
1.83728606238759
30
0
41
1
10
33.2285313906976
20
1.77685391911208
30
0
41
1
10
33.4442803617745
20
1.68298423630807
30
0
41
1
10
33.5163667112109
20
1.65113139018695
30
0
41
1
10
33.6603964765613
20
1.5865686042398
30
0
41
1
10
33.7323599305937
20
1.55385089390418
30
0
41
1
10
34.0919948195341
20
1.38820523302189
30
0
41
1
10
34.3790996145829
20
1.24907832978443
30
0
41
1
10
34.8100712305343
20
1.03249296563422
30
0
41
1
10
34.95378374467
20
0.958986151185428
30
0
41
1
10
35.1696092300305
20
0.847046360316767
30
0
41
1
10
35.2415939655598
20
0.809453401207691
30
0
41
1
10
35.3856794011417
20
0.733758559837497
30
0
41
1
10
35.4576553244819
20
0.695722193011477
30
0
41
1
10
35.8168850692967
20
0.504944988759377
30
0
41
1
10
36.1025787080533
20
0.350186701968084
30
0
41
1
10
36.672338359476
20
0.0396718548581134
30
0
41
1
10
36.956419127003
20
-0.116056479111649
30
0
41
1
10
37.5247881055103
20
-0.425090409381454
30
0
41
1
10
37.8090352460453
20
-0.578472994286471
30
0
41
1
10
38.379326144014
20
-0.879854858839337
30
0
41
1
10
38.6653749486572
20
-1.02784403668807
30
0
41
1
10
39.0252685900563
20
-1.20722065544456
30
0
41
1
10
39.0973267342359
20
-1.24279456009694
30
0
41
1
10
39.2412399425978
20
-1.31310240391048
30
0
41
1
10
39.4569681286866
20
-1.41738851199742
30
0
41
1
10
39.6723823985143
20
-1.51798157934459
30
0
41
1
10
40.103115865179
20
-1.7137522594515
30
0
41
1
10
40.3901393181505
20
-1.83704902215484
30
0
41
1
10
40.7499469289933
20
-1.98036233297179
30
0
41
1
10
40.8220190587418
20
-2.00850621221937
30
0
41
1
10
40.96596578406
20
-2.06355118481747
30
0
41
1
10
41.1815446798305
20
-2.14424059973547
30
0
41
1
10
41.3962168320532
20
-2.21920039097495
30
0
41
1
10
42.1103201271041
20
-2.45586892964062
30
0
41
1
10
42.676964176756
20
-2.60286033509732
30
0
41
1
10
43.5303506381235
20
-2.75141801644602
30
0
41
1
10
43.8154088100743
20
-2.78894051292093
30
0
41
1
10
44.1735833293107
20
-2.82004324245344
30
0
41
1
10
44.2453094304236
20
-2.82547434576037
30
0
41
1
10
44.3889706019988
20
-2.83473738295206
30
0
41
1
10
44.4609366759418
20
-2.83857054317286
30
0
41
1
10
44.6769809146049
20
-2.84763138860458
30
0
41
1
10
44.8209093054553
20
-2.85041083754604
30
0
41
1
10
44.9648527931022
20
-2.84992354113316
30
0
0
SPLINE
5
E3
100
AcDbEntity
8
1
62
256
6
ByLayer
370
18
48
1
60
0
100
AcDbSpline
70
4
71
3
72
10
73
6
40
0
40
0
40
0
40
0
40
0.5
40
0.5
40
1
40
1
40
1
40
1
41
1
10
44.9648527931097
20
-2.84992354113322
30
0
41
1
10
44.9575611007254
20
-2.85042716424272
30
0
41
1
10
44.9511964539111
20
-2.84840386771299
30
0
41
1
10
44.939916690616
20
-2.83921207180668
30
0
41
1
10
44.9349999639844
20
-2.83203974958272
30
0
41
1
10
44.9306133197228
20
-2.8222205967964
30
0
0
SPLINE
5
E4
100
AcDbEntity
8
1
62
256
6
ByLayer
370
18
48
1
60
0
100
AcDbSpline
70
4
71
3
72
8
73
4
40
0
40
0
40
0
40
0
40
1
40
1
40
1
40
1
41
1
10
3.63071023791522
20
0.619844746941425
30
0
41
1
10
3.60930614772528
20
0.631179935964212
30
0
41
1
10
3.5900863829992
20
0.64521246308442
30
0
41
1
10
3.57300603174178
20
0.661857743341841
30
0
0
SPLINE
5
E5
100
AcDbEntity
8
1
62
256
6
ByLayer
370
18
48
1
60
0
100
AcDbSpline
70
4
71
3
72
14
73
10
40
0
40
0
40
0
40
0
40
0.25
40
0.25
40
0.5
40
0.5
40
0.75
40
0.75
40
1
40
1
40
1
40
1
41
1
10
3.5730060317417
20
0.661857743341898
30
0
41
1
10
3.56572011645363
20
0.668958071670886
30
0
41
1
10
3.55912161932989
20
0.676555176487028
30
0
41
1
10
3.547359172825
20
0.692780257064584
30
0
41
1
10
3.54215505326195
20
0.701506658979952
30
0
41
1
10
3.53368413354087
20
0.719481429894472
30
0
41
1
10
3.53037689362344
20
0.728744853691722
30
0
41
1
10
3.52579236279368
20
0.747872601810599
30
0
41
1
10
3.52451860726867
20
0.757833395087545
30
0
41
1
10
3.5245211039215
20
0.767797201211835
30
0
0
SPLINE
5
E6
100
AcDbEntity
8
1
62
256
6
ByLayer
370
18
48
1
60
0
100
AcDbSpline
70
4
71
3
72
38
73
34
40
0
40
0
40
0
40
0
40
0.0687552901254529
40
0.0687552901254529
40
0.103132935188179
40
0.103132935188179
40
0.137510580250906
40
0.137510580250906
40
0.275021160501813
40
0.275021160501813
40
0.343776450627266
40
0.343776450627266
40
0.378154095689993
40
0.378154095689993
40
0.41253174075272
40
0.41253174075272
40
0.550042321003625
40
0.550042321003625
40
0.618797611129078
40
0.618797611129078
40
0.653175256191805
40
0.653175256191805
40
0.687552901254531
40
0.687552901254531
40
0.825063481505437
40
0.825063481505437
40
0.859441126568163
40
0.876629949099527
40
0.89381877163089
40
0.89381877163089
40
0.962574061756343
40
0.962574061756343
40
1
40
1
40
1
40
1
41
1
10
3.5245211039215
20
0.767797201223715
30
0
41
1
10
3.52454144450408
20
0.848973701575517
30
0
41
1
10
3.52456111867076
20
0.928971024035718
30
0
41
1
10
3.5245898171618
20
1.04719707402756
30
0
41
1
10
3.52459925444145
20
1.08633840506968
30
0
41
1
10
3.52461785893854
20
1.16390580408648
30
0
41
1
10
3.52462698650396
20
1.20216589483763
30
0
41
1
10
3.52467184667574
20
1.39089851802649
30
0
41
1
10
3.52470527119357
20
1.53372795711641
30
0
41
1
10
3.52475321108645
20
1.73594473206813
30
0
41
1
10
3.52476881996441
20
1.8013340131487
30
0
41
1
10
3.52479182743068
20
1.89631012725852
30
0
41
1
10
3.52479944334294
20
1.92750826138504
30
0
41
1
10
3.52481442069387
20
1.98827334247855
30
0
41
1
10
3.52482179666981
20
2.01790129403835
30
0
41
1
10
3.52485817993113
20
2.16233076940387
30
0
41
1
10
3.52488573143998
20
2.26608842761999
30
0
41
1
10
3.5249255729735
20
2.40417108315205
30
0
41
1
10
3.52493859920838
20
2.44725612313192
30
0
41
1
10
3.52495780473305
20
2.50732483939075
30
0
41
1
10
3.52496411753819
20
2.52648201729406
30
0
41
1
10
3.52497652744617
20
2.56295298916623
30
0
41
1
10
3.52498263206618
20
2.5802903644194
30
0
41
1
10
3.52501266710911
20
2.66254985238609
30
0
41
1
10
3.52503517371278
20
2.71429368237423
30
0
41
1
10
3.52506121499101
20
2.76134269427109
30
0
41
1
10
3.52506886665154
20
2.77412533232734
30
0
41
1
10
3.52507872453063
20
2.78846326271233
30
0
41
1
10
3.52508353352826
20
2.7947185892418
30
0
41
1
10
3.52509534058234
20
2.8091381159592
30
0
41
1
10
3.52510414957229
20
2.81685293252539
30
0
41
1
10
3.52511668658892
20
2.82303719951943
30
0
41
1
10
3.52512090341602
20
2.82412396618958
30
0
41
1
10
3.52512490134282
20
2.82411385235895
30
0
0
SPLINE
5
E7
100
AcDbEntity
8
1
62
256
6
ByLayer
370
18
48
1
60
0
100
AcDbSpline
70
4
71
3
72
54
73
50
40
0
40
0
40
0
40
0
40
0.0429036937624072
40
0.0429036937624072
40
0.116526486549913
40
0.116526486549913
40
0.190149279337419
40
0.190149279337419
40
0.208554977534295
40
0.208554977534295
40
0.226960675731171
40
0.226960675731171
40
0.263772072124924
40
0.263772072124924
40
0.337394864912432
40
0.337394864912432
40
0.374206261306186
40
0.374206261306186
40
0.411017657699939
40
0.411017657699939
40
0.484640450487449
40
0.484640450487449
40
0.521451846881203
40
0.521451846881203
40
0.558263243274958
40
0.558263243274958
40
0.595074639668712
40
0.595074639668712
40
0.613480337865589
40
0.613480337865589
40
0.631886036062465
40
0.631886036062465
40
0.705508828849972
40
0.705508828849972
40
0.742320225243727
40
0.742320225243727
40
0.779131621637482
40
0.779131621637482
40
0.852754414424989
40
0.852754414424989
40
0.889565810818742
40
0.889565810818742
40
0.926377207212495
40
0.926377207212495
40
0.963188603606247
40
0.963188603606247
40
0.981594301803124
40
0.981594301803124
40
1
40
1
40
1
40
1
41
1
10
8.01434094550677
20
2.05515739623414
30
0
41
1
10
8.14939975391363
20
2.10564102608083
30
0
41
1
10
8.28442415502184
20
2.15403499987346
30
0
41
1
10
8.65139831919851
20
2.27937282732597
30
0
41
1
10
8.88340957531801
20
2.35209717711345
30
0
41
1
10
9.34864921510743
20
2.48346844543562
30
0
41
1
10
9.58188219996643
20
2.54210964264604
30
0
41
1
10
9.87480062324639
20
2.60586082624593
30
0
41
1
10
9.93345788035609
20
2.61812982314024
30
0
41
1
10
10.0509409429027
20
2.64168417501935
30
0
41
1
10
10.1096658087655
20
2.65295005843353
30
0
41
1
10
10.2855461964341
20
2.68517353366204
30
0
41
1
10
10.4025113873668
20
2.70457888113776
30
0
41
1
10
10.7527079462535
20
2.75654640082001
30
0
41
1
10
10.9852557303228
20
2.7828504160525
30
0
41
1
10
11.3334097265653
20
2.80971428978742
30
0
41
1
10
11.449330402848
20
2.81657386129646
30
0
41
1
10
11.6811073262437
20
2.82607674981639
30
0
41
1
10
11.7969747401068
20
2.82872126570055
30
0
41
1
10
12.1446122643677
20
2.83034873575952
30
0
41
1
10
12.3763879324899
20
2.82302065275152
30
0
41
1
10
12.7247803199547
20
2.799373273154
30
0
41
1
10
12.8410422780861
20
2.78938498159275
30
0
41
1
10
13.0739098125335
20
2.76518276110727
30
0
41
1
10
13.1905070560582
20
2.75096308005826
30
0
41
1
10
13.4242325341337
20
2.71832505327546
30
0
41
1
10
13.5413696088027
20
2.69991442593621
30
0
41
1
10
13.7175329011087
20
2.669147336929
30
0
41
1
10
13.7762783406031
20
2.65837419649645
30
0
41
1
10
13.8935323626153
20
2.63586058500641
30
0
41
1
10
13.9520847280895
20
2.62411255876293
30
0
41
1
10
14.2445119269968
20
2.5629585603094
30
0
41
1
10
14.4774040481807
20
2.50632861606655
30
0
41
1
10
14.8258367635896
20
2.41058706948243
30
0
41
1
10
14.9418212148069
20
2.37686354870269
30
0
41
1
10
15.1736693018481
20
2.30601821707214
30
0
41
1
10
15.2895388252676
20
2.26890509467648
30
0
41
1
10
15.6370553928493
20
2.15259655828248
30
0
41
1
10
15.8686081448733
20
2.06842335195478
30
0
41
1
10
16.2164658100026
20
1.93305722135906
30
0
41
1
10
16.3325163301792
20
1.88643207833869
30
0
41
1
10
16.5648758642888
20
1.79023789517891
30
0
41
1
10
16.6811912741648
20
1.74067589222693
30
0
41
1
10
16.9142907362019
20
1.63888955046829
30
0
41
1
10
17.0310775631665
20
1.58667206156099
30
0
41
1
10
17.2066514046157
20
1.50639272681283
30
0
41
1
10
17.2652425886386
20
1.47930874832946
30
0
41
1
10
17.3825724635518
20
1.42450967275073
30
0
41
1
10
17.4413462861289
20
1.39677743455095
30
0
41
1
10
17.5
20
1.36883697744821
30
0
0
SPLINE
5
E8
100
AcDbEntity
8
1
62
256
6
ByLayer
370
18
48
1
60
0
100
AcDbSpline
70
4
71
3
72
45
73
41
40
0
40
0
40
0
40
0
40
0.0387972832995009
40
0.0387972832995009
40
0.0775945665990019
40
0.0775945665990019
40
0.116391849898503
40
0.116391849898503
40
0.135790491548254
40
0.135790491548254
40
0.155189133198005
40
0.155189133198005
40
0.232783699797008
40
0.232783699797008
40
0.310378266396012
40
0.310378266396012
40
0.387972832995015
40
0.387972832995015
40
0.426770116294517
40
0.426770116294517
40
0.446168757944268
40
0.446168757944268
40
0.465567399594018
40
0.543161966193022
40
0.543161966193022
40
0.620756532792025
40
0.620756532792025
40
0.698351099391028
40
0.698351099391028
40
0.737148382690529
40
0.737148382690529
40
0.75654702434028
40
0.75654702434028
40
0.77594566599003
40
0.77594566599003
40
0.853540232589037
40
0.853540232589037
40
0.931134799188043
40
0.931134799188043
40
1
40
1
40
1
40
1
41
1
10
17.4999999999989
20
1.48815312342694
30
0
41
1
10
17.6441643821595
20
1.42139409704308
30
0
41
1
10
17.7883422624793
20
1.35291506985107
30
0
41
1
10
18.0762982006513
20
1.21325259948901
30
0
41
1
10
18.2201620179084
20
1.14203063741817
30
0
41
1
10
18.5079023782368
20
0.997223707246263
30
0
41
1
10
18.651775701536
20
0.923633777749728
30
0
41
1
10
18.8677268725286
20
0.81170530732004
30
0
41
1
10
18.9397343489616
20
0.774138871329683
30
0
41
1
10
19.0838221214362
20
0.698535406410201
30
0
41
1
10
19.1559275310831
20
0.660485055521775
30
0
41
1
10
19.5164317790621
20
0.46931618635773
30
0
41
1
10
19.8031775666772
20
0.314278125084513
30
0
41
1
10
20.3752057483284
20
0.0034548473038569
30
0
41
1
10
20.6605043289099
20
-0.152300444195418
30
0
41
1
10
21.2313614554845
20
-0.4613498621178
30
0
41
1
10
21.5169185065517
20
-0.614646098252422
30
0
41
1
10
21.9468486796384
20
-0.840144349842092
30
0
41
1
10
22.0904290837796
20
-0.914561199646982
30
0
41
1
10
22.3063643697615
20
-1.02476747861152
30
0
41
1
10
22.3785095352998
20
-1.06130409921732
30
0
41
1
10
22.5225492817277
20
-1.13362643534691
30
0
41
1
10
22.8820774364482
20
-1.31258474347115
30
0
41
1
10
23.2390745280169
20
-1.48182978305323
30
0
41
1
10
23.8088654695365
20
-1.73753737056788
30
0
41
1
10
24.0930905852255
20
-1.85780418386139
30
0
41
1
10
24.6618565519259
20
-2.08088077053856
30
0
41
1
10
24.9463667173188
20
-2.1837305241506
30
0
41
1
10
25.3746054620726
20
-2.32318842938872
30
0
41
1
10
25.5175994903095
20
-2.36720234285531
30
0
41
1
10
25.7326373885485
20
-2.42927988225182
30
0
41
1
10
25.8044082483083
20
-2.44931482341215
30
0
41
1
10
25.9481600709182
20
-2.4880331319568
30
0
41
1
10
26.020168700931
20
-2.50672379464808
30
0
41
1
10
26.3805065282411
20
-2.59663552750737
30
0
41
1
10
26.6668439617172
20
-2.65652621858661
30
0
41
1
10
27.237486796003
20
-2.75160917538037
30
0
41
1
10
27.5218020366721
20
-2.78679028241694
30
0
41
1
10
28.0583312491049
20
-2.82944115858618
30
0
41
1
10
28.3105262089906
20
-2.83960340475863
30
0
41
1
10
28.5631958716711
20
-2.83974913343948
30
0
0
SPLINE
5
E9
100
AcDbEntity
8
1
62
256
6
ByLayer
370
18
48
1
60
0
100
AcDbSpline
70
4
71
3
72
21
73
17
40
0
40
0
40
0
40
0
40
0.0116521677807554
40
0.0116521677807554
40
0.0636704747396653
40
0.167707088657477
40
0.167707088657477
40
0.583853544328723
40
0.583853544328723
40
0.791926772164346
40
0.791926772164346
40
0.843945079123258
40
0.843945079123258
40
0.89596338608217
40
0.89596338608217
40
1
40
1
40
1
40
1
41
1
10
40.8456135294037
20
2.01744109652679
30
0
41
1
10
40.8617432136697
20
2.02366737436355
30
0
41
1
10
40.8778702954325
20
2.0298636261266
30
0
41
1
10
40.9659657840599
20
2.06355118481741
30
0
41
1
10
41.1815446798304
20
2.14424059973544
30
0
41
1
10
41.3962168320531
20
2.21920039097489
30
0
41
1
10
42.1103201271041
20
2.45586892964059
30
0
41
1
10
42.6769641767559
20
2.60286033509729
30
0
41
1
10
43.5303506381235
20
2.751418016446
30
0
41
1
10
43.8154088100743
20
2.7889405129209
30
0
41
1
10
44.1735833293106
20
2.82004324245344
30
0
41
1
10
44.2453094304235
20
2.82547434576034
30
0
41
1
10
44.3889706019986
20
2.83473738295206
30
0
41
1
10
44.4609366759418
20
2.83857054317286
30
0
41
1
10
44.6769809146048
20
2.84763138860458
30
0
41
1
10
44.8209093054552
20
2.85041083754604
30
0
41
1
10
44.9648527931022
20
2.84992354113316
30
0
0
SPLINE
5
EA
100
AcDbEntity
8
1
62
256
6
ByLayer
370
18
48
1
60
0
100
AcDbSpline
70
4
71
3
72
20
73
16
40
0
40
0
40
0
40
0
40
0.249999999999999
40
0.249999999999999
40
0.374999999999999
40
0.374999999999999
40
0.5
40
0.5
40
0.625
40
0.625
40
0.75
40
0.75
40
0.875
40
0.875
40
1
40
1
40
1
40
1
41
1
10
44.9697945716618
20
-2.66724966072198
30
0
41
1
10
44.9708064862548
20
-2.66958965850373
30
0
41
1
10
44.9711803808594
20
-2.67378320281156
30
0
41
1
10
44.9704980809373
20
-2.68346626915275
30
0
41
1
10
44.9700653580083
20
-2.68718381373284
30
0
41
1
10
44.9687455309214
20
-2.69569855760108
30
0
41
1
10
44.9678413986627
20
-2.70056643336431
30
0
41
1
10
44.9656123499022
20
-2.71103007958223
30
0
41
1
10
44.9642864315946
20
-2.71665509367591
30
0
41
1
10
44.9611797639475
20
-2.72876659529553
30
0
41
1
10
44.9594371676043
20
-2.73509559504382
30
0
41
1
10
44.95569862296
20
-2.74791563796958
30
0
41
1
10
44.9536647053557
20
-2.75453080451365
30
0
41
1
10
44.9495300404859
20
-2.76739905733936
30
0
41
1
10
44.9474019836412
20
-2.77374616531287
30
0
41
1
10
44.9452517797283
20
-2.77992800478324
30
0
0
SPLINE
5
EB
100
AcDbEntity
8
1
62
256
6
ByLayer
370
18
48
1
60
0
100
AcDbSpline
70
4
71
3
72
8
73
4
40
0
40
0
40
0
40
0
40
1
40
1
40
1
40
1
41
1
10
44.9452517797283
20
-2.77992800478324
30
0
41
1
10
44.940347988115
20
-2.79402641301687
30
0
41
1
10
44.935468354831
20
-2.80812380963852
30
0
41
1
10
44.9306133197174
20
-2.82222059681226
30
0
0
SPLINE
5
EC
100
AcDbEntity
8
1
62
256
6
ByLayer
370
13
48
1
60
0
100
AcDbSpline
70
4
71
3
72
23
73
19
40
0
40
0
40
0
40
0
40
0.0210331461697764
40
0.0210331461697764
40
0.0420662923395541
40
0.0841325846791166
40
0.168265169358251
40
0.168265169358251
40
0.33653033871652
40
0.33653033871652
40
0.673060677433066
40
0.673060677433066
40
0.757193262112203
40
0.799259554451767
40
0.799259554451767
40
0.84132584679133
40
0.84132584679133
40
1
40
1
40
1
40
1
41
1
10
44.9452517797279
20
-2.77992800478324
30
0
41
1
10
44.9185661860177
20
-2.77787353646926
30
0
41
1
10
44.891878608961
20
-2.77582063088278
30
0
41
1
10
44.8385234702308
20
-2.77142712204517
30
0
41
1
10
44.7585115454153
20
-2.76451165710631
30
0
41
1
10
44.5719503058671
20
-2.74610577757255
30
0
41
1
10
44.412226790774
20
-2.72646099621849
30
0
41
1
10
44.0929103531999
20
-2.68207486074573
30
0
41
1
10
43.8802054753333
20
-2.6456749926532
30
0
41
1
10
43.2417539476224
20
-2.51680391329839
30
0
41
1
10
42.8156943986537
20
-2.40473957311474
30
0
41
1
10
42.2788006243417
20
-2.23433175688192
30
0
41
1
10
42.1174132837129
20
-2.18093354435658
30
0
41
1
10
41.9554424662687
20
-2.12419778091419
30
0
41
1
10
41.8473198810041
20
-2.08564280912631
30
0
41
1
10
41.7931462589293
20
-2.06598400148289
30
0
41
1
10
41.5350696903619
20
-1.97075319753071
30
0
41
1
10
41.3319891215046
20
-1.89112086526976
30
0
41
1
10
41.1295025482296
20
-1.80765683931011
30
0
0
SPLINE
5
ED
100
AcDbEntity
8
1
62
256
6
ByLayer
370
18
48
1
60
0
100
AcDbSpline
70
4
71
3
72
36
73
32
40
0
40
0
40
0
40
0
40
0.0050366246734928
40
0.0050366246734928
40
0.0933992619278225
40
0.0933992619278225
40
0.181761899182152
40
0.181761899182152
40
0.358487173690812
40
0.358487173690812
40
0.402668492317979
40
0.402668492317979
40
0.42475915163156
40
0.42475915163156
40
0.446849810945141
40
0.446849810945141
40
0.535212448199471
40
0.535212448199471
40
0.711937722708126
40
0.711937722708126
40
0.800300359962454
40
0.800300359962454
40
0.888662997216783
40
0.888662997216783
40
0.932844315843946
40
0.932844315843946
40
0.954934975157528
40
0.954934975157528
40
0.97702563447111
40
0.97702563447111
40
1
40
1
40
1
40
1
41
1
10
41.1295025925408
20
-1.80765685757495
30
0
41
1
10
41.117263331769
20
-1.80261189111135
30
0
41
1
10
41.1050262412041
20
-1.79755292527091
30
0
41
1
10
40.8781403368307
20
-1.70348191766982
30
0
41
1
10
40.6641283444143
20
-1.61021661149556
30
0
41
1
10
40.2367199530827
20
-1.41630060566985
30
0
41
1
10
40.0233413468116
20
-1.31563126755191
30
0
41
1
10
39.3830148029456
20
-1.0044434031802
30
0
41
1
10
38.9557378696865
20
-0.784905336000548
30
0
41
1
10
38.4179231590582
20
-0.500901124290408
30
0
41
1
10
38.3101705970948
20
-0.443630410441273
30
0
41
1
10
38.1481687000334
20
-0.357172555464814
30
0
41
1
10
38.0941064852508
20
-0.328260416066428
30
0
41
1
10
37.9858470851309
20
-0.270271979447387
30
0
41
1
10
37.9317190600427
20
-0.241232708007942
30
0
41
1
10
37.661530935611
20
-0.0961219837015506
30
0
41
1
10
37.4463570972274
20
0.0199377108264116
30
0
41
1
10
36.8026435454801
20
0.36594665075836
30
0
41
1
10
36.375901821545
20
0.593700432489754
30
0
41
1
10
35.7353983931387
20
0.923513740602033
30
0
41
1
10
35.5217921051051
20
1.03142028447152
30
0
41
1
10
35.0936311783505
20
1.24184810464871
30
0
41
1
10
34.8790828189096
20
1.34437186404634
30
0
41
1
10
34.5560507908981
20
1.49317859860526
30
0
41
1
10
34.4481676139771
20
1.54194621288127
30
0
41
1
10
34.2859593600326
20
1.61371746022314
30
0
41
1
10
34.231783018087
20
1.63743007269741
30
0
41
1
10
34.123526673137
20
1.68427290068848
30
0
41
1
10
34.0694624921012
20
1.70739678090536
30
0
41
1
10
33.9592907070594
20
1.75394798742093
30
0
41
1
10
33.9031880297876
20
1.77734987422104
30
0
41
1
10
33.8471427193141
20
1.80041382032422
30
0
0
SPLINE
5
EE
100
AcDbEntity
8
1
62
256
6
ByLayer
370
13
48
1
60
0
100
AcDbSpline
70
4
71
3
72
31
73
27
40
0
40
0
40
0
40
0
40
0.0679731131324912
40
0.0679731131324912
40
0.136494422354715
40
0.136494422354715
40
0.20501573157694
40
0.20501573157694
40
0.342058350021389
40
0.342058350021389
40
0.410579659243613
40
0.410579659243613
40
0.479100968465838
40
0.479100968465838
40
0.547622277688063
40
0.581882932299175
40
0.581882932299175
40
0.616143586910287
40
0.616143586910287
40
0.684664896132511
40
0.684664896132511
40
0.753186205354735
40
0.753186205354735
40
0.890228823799184
40
0.890228823799184
40
1
40
1
40
1
40
1
41
1
10
14.3371409432832
20
-2.68964882976772
30
0
41
1
10
14.2306549247844
20
-2.7045243917801
30
0
41
1
10
14.1242976343005
20
-2.71767730582056
30
0
41
1
10
13.9108981785002
20
-2.74062462759656
30
0
41
1
10
13.8038557898495
20
-2.75038559893619
30
0
41
1
10
13.5899075969763
20
-2.76644858082651
30
0
41
1
10
13.48300602574
20
-2.7727651728907
30
0
41
1
10
13.1622919156335
20
-2.78643840184682
30
0
41
1
10
12.9484593503676
20
-2.78846064960476
30
0
41
1
10
12.6271652995726
20
-2.78084404566047
30
0
41
1
10
12.5199746931794
20
-2.77652529317436
30
0
41
1
10
12.3053740938957
20
-2.76436606502534
30
0
41
1
10
12.1979678604928
20
-2.75653668932404
30
0
41
1
10
11.9827884086776
20
-2.73732876726919
30
0
41
1
10
11.8211251618569
20
-2.72024687944952
30
0
41
1
10
11.6589438864704
20
-2.69915034618083
30
0
41
1
10
11.5506968150154
20
-2.68419531585724
30
0
41
1
10
11.4964826568773
20
-2.67626795249706
30
0
41
1
10
11.3338179655714
20
-2.65117741380107
30
0
41
1
10
11.2256337648368
20
-2.63274794014185
30
0
41
1
10
11.0097294477152
20
-2.5926046031409
30
0
41
1
10
10.9020080366947
20
-2.57089870947976
30
0
41
1
10
10.5793376596652
20
-2.50100522163518
30
0
41
1
10
10.3648855610888
20
-2.44802270334944
30
0
41
1
10
9.97921207616596
20
-2.34184183679122
30
0
41
1
10
9.80787795216497
20
-2.29078227174327
30
0
41
1
10
9.63655888785993
20
-2.23610027487751
30
0
0
SPLINE
5
EF
100
AcDbEntity
8
1
62
256
6
ByLayer
370
18
48
1
60
0
100
AcDbSpline
70
4
71
3
72
29
73
25
40
0
40
0
40
0
40
0
40
0.130340225925537
40
0.130340225925537
40
0.23904769768485
40
0.293401433564508
40
0.320578301504336
40
0.320578301504336
40
0.347755169444164
40
0.347755169444164
40
0.456462641203469
40
0.456462641203469
40
0.565170112962775
40
0.565170112962775
40
0.67387758472208
40
0.67387758472208
40
0.782585056481386
40
0.782585056481386
40
0.891292528240692
40
0.945646264120346
40
0.945646264120346
40
0.972823132060173
40
0.972823132060173
40
1
40
1
40
1
40
1
41
1
10
9.63655887655685
20
-2.23610027126969
30
0
41
1
10
9.38011513886701
20
-2.1542479931336
30
0
41
1
10
9.12370514458166
20
-2.06427913584784
30
0
41
1
10
8.65239496799745
20
-1.885697090696
30
0
41
1
10
8.33031014984843
20
-1.75613950932828
30
0
41
1
10
7.95252238343335
20
-1.59266377623834
30
0
41
1
10
7.79007804899777
20
-1.52009035076139
30
0
41
1
10
7.68165135186268
20
-1.47116377704205
30
0
41
1
10
7.62740667708962
20
-1.44644328127174
30
0
41
1
10
7.35669140832422
20
-1.32191843570732
30
0
41
1
10
7.14111108012762
20
-1.21906423922101
30
0
41
1
10
6.71114232587442
20
-1.0083529343583
30
0
41
1
10
6.4967545865421
20
-0.900493687745069
30
0
41
1
10
6.068504268152
20
-0.681026760608546
30
0
41
1
10
5.85465622619236
20
-0.569388495191163
30
0
41
1
10
5.42681591345061
20
-0.343614549274435
30
0
41
1
10
5.21279566675193
20
-0.229541276125417
30
0
41
1
10
4.78379238805468
20
-0.0004524754070587
30
0
41
1
10
4.46131784539645
20
0.172075842508491
30
0
41
1
10
4.136963638726
20
0.344187767493963
30
0
41
1
10
3.97440872871067
20
0.430055405049956
30
0
41
1
10
3.92013707213383
20
0.458659064456242
30
0
41
1
10
3.8116302656606
20
0.515693471952204
30
0
41
1
10
3.75738433552886
20
0.544129977620173
30
0
41
1
10
3.70314107356134
20
0.572476620715349
30
0
0
SPLINE
5
F0
100
AcDbEntity
8
1
62
256
6
ByLayer
370
18
48
1
60
0
100
AcDbSpline
70
4
71
3
72
54
73
50
40
0
40
0
40
0
40
0
40
0.0825525228415889
40
0.0825525228415889
40
0.103190653551987
40
0.103190653551987
40
0.113509718907186
40
0.113509718907186
40
0.123828784262384
40
0.123828784262384
40
0.16510504568318
40
0.16510504568318
40
0.247657568524771
40
0.247657568524771
40
0.288933829945566
40
0.288933829945566
40
0.330210091366362
40
0.330210091366362
40
0.350848222076758
40
0.350848222076758
40
0.361167287431956
40
0.361167287431956
40
0.371486352787153
40
0.412762614207942
40
0.412762614207942
40
0.495315137049519
40
0.495315137049519
40
0.577867659891095
40
0.577867659891095
40
0.588186725246293
40
0.588186725246293
40
0.598505790601491
40
0.598505790601491
40
0.619143921311885
40
0.619143921311885
40
0.660420182732672
40
0.660420182732672
40
0.742972705574247
40
0.742972705574247
40
0.825525228415821
40
0.825525228415821
40
0.846163359126216
40
0.846163359126216
40
0.86680148983661
40
0.908077751257398
40
0.908077751257398
40
0.990630274098977
40
0.990630274098977
40
1
40
1
40
1
40
1
41
1
10
44.9306133197184
20
-2.82222059679614
30
0
41
1
10
44.4983478544513
20
-2.7888819388574
30
0
41
1
10
44.0674410612775
20
-2.72647683262426
30
0
41
1
10
43.5273234100316
20
-2.61414545362587
30
0
41
1
10
43.4192272755077
20
-2.58995760428434
30
0
41
1
10
43.2568991408685
20
-2.55113277178356
30
0
41
1
10
43.2027589651456
20
-2.53776744350361
30
0
41
1
10
43.0944036202751
20
-2.51019697817853
30
0
41
1
10
43.0401796315574
20
-2.49598884427482
30
0
41
1
10
42.7695499245342
20
-2.42306746707305
30
0
41
1
10
42.5540424242487
20
-2.35858355257517
30
0
41
1
10
41.9094056414513
20
-2.14821072159836
30
0
41
1
10
41.4821791262324
20
-1.98536180427763
30
0
41
1
10
40.8405447003823
20
-1.71356164563261
30
0
41
1
10
40.6265283460036
20
-1.61838838764322
30
0
41
1
10
40.1975574481081
20
-1.41982637413574
30
0
41
1
10
39.9826188368029
20
-1.31640782467375
30
0
41
1
10
39.6588956298066
20
-1.15599443681657
30
0
41
1
10
39.5507655701105
20
-1.1016484379013
30
0
41
1
10
39.3881609421711
20
-1.0189311977953
30
0
41
1
10
39.3339522208134
20
-0.991188847842835
30
0
41
1
10
39.2257225924293
20
-0.9354928202427
30
0
41
1
10
38.955456199376
20
-0.795643902895193
30
0
41
1
10
38.686601108589
20
-0.652988307380525
30
0
41
1
10
38.0430385888709
20
-0.307130433576674
30
0
41
1
10
37.6160486270017
20
-0.0722869767980399
30
0
41
1
10
36.7601419338918
20
0.394677576997196
30
0
41
1
10
36.3312642358342
20
0.626871093404645
30
0
41
1
10
35.8445447607602
20
0.880675355334972
30
0
41
1
10
35.7904037322344
20
0.90876853705447
30
0
41
1
10
35.681983761414
20
0.96471085785123
30
0
41
1
10
35.6277870502861
20
0.992518065311657
30
0
41
1
10
35.4654526131652
20
1.07530146319578
30
0
41
1
10
35.3574728502088
20
1.12968960860019
30
0
41
1
10
35.0341257183688
20
1.29025286705686
30
0
41
1
10
34.8193557409689
20
1.3938363746625
30
0
41
1
10
34.1763546573323
20
1.69263655705285
30
0
41
1
10
33.7492973289617
20
1.87568915576372
30
0
41
1
10
32.8927839624015
20
2.2014354419976
30
0
41
1
10
32.4632297494516
20
2.34399380193247
30
0
41
1
10
31.9209563608288
20
2.49160606092994
30
0
41
1
10
31.8126964905193
20
2.51946733642407
30
0
41
1
10
31.5966917062137
20
2.57176558899215
30
0
41
1
10
31.2733463314582
20
2.64510750269872
30
0
41
1
10
30.9515673373267
20
2.70298870135656
30
0
41
1
10
30.309015321428
20
2.79776522542545
30
0
41
1
10
29.8819080613774
20
2.83292296542837
30
0
41
1
10
29.4045249221162
20
2.83990751145015
30
0
41
1
10
29.3558435047247
20
2.84024728808052
30
0
41
1
10
29.3071363155104
20
2.84021383219544
30
0
0
SPLINE
5
F1
100
AcDbEntity
8
1
62
256
6
ByLayer
370
18
48
1
60
0
100
AcDbSpline
70
4
71
3
72
44
73
40
40
0
40
0
40
0
40
0
40
0.0557128951977954
40
0.0557128951977954
40
0.0852218672228643
40
0.0852218672228643
40
0.114730839247933
40
0.114730839247933
40
0.173748783298073
40
0.173748783298073
40
0.203257755323142
40
0.203257755323142
40
0.232766727348212
40
0.232766727348212
40
0.291784671398351
40
0.291784671398351
40
0.350802615448491
40
0.350802615448491
40
0.40982055949863
40
0.40982055949863
40
0.439329531523699
40
0.439329531523699
40
0.468838503548768
40
0.468838503548768
40
0.527856447598904
40
0.527856447598904
40
0.645892335699177
40
0.645892335699177
40
0.704910279749313
40
0.704910279749313
40
0.763928223799449
40
0.763928223799449
40
0.793437195824518
40
0.793437195824518
40
0.822946167849587
40
0.822946167849587
40
0.881964111899724
40
0.881964111899724
40
1
40
1
40
1
40
1
41
1
10
14.5815926547878
20
-2.6943048256999
30
0
41
1
10
14.3790567388775
20
-2.72802431502288
30
0
41
1
10
14.1760940161658
20
-2.75565483756006
30
0
41
1
10
13.864536093062
20
-2.78827726367544
30
0
41
1
10
13.756456601076
20
-2.79780565535697
30
0
41
1
10
13.5398539436748
20
-2.81326423594049
30
0
41
1
10
13.4311815076296
20
-2.81919212301733
30
0
41
1
10
13.1062359396937
20
-2.83138720846949
30
0
41
1
10
12.8905465038909
20
-2.83213010268278
30
0
41
1
10
12.5678920214631
20
-2.82242980640726
30
0
41
1
10
12.4604907579651
20
-2.81739395542311
30
0
41
1
10
12.2459396403872
20
-2.80374342169031
30
0
41
1
10
12.1387832362427
20
-2.79512825342547
30
0
41
1
10
11.8174472131416
20
-2.76399856131826
30
0
41
1
10
11.603414544366
20
-2.73620108293821
30
0
41
1
10
11.175056487397
20
-2.66687480468744
30
0
41
1
10
10.9607944789949
20
-2.62530491821522
30
0
41
1
10
10.5312690427891
20
-2.52875343141074
30
0
41
1
10
10.3159842202656
20
-2.47379350277871
30
0
41
1
10
9.99173234107295
20
-2.38162101533831
30
0
41
1
10
9.88342689283343
20
-2.34927521723804
30
0
41
1
10
9.66627328446671
20
-2.28139942617011
30
0
41
1
10
9.55790610478752
20
-2.24601945875037
30
0
41
1
10
9.23354986022554
20
-2.13585791607392
30
0
41
1
10
9.01819074354358
20
-2.05701903459246
30
0
41
1
10
8.37366913757205
20
-1.80595880488838
30
0
41
1
10
7.94600804714636
20
-1.61926012641561
30
0
41
1
10
7.30316456573902
20
-1.31701209933095
30
0
41
1
10
7.08866271722113
20
-1.21255543364612
30
0
41
1
10
6.65842638145969
20
-0.997486878899565
30
0
41
1
10
6.44269572828733
20
-0.886870908910851
30
0
41
1
10
6.11765996622415
20
-0.717144981774169
30
0
41
1
10
6.00894310639418
20
-0.659865659795173
30
0
41
1
10
5.79204506667409
20
-0.544758281638792
30
0
41
1
10
5.6837715279089
20
-0.486882770842101
30
0
41
1
10
5.35929551183116
20
-0.312629234742928
30
0
41
1
10
5.14343278677839
20
-0.19563323098393
30
0
41
1
10
4.49601677004924
20
0.155618072977518
30
0
41
1
10
4.06459778566523
20
0.390066357636584
30
0
41
1
10
3.63071023791665
20
0.619844746940686
30
0
0
SPLINE
5
F2
100
AcDbEntity
8
1
62
256
6
ByLayer
370
13
48
1
60
0
100
AcDbSpline
70
4
71
3
72
28
73
24
40
0
40
0
40
0
40
0
40
0.0332955298240895
40
0.0332955298240895
40
0.0899206680523431
40
0.0899206680523431
40
0.203170944508847
40
0.203170944508847
40
0.429671497421857
40
0.429671497421857
40
0.656172050334867
40
0.656172050334867
40
0.684484619448991
40
0.684484619448991
40
0.712797188563115
40
0.712797188563115
40
0.769422326791364
40
0.769422326791364
40
0.882672603247857
40
0.882672603247857
40
0.995922879704352
40
0.995922879704352
40
1
40
1
40
1
40
1
41
1
10
30.6666923342271
20
-2.70262545116609
30
0
41
1
10
30.6031624752088
20
-2.71139411826016
30
0
41
1
10
30.5395502162945
20
-2.71957134679545
30
0
41
1
10
30.3675051310043
20
-2.74004371096177
30
0
41
1
10
30.2594161867377
20
-2.75114363557302
30
0
41
1
10
29.9358140014673
20
-2.77905513236976
30
0
41
1
10
29.7209427129131
20
-2.79045845723721
30
0
41
1
10
29.0778913330665
20
-2.80315822167924
30
0
41
1
10
28.6511648553642
20
-2.78331599246653
30
0
41
1
10
27.7960581975015
20
-2.68766384094076
30
0
41
1
10
27.3676412947739
20
-2.6122341014331
30
0
41
1
10
26.8814576639249
20
-2.49694073969144
30
0
41
1
10
26.8273786254845
20
-2.48370998043705
30
0
41
1
10
26.7190906151651
20
-2.45641707441021
30
0
41
1
10
26.6648927475359
20
-2.44235718386767
30
0
41
1
10
26.5024808531411
20
-2.3990493287111
30
0
41
1
10
26.3943191576393
20
-2.36864136127826
30
0
41
1
10
26.070025299855
20
-2.27297115452632
30
0
41
1
10
25.8540777835932
20
-2.20326529924952
30
0
41
1
10
25.4219751326988
20
-2.05270389938227
30
0
41
1
10
25.2058364368978
20
-1.97187401436366
30
0
41
1
10
24.9814429754773
20
-1.88289470011668
30
0
41
1
10
24.9736442335558
20
-1.87979591929891
30
0
41
1
10
24.9658447065659
20
-1.87669053427288
30
0
0
SPLINE
5
F3
100
AcDbEntity
8
1
62
256
6
ByLayer
370
18
48
1
60
0
100
AcDbSpline
70
4
71
3
72
38
73
34
40
0
40
0
40
0
40
0
40
0.0201109342316364
40
0.0201109342316364
40
0.0436049662882619
40
0.0436049662882619
40
0.0905930304015155
40
0.0905930304015155
40
0.184569158628023
40
0.184569158628023
40
0.278545286854531
40
0.278545286854531
40
0.325533350967783
40
0.325533350967783
40
0.372521415081035
40
0.372521415081035
40
0.466497543307538
40
0.466497543307538
40
0.560473671534041
40
0.560473671534041
40
0.654449799760543
40
0.654449799760543
40
0.748425927987046
40
0.748425927987046
40
0.842402056213548
40
0.842402056213548
40
0.865896088270173
40
0.865896088270173
40
0.889390120326797
40
0.889390120326797
40
0.936378184440044
40
0.936378184440044
40
1
40
1
40
1
40
1
41
1
10
24.9658456357708
20
-1.87669090423617
30
0
41
1
10
24.9194829374003
20
-1.85823157890741
30
0
41
1
10
24.8730924984908
20
-1.83953889593232
30
0
41
1
10
24.77258282958
20
-1.79857160515064
30
0
41
1
10
24.7184651268264
20
-1.77621935148423
30
0
41
1
10
24.5562011033959
20
-1.70835346064169
30
0
41
1
10
24.4481424610002
20
-1.66203058674637
30
0
41
1
10
24.1241924744122
20
-1.52003845234626
30
0
41
1
10
23.9085331227054
20
-1.42134877890601
30
0
41
1
10
23.4770964203786
20
-1.21716725411827
30
0
41
1
10
23.2613360343315
20
-1.11163093594291
30
0
41
1
10
22.9370233050533
20
-0.949129830189406
30
0
41
1
10
22.828800438743
20
-0.894273761602562
30
0
41
1
10
22.6120379216802
20
-0.78332366395847
30
0
41
1
10
22.5038451859145
20
-0.727405707966597
30
0
41
1
10
22.1800343033844
20
-0.558757982928682
30
0
41
1
10
21.9650564571126
20
-0.445021473304422
30
0
41
1
10
21.5360920437424
20
-0.21647086577542
30
0
41
1
10
21.3220965673769
20
-0.101674441537227
30
0
41
1
10
20.8944306906087
20
0.127735997753064
30
0
41
1
10
20.6807386626901
20
0.242305951731964
30
0
41
1
10
20.2529146952904
20
0.469798186435384
30
0
41
1
10
20.0388012112479
20
0.582758196147097
30
0
41
1
10
19.6093924471219
20
0.80562748813901
30
0
41
1
10
19.394112603074
20
0.915561760913846
30
0
41
1
10
19.1238595850844
20
1.05028872117177
30
0
41
1
10
19.0697467987165
20
1.07709084879787
30
0
41
1
10
18.961389177199
20
1.1303935996095
30
0
41
1
10
18.90717568004
20
1.15688045461465
30
0
41
1
10
18.7448516077968
20
1.23564194868916
30
0
41
1
10
18.6369007465463
20
1.28731849144682
30
0
41
1
10
18.3832401056678
20
1.40668791679215
30
0
41
1
10
18.2376867918138
20
1.47353133157881
30
0
41
1
10
18.0923719920256
20
1.53841862550064
30
0
0
SPLINE
5
F4
100
AcDbEntity
8
1
62
256
6
ByLayer
370
18
48
1
60
0
100
AcDbSpline
70
4
71
3
72
72
73
68
40
0
40
0
40
0
40
0
40
0.0109799218792766
40
0.0109799218792766
40
0.0827442466803187
40
0.0827442466803187
40
0.118626409080839
40
0.118626409080839
40
0.136567490281098
40
0.136567490281098
40
0.154508571481357
40
0.154508571481357
40
0.226272896282394
40
0.226272896282394
40
0.262155058682912
40
0.262155058682912
40
0.298037221083431
40
0.298037221083431
40
0.333919383483949
40
0.333919383483949
40
0.351860464684208
40
0.351860464684208
40
0.369801545884467
40
0.369801545884467
40
0.4415658706855
40
0.4415658706855
40
0.477448033086017
40
0.477448033086017
40
0.513330195486534
40
0.513330195486534
40
0.549212357887051
40
0.549212357887051
40
0.56715343908731
40
0.56715343908731
40
0.585094520287568
40
0.585094520287568
40
0.656858845088601
40
0.656858845088601
40
0.674799926288859
40
0.674799926288859
40
0.692741007489117
40
0.692741007489117
40
0.728623169889633
40
0.728623169889633
40
0.746564251089891
40
0.746564251089891
40
0.764505332290149
40
0.764505332290149
40
0.800387494690664
40
0.800387494690664
40
0.818328575890922
40
0.818328575890922
40
0.83626965709118
40
0.83626965709118
40
0.872151819491696
40
0.872151819491696
40
0.890092900691953
40
0.890092900691953
40
0.90803398189221
40
0.90803398189221
40
0.943916144292725
40
0.943916144292725
40
0.961857225492982
40
0.961857225492982
40
0.979798306693239
40
0.979798306693239
40
1
40
1
40
1
40
1
41
1
10
30.9341084280402
20
-2.70361783484114
30
0
41
1
10
30.868495105007
20
-2.71459149131715
30
0
41
1
10
30.8029235193685
20
-2.72491368803756
30
0
41
1
10
30.309015321427
20
-2.79776522542556
30
0
41
1
10
29.8819080613764
20
-2.83292296542842
30
0
41
1
10
29.2388235571275
20
-2.8423318719154
30
0
41
1
10
29.0240490669742
20
-2.83824575737785
30
0
41
1
10
28.7006919564516
20
-2.82114607462185
30
0
41
1
10
28.5927065557107
20
-2.81361831483739
30
0
41
1
10
28.3762488006542
20
-2.79488314696511
30
0
41
1
10
28.2676319133282
20
-2.78365313082165
30
0
41
1
10
27.7263994936095
20
-2.71868788252476
30
0
41
1
10
27.2972911543307
20
-2.63846259986494
30
0
41
1
10
26.655062440746
20
-2.47987547918339
30
0
41
1
10
26.4412194496135
20
-2.42064105231213
30
0
41
1
10
26.0132236672193
20
-2.29019169925974
30
0
41
1
10
25.7990645910329
20
-2.21898669259656
30
0
41
1
10
25.3697459228346
20
-2.06529619218043
30
0
41
1
10
25.1546031869038
20
-1.98278677898955
30
0
41
1
10
24.8305739100287
20
-1.85112532140934
30
0
41
1
10
24.7223413129474
20
-1.80592738003008
30
0
41
1
10
24.5053232289458
20
-1.71302955949449
30
0
41
1
10
24.3970483085722
20
-1.66554989708837
30
0
41
1
10
23.8568548334801
20
-1.42347070518548
30
0
41
1
10
23.4282694108253
20
-1.2146823013596
30
0
41
1
10
22.7861796218561
20
-0.886887286572119
30
0
41
1
10
22.5722610783459
20
-0.775224507826096
30
0
41
1
10
22.1439919246173
20
-0.548275370000738
30
0
41
1
10
21.9296560497671
20
-0.432960086656124
30
0
41
1
10
21.4997501401637
20
-0.200145026037177
30
0
41
1
10
21.2841848945083
20
-0.0826379005744684
30
0
41
1
10
20.9593860262997
20
0.0943159813339491
30
0
41
1
10
20.8507325675896
20
0.153484517265753
30
0
41
1
10
20.6341672383343
20
0.271114932874895
30
0
41
1
10
20.5261264678276
20
0.329647529045985
30
0
41
1
10
19.9869171832365
20
0.620525818137509
30
0
41
1
10
19.5586717337265
20
0.847397799953796
30
0
41
1
10
19.0236024791555
20
1.11733155638916
30
0
41
1
10
18.9165888374585
20
1.1706158834416
30
0
41
1
10
18.702533256052
20
1.27572846777372
30
0
41
1
10
18.5954918482051
20
1.32755663610354
30
0
41
1
10
18.2740867667354
20
1.48044757002398
30
0
41
1
10
18.0594431113802
20
1.57892089885701
30
0
41
1
10
17.7364047281594
20
1.72058476260301
30
0
41
1
10
17.6285452106833
20
1.76679682506611
30
0
41
1
10
17.4124390725628
20
1.85714210120369
30
0
41
1
10
17.3041936871959
20
1.90127588520727
30
0
41
1
10
16.9786044983033
20
2.03011761753694
30
0
41
1
10
16.7625113910411
20
2.1104343640589
30
0
41
1
10
16.4394279906316
20
2.22207794091301
30
0
41
1
10
16.3319020909764
20
2.25782385905211
30
0
41
1
10
16.1171545829933
20
2.32636153665942
30
0
41
1
10
16.0099324913172
20
2.35915030827164
30
0
41
1
10
15.6884678203522
20
2.45282986219368
30
0
41
1
10
15.4744298703722
20
2.50904402346308
30
0
41
1
10
15.1532778445829
20
2.58362205689079
30
0
41
1
10
15.0462117270132
20
2.60685847258253
30
0
41
1
10
14.832014905388
20
2.65004791913412
30
0
41
1
10
14.7248824240671
20
2.66999741932011
30
0
41
1
10
14.4031348852494
20
2.72472388631601
30
0
41
1
10
14.1881767619395
20
2.75438968443115
30
0
41
1
10
13.8645360930599
20
2.78827726367564
30
0
41
1
10
13.7564566010739
20
2.79780565535717
30
0
41
1
10
13.5398539436726
20
2.81326423594064
30
0
41
1
10
13.4311815076274
20
2.81919212301744
30
0
41
1
10
13.2009031985614
20
2.82783438170296
30
0
41
1
10
13.0792383295717
20
2.83007010199688
30
0
41
1
10
12.957808450065
20
2.82999597098879
30
0
0
SPLINE
5
F5
100
AcDbEntity
8
1
62
256
6
ByLayer
370
18
48
1
60
0
100
AcDbSpline
70
4
71
3
72
24
73
20
40
0
40
0
40
0
40
0
40
0.18494545134522
40
0.18494545134522
40
0.369890902690439
40
0.369890902690439
40
0.462363628363049
40
0.462363628363049
40
0.554836354035659
40
0.554836354035659
40
0.647309079708269
40
0.647309079708269
40
0.739781805380879
40
0.739781805380879
40
0.832254531053489
40
0.832254531053489
40
0.924727256726099
40
0.924727256726099
40
1
40
1
40
1
40
1
41
1
10
4.62394726275565
20
-2.68317301570193
30
0
41
1
10
4.83535286667009
20
-2.67816571939429
30
0
41
1
10
5.04567971099667
20
-2.66634195243748
30
0
41
1
10
5.46468508210731
20
-2.62988799209046
30
0
41
1
10
5.67328014939392
20
-2.60515475459357
30
0
41
1
10
5.98562251413244
20
-2.55951397713133
30
0
41
1
10
6.08964074043951
20
-2.54291489987872
30
0
41
1
10
6.29780980245866
20
-2.50662782885101
30
0
41
1
10
6.40193771831514
20
-2.48688255027139
30
0
41
1
10
6.61024067471749
20
-2.44432182536687
30
0
41
1
10
6.71443283088968
20
-2.42152566028895
30
0
41
1
10
6.92287384993071
20
-2.37309244004143
30
0
41
1
10
7.02710829318823
20
-2.34746833154145
30
0
41
1
10
7.23564070857006
20
-2.29334775309098
30
0
41
1
10
7.33993571053153
20
-2.26483716566852
30
0
41
1
10
7.54877604304596
20
-2.20492561989951
30
0
41
1
10
7.65332385978323
20
-2.17350084574704
30
0
41
1
10
7.8433690376005
20
-2.11405294264529
30
0
41
1
10
7.92882245444025
20
-2.08653413397147
30
0
41
1
10
8.01440732271996
20
-2.05816676120128
30
0
0
SPLINE
5
F6
100
AcDbEntity
8
1
62
256
6
ByLayer
370
18
48
1
60
0
100
AcDbSpline
70
4
71
3
72
130
73
126
40
0
40
0
40
0
40
0
40
0.0083589694750079
40
0.0083589694750079
40
0.0238960878163451
40
0.0238960878163451
40
0.0394332061576824
40
0.0394332061576824
40
0.0549703244990196
40
0.0549703244990196
40
0.070507442840357
40
0.070507442840357
40
0.0860445611816942
40
0.0860445611816942
40
0.101581679523032
40
0.101581679523032
40
0.132655916205707
40
0.132655916205707
40
0.140424475376376
40
0.140424475376376
40
0.148193034547045
40
0.148193034547045
40
0.163730152888381
40
0.163730152888381
40
0.179267271229718
40
0.179267271229718
40
0.194804389571055
40
0.194804389571055
40
0.210341507912392
40
0.210341507912392
40
0.225878626253729
40
0.225878626253729
40
0.256952862936403
40
0.256952862936403
40
0.272489981277739
40
0.272489981277739
40
0.288027099619075
40
0.288027099619075
40
0.303564217960412
40
0.303564217960412
40
0.319101336301748
40
0.319101336301748
40
0.326869895472417
40
0.326869895472417
40
0.334638454643086
40
0.334638454643086
40
0.350175572984424
40
0.350175572984424
40
0.365712691325763
40
0.365712691325763
40
0.381249809667101
40
0.381249809667101
40
0.396786928008439
40
0.396786928008439
40
0.412324046349777
40
0.412324046349777
40
0.427861164691116
40
0.427861164691116
40
0.443398283032453
40
0.443398283032453
40
0.458935401373792
40
0.458935401373792
40
0.47447251971513
40
0.47447251971513
40
0.490009638056468
40
0.490009638056468
40
0.505546756397806
40
0.505546756397806
40
0.521083874739144
40
0.521083874739144
40
0.528852433909814
40
0.528852433909814
40
0.536620993080483
40
0.536620993080483
40
0.552158111421821
40
0.552158111421821
40
0.567695229763159
40
0.567695229763159
40
0.583232348104497
40
0.583232348104497
40
0.598769466445835
40
0.598769466445835
40
0.629843703128513
40
0.629843703128513
40
0.645380821469851
40
0.645380821469851
40
0.660917939811189
40
0.660917939811189
40
0.691992176493865
40
0.691992176493865
40
0.707529294835204
40
0.707529294835204
40
0.715297854005873
40
0.715297854005873
40
0.723066413176542
40
0.723066413176542
40
0.73860353151788
40
0.73860353151788
40
0.754140649859218
40
0.754140649859218
40
0.769677768200557
40
0.769677768200557
40
0.785214886541894
40
0.785214886541894
40
0.800752004883233
40
0.800752004883233
40
0.816289123224571
40
0.816289123224571
40
0.847363359907247
40
0.847363359907247
40
0.862900478248585
40
0.862900478248585
40
0.878437596589923
40
0.878437596589923
40
0.893974714931262
40
0.893974714931262
40
0.90174327410193
40
0.90174327410193
40
0.909511833272598
40
0.909511833272598
40
0.940586069955271
40
0.940586069955271
40
0.971660306637944
40
0.971660306637944
40
1
40
1
40
1
40
1
41
1
10
20.7537384213628
20
2.69338469540094
30
0
41
1
10
20.8097764130051
20
2.69322234067522
30
0
41
1
10
20.8657681142994
20
2.69262351905536
30
0
41
1
10
21.0257040131551
20
2.68965280268557
30
0
41
1
10
21.1295420941584
20
2.68617800286194
30
0
41
1
10
21.3371242869297
20
2.67588559785656
30
0
41
1
10
21.440865397645
20
2.66902378725243
30
0
41
1
10
21.6485278284312
20
2.65194591248599
30
0
41
1
10
21.7524597809048
20
2.64177123441476
30
0
41
1
10
21.9603275975753
20
2.61835305668976
30
0
41
1
10
22.0642871120545
20
2.60511445763848
30
0
41
1
10
22.272183286708
20
2.57585624602066
30
0
41
1
10
22.3761253743835
20
2.55980780459848
30
0
41
1
10
22.5843091962439
20
2.52430086881066
30
0
41
1
10
22.6885259742715
20
2.50488123548669
30
0
41
1
10
23.0016825836937
20
2.44173352299356
30
0
41
1
10
23.2110697630207
20
2.39320029809656
30
0
41
1
10
23.4738193376354
20
2.32594411992832
30
0
41
1
10
23.526437078199
20
2.31214767204807
30
0
41
1
10
23.631609163557
20
2.28384757113329
30
0
41
1
10
23.6841378001969
20
2.26934809334875
30
0
41
1
10
23.8415846655814
20
2.22481954711742
30
0
41
1
10
23.9463631482932
20
2.1937617147679
30
0
41
1
10
24.155602486031
20
2.12905819966306
30
0
41
1
10
24.2600546198065
20
2.09542201629668
30
0
41
1
10
24.4685766770785
20
2.02572407584935
30
0
41
1
10
24.5726454420931
20
1.9896662440878
30
0
41
1
10
24.7804737736332
20
1.91529010112578
30
0
41
1
10
24.8842259952366
20
1.87692961070439
30
0
41
1
10
25.0917667213084
20
1.79818378378465
30
0
41
1
10
25.1955665051439
20
1.75781821908407
30
0
41
1
10
25.5069908478756
20
1.63355927714343
30
0
41
1
10
25.7147457395188
20
1.54676360376166
30
0
41
1
10
26.0261209725279
20
1.41102979699068
30
0
41
1
10
26.1298823725645
20
1.36481914960294
30
0
41
1
10
26.3376600700683
20
1.27062579833634
30
0
41
1
10
26.4416647907043
20
1.22265587355687
30
0
41
1
10
26.649992777161
20
1.12518698083241
30
0
41
1
10
26.7543559009268
20
1.07575838268639
30
0
41
1
10
26.963535680952
20
0.975711591801172
30
0
41
1
10
27.0682917010588
20
0.924996959537367
30
0
41
1
10
27.2255960952322
20
0.847888922774615
30
0
41
1
10
27.2780661126631
20
0.822016952727864
30
0
41
1
10
27.3831217725125
20
0.769964844150536
30
0
41
1
10
27.4357411938076
20
0.743770923207308
30
0
41
1
10
27.593338667499
20
0.665024135058161
30
0
41
1
10
27.6981787678861
20
0.612229788513702
30
0
41
1
10
27.9074311404426
20
0.506077655533232
30
0
41
1
10
28.0118480889442
20
0.45272960818113
30
0
41
1
10
28.2203616499481
20
0.345672395072427
30
0
41
1
10
28.3244369297272
20
0.291919052521962
30
0
41
1
10
28.5323657894749
20
0.184208263432851
30
0
41
1
10
28.6362295328937
20
0.130274854555722
30
0
41
1
10
28.843860852959
20
0.0225197591174435
30
0
41
1
10
28.9476494408902
20
-0.0312627075860803
30
0
41
1
10
29.1552157065795
20
-0.138567037215267
30
0
41
1
10
29.2589929767408
20
-0.192089802870981
30
0
41
1
10
29.4665098479552
20
-0.298940917960095
30
0
41
1
10
29.5702431263774
20
-0.352281886622649
30
0
41
1
10
29.7775679064427
20
-0.459007456606685
30
0
41
1
10
29.8811572265641
20
-0.512395968377831
30
0
41
1
10
30.0885967868555
20
-0.618364939250597
30
0
41
1
10
30.1924988948582
20
-0.670843718004136
30
0
41
1
10
30.4007169709951
20
-0.774710838921635
30
0
41
1
10
30.5049851885749
20
-0.826191570473611
30
0
41
1
10
30.7138545294193
20
-0.928233258312076
30
0
41
1
10
30.8184628966356
20
-0.97877968310064
30
0
41
1
10
31.0278577737621
20
-1.07928303517517
30
0
41
1
10
31.132609193466
20
-1.12931169357987
30
0
41
1
10
31.2901290586343
20
-1.20336403145129
30
0
41
1
10
31.3426278318471
20
-1.22782830907687
30
0
41
1
10
31.4474678756095
20
-1.27621741955943
30
0
41
1
10
31.4998338834434
20
-1.30015728936166
30
0
41
1
10
31.6567879910637
20
-1.37122206518964
30
0
41
1
10
31.7612165941536
20
-1.41761790708165
30
0
41
1
10
31.9698870573406
20
-1.50828250620142
30
0
41
1
10
32.0741292688534
20
-1.55254918312249
30
0
41
1
10
32.2822168791457
20
-1.63964148059583
30
0
41
1
10
32.3860573515278
20
-1.68253475383517
30
0
41
1
10
32.5935928437341
20
-1.7660259789304
30
0
41
1
10
32.6973220816659
20
-1.80649650715881
30
0
41
1
10
33.0084251214777
20
-1.92417788093081
30
0
41
1
10
33.2156684581346
20
-1.99777681919821
30
0
41
1
10
33.5263311407847
20
-2.10210570442368
30
0
41
1
10
33.6298494147524
20
-2.13595135841885
30
0
41
1
10
33.8371073813178
20
-2.2009695081901
30
0
41
1
10
33.9408591255752
20
-2.23201979429555
30
0
41
1
10
34.2527222191771
20
-2.32041880746942
30
0
41
1
10
34.4613878022955
20
-2.3732725191301
30
0
41
1
10
34.7749302743353
20
-2.44526789118197
30
0
41
1
10
34.8795068892679
20
-2.4681128663201
30
0
41
1
10
35.0366582705287
20
-2.50025411856959
30
0
41
1
10
35.0891353208106
20
-2.51060583905758
30
0
41
1
10
35.1940650949679
20
-2.53039512135794
30
0
41
1
10
35.246482442097
20
-2.53983060403286
30
0
41
1
10
35.4036473656973
20
-2.56680074806604
30
0
41
1
10
35.5082973394279
20
-2.58301151330025
30
0
41
1
10
35.7172011908683
20
-2.61239618382049
30
0
41
1
10
35.8214762053733
20
-2.6255672189354
30
0
41
1
10
36.0296538760177
20
-2.64916433178559
30
0
41
1
10
36.1335397010093
20
-2.65965006363007
30
0
41
1
10
36.3409726930234
20
-2.67764149576041
30
0
41
1
10
36.4445483558065
20
-2.68500313285185
30
0
41
1
10
36.6516718879577
20
-2.69596240443974
30
0
41
1
10
36.7552024893185
20
-2.69963909173418
30
0
41
1
10
36.9622987407217
20
-2.7035772274393
30
0
41
1
10
37.0659063195539
20
-2.70384454322709
30
0
41
1
10
37.3769495166289
20
-2.69981131155023
30
0
41
1
10
37.5844775042951
20
-2.69062577782938
30
0
41
1
10
37.8962588801856
20
-2.66749990765058
30
0
41
1
10
38.0002558533803
20
-2.65823434103669
30
0
41
1
10
38.2083594436981
20
-2.63664345301035
30
0
41
1
10
38.3124643703406
20
-2.62432945099835
30
0
41
1
10
38.5208747271198
20
-2.59667161586162
30
0
41
1
10
38.6251702139446
20
-2.58129656394829
30
0
41
1
10
38.7820385800161
20
-2.55585930457872
30
0
41
1
10
38.834401179517
20
-2.54698566085816
30
0
41
1
10
38.9392749649491
20
-2.52840223898241
30
0
41
1
10
38.9917849214805
20
-2.51868623843137
30
0
41
1
10
39.2538523620265
20
-2.46817449245228
30
0
41
1
10
39.462728409313
20
-2.42157342743815
30
0
41
1
10
39.879083713547
20
-2.31735993450135
30
0
41
1
10
40.08649755963
20
-2.25958146001955
30
0
41
1
10
40.4826278273373
20
-2.13910296550418
30
0
41
1
10
40.671568616973
20
-2.07756054742251
30
0
41
1
10
40.860418058062
20
-2.01213997084264
30
0
0
SPLINE
5
F7
100
AcDbEntity
8
1
62
256
6
ByLayer
370
13
48
1
60
0
100
AcDbSpline
70
4
71
3
72
8
73
4
40
0
40
0
40
0
40
0
40
1
40
1
40
1
40
1
41
1
10
3.75160616906771
20
-2.65769691907994
30
0
41
1
10
3.75159575387568
20
-2.67471688767955
30
0
41
1
10
3.7515810295437
20
-2.68330444311735
30
0
41
1
10
3.75156263577929
20
-2.68334776373416
30
0
0
SPLINE
5
F8
100
AcDbEntity
8
1
62
256
6
ByLayer
370
13
48
1
60
0
100
AcDbSpline
70
4
71
3
72
44
73
40
40
0
40
0
40
0
40
0
40
0.0197637218479694
40
0.0197637218479694
40
0.0926925400927295
40
0.0926925400927295
40
0.12915694921511
40
0.12915694921511
40
0.1473891537763
40
0.1473891537763
40
0.16562135833749
40
0.16562135833749
40
0.311478994827008
40
0.311478994827008
40
0.384407813071768
40
0.384407813071768
40
0.457336631316527
40
0.457336631316527
40
0.530265449561286
40
0.530265449561286
40
0.566729858683667
40
0.566729858683667
40
0.603194267806047
40
0.603194267806047
40
0.676123086050811
40
0.676123086050811
40
0.749051904295573
40
0.749051904295573
40
0.785516313417955
40
0.785516313417955
40
0.803748517979146
40
0.803748517979146
40
0.821980722540338
40
0.821980722540338
40
0.894909540785102
40
0.894909540785102
40
0.967838359029864
40
0.967838359029864
40
1
40
1
40
1
40
1
41
1
10
17.7498279014026
20
1.71401896177994
30
0
41
1
10
17.8078315022403
20
1.69095266499437
30
0
41
1
10
17.86585887115
20
1.66755953132622
30
0
41
1
10
18.1381388098154
20
1.55630840379123
30
0
41
1
10
18.3527460616641
20
1.46434943895378
30
0
41
1
10
18.6757718953088
20
1.32049651484758
30
0
41
1
10
18.7836341898172
20
1.27158161336564
30
0
41
1
10
18.9457791038211
20
1.19691616437297
30
0
41
1
10
18.9999188568404
20
1.17179287107112
30
0
41
1
10
19.1081680211825
20
1.12117910728111
30
0
41
1
10
19.1622290000917
20
1.09570954863776
30
0
41
1
10
19.6482584753269
20
0.865123406026498
30
0
41
1
10
20.0768165479623
20
0.650940707153154
30
0
41
1
10
20.7183117779086
20
0.323409622462094
30
0
41
1
10
20.9319388840586
20
0.213222509850453
30
0
41
1
10
21.3594672513837
20
-0.0078199264388843
30
0
41
1
10
21.5733708168457
20
-0.118665600011354
30
0
41
1
10
22.0020738802645
20
-0.339806596481281
30
0
41
1
10
22.2168998591306
20
-0.450048016645354
30
0
41
1
10
22.5404019129896
20
-0.61381956344394
30
0
41
1
10
22.6484486803441
20
-0.668165271744044
30
0
41
1
10
22.8649903785487
20
-0.776174128275272
30
0
41
1
10
22.9731065761864
20
-0.829649234505837
30
0
41
1
10
23.2971190434153
20
-0.988242893924451
30
0
41
1
10
23.512713810969
20
-1.09147518933008
30
0
41
1
10
23.9438107060803
20
-1.29172096910563
30
0
41
1
10
24.1592819354597
20
-1.38880150917737
30
0
41
1
10
24.4829108402674
20
-1.52889037484817
30
0
41
1
10
24.5908573786909
20
-1.57466191643925
30
0
41
1
10
24.7529484179394
20
-1.64181483019397
30
0
41
1
10
24.8070072049082
20
-1.66394917656592
30
0
41
1
10
24.9151925845877
20
-1.70770098793773
30
0
41
1
10
24.9693364956058
20
-1.72932485495031
30
0
41
1
10
25.2398286235369
20
-1.83594237243952
30
0
41
1
10
25.4557722173795
20
-1.91656628499345
30
0
41
1
10
25.8874674779653
20
-2.06745938482933
30
0
41
1
10
26.1032279433244
20
-2.13766875699005
30
0
41
1
10
26.4144576422768
20
-2.23081317616428
30
0
41
1
10
26.5097497469658
20
-2.25823552095261
30
0
41
1
10
26.6051177815315
20
-2.2845373782985
30
0
0
SPLINE
5
F9
100
AcDbEntity
8
1
62
256
6
ByLayer
370
18
48
1
60
0
100
AcDbSpline
70
4
71
3
72
20
73
16
40
0
40
0
40
0
40
0
40
0.0128483375996081
40
0.0128483375996081
40
0.121733367179747
40
0.121733367179747
40
0.339503426340014
40
0.339503426340014
40
0.557273485500283
40
0.557273485500283
40
0.775043544660552
40
0.775043544660552
40
0.992813603820819
40
0.992813603820819
40
1
40
1
40
1
40
1
41
1
10
26.6051177814301
20
-2.28453737827061
30
0
41
1
10
26.6178766622142
20
-2.28805619108681
30
0
41
1
10
26.6306369020381
20
-2.29155494872651
30
0
41
1
10
26.7515491733897
20
-2.32451355817051
30
0
41
1
10
26.8598502313039
20
-2.35255685955363
30
0
41
1
10
27.1837264317251
20
-2.43181207144548
30
0
41
1
10
27.3987754256019
20
-2.47822761298346
30
0
41
1
10
27.8277354473372
20
-2.55801544440465
30
0
41
1
10
28.0416523958266
20
-2.59142327591306
30
0
41
1
10
28.4690705209356
20
-2.64502119397056
30
0
41
1
10
28.6826008517492
20
-2.66512821091854
30
0
41
1
10
29.109879711333
20
-2.69177403872536
30
0
41
1
10
29.3236316993858
20
-2.69835823431464
30
0
41
1
10
29.5449171006506
20
-2.69811838790398
30
0
41
1
10
29.5519867660321
20
-2.69810321690522
30
0
41
1
10
29.5590569858012
20
-2.6980805342269
30
0
0
SPLINE
5
FA
100
AcDbEntity
8
1
62
256
6
ByLayer
370
18
48
1
60
0
100
AcDbSpline
70
4
71
3
72
130
73
126
40
0
40
0
40
0
40
0
40
0.0315188959083007
40
0.0315188959083007
40
0.0630377918166014
40
0.0630377918166014
40
0.0787972397707518
40
0.0787972397707518
40
0.0945566877249022
40
0.0945566877249022
40
0.110316135679053
40
0.110316135679053
40
0.126075583633203
40
0.126075583633203
40
0.141835031587353
40
0.141835031587353
40
0.157594479541504
40
0.157594479541504
40
0.173353927495654
40
0.173353927495654
40
0.181233651472729
40
0.181233651472729
40
0.189113375449804
40
0.189113375449804
40
0.220632271358101
40
0.220632271358101
40
0.23639171931225
40
0.23639171931225
40
0.252151167266398
40
0.252151167266398
40
0.283670063174696
40
0.283670063174696
40
0.299429511128844
40
0.299429511128844
40
0.315188959082993
40
0.315188959082993
40
0.330948407037142
40
0.330948407037142
40
0.34670785499129
40
0.34670785499129
40
0.362467302945439
40
0.362467302945439
40
0.370347026922513
40
0.370347026922513
40
0.378226750899588
40
0.378226750899588
40
0.393986198853737
40
0.393986198853737
40
0.409745646807887
40
0.409745646807887
40
0.425505094762036
40
0.425505094762036
40
0.441264542716186
40
0.441264542716186
40
0.457023990670335
40
0.457023990670335
40
0.472783438624485
40
0.472783438624485
40
0.488542886578634
40
0.488542886578634
40
0.504302334532784
40
0.504302334532784
40
0.520061782486933
40
0.520061782486933
40
0.535821230441083
40
0.535821230441083
40
0.551580678395232
40
0.551580678395232
40
0.559460402372308
40
0.559460402372308
40
0.567340126349383
40
0.567340126349383
40
0.583099574303533
40
0.583099574303533
40
0.598859022257684
40
0.598859022257684
40
0.630377918165984
40
0.630377918165984
40
0.646137366120134
40
0.646137366120134
40
0.661896814074284
40
0.661896814074284
40
0.677656262028434
40
0.677656262028434
40
0.693415709982584
40
0.693415709982584
40
0.709175157936734
40
0.709175157936734
40
0.724934605890884
40
0.724934605890884
40
0.740694053845033
40
0.740694053845033
40
0.756453501799183
40
0.756453501799183
40
0.772212949753333
40
0.772212949753333
40
0.787972397707483
40
0.787972397707483
40
0.803731845661633
40
0.803731845661633
40
0.819491293615783
40
0.819491293615783
40
0.835250741569933
40
0.835250741569933
40
0.851010189524083
40
0.851010189524083
40
0.866769637478233
40
0.866769637478233
40
0.882529085432383
40
0.882529085432383
40
0.898288533386533
40
0.898288533386533
40
0.914047981340683
40
0.914047981340683
40
0.945566877248982
40
0.945566877248982
40
0.953446601226057
40
0.953446601226057
40
0.961326325203132
40
0.961326325203132
40
0.977085773157281
40
0.977085773157281
40
0.99284522111143
40
0.99284522111143
40
1
40
1
40
1
40
1
41
1
10
4.62394726275562
20
2.68317301570193
30
0
41
1
10
4.83535286667009
20
2.67816571939429
30
0
41
1
10
5.04567971099667
20
2.66634195243748
30
0
41
1
10
5.46468508210728
20
2.62988799209046
30
0
41
1
10
5.67328014939389
20
2.6051547545936
30
0
41
1
10
5.98562251413242
20
2.55951397713133
30
0
41
1
10
6.08964074043948
20
2.54291489987872
30
0
41
1
10
6.29780980245863
20
2.50662782885101
30
0
41
1
10
6.40193771831514
20
2.48688255027139
30
0
41
1
10
6.61024067471746
20
2.44432182536687
30
0
41
1
10
6.71443283088965
20
2.42152566028895
30
0
41
1
10
6.92287384993065
20
2.37309244004143
30
0
41
1
10
7.02710829318823
20
2.34746833154145
30
0
41
1
10
7.23564070857006
20
2.29334775309098
30
0
41
1
10
7.33993571053153
20
2.26483716566852
30
0
41
1
10
7.54877604304596
20
2.20492561989954
30
0
41
1
10
7.65332385978323
20
2.17350084574707
30
0
41
1
10
7.86285554733425
20
2.10795738075973
30
0
41
1
10
7.96788411991329
20
2.07391392415875
30
0
41
1
10
8.12570250926274
20
2.02092467212137
30
0
41
1
10
8.17835263558288
20
2.00293789422238
30
0
41
1
10
8.28374273491283
20
1.96633855605947
30
0
41
1
10
8.33648874593015
20
1.94772364045838
30
0
41
1
10
8.59975123011404
20
1.85334362068122
30
0
41
1
10
8.8094435870288
20
1.77343909616604
30
0
41
1
10
9.12307747298362
20
1.64729942075596
30
0
41
1
10
9.22747663999715
20
1.60423960839009
30
0
41
1
10
9.43604884438145
20
1.51629581729867
30
0
41
1
10
9.54022248516694
20
1.47142092351228
30
0
41
1
10
9.85272038235235
20
1.33467811930547
30
0
41
1
10
10.0607896158621
20
1.24024174943855
30
0
41
1
10
10.3732240732499
20
1.09447583008679
30
0
41
1
10
10.4774079891174
20
1.04519884281061
30
0
41
1
10
10.685781559754
20
0.945245641504158
30
0
41
1
10
10.7899541036483
20
0.894550467212298
30
0
41
1
10
10.9983440797377
20
0.791875606058255
30
0
41
1
10
11.1025810241861
20
0.739890839347765
30
0
41
1
10
11.3115496995586
20
0.635200814080321
30
0
41
1
10
11.4163036355003
20
0.582571536538836
30
0
41
1
10
11.6261825255737
20
0.476505541793756
30
0
41
1
10
11.7313164968569
20
0.423084028088567
30
0
41
1
10
11.8893042178066
20
0.342419719963118
30
0
41
1
10
11.9420492207104
20
0.315422639649682
30
0
41
1
10
12.047427623749
20
0.261337902387396
30
0
41
1
10
12.1000478761642
20
0.234250471534551
30
0
41
1
10
12.2577083573937
20
0.152877285274201
30
0
41
1
10
12.3625493004054
20
0.0984959444217566
30
0
41
1
10
12.571894010449
20
-0.0099907044137524
30
0
41
1
10
12.6763959380186
20
-0.0641189300919791
30
0
41
1
10
12.8851241504181
20
-0.172088992005115
30
0
41
1
10
12.989370284435
20
-0.225887981381362
30
0
41
1
10
13.197777358153
20
-0.332873043449695
30
0
41
1
10
13.3018776114863
20
-0.386184219767756
30
0
41
1
10
13.5098489790513
20
-0.492521058587215
30
0
41
1
10
13.6137482724886
20
-0.545473420878551
30
0
41
1
10
13.8216480939683
20
-0.650248095994499
30
0
41
1
10
13.9256289241563
20
-0.702126303251674
30
0
41
1
10
14.1335710201645
20
-0.805109325029775
30
0
41
1
10
14.2375326575282
20
-0.856209873533999
30
0
41
1
10
14.4454869390039
20
-0.957576626847214
30
0
41
1
10
14.5494622611216
20
-1.00787604748103
30
0
41
1
10
14.7575350355454
20
-1.10751526489656
30
0
41
1
10
14.8616841357343
20
-1.15675047629091
30
0
41
1
10
15.0704380887961
20
-1.25342685277755
30
0
41
1
10
15.1750458413349
20
-1.30087342247944
30
0
41
1
10
15.3846377182469
20
-1.39424664397282
30
0
41
1
10
15.48962367475
20
-1.44016789769302
30
0
41
1
10
15.6473444930116
20
-1.50800422429791
30
0
41
1
10
15.6999580118793
20
-1.53044276126482
30
0
41
1
10
15.8052551659466
20
-1.57499375777675
30
0
41
1
10
15.8579464393579
20
-1.5971110144533
30
0
41
1
10
16.0156864155336
20
-1.6627969454639
30
0
41
1
10
16.1205474713237
20
-1.70574903568422
30
0
41
1
10
16.3299711309608
20
-1.78875489390239
30
0
41
1
10
16.4345661992393
20
-1.82876935304174
30
0
41
1
10
16.7481196120274
20
-1.94496415171218
30
0
41
1
10
16.9566282053925
20
-2.01762358506323
30
0
41
1
10
17.2685890392868
20
-2.12039678631694
30
0
41
1
10
17.3724145743431
20
-2.15368039112829
30
0
41
1
10
17.5800914846564
20
-2.21699662986285
30
0
41
1
10
17.6839774435598
20
-2.24692560145346
30
0
41
1
10
17.8917778316962
20
-2.30399368381509
30
0
41
1
10
17.9956599327286
20
-2.33119526772165
30
0
41
1
10
18.2035379006226
20
-2.38295690489758
30
0
41
1
10
18.307566717284
20
-2.40748800171718
30
0
41
1
10
18.5155835461584
20
-2.45422027747642
30
0
41
1
10
18.6195480405356
20
-2.47651272361912
30
0
41
1
10
18.8278763991875
20
-2.51765141699988
30
0
41
1
10
18.9323180339017
20
-2.53629594491613
30
0
41
1
10
19.1416126650763
20
-2.57026834111039
30
0
41
1
10
19.246417778381
20
-2.58570784164169
30
0
41
1
10
19.4562787842271
20
-2.6137533506346
30
0
41
1
10
19.5613435688059
20
-2.62634896569625
30
0
41
1
10
19.7717984741129
20
-2.64867766787793
30
0
41
1
10
19.8768557459274
20
-2.65842208590232
30
0
41
1
10
20.0866049969939
20
-2.67439514501873
30
0
41
1
10
20.1913184345972
20
-2.68050397394541
30
0
41
1
10
20.4005012559594
20
-2.6891453107153
30
0
41
1
10
20.5049609466367
20
-2.69175357671784
30
0
41
1
10
20.713578791506
20
-2.69392607415048
30
0
41
1
10
20.8177249492474
20
-2.69351589292449
30
0
41
1
10
21.0257040131551
20
-2.68965280268557
30
0
41
1
10
21.1295420941584
20
-2.68617800286194
30
0
41
1
10
21.3371242869297
20
-2.67588559785656
30
0
41
1
10
21.440865397645
20
-2.66902378725243
30
0
41
1
10
21.6485278284312
20
-2.65194591248599
30
0
41
1
10
21.7524597809048
20
-2.64177123441476
30
0
41
1
10
21.9603275975753
20
-2.61835305668976
30
0
41
1
10
22.0642871120545
20
-2.60511445763848
30
0
41
1
10
22.272183286708
20
-2.57585624602066
30
0
41
1
10
22.3761253743835
20
-2.55980780459848
30
0
41
1
10
22.5843091962439
20
-2.52430086881066
30
0
41
1
10
22.6885259742716
20
-2.50488123548666
30
0
41
1
10
23.0016825836937
20
-2.44173352299356
30
0
41
1
10
23.2110697630207
20
-2.39320029809656
30
0
41
1
10
23.4738193376354
20
-2.32594411992832
30
0
41
1
10
23.526437078199
20
-2.31214767204807
30
0
41
1
10
23.631609163557
20
-2.28384757113329
30
0
41
1
10
23.684137800197
20
-2.26934809334875
30
0
41
1
10
23.8415846655815
20
-2.22481954711739
30
0
41
1
10
23.9463631482933
20
-2.1937617147679
30
0
41
1
10
24.1556024860311
20
-2.12905819966306
30
0
41
1
10
24.2600546198065
20
-2.09542201629665
30
0
41
1
10
24.4116500860926
20
-2.04475163677174
30
0
41
1
10
24.4589448952503
20
-2.02868106249585
30
0
41
1
10
24.5062036004067
20
-2.01236868038049
30
0
0
SPLINE
5
FB
100
AcDbEntity
8
1
62
256
6
ByLayer
370
18
48
1
60
0
100
AcDbSpline
70
4
71
3
72
44
73
40
40
0
40
0
40
0
40
0
40
0.0105541525099428
40
0.0105541525099428
40
0.0930079731341106
40
0.0930079731341106
40
0.134234883446194
40
0.134234883446194
40
0.175461793758279
40
0.175461793758279
40
0.216688704070363
40
0.216688704070363
40
0.237302159226407
40
0.237302159226407
40
0.257915614382451
40
0.257915614382451
40
0.340369435006623
40
0.340369435006623
40
0.422823255630796
40
0.422823255630796
40
0.505277076254968
40
0.505277076254968
40
0.58773089687914
40
0.58773089687914
40
0.628957807191226
40
0.628957807191226
40
0.670184717503312
40
0.670184717503312
40
0.711411627815398
40
0.711411627815398
40
0.752638538127484
40
0.752638538127484
40
0.835092358751656
40
0.835092358751656
40
0.876319269063742
40
0.876319269063742
40
0.917546179375828
40
0.917546179375828
40
1
40
1
40
1
40
1
41
1
10
37.0899740607613
20
2.70321425367365
30
0
41
1
10
37.1165071764641
20
2.70308284764556
30
0
41
1
10
37.1430448728085
20
2.70284430384098
30
0
41
1
10
37.3769495166289
20
2.69981131155023
30
0
41
1
10
37.5844775042951
20
2.69062577782938
30
0
41
1
10
37.8962588801857
20
2.66749990765055
30
0
41
1
10
38.0002558533803
20
2.65823434103669
30
0
41
1
10
38.2083594436981
20
2.63664345301032
30
0
41
1
10
38.3124643703407
20
2.62432945099835
30
0
41
1
10
38.5208747271199
20
2.59667161586159
30
0
41
1
10
38.6251702139446
20
2.58129656394826
30
0
41
1
10
38.7820385800163
20
2.55585930457872
30
0
41
1
10
38.8344011795171
20
2.54698566085816
30
0
41
1
10
38.9392749649492
20
2.52840223898241
30
0
41
1
10
38.9917849214806
20
2.51868623843134
30
0
41
1
10
39.2538523620265
20
2.46817449245228
30
0
41
1
10
39.462728409313
20
2.42157342743812
30
0
41
1
10
39.879083713547
20
2.31735993450135
30
0
41
1
10
40.0864975596301
20
2.25958146001955
30
0
41
1
10
40.5008598375215
20
2.13355790793591
30
0
41
1
10
40.7080309503869
20
2.06564594310271
30
0
41
1
10
41.1221342604541
20
1.9205424748011
30
0
41
1
10
41.3291285550231
20
1.84338412927016
30
0
41
1
10
41.6399953935298
20
1.72070039754098
30
0
41
1
10
41.7436870878223
20
1.67865794148557
30
0
41
1
10
41.9513052997992
20
1.59246596819912
30
0
41
1
10
42.0552142241314
20
1.54828621185902
30
0
41
1
10
42.2634627820812
20
1.45819624547326
30
0
41
1
10
42.3677947536582
20
1.41228416810401
30
0
41
1
10
42.5768265264054
20
1.31855628534259
30
0
41
1
10
42.6815511942416
20
1.27078152236217
30
0
41
1
10
42.996549624866
20
1.12490744689154
30
0
41
1
10
43.2058291200291
20
1.02509177769633
30
0
41
1
10
43.5187145948876
20
0.872019305152065
30
0
41
1
10
43.6228515068905
20
0.82044798160706
30
0
41
1
10
43.8309224841301
20
0.716422230721577
30
0
41
1
10
43.9349061991528
20
0.66405581152236
30
0
41
1
10
44.2467990389361
20
0.506077659760678
30
0
41
1
10
44.4544620013816
20
0.399258129172438
30
0
41
1
10
44.6622623467093
20
0.291607254556539
30
0
0
SPLINE
5
FC
100
AcDbEntity
8
1
62
256
6
ByLayer
370
18
48
1
60
0
100
AcDbSpline
70
4
71
3
72
8
73
4
40
0
40
0
40
0
40
0
40
1
40
1
40
1
40
1
41
1
10
4.37577429000513
20
2.68588970411497
30
0
41
1
10
4.45790617139025
20
2.68610811118441
30
0
41
1
10
4.54065072769814
20
2.68515152283891
30
0
41
1
10
4.62394221023831
20
2.68317307473069
30
0
0
SPLINE
5
FD
100
AcDbEntity
8
1
62
256
6
ByLayer
370
13
48
1
60
0
100
AcDbSpline
70
4
71
3
72
40
73
36
40
0
40
0
40
0
40
0
40
0.0334372385311145
40
0.0334372385311145
40
0.0679573371550032
40
0.0679573371550032
40
0.102477435778892
40
0.102477435778892
40
0.17151763302667
40
0.17151763302667
40
0.309598027522225
40
0.309598027522225
40
0.32685807683417
40
0.32685807683417
40
0.344118126146114
40
0.378638224770003
40
0.378638224770003
40
0.447678422017781
40
0.516718619265559
40
0.533978668577503
40
0.533978668577503
40
0.551238717889447
40
0.551238717889447
40
0.585758816513336
40
0.585758816513336
40
0.72383921100889
40
0.72383921100889
40
0.792879408256667
40
0.792879408256667
40
0.810139457568612
40
0.810139457568612
40
0.827399506880557
40
0.861919605504445
40
0.861919605504445
40
1
40
1
40
1
40
1
41
1
10
3.75156233077075
20
2.68334769986552
30
0
41
1
10
3.75155640783967
20
2.68333130278919
30
0
41
1
10
3.75155010646398
20
2.68243278856954
30
0
41
1
10
3.7515365736223
20
2.67880632221241
30
0
41
1
10
3.75152931127624
20
2.67601146799547
30
0
41
1
10
3.75151405134642
20
2.66848403257586
30
0
41
1
10
3.75150610958158
20
2.66377940111696
30
0
41
1
10
3.75148142370062
20
2.64689923595711
30
0
41
1
10
3.75146382341177
20
2.63196322911512
30
0
41
1
10
3.75140801856097
20
2.57633620638586
30
0
41
1
10
3.7513668747126
20
2.52491852717145
30
0
41
1
10
3.75131651437343
20
2.45038946346091
30
0
41
1
10
3.751310853717
20
2.44186374971082
30
0
41
1
10
3.75129945874627
20
2.42440654155999
30
0
41
1
10
3.75128225494831
20
2.39761223310802
30
0
41
1
10
3.75126472010209
20
2.36901005817049
30
0
41
1
10
3.75122920618313
20
2.30942699099913
30
0
41
1
10
3.75118067701598
20
2.22364953096763
30
0
41
1
10
3.75112319782343
20
2.11300356552886
30
0
41
1
10
3.75109008710331
20
2.0465319828954
30
0
41
1
10
3.75107674263998
20
2.01953834990817
30
0
41
1
10
3.75107001215343
20
2.00582199655045
30
0
41
1
10
3.75104973980837
20
1.96421811974
30
0
41
1
10
3.75103611634282
20
1.93587559464422
30
0
41
1
10
3.75096737246062
20
1.79118750329531
30
0
41
1
10
3.75091042560999
20
1.66598984317952
30
0
41
1
10
3.75081985824707
20
1.46420012936653
30
0
41
1
10
3.75078880115097
20
1.39459028353804
30
0
41
1
10
3.75074856930351
20
1.30454981143819
30
0
41
1
10
3.75074045071264
20
1.28638691191514
30
0
41
1
10
3.75072414029009
20
1.24992774859095
30
0
41
1
10
3.75069953652272
20
1.1949756830391
30
0
41
1
10
3.75067448738577
20
1.13924002970012
30
0
41
1
10
3.75058985707071
20
0.951730762456805
30
0
41
1
10
3.7505185667597
20
0.796251443273292
30
0
41
1
10
3.7504415757488
20
0.635170191752735
30
0
0
SPLINE
5
FE
100
AcDbEntity
8
1
62
256
6
ByLayer
370
13
48
1
60
0
100
AcDbSpline
70
4
71
3
72
29
73
25
40
0
40
0
40
0
40
0
40
0.0265083229088391
40
0.0265083229088391
40
0.0530166458176775
40
0.0530166458176775
40
0.106033291635356
40
0.106033291635356
40
0.21206658327071
40
0.21206658327071
40
0.318099874906065
40
0.318099874906065
40
0.42413316654142
40
0.42413316654142
40
0.636199749812132
40
0.636199749812132
40
0.66270807272097
40
0.66270807272097
40
0.689216395629807
40
0.742233041447482
40
0.742233041447482
40
0.848266333082831
40
0.848266333082831
40
1
40
1
40
1
40
1
41
1
10
3.75044157574877
20
0.635170191752735
30
0
41
1
10
3.80462737313536
20
0.60806362232077
30
0
41
1
10
3.8588162350558
20
0.580855300107402
30
0
41
1
10
3.9672091019402
20
0.526252949681208
30
0
41
1
10
4.02142356390033
20
0.498853549774253
30
0
41
1
10
4.18381905270817
20
0.416548589706764
30
0
41
1
10
4.29184256751503
20
0.36149007811261
30
0
41
1
10
4.61531592847535
20
0.195987148298457
30
0
41
1
10
4.83016812322782
20
0.0852149423383537
30
0
41
1
10
5.25896617051387
20
-0.13586429705677
30
0
41
1
10
5.47291268228079
20
-0.246173579647291
30
0
41
1
10
5.9006192195171
20
-0.464937967540777
30
0
41
1
10
6.11441834143207
20
-0.573308710891439
30
0
41
1
10
6.75656163429744
20
-0.893589309692175
30
0
41
1
10
7.18558184936219
20
-1.10080919849238
30
0
41
1
10
7.67236579652914
20
-1.32082749700587
30
0
41
1
10
7.7265472338876
20
-1.34510632428086
30
0
41
1
10
7.83486067330688
20
-1.39319772798035
30
0
41
1
10
7.99714589747413
20
-1.46458724540295
30
0
41
1
10
8.15892749262724
20
-1.53366802409178
30
0
41
1
10
8.48195203675138
20
-1.66857291883588
30
0
41
1
10
8.69658074561622
20
-1.75417525234806
30
0
41
1
10
9.21740657403336
20
-1.95058890131634
30
0
41
1
10
9.52322355639558
20
-2.05636383053465
30
0
41
1
10
9.82923685899206
20
-2.15106786803182
30
0
0
SPLINE
5
FF
100
AcDbEntity
8
1
62
256
6
ByLayer
370
18
48
1
60
0
100
AcDbSpline
70
4
71
3
72
24
73
20
40
0
40
0
40
0
40
0
40
0.109633895078038
40
0.109633895078038
40
0.302312109592603
40
0.302312109592603
40
0.49499032410717
40
0.49499032410717
40
0.543159877735814
40
0.543159877735814
40
0.591329431364456
40
0.591329431364456
40
0.687668538621748
40
0.687668538621748
40
0.784007645879039
40
0.784007645879039
40
0.88034675313633
40
0.88034675313633
40
1
40
1
40
1
40
1
41
1
10
9.82923672803389
20
-2.15106782750326
30
0
41
1
10
9.95091494213065
20
-2.18872442098811
30
0
41
1
10
10.0726241953761
20
-2.22463065343251
30
0
41
1
10
10.4084860439104
20
-2.31860162068637
30
0
41
1
10
10.622831637245
20
-2.37284078763287
30
0
41
1
10
11.0527962858821
20
-2.46919423355365
30
0
41
1
10
11.2684364072611
20
-2.51137440207694
30
0
41
1
10
11.5392259266886
20
-2.55602119575411
30
0
41
1
10
11.5933876380252
20
-2.56453544823779
30
0
41
1
10
11.7015318036477
20
-2.58070048000258
30
0
41
1
10
11.755544274553
20
-2.58835625514379
30
0
41
1
10
11.9174196016215
20
-2.61004226815277
30
0
41
1
10
12.025119645985
20
-2.62279015438548
30
0
41
1
10
12.2401784429073
20
-2.6448638852747
30
0
41
1
10
12.347539805476
20
-2.65419910832478
30
0
41
1
10
12.562048631617
20
-2.66952449070104
30
0
41
1
10
12.6691923150587
20
-2.67550238232192
30
0
41
1
10
12.9092093958994
20
-2.68504813564852
30
0
41
1
10
13.0420372771765
20
-2.68769130167459
30
0
41
1
10
13.1748131556645
20
-2.68769247109003
30
0
0
SPLINE
5
100
100
AcDbEntity
8
1
62
256
6
ByLayer
370
13
48
1
60
0
100
AcDbSpline
70
4
71
3
72
53
73
49
40
0
40
0
40
0
40
0
40
0.0095790271289541
40
0.0095790271289541
40
0.0243614297091202
40
0.0243614297091202
40
0.053926234869449
40
0.053926234869449
40
0.11305584519011
40
0.11305584519011
40
0.17218545551077
40
0.17218545551077
40
0.231315065831431
40
0.231315065831431
40
0.290444676152092
40
0.290444676152092
40
0.349574286472752
40
0.349574286472752
40
0.379139091633082
40
0.379139091633082
40
0.408703896793413
40
0.408703896793413
40
0.46783350711407
40
0.46783350711407
40
0.526963117434728
40
0.526963117434728
40
0.586092727755385
40
0.586092727755385
40
0.645222338076043
40
0.645222338076043
40
0.7043519483967
40
0.7043519483967
40
0.719134350976866
40
0.719134350976866
40
0.733916753557031
40
0.733916753557031
40
0.763481558717361
40
0.763481558717361
40
0.881740779358682
40
0.881740779358682
40
0.940870389679342
40
0.940870389679342
40
0.970435194839671
40
0.985217597419834
40
0.992608798709916
40
0.996304399354958
40
0.996304399354958
40
1
40
1
40
1
40
1
41
1
10
34.1009679260393
20
1.72006851370858
30
0
41
1
10
34.1359484838083
20
1.70608163520572
30
0
41
1
10
34.1709525618136
20
1.6919680288911
30
0
41
1
10
34.2600386144951
20
1.65575731995637
30
0
41
1
10
34.3141694489917
20
1.63348164438517
30
0
41
1
10
34.4762586841666
20
1.56599699802882
30
0
41
1
10
34.5840746151516
20
1.52006486989705
30
0
41
1
10
34.9069354018244
20
1.37969370130722
30
0
41
1
10
35.1214192451602
20
1.2827121222019
30
0
41
1
10
35.5494530112752
20
1.08303513273657
30
0
41
1
10
35.763009397585
20
0.980365210159647
30
0
41
1
10
36.1899188922913
20
0.770704894951223
30
0
41
1
10
36.4033163671993
20
0.663780670698372
30
0
41
1
10
36.8305606028391
20
0.446806096179756
30
0
41
1
10
37.0444129343324
20
0.336766944533849
30
0
41
1
10
37.4732413213888
20
0.114857833226182
30
0
41
1
10
37.6882160964129
20
0.0029887906762553
30
0
41
1
10
38.0120458979011
20
-0.165166531554604
30
0
41
1
10
38.1203439070279
20
-0.221340177748146
30
0
41
1
10
38.3362188303634
20
-0.332964264402648
30
0
41
1
10
38.4439223727697
20
-0.388483442926912
30
0
41
1
10
38.7664898170449
20
-0.553874414812782
30
0
41
1
10
38.9808259965533
20
-0.662550388830937
30
0
41
1
10
39.4086435944215
20
-0.875652534192255
30
0
41
1
10
39.6221288619079
20
-0.980073501686519
30
0
41
1
10
40.0489230194684
20
-1.18347331134666
30
0
41
1
10
40.2622473365092
20
-1.28243795829457
30
0
41
1
10
40.6894784093373
20
-1.47362821363777
30
0
41
1
10
40.9033742713357
20
-1.56586147343543
30
0
41
1
10
41.3323619372304
20
-1.74244684855708
30
0
41
1
10
41.5474551406872
20
-1.8268016248831
30
0
41
1
10
41.8175138749886
20
-1.92655829399163
30
0
41
1
10
41.8716278932676
20
-1.94623965137271
30
0
41
1
10
41.979687534358
20
-1.98490576844702
30
0
41
1
10
42.033650315208
20
-2.0038974025957
30
0
41
1
10
42.1953550539606
20
-2.05983182526947
30
0
41
1
10
42.3029138525644
20
-2.09573313885249
30
0
41
1
10
42.8397024242511
20
-2.26811179867653
30
0
41
1
10
43.2658487521072
20
-2.38320266441718
30
0
41
1
10
43.9044623729771
20
-2.51855224302457
30
0
41
1
10
44.1172279459945
20
-2.55743942141567
30
0
41
1
10
44.4366365262173
20
-2.60599536680019
30
0
41
1
10
44.5964057831233
20
-2.62783506357925
30
0
41
1
10
44.7830092965028
20
-2.64899405537582
30
0
41
1
10
44.8763737579588
20
-2.65848662070349
30
0
41
1
10
44.9164017278154
20
-2.66232122736184
30
0
41
1
10
44.9430904235886
20
-2.66482563256975
30
0
41
1
10
44.9564196706524
20
-2.66605235289026
30
0
41
1
10
44.9697945716618
20
-2.66724966072198
30
0
0
SPLINE
5
101
100
AcDbEntity
8
1
62
256
6
ByLayer
370
18
48
1
60
0
100
AcDbSpline
70
4
71
3
72
45
73
41
40
0
40
0
40
0
40
0
40
0.0625000000000021
40
0.0625000000000021
40
0.125000000000004
40
0.125000000000004
40
0.156250000000005
40
0.156250000000005
40
0.187500000000006
40
0.187500000000006
40
0.250000000000008
40
0.250000000000008
40
0.312500000000011
40
0.312500000000011
40
0.375000000000013
40
0.375000000000013
40
0.390625000000013
40
0.390625000000013
40
0.406250000000014
40
0.437500000000014
40
0.437500000000014
40
0.500000000000015
40
0.562500000000015
40
0.562500000000015
40
0.593750000000015
40
0.593750000000015
40
0.609375000000014
40
0.609375000000014
40
0.625000000000014
40
0.687500000000011
40
0.750000000000009
40
0.812500000000007
40
0.812500000000007
40
0.843750000000006
40
0.843750000000006
40
0.875000000000004
40
0.875000000000004
40
0.937500000000002
40
0.937500000000002
40
1
40
1
40
1
40
1
41
1
10
44.6622623467094
20
0.29160725455651
30
0
41
1
10
44.6580156985885
20
0.206854698965998
30
0
41
1
10
44.656254086673
20
0.122099286561934
30
0
41
1
10
44.656787366401
20
-0.0474203484090481
30
0
41
1
10
44.65908359237
20
-0.13218456628411
30
0
41
1
10
44.6649708340326
20
-0.259339990445852
30
0
41
1
10
44.6673411428269
20
-0.301726650292011
30
0
41
1
10
44.6728049965799
20
-0.386503457219561
30
0
41
1
10
44.6759080028418
20
-0.428999008122076
30
0
41
1
10
44.686066135214
20
-0.55528198032161
30
0
41
1
10
44.6939726867666
20
-0.638107501473286
30
0
41
1
10
44.711240970577
20
-0.801194037136639
30
0
41
1
10
44.7206043001099
20
-0.881454635863378
30
0
41
1
10
44.7401248861769
20
-1.03948281760415
30
0
41
1
10
44.7502830556219
20
-1.11725039838515
30
0
41
1
10
44.7631329398917
20
-1.21289489671938
30
0
41
1
10
44.7657125696987
20
-1.23195834296172
30
0
41
1
10
44.7708543718765
20
-1.26974128294827
30
0
41
1
10
44.7785497612051
20
-1.32596518814552
30
0
41
1
10
44.7861603602043
20
-1.38085501852112
30
0
41
1
10
44.8011941290168
20
-1.48888843542929
30
0
41
1
10
44.8207315329305
20
-1.62828503672995
30
0
41
1
10
44.8386647650828
20
-1.75851092750071
30
0
41
1
10
44.851384790214
20
-1.85268354942437
30
0
41
1
10
44.8555040471933
20
-1.88349054964755
30
0
41
1
10
44.8614942928915
20
-1.92880784656614
30
0
41
1
10
44.8634622227532
20
-1.94378433901687
30
0
41
1
10
44.8673205167371
20
-1.97332580542948
30
0
41
1
10
44.8767707685589
20
-2.04612655270921
30
0
41
1
10
44.8920377840937
20
-2.1678208753566
30
0
41
1
10
44.9092224087786
20
-2.31057814526994
30
0
41
1
10
44.9191651084601
20
-2.39268880553948
30
0
41
1
10
44.9263806571149
20
-2.44922099938998
30
0
41
1
10
44.9287517485425
20
-2.46725617460399
30
0
41
1
10
44.9334447078771
20
-2.50131419994966
30
0
41
1
10
44.935769963137
20
-2.51736613401985
30
0
41
1
10
44.9427974191478
20
-2.56262494615035
30
0
41
1
10
44.9475482088681
20
-2.58894077750608
30
0
41
1
10
44.9578639239881
20
-2.63389335984391
30
0
41
1
10
44.9634284580254
20
-2.65252836715589
30
0
41
1
10
44.9697945716618
20
-2.66724966072198
30
0
0
SPLINE
5
102
100
AcDbEntity
8
1
62
256
6
ByLayer
370
18
48
1
60
0
100
AcDbSpline
70
4
71
3
72
27
73
23
40
0
40
0
40
0
40
0
40
0.125000000000016
40
0.125000000000016
40
0.250000000000032
40
0.250000000000032
40
0.312500000000022
40
0.312500000000022
40
0.375000000000012
40
0.437500000000002
40
0.437500000000002
40
0.499999999999992
40
0.499999999999992
40
0.624999999999914
40
0.624999999999914
40
0.687499999999908
40
0.687499999999908
40
0.749999999999901
40
0.749999999999901
40
0.87499999999995
40
0.87499999999995
40
1
40
1
40
1
40
1
41
1
10
3.52515195802349
20
-2.80042619822916
30
0
41
1
10
3.52952765002979
20
-2.7904876614534
30
0
41
1
10
3.53462241662427
20
-2.78046667918826
30
0
41
1
10
3.54621457334099
20
-2.76089288223426
30
0
41
1
10
3.55272931829714
20
-2.75127951216265
30
0
41
1
10
3.56385160561254
20
-2.73718335553863
30
0
41
1
10
3.56780059557002
20
-2.73252580054293
30
0
41
1
10
3.57605319774481
20
-2.72351354100689
30
0
41
1
10
3.58468890715938
20
-2.7147638478996
30
0
41
1
10
3.59415585432427
20
-2.7065832859447
30
0
41
1
10
3.60408387544328
20
-2.6987181143482
30
0
41
1
10
3.6093039031424
20
-2.69493125864309
30
0
41
1
10
3.62523386022249
20
-2.68441753530016
30
0
41
1
10
3.63634343519033
20
-2.6784173373664
30
0
41
1
10
3.65375814613932
20
-2.67096389117083
30
0
41
1
10
3.65971603107985
20
-2.66873340729373
30
0
41
1
10
3.67153423559273
20
-2.66490607131095
30
0
41
1
10
3.67743403458636
20
-2.66328944831164
30
0
41
1
10
3.69510766492343
20
-2.65925706749709
30
0
41
1
10
3.70693972529619
20
-2.65766228037779
30
0
41
1
10
3.72974337043809
20
-2.65638502084036
30
0
41
1
10
3.74080986902075
20
-2.65666897702002
30
0
41
1
10
3.75160616906774
20
-2.65769691905874
30
0
0
SPLINE
5
103
100
AcDbEntity
8
1
62
256
6
ByLayer
370
18
48
1
60
0
100
AcDbSpline
70
4
71
3
72
10
73
6
40
0
40
0
40
0
40
0
40
0.5
40
0.5
40
1
40
1
40
1
40
1
41
1
10
3.75160616917313
20
-2.65769691906877
30
0
41
1
10
3.8923549223129
20
-2.67109795086572
30
0
41
1
10
4.03576274204849
20
-2.6791564225272
30
0
41
1
10
4.32683203339553
20
-2.68698299259989
30
0
41
1
10
4.47450687558512
20
-2.68672265802698
30
0
41
1
10
4.62394221023831
20
-2.68317307473069
30
0
0
SPLINE
5
104
100
AcDbEntity
8
1
62
256
6
ByLayer
370
18
48
1
60
0
100
AcDbSpline
70
4
71
3
72
10
73
6
40
0
40
0
40
0
40
0
40
0.360740610662724
40
0.360740610662724
40
1
40
1
40
1
40
1
41
1
10
7.4103865680942
20
-1.81033830364493
30
0
41
1
10
7.07251739505782
20
-1.91304647116041
30
0
41
1
10
6.73566213757891
20
-2.01671318044029
30
0
41
1
10
5.80486694473589
20
-2.30621961525665
30
0
41
1
10
5.2129697967224
20
-2.49376900569442
30
0
41
1
10
4.62394726275514
20
-2.68317301570207
30
0
0
SPLINE
5
105
100
AcDbEntity
8
1
62
256
6
ByLayer
370
18
48
1
60
0
100
AcDbSpline
70
4
71
3
72
101
73
97
40
0
40
0
40
0
40
0
40
0.0624999999999382
40
0.0624999999999382
40
0.0937499999999073
40
0.0937499999999073
40
0.109374999999892
40
0.109374999999892
40
0.124999999999876
40
0.124999999999876
40
0.156249999999845
40
0.156249999999845
40
0.17187499999983
40
0.17187499999983
40
0.187499999999814
40
0.187499999999814
40
0.218749999999785
40
0.218749999999785
40
0.234374999999771
40
0.234374999999771
40
0.242187499999765
40
0.242187499999765
40
0.249999999999758
40
0.249999999999758
40
0.281249999999733
40
0.281249999999733
40
0.289062499999727
40
0.289062499999727
40
0.296874999999721
40
0.296874999999721
40
0.312499999999708
40
0.328124999999696
40
0.328124999999696
40
0.33593749999969
40
0.33593749999969
40
0.343749999999683
40
0.343749999999683
40
0.374999999999659
40
0.374999999999659
40
0.382812499999653
40
0.382812499999653
40
0.390624999999646
40
0.390624999999646
40
0.406249999999635
40
0.406249999999635
40
0.437499999999611
40
0.437499999999611
40
0.453124999999601
40
0.453124999999601
40
0.46874999999959
40
0.46874999999959
40
0.499999999999569
40
0.499999999999569
40
0.531249999999547
40
0.531249999999547
40
0.562499999999526
40
0.562499999999526
40
0.593749999999505
40
0.593749999999505
40
0.624999999999483
40
0.624999999999483
40
0.640624999999474
40
0.644531249999473
40
0.644531249999473
40
0.646484374999472
40
0.646484374999472
40
0.648437499999471
40
0.648437499999471
40
0.650390624999471
40
0.650390624999471
40
0.651367187499472
40
0.651367187499472
40
0.652343749999473
40
0.652343749999473
40
0.654296874999475
40
0.654296874999475
40
0.656249999999476
40
0.656249999999476
40
0.660156249999483
40
0.660156249999483
40
0.664062499999489
40
0.664062499999489
40
0.6718749999995
40
0.6718749999995
40
0.687499999999523
40
0.74999999999962
40
0.74999999999962
40
0.812499999999716
40
0.812499999999716
40
0.843749999999764
40
0.843749999999764
40
0.874999999999812
40
0.874999999999812
40
0.937499999999906
40
0.937499999999906
40
1
40
1
40
1
40
1
41
1
10
3.5251519580159
20
-2.80042619824496
30
0
41
1
10
3.38474829595049
20
-2.78884164717644
30
0
41
1
10
3.24694469533046
20
-2.77264840150673
30
0
41
1
10
3.04539519753868
20
-2.73899065082938
30
0
41
1
10
2.97907787348967
20
-2.72619789416734
30
0
41
1
10
2.88115574874806
20
-2.70415888390897
30
0
41
1
10
2.84874660227447
20
-2.696328449432
30
0
41
1
10
2.78463293309207
20
-2.67964048556564
30
0
41
1
10
2.75299178935546
20
-2.67080042795226
30
0
41
1
10
2.65943162096662
20
-2.64264887079952
30
0
41
1
10
2.59886464480385
20
-2.62171934530099
30
0
41
1
10
2.5113502754937
20
-2.58631701137378
30
0
41
1
10
2.48273728840681
20
-2.57384530131387
30
0
41
1
10
2.42677315422858
20
-2.54738425851724
30
0
41
1
10
2.39941285801336
20
-2.53338374818205
30
0
41
1
10
2.32020400416687
20
-2.48920391064897
30
0
41
1
10
2.27095824375348
20
-2.45676262407224
30
0
41
1
10
2.20382416738218
20
-2.40245302443623
30
0
41
1
10
2.18257460941282
20
-2.38340360912792
30
0
41
1
10
2.1526458063544
20
-2.35320037278953
30
0
41
1
10
2.14299447050021
20
-2.34286055701648
30
0
41
1
10
2.12439363405818
20
-2.3215938072276
30
0
41
1
10
2.11542861912866
20
-2.31064634641584
30
0
41
1
10
2.07268658335619
20
-2.25455268902891
30
0
41
1
10
2.04558500797756
20
-2.20602225937728
30
0
41
1
10
2.02229980940996
20
-2.13993964338425
30
0
41
1
10
2.01817545706692
20
-2.12645066661349
30
0
41
1
10
2.01104939285565
20
-2.09889984492111
30
0
41
1
10
2.00804026902617
20
-2.08478855239216
30
0
41
1
10
2.00085364822533
20
-2.04193774954271
30
0
41
1
10
1.99617527345561
20
-1.98365173129648
30
0
41
1
10
2.0011962893945
20
-1.92311115644532
30
0
41
1
10
2.00858492575875
20
-1.87687342830216
30
0
41
1
10
2.01165188365198
20
-1.86132208476292
30
0
41
1
10
2.01899470288194
20
-1.8299434608958
30
0
41
1
10
2.02328792281207
20
-1.81406303144649
30
0
41
1
10
2.047537578717
20
-1.73474153328743
30
0
41
1
10
2.07567529268147
20
-1.67164374528599
30
0
41
1
10
2.11979549228201
20
-1.59319802453933
30
0
41
1
10
2.12907024788021
20
-1.57753027375816
30
0
41
1
10
2.14848372951488
20
-1.54623726939803
30
0
41
1
10
2.15858379626803
20
-1.5306760499841
30
0
41
1
10
2.18984708523044
20
-1.48443208760051
30
0
41
1
10
2.21202491613317
20
-1.45409948316231
30
0
41
1
10
2.28201668896182
20
-1.36440040916523
30
0
41
1
10
2.33326271023705
20
-1.3063234747988
30
0
41
1
10
2.41550929930821
20
-1.22127041787704
30
0
41
1
10
2.44382880445281
20
-1.1932658338973
30
0
41
1
10
2.50209769988516
20
-1.13788790080605
30
0
41
1
10
2.53185615308266
20
-1.11069646362944
30
0
41
1
10
2.62259494755534
20
-1.03058945284803
30
0
41
1
10
2.68510828449448
20
-0.9790558090113
30
0
41
1
10
2.81333305778841
20
-0.878975752334583
30
0
41
1
10
2.87904985273508
20
-0.830434135142724
30
0
41
1
10
3.0131294868217
20
-0.735844309449021
30
0
41
1
10
3.0814950123486
20
-0.689798505702811
30
0
41
1
10
3.22047909463072
20
-0.599848975321493
30
0
41
1
10
3.29116831186309
20
-0.555905607523812
30
0
41
1
10
3.43415497864174
20
-0.470109904349783
30
0
41
1
10
3.50641724090875
20
-0.42827634083784
30
0
41
1
10
3.61575187873896
20
-0.366960298255918
30
0
41
1
10
3.66150348090721
20
-0.341711876224991
30
0
41
1
10
3.70747438509127
20
-0.316821545207063
30
0
41
1
10
3.72127847471649
20
-0.309375714097683
30
0
41
1
10
3.72585879867586
20
-0.306846858084896
30
0
41
1
10
3.7352759234156
20
-0.302304764331012
30
0
41
1
10
3.74013397128303
20
-0.300365847366209
30
0
41
1
10
3.74999914037696
20
-0.297139069239762
30
0
41
1
10
3.75501901786006
20
-0.295823170269529
30
0
41
1
10
3.76270976103498
20
-0.294398035333643
30
0
41
1
10
3.76530896843073
20
-0.294036524841658
30
0
41
1
10
3.77049224943607
20
-0.293375553352945
30
0
41
1
10
3.77308273803681
20
-0.29309860071973
30
0
41
1
10
3.7808496671511
20
-0.292478596279153
30
0
41
1
10
3.78602114487629
20
-0.292366205611671
30
0
41
1
10
3.7963544782217
20
-0.292588655034422
30
0
41
1
10
3.8015167403635
20
-0.29290459974527
30
0
41
1
10
3.81698826350075
20
-0.294561808095892
30
0
41
1
10
3.8273091208786
20
-0.296568986539768
30
0
41
1
10
3.84745012507159
20
-0.301880557212883
30
0
41
1
10
3.85735674297601
20
-0.305121029152645
30
0
41
1
10
3.88721422028496
20
-0.314349360033418
30
0
41
1
10
3.90710204660866
20
-0.320557257314704
30
0
41
1
10
3.96670846990705
20
-0.339348570401
30
0
41
1
10
4.16502882784249
20
-0.403080160635994
30
0
41
1
10
4.36142402014755
20
-0.472192414167523
30
0
41
1
10
4.67283640059492
20
-0.588662431459483
30
0
41
1
10
4.827207128135
20
-0.649860633344076
30
0
41
1
10
5.05700741501073
20
-0.745289845161722
30
0
41
1
10
5.13331604474374
20
-0.777702930326598
30
0
41
1
10
5.28513664234723
20
-0.843459127631661
30
0
41
1
10
5.36068233817804
20
-0.876815763720913
30
0
41
1
10
5.58632650343392
20
-0.978044850854616
30
0
41
1
10
5.73543677150442
20
-1.04706521521203
30
0
41
1
10
6.03158587693821
20
-1.18669705274959
30
0
41
1
10
6.17862342946802
20
-1.25731002023815
30
0
41
1
10
6.32495786200218
20
-1.32792669509357
30
0
0
SPLINE
5
106
100
AcDbEntity
8
SK1
62
256
6
ByLayer
370
18
48
1
60
0
100
AcDbSpline
70
4
71
3
72
8
73
4
40
0
40
0
40
0
40
0
40
1
40
1
40
1
40
1
41
1
10
-35.75
20
-1.06119963851569
30
0
41
1
10
-35.8336522353294
20
-0.997394186243042
30
0
41
1
10
-35.9170267377017
20
-0.933401768059213
30
0
41
1
10
-36
20
-0.869139240714134
30
0
0
SPLINE
5
107
100
AcDbEntity
8
SK1
62
256
6
ByLayer
370
18
48
1
60
0
100
AcDbSpline
70
4
71
3
72
22
73
18
40
0
40
0
40
0
40
0
40
0.0624999999999995
40
0.0624999999999995
40
0.124999999999999
40
0.124999999999999
40
0.249999999999999
40
0.249999999999999
40
0.374999999999999
40
0.374999999999999
40
0.499999999999999
40
0.499999999999999
40
0.625
40
0.625
40
0.75
40
0.75
40
1
40
1
40
1
40
1
41
1
10
-35.65
20
-1.22838009327515
30
0
41
1
10
-35.65
20
-1.22459655906107
30
0
41
1
10
-35.6502718586018
20
-1.22063535897172
30
0
41
1
10
-35.6512913504498
20
-1.21258915849066
30
0
41
1
10
-35.652030658643
20
-1.20853410702421
30
0
41
1
10
-35.6548298230236
20
-1.1962876829617
30
0
41
1
10
-35.6575061245995
20
-1.18792652470086
30
0
41
1
10
-35.6638376796887
20
-1.1717015445569
30
0
41
1
10
-35.6674983282836
20
-1.16377590365119
30
0
41
1
10
-35.6756151818515
20
-1.14822547388565
30
0
41
1
10
-35.6800682064545
20
-1.14062817993548
30
0
41
1
10
-35.6893906957629
20
-1.12614885192141
30
0
41
1
10
-35.694295288182
20
-1.11920093205282
30
0
41
1
10
-35.7045485857546
20
-1.1058328489743
30
0
41
1
10
-35.7099306774377
20
-1.09937777421285
30
0
41
1
10
-35.7265024515804
20
-1.08107847191519
30
0
41
1
10
-35.7380004903212
20
-1.0703522228919
30
0
41
1
10
-35.7500000000001
20
-1.06119963851566
30
0
0
SPLINE
5
108
100
AcDbEntity
8
SK1
62
256
6
ByLayer
370
18
48
1
60
0
100
AcDbSpline
70
4
71
3
72
22
73
18
40
0
40
0
40
0
40
0
40
0.250000000000001
40
0.250000000000001
40
0.375000000000001
40
0.375000000000001
40
0.5
40
0.5
40
0.625
40
0.625
40
0.749999999999999
40
0.749999999999999
40
0.874999999999999
40
0.874999999999999
40
0.9375
40
0.9375
40
1
40
1
40
1
40
1
41
1
10
-35.75
20
-2.09965163741646
30
0
41
1
10
-35.7379956523281
20
-2.10880791195504
30
0
41
1
10
-35.7264866986603
20
-2.11664859283258
30
0
41
1
10
-35.7098921057742
20
-2.12651200811132
30
0
41
1
10
-35.7045257065493
20
-2.12944246585238
30
0
41
1
10
-35.6942964893128
20
-2.13447430185843
30
0
41
1
10
-35.6894060316865
20
-2.13659288420175
30
0
41
1
10
-35.6801144608566
20
-2.13994365810237
30
0
41
1
10
-35.6756964104891
20
-2.14118136262405
30
0
41
1
10
-35.6675285377629
20
-2.1425351372049
30
0
41
1
10
-35.6638529491705
20
-2.14264337803232
30
0
41
1
10
-35.6575076548177
20
-2.14144675129302
30
0
41
1
10
-35.6548318331324
20
-2.14011612580154
30
0
41
1
10
-35.6520304488211
20
-2.13679732134804
30
0
41
1
10
-35.65129058319
20
-2.13546925109856
30
0
41
1
10
-35.650270741394
20
-2.13228805511764
30
0
41
1
10
-35.65
20
-2.13044526714418
30
0
41
1
10
-35.65
20
-2.12837182565568
30
0
0
SPLINE
5
109
100
AcDbEntity
8
SK1
62
256
6
ByLayer
370
18
48
1
60
0
100
AcDbSpline
70
4
71
3
72
8
73
4
40
0
40
0
40
0
40
0
40
1
40
1
40
1
40
1
41
1
10
-36
20
-1.90759123961473
30
0
41
1
10
-35.9170200577656
20
-1.97185894054905
30
0
41
1
10
-35.8336462716426
20
-2.035850733925
30
0
41
1
10
-35.7499999999999
20
-2.09965163741632
30
0
0
SPLINE
5
10A
100
AcDbEntity
8
1
62
256
6
ByLayer
370
18
48
1
60
0
100
AcDbSpline
70
4
71
2
72
6
73
3
40
0
40
0
40
0
40
1
40
1
40
1
41
1
10
40.5599213646301
20
-1.90027545807231
30
0
41
1
10
40.2599423511521
20
-1.78262413643998
30
0
41
1
10
39.9627149288489
20
-1.64930617575521
30
0
0
SPLINE
5
10B
100
AcDbEntity
8
1
62
256
6
ByLayer
370
18
48
1
60
0
100
AcDbSpline
70
4
71
3
72
10
73
6
40
0
40
0
40
0
40
0
40
0.119689822882154
40
0.726891533412981
40
1
40
1
40
1
40
1
41
1
10
24.5162692178584
20
2.01452416580963
30
0
41
1
10
24.5905855187118
20
2.04241906524007
30
0
41
1
10
25.0424459561374
20
2.20729476539984
30
0
41
1
10
25.6685795821057
20
2.39829252976665
30
0
41
1
10
26.2235596855131
20
2.50460523378152
30
0
41
1
10
26.3961416267098
20
2.53256566096903
30
0
0
SPLINE
5
10C
100
AcDbEntity
8
1
62
256
6
ByLayer
370
18
48
1
60
0
100
AcDbSpline
70
4
71
2
72
6
73
3
40
0
40
0
40
0
40
1
40
1
40
1
41
1
10
3.75145086888037
20
-2.68312039448793
30
0
41
1
10
4.06580341605894
20
-2.68548598646683
30
0
41
1
10
4.38017145628004
20
-2.68571849105041
30
0
0
SPLINE
5
10D
100
AcDbEntity
8
1
62
256
6
ByLayer
370
18
48
1
60
0
100
AcDbSpline
70
4
71
2
72
6
73
3
40
0
40
0
40
0
40
1
40
1
40
1
41
1
10
4.3801714562801
20
2.68571849105041
30
0
41
1
10
4.06580341605897
20
2.68548598646683
30
0
41
1
10
3.75145086888037
20
2.68312039448793
30
0
0
SPLINE
5
10E
100
AcDbEntity
8
1
62
256
6
ByLayer
370
18
48
1
60
0
100
AcDbSpline
70
4
71
3
72
14
73
10
40
0
40
0
40
0
40
0
40
0.0481685152996653
40
0.177202705533515
40
0.301177389101182
40
0.420091567193018
40
0.561971735579424
40
0.765001710648988
40
1
40
1
40
1
40
1
41
1
10
44.5477112647851
20
0.666452558671267
30
0
41
1
10
44.4989694914043
20
0.682310778027301
30
0
41
1
10
44.3198002195576
20
0.74109101630404
30
0
41
1
10
44.0166301841753
20
0.845221484647027
30
0
41
1
10
43.6427023362714
20
0.975114071337856
30
0
41
1
10
43.2568511979729
20
1.112409394802
30
0
41
1
10
42.7928860293226
20
1.28109396215345
30
0
41
1
10
42.2146961103006
20
1.49721737469017
30
0
41
1
10
41.7800057659872
20
1.665872271751
30
0
41
1
10
41.5473650834091
20
1.75787428725545
30
0
0
SPLINE
5
10F
100
AcDbEntity
8
1
62
256
6
ByLayer
370
18
48
1
60
0
100
AcDbSpline
70
4
71
3
72
30
73
26
40
0
40
0
40
0
40
0
40
5.10696239028E-05
40
0.0001392782139086
40
0.000202702983313
40
0.0002521388432154
40
0.0004796688709279
40
0.0006511241939837
40
0.0009615195312682
40
0.0015292934691691
40
0.0025863405825802
40
0.00461223623962
40
0.0091819994265398
40
0.0421167050045027
40
0.098443694636646
40
0.163812061011951
40
0.236845256763092
40
0.31710351180273
40
0.388096003619379
40
0.441421907136965
40
0.48960837150275
40
0.570846616222479
40
0.687746413989653
40
0.840291636095727
40
1
40
1
40
1
40
1
41
1
10
13.8509675152316
20
0.0380178518303467
30
0
41
1
10
13.8509844495107
20
0.0380146293417738
30
0
41
1
10
13.8509990577415
20
0.0380152309568018
30
0
41
1
10
13.8509540217082
20
0.0380356040168692
30
0
41
1
10
13.8508393194044
20
0.0380766670639332
30
0
41
1
10
13.8504311340733
20
0.0382079176529544
30
0
41
1
10
13.8495941809395
20
0.0384599583172474
30
0
41
1
10
13.8485453380722
20
0.0387878619086166
30
0
41
1
10
13.8468975975419
20
0.0392970141492697
30
0
41
1
10
13.8439120780845
20
0.0402205123142494
30
0
41
1
10
13.8382161484229
20
0.0419728283885092
30
0
41
1
10
13.8262771327216
20
0.0456288914135712
30
0
41
1
10
13.7626376402455
20
0.0647317748831426
30
0
41
1
10
13.6045298063982
20
0.111119436652103
30
0
41
1
10
13.3464629941419
20
0.188503365768014
30
0
41
1
10
13.0209096874992
20
0.287965640269022
30
0
41
1
10
12.6564051896547
20
0.402013436154533
30
0
41
1
10
12.2832263929262
20
0.5216968505068
30
0
41
1
10
11.9435977717441
20
0.633253378053553
30
0
41
1
10
11.6577218932475
20
0.728960796366863
30
0
41
1
10
11.3553715035478
20
0.831744740472516
30
0
41
1
10
10.9486849479756
20
0.972652372706705
30
0
41
1
10
10.3714792016835
20
1.17847189909517
30
0
41
1
10
9.66795191159216
20
1.43845334827057
30
0
41
1
10
9.15893268798996
20
1.63530098444977
30
0
41
1
10
8.89929426156195
20
1.737920018577
30
0
0
SPLINE
5
110
100
AcDbEntity
8
1
62
256
6
ByLayer
370
18
48
1
60
0
100
AcDbSpline
70
4
71
3
72
28
73
24
40
0
40
0
40
0
40
0
40
2.05886574445E-05
40
8.74273776677E-05
40
0.00014876967334
40
0.000267485651822
40
0.0003788520011471
40
0.0005969298347396
40
0.0017872486018675
40
0.0027298283837649
40
0.0044583364764488
40
0.0076895507460221
40
0.0139208797813113
40
0.0261231350624923
40
0.0493764826410192
40
0.0953713613009295
40
0.18686754083157
40
0.370508795523179
40
0.460691246194997
40
0.552798494347104
40
0.672655724767714
40
0.829355889183305
40
1
40
1
40
1
40
1
41
1
10
30.1440838270906
20
0.0548108637807445
30
0
41
1
10
30.1440896395848
20
0.0548101072311624
30
0
41
1
10
30.1441104344306
20
0.0548080392547945
30
0
41
1
10
30.1441153368986
20
0.0548134774599021
30
0
41
1
10
30.1439914874029
20
0.054860363285627
30
0
41
1
10
30.1436336898638
20
0.0549736277002637
30
0
41
1
10
30.1430335642353
20
0.0551596155637526
30
0
41
1
10
30.1405470264947
20
0.0558986450801058
30
0
41
1
10
30.1366005780874
20
0.0570415044704475
30
0
41
1
10
30.1302147716443
20
0.0589182008034186
30
0
41
1
10
30.1204157473072
20
0.0617893214611911
30
0
41
1
10
30.1018503908865
20
0.0672395055734967
30
0
41
1
10
30.0658662996891
20
0.0778151956424153
30
0
41
1
10
29.9965927817157
20
0.098242081500274
30
0
41
1
10
29.8613104714339
20
0.138379442373093
30
0
41
1
10
29.5944629406637
20
0.218513985900529
30
0
41
1
10
29.0624553413782
20
0.382077852148456
30
0
41
1
10
28.4603395505401
20
0.575725710404242
30
0
41
1
10
27.8595622508951
20
0.777415493484398
30
0
41
1
10
27.3646845281578
20
0.948159775859978
30
0
41
1
10
26.7627229786739
20
1.16236701407703
30
0
41
1
10
26.0355381794523
20
1.43090326736137
30
0
41
1
10
25.5062829886956
20
1.63555356808908
30
0
41
1
10
25.2311699316649
20
1.74438637423216
30
0
0
SPLINE
5
111
100
AcDbEntity
8
1
62
256
6
ByLayer
370
18
48
1
60
0
100
AcDbSpline
70
4
71
1
72
4
73
2
40
0
40
0
40
1
40
1
41
1
10
37.4812337528988
20
0.0010642993138106
30
0
41
1
10
37.4812238157246
20
0.0010676649839638
30
0
0
SPLINE
5
112
100
AcDbEntity
8
1
62
256
6
ByLayer
370
18
48
1
60
0
100
AcDbSpline
70
4
71
1
72
4
73
2
40
0
40
0
40
1
40
1
41
1
10
4.77305233976682
20
0.0053268957948376
30
0
41
1
10
4.77304214043349
20
0.0053296137384962
30
0
0
SPLINE
5
113
100
AcDbEntity
8
1
62
256
6
ByLayer
370
18
48
1
60
0
100
AcDbSpline
70
4
71
3
72
23
73
19
40
0
40
0
40
0
40
0
40
0.0711013044537386
40
0.14434945779323
40
0.209376422986268
40
0.26811462044511
40
0.314862296978248
40
0.349813598804124
40
0.384398076992569
40
0.432401627535285
40
0.493749448710091
40
0.569980732591938
40
0.630621370179409
40
0.686873598169287
40
0.751660188967574
40
0.831951053372103
40
0.92454196855314
40
1
40
1
40
1
40
1
41
1
10
29.4678835419528
20
-2.6980886496157
30
0
41
1
10
29.6395456550298
20
-2.69696648532047
30
0
41
1
10
29.9916681052595
20
-2.69551070335345
30
0
41
1
10
30.5244646124592
20
-2.6932178765833
30
0
41
1
10
31.0151401687723
20
-2.69786726662951
30
0
41
1
10
31.4379512982515
20
-2.69984674107451
30
0
41
1
10
31.789711574805
20
-2.69946009086959
30
0
41
1
10
32.0831632714983
20
-2.69909551641433
30
0
41
1
10
32.3787177693393
20
-2.69954300799381
30
0
41
1
10
32.741533218236
20
-2.70059877331141
30
0
41
1
10
33.209141984436
20
-2.69987807714765
30
0
41
1
10
33.7086235951885
20
-2.70061960130397
30
0
41
1
10
34.1953990665907
20
-2.70169609113788
30
0
41
1
10
34.6528019849029
20
-2.70009336552363
30
0
41
1
10
35.1613885353236
20
-2.70235263507993
30
0
41
1
10
35.7476393066204
20
-2.69713730606054
30
0
41
1
10
36.3794500094852
20
-2.6999138674999
30
0
41
1
10
36.7972131617616
20
-2.70127303634178
30
0
41
1
10
36.984107874371
20
-2.70211702746576
30
0
0
SPLINE
5
114
100
AcDbEntity
8
1
62
256
6
ByLayer
370
18
48
1
60
0
100
AcDbSpline
70
4
71
3
72
8
73
4
40
0
40
0
40
0
40
0
40
1
40
1
40
1
40
1
41
1
10
37.0233130153776
20
-2.70229766165886
30
0
41
1
10
37.0456769713566
20
-2.70240281485439
30
0
41
1
10
37.0680323064933
20
-2.70251165674412
30
0
41
1
10
37.0903812173584
20
-2.70262476810834
30
0
0
SPLINE
5
115
100
AcDbEntity
8
1
62
256
6
ByLayer
370
18
48
1
60
0
100
AcDbSpline
70
4
71
3
72
20
73
16
40
0
40
0
40
0
40
0
40
0.0901516301380874
40
0.192383589994581
40
0.289626233484557
40
0.373446499143001
40
0.435950307062888
40
0.481847949956998
40
0.543794736361226
40
0.616362845749303
40
0.699858524919768
40
0.776827173943241
40
0.84622974934646
40
0.968784702982365
40
1
40
1
40
1
40
1
41
1
10
20.7537372047092
20
2.69323408961205
30
0
41
1
10
20.5709643151595
20
2.69292768784047
30
0
41
1
10
20.1793219171231
20
2.69243482110372
30
0
41
1
10
19.5809692162429
20
2.68689648269057
30
0
41
1
10
18.9973254381409
20
2.69214494192934
30
0
41
1
10
18.4999352377461
20
2.69154098082939
30
0
41
1
10
18.1046738404074
20
2.69113122345746
30
0
41
1
10
17.753123392998
20
2.69199381617992
30
0
41
1
10
17.3809818223146
20
2.69210879619945
30
0
41
1
10
16.9312183018234
20
2.69002738642527
30
0
41
1
10
16.4505002834541
20
2.69113670545082
30
0
41
1
10
15.9762404972661
20
2.69005053888983
30
0
41
1
10
15.4216761370693
20
2.68948767261105
30
0
41
1
10
14.9602559931786
20
2.68974336725961
30
0
41
1
10
14.645527563841
20
2.68850821582203
30
0
41
1
10
14.5813988097304
20
2.68833621433112
30
0
0
SPLINE
5
116
100
AcDbEntity
8
1
62
256
6
ByLayer
370
18
48
1
60
0
100
AcDbSpline
70
4
71
3
72
26
73
22
40
0
40
0
40
0
40
0
40
0.0845895762308511
40
0.14835262081756
40
0.195195301336592
40
0.222778488240211
40
0.249763674641725
40
0.277357568670988
40
0.305682931949526
40
0.335657926761822
40
0.367541996231602
40
0.43097884498645
40
0.500170509589657
40
0.560564564946275
40
0.610623183048899
40
0.647712638544689
40
0.698221380518871
40
0.765955752411485
40
0.844536622159747
40
0.927149311750201
40
1
40
1
40
1
40
1
41
1
10
13.1140966896764
20
-2.68764552369879
30
0
41
1
10
13.3292594555261
20
-2.68772297922419
30
0
41
1
10
13.7071204592505
20
-2.68786274769931
30
0
41
1
10
14.2048416153251
20
-2.68789250540095
30
0
41
1
10
14.5585957560173
20
-2.68811877939132
30
0
41
1
10
14.8151642365688
20
-2.68914517114857
30
0
41
1
10
15.02426733657
20
-2.68955553495272
30
0
41
1
10
15.2357399821656
20
-2.68966074246035
30
0
41
1
10
15.4550533355195
20
-2.68966548395903
30
0
41
1
10
15.6852739076095
20
-2.68969293303454
30
0
41
1
10
16.005142817337
20
-2.69011752045455
30
0
41
1
10
16.4251225454854
20
-2.6911877621898
30
0
41
1
10
16.9178837479778
20
-2.68999887480146
30
0
41
1
10
17.3765077479961
20
-2.69210033373469
30
0
41
1
10
17.7531235312913
20
-2.69199552692268
30
0
41
1
10
18.1046737950732
20
-2.69113066265578
30
0
41
1
10
18.499935256561
20
-2.6915412135771
30
0
41
1
10
18.9973254314952
20
-2.69214485971941
30
0
41
1
10
19.580969218259
20
-2.68689650763147
30
0
41
1
10
20.1793219166087
20
-2.69243481474101
30
0
41
1
10
20.5709643151596
20
-2.69292768784047
30
0
41
1
10
20.7537372047092
20
-2.69323408961205
30
0
0
SPLINE
5
117
100
AcDbEntity
8
1
62
256
6
ByLayer
370
18
48
1
60
0
100
AcDbSpline
70
4
71
3
72
20
73
16
40
0
40
0
40
0
40
0
40
0.109789680570597
40
0.223030155218685
40
0.321227430591729
40
0.40046268038362
40
0.469260239897224
40
0.543424908968061
40
0.636657239083121
40
0.720672612448751
40
0.783520545661587
40
0.829276176926986
40
0.88910778568252
40
0.969623468055228
40
1
40
1
40
1
40
1
41
1
10
37.0903812173584
20
2.70262476810834
30
0
41
1
10
36.8682971614636
20
2.70150076566003
30
0
41
1
10
36.4158600589153
20
2.70007388762832
30
0
41
1
10
35.7476392693262
20
2.69713726437223
30
0
41
1
10
35.1613886439555
20
2.70235275651152
30
0
41
1
10
34.6528016818284
20
2.70009302673881
30
0
41
1
10
34.1954000712789
20
2.70169721420501
30
0
41
1
10
33.7086190477353
20
2.70061451804051
30
0
41
1
10
33.1906490612905
20
2.69987396273788
30
0
41
1
10
32.6959201431594
20
2.7006239098948
30
0
41
1
10
32.2991506199346
20
2.69927910667883
30
0
41
1
10
31.9524127272407
20
2.6991381157481
30
0
41
1
10
31.5693207114458
20
2.69989095573399
30
0
41
1
10
31.2223941325541
20
2.69907979714793
30
0
41
1
10
30.997131243575
20
2.69737838420821
30
0
41
1
10
30.9353484393907
20
2.69690154894681
30
0
0
LINE
5
82
100
AcDbEntity
8
81
62
256
6
ByLayer
370
18
48
1
60
0
100
AcDbLine
10
46
20
0
30
0
11
49
21
0
31
0
39
0
210
0
220
0
230
1
0
LINE
5
83
100
AcDbEntity
8
80
62
256
6
ByLayer
370
18
48
1
60
0
100
AcDbLine
10
0
20
0
30
0
11
-3
21
0
31
0
39
0
210
0
220
0
230
1
0
LINE
5
84
100
AcDbEntity
8
SK4
62
256
6
ByLayer
370
18
48
0.05
60
0
100
AcDbLine
10
-39
20
0
30
0
11
49
21
0
31
0
39
0
210
0
220
0
230
1
0
LINE
5
86
100
AcDbEntity
8
4
62
256
6
ByLayer
370
18
48
0.05
60
0
100
AcDbLine
10
0
20
0
30
0
11
46
21
0
31
0
39
0
210
0
220
0
230
1
0
LINE
5
88
100
AcDbEntity
8
1
62
256
6
ByLayer
370
13
48
1
60
0
100
AcDbLine
10
45.948787
20
0.044238
30
0
11
45.273877
21
0.789221
31
0
39
0
210
0
220
0
230
1
0
LINE
5
89
100
AcDbEntity
8
1
62
256
6
ByLayer
370
13
48
1
60
0
100
AcDbLine
10
0.169289
20
2.906964
30
0
11
0.169289
21
-2.906964
31
0
39
0
210
0
220
0
230
1
0
LINE
5
8A
100
AcDbEntity
8
1
62
256
6
ByLayer
370
13
48
1
60
0
100
AcDbLine
10
0.163532
20
2.915141
30
0
11
0.163532
21
-2.915141
31
0
39
0
210
0
220
0
230
1
0
LINE
5
8B
100
AcDbEntity
8
1
62
256
6
ByLayer
370
18
48
1
60
0
100
AcDbLine
10
0
20
3
30
0
11
0
21
-3
31
0
39
0
210
0
220
0
230
1
0
LINE
5
8C
100
AcDbEntity
8
1
62
256
6
ByLayer
370
18
48
1
60
0
100
AcDbLine
10
17.5
20
1.488153
30
0
11
17.5
21
1.368837
31
0
39
0
210
0
220
0
230
1
0
LINE
5
8D
100
AcDbEntity
8
1
62
256
6
ByLayer
370
13
48
1
60
0
100
AcDbLine
10
0.332945
20
2.822105
30
0
11
0.332945
21
-2.822105
31
0
39
0
210
0
220
0
230
1
0
LINE
5
8E
100
AcDbEntity
8
SK1
62
256
6
ByLayer
370
18
48
1
60
0
100
AcDbLine
10
-36
20
-0.869137
30
0
11
-36
21
-1.907591
31
0
39
0
210
0
220
0
230
1
0
LINE
5
90
100
AcDbEntity
8
SK1
62
256
6
ByLayer
370
13
48
1
60
0
100
AcDbLine
10
-35.75
20
-2.099652
30
0
11
-35.75
21
-1.061164
31
0
39
0
210
0
220
0
230
1
0
LINE
5
91
100
AcDbEntity
8
SK1
62
256
6
ByLayer
370
18
48
1
60
0
100
AcDbLine
10
0
20
3
30
0
11
0
21
-3
31
0
39
0
210
0
220
0
230
1
0
LINE
5
92
100
AcDbEntity
8
SK1
62
256
6
ByLayer
370
18
48
1
60
0
100
AcDbLine
10
-35.65
20
-2.128372
30
0
11
-35.65
21
-1.22838
31
0
39
0
210
0
220
0
230
1
0
LINE
5
93
100
AcDbEntity
8
SK1
62
256
6
ByLayer
370
18
48
1
60
0
100
AcDbLine
10
-36
20
-2.065
30
0
11
-36
21
-1.907591
31
0
39
0
210
0
220
0
230
1
0
LINE
5
94
100
AcDbEntity
8
SK1
62
256
6
ByLayer
370
18
48
1
60
0
100
AcDbLine
10
-36
20
2.065
30
0
11
-36
21
-0.869139
31
0
39
0
210
0
220
0
230
1
0
LINE
5
95
100
AcDbEntity
8
SK1
62
256
6
ByLayer
370
18
48
1
60
0
100
AcDbLine
10
-35.065
20
-3
30
0
11
-35.065
21
3
31
0
39
0
210
0
220
0
230
1
0
LINE
5
96
100
AcDbEntity
8
1
62
256
6
ByLayer
370
18
48
1
60
0
100
AcDbLine
10
0.169289
20
2.906964
30
0
11
0.163532
21
2.915141
31
0
39
0
210
0
220
0
230
1
0
LINE
5
97
100
AcDbEntity
8
1
62
256
6
ByLayer
370
18
48
1
60
0
100
AcDbLine
10
0.163532
20
-2.915141
30
0
11
0.169289
21
-2.906964
31
0
39
0
210
0
220
0
230
1
0
LINE
5
98
100
AcDbEntity
8
1
62
256
6
ByLayer
370
18
48
1
60
0
100
AcDbLine
10
0.332945
20
-2.822105
30
0
11
3.525102
21
-2.8241
31
0
39
0
210
0
220
0
230
1
0
LINE
5
99
100
AcDbEntity
8
1
62
256
6
ByLayer
370
18
48
1
60
0
100
AcDbLine
10
11.951421
20
-2.829367
30
0
11
12.95736
21
-2.829995
31
0
39
0
210
0
220
0
230
1
0
LINE
5
9A
100
AcDbEntity
8
1
62
256
6
ByLayer
370
18
48
1
60
0
100
AcDbLine
10
28.562878
20
-2.839749
30
0
11
29.307597
21
-2.840214
31
0
39
0
210
0
220
0
230
1
0
LINE
5
9B
100
AcDbEntity
8
1
62
256
6
ByLayer
370
18
48
1
60
0
100
AcDbLine
10
29.307597
20
2.840214
30
0
11
28.562878
21
2.839749
31
0
39
0
210
0
220
0
230
1
0
LINE
5
9C
100
AcDbEntity
8
1
62
256
6
ByLayer
370
18
48
1
60
0
100
AcDbLine
10
12.95736
20
2.829995
30
0
11
11.951421
21
2.829367
31
0
39
0
210
0
220
0
230
1
0
LINE
5
9D
100
AcDbEntity
8
1
62
256
6
ByLayer
370
18
48
1
60
0
100
AcDbLine
10
3.525102
20
2.8241
30
0
11
0.332945
21
2.822105
31
0
39
0
210
0
220
0
230
1
0
LINE
5
9E
100
AcDbEntity
8
SK1
62
256
6
ByLayer
370
18
48
1
60
0
100
AcDbLine
10
-35.065
20
-3
30
0
11
0
21
-3
31
0
39
0
210
0
220
0
230
1
0
LINE
5
9F
100
AcDbEntity
8
SK1
62
256
6
ByLayer
370
18
48
1
60
0
100
AcDbLine
10
0
20
3
30
0
11
-35.065
21
3
31
0
39
0
210
0
220
0
230
1
0
LINE
5
A0
100
AcDbEntity
8
SK1
62
256
6
ByLayer
370
18
48
1
60
0
100
AcDbLine
10
-36
20
-2.065
30
0
11
-35.065
21
-3
31
0
39
0
210
0
220
0
230
1
0
LINE
5
A1
100
AcDbEntity
8
SK1
62
256
6
ByLayer
370
18
48
1
60
0
100
AcDbLine
10
-35.065
20
3
30
0
11
-36
21
2.065
31
0
39
0
210
0
220
0
230
1
0
LINE
5
A2
100
AcDbEntity
8
2
62
256
6
ByLayer
370
13
48
1
60
0
100
AcDbLine
10
59.75
20
19.198932
30
0
11
59.75
21
-11.6
31
0
39
0
210
0
220
0
230
1
0
LINE
5
A4
100
AcDbEntity
8
2
62
256
6
ByLayer
370
13
48
1
60
0
100
AcDbLine
10
47.5875
20
2.85
30
0
11
61.75
21
2.85
31
0
39
0
210
0
220
0
230
1
0
LINE
5
A5
100
AcDbEntity
8
2
62
256
6
ByLayer
370
13
48
1
60
0
100
AcDbLine
10
47.5875
20
-2.85
30
0
11
61.75
21
-2.85
31
0
39
0
210
0
220
0
230
1
0
LINE
5
A6
100
AcDbEntity
8
1
62
256
6
ByLayer
370
18
48
1
60
1
100
AcDbLine
10
59.75
20
2.85
30
0
11
59.289216
21
6.349998
31
0
39
0
210
0
220
0
230
1
0
LINE
5
A7
100
AcDbEntity
8
1
62
256
6
ByLayer
370
18
48
1
60
1
100
AcDbLine
10
59.289216
20
6.349998
30
0
11
60.210784
21
6.350002
31
0
39
0
210
0
220
0
230
1
0
LINE
5
A8
100
AcDbEntity
8
1
62
256
6
ByLayer
370
18
48
1
60
1
100
AcDbLine
10
60.210784
20
6.350002
30
0
11
59.75
21
2.85
31
0
39
0
210
0
220
0
230
1
0
LINE
5
A9
100
AcDbEntity
8
1
62
256
6
ByLayer
370
18
48
1
60
1
100
AcDbLine
10
59.75
20
-2.85
30
0
11
60.210784
21
-6.349998
31
0
39
0
210
0
220
0
230
1
0
LINE
5
AA
100
AcDbEntity
8
1
62
256
6
ByLayer
370
18
48
1
60
1
100
AcDbLine
10
60.210784
20
-6.349998
30
0
11
59.289216
21
-6.350002
31
0
39
0
210
0
220
0
230
1
0
LINE
5
AB
100
AcDbEntity
8
1
62
256
6
ByLayer
370
18
48
1
60
1
100
AcDbLine
10
59.289216
20
-6.350002
30
0
11
59.75
21
-2.85
31
0
39
0
210
0
220
0
230
1
0
LINE
5
AC
100
AcDbEntity
8
SK2
62
256
6
ByLayer
370
13
48
1
60
0
100
AcDbLine
10
-44.25
20
20.315466
30
0
11
-44.25
21
-11.75
31
0
39
0
210
0
220
0
230
1
0
LINE
5
AE
100
AcDbEntity
8
SK2
62
256
6
ByLayer
370
13
48
1
60
0
100
AcDbLine
10
-37.5875
20
3
30
0
11
-46.25
21
3
31
0
39
0
210
0
220
0
230
1
0
LINE
5
AF
100
AcDbEntity
8
SK2
62
256
6
ByLayer
370
13
48
1
60
0
100
AcDbLine
10
-37.5875
20
-3
30
0
11
-46.25
21
-3
31
0
39
0
210
0
220
0
230
1
0
LINE
5
B0
100
AcDbEntity
8
1
62
256
6
ByLayer
370
18
48
1
60
1
100
AcDbLine
10
-44.25
20
3
30
0
11
-44.710784
21
6.499998
31
0
39
0
210
0
220
0
230
1
0
LINE
5
B1
100
AcDbEntity
8
1
62
256
6
ByLayer
370
18
48
1
60
1
100
AcDbLine
10
-44.710784
20
6.499998
30
0
11
-43.789216
21
6.500002
31
0
39
0
210
0
220
0
230
1
0
LINE
5
B2
100
AcDbEntity
8
1
62
256
6
ByLayer
370
18
48
1
60
1
100
AcDbLine
10
-43.789216
20
6.500002
30
0
11
-44.25
21
3
31
0
39
0
210
0
220
0
230
1
0
LINE
5
B3
100
AcDbEntity
8
1
62
256
6
ByLayer
370
18
48
1
60
1
100
AcDbLine
10
-44.25
20
-3
30
0
11
-43.789216
21
-6.499998
31
0
39
0
210
0
220
0
230
1
0
LINE
5
B4
100
AcDbEntity
8
1
62
256
6
ByLayer
370
18
48
1
60
1
100
AcDbLine
10
-43.789216
20
-6.499998
30
0
11
-44.710784
21
-6.500002
31
0
39
0
210
0
220
0
230
1
0
LINE
5
B5
100
AcDbEntity
8
1
62
256
6
ByLayer
370
18
48
1
60
1
100
AcDbLine
10
-44.710784
20
-6.500002
30
0
11
-44.25
21
-3
31
0
39
0
210
0
220
0
230
1
0
LINE
5
B6
100
AcDbEntity
8
SK2
62
256
6
ByLayer
370
13
48
1
60
0
100
AcDbLine
10
46.542811
20
1.491815
30
0
11
57.215717
21
30.824295
31
0
39
0
210
0
220
0
230
1
0
LINE
5
B7
100
AcDbEntity
8
SK2
62
256
6
ByLayer
370
13
48
1
60
0
100
AcDbLine
10
46.542811
20
-1.491815
30
0
11
57.215717
21
-30.824295
31
0
39
0
210
0
220
0
230
1
0
LINE
5
B8
100
AcDbEntity
8
1
62
256
6
ByLayer
370
18
48
1
60
1
100
AcDbLine
10
56.53186
20
28.944843
30
0
11
59.955397
21
28.08362
31
0
39
0
210
0
220
0
230
1
0
LINE
5
B9
100
AcDbEntity
8
1
62
256
6
ByLayer
370
18
48
1
60
1
100
AcDbLine
10
59.955397
20
28.08362
30
0
11
59.615845
21
27.226887
31
0
39
0
210
0
220
0
230
1
0
LINE
5
BA
100
AcDbEntity
8
1
62
256
6
ByLayer
370
18
48
1
60
1
100
AcDbLine
10
59.615845
20
27.226887
30
0
11
56.53186
21
28.944843
31
0
39
0
210
0
220
0
230
1
0
LINE
5
BB
100
AcDbEntity
8
1
62
256
6
ByLayer
370
18
48
1
60
1
100
AcDbLine
10
56.53186
20
-28.944843
30
0
11
59.615842
21
-27.226888
31
0
39
0
210
0
220
0
230
1
0
LINE
5
BC
100
AcDbEntity
8
1
62
256
6
ByLayer
370
18
48
1
60
1
100
AcDbLine
10
59.615842
20
-27.226888
30
0
11
59.9554
21
-28.083618
31
0
39
0
210
0
220
0
230
1
0
LINE
5
BD
100
AcDbEntity
8
1
62
256
6
ByLayer
370
18
48
1
60
1
100
AcDbLine
10
59.9554
20
-28.083618
30
0
11
56.53186
21
-28.944843
31
0
39
0
210
0
220
0
230
1
0
LINE
5
118
100
AcDbEntity
8
1
62
256
6
ByLayer
370
13
48
0.05
60
0
100
AcDbLine
10
-42.5
20
0
30
0
11
51.528125
21
0
31
0
39
0
210
0
220
0
230
1
0
LINE
5
11D
100
AcDbEntity
8
1
62
256
6
ByLayer
370
18
48
1
60
1
100
AcDbLine
10
59.75
20
2.85
30
0
11
59.289216
21
6.349998
31
0
39
0
210
0
220
0
230
1
0
LINE
5
11E
100
AcDbEntity
8
1
62
256
6
ByLayer
370
18
48
1
60
1
100
AcDbLine
10
59.289216
20
6.349998
30
0
11
60.210784
21
6.350002
31
0
39
0
210
0
220
0
230
1
0
LINE
5
11F
100
AcDbEntity
8
1
62
256
6
ByLayer
370
18
48
1
60
1
100
AcDbLine
10
60.210784
20
6.350002
30
0
11
59.75
21
2.85
31
0
39
0
210
0
220
0
230
1
0
LINE
5
121
100
AcDbEntity
8
1
62
256
6
ByLayer
370
18
48
1
60
1
100
AcDbLine
10
59.75
20
-2.85
30
0
11
60.210784
21
-6.349998
31
0
39
0
210
0
220
0
230
1
0
LINE
5
122
100
AcDbEntity
8
1
62
256
6
ByLayer
370
18
48
1
60
1
100
AcDbLine
10
60.210784
20
-6.349998
30
0
11
59.289216
21
-6.350002
31
0
39
0
210
0
220
0
230
1
0
LINE
5
123
100
AcDbEntity
8
1
62
256
6
ByLayer
370
18
48
1
60
1
100
AcDbLine
10
59.289216
20
-6.350002
30
0
11
59.75
21
-2.85
31
0
39
0
210
0
220
0
230
1
0
LINE
5
127
100
AcDbEntity
8
1
62
256
6
ByLayer
370
18
48
1
60
1
100
AcDbLine
10
-44.25
20
3
30
0
11
-44.710784
21
6.499998
31
0
39
0
210
0
220
0
230
1
0
LINE
5
128
100
AcDbEntity
8
1
62
256
6
ByLayer
370
18
48
1
60
1
100
AcDbLine
10
-44.710784
20
6.499998
30
0
11
-43.789216
21
6.500002
31
0
39
0
210
0
220
0
230
1
0
LINE
5
129
100
AcDbEntity
8
1
62
256
6
ByLayer
370
18
48
1
60
1
100
AcDbLine
10
-43.789216
20
6.500002
30
0
11
-44.25
21
3
31
0
39
0
210
0
220
0
230
1
0
LINE
5
12B
100
AcDbEntity
8
1
62
256
6
ByLayer
370
18
48
1
60
1
100
AcDbLine
10
-44.25
20
-3
30
0
11
-43.789216
21
-6.499998
31
0
39
0
210
0
220
0
230
1
0
LINE
5
12C
100
AcDbEntity
8
1
62
256
6
ByLayer
370
18
48
1
60
1
100
AcDbLine
10
-43.789216
20
-6.499998
30
0
11
-44.710784
21
-6.500002
31
0
39
0
210
0
220
0
230
1
0
LINE
5
12D
100
AcDbEntity
8
1
62
256
6
ByLayer
370
18
48
1
60
1
100
AcDbLine
10
-44.710784
20
-6.500002
30
0
11
-44.25
21
-3
31
0
39
0
210
0
220
0
230
1
0
LINE
5
130
100
AcDbEntity
8
1
62
256
6
ByLayer
370
18
48
1
60
1
100
AcDbLine
10
56.53186
20
28.944843
30
0
11
59.955397
21
28.08362
31
0
39
0
210
0
220
0
230
1
0
LINE
5
131
100
AcDbEntity
8
1
62
256
6
ByLayer
370
18
48
1
60
1
100
AcDbLine
10
59.955397
20
28.08362
30
0
11
59.615845
21
27.226887
31
0
39
0
210
0
220
0
230
1
0
LINE
5
132
100
AcDbEntity
8
1
62
256
6
ByLayer
370
18
48
1
60
1
100
AcDbLine
10
59.615845
20
27.226887
30
0
11
56.53186
21
28.944843
31
0
39
0
210
0
220
0
230
1
0
LINE
5
134
100
AcDbEntity
8
1
62
256
6
ByLayer
370
18
48
1
60
1
100
AcDbLine
10
56.53186
20
-28.944843
30
0
11
59.615842
21
-27.226888
31
0
39
0
210
0
220
0
230
1
0
LINE
5
135
100
AcDbEntity
8
1
62
256
6
ByLayer
370
18
48
1
60
1
100
AcDbLine
10
59.615842
20
-27.226888
30
0
11
59.9554
21
-28.083618
31
0
39
0
210
0
220
0
230
1
0
LINE
5
136
100
AcDbEntity
8
1
62
256
6
ByLayer
370
18
48
1
60
1
100
AcDbLine
10
59.9554
20
-28.083618
30
0
11
56.53186
21
-28.944843
31
0
39
0
210
0
220
0
230
1
0
MTEXT
5
119
100
AcDbEntity
8
2
62
256
6
ByLayer
370
18
48
1
60
0
100
AcDbMText
10
58.185366
20
6.784844
30
0
210
0
220
0
230
1
1
%%c
40
3.5
41
0
44
1.084337
50
90
71
7
72
5
7
iso_b_vert
0
MTEXT
5
11C
100
AcDbEntity
8
2
62
256
6
ByLayer
370
18
48
1
60
0
100
AcDbMText
10
58.185366
20
13.7575
30
0
210
0
220
0
230
1
1
\W0.7121;5.7
40
3.5
41
0
44
1.084337
50
90
71
7
72
5
7
iso_b_vert
0
MTEXT
5
125
100
AcDbEntity
8
SK2
62
256
6
ByLayer
370
18
48
1
60
0
100
AcDbMText
10
-45.814634
20
11.934844
30
0
210
0
220
0
230
1
1
%%c
40
3.5
41
0
44
1.084337
50
90
71
7
72
5
7
iso_b_vert
0
MTEXT
5
126
100
AcDbEntity
8
SK2
62
256
6
ByLayer
370
18
48
1
60
0
100
AcDbMText
10
-45.814634
20
18.9075
30
0
210
0
220
0
230
1
1
\W0.5404;6
40
3.5
41
0
44
1.084337
50
90
71
7
72
5
7
iso_b_vert
0
MTEXT
5
12F
100
AcDbEntity
8
SK2
62
256
6
ByLayer
370
18
48
1
60
0
100
AcDbMText
10
72.729714
20
-2.467366
30
0
210
0
220
0
230
1
1
\W0.7825;140%%d
40
3.5
41
0
44
1.084337
50
0
71
7
72
5
7
iso_b_vert
0
MTEXT
5
138
100
AcDbEntity
8
SK6
62
256
6
ByLayer
370
18
48
1
60
0
100
AcDbMText
10
-25.364413
20
-97.467366
30
0
210
0
220
0
230
1
1
\W0.7501;860.1-0570-035A1-MM M2BM
40
3.5
41
0
44
1.084337
50
0
71
7
72
5
7
iso_b_vert
0
HATCH
5
120
100
AcDbEntity
8
2
62
256
6
ByLayer
370
13
48
1
60
0
100
AcDbHatch
10
0
20
0
30
0
210
0
220
0
230
1
2
ANSI31
70
0
71
0
91
1
92
5
93
3
72
1
10
59.75
20
2.84999999999999
11
59.2892162584472
21
6.34999830744681
72
1
10
59.2892162584472
20
6.34999830744681
11
60.2107837415528
21
6.35000169255318
72
1
10
60.2107837415528
20
6.35000169255318
11
59.75
21
2.84999999999999
97
0
75
0
76
1
52
0
41
0.0062
77
0
78
1
53
45
43
0
44
0
45
-0.0139193969876572
46
0.0139193969876572
79
0
47
0
98
1
10
0
20
0
0
HATCH
5
124
100
AcDbEntity
8
2
62
256
6
ByLayer
370
13
48
1
60
0
100
AcDbHatch
10
0
20
0
30
0
210
0
220
0
230
1
2
ANSI31
70
0
71
0
91
1
92
5
93
3
72
1
10
59.75
20
-2.84999999999999
11
60.2107837415528
21
-6.34999830744681
72
1
10
60.2107837415528
20
-6.34999830744681
11
59.2892162584472
21
-6.35000169255318
72
1
10
59.2892162584472
20
-6.35000169255318
11
59.75
21
-2.84999999999999
97
0
75
0
76
1
52
0
41
0.0062
77
0
78
1
53
45
43
0
44
0
45
-0.0139193969876572
46
0.0139193969876572
79
0
47
0
98
1
10
0
20
0
0
HATCH
5
12A
100
AcDbEntity
8
SK2
62
256
6
ByLayer
370
13
48
1
60
0
100
AcDbHatch
10
0
20
0
30
0
210
0
220
0
230
1
2
ANSI31
70
0
71
0
91
1
92
5
93
3
72
1
10
-44.25
20
3
11
-44.7107837415528
21
6.49999830744682
72
1
10
-44.7107837415528
20
6.49999830744682
11
-43.7892162584472
21
6.50000169255318
72
1
10
-43.7892162584472
20
6.50000169255318
11
-44.25
21
3
97
0
75
0
76
1
52
0
41
0.0062
77
0
78
1
53
45
43
0
44
0
45
-0.0139193969876572
46
0.0139193969876572
79
0
47
0
98
1
10
0
20
0
0
HATCH
5
12E
100
AcDbEntity
8
SK2
62
256
6
ByLayer
370
13
48
1
60
0
100
AcDbHatch
10
0
20
0
30
0
210
0
220
0
230
1
2
ANSI31
70
0
71
0
91
1
92
5
93
3
72
1
10
-44.25
20
-3
11
-43.7892162584472
21
-6.49999830744682
72
1
10
-43.7892162584472
20
-6.49999830744682
11
-44.7107837415528
21
-6.50000169255318
72
1
10
-44.7107837415528
20
-6.50000169255318
11
-44.25
21
-3
97
0
75
0
76
1
52
0
41
0.0062
77
0
78
1
53
45
43
0
44
0
45
-0.0139193969876572
46
0.0139193969876572
79
0
47
0
98
1
10
0
20
0
0
HATCH
5
133
100
AcDbEntity
8
SK2
62
256
6
ByLayer
370
13
48
1
60
0
100
AcDbHatch
10
0
20
0
30
0
210
0
220
0
230
1
2
ANSI31
70
0
71
0
91
1
92
5
93
3
72
1
10
56.5318602469933
20
28.9448425303143
11
59.9553971761856
21
28.0836197350598
72
1
10
59.9553971761856
20
28.0836197350598
11
59.615845054598
21
27.2268869980558
72
1
10
59.615845054598
20
27.2268869980558
11
56.5318602469933
21
28.9448425303143
97
0
75
0
76
1
52
0
41
0.0062
77
0
78
1
53
45
43
0
44
0
45
-0.0139193969876572
46
0.0139193969876572
79
0
47
0
98
1
10
0
20
0
0
HATCH
5
137
100
AcDbEntity
8
SK2
62
256
6
ByLayer
370
13
48
1
60
0
100
AcDbHatch
10
0
20
0
30
0
210
0
220
0
230
1
2
ANSI31
70
0
71
0
91
1
92
5
93
3
72
1
10
56.5318602469933
20
-28.9448425303143
11
59.6158419076475
21
-27.226888245312
72
1
10
59.6158419076475
20
-27.226888245312
11
59.9554003231361
21
-28.0836184878036
72
1
10
59.9554003231361
20
-28.0836184878036
11
56.5318602469933
21
-28.9448425303143
97
0
75
0
76
1
52
0
41
0.0062
77
0
78
1
53
45
43
0
44
0
45
-0.0139193969876572
46
0.0139193969876572
79
0
47
0
98
1
10
0
20
0
0
DIMENSION
5
13B
100
AcDbEntity
8
2
62
256
6
ByLayer
370
18
48
1
60
0
100
AcDbDimension
2
_U0
10
46
20
-56.773323
30
0
11
5
21
-56.773323
31
0
70
32
71
1
72
1
41
1
210
0
220
0
230
1
3
Standard
100
AcDbAlignedDimension
13
-36
23
-3
33
0
14
46
24
-2.85
34
0
50
0
100
AcDbRotatedDimension
1001
ACAD
1000
DSTYLE
1002
{
1070
   371
1070
    13
1070
   372
1070
    13
1070
     3
1000

1070
   170
1070
     0
1070
   144
1040
1.0
1070
   277
1070
     2
1070
   284
1070
     8
1070
   278
1070
    46
1070
   146
1040
1.0
1070
   345
1005
16
1070
   347
1005
16
1070
   346
1005
16
1070
   344
1005
0
1070
   343
1005
0
1070
   172
1070
     1
1070
    76
1070
     0
1070
    75
1070
     0
1070
   282
1070
     0
1070
   281
1070
     0
1070
    71
1070
     0
1070
    74
1070
     0
1070
   279
1070
     0
1070
   173
1070
     1
1070
   340
1005
11A
1070
   271
1070
     2
1070
   272
1070
     2
1070
    77
1070
     1
1070
    73
1070
     1
1070
   171
1070
     3
1070
   274
1070
     4
1070
   177
1070
     2
1070
   176
1070
     2
1070
   178
1070
     2
1070
    78
1070
     8
1070
    48
1040
-0.1
1070
    41
1040
3.5
1070
   147
1040
1.75
1070
    42
1040
1.5875
1070
    44
1040
2.0
1070
   140
1040
3.5
1002
}
1001
ACAD_DSTYLE_DIM_LINETYPE
1070
   380
1005
16
1001
ACAD_DSTYLE_DIM_EXT1_LINETYPE
1070
   381
1005
16
1001
ACAD_DSTYLE_DIM_EXT2_LINETYPE
1070
   382
1005
16
0
DIMENSION
5
154
100
AcDbEntity
8
SK2
62
256
6
ByLayer
370
18
48
1
60
0
100
AcDbDimension
2
_U1
10
2
20
-36.773323
30
0
11
24
21
-36.773323
31
0
70
32
71
1
72
1
41
1
210
0
220
0
230
1
3
Standard
100
AcDbAlignedDimension
13
46
23
-2.85
33
0
14
2
24
-2.85
34
0
50
0
100
AcDbRotatedDimension
1001
ACAD
1000
DSTYLE
1002
{
1070
   371
1070
    13
1070
   372
1070
    13
1070
     3
1000

1070
   170
1070
     0
1070
   144
1040
1.0
1070
   277
1070
     2
1070
   284
1070
     8
1070
   278
1070
    46
1070
   146
1040
1.0
1070
   345
1005
16
1070
   347
1005
16
1070
   346
1005
16
1070
   344
1005
0
1070
   343
1005
0
1070
   172
1070
     1
1070
    76
1070
     0
1070
    75
1070
     0
1070
   282
1070
     0
1070
   281
1070
     0
1070
    71
1070
     0
1070
    74
1070
     0
1070
   279
1070
     0
1070
   173
1070
     1
1070
   340
1005
11A
1070
   271
1070
     2
1070
   272
1070
     2
1070
    77
1070
     1
1070
    73
1070
     1
1070
   171
1070
     3
1070
   274
1070
     4
1070
   177
1070
     2
1070
   176
1070
     2
1070
   178
1070
     2
1070
    78
1070
     8
1070
    48
1040
-0.1
1070
    41
1040
3.5
1070
   147
1040
1.75
1070
    42
1040
1.5875
1070
    44
1040
2.0
1070
   140
1040
3.5
1002
}
1001
ACAD_DSTYLE_DIM_LINETYPE
1070
   380
1005
16
1001
ACAD_DSTYLE_DIM_EXT1_LINETYPE
1070
   381
1005
16
1001
ACAD_DSTYLE_DIM_EXT2_LINETYPE
1070
   382
1005
16
0
DIMENSION
5
16C
100
AcDbEntity
8
SK2
62
256
6
ByLayer
370
18
48
1
60
0
100
AcDbDimension
2
_U2
10
11
20
-26.773323
30
0
11
28.5
21
-26.773323
31
0
70
32
71
1
72
1
41
1
210
0
220
0
230
1
3
Standard
100
AcDbAlignedDimension
13
46
23
-2.85
33
0
14
11
24
-2.85
34
0
50
0
100
AcDbRotatedDimension
1001
ACAD
1000
DSTYLE
1002
{
1070
   371
1070
    13
1070
   372
1070
    13
1070
     3
1000

1070
   170
1070
     0
1070
   144
1040
1.0
1070
   277
1070
     2
1070
   284
1070
     8
1070
   278
1070
    46
1070
   146
1040
1.0
1070
   345
1005
16
1070
   347
1005
16
1070
   346
1005
16
1070
   344
1005
0
1070
   343
1005
0
1070
   172
1070
     1
1070
    76
1070
     0
1070
    75
1070
     0
1070
   282
1070
     0
1070
   281
1070
     0
1070
    71
1070
     0
1070
    74
1070
     0
1070
   279
1070
     0
1070
   173
1070
     1
1070
   340
1005
11A
1070
   271
1070
     2
1070
   272
1070
     2
1070
    77
1070
     1
1070
    73
1070
     1
1070
   171
1070
     3
1070
   274
1070
     4
1070
   177
1070
     2
1070
   176
1070
     2
1070
   178
1070
     2
1070
    78
1070
     8
1070
    48
1040
-0.1
1070
    41
1040
3.5
1070
   147
1040
1.75
1070
    42
1040
1.5875
1070
    44
1040
2.0
1070
   140
1040
3.5
1002
}
1001
ACAD_DSTYLE_DIM_LINETYPE
1070
   380
1005
16
1001
ACAD_DSTYLE_DIM_EXT1_LINETYPE
1070
   381
1005
16
1001
ACAD_DSTYLE_DIM_EXT2_LINETYPE
1070
   382
1005
16
0
DIMENSION
5
186
100
AcDbEntity
8
SK2
62
256
6
ByLayer
370
18
48
1
60
0
100
AcDbDimension
2
_U3
10
0
20
-36.773323
30
0
11
-18
21
-36.773323
31
0
70
32
71
1
72
1
41
1
210
0
220
0
230
1
3
Standard
100
AcDbAlignedDimension
13
-36
23
-3
33
0
14
0
24
-3
34
0
50
0
100
AcDbRotatedDimension
1001
ACAD
1000
DSTYLE
1002
{
1070
   371
1070
    13
1070
   372
1070
    13
1070
     3
1000

1070
   170
1070
     0
1070
   144
1040
1.0
1070
   277
1070
     2
1070
   284
1070
     8
1070
   278
1070
    46
1070
   146
1040
1.0
1070
   345
1005
16
1070
   347
1005
16
1070
   346
1005
16
1070
   344
1005
0
1070
   343
1005
0
1070
   172
1070
     1
1070
    76
1070
     0
1070
    75
1070
     0
1070
   282
1070
     0
1070
   281
1070
     0
1070
    71
1070
     0
1070
    74
1070
     0
1070
   279
1070
     0
1070
   173
1070
     1
1070
   340
1005
11A
1070
   271
1070
     2
1070
   272
1070
     2
1070
    77
1070
     1
1070
    73
1070
     1
1070
   171
1070
     3
1070
   274
1070
     4
1070
   177
1070
     2
1070
   176
1070
     2
1070
   178
1070
     2
1070
    78
1070
     8
1070
    48
1040
-0.1
1070
    41
1040
3.5
1070
   147
1040
1.75
1070
    42
1040
1.5875
1070
    44
1040
2.0
1070
   140
1040
3.5
1002
}
1001
ACAD_DSTYLE_DIM_LINETYPE
1070
   380
1005
16
1001
ACAD_DSTYLE_DIM_EXT1_LINETYPE
1070
   381
1005
16
1001
ACAD_DSTYLE_DIM_EXT2_LINETYPE
1070
   382
1005
16
0
DIMENSION
5
19E
100
AcDbEntity
8
SK2
62
256
6
ByLayer
370
18
48
1
60
0
100
AcDbDimension
2
_U4
10
46
20
-46.773323
30
0
11
23
21
-46.773323
31
0
70
32
71
1
72
1
41
1
210
0
220
0
230
1
3
Standard
100
AcDbAlignedDimension
13
0
23
-3
33
0
14
46
24
-2.85
34
0
50
0
100
AcDbRotatedDimension
1001
ACAD
1000
DSTYLE
1002
{
1070
   371
1070
    13
1070
   372
1070
    13
1070
     3
1000

1070
   170
1070
     0
1070
   144
1040
1.0
1070
   277
1070
     2
1070
   284
1070
     8
1070
   278
1070
    46
1070
   146
1040
1.0
1070
   345
1005
16
1070
   347
1005
16
1070
   346
1005
16
1070
   344
1005
0
1070
   343
1005
0
1070
   172
1070
     1
1070
    76
1070
     0
1070
    75
1070
     0
1070
   282
1070
     0
1070
   281
1070
     0
1070
    71
1070
     0
1070
    74
1070
     0
1070
   279
1070
     0
1070
   173
1070
     1
1070
   340
1005
11A
1070
   271
1070
     2
1070
   272
1070
     2
1070
    77
1070
     1
1070
    73
1070
     1
1070
   171
1070
     3
1070
   274
1070
     4
1070
   177
1070
     2
1070
   176
1070
     2
1070
   178
1070
     2
1070
    78
1070
     8
1070
    48
1040
-0.1
1070
    41
1040
3.5
1070
   147
1040
1.75
1070
    42
1040
1.5875
1070
    44
1040
2.0
1070
   140
1040
3.5
1002
}
1001
ACAD_DSTYLE_DIM_LINETYPE
1070
   380
1005
16
1001
ACAD_DSTYLE_DIM_EXT1_LINETYPE
1070
   381
1005
16
1001
ACAD_DSTYLE_DIM_EXT2_LINETYPE
1070
   382
1005
16
0
ENDSEC
0
SECTION
2
OBJECTS
0
DICTIONARY
5
226
330
0
100
AcDbDictionary
280
0
281
1
3
ACAD_GROUP
350
227
3
ACAD_MLINESTYLE
350
228
0
DICTIONARY
5
227
330
0
100
AcDbDictionary
280
0
281
1
0
DICTIONARY
5
228
330
0
100
AcDbDictionary
280
0
281
1
3
Standard
350
18
0
MLINESTYLE
5
18
330
228
100
AcDbMlineStyle
2
Standard
70
0
3

62
256
51
90
52
90
71
2
49
-0.5
62
256
6
ByLayer
49
0.5
62
256
6
ByLayer
0
RASTERVARIABLES
5
214
330

100
AcDbRasterVariables
90
0
70
1
71
1
72
1
0
ENDSEC
0
EOF
