0
SECTION
2
HEADER
9
$ACADVER
1
AC1015
9
$DWGCODEPAGE
3
ANSI_1252
9
$HANDSEED
5
237
9
$ANGBASE
50
0
9
$ANGDIR
70
0
9
$ATTMODE
70
1
9
$AUNITS
70
0
9
$AUPREC
70
0
9
$CECOLOR
62
256
9
$CELTSCALE
40
1
9
$CELTYPE
6
ByLayer
9
$CELWEIGHT
370
18
9
$CLAYER
8
0
9
$CMLJUST
70
0
9
$CMLSCALE
40
1
9
$CMLSTYLE
2
Standard
9
$DIMSTYLE
2
Standard
9
$TEXTSIZE
40
0.2
9
$TEXTSTYLE
7
Standard
9
$LUNITS
70
2
9
$LUPREC
70
4
9
$EXTNAMES
290
1
9
$INSUNITS
70
4
9
$LTSCALE
40
1
9
$LWDISPLAY
290
1
9
$PDMODE
70
0
9
$PDSIZE
40
0
9
$PLINEGEN
70
0
0
ENDSEC
0
SECTION
2
CLASSES
0
CLASS
1
RASTERVARIABLES
2
AcDbRasterVariables
3
ISM
90
0
280
0
281
0
0
ENDSEC
0
SECTION
2
TABLES
0
TABLE
2
VPORT
5
22d
100
AcDbSymbolTable
0
VPORT
5
1
100
AcDbSymbolTableRecord
100
AcDbViewportTableRecord
2
*Active
70
0
10
0
20
0
11
1
21
1
12
-1
22
1
13
0
23
0
14
0.5
24
0.5
15
10
25
10
16
0
26
0
36
1
17
0
27
0
37
0
0
ENDTAB
0
TABLE
2
LTYPE
5
22e
100
AcDbSymbolTable
0
LTYPE
5
14
100
AcDbSymbolTableRecord
100
AcDbLinetypeTableRecord
70
0
2
ByBlock
3

72
65
73
0
40
0
0
LTYPE
5
15
100
AcDbSymbolTableRecord
100
AcDbLinetypeTableRecord
70
0
2
ByLayer
3

72
65
73
0
40
0
0
LTYPE
5
16
100
AcDbSymbolTableRecord
100
AcDbLinetypeTableRecord
70
0
2
Continuous
3
Solid line
72
65
73
0
40
0
0
LTYPE
5
6E
100
AcDbSymbolTableRecord
100
AcDbLinetypeTableRecord
70
0
2
CENTER
3
____ _ ____ _ ____ _ ____
72
65
73
4
40
47.5
49
22
74
0
49
-8.5
74
0
49
8.5
74
0
49
-8.5
74
0
0
LTYPE
5
6F
100
AcDbSymbolTableRecord
100
AcDbLinetypeTableRecord
70
0
2
DASHED
3
__ __ __ __ __ __ __ __ __
72
65
73
2
40
25.72
49
12.86
74
0
49
-12.86
74
0
0
ENDTAB
0
TABLE
2
LAYER
5
22f
100
AcDbSymbolTable
0
LAYER
5
10
100
AcDbSymbolTableRecord
100
AcDbLayerTableRecord
2
0
70
0
62
7
6
Continuous
290
1
370
-3
390
0
0
LAYER
5
71
100
AcDbSymbolTableRecord
100
AcDbLayerTableRecord
2
81
70
0
62
-3
6
Continuous
290
1
370
-3
390
0
0
LAYER
5
73
100
AcDbSymbolTableRecord
100
AcDbLayerTableRecord
2
80
70
0
62
-6
6
Continuous
290
1
370
-3
390
0
0
LAYER
5
75
100
AcDbSymbolTableRecord
100
AcDbLayerTableRecord
2
1
70
0
62
4
6
Continuous
290
1
370
-3
390
0
0
LAYER
5
83
100
AcDbSymbolTableRecord
100
AcDbLayerTableRecord
2
4
70
0
62
-2
6
CENTER
290
1
370
-3
390
0
0
LAYER
5
A6
100
AcDbSymbolTableRecord
100
AcDbLayerTableRecord
2
2
70
0
62
7
6
Continuous
290
1
370
-3
390
0
0
LAYER
5
142
100
AcDbSymbolTableRecord
100
AcDbLayerTableRecord
2
Defpoints
70
0
62
7
6
Continuous
290
0
370
-3
390
0
0
LAYER
5
219
100
AcDbSymbolTableRecord
100
AcDbLayerTableRecord
2
SK4
70
0
62
2
6
CENTER
290
1
370
-3
390
0
0
LAYER
5
21a
100
AcDbSymbolTableRecord
100
AcDbLayerTableRecord
2
SK1
70
0
62
4
6
Continuous
290
1
370
-3
390
0
0
LAYER
5
21b
100
AcDbSymbolTableRecord
100
AcDbLayerTableRecord
2
SK2
70
0
62
7
6
Continuous
290
1
370
-3
390
0
0
LAYER
5
21c
100
AcDbSymbolTableRecord
100
AcDbLayerTableRecord
2
SK6
70
0
62
5
6
Continuous
290
1
370
-3
390
0
0
ENDTAB
0
TABLE
2
STYLE
5
230
100
AcDbSymbolTable
0
STYLE
5
11
100
AcDbSymbolTableRecord
100
AcDbTextStyleTableRecord
2
Standard
3
txt
70
0
71
0
40
0
41
1
42
0
50
0
0
STYLE
5
11E
100
AcDbSymbolTableRecord
100
AcDbTextStyleTableRecord
2
iso_b_vert
3
simplex.shx
70
0
71
0
40
0
41
1
42
0
50
0
0
STYLE
5
11F
100
AcDbSymbolTableRecord
100
AcDbTextStyleTableRecord
2
DWGDirectTextStyle
3
simplex
70
0
71
0
40
0
41
1
42
0
50
0
0
ENDTAB
0
TABLE
2
DIMSTYLE
5
231
100
AcDbSymbolTable
100
AcDbDimStyleTable
0
DIMSTYLE
105
27
100
AcDbSymbolTableRecord
100
AcDbDimStyleTableRecord
2
Standard
70
0
3
<>
41
0.18
42
0.0625
44
0.18
140
0.18
147
0.09
73
0
74
0
77
1
271
2
275
0
278
52
280
0
340
11
0
ENDTAB
0
TABLE
2
VIEW
5
232
100
AcDbSymbolTable
0
ENDTAB
0
TABLE
2
UCS
5
233
100
AcDbSymbolTable
0
ENDTAB
0
TABLE
2
APPID
5
234
100
AcDbSymbolTable
0
APPID
5
12
100
AcDbSymbolTableRecord
100
AcDbRegAppTableRecord
2
ACAD
70
0
0
APPID
5
13E
100
AcDbSymbolTableRecord
100
AcDbRegAppTableRecord
2
ACAD_DSTYLE_DIMBREAK
70
0
0
APPID
5
1D8
100
AcDbSymbolTableRecord
100
AcDbRegAppTableRecord
2
ACAD_DSTYLE_DIM_LINETYPE
70
0
0
APPID
5
1D9
100
AcDbSymbolTableRecord
100
AcDbRegAppTableRecord
2
ACAD_DSTYLE_DIM_EXT1_LINETYPE
70
0
0
APPID
5
1DA
100
AcDbSymbolTableRecord
100
AcDbRegAppTableRecord
2
ACAD_DSTYLE_DIM_EXT2_LINETYPE
70
0
0
APPID
5
215
100
AcDbSymbolTableRecord
100
AcDbRegAppTableRecord
2
ACAD_MLEADERVER
70
0
0
ENDTAB
0
TABLE
2
BLOCK_RECORD
5
235
100
AcDbSymbolTable
0
BLOCK_RECORD
5
1F
100
AcDbSymbolTableRecord
100
AcDbBlockTableRecord
2
*Model_Space
340
0
70
0
0
BLOCK_RECORD
5
1B
100
AcDbSymbolTableRecord
100
AcDbBlockTableRecord
2
*Paper_Space
340
0
70
0
0
BLOCK_RECORD
5
23
100
AcDbSymbolTableRecord
100
AcDbBlockTableRecord
2
*Paper_Space0
340
0
70
0
0
BLOCK_RECORD
5
143
100
AcDbSymbolTableRecord
100
AcDbBlockTableRecord
2
*D1
340
0
70
0
0
BLOCK_RECORD
5
14F
100
AcDbSymbolTableRecord
100
AcDbBlockTableRecord
2
_U0
340
0
70
0
0
BLOCK_RECORD
5
15B
100
AcDbSymbolTableRecord
100
AcDbBlockTableRecord
2
*D3
340
0
70
0
0
BLOCK_RECORD
5
167
100
AcDbSymbolTableRecord
100
AcDbBlockTableRecord
2
_U1
340
0
70
0
0
BLOCK_RECORD
5
173
100
AcDbSymbolTableRecord
100
AcDbBlockTableRecord
2
*D5
340
0
70
0
0
BLOCK_RECORD
5
17F
100
AcDbSymbolTableRecord
100
AcDbBlockTableRecord
2
_U2
340
0
70
0
0
BLOCK_RECORD
5
18D
100
AcDbSymbolTableRecord
100
AcDbBlockTableRecord
2
*D7
340
0
70
0
0
BLOCK_RECORD
5
199
100
AcDbSymbolTableRecord
100
AcDbBlockTableRecord
2
_U3
340
0
70
0
0
BLOCK_RECORD
5
1A5
100
AcDbSymbolTableRecord
100
AcDbBlockTableRecord
2
*D9
340
0
70
0
0
BLOCK_RECORD
5
1B1
100
AcDbSymbolTableRecord
100
AcDbBlockTableRecord
2
_U4
340
0
70
0
0
ENDTAB
0
ENDSEC
0
SECTION
2
BLOCKS
0
BLOCK
5
20
100
AcDbEntity
8
0
100
AcDbBlockBegin
2
*Model_Space
70
0
10
0
20
0
30
0
3
*Model_Space
0
ENDBLK
5
21
100
AcDbEntity
8
0
100
AcDbBlockEnd
0
BLOCK
5
1C
100
AcDbEntity
8
0
100
AcDbBlockBegin
2
*Paper_Space
70
0
10
0
20
0
30
0
3
*Paper_Space
0
ENDBLK
5
1D
100
AcDbEntity
8
0
100
AcDbBlockEnd
0
BLOCK
5
24
100
AcDbEntity
8
0
100
AcDbBlockBegin
2
*Paper_Space0
70
0
10
0
20
0
30
0
3
*Paper_Space0
0
ENDBLK
5
25
100
AcDbEntity
8
0
100
AcDbBlockEnd
0
BLOCK
5
144
100
AcDbEntity
8
0
100
AcDbBlockBegin
2
*D1
70
1
10
0
20
0
30
0
3
*D1
0
LINE
5
146
100
AcDbEntity
8
0
62
256
6
ByLayer
370
-2
48
1
60
0
100
AcDbLine
10
-36
20
-4.5875
30
0
11
-36
21
-60.046927
31
0
39
0
210
0
220
0
230
1
0
LINE
5
147
100
AcDbEntity
8
0
62
256
6
ByLayer
370
-2
48
1
60
0
100
AcDbLine
10
38
20
-3.9375
30
0
11
38
21
-60.046927
31
0
39
0
210
0
220
0
230
1
0
LINE
5
148
100
AcDbEntity
8
0
62
256
6
ByLayer
370
-2
48
1
60
0
100
AcDbLine
10
-32.5
20
-58.046927
30
0
11
34.5
21
-58.046927
31
0
39
0
210
0
220
0
230
1
0
SOLID
5
149
100
AcDbEntity
8
0
62
256
6
ByLayer
370
-1
48
1
60
0
100
AcDbTrace
10
-32.5
20
-57.463593
30
0
11
-32.5
21
-58.63026
31
0
12
-36
22
-58.046927
32
0
13
-36
23
-58.046927
33
0
39
0
210
0
220
0
230
1
0
SOLID
5
14A
100
AcDbEntity
8
0
62
256
6
ByLayer
370
-1
48
1
60
0
100
AcDbTrace
10
34.5
20
-58.63026
30
0
11
34.5
21
-57.463593
31
0
12
38
22
-58.046927
32
0
13
38
23
-58.046927
33
0
39
0
210
0
220
0
230
1
0
MTEXT
5
14B
100
AcDbEntity
8
0
62
256
6
ByLayer
370
18
48
1
60
0
100
AcDbMText
10
1
20
-51.046927
30
0
210
0
220
0
230
1
1
\A1;74
40
3.5
41
0
44
1
50
0
71
5
72
5
7
iso_b_vert
0
POINT
5
14C
100
AcDbEntity
8
Defpoints
62
0
6
ByLayer
370
-1
48
1
60
0
100
AcDbPoint
10
-36
20
-3
30
0
39
0
210
0
220
0
230
1
50
360
0
POINT
5
14D
100
AcDbEntity
8
Defpoints
62
0
6
ByLayer
370
-1
48
1
60
0
100
AcDbPoint
10
38
20
-2.35
30
0
39
0
210
0
220
0
230
1
50
360
0
POINT
5
14E
100
AcDbEntity
8
Defpoints
62
0
6
ByLayer
370
-1
48
1
60
0
100
AcDbPoint
10
38
20
-58.046927
30
0
39
0
210
0
220
0
230
1
50
360
0
ENDBLK
5
145
100
AcDbEntity
8
0
100
AcDbBlockEnd
0
BLOCK
5
156
100
AcDbEntity
8
0
100
AcDbBlockBegin
2
_U0
70
0
10
0
20
0
30
0
3
_U0
0
MTEXT
5
150
100
AcDbEntity
8
2
62
256
6
ByLayer
370
18
48
1
60
0
100
AcDbMText
10
-1.089233
20
-57.014293
30
0
210
0
220
0
230
1
1
\W0.7167;74
40
3.5
41
0
44
1.084337
50
0
71
7
72
5
7
iso_b_vert
0
LINE
5
151
100
AcDbEntity
8
2
62
256
6
ByLayer
370
13
48
1
60
0
100
AcDbLine
10
-36
20
-4.5875
30
0
11
-36
21
-60.046927
31
0
39
0
210
0
220
0
230
1
0
LINE
5
152
100
AcDbEntity
8
2
62
256
6
ByLayer
370
13
48
1
60
0
100
AcDbLine
10
38
20
-3.9375
30
0
11
38
21
-60.046927
31
0
39
0
210
0
220
0
230
1
0
LINE
5
153
100
AcDbEntity
8
2
62
256
6
ByLayer
370
13
48
1
60
0
100
AcDbLine
10
-36
20
-58.046927
30
0
11
38
21
-58.046927
31
0
39
0
210
0
220
0
230
1
0
SOLID
5
154
100
AcDbEntity
8
2
62
256
6
ByLayer
370
18
48
1
60
0
100
AcDbTrace
10
-36
20
-58.046927
30
0
11
-32.500002
21
-57.586143
31
0
12
-32.499998
22
-58.50771
32
0
13
-32.499998
23
-58.50771
33
0
39
0
210
0
220
0
230
1
0
SOLID
5
155
100
AcDbEntity
8
2
62
256
6
ByLayer
370
18
48
1
60
0
100
AcDbTrace
10
38
20
-58.046927
30
0
11
34.500002
21
-58.50771
31
0
12
34.499998
22
-57.586143
32
0
13
34.499998
23
-57.586143
33
0
39
0
210
0
220
0
230
1
0
ENDBLK
5
157
100
AcDbEntity
8
0
100
AcDbBlockEnd
0
BLOCK
5
15C
100
AcDbEntity
8
0
100
AcDbBlockBegin
2
*D3
70
1
10
0
20
0
30
0
3
*D3
0
LINE
5
15E
100
AcDbEntity
8
0
62
256
6
ByLayer
370
-2
48
1
60
0
100
AcDbLine
10
38
20
-3.9375
30
0
11
38
21
-40.046927
31
0
39
0
210
0
220
0
230
1
0
LINE
5
15F
100
AcDbEntity
8
0
62
256
6
ByLayer
370
-2
48
1
60
0
100
AcDbLine
10
2
20
-3.9375
30
0
11
2
21
-40.046927
31
0
39
0
210
0
220
0
230
1
0
LINE
5
160
100
AcDbEntity
8
0
62
256
6
ByLayer
370
-2
48
1
60
0
100
AcDbLine
10
34.5
20
-38.046927
30
0
11
5.5
21
-38.046927
31
0
39
0
210
0
220
0
230
1
0
SOLID
5
161
100
AcDbEntity
8
0
62
256
6
ByLayer
370
-1
48
1
60
0
100
AcDbTrace
10
34.5
20
-38.63026
30
0
11
34.5
21
-37.463593
31
0
12
38
22
-38.046927
32
0
13
38
23
-38.046927
33
0
39
0
210
0
220
0
230
1
0
SOLID
5
162
100
AcDbEntity
8
0
62
256
6
ByLayer
370
-1
48
1
60
0
100
AcDbTrace
10
5.5
20
-37.463593
30
0
11
5.5
21
-38.63026
31
0
12
2
22
-38.046927
32
0
13
2
23
-38.046927
33
0
39
0
210
0
220
0
230
1
0
MTEXT
5
163
100
AcDbEntity
8
0
62
256
6
ByLayer
370
18
48
1
60
0
100
AcDbMText
10
20
20
-31.046927
30
0
210
0
220
0
230
1
1
\A1;36
40
3.5
41
0
44
1
50
0
71
5
72
5
7
iso_b_vert
0
POINT
5
164
100
AcDbEntity
8
Defpoints
62
0
6
ByLayer
370
-1
48
1
60
0
100
AcDbPoint
10
38
20
-2.35
30
0
39
0
210
0
220
0
230
1
50
360
0
POINT
5
165
100
AcDbEntity
8
Defpoints
62
0
6
ByLayer
370
-1
48
1
60
0
100
AcDbPoint
10
2
20
-2.35
30
0
39
0
210
0
220
0
230
1
50
360
0
POINT
5
166
100
AcDbEntity
8
Defpoints
62
0
6
ByLayer
370
-1
48
1
60
0
100
AcDbPoint
10
2
20
-38.046927
30
0
39
0
210
0
220
0
230
1
50
360
0
ENDBLK
5
15D
100
AcDbEntity
8
0
100
AcDbBlockEnd
0
BLOCK
5
16E
100
AcDbEntity
8
0
100
AcDbBlockBegin
2
_U1
70
0
10
0
20
0
30
0
3
_U1
0
MTEXT
5
168
100
AcDbEntity
8
SK2
62
256
6
ByLayer
370
18
48
1
60
0
100
AcDbMText
10
18.095034
20
-37.014293
30
0
210
0
220
0
230
1
1
\W0.6740;36
40
3.5
41
0
44
1.084337
50
0
71
7
72
5
7
iso_b_vert
0
LINE
5
169
100
AcDbEntity
8
SK2
62
256
6
ByLayer
370
13
48
1
60
0
100
AcDbLine
10
38
20
-3.9375
30
0
11
38
21
-40.046927
31
0
39
0
210
0
220
0
230
1
0
LINE
5
16A
100
AcDbEntity
8
SK2
62
256
6
ByLayer
370
13
48
1
60
0
100
AcDbLine
10
2
20
-3.9375
30
0
11
2
21
-40.046927
31
0
39
0
210
0
220
0
230
1
0
LINE
5
16B
100
AcDbEntity
8
SK2
62
256
6
ByLayer
370
13
48
1
60
0
100
AcDbLine
10
38
20
-38.046927
30
0
11
2
21
-38.046927
31
0
39
0
210
0
220
0
230
1
0
SOLID
5
16C
100
AcDbEntity
8
SK2
62
256
6
ByLayer
370
18
48
1
60
0
100
AcDbTrace
10
38
20
-38.046927
30
0
11
34.500002
21
-38.50771
31
0
12
34.499998
22
-37.586143
32
0
13
34.499998
23
-37.586143
33
0
39
0
210
0
220
0
230
1
0
SOLID
5
16D
100
AcDbEntity
8
SK2
62
256
6
ByLayer
370
18
48
1
60
0
100
AcDbTrace
10
2
20
-38.046927
30
0
11
5.499998
21
-37.586143
31
0
12
5.500002
22
-38.50771
32
0
13
5.500002
23
-38.50771
33
0
39
0
210
0
220
0
230
1
0
ENDBLK
5
16F
100
AcDbEntity
8
0
100
AcDbBlockEnd
0
BLOCK
5
174
100
AcDbEntity
8
0
100
AcDbBlockBegin
2
*D5
70
1
10
0
20
0
30
0
3
*D5
0
LINE
5
176
100
AcDbEntity
8
0
62
256
6
ByLayer
370
-2
48
1
60
0
100
AcDbLine
10
38
20
-3.9375
30
0
11
38
21
-30.046927
31
0
39
0
210
0
220
0
230
1
0
LINE
5
177
100
AcDbEntity
8
0
62
256
6
ByLayer
370
-2
48
1
60
0
100
AcDbLine
10
9
20
-3.9375
30
0
11
9
21
-30.046927
31
0
39
0
210
0
220
0
230
1
0
LINE
5
178
100
AcDbEntity
8
0
62
256
6
ByLayer
370
-2
48
1
60
0
100
AcDbLine
10
34.5
20
-28.046927
30
0
11
12.5
21
-28.046927
31
0
39
0
210
0
220
0
230
1
0
SOLID
5
179
100
AcDbEntity
8
0
62
256
6
ByLayer
370
-1
48
1
60
0
100
AcDbTrace
10
34.5
20
-28.63026
30
0
11
34.5
21
-27.463593
31
0
12
38
22
-28.046927
32
0
13
38
23
-28.046927
33
0
39
0
210
0
220
0
230
1
0
SOLID
5
17A
100
AcDbEntity
8
0
62
256
6
ByLayer
370
-1
48
1
60
0
100
AcDbTrace
10
12.5
20
-27.463593
30
0
11
12.5
21
-28.63026
31
0
12
9
22
-28.046927
32
0
13
9
23
-28.046927
33
0
39
0
210
0
220
0
230
1
0
MTEXT
5
17B
100
AcDbEntity
8
0
62
256
6
ByLayer
370
18
48
1
60
0
100
AcDbMText
10
23.5
20
-21.046927
30
0
210
0
220
0
230
1
1
\A1;29
40
3.5
41
0
44
1
50
0
71
5
72
5
7
iso_b_vert
0
POINT
5
17C
100
AcDbEntity
8
Defpoints
62
0
6
ByLayer
370
-1
48
1
60
0
100
AcDbPoint
10
38
20
-2.35
30
0
39
0
210
0
220
0
230
1
50
360
0
POINT
5
17D
100
AcDbEntity
8
Defpoints
62
0
6
ByLayer
370
-1
48
1
60
0
100
AcDbPoint
10
9
20
-2.35
30
0
39
0
210
0
220
0
230
1
50
360
0
POINT
5
17E
100
AcDbEntity
8
Defpoints
62
0
6
ByLayer
370
-1
48
1
60
0
100
AcDbPoint
10
9
20
-28.046927
30
0
39
0
210
0
220
0
230
1
50
360
0
ENDBLK
5
175
100
AcDbEntity
8
0
100
AcDbBlockEnd
0
BLOCK
5
188
100
AcDbEntity
8
0
100
AcDbBlockBegin
2
_U2
70
0
10
0
20
0
30
0
3
_U2
0
MTEXT
5
180
100
AcDbEntity
8
SK2
62
256
6
ByLayer
370
18
48
1
60
0
100
AcDbMText
10
21.595034
20
-27.014293
30
0
210
0
220
0
230
1
1
\W0.6927;29
40
3.5
41
0
44
1.084337
50
0
71
7
72
5
7
iso_b_vert
0
MTEXT
5
181
100
AcDbEntity
8
SK2
62
256
6
ByLayer
370
18
48
1
60
0
100
AcDbMText
10
17.727034
20
-27.014293
30
0
210
0
220
0
230
1
1
\W0.1790;(
40
3.5
41
0
44
1.084337
50
0
71
7
72
5
7
iso_b_vert
0
MTEXT
5
182
100
AcDbEntity
8
SK2
62
256
6
ByLayer
370
18
48
1
60
0
100
AcDbMText
10
29.275966
20
-27.014293
30
0
210
0
220
0
230
1
1
\W0.1969;)
40
3.5
41
0
44
1.084337
50
0
71
7
72
5
7
iso_b_vert
0
LINE
5
183
100
AcDbEntity
8
SK2
62
256
6
ByLayer
370
13
48
1
60
0
100
AcDbLine
10
38
20
-3.9375
30
0
11
38
21
-30.046927
31
0
39
0
210
0
220
0
230
1
0
LINE
5
184
100
AcDbEntity
8
SK2
62
256
6
ByLayer
370
13
48
1
60
0
100
AcDbLine
10
9
20
-3.9375
30
0
11
9
21
-30.046927
31
0
39
0
210
0
220
0
230
1
0
LINE
5
185
100
AcDbEntity
8
SK2
62
256
6
ByLayer
370
13
48
1
60
0
100
AcDbLine
10
38
20
-28.046927
30
0
11
9
21
-28.046927
31
0
39
0
210
0
220
0
230
1
0
SOLID
5
186
100
AcDbEntity
8
SK2
62
256
6
ByLayer
370
18
48
1
60
0
100
AcDbTrace
10
38
20
-28.046927
30
0
11
34.500002
21
-28.50771
31
0
12
34.499998
22
-27.586143
32
0
13
34.499998
23
-27.586143
33
0
39
0
210
0
220
0
230
1
0
SOLID
5
187
100
AcDbEntity
8
SK2
62
256
6
ByLayer
370
18
48
1
60
0
100
AcDbTrace
10
9
20
-28.046927
30
0
11
12.499998
21
-27.586143
31
0
12
12.500002
22
-28.50771
32
0
13
12.500002
23
-28.50771
33
0
39
0
210
0
220
0
230
1
0
ENDBLK
5
189
100
AcDbEntity
8
0
100
AcDbBlockEnd
0
BLOCK
5
18E
100
AcDbEntity
8
0
100
AcDbBlockBegin
2
*D7
70
1
10
0
20
0
30
0
3
*D7
0
LINE
5
190
100
AcDbEntity
8
0
62
256
6
ByLayer
370
-2
48
1
60
0
100
AcDbLine
10
-36
20
-4.5875
30
0
11
-36
21
-40.046927
31
0
39
0
210
0
220
0
230
1
0
LINE
5
191
100
AcDbEntity
8
0
62
256
6
ByLayer
370
-2
48
1
60
0
100
AcDbLine
10
0
20
-4.5875
30
0
11
0
21
-40.046927
31
0
39
0
210
0
220
0
230
1
0
LINE
5
192
100
AcDbEntity
8
0
62
256
6
ByLayer
370
-2
48
1
60
0
100
AcDbLine
10
-32.5
20
-38.046927
30
0
11
-3.5
21
-38.046927
31
0
39
0
210
0
220
0
230
1
0
SOLID
5
193
100
AcDbEntity
8
0
62
256
6
ByLayer
370
-1
48
1
60
0
100
AcDbTrace
10
-32.5
20
-37.463593
30
0
11
-32.5
21
-38.63026
31
0
12
-36
22
-38.046927
32
0
13
-36
23
-38.046927
33
0
39
0
210
0
220
0
230
1
0
SOLID
5
194
100
AcDbEntity
8
0
62
256
6
ByLayer
370
-1
48
1
60
0
100
AcDbTrace
10
-3.5
20
-38.63026
30
0
11
-3.5
21
-37.463593
31
0
12
0
22
-38.046927
32
0
13
0
23
-38.046927
33
0
39
0
210
0
220
0
230
1
0
MTEXT
5
195
100
AcDbEntity
8
0
62
256
6
ByLayer
370
18
48
1
60
0
100
AcDbMText
10
-18
20
-31.046927
30
0
210
0
220
0
230
1
1
\A1;36
40
3.5
41
0
44
1
50
0
71
5
72
5
7
iso_b_vert
0
POINT
5
196
100
AcDbEntity
8
Defpoints
62
0
6
ByLayer
370
-1
48
1
60
0
100
AcDbPoint
10
-36
20
-3
30
0
39
0
210
0
220
0
230
1
50
360
0
POINT
5
197
100
AcDbEntity
8
Defpoints
62
0
6
ByLayer
370
-1
48
1
60
0
100
AcDbPoint
10
0
20
-3
30
0
39
0
210
0
220
0
230
1
50
360
0
POINT
5
198
100
AcDbEntity
8
Defpoints
62
0
6
ByLayer
370
-1
48
1
60
0
100
AcDbPoint
10
0
20
-38.046927
30
0
39
0
210
0
220
0
230
1
50
360
0
ENDBLK
5
18F
100
AcDbEntity
8
0
100
AcDbBlockEnd
0
BLOCK
5
1A0
100
AcDbEntity
8
0
100
AcDbBlockBegin
2
_U3
70
0
10
0
20
0
30
0
3
_U3
0
MTEXT
5
19A
100
AcDbEntity
8
SK2
62
256
6
ByLayer
370
18
48
1
60
0
100
AcDbMText
10
-19.904966
20
-37.014293
30
0
210
0
220
0
230
1
1
\W0.6740;36
40
3.5
41
0
44
1.084337
50
0
71
7
72
5
7
iso_b_vert
0
LINE
5
19B
100
AcDbEntity
8
SK2
62
256
6
ByLayer
370
13
48
1
60
0
100
AcDbLine
10
-36
20
-4.5875
30
0
11
-36
21
-40.046927
31
0
39
0
210
0
220
0
230
1
0
LINE
5
19C
100
AcDbEntity
8
SK2
62
256
6
ByLayer
370
13
48
1
60
0
100
AcDbLine
10
0
20
-4.5875
30
0
11
0
21
-40.046927
31
0
39
0
210
0
220
0
230
1
0
LINE
5
19D
100
AcDbEntity
8
SK2
62
256
6
ByLayer
370
13
48
1
60
0
100
AcDbLine
10
-36
20
-38.046927
30
0
11
0
21
-38.046927
31
0
39
0
210
0
220
0
230
1
0
SOLID
5
19E
100
AcDbEntity
8
SK2
62
256
6
ByLayer
370
18
48
1
60
0
100
AcDbTrace
10
-36
20
-38.046927
30
0
11
-32.500002
21
-37.586143
31
0
12
-32.499998
22
-38.50771
32
0
13
-32.499998
23
-38.50771
33
0
39
0
210
0
220
0
230
1
0
SOLID
5
19F
100
AcDbEntity
8
SK2
62
256
6
ByLayer
370
18
48
1
60
0
100
AcDbTrace
10
0
20
-38.046927
30
0
11
-3.499998
21
-38.50771
31
0
12
-3.500002
22
-37.586143
32
0
13
-3.500002
23
-37.586143
33
0
39
0
210
0
220
0
230
1
0
ENDBLK
5
1A1
100
AcDbEntity
8
0
100
AcDbBlockEnd
0
BLOCK
5
1A6
100
AcDbEntity
8
0
100
AcDbBlockBegin
2
*D9
70
1
10
0
20
0
30
0
3
*D9
0
LINE
5
1A8
100
AcDbEntity
8
0
62
256
6
ByLayer
370
-2
48
1
60
0
100
AcDbLine
10
0
20
-4.5875
30
0
11
0
21
-50.046927
31
0
39
0
210
0
220
0
230
1
0
LINE
5
1A9
100
AcDbEntity
8
0
62
256
6
ByLayer
370
-2
48
1
60
0
100
AcDbLine
10
38
20
-3.9375
30
0
11
38
21
-50.046927
31
0
39
0
210
0
220
0
230
1
0
LINE
5
1AA
100
AcDbEntity
8
0
62
256
6
ByLayer
370
-2
48
1
60
0
100
AcDbLine
10
3.5
20
-48.046927
30
0
11
34.5
21
-48.046927
31
0
39
0
210
0
220
0
230
1
0
SOLID
5
1AB
100
AcDbEntity
8
0
62
256
6
ByLayer
370
-1
48
1
60
0
100
AcDbTrace
10
3.5
20
-47.463593
30
0
11
3.5
21
-48.63026
31
0
12
0
22
-48.046927
32
0
13
0
23
-48.046927
33
0
39
0
210
0
220
0
230
1
0
SOLID
5
1AC
100
AcDbEntity
8
0
62
256
6
ByLayer
370
-1
48
1
60
0
100
AcDbTrace
10
34.5
20
-48.63026
30
0
11
34.5
21
-47.463593
31
0
12
38
22
-48.046927
32
0
13
38
23
-48.046927
33
0
39
0
210
0
220
0
230
1
0
MTEXT
5
1AD
100
AcDbEntity
8
0
62
256
6
ByLayer
370
18
48
1
60
0
100
AcDbMText
10
19
20
-41.046927
30
0
210
0
220
0
230
1
1
\A1;38
40
3.5
41
0
44
1
50
0
71
5
72
5
7
iso_b_vert
0
POINT
5
1AE
100
AcDbEntity
8
Defpoints
62
0
6
ByLayer
370
-1
48
1
60
0
100
AcDbPoint
10
0
20
-3
30
0
39
0
210
0
220
0
230
1
50
360
0
POINT
5
1AF
100
AcDbEntity
8
Defpoints
62
0
6
ByLayer
370
-1
48
1
60
0
100
AcDbPoint
10
38
20
-2.35
30
0
39
0
210
0
220
0
230
1
50
360
0
POINT
5
1B0
100
AcDbEntity
8
Defpoints
62
0
6
ByLayer
370
-1
48
1
60
0
100
AcDbPoint
10
38
20
-48.046927
30
0
39
0
210
0
220
0
230
1
50
360
0
ENDBLK
5
1A7
100
AcDbEntity
8
0
100
AcDbBlockEnd
0
BLOCK
5
1B8
100
AcDbEntity
8
0
100
AcDbBlockBegin
2
_U4
70
0
10
0
20
0
30
0
3
_U4
0
MTEXT
5
1B2
100
AcDbEntity
8
SK2
62
256
6
ByLayer
370
18
48
1
60
0
100
AcDbMText
10
17.095034
20
-47.014293
30
0
210
0
220
0
230
1
1
\W0.6740;38
40
3.5
41
0
44
1.084337
50
0
71
7
72
5
7
iso_b_vert
0
LINE
5
1B3
100
AcDbEntity
8
SK2
62
256
6
ByLayer
370
13
48
1
60
0
100
AcDbLine
10
0
20
-4.5875
30
0
11
0
21
-50.046927
31
0
39
0
210
0
220
0
230
1
0
LINE
5
1B4
100
AcDbEntity
8
SK2
62
256
6
ByLayer
370
13
48
1
60
0
100
AcDbLine
10
38
20
-3.9375
30
0
11
38
21
-50.046927
31
0
39
0
210
0
220
0
230
1
0
LINE
5
1B5
100
AcDbEntity
8
SK2
62
256
6
ByLayer
370
13
48
1
60
0
100
AcDbLine
10
0
20
-48.046927
30
0
11
38
21
-48.046927
31
0
39
0
210
0
220
0
230
1
0
SOLID
5
1B6
100
AcDbEntity
8
SK2
62
256
6
ByLayer
370
18
48
1
60
0
100
AcDbTrace
10
0
20
-48.046927
30
0
11
3.499998
21
-47.586143
31
0
12
3.500002
22
-48.50771
32
0
13
3.500002
23
-48.50771
33
0
39
0
210
0
220
0
230
1
0
SOLID
5
1B7
100
AcDbEntity
8
SK2
62
256
6
ByLayer
370
18
48
1
60
0
100
AcDbTrace
10
38
20
-48.046927
30
0
11
34.500002
21
-48.50771
31
0
12
34.499998
22
-47.586143
32
0
13
34.499998
23
-47.586143
33
0
39
0
210
0
220
0
230
1
0
ENDBLK
5
1B9
100
AcDbEntity
8
0
100
AcDbBlockEnd
0
ENDSEC
0
SECTION
2
ENTITIES
0
ARC
5
C1
100
AcDbEntity
8
1
62
256
6
ByLayer
370
18
48
1
60
0
100
AcDbCircle
39
0
10
1.303711
20
3.127598
30
0
40
0.800000000000467
210
0
220
0
230
1
100
AcDbArc
50
215.790182
51
270.03581
0
ARC
5
C2
100
AcDbEntity
8
1
62
256
6
ByLayer
370
18
48
1
60
0
100
AcDbCircle
39
0
10
1.303711
20
-3.127598
30
0
40
0.800000000000467
210
0
220
0
230
1
100
AcDbArc
50
89.96419
51
144.209818
0
ARC
5
C3
100
AcDbEntity
8
1
62
256
6
ByLayer
370
18
48
1
60
0
100
AcDbCircle
39
0
10
0
20
2.2
30
0
40
0.799999999999999
210
0
220
0
230
1
100
AcDbArc
50
35.790182
51
90
0
ARC
5
C4
100
AcDbEntity
8
1
62
256
6
ByLayer
370
18
48
1
60
0
100
AcDbCircle
39
0
10
0
20
-2.2
30
0
40
0.799999999999999
210
0
220
0
230
1
100
AcDbArc
50
270
51
324.209818
0
ARC
5
C5
100
AcDbEntity
8
SK2
62
256
6
ByLayer
370
13
48
1
60
0
100
AcDbCircle
39
0
10
38
20
0
30
0
40
29.7817374884393
210
0
220
0
230
1
100
AcDbArc
50
6.26501
51
70.007106
0
ARC
5
C6
100
AcDbEntity
8
SK2
62
256
6
ByLayer
370
13
48
1
60
0
100
AcDbCircle
39
0
10
38
20
0
30
0
40
29.7817374884393
210
0
220
0
230
1
100
AcDbArc
50
289.992894
51
353.73499
0
ELLIPSE
5
C7
100
AcDbEntity
8
1
62
256
6
ByLayer
370
13
48
1
60
0
100
AcDbEllipse
10
3.669359
20
-2.32453
30
0
11
0.05702731108078
21
-0.0821455159512432
31
0
210
0
220
0
230
1
40
0.411785
41
-2.71692754091358
42
-2.03625950047344
0
ELLIPSE
5
C8
100
AcDbEntity
8
1
62
256
6
ByLayer
370
13
48
1
60
0
100
AcDbEllipse
10
3.750277
20
-2.295705
30
0
11
0.00728476315538602
21
-0.099734308168102
31
0
210
0
220
0
230
1
40
0.530177
41
3.00122204540873
42
-1.74150034714186
0
ELLIPSE
5
C9
100
AcDbEntity
8
1
62
256
6
ByLayer
370
18
48
1
60
0
100
AcDbEllipse
10
3.75
20
-2.461895
30
0
11
-0.25
21
3.06151588455594E-17
31
0
210
0
220
0
230
1
40
0.999949
41
-1.56136155172231
42
-0.588788476297235
0
POINT
5
70
100
AcDbEntity
8
81
62
256
6
ByLayer
370
18
48
1
60
0
100
AcDbPoint
10
38
20
0
30
0
39
0
210
0
220
0
230
1
50
360
0
POINT
5
72
100
AcDbEntity
8
80
62
256
6
ByLayer
370
18
48
1
60
0
100
AcDbPoint
10
0
20
0
30
0
39
0
210
0
220
0
230
1
50
360
0
POINT
5
74
100
AcDbEntity
8
1
62
256
6
ByLayer
370
18
48
1
60
0
100
AcDbPoint
10
-218.784131
20
-200
30
0
39
0
210
0
220
0
230
1
50
360
0
POINT
5
76
100
AcDbEntity
8
1
62
256
6
ByLayer
370
13
48
1
60
1
100
AcDbPoint
10
-37.5
20
0
30
0
39
0
210
0
220
0
230
1
50
360
0
POINT
5
77
100
AcDbEntity
8
1
62
256
6
ByLayer
370
13
48
1
60
1
100
AcDbPoint
10
38.655893
20
0
30
0
39
0
210
0
220
0
230
1
50
360
0
POINT
5
78
100
AcDbEntity
8
1
62
256
6
ByLayer
370
18
48
1
60
1
100
AcDbPoint
10
-36
20
-3
30
0
39
0
210
0
220
0
230
1
50
360
0
POINT
5
79
100
AcDbEntity
8
1
62
256
6
ByLayer
370
18
48
1
60
1
100
AcDbPoint
10
38
20
-2.35
30
0
39
0
210
0
220
0
230
1
50
360
0
POINT
5
7A
100
AcDbEntity
8
1
62
256
6
ByLayer
370
18
48
1
60
1
100
AcDbPoint
10
38
20
-2.35
30
0
39
0
210
0
220
0
230
1
50
360
0
POINT
5
7B
100
AcDbEntity
8
1
62
256
6
ByLayer
370
18
48
1
60
1
100
AcDbPoint
10
2
20
-2.35
30
0
39
0
210
0
220
0
230
1
50
360
0
POINT
5
7C
100
AcDbEntity
8
1
62
256
6
ByLayer
370
18
48
1
60
1
100
AcDbPoint
10
38
20
-2.35
30
0
39
0
210
0
220
0
230
1
50
360
0
POINT
5
7D
100
AcDbEntity
8
1
62
256
6
ByLayer
370
18
48
1
60
1
100
AcDbPoint
10
9
20
-2.35
30
0
39
0
210
0
220
0
230
1
50
360
0
POINT
5
7E
100
AcDbEntity
8
1
62
256
6
ByLayer
370
18
48
1
60
1
100
AcDbPoint
10
-36
20
-3
30
0
39
0
210
0
220
0
230
1
50
360
0
POINT
5
7F
100
AcDbEntity
8
1
62
256
6
ByLayer
370
18
48
1
60
1
100
AcDbPoint
10
0
20
-3
30
0
39
0
210
0
220
0
230
1
50
360
0
POINT
5
80
100
AcDbEntity
8
1
62
256
6
ByLayer
370
18
48
1
60
1
100
AcDbPoint
10
0
20
-3
30
0
39
0
210
0
220
0
230
1
50
360
0
POINT
5
81
100
AcDbEntity
8
1
62
256
6
ByLayer
370
18
48
1
60
1
100
AcDbPoint
10
38
20
-2.35
30
0
39
0
210
0
220
0
230
1
50
360
0
SPLINE
5
CA
100
AcDbEntity
8
1
62
256
6
ByLayer
370
18
48
1
60
0
100
AcDbSpline
70
4
71
3
72
8
73
4
40
0
40
0
40
0
40
0
40
1
40
1
40
1
40
1
41
1
10
37.7893865977534
20
0.764298437041049
30
0
41
1
10
37.8602473404276
20
0.565790383789306
30
0
41
1
10
37.9293202586435
20
0.366636875410791
30
0
41
1
10
37.9965794974455
20
0.166828577536194
30
0
0
SPLINE
5
CB
100
AcDbEntity
8
1
62
256
6
ByLayer
370
18
48
1
60
0
100
AcDbSpline
70
4
71
3
72
16
73
12
40
0
40
0
40
0
40
0
40
0.0266154627236233
40
0.0266154627236233
40
0.269961597042717
40
0.269961597042717
40
0.513307731361812
40
0.513307731361812
40
0.756653865680906
40
0.756653865680906
40
1
40
1
40
1
40
1
41
1
10
37.4727060450671
20
-0.271795116613646
30
0
41
1
10
37.474395648668
20
-0.272908119992479
30
0
41
1
10
37.4760960255613
20
-0.274031596595563
30
0
41
1
10
37.4934441000496
20
-0.285527017500328
30
0
41
1
10
37.5099043812658
20
-0.296702805738505
30
0
41
1
10
37.5438418823224
20
-0.320277466460397
30
0
41
1
10
37.5613834546783
20
-0.332725108060544
30
0
41
1
10
37.5967152634968
20
-0.358417051493547
30
0
41
1
10
37.6145542272681
20
-0.371693146750488
30
0
41
1
10
37.6504001883617
20
-0.399154685568504
30
0
41
1
10
37.6684086002804
20
-0.413339509656623
30
0
41
1
10
37.6864268621663
20
-0.42806821471109
30
0
0
SPLINE
5
CC
100
AcDbEntity
8
1
62
256
6
ByLayer
370
18
48
1
60
0
100
AcDbSpline
70
4
71
3
72
12
73
8
40
0
40
0
40
0
40
0
40
0.499999999999937
40
0.499999999999937
40
0.749999999999968
40
0.749999999999968
40
1
40
1
40
1
40
1
41
1
10
3.75046222209568
20
-2.19641106486995
30
0
41
1
10
3.72675526933077
20
-2.19738651426772
30
0
41
1
10
3.70353695634782
20
-2.20156961678842
30
0
41
1
10
3.66948753197781
20
-2.21262391467016
30
0
41
1
10
3.65822522618416
20
-2.21714262669002
30
0
41
1
10
3.63636477713013
20
-2.22773686905197
30
0
41
1
10
3.62578424133872
20
-2.23379323343144
30
0
41
1
10
3.61559851384379
20
-2.24060820089241
30
0
0
SPLINE
5
CD
100
AcDbEntity
8
1
62
256
6
ByLayer
370
18
48
1
60
0
100
AcDbSpline
70
4
71
3
72
10
73
6
40
0
40
0
40
0
40
0
40
0.5
40
0.5
40
1
40
1
40
1
40
1
41
1
10
3.53858903526628
20
-0.584424755339796
30
0
41
1
10
3.54370790737701
20
-0.577609958446061
30
0
41
1
10
3.54950601493897
20
-0.571248109705664
30
0
41
1
10
3.56225749407534
20
-0.560008243805953
30
0
41
1
10
3.56923149962182
20
-0.555084329609542
30
0
41
1
10
3.57689494843032
20
-0.550935263485002
30
0
0
SPLINE
5
CE
100
AcDbEntity
8
1
62
256
6
ByLayer
370
18
48
1
60
0
100
AcDbSpline
70
4
71
3
72
24
73
20
40
0
40
0
40
0
40
0
40
0.250000000000031
40
0.250000000000031
40
0.312500000000026
40
0.312500000000026
40
0.375000000000021
40
0.375000000000021
40
0.500000000000012
40
0.500000000000012
40
0.562500000000022
40
0.562500000000022
40
0.625000000000032
40
0.625000000000032
40
0.750000000000021
40
0.750000000000021
40
0.875000000000011
40
0.875000000000011
40
1
40
1
40
1
40
1
41
1
10
37.9577714174727
20
0.0364773393317535
30
0
41
1
10
37.9423674025288
20
-0.0149163060099227
30
0
41
1
10
37.9244056541923
20
-0.0650331662696715
30
0
41
1
10
37.8986904161681
20
-0.125978538382327
30
0
41
1
10
37.8933653250704
20
-0.138116879310928
30
0
41
1
10
37.8824442100823
20
-0.162049767278575
30
0
41
1
10
37.8768847460076
20
-0.173767090869376
30
0
41
1
10
37.8599218313296
20
-0.208171595264218
30
0
41
1
10
37.8482359505309
20
-0.230115557074811
30
0
41
1
10
37.8301544460962
20
-0.261473171595469
30
0
41
1
10
37.8240346676872
20
-0.271664999596567
30
0
41
1
10
37.8116051566912
20
-0.291501240155327
30
0
41
1
10
37.805262297776
20
-0.301193355640123
30
0
41
1
10
37.7861855246712
20
-0.329026871119908
30
0
41
1
10
37.773506645376
20
-0.345804722374339
30
0
41
1
10
37.748221150566
20
-0.375840463316166
30
0
41
1
10
37.7356147485048
20
-0.389099332476519
30
0
41
1
10
37.7104320571354
20
-0.411873323045626
30
0
41
1
10
37.6982476109465
20
-0.421030638836669
30
0
41
1
10
37.6864268621663
20
-0.42806821471109
30
0
0
SPLINE
5
CF
100
AcDbEntity
8
1
62
256
6
ByLayer
370
18
48
1
60
0
100
AcDbSpline
70
4
71
3
72
66
73
62
40
0
40
0
40
0
40
0
40
0.0312500000000004
40
0.0312500000000004
40
0.0625000000000008
40
0.0625000000000008
40
0.0937500000000014
40
0.0937500000000014
40
0.125000000000002
40
0.125000000000002
40
0.156250000000002
40
0.156250000000002
40
0.187500000000003
40
0.187500000000003
40
0.218750000000004
40
0.218750000000004
40
0.250000000000004
40
0.250000000000004
40
0.281250000000005
40
0.281250000000005
40
0.312500000000005
40
0.312500000000005
40
0.374999999999991
40
0.374999999999991
40
0.406249999999991
40
0.406249999999991
40
0.437499999999991
40
0.468749999999991
40
0.468749999999991
40
0.499999999999991
40
0.499999999999991
40
0.562500000000003
40
0.562500000000003
40
0.593750000000009
40
0.593750000000009
40
0.625000000000014
40
0.65625000000002
40
0.65625000000002
40
0.671875000000023
40
0.671875000000023
40
0.687500000000026
40
0.687500000000026
40
0.750000000000038
40
0.750000000000038
40
0.781250000000043
40
0.781250000000043
40
0.812500000000048
40
0.812500000000048
40
0.843750000000053
40
0.843750000000053
40
0.875000000000059
40
0.875000000000059
40
0.890625000000056
40
0.890625000000056
40
0.906250000000053
40
0.906250000000053
40
0.937500000000035
40
0.937500000000035
40
0.968750000000018
40
0.968750000000018
40
1
40
1
40
1
40
1
41
1
10
37.6864268621663
20
-0.428068214711118
30
0
41
1
10
37.685152315304
20
-0.438638678073232
30
0
41
1
10
37.6834287317643
20
-0.449455423679495
30
0
41
1
10
37.679087959469
20
-0.471596029309865
30
0
41
1
10
37.6764541183635
20
-0.482950352292704
30
0
41
1
10
37.6705227864742
20
-0.505303524943884
30
0
41
1
10
37.6672067527718
20
-0.516411844331714
30
0
41
1
10
37.6599221350791
20
-0.538503815329818
30
0
41
1
10
37.6559421627215
20
-0.549499539599083
30
0
41
1
10
37.6476270583262
20
-0.570696438052323
30
0
41
1
10
37.643263157086
20
-0.580989902485953
30
0
41
1
10
37.6341632474596
20
-0.601006300800094
30
0
41
1
10
37.6294083653897
20
-0.610757185653029
30
0
41
1
10
37.619799594378
20
-0.629224303263271
30
0
41
1
10
37.6149177910312
20
-0.638006214997489
30
0
41
1
10
37.6050170412233
20
-0.654722202960699
30
0
41
1
10
37.5999746018327
20
-0.662689697520193
30
0
41
1
10
37.5898772238395
20
-0.677609610074796
30
0
41
1
10
37.5848384829193
20
-0.684543729478236
30
0
41
1
10
37.5747795625552
20
-0.697405878387684
30
0
41
1
10
37.5697405942514
20
-0.703349853035519
30
0
41
1
10
37.5549469913288
20
-0.719360806513407
30
0
41
1
10
37.5454078265505
20
-0.727777867273971
30
0
41
1
10
37.5315094444004
20
-0.737121433716965
30
0
41
1
10
37.5269189288612
20
-0.739692911767747
30
0
41
1
10
37.5180163826646
20
-0.743613419644134
30
0
41
1
10
37.5094031859168
20
-0.746322803434083
30
0
41
1
10
37.5013274416043
20
-0.746646632912501
30
0
41
1
10
37.4935104220052
20
-0.745745102312725
30
0
41
1
10
37.4897132053031
20
-0.744672798378218
30
0
41
1
10
37.4788366437663
20
-0.739547935087245
30
0
41
1
10
37.4723758270536
20
-0.733698834644997
30
0
41
1
10
37.4638170229644
20
-0.721134111677827
30
0
41
1
10
37.4611498574245
20
-0.716295936774372
30
0
41
1
10
37.4562425293329
20
-0.705270453015629
30
0
41
1
10
37.4518553580128
20
-0.693112907879225
30
0
41
1
10
37.4484925233442
20
-0.678690096361066
30
0
41
1
10
37.4463733647394
20
-0.666977251584854
30
0
41
1
10
37.4457344044799
20
-0.662923188721237
30
0
41
1
10
37.444598217259
20
-0.65450077125206
30
0
41
1
10
37.4440992014481
20
-0.650110889998217
30
0
41
1
10
37.4420096060737
20
-0.627629898009076
30
0
41
1
10
37.4415974804685
20
-0.608058191462248
30
0
41
1
10
37.4430872472467
20
-0.576160663696214
30
0
41
1
10
37.4439536465819
20
-0.565050489477272
30
0
41
1
10
37.4463880594323
20
-0.542817380050479
30
0
41
1
10
37.4479576254245
20
-0.531591620887696
30
0
41
1
10
37.4518334005917
20
-0.508924327928867
30
0
41
1
10
37.4541679597176
20
-0.497373309147036
30
0
41
1
10
37.4594765852312
20
-0.47475625804509
30
0
41
1
10
37.4624469420293
20
-0.4636648533033
30
0
41
1
10
37.4673749913233
20
-0.447344406156077
30
0
41
1
10
37.4690966902917
20
-0.441957227401588
30
0
41
1
10
37.4727009266072
20
-0.431289520268479
30
0
41
1
10
37.4745871503603
20
-0.426001560554226
30
0
41
1
10
37.4803949500112
20
-0.410551030914178
30
0
41
1
10
37.4844929227855
20
-0.400712879895593
30
0
41
1
10
37.4931224578269
20
-0.381897419838907
30
0
41
1
10
37.4976809341302
20
-0.372873450794373
30
0
41
1
10
37.5071023803106
20
-0.355897675679074
30
0
41
1
10
37.5119315886366
20
-0.347995780142838
30
0
41
1
10
37.5168708665724
20
-0.340629376560713
30
0
0
SPLINE
5
D0
100
AcDbEntity
8
1
62
256
6
ByLayer
370
18
48
1
60
0
100
AcDbSpline
70
4
71
3
72
10
73
6
40
0
40
0
40
0
40
0
40
0.5
40
0.5
40
1
40
1
40
1
40
1
41
1
10
37.5168708665726
20
-0.340629376560543
30
0
41
1
10
37.4550643955465
20
-0.238669338585453
30
0
41
1
10
37.3871352908915
20
-0.131138608517176
30
0
41
1
10
37.2382113385412
20
0.095810747558545
30
0
41
1
10
37.1572141229709
20
0.215231527982041
30
0
41
1
10
37.0693836539442
20
0.340869559560844
30
0
0
SPLINE
5
D1
100
AcDbEntity
8
1
62
256
6
ByLayer
370
18
48
1
60
0
100
AcDbSpline
70
4
71
3
72
8
73
4
40
0
40
0
40
0
40
0
40
1
40
1
40
1
40
1
41
1
10
37.7893865977534
20
-0.764298437041049
30
0
41
1
10
37.8602473404291
20
-0.565790383785099
30
0
41
1
10
37.9293202586465
20
-0.366636875402321
30
0
41
1
10
37.9965794974498
20
-0.166828577523461
30
0
0
SPLINE
5
D2
100
AcDbEntity
8
1
62
256
6
ByLayer
370
18
48
1
60
0
100
AcDbSpline
70
4
71
3
72
8
73
4
40
0
40
0
40
0
40
0
40
1
40
1
40
1
40
1
41
1
10
37.9965794974456
20
0.166828577536194
30
0
41
1
10
38.0011484702192
20
0.0554070514887428
30
0
41
1
10
38.0011318949338
20
-0.0558112656640617
30
0
41
1
10
37.9965794974459
20
-0.166828577527127
30
0
0
SPLINE
5
D3
100
AcDbEntity
8
1
62
256
6
ByLayer
370
18
48
1
60
0
100
AcDbSpline
70
4
71
3
72
8
73
4
40
0
40
0
40
0
40
0
40
1
40
1
40
1
40
1
41
1
10
37.9965794974456
20
0.166828577536194
30
0
41
1
10
37.9837230531403
20
0.123352309187965
30
0
41
1
10
37.9707869011857
20
0.0799019371610541
30
0
41
1
10
37.9577714174727
20
0.0364773393317535
30
0
0
SPLINE
5
D4
100
AcDbEntity
8
1
62
256
6
ByLayer
370
18
48
1
60
0
100
AcDbSpline
70
4
71
3
72
10
73
6
40
0
40
0
40
0
40
0
40
0.5
40
0.5
40
1
40
1
40
1
40
1
41
1
10
37.0693836539442
20
0.340869559560815
30
0
41
1
10
37.0389813477479
20
0.326798115835089
30
0
41
1
10
37.0092046193329
20
0.309720799136755
30
0
41
1
10
36.9511213205265
20
0.270410839578716
30
0
41
1
10
36.92279258139
20
0.248301305878044
30
0
41
1
10
36.8954116640477
20
0.223151974650136
30
0
0
SPLINE
5
D5
100
AcDbEntity
8
1
62
256
6
ByLayer
370
18
48
1
60
0
100
AcDbSpline
70
4
71
3
72
20
73
16
40
0
40
0
40
0
40
0
40
0.235017357966181
40
0.235017357966181
40
0.470034715932361
40
0.470034715932361
40
0.587543394915467
40
0.587543394915467
40
0.705052073898573
40
0.705052073898573
40
0.822560752881679
40
0.822560752881679
40
0.940069431864785
40
0.940069431864785
40
1
40
1
40
1
40
1
41
1
10
37.0693836539442
20
0.340869559560787
30
0
41
1
10
37.0359516506757
20
0.371817631810387
30
0
41
1
10
37.0035381029851
20
0.401271560049366
30
0
41
1
10
36.9412037778368
20
0.456522352052474
30
0
41
1
10
36.9112802635335
20
0.482323230956325
30
0
41
1
10
36.868427198897
20
0.518043162875443
30
0
41
1
10
36.8545161001111
20
0.529398007933253
30
0
41
1
10
36.8277062013261
20
0.550843773045926
30
0
41
1
10
36.8146587021694
20
0.561105584113847
30
0
41
1
10
36.7899758883036
20
0.579807643634808
30
0
41
1
10
36.7783368254717
20
0.588252726754632
30
0
41
1
10
36.756949429032
20
0.602704060252961
30
0
41
1
10
36.7474538463897
20
0.608509682433152
30
0
41
1
10
36.7353851751899
20
0.614639284472105
30
0
41
1
10
36.7317033690817
20
0.616248775878063
30
0
41
1
10
36.7283955358747
20
0.617421356743279
30
0
0
SPLINE
5
D6
100
AcDbEntity
8
1
62
256
6
ByLayer
370
18
48
1
60
0
100
AcDbSpline
70
4
71
3
72
24
73
20
40
0
40
0
40
0
40
0
40
0.0021331826343388
40
0.0021331826343388
40
0.113007273452719
40
0.113007273452719
40
0.223881364271099
40
0.223881364271099
40
0.334755455089479
40
0.334755455089479
40
0.556503636726239
40
0.556503636726239
40
0.611940682135459
40
0.611940682135459
40
0.66737772754468
40
0.66737772754468
40
0.77825181836312
40
0.77825181836312
40
1
40
1
40
1
40
1
41
1
10
36.9326972149487
20
0.454621268371312
30
0
41
1
10
36.9329323765816
20
0.454721570294282
30
0
41
1
10
36.9331677405924
20
0.454822138002413
30
0
41
1
10
36.9456470681148
20
0.460163890314135
30
0
41
1
10
36.9584336539598
20
0.466126540914956
30
0
41
1
10
36.985246586879
20
0.47924843661616
30
0
41
1
10
36.999263972602
20
0.486422663550769
30
0
41
1
10
37.0287600700683
20
0.501681438123484
30
0
41
1
10
37.0443271042199
20
0.509780140118494
30
0
41
1
10
37.0924534997287
20
0.534321688024733
30
0
41
1
10
37.1266295056549
20
0.551298977281135
30
0
41
1
10
37.1724143544209
20
0.572133443923519
30
0
41
1
10
37.1817269838322
20
0.576278198739061
30
0
41
1
10
37.2006823766663
20
0.584486658353825
30
0
41
1
10
37.21030217169
20
0.588539469320494
30
0
41
1
10
37.2393015077225
20
0.600368054267648
30
0
41
1
10
37.2589311073392
20
0.607868449633003
30
0
41
1
10
37.3188053524265
20
0.628779737456085
30
0
41
1
10
37.3600507662701
20
0.640552008616254
30
0
41
1
10
37.4029090466582
20
0.648949117706309
30
0
0
SPLINE
5
D7
100
AcDbEntity
8
1
62
256
6
ByLayer
370
18
48
1
60
0
100
AcDbSpline
70
4
71
3
72
14
73
10
40
0
40
0
40
0
40
0
40
0.25
40
0.25
40
0.5
40
0.5
40
0.75
40
0.75
40
1
40
1
40
1
40
1
41
1
10
37.4029090466582
20
0.648949117706309
30
0
41
1
10
37.4358964572345
20
0.655412253480762
30
0
41
1
10
37.468806618726
20
0.662373520515217
30
0
41
1
10
37.5344214492539
20
0.677621147504226
30
0
41
1
10
37.5671583155028
20
0.68595705954732
30
0
41
1
10
37.6319476034216
20
0.704543132982622
30
0
41
1
10
37.6640326753762
20
0.714785960330431
30
0
41
1
10
37.7274055670542
20
0.737717645957048
30
0
41
1
10
37.7587787832106
20
0.750382876261853
30
0
41
1
10
37.7893865977528
20
0.764298437040424
30
0
0
SPLINE
5
D8
100
AcDbEntity
8
1
62
256
6
ByLayer
370
18
48
1
60
0
100
AcDbSpline
70
4
71
3
72
27
73
23
40
0
40
0
40
0
40
0
40
0.125000000000007
40
0.125000000000007
40
0.250000000000014
40
0.250000000000014
40
0.500000000000028
40
0.500000000000028
40
0.562500000000025
40
0.562500000000025
40
0.593750000000023
40
0.593750000000023
40
0.625000000000021
40
0.625000000000021
40
0.687500000000018
40
0.687500000000018
40
0.750000000000015
40
0.875000000000007
40
0.875000000000007
40
0.937500000000004
40
0.937500000000004
40
1
40
1
40
1
40
1
41
1
10
37.206446978575
20
2.22775578628742
30
0
41
1
10
37.2286710398634
20
2.16626460467222
30
0
41
1
10
37.2508301538145
20
2.10451440698625
30
0
41
1
10
37.2952034523001
20
1.98063616786112
30
0
41
1
10
37.3174237840143
20
1.91850525596621
30
0
41
1
10
37.3844810107896
20
1.73170229175577
30
0
41
1
10
37.4297380345199
20
1.60662874827756
30
0
41
1
10
37.4875891246626
20
1.45008231920738
30
0
41
1
10
37.4992275889874
20
1.41874454760807
30
0
41
1
10
37.5167434656403
20
1.37182131939176
30
0
41
1
10
37.5225924189767
20
1.35619223835212
30
0
41
1
10
37.5343113369618
20
1.32495688347984
30
0
41
1
10
37.5401691938617
20
1.30933758444132
30
0
41
1
10
37.5579201398531
20
1.26266985147939
30
0
41
1
10
37.5699509901928
20
1.2317668361618
30
0
41
1
10
37.5945314408684
20
1.17046034855963
30
0
41
1
10
37.6321748074216
20
1.0792440998452
30
0
41
1
10
37.6725190021037
20
0.990425747795683
30
0
41
1
10
37.7150884548711
20
0.903368888472272
30
0
41
1
10
37.7296868353894
20
0.874581138202814
30
0
41
1
10
37.7592104309958
20
0.818502017888108
30
0
41
1
10
37.7741862005735
20
0.791099909158646
30
0
41
1
10
37.7893865977533
20
0.764298437041276
30
0
0
SPLINE
5
D9
100
AcDbEntity
8
1
62
256
6
ByLayer
370
18
48
1
60
0
100
AcDbSpline
70
4
71
3
72
8
73
4
40
0
40
0
40
0
40
0
40
1
40
1
40
1
40
1
41
1
10
14.4999999999987
20
2.30575916058302
30
0
41
1
10
14.4999999999987
20
2.2742153662918
30
0
41
1
10
14.5
20
2.24214629811323
30
0
41
1
10
14.5
20
2.20956024659162
30
0
0
SPLINE
5
DA
100
AcDbEntity
8
1
62
256
6
ByLayer
370
18
48
1
60
0
100
AcDbSpline
70
4
71
3
72
27
73
23
40
0
40
0
40
0
40
0
40
0.125000000000003
40
0.125000000000003
40
0.250000000000006
40
0.250000000000006
40
0.500000000000004
40
0.500000000000004
40
0.562500000000004
40
0.562500000000004
40
0.593749999999999
40
0.593749999999999
40
0.624999999999994
40
0.624999999999994
40
0.687499999999993
40
0.687499999999993
40
0.749999999999992
40
0.874999999999991
40
0.874999999999991
40
0.937499999999995
40
0.937499999999995
40
1
40
1
40
1
40
1
41
1
10
37.2064469785741
20
-2.22775578629006
30
0
41
1
10
37.2286710398625
20
-2.16626460467478
30
0
41
1
10
37.2508301538136
20
-2.1045144069887
30
0
41
1
10
37.2952034522992
20
-1.98063616786337
30
0
41
1
10
37.3174237840135
20
-1.91850525596834
30
0
41
1
10
37.384481010789
20
-1.73170229175759
30
0
41
1
10
37.4297380345193
20
-1.60662874827918
30
0
41
1
10
37.4875891246621
20
-1.45008231920875
30
0
41
1
10
37.4992275889869
20
-1.41874454760938
30
0
41
1
10
37.5167434656398
20
-1.37182131939298
30
0
41
1
10
37.5225924189763
20
-1.35619223835334
30
0
41
1
10
37.5343113369614
20
-1.32495688348098
30
0
41
1
10
37.5401691938613
20
-1.30933758444246
30
0
41
1
10
37.5579201398527
20
-1.26266985148041
30
0
41
1
10
37.5699509901924
20
-1.23176683616279
30
0
41
1
10
37.594531440868
20
-1.17046034856048
30
0
41
1
10
37.6321748074213
20
-1.07924409984591
30
0
41
1
10
37.6725190021035
20
-0.990425747796138
30
0
41
1
10
37.715088454871
20
-0.9033688884725
30
0
41
1
10
37.7296868353893
20
-0.874581138203013
30
0
41
1
10
37.7592104309958
20
-0.818502017888221
30
0
41
1
10
37.7741862005735
20
-0.791099909158703
30
0
41
1
10
37.7893865977533
20
-0.764298437041305
30
0
0
SPLINE
5
DB
100
AcDbEntity
8
1
62
256
6
ByLayer
370
18
48
1
60
0
100
AcDbSpline
70
4
71
3
72
26
73
22
40
0
40
0
40
0
40
0
40
0.119331735560062
40
0.119331735560062
40
0.238663471120125
40
0.238663471120125
40
0.298329338900151
40
0.298329338900151
40
0.357995206680177
40
0.357995206680177
40
0.477326942240239
40
0.477326942240239
40
0.596658677800301
40
0.596658677800301
40
0.715990413360364
40
0.715990413360364
40
0.835322148920426
40
0.835322148920426
40
0.954653884480489
40
0.954653884480489
40
1
40
1
40
1
40
1
41
1
10
37.2064469785691
20
2.22775578628637
30
0
41
1
10
37.0887712979868
20
2.23214159610231
30
0
41
1
10
36.9709737320978
20
2.23320316976131
30
0
41
1
10
36.7347899278771
20
2.22857583026985
30
0
41
1
10
36.6163936081241
20
2.22293362202402
30
0
41
1
10
36.4381783341138
20
2.2092210818486
30
0
41
1
10
36.3786175637798
20
2.20376636214885
30
0
41
1
10
36.2594636906183
20
2.19111695164986
30
0
41
1
10
36.200007681578
20
2.18394283478057
30
0
41
1
10
36.0219434977761
20
2.15990910192625
30
0
41
1
10
35.9036515672073
20
2.14052055047151
30
0
41
1
10
35.667717540442
20
2.09491461647656
30
0
41
1
10
35.550122339554
20
2.06858392280748
30
0
41
1
10
35.3151901241491
20
2.009393130403
30
0
41
1
10
35.1978325393571
20
1.97662022809786
30
0
41
1
10
34.9630491217004
20
1.90515585575733
30
0
41
1
10
34.8456174532162
20
1.86646257192368
30
0
41
1
10
34.6103201782551
20
1.78353003203267
30
0
41
1
10
34.4924638810792
20
1.73929518471817
30
0
41
1
10
34.3293868863742
20
1.67463167829149
30
0
41
1
10
34.2844411809162
20
1.65642831233723
30
0
41
1
10
34.2394445067629
20
1.63783704826759
30
0
0
SPLINE
5
DC
100
AcDbEntity
8
1
62
256
6
ByLayer
370
18
48
1
60
0
100
AcDbSpline
70
4
71
3
72
54
73
50
40
0
40
0
40
0
40
0
40
0.0184622201521567
40
0.0184622201521567
40
0.0652021144306263
40
0.0652021144306263
40
0.111942008709096
40
0.111942008709096
40
0.158681902987566
40
0.158681902987566
40
0.182051850126801
40
0.182051850126801
40
0.205421797266036
40
0.205421797266036
40
0.252161691544506
40
0.252161691544506
40
0.298901585822976
40
0.298901585822976
40
0.345641480101446
40
0.345641480101446
40
0.392381374379916
40
0.392381374379916
40
0.439121268658386
40
0.439121268658386
40
0.485861162936856
40
0.485861162936856
40
0.532601057215325
40
0.532601057215325
40
0.579340951493795
40
0.579340951493795
40
0.602710898633029
40
0.602710898633029
40
0.626080845772263
40
0.626080845772263
40
0.672820740050729
40
0.672820740050729
40
0.719560634329195
40
0.719560634329195
40
0.766300528607661
40
0.766300528607661
40
0.789670475746895
40
0.789670475746895
40
0.813040422886129
40
0.813040422886129
40
0.906520211443065
40
0.906520211443065
40
0.953260105721532
40
0.953260105721532
40
1
40
1
40
1
40
1
41
1
10
22.1018714410293
20
-1.3510884954795
30
0
41
1
10
22.0555203212868
20
-1.32852596627814
30
0
41
1
10
22.0091742765262
20
-1.30564662261784
30
0
41
1
10
21.8454805690514
20
-1.22377732469201
30
0
41
1
10
21.7281144352207
20
-1.1631435360471
30
0
41
1
10
21.4931678251434
20
-1.03803342066723
30
0
41
1
10
21.3755715583734
20
-0.973590632711989
30
0
41
1
10
21.1397033030455
20
-0.841787341607102
30
0
41
1
10
21.0214577250106
20
-0.774356289490896
30
0
41
1
10
20.8434117224532
20
-0.671204478712212
30
0
41
1
10
20.7838929691584
20
-0.636459386616338
30
0
41
1
10
20.665007127152
20
-0.566634304874668
30
0
41
1
10
20.6056078796366
20
-0.531533472520522
30
0
41
1
10
20.4274988911174
20
-0.425736681203858
30
0
41
1
10
20.3088671330195
20
-0.354567307345945
30
0
41
1
10
20.0716694296819
20
-0.21117085327819
30
0
41
1
10
19.953088110826
20
-0.138967455606263
30
0
41
1
10
19.7155718850345
20
0.0058175761116672
30
0
41
1
10
19.5965704528629
20
0.0785023485665874
30
0
41
1
10
19.3586101148414
20
0.223376824356762
30
0
41
1
10
19.239574483995
20
0.295546751239698
30
0
41
1
10
19.0015984233762
20
0.4386309454502
30
0
41
1
10
18.8826955084046
20
0.509530413500755
30
0
41
1
10
18.6449155544152
20
0.649719746272581
30
0
41
1
10
18.5259200091171
20
0.719011985934259
30
0
41
1
10
18.2884952450766
20
0.854681944381184
30
0
41
1
10
18.1699819668706
20
0.921157350035628
30
0
41
1
10
17.9329567836488
20
1.05094513088099
30
0
41
1
10
17.8144106139555
20
1.11424984124218
30
0
41
1
10
17.6363606379432
20
1.20654700207808
30
0
41
1
10
17.5769735588282
20
1.23686911869567
30
0
41
1
10
17.4580988972893
20
1.29657944396112
30
0
41
1
10
17.3985805624841
20
1.32598627891019
30
0
41
1
10
17.2202975648264
20
1.41252243364548
30
0
41
1
10
17.101662286817
20
1.46799402591162
30
0
41
1
10
16.8644849045446
20
1.57406923949111
30
0
41
1
10
16.745965943152
20
1.62469929238236
30
0
41
1
10
16.5087048763306
20
1.72093683945133
30
0
41
1
10
16.3899478225412
20
1.76652800294312
30
0
41
1
10
16.2114601181883
20
1.83078667734372
30
0
41
1
10
16.1520058464031
20
1.85147953459995
30
0
41
1
10
16.0333655291448
20
1.89127428871382
30
0
41
1
10
15.9741545255065
20
1.91038334260384
30
0
41
1
10
15.6785772945424
20
2.00179399871757
30
0
41
1
10
15.4433924470591
20
2.06185693158358
30
0
41
1
10
15.0903292234164
20
2.13204694109641
30
0
41
1
10
14.9725674907817
20
2.15215394863767
30
0
41
1
10
14.7366330818876
20
2.18582257233834
30
0
41
1
10
14.6184643801529
20
2.19937968978596
30
0
41
1
10
14.5000000000092
20
2.20956024652278
30
0
0
SPLINE
5
DD
100
AcDbEntity
8
1
62
256
6
ByLayer
370
18
48
1
60
0
100
AcDbSpline
70
4
71
3
72
22
73
18
40
0
40
0
40
0
40
0
40
0.500000000000081
40
0.500000000000081
40
0.750000000000083
40
0.750000000000083
40
0.875000000000046
40
0.875000000000046
40
0.937500000000028
40
0.937500000000028
40
0.968750000000057
40
0.968750000000057
40
0.984375000000031
40
0.984375000000031
40
0.992187500000016
40
0.992187500000016
40
1
40
1
40
1
40
1
41
1
10
37.1467642740899
20
2.34991379694358
30
0
41
1
10
37.1563146472526
20
2.32958007645041
30
0
41
1
10
37.1660668671061
20
2.30923063702355
30
0
41
1
10
37.1810046975924
20
2.27863908650113
30
0
41
1
10
37.1860384448833
20
2.26841869309246
30
0
41
1
10
37.1936527305365
20
2.25312288858007
30
0
41
1
10
37.1961957035648
20
2.24805337350511
30
0
41
1
10
37.2000423168793
20
2.24039189588567
30
0
41
1
10
37.2013377828808
20
2.23779648845058
30
0
41
1
10
37.2032704799446
20
2.23396415229797
30
0
41
1
10
37.2039026576055
20
2.23273863363909
30
0
41
1
10
37.2048622048136
20
2.23085918235813
30
0
41
1
10
37.2051895315156
20
2.23020265158908
30
0
41
1
10
37.2056924541351
20
2.22916745140967
30
0
41
1
10
37.2058610046377
20
2.22881854827864
30
0
41
1
10
37.2061866064858
20
2.22817214176871
30
0
41
1
10
37.206356743651
20
2.22784394563749
30
0
41
1
10
37.2064469785734
20
2.22775578628818
30
0
0
SPLINE
5
DE
100
AcDbEntity
8
1
62
256
6
ByLayer
370
18
48
1
60
0
100
AcDbSpline
70
4
71
3
72
78
73
74
40
0
40
0
40
0
40
0
40
0.000357481521888
40
0.000357481521888
40
0.0328556128308984
40
0.0328556128308984
40
0.0653537441399088
40
0.0653537441399088
40
0.0978518754489192
40
0.0978518754489192
40
0.13035000675793
40
0.13035000675793
40
0.16284813806694
40
0.16284813806694
40
0.19534626937595
40
0.19534626937595
40
0.227844400684961
40
0.227844400684961
40
0.244093466339466
40
0.244093466339466
40
0.260342531993971
40
0.260342531993971
40
0.292840663302982
40
0.292840663302982
40
0.325338794611992
40
0.325338794611992
40
0.357836925921003
40
0.357836925921003
40
0.390335057230013
40
0.390335057230013
40
0.406584122884518
40
0.406584122884518
40
0.422833188539023
40
0.422833188539023
40
0.455331319848034
40
0.455331319848034
40
0.487829451157044
40
0.487829451157044
40
0.520327582466054
40
0.520327582466054
40
0.552825713775065
40
0.552825713775065
40
0.585323845084075
40
0.585323845084075
40
0.617821976393086
40
0.617821976393086
40
0.650320107702096
40
0.650320107702096
40
0.682818239011104
40
0.682818239011104
40
0.715316370320111
40
0.715316370320111
40
0.747814501629119
40
0.747814501629119
40
0.780312632938127
40
0.780312632938127
40
0.812810764247134
40
0.812810764247134
40
0.845308895556142
40
0.845308895556142
40
0.87780702686515
40
0.87780702686515
40
0.910305158174157
40
0.910305158174157
40
0.942803289483165
40
0.942803289483165
40
0.959052355137668
40
0.959052355137668
40
0.96717688796492
40
0.96717688796492
40
0.975301420792173
40
0.975301420792173
40
1
40
1
40
1
40
1
41
1
10
33.6661965361879
20
-1.38224941209592
30
0
41
1
10
33.6648939380978
20
-1.38162759900308
30
0
41
1
10
33.6635913916386
20
-1.38100553669392
30
0
41
1
10
33.5438809515906
20
-1.32380979194954
30
0
41
1
10
33.4258828201243
20
-1.26520838876098
30
0
41
1
10
33.1903488201332
20
-1.14446134254535
30
0
41
1
10
33.0728377856798
20
-1.08225755401767
30
0
41
1
10
32.8380816901266
20
-0.954507521511175
30
0
41
1
10
32.7208641709075
20
-0.88890784734599
30
0
41
1
10
32.4862470360409
20
-0.755224081112118
30
0
41
1
10
32.3688481144975
20
-0.687147693503505
30
0
41
1
10
32.1336363860842
20
-0.548887947120079
30
0
41
1
10
32.015810696447
20
-0.478729132605196
30
0
41
1
10
31.7793788416946
20
-0.336909182319914
30
0
41
1
10
31.660766370086
20
-0.26522592004369
30
0
41
1
10
31.4226347808155
20
-0.120653002600051
30
0
41
1
10
31.3036089575216
20
-0.0479647056616272
30
0
41
1
10
31.1251306715528
20
0.0609281547777698
30
0
41
1
10
31.0656414587388
20
0.0972095244025866
30
0
41
1
10
30.9466380258595
20
0.169686726621194
30
0
41
1
10
30.8871099696826
20
0.20589908369476
30
0
41
1
10
30.708868571992
20
0.314064161307044
30
0
41
1
10
30.5903458964785
20
0.385606254351615
30
0
41
1
10
30.3535388350898
20
0.52699216604853
30
0
41
1
10
30.2352723825536
20
0.596858641181626
30
0
41
1
10
29.9988169399681
20
0.734544743594853
30
0
41
1
10
29.8806622427937
20
0.802386407329152
30
0
41
1
10
29.6439830688354
20
0.935391588744153
30
0
41
1
10
29.5254629697953
20
1.0005761259261
30
0
41
1
10
29.3472209827791
20
1.0960921754365
30
0
41
1
10
29.2876774798986
20
1.12757550602265
30
0
41
1
10
29.1689078702499
20
1.18943645445984
30
0
41
1
10
29.1096265217508
20
1.21984094454186
30
0
41
1
10
28.9320449929877
20
1.30943744914458
30
0
41
1
10
28.8140024832578
20
1.36701468056154
30
0
41
1
10
28.5783975392747
20
1.47768764530906
30
0
41
1
10
28.4608595874543
20
1.5307957399186
30
0
41
1
10
28.2259321998625
20
1.63208058752394
30
0
41
1
10
28.1085530600772
20
1.68027281245236
30
0
41
1
10
27.8737475053417
20
1.77136280934752
30
0
41
1
10
27.7563027729615
20
1.81423142339781
30
0
41
1
10
27.520985892892
20
1.89423577831866
30
0
41
1
10
27.4031186920431
20
1.93139847342485
30
0
41
1
10
27.1667339714385
20
1.99981072414269
30
0
41
1
10
27.0482339299609
20
2.03104548171527
30
0
41
1
10
26.8101909704502
20
2.08728699356627
30
0
41
1
10
26.6910765939375
20
2.11219967721286
30
0
41
1
10
26.4529467450084
20
2.15527031564693
30
0
41
1
10
26.3338618749032
20
2.17345889672762
30
0
41
1
10
26.0956633608476
20
2.20294968663254
30
0
41
1
10
25.9765772586923
20
2.21421562379652
30
0
41
1
10
25.7386619647667
20
2.22951472909185
30
0
41
1
10
25.6197815896602
20
2.23355109087669
30
0
41
1
10
25.3817012718308
20
2.23466616341582
30
0
41
1
10
25.263117860488
20
2.23170740651156
30
0
41
1
10
25.0267050970221
20
2.21881498508327
30
0
41
1
10
24.9088248461889
20
2.20893730814538
30
0
41
1
10
24.6734251239839
20
2.18241444349528
30
0
41
1
10
24.5559158622689
20
2.16574810828064
30
0
41
1
10
24.3211113748149
20
2.12540207944156
30
0
41
1
10
24.2038052882063
20
2.10175386166799
30
0
41
1
10
23.9689079250856
20
2.04823022922011
30
0
41
1
10
23.8513431421955
20
2.01829672830189
30
0
41
1
10
23.6157204567327
20
1.9522346693297
30
0
41
1
10
23.4976379496081
20
1.91614923092169
30
0
41
1
10
23.3198917046022
20
1.8576271075878
30
0
41
1
10
23.2605420183984
20
1.83738195931423
30
0
41
1
10
23.1713441748662
20
1.80589460483449
30
0
41
1
10
23.1415636025926
20
1.79520490677265
30
0
41
1
10
23.0820866672721
20
1.77349604987137
30
0
41
1
10
23.0523803749808
20
1.76247355362062
30
0
41
1
10
22.9324979534174
20
1.71725342467911
30
0
41
1
10
22.8425747972385
20
1.68167657280463
30
0
41
1
10
22.7528432096206
20
1.6446801637135
30
0
0
SPLINE
5
DF
100
AcDbEntity
8
1
62
256
6
ByLayer
370
18
48
1
60
0
100
AcDbSpline
70
4
71
3
72
22
73
18
40
0
40
0
40
0
40
0
40
0.500000000000075
40
0.500000000000075
40
0.750000000000074
40
0.750000000000074
40
0.875000000000074
40
0.875000000000074
40
0.937500000000071
40
0.937500000000071
40
0.968750000000031
40
0.968750000000031
40
0.984375000000013
40
0.984375000000013
40
0.992187500000007
40
0.992187500000007
40
1
40
1
40
1
40
1
41
1
10
37.1467642740899
20
-2.34991379694364
30
0
41
1
10
37.1563146472526
20
-2.32958007645041
30
0
41
1
10
37.1660668671061
20
-2.30923063702352
30
0
41
1
10
37.1810046975924
20
-2.27863908650107
30
0
41
1
10
37.1860384448834
20
-2.2684186930924
30
0
41
1
10
37.1936527305366
20
-2.25312288857995
30
0
41
1
10
37.1961957035649
20
-2.248053373505
30
0
41
1
10
37.2000423168794
20
-2.24039189588552
30
0
41
1
10
37.201337782881
20
-2.23779648845044
30
0
41
1
10
37.2032704799446
20
-2.2339641522978
30
0
41
1
10
37.2039026576055
20
-2.23273863363897
30
0
41
1
10
37.2048622048137
20
-2.23085918235796
30
0
41
1
10
37.2051895315157
20
-2.23020265158888
30
0
41
1
10
37.2056924541352
20
-2.2291674514095
30
0
41
1
10
37.2058610046378
20
-2.22881854827844
30
0
41
1
10
37.2061866064859
20
-2.22817214176854
30
0
41
1
10
37.206356743651
20
-2.22784394563735
30
0
41
1
10
37.2064469785735
20
-2.22775578628816
30
0
0
SPLINE
5
E0
100
AcDbEntity
8
1
62
256
6
ByLayer
370
18
48
1
60
0
100
AcDbSpline
70
4
71
3
72
8
73
4
40
0
40
0
40
0
40
0
40
1
40
1
40
1
40
1
41
1
10
3.62392348079573
20
-2.30774445341271
30
0
41
1
10
3.62043270860778
20
-2.30804197537336
30
0
41
1
10
3.61696613755524
20
-2.30834163382528
30
0
41
1
10
3.61353548788802
20
-2.30864489475428
30
0
0
SPLINE
5
E1
100
AcDbEntity
8
1
62
256
6
ByLayer
370
18
48
1
60
0
100
AcDbSpline
70
4
71
3
72
38
73
34
40
0
40
0
40
0
40
0
40
0.0068456502585516
40
0.0068456502585516
40
0.0399507952499331
40
0.0399507952499331
40
0.0730559402413147
40
0.0730559402413147
40
0.205476520206841
40
0.205476520206841
40
0.271686810189604
40
0.271686810189604
40
0.304791955180986
40
0.304791955180986
40
0.337897100172367
40
0.337897100172367
40
0.470317680137894
40
0.470317680137894
40
0.536527970120657
40
0.536527970120657
40
0.569633115112038
40
0.569633115112038
40
0.60273826010342
40
0.60273826010342
40
0.735158840068946
40
0.735158840068946
40
0.80136913005171
40
0.80136913005171
40
0.834474275043091
40
0.834474275043091
40
0.867579420034473
40
0.867579420034473
40
1
40
1
40
1
40
1
41
1
10
3.53832966528782
20
-2.32899469464428
30
0
41
1
10
3.53833027261194
20
-2.32899175293187
30
0
41
1
10
3.53833086980308
20
-2.32895706603239
30
0
41
1
10
3.53833429760573
20
-2.32856943923602
30
0
41
1
10
3.53833690785183
20
-2.32750503554914
30
0
41
1
10
3.53834173371561
20
-2.32387954921518
30
0
41
1
10
3.53834395298017
20
-2.32131189165159
30
0
41
1
10
3.53835417766666
20
-2.30476588524593
30
0
41
1
10
3.53835957838624
20
-2.27987946099486
30
0
41
1
10
3.53836671646974
20
-2.22571927185007
30
0
41
1
10
3.53836892669264
20
-2.20484427580592
30
0
41
1
10
3.53837233049384
20
-2.16923363533516
30
0
41
1
10
3.53837347953149
20
-2.15664605529292
30
0
41
1
10
3.53837586040797
20
-2.13001245009266
30
0
41
1
10
3.53837709499754
20
-2.11593507245254
30
0
41
1
10
3.53838354356211
20
-2.04252726478157
30
0
41
1
10
3.53838966165421
20
-1.97386827385745
30
0
41
1
10
3.53840197179835
20
-1.85644379454862
30
0
41
1
10
3.53840658834969
20
-1.81488235221534
30
0
41
1
10
3.53841442272892
20
-1.74884293651158
30
0
41
1
10
3.53841718532604
20
-1.72621271666068
30
0
41
1
10
3.53842303067302
20
-1.6796957875072
30
0
41
1
10
3.53842611038431
20
-1.65583709769925
30
0
41
1
10
3.53844217287801
20
-1.53457388727776
30
0
41
1
10
3.53845729826378
20
-1.43044127012578
30
0
41
1
10
3.53848289502787
20
-1.26382967197421
30
0
41
1
10
3.5384919037474
20
-1.20654709904937
30
0
41
1
10
3.53850598765194
20
-1.11794866707291
30
0
41
1
10
3.53851077719844
20
-1.08796714654184
30
0
41
1
10
3.53852051206718
20
-1.02710303194587
30
0
41
1
10
3.53852542154081
20
-0.996443766002614
30
0
41
1
10
3.53855007488346
20
-0.842033240652768
30
0
41
1
10
3.53857017447155
20
-0.714964565845918
30
0
41
1
10
3.53858903526626
20
-0.584424755339796
30
0
0
SPLINE
5
E2
100
AcDbEntity
8
1
62
256
6
ByLayer
370
18
48
1
60
0
100
AcDbSpline
70
4
71
3
72
8
73
4
40
0
40
0
40
0
40
0
40
1
40
1
40
1
40
1
41
1
10
3.53858903526631
20
-0.584424755339825
30
0
41
1
10
3.50693467469765
20
-0.564966151594177
30
0
41
1
10
3.47525267536645
20
-0.545432277312699
30
0
41
1
10
3.44354113267013
20
-0.525825692683156
30
0
0
SPLINE
5
E3
100
AcDbEntity
8
1
62
256
6
ByLayer
370
18
48
1
60
0
100
AcDbSpline
70
4
71
3
72
50
73
46
40
0
40
0
40
0
40
0
40
0.0333605767858771
40
0.0333605767858771
40
0.0667211535717541
40
0.0667211535717541
40
0.100081730357631
40
0.100081730357631
40
0.133442307143508
40
0.133442307143508
40
0.200163460715262
40
0.200163460715262
40
0.216843749108201
40
0.216843749108201
40
0.23352403750114
40
0.23352403750114
40
0.266884614287015
40
0.266884614287015
40
0.333605767858764
40
0.333605767858764
40
0.400326921430513
40
0.400326921430513
40
0.467048075002262
40
0.467048075002262
40
0.483728363395199
40
0.483728363395199
40
0.500408651788136
40
0.500408651788136
40
0.533769228574011
40
0.533769228574011
40
0.60049038214576
40
0.60049038214576
40
0.667211535717509
40
0.667211535717509
40
0.733932689289258
40
0.733932689289258
40
0.750612977682196
40
0.750612977682196
40
0.767293266075134
40
0.767293266075134
40
0.80065384286101
40
0.80065384286101
40
0.934096150004517
40
0.934096150004517
40
1
40
1
40
1
40
1
41
1
10
5.27684354442829
20
1.65371675863844
30
0
41
1
10
5.373815114124
20
1.61029229037851
30
0
41
1
10
5.47051421787145
20
1.56528301308626
30
0
41
1
10
5.66345503131998
20
1.47223693788956
30
0
41
1
10
5.75969272153054
20
1.42419386466023
30
0
41
1
10
5.95190744026385
20
1.32534190429973
30
0
41
1
10
6.04788194314494
20
1.27452916566125
30
0
41
1
10
6.23982560259657
20
1.17048832467276
30
0
41
1
10
6.33579273551163
20
1.11725919456319
30
0
41
1
10
6.62382254324714
20
0.954145462112336
30
0
41
1
10
6.81600498759792
20
0.840818449178897
30
0
41
1
10
7.05735563527199
20
0.694671421587259
30
0
41
1
10
7.10568377294015
20
0.665220545089198
30
0
41
1
10
7.20247280601737
20
0.605897174164255
30
0
41
1
10
7.25097429098514
20
0.575998831728811
30
0
41
1
10
7.39611653007302
20
0.486090893734087
30
0
41
1
10
7.49254816766307
20
0.425767678718785
30
0
41
1
10
7.78119735735373
20
0.244192196999592
30
0
41
1
10
7.97272326007507
20
0.122259130211233
30
0
41
1
10
8.35514207372285
20
-0.121496175145097
30
0
41
1
10
8.54608824252554
20
-0.243232840675034
30
0
41
1
10
8.92879540631887
20
-0.484286881505909
30
0
41
1
10
9.1205970316
20
-0.603540121953358
30
0
41
1
10
9.3617196655521
20
-0.749720890113736
30
0
41
1
10
9.41001189276545
20
-0.778814032388709
30
0
41
1
10
9.50675087973227
20
-0.836683587054637
30
0
41
1
10
9.55524765994701
20
-0.86549066582478
30
0
41
1
10
9.70038741447337
20
-0.951012867964181
30
0
41
1
10
9.79681599822217
20
-1.00690622121971
30
0
41
1
10
10.0854064227645
20
-1.17085984298714
30
0
41
1
10
10.2768204706238
20
-1.2752679622603
30
0
41
1
10
10.6592321173364
20
-1.47242553748635
30
0
41
1
10
10.8501751288528
20
-1.56525300051783
30
0
41
1
10
11.2327669543358
20
-1.73786456305982
30
0
41
1
10
11.4244684939966
20
-1.81758707287102
30
0
41
1
10
11.665444129203
20
-1.90794260443988
30
0
41
1
10
11.7137078122015
20
-1.9255474851042
30
0
41
1
10
11.8104032315814
20
-1.95978874075396
30
0
41
1
10
11.8588922124095
20
-1.97644339458426
30
0
41
1
10
12.0040730206708
20
-2.02473998673921
30
0
41
1
10
12.1005317227256
20
-2.05473962178675
30
0
41
1
10
12.5815836629199
20
-2.19363519820286
30
0
41
1
10
12.9624301731783
20
-2.26922696859876
30
0
41
1
10
13.5339579444885
20
-2.32585492270431
30
0
41
1
10
13.7232698873035
20
-2.33540586331392
30
0
41
1
10
13.9135911729297
20
-2.33547911693651
30
0
0
SPLINE
5
E4
100
AcDbEntity
8
1
62
256
6
ByLayer
370
18
48
1
60
0
100
AcDbSpline
70
4
71
3
72
63
73
59
40
0
40
0
40
0
40
0
40
0.0278964216668968
40
0.0278964216668968
40
0.0426252637628492
40
0.0426252637628492
40
0.0573541058588017
40
0.0573541058588017
40
0.116269474242615
40
0.116269474242615
40
0.17518484262643
40
0.17518484262643
40
0.234100211010245
40
0.234100211010245
40
0.2488290531062
40
0.2488290531062
40
0.263557895202156
40
0.293015579394067
40
0.293015579394067
40
0.351930947777886
40
0.351930947777886
40
0.410846316161706
40
0.410846316161706
40
0.425575158257662
40
0.425575158257662
40
0.43293957930564
40
0.43293957930564
40
0.440304000353618
40
0.46976168454553
40
0.46976168454553
40
0.528677052929355
40
0.528677052929355
40
0.58759242131318
40
0.58759242131318
40
0.617050105505092
40
0.617050105505092
40
0.624414526553071
40
0.624414526553071
40
0.63177894760105
40
0.646507789697009
40
0.646507789697009
40
0.705423158080838
40
0.705423158080838
40
0.764338526464668
40
0.764338526464668
40
0.793796210656582
40
0.793796210656582
40
0.80852505275254
40
0.80852505275254
40
0.823253894848497
40
0.823253894848497
40
0.852711579040414
40
0.852711579040414
40
0.882169263232332
40
0.882169263232332
40
0.941084631616166
40
0.941084631616166
40
1
40
1
40
1
40
1
41
1
10
25.1545812316222
20
2.32466220554633
30
0
41
1
10
25.2661729348214
20
2.33351199299841
30
0
41
1
10
25.3780021767937
20
2.33915715502562
30
0
41
1
10
25.5494471786333
20
2.34276588226632
30
0
41
1
10
25.6087934039984
20
2.34309737059641
30
0
41
1
10
25.7277395254396
20
2.34190497698543
30
0
41
1
10
25.7871272162088
20
2.3403824447081
30
0
41
1
10
26.0833863138442
20
2.32820278038153
30
0
41
1
10
26.3186375288712
20
2.30385927078837
30
0
41
1
10
26.7880810422056
20
2.22738702381099
30
0
41
1
10
27.0222577052579
20
2.17523809756267
30
0
41
1
10
27.4921873791913
20
2.04448611243328
30
0
41
1
10
27.7279696593757
20
1.96590676741675
30
0
41
1
10
28.0253930120236
20
1.8520820970306
30
0
41
1
10
28.0848694177426
20
1.82858435591825
30
0
41
1
10
28.2034832249964
20
1.78030425114707
30
0
41
1
10
28.3810597974144
20
1.70589515398015
30
0
41
1
10
28.5577524873288
20
1.62572472571179
30
0
41
1
10
28.9104060326652
20
1.45828150692137
30
0
41
1
10
29.1445213461001
20
1.33716400840982
30
0
41
1
10
29.6135179183578
20
1.07944492391653
30
0
41
1
10
29.8484324346858
20
0.942888373593178
30
0
41
1
10
30.1443455982618
20
0.764881175258523
30
0
41
1
10
30.2036377830592
20
0.728908314916481
30
0
41
1
10
30.2927668833716
20
0.674424345409136
30
0
41
1
10
30.3225191285932
20
0.656168917643953
30
0
41
1
10
30.3819209462487
20
0.619594717332518
30
0
41
1
10
30.5302691999645
20
0.527940142506736
30
0
41
1
10
30.6778943463031
20
0.435282462135092
30
0
41
1
10
31.0312852723299
20
0.211736872999637
30
0
41
1
10
31.2656984676758
20
0.0612006808565297
30
0
41
1
10
31.7345541922588
20
-0.239092464803093
30
0
41
1
10
31.968964920525
20
-0.3888995052356
30
0
41
1
10
32.3225584369812
20
-0.609921100214109
30
0
41
1
10
32.4407564677617
20
-0.682973879582619
30
0
41
1
10
32.5891525181008
20
-0.773146214683322
30
0
41
1
10
32.6188849978606
20
-0.79113590284598
30
0
41
1
10
32.678272683185
20
-0.826902397870384
30
0
41
1
10
32.7672638575536
20
-0.88024877238945
30
0
41
1
10
32.8560107892009
20
-0.932652808244825
30
0
41
1
10
33.151406202598
20
-1.10510247657686
30
0
41
1
10
33.3864276663631
20
-1.23584068859529
30
0
41
1
10
33.8557935545401
20
-1.48069581161997
30
0
41
1
10
34.0901005497841
20
-1.59484426543986
30
0
41
1
10
34.4428100214792
20
-1.75123246063512
30
0
41
1
10
34.5605939958768
20
-1.80088068838936
30
0
41
1
10
34.7378643507632
20
-1.87127433281586
30
0
41
1
10
34.7970538161641
20
-1.89405884585742
30
0
41
1
10
34.9156798938126
20
-1.93820616507745
30
0
41
1
10
34.9751291339971
20
-1.9595703058927
30
0
41
1
10
35.1528256095793
20
-2.02107514150106
30
0
41
1
10
35.270786712643
20
-2.05876620039896
30
0
41
1
10
35.5060881838755
20
-2.12739857969277
30
0
41
1
10
35.6234385935566
20
-2.15833501604249
30
0
41
1
10
35.9749985352822
20
-2.24093880447012
30
0
41
1
10
36.2086577380384
20
-2.28245571412688
30
0
41
1
10
36.6765894690907
20
-2.33753137431947
30
0
41
1
10
36.9108720941963
20
-2.35106557276185
30
0
41
1
10
37.1467642740866
20
-2.34991379692684
30
0
0
SPLINE
5
E5
100
AcDbEntity
8
1
62
256
6
ByLayer
370
18
48
1
60
0
100
AcDbSpline
70
4
71
3
72
12
73
8
40
0
40
0
40
0
40
0
40
0.499999999999995
40
0.499999999999995
40
0.749999999999998
40
0.749999999999998
40
1
40
1
40
1
40
1
41
1
10
37.1467642740958
20
-2.34991379692693
30
0
41
1
10
37.1406890795769
20
-2.350402785032
30
0
41
1
10
37.1353755656289
20
-2.34878452514897
30
0
41
1
10
37.128306779055
20
-2.34309019976013
30
0
41
1
10
37.1261018130088
20
-2.34064442265401
30
0
41
1
10
37.121983136135
20
-2.33470101911843
30
0
41
1
10
37.1200643074287
20
-2.33120012455413
30
0
41
1
10
37.1182618384648
20
-2.32717610249483
30
0
0
SPLINE
5
E6
100
AcDbEntity
8
1
62
256
6
ByLayer
370
18
48
1
60
0
100
AcDbSpline
70
4
71
3
72
8
73
4
40
0
40
0
40
0
40
0
40
1
40
1
40
1
40
1
41
1
10
3.62392348079575
20
2.30774445341271
30
0
41
1
10
3.62043270860769
20
2.30804197537339
30
0
41
1
10
3.61696613755504
20
2.30834163382531
30
0
41
1
10
3.6135354878877
20
2.30864489475431
30
0
0
SPLINE
5
E7
100
AcDbEntity
8
1
62
256
6
ByLayer
370
18
48
1
60
0
100
AcDbSpline
70
4
71
3
72
16
73
12
40
0
40
0
40
0
40
0
40
0.249999999999891
40
0.249999999999891
40
0.374999999999885
40
0.374999999999885
40
0.499999999999879
40
0.499999999999879
40
0.749999999999939
40
0.749999999999939
40
1
40
1
40
1
40
1
41
1
10
3.61353548788748
20
2.30864489475431
30
0
41
1
10
3.6028778795766
20
2.3095870009181
30
0
41
1
10
3.59306366747774
20
2.31061455540367
30
0
41
1
10
3.57968822800029
20
2.31225227803264
30
0
41
1
10
3.57545556460067
20
2.31281433908077
30
0
41
1
10
3.56748157475459
20
2.31396670613023
30
0
41
1
10
3.56374213547005
20
2.31455758188835
30
0
41
1
10
3.55360709555902
20
2.31631991329584
30
0
41
1
10
3.5481597134505
20
2.3174958103333
30
0
41
1
10
3.54043696877449
20
2.31980794298366
30
0
41
1
10
3.53830990156848
20
2.32089438107306
30
0
41
1
10
3.53831138180712
20
2.32190190886888
30
0
0
SPLINE
5
E8
100
AcDbEntity
8
1
62
256
6
ByLayer
370
18
48
1
60
0
100
AcDbSpline
70
4
71
3
72
24
73
20
40
0
40
0
40
0
40
0
40
0.144714387882492
40
0.144714387882492
40
0.187478668488368
40
0.187478668488368
40
0.230242949094243
40
0.230242949094243
40
0.315771510305994
40
0.315771510305994
40
0.657885755152999
40
0.657885755152999
40
0.828942877576502
40
0.828942877576502
40
0.871707158182377
40
0.871707158182377
40
0.914471438788251
40
0.914471438788251
40
1
40
1
40
1
40
1
41
1
10
11.1298808628377
20
1.69096045205532
30
0
41
1
10
11.2918364775821
20
1.76224263722054
30
0
41
1
10
11.4541566220282
20
1.82871884802864
30
0
41
1
10
11.6654441292027
20
1.90794260443974
30
0
41
1
10
11.7137078122011
20
1.92554748510409
30
0
41
1
10
11.810403231581
20
1.95978874075385
30
0
41
1
10
11.8588922124092
20
1.97644339458415
30
0
41
1
10
12.0040730206705
20
2.02473998673909
30
0
41
1
10
12.1005317227252
20
2.05473962178667
30
0
41
1
10
12.5815836629195
20
2.19363519820274
30
0
41
1
10
12.9624301731779
20
2.26922696859867
30
0
41
1
10
13.5363011634301
20
2.32608709286532
30
0
41
1
10
13.7279654301833
20
2.33564134406814
30
0
41
1
10
13.9688491699158
20
2.33543649999748
30
0
41
1
10
14.0170933790011
20
2.33478779105724
30
0
41
1
10
14.1137420311046
20
2.33226489365259
30
0
41
1
10
14.1622034513908
20
2.33038742214825
30
0
41
1
10
14.3073674111034
20
2.32292733702727
30
0
41
1
10
14.4038033576816
20
2.31552627029089
30
0
41
1
10
14.4999999999889
20
2.30575916059377
30
0
0
SPLINE
5
E9
100
AcDbEntity
8
1
62
256
6
ByLayer
370
18
48
1
60
0
100
AcDbSpline
70
4
71
3
72
63
73
59
40
0
40
0
40
0
40
0
40
0.0159586354104941
40
0.0159586354104941
40
0.0319172708209883
40
0.0319172708209883
40
0.0638345416419766
40
0.0638345416419766
40
0.127669083283953
40
0.127669083283953
40
0.159586354104942
40
0.159586354104942
40
0.175544989515437
40
0.175544989515437
40
0.191503624925932
40
0.191503624925932
40
0.223420895746923
40
0.223420895746923
40
0.255338166567913
40
0.255338166567913
40
0.271296801978408
40
0.271296801978408
40
0.287255437388903
40
0.287255437388903
40
0.319172708209892
40
0.351089979030881
40
0.367048614441376
40
0.367048614441376
40
0.38300724985187
40
0.38300724985187
40
0.446841791493852
40
0.446841791493852
40
0.478759062314843
40
0.478759062314843
40
0.510676333135834
40
0.510676333135834
40
0.574510874777817
40
0.574510874777817
40
0.590469510188313
40
0.590469510188313
40
0.606428145598809
40
0.638345416419801
40
0.638345416419801
40
0.702179958061787
40
0.702179958061787
40
0.766014499703773
40
0.766014499703773
40
0.797931770524766
40
0.797931770524766
40
0.829849041345759
40
0.829849041345759
40
0.893683582987745
40
0.893683582987745
40
0.957518124629731
40
0.957518124629731
40
0.989435395450723
40
0.989435395450723
40
1
40
1
40
1
40
1
41
1
10
14.5000000000001
20
2.32186910010765
30
0
41
1
10
14.5595193961376
20
2.31776088829156
30
0
41
1
10
14.619027035483
20
2.31273437892114
30
0
41
1
10
14.7380607951423
20
2.30085463951482
30
0
41
1
10
14.7976218746626
20
2.29399668657328
30
0
41
1
10
14.9761329224557
20
2.27073194106046
30
0
41
1
10
15.0947888677549
20
2.25165621416164
30
0
41
1
10
15.4501805629291
20
2.18407592813386
30
0
41
1
10
15.6863555527439
20
2.12524642275247
30
0
41
1
10
16.0411276991165
20
2.0173493129079
30
0
41
1
10
16.1594596448786
20
1.97809408803141
30
0
41
1
10
16.3373398205083
20
1.91442366957924
30
0
41
1
10
16.3966975312532
20
1.89240281507318
30
0
41
1
10
16.5155925348679
20
1.84679776649173
30
0
41
1
10
16.5750475640127
20
1.82324428475871
30
0
41
1
10
16.7531776686066
20
1.75054943058888
30
0
41
1
10
16.8717568455692
20
1.69932089922665
30
0
41
1
10
17.1089920522683
20
1.59183895375469
30
0
41
1
10
17.227637743622
20
1.53557707282795
30
0
41
1
10
17.4058332259297
20
1.44762518904582
30
0
41
1
10
17.4652699008422
20
1.41771480939624
30
0
41
1
10
17.5842544494241
20
1.35674662303381
30
0
41
1
10
17.6438364486812
20
1.32567019487846
30
0
41
1
10
17.8223251773184
20
1.23103780729471
30
0
41
1
10
18.0598671218905
20
1.10099897572175
30
0
41
1
10
18.3564597605214
20
0.929892489951698
30
0
41
1
10
18.5346178998795
20
0.823870600365098
30
0
41
1
10
18.6534727900834
20
0.752494852467123
30
0
41
1
10
18.7129771722507
20
0.716437632205782
30
0
41
1
10
19.0104127853551
20
0.534790585328523
30
0
41
1
10
19.2462197696817
20
0.386243526032871
30
0
41
1
10
19.5988597811196
20
0.161987773793641
30
0
41
1
10
19.7162303298303
20
0.087000300759172
30
0
41
1
10
19.9509844386118
20
-0.0628646857836372
30
0
41
1
10
20.0683626392531
20
-0.13775076962321
30
0
41
1
10
20.4208628458409
20
-0.361693483854452
30
0
41
1
10
20.6563299590341
20
-0.510067222087855
30
0
41
1
10
20.9527775941715
20
-0.691945319689836
30
0
41
1
10
21.0122235355186
20
-0.728168647365351
30
0
41
1
10
21.1311573360618
20
-0.800050161112893
30
0
41
1
10
21.3091629558435
20
-0.906749419630813
30
0
41
1
10
21.4861854993362
20
-1.00982412316503
30
0
41
1
10
21.839441724142
20
-1.21048684564244
30
0
41
1
10
22.0738736373947
20
-1.33697717488263
30
0
41
1
10
22.5431969132257
20
-1.57212503547785
30
0
41
1
10
22.7781469601969
20
-1.6807235928556
30
0
41
1
10
23.1326227856451
20
-1.82804195013836
30
0
41
1
10
23.2511540846253
20
-1.8745606356307
30
0
41
1
10
23.4890940639397
20
-1.9619103242276
30
0
41
1
10
23.6075218180667
20
-2.00237998276017
30
0
41
1
10
23.9617065133575
20
-2.11392835657605
30
0
41
1
10
24.1963675969019
20
-2.17513615103965
30
0
41
1
10
24.6656183307685
20
-2.27000791846717
30
0
41
1
10
24.9002283479691
20
-2.30369904242042
30
0
41
1
10
25.2536567449293
20
-2.3328698297083
30
0
41
1
10
25.371722552157
20
-2.33902497588804
30
0
41
1
10
25.5294234924942
20
-2.34234440586948
30
0
41
1
10
25.5686872251956
20
-2.34276869536402
30
0
41
1
10
25.6080032612839
20
-2.3427882411797
30
0
0
SPLINE
5
EA
100
AcDbEntity
8
1
62
256
6
ByLayer
370
18
48
1
60
0
100
AcDbSpline
70
4
71
3
72
8
73
4
40
0
40
0
40
0
40
0
40
1
40
1
40
1
40
1
41
1
10
36.581646359127
20
2.32469869931538
30
0
41
1
10
36.7694283169664
20
2.34231516014677
30
0
41
1
10
36.9575786590137
20
2.35083752157038
30
0
41
1
10
37.1467642740867
20
2.34991379692687
30
0
0
SPLINE
5
EB
100
AcDbEntity
8
1
62
256
6
ByLayer
370
18
48
1
60
0
100
AcDbSpline
70
4
71
3
72
22
73
18
40
0
40
0
40
0
40
0
40
0.249999999999984
40
0.249999999999984
40
0.374999999999977
40
0.374999999999977
40
0.499999999999969
40
0.499999999999969
40
0.624999999999961
40
0.624999999999961
40
0.749999999999953
40
0.749999999999953
40
0.812499999999984
40
0.812499999999984
40
0.875000000000015
40
0.875000000000015
40
1
40
1
40
1
40
1
41
1
10
37.1490124517522
20
-2.19565933524277
30
0
41
1
10
37.1500147560626
20
-2.19815762215882
30
0
41
1
10
37.1504251761966
20
-2.20235156722353
30
0
41
1
10
37.1498526070253
20
-2.21191691942343
30
0
41
1
10
37.1494604564264
20
-2.21560482615797
30
0
41
1
10
37.1482285255688
20
-2.22401062674769
30
0
41
1
10
37.1473723314498
20
-2.22881433558078
30
0
41
1
10
37.1451975094612
20
-2.23929536375744
30
0
41
1
10
37.1438846165206
20
-2.24496512681594
30
0
41
1
10
37.140767436833
20
-2.25723709269064
30
0
41
1
10
37.139032903124
20
-2.26356573147871
30
0
41
1
10
37.1361838474547
20
-2.27334401267427
30
0
41
1
10
37.1351847342581
20
-2.27667660522718
30
0
41
1
10
37.1331511405796
20
-2.28328562149255
30
0
41
1
10
37.1321164834902
20
-2.28656445323486
30
0
41
1
10
37.1289651901504
20
-2.29632971436439
30
0
41
1
10
37.1267857427169
20
-2.30278920750925
30
0
41
1
10
37.1246122809652
20
-2.30899438271967
30
0
0
SPLINE
5
EC
100
AcDbEntity
8
1
62
256
6
ByLayer
370
18
48
1
60
0
100
AcDbSpline
70
4
71
3
72
8
73
4
40
0
40
0
40
0
40
0
40
1
40
1
40
1
40
1
41
1
10
37.1246122809674
20
-2.30899438271345
30
0
41
1
10
37.1224893346615
20
-2.31505533767623
30
0
41
1
10
37.1203725023533
20
-2.32111589106756
30
0
41
1
10
37.1182618384573
20
-2.32717610251717
30
0
0
SPLINE
5
ED
100
AcDbEntity
8
1
62
256
6
ByLayer
370
13
48
1
60
0
100
AcDbSpline
70
4
71
3
72
22
73
18
40
0
40
0
40
0
40
0
40
0.0225754039205914
40
0.0225754039205914
40
0.0451508078411828
40
0.0903016156823683
40
0.180603231364738
40
0.180603231364738
40
0.361206462729477
40
0.361206462729477
40
0.541809694094216
40
0.541809694094216
40
0.632111309776585
40
0.632111309776585
40
0.722412925458955
40
0.722412925458955
40
1
40
1
40
1
40
1
41
1
10
37.1246122809673
20
-2.30899438271385
30
0
41
1
10
37.1030740061684
20
-2.30697508180049
30
0
41
1
10
37.0815308553801
20
-2.30498249285293
30
0
41
1
10
37.0384563341193
20
-2.30070081537423
30
0
41
1
10
36.9738559507707
20
-2.29392399564662
30
0
41
1
10
36.8231854005059
20
-2.27563668675816
30
0
41
1
10
36.6940922211245
20
-2.25573826353443
30
0
41
1
10
36.4358150813748
20
-2.21036405124983
30
0
41
1
10
36.2635021213866
20
-2.17267254160532
30
0
41
1
10
35.9178798339832
20
-2.08274059452083
30
0
41
1
10
35.7445864006309
20
-2.03050503730569
30
0
41
1
10
35.4831416400873
20
-1.94158302274227
30
0
41
1
10
35.395738816492
20
-1.91018135489722
30
0
41
1
10
35.2202730846166
20
-1.8439060846928
30
0
41
1
10
35.1327486489405
20
-1.80923174435372
30
0
41
1
10
34.7772538021127
20
-1.66225871849204
30
0
41
1
10
34.5111285882455
20
-1.53799891552961
30
0
41
1
10
34.245280628715
20
-1.40282892189751
30
0
0
SPLINE
5
EE
100
AcDbEntity
8
1
62
256
6
ByLayer
370
18
48
1
60
0
100
AcDbSpline
70
4
71
3
72
40
73
36
40
0
40
0
40
0
40
0
40
0.0422753572803333
40
0.0422753572803333
40
0.13358287359494
40
0.13358287359494
40
0.224890389909547
40
0.224890389909547
40
0.247717268988198
40
0.247717268988198
40
0.270544148066851
40
0.270544148066851
40
0.316197906224154
40
0.316197906224154
40
0.407505422538766
40
0.407505422538766
40
0.453159180696072
40
0.453159180696072
40
0.498812938853379
40
0.498812938853379
40
0.590120455167985
40
0.590120455167985
40
0.635774213325289
40
0.635774213325289
40
0.658601092403941
40
0.658601092403941
40
0.681427971482592
40
0.681427971482592
40
0.772735487797194
40
0.772735487797194
40
0.864043004111795
40
0.864043004111795
40
0.955350520426397
40
0.955350520426397
40
1
40
1
40
1
40
1
41
1
10
34.2452802347759
20
-1.40282872159972
30
0
41
1
10
34.1651972291455
20
-1.36211063501185
30
0
41
1
10
34.0851393823774
20
-1.32040252297253
30
0
41
1
10
33.8320915047274
20
-1.18569556503289
30
0
41
1
10
33.6589879677159
20
-1.08933735385057
30
0
41
1
10
33.3115764932823
20
-0.889268185167793
30
0
41
1
10
33.1373118162027
20
-0.785504610614339
30
0
41
1
10
32.9181020378958
20
-0.652021484031337
30
0
41
1
10
32.8742093033243
20
-0.62514958087695
30
0
41
1
10
32.7866449846285
20
-0.57129579535507
30
0
41
1
10
32.7429267811229
20
-0.544285771783507
30
0
41
1
10
32.6119350207519
20
-0.463052902637031
30
0
41
1
10
32.52482629085
20
-0.408624161645378
30
0
41
1
10
32.2639942120823
20
-0.244776822128188
30
0
41
1
10
32.0907277855302
20
-0.13485686612222
30
0
41
1
10
31.8313495060983
20
0.0304044662984779
30
0
41
1
10
31.7449700956472
20
0.0855445382587448
30
0
41
1
10
31.5721325035016
20
0.195546997645039
30
0
41
1
10
31.4856813336991
20
0.250420459274892
30
0
41
1
10
31.2260407693521
20
0.414354526752419
30
0
41
1
10
31.0525658827994
20
0.522731538178334
30
0
41
1
10
30.791001748362
20
0.682680522530546
30
0
41
1
10
30.7035870929819
20
0.735558644843906
30
0
41
1
10
30.5720284463
20
0.814063105154048
30
0
41
1
10
30.5280715664492
20
0.840115250042572
30
0
41
1
10
30.4403690920616
20
0.891716432192425
30
0
41
1
10
30.3965838256777
20
0.917289405526702
30
0
41
1
10
30.1779558159695
20
1.04398695990898
30
0
41
1
10
30.0040202069213
20
1.14165319436952
30
0
41
1
10
29.657194555873
20
1.32848492258785
30
0
41
1
10
29.4841936035508
20
1.41751613337243
30
0
41
1
10
29.1379059035895
20
1.58546194351561
30
0
41
1
10
28.9646480815107
20
1.66435722012926
30
0
41
1
10
28.7058438797482
20
1.77347367566409
30
0
41
1
10
28.620711610644
20
1.8079702955857
30
0
41
1
10
28.5353816177338
20
1.84105009143201
30
0
0
SPLINE
5
EF
100
AcDbEntity
8
1
62
256
6
ByLayer
370
13
48
1
60
0
100
AcDbSpline
70
4
71
3
72
20
73
16
40
0
40
0
40
0
40
0
40
0.144595546655863
40
0.144595546655863
40
0.215336919086691
40
0.215336919086691
40
0.28607829151752
40
0.28607829151752
40
0.42756103637916
40
0.42756103637916
40
0.710526526102457
40
0.710526526102457
40
0.993492015825754
40
0.993492015825754
40
1
40
1
40
1
40
1
41
1
10
28.5353825501581
20
1.84104972995993
30
0
41
1
10
28.4462136775854
20
1.87561775194234
30
0
41
1
10
28.3568288905985
20
1.90863860053636
30
0
41
1
10
28.2232919464915
20
1.95537670278878
30
0
41
1
10
28.1793873095329
20
1.97032620811726
30
0
41
1
10
28.0917953795008
20
1.99929907635371
30
0
41
1
10
28.0480651043854
20
2.01333728781478
30
0
41
1
10
27.917049311495
20
2.0540897362759
30
0
41
1
10
27.8299402695894
20
2.07944621591352
30
0
41
1
10
27.5691043871147
20
2.15007184490116
30
0
41
1
10
27.3958341422995
20
2.18987541204356
30
0
41
1
10
27.0494971498062
20
2.25445117118576
30
0
41
1
10
26.8764269309269
20
2.2791560749782
30
0
41
1
10
26.6990886935783
20
2.29662214869811
30
0
41
1
10
26.6951015615678
20
2.29701078746521
30
0
41
1
10
26.6911142346152
20
2.2973953865166
30
0
0
SPLINE
5
F0
100
AcDbEntity
8
1
62
256
6
ByLayer
370
13
48
1
60
0
100
AcDbSpline
70
4
71
3
72
10
73
6
40
0
40
0
40
0
40
0
40
0.81702146284196
40
0.81702146284196
40
1
40
1
40
1
40
1
41
1
10
26.0198022521081
20
2.3233867491719
30
0
41
1
10
25.9861632053605
20
2.32273411161856
30
0
41
1
10
25.9524858099539
20
2.32178570279518
30
0
41
1
10
25.9112150453661
20
2.32025971628639
30
0
41
1
10
25.9036650898658
20
2.31996564161844
30
0
41
1
10
25.896116865806
20
2.31965674552606
30
0
0
SPLINE
5
F1
100
AcDbEntity
8
1
62
256
6
ByLayer
370
13
48
1
60
0
100
AcDbSpline
70
4
71
3
72
10
73
6
40
0
40
0
40
0
40
0
40
0.577483821287048
40
0.577483821287048
40
1
40
1
40
1
40
1
41
1
10
25.5676011938437
20
2.29684144864842
30
0
41
1
10
25.4227199533611
20
2.28267450050143
30
0
41
1
10
25.2783769343687
20
2.26318035866325
30
0
41
1
10
25.0288035548508
20
2.22055967944493
30
0
41
1
10
24.9234739022486
20
2.19979473571746
30
0
41
1
10
24.8181690876371
20
2.17631636806235
30
0
0
SPLINE
5
F2
100
AcDbEntity
8
1
62
256
6
ByLayer
370
18
48
1
60
0
100
AcDbSpline
70
4
71
3
72
71
73
67
40
0
40
0
40
0
40
0
40
0.043273690412298
40
0.043273690412298
40
0.097365755805934
40
0.097365755805934
40
0.124411788502752
40
0.124411788502752
40
0.13793480485116
40
0.13793480485116
40
0.151457821199569
40
0.151457821199569
40
0.178503853896387
40
0.178503853896387
40
0.205549886593204
40
0.205549886593204
40
0.232595919290021
40
0.232595919290021
40
0.259641951986838
40
0.259641951986838
40
0.286687984683656
40
0.286687984683656
40
0.313734017380473
40
0.313734017380473
40
0.367826082774107
40
0.367826082774107
40
0.394872115470923
40
0.394872115470923
40
0.42191814816774
40
0.42191814816774
40
0.476010213561373
40
0.476010213561373
40
0.489533229909782
40
0.489533229909782
40
0.503056246258191
40
0.503056246258191
40
0.530102278955011
40
0.530102278955011
40
0.58419434434865
40
0.58419434434865
40
0.611240377045469
40
0.611240377045469
40
0.638286409742288
40
0.638286409742288
40
0.692378475135925
40
0.692378475135925
40
0.719424507832742
40
0.719424507832742
40
0.732947524181153
40
0.732947524181153
40
0.746470540529562
40
0.746470540529562
40
0.800562605923197
40
0.800562605923197
40
0.827608638620014
40
0.827608638620014
40
0.85465467131683
40
0.85465467131683
40
0.908746736710465
40
0.908746736710465
40
0.9628388021041
40
0.976361818452508
40
0.976361818452508
40
0.989884834800917
40
0.989884834800917
40
1
40
1
40
1
40
1
41
1
10
15.6223408125584
20
-2.23281763662706
30
0
41
1
10
15.4836624008834
20
-2.25629606814709
30
0
41
1
10
15.3450692164757
20
-2.27489522671792
30
0
41
1
10
15.0328799236318
20
-2.30567503709415
30
0
41
1
10
14.859221745788
20
-2.31507518423595
30
0
41
1
10
14.5977234609577
20
-2.31751212555849
30
0
41
1
10
14.5103674437267
20
-2.31634137733164
30
0
41
1
10
14.3789740959462
20
-2.31156485433308
30
0
41
1
10
14.335117740744
20
-2.30947201300489
30
0
41
1
10
14.2472714183336
20
-2.30428896881537
30
0
41
1
10
14.2033171093935
20
-2.3011995621259
30
0
41
1
10
14.071622578186
20
-2.29045866952467
30
0
41
1
10
13.9839293994656
20
-2.28132026618991
30
0
41
1
10
13.8086709595112
20
-2.25914855583917
30
0
41
1
10
13.7211146417112
20
-2.24613160030037
30
0
41
1
10
13.5459560797951
20
-2.21628685712071
30
0
41
1
10
13.4583478551495
20
-2.19944330103184
30
0
41
1
10
13.2829452915563
20
-2.16194667982134
30
0
41
1
10
13.19511705587
20
-2.14129038390013
30
0
41
1
10
13.0192958409946
20
-2.0962749750413
30
0
41
1
10
12.9316523022625
20
-2.07200372155842
30
0
41
1
10
12.7568437976249
20
-2.02007630004059
30
0
41
1
10
12.6696844442049
20
-1.99243238581329
30
0
41
1
10
12.4086161271357
20
-1.90470978388225
30
0
41
1
10
12.2351068505905
20
-1.83976924725744
30
0
41
1
10
11.9749285504156
20
-1.73350920470307
30
0
41
1
10
11.8882147138154
20
-1.69661115547885
30
0
41
1
10
11.714771544384
20
-1.61995451930505
30
0
41
1
10
11.6280466615785
20
-1.58020629602157
30
0
41
1
10
11.367531750428
20
-1.45698079243436
30
0
41
1
10
11.1933921911051
20
-1.36947010867738
30
0
41
1
10
10.9745299114877
20
-1.2540457826338
30
0
41
1
10
10.9306976628027
20
-1.23065865467879
30
0
41
1
10
10.8429083300958
20
-1.1832846706175
30
0
41
1
10
10.7989064764363
20
-1.1592734240383
30
0
41
1
10
10.6671723419131
20
-1.08661567384814
30
0
41
1
10
10.5796437702095
20
-1.03732237457422
30
0
41
1
10
10.3176219179625
20
-0.887338725289737
30
0
41
1
10
10.143705237562
20
-0.784512801253953
30
0
41
1
10
9.88324659833438
20
-0.627197897933485
30
0
41
1
10
9.79649937370647
20
-0.574240166979422
30
0
41
1
10
9.62310028679889
20
-0.467382837939681
30
0
41
1
10
9.53644368353713
20
-0.413494136312664
30
0
41
1
10
9.27628692500662
20
-0.25091340178912
30
0
41
1
10
9.10260976472932
20
-0.141281072830367
30
0
41
1
10
8.84101576089009
20
0.0238911997079185
30
0
41
1
10
8.75363944243276
20
0.0790737212855959
30
0
41
1
10
8.62227076664303
20
0.161970320136874
30
0
41
1
10
8.57842964239435
20
0.189620996382331
30
0
41
1
10
8.49061620455726
20
0.244915596517245
30
0
41
1
10
8.44662259768538
20
0.27257248301143
30
0
41
1
10
8.22718648640478
20
0.410151155433283
30
0
41
1
10
8.05264743696682
20
0.518404274250059
30
0
41
1
10
7.79160572034144
20
0.677032496533485
30
0
41
1
10
7.70472327544181
20
0.72928501344694
30
0
41
1
10
7.53115633742084
20
0.832481760952021
30
0
41
1
10
7.44446771714473
20
0.883424374361937
30
0
41
1
10
7.18442407294563
20
1.03385869319598
30
0
41
1
10
7.01109572433273
20
1.13095177027674
30
0
41
1
10
6.6634866792528
20
1.31726189157874
30
0
41
1
10
6.44563572337515
20
1.42877821093054
30
0
41
1
10
6.2262194329752
20
1.53292553747141
30
0
41
1
10
6.13831176648861
20
1.57397051330901
30
0
41
1
10
6.09430724378998
20
1.59417614870355
30
0
41
1
10
6.01757826247103
20
1.62879514068337
30
0
41
1
10
5.9847801721732
20
1.64339701275085
30
0
41
1
10
5.95201441402233
20
1.65778459369719
30
0
0
SPLINE
5
F3
100
AcDbEntity
8
1
62
256
6
ByLayer
370
18
48
1
60
0
100
AcDbSpline
70
4
71
3
72
62
73
58
40
0
40
0
40
0
40
0
40
0.0476281193663029
40
0.0476281193663029
40
0.0952562387326058
40
0.0952562387326058
40
0.142884358098909
40
0.142884358098909
40
0.16669841778206
40
0.16669841778206
40
0.190512477465212
40
0.190512477465212
40
0.285768716197818
40
0.285768716197818
40
0.333396835564119
40
0.333396835564119
40
0.35721089524727
40
0.35721089524727
40
0.38102495493042
40
0.38102495493042
40
0.428653074296725
40
0.428653074296725
40
0.476281193663029
40
0.476281193663029
40
0.523909313029333
40
0.523909313029333
40
0.547723372712486
40
0.55963040255406
40
0.55963040255406
40
0.571537432395635
40
0.571537432395635
40
0.619165551761937
40
0.619165551761937
40
0.666793671128238
40
0.666793671128238
40
0.678700700969814
40
0.678700700969814
40
0.69060773081139
40
0.714421790494542
40
0.714421790494542
40
0.762049909860847
40
0.762049909860847
40
0.785863969543999
40
0.785863969543999
40
0.809678029227151
40
0.809678029227151
40
0.857306148593458
40
0.857306148593458
40
0.904934267959765
40
0.904934267959765
40
0.952562387326072
40
0.952562387326072
40
0.976376447009227
40
0.976376447009227
40
0.988283476850804
40
0.988283476850804
40
1
40
1
40
1
40
1
41
1
10
37.1182618384598
20
-2.3271761024948
30
0
41
1
10
36.9437240887357
20
-2.31140611825057
30
0
41
1
10
36.7698051813309
20
-2.28772940626061
30
0
41
1
10
36.4223002209283
20
-2.22531813337366
30
0
41
1
10
36.2487075593723
20
-2.18659025927539
30
0
41
1
10
35.9010943557966
20
-2.09455749772118
30
0
41
1
10
35.7270876259871
20
-2.04123316495537
30
0
41
1
10
35.4649746854424
20
-1.95067035805928
30
0
41
1
10
35.3774160084129
20
-1.91872300992532
30
0
41
1
10
35.2017766324021
20
-1.85138531469238
30
0
41
1
10
35.1141211461626
20
-1.8161537258234
30
0
41
1
10
34.6770475558525
20
-1.63289569573834
30
0
41
1
10
34.330475921677
20
-1.46332567871977
30
0
41
1
10
33.8090738111985
20
-1.18246036897699
30
0
41
1
10
33.6349898810095
20
-1.08445343628298
30
0
41
1
10
33.3727322318879
20
-0.931738545422149
30
0
41
1
10
33.2851281130165
20
-0.879876748967718
30
0
41
1
10
33.1094296257981
20
-0.774378351878426
30
0
41
1
10
33.0218271952132
20
-0.721042568272395
30
0
41
1
10
32.7597417856922
20
-0.559800722817528
30
0
41
1
10
32.5858485808531
20
-0.450651242827888
30
0
41
1
10
32.2387240324768
20
-0.2306294387447
30
0
41
1
10
32.0654845412612
20
-0.119770613959503
30
0
41
1
10
31.7190966917037
20
0.102767863441358
30
0
41
1
10
31.5458191872269
20
0.214243909043745
30
0
41
1
10
31.2847693304394
20
0.380170043276593
30
0
41
1
10
31.1539766285028
20
0.462835899766503
30
0
41
1
10
31.0226316493064
20
0.544817287110533
30
0
41
1
10
30.9349285558651
20
0.599292439423579
30
0
41
1
10
30.8909716054474
20
0.626462250509775
30
0
41
1
10
30.6713112455337
20
0.761479078095505
30
0
41
1
10
30.4960136406814
20
0.866767690943931
30
0
41
1
10
30.1454782578056
20
1.07079024385521
30
0
41
1
10
29.9702776127174
20
1.16957431498679
30
0
41
1
10
29.7507383141564
20
1.28809472742085
30
0
41
1
10
29.7068008493504
20
1.31154401996437
30
0
41
1
10
29.6190250340046
20
1.3577976993401
30
0
41
1
10
29.4874392268371
20
1.42624995798872
30
0
41
1
10
29.3560159220031
20
1.49184144108548
30
0
41
1
10
29.0932070493972
20
1.61901317181619
30
0
41
1
10
28.9180618033661
20
1.69846094356734
30
0
41
1
10
28.6547121875375
20
1.80877899814081
30
0
41
1
10
28.5667296825705
20
1.8440960535867
30
0
41
1
10
28.391500408883
20
1.91120123835128
30
0
41
1
10
28.3041335531069
20
1.9430459692737
30
0
41
1
10
28.042588042236
20
2.03336388665392
30
0
41
1
10
27.8689722980536
20
2.08662781871044
30
0
41
1
10
27.5221876771586
20
2.17867319477187
30
0
41
1
10
27.3489767269545
20
2.2174277395325
30
0
41
1
10
27.001909647223
20
2.27986212009043
30
0
41
1
10
26.8280665620198
20
2.30355382090451
30
0
41
1
10
26.5661874626509
20
2.32734964501549
30
0
41
1
10
26.4786903973679
20
2.3333181097112
30
0
41
1
10
26.3470263446432
20
2.33926239445739
30
0
41
1
10
26.3030375350615
20
2.34074235157542
30
0
41
1
10
26.2159706118497
20
2.34266926605449
30
0
41
1
10
26.1728514360848
20
2.34313435355409
30
0
41
1
10
26.1297876256127
20
2.34311397039284
30
0
0
SPLINE
5
F4
100
AcDbEntity
8
1
62
256
6
ByLayer
370
18
48
1
60
0
100
AcDbSpline
70
4
71
3
72
78
73
74
40
0
40
0
40
0
40
0
40
0.0013893847615693
40
0.0013893847615693
40
0.0448072375980231
40
0.0448072375980231
40
0.0665161640162498
40
0.0665161640162498
40
0.0882250904344768
40
0.0882250904344768
40
0.131642943270929
40
0.131642943270929
40
0.153351869689155
40
0.153351869689155
40
0.164206332898268
40
0.164206332898268
40
0.175060796107382
40
0.175060796107382
40
0.218478648943833
40
0.218478648943833
40
0.240187575362058
40
0.240187575362058
40
0.261896501780284
40
0.261896501780284
40
0.272750964989396
40
0.272750964989396
40
0.283605428198509
40
0.305314354616736
40
0.305314354616736
40
0.327023281034963
40
0.327023281034963
40
0.34873220745319
40
0.34873220745319
40
0.392150060289645
40
0.392150060289645
40
0.413858986707872
40
0.413858986707872
40
0.435567913126099
40
0.435567913126099
40
0.446422376335212
40
0.446422376335212
40
0.457276839544326
40
0.457276839544326
40
0.47898576596255
40
0.47898576596255
40
0.522403618799002
40
0.522403618799002
40
0.565821471635453
40
0.565821471635453
40
0.609239324471904
40
0.609239324471904
40
0.63094825089013
40
0.641802714099243
40
0.641802714099243
40
0.652657177308356
40
0.652657177308356
40
0.696075030144812
40
0.696075030144812
40
0.739492882981268
40
0.739492882981268
40
0.826328588654181
40
0.826328588654181
40
0.837183051863294
40
0.837183051863294
40
0.848037515072408
40
0.848037515072408
40
0.869746441490635
40
0.869746441490635
40
0.91316429432709
40
0.91316429432709
40
0.956582147163545
40
0.956582147163545
40
1
40
1
40
1
40
1
41
1
10
15.693334643242
20
-2.23850193959561
30
0
41
1
10
15.6877816634575
20
-2.23951583463671
30
0
41
1
10
15.6822283901453
20
-2.24052199847728
30
0
41
1
10
15.5031266774663
20
-2.27272067172635
30
0
41
1
10
15.329267254535
20
-2.29636720492488
30
0
41
1
10
15.0673083660022
20
-2.32011582219514
30
0
41
1
10
14.9797935429147
20
-2.32607809818666
30
0
41
1
10
14.8042822489313
20
-2.33401686614422
30
0
41
1
10
14.7162055344887
20
-2.33598536259115
30
0
41
1
10
14.4526391649228
20
-2.33580726168839
30
0
41
1
10
14.2773541268368
20
-2.32762113824302
30
0
41
1
10
14.0142802499179
20
-2.30339012039522
30
0
41
1
10
13.9265556186199
20
-2.29332387277407
30
0
41
1
10
13.7948646855155
20
-2.27524030732425
30
0
41
1
10
13.7509496558411
20
-2.26871492837469
30
0
41
1
10
13.6630568552995
20
-2.25467439726765
30
0
41
1
10
13.6190583324475
20
-2.24715519294443
30
0
41
1
10
13.3992702260346
20
-2.20718207949815
30
0
41
1
10
13.2238798144753
20
-2.16757135352151
30
0
41
1
10
12.9607196323973
20
-2.09724999896912
30
0
41
1
10
12.872992700268
20
-2.07198873255564
30
0
41
1
10
12.6974737088543
20
-2.01784062521438
30
0
41
1
10
12.609670236485
20
-1.98895938950181
30
0
41
1
10
12.4777257488985
20
-1.94304736162533
30
0
41
1
10
12.43375435832
20
-1.92732700674165
30
0
41
1
10
12.3459832780584
20
-1.89513324833763
30
0
41
1
10
12.214508806565
20
-1.84568604098789
30
0
41
1
10
12.0835063785891
20
-1.79286941253233
30
0
41
1
10
11.9091396084936
20
-1.71960888758559
30
0
41
1
10
11.8221163076102
20
-1.68155088983318
30
0
41
1
10
11.648322590801
20
-1.60266689394661
30
0
41
1
10
11.5615375184168
20
-1.56185589203415
30
0
41
1
10
11.3012040884959
20
-1.43570101579209
30
0
41
1
10
11.1277037501931
20
-1.34661046451924
30
0
41
1
10
10.8668512245194
20
-1.20636362077198
30
0
41
1
10
10.7798118921509
20
-1.15849665190066
30
0
41
1
10
10.6054766561776
20
-1.06060670153445
30
0
41
1
10
10.5181643238301
20
-1.01060559550135
30
0
41
1
10
10.3868238651795
20
-0.934222095817319
30
0
41
1
10
10.3429836180847
20
-0.908528000094293
30
0
41
1
10
10.2551675408774
20
-0.856692722874271
30
0
41
1
10
10.2111464229733
20
-0.830524372875544
30
0
41
1
10
10.0792155184492
20
-0.751592950159505
30
0
41
1
10
9.99152583468293
20
-0.698463137551727
30
0
41
1
10
9.72908429298553
20
-0.537812221410007
30
0
41
1
10
9.55507110618879
20
-0.428853704162179
30
0
41
1
10
9.20758874500893
20
-0.20937248001303
30
0
41
1
10
9.03411191239292
20
-0.098862658512644
30
0
41
1
10
8.68678468251366
20
0.122254357925385
30
0
41
1
10
8.51305148776089
20
0.233049517301964
30
0
41
1
10
8.25134818190639
20
0.398004748575801
30
0
41
1
10
8.12021982693506
20
0.480171479058953
30
0
41
1
10
7.98853873910758
20
0.561652577390475
30
0
41
1
10
7.90061269901298
20
0.615795780489123
30
0
41
1
10
7.85655394346105
20
0.642793275106243
30
0
41
1
10
7.63681089077363
20
0.776727784327477
30
0
41
1
10
7.46216666802039
20
0.881036068328484
30
0
41
1
10
7.1139523267702
20
1.08231231358113
30
0
41
1
10
6.94037166814115
20
1.17926845492633
30
0
41
1
10
6.41966801589899
20
1.4570835748915
30
0
41
1
10
6.07253380686461
20
1.62484939271806
30
0
41
1
10
5.67760327021642
20
1.78805300033659
30
0
41
1
10
5.63366201545165
20
1.80583277223732
30
0
41
1
10
5.54564904700817
20
1.84066755701889
30
0
41
1
10
5.50163717226556
20
1.85769863009446
30
0
41
1
10
5.36989341272266
20
1.90749436257042
30
0
41
1
10
5.28231758679854
20
1.93900775592527
30
0
41
1
10
5.02005142322616
20
2.02828821623072
30
0
41
1
10
4.84582254440608
20
2.0808003689578
30
0
41
1
10
4.49751321720939
20
2.17124023744469
30
0
41
1
10
4.3234346754989
20
2.20917314856265
30
0
41
1
10
3.97447865831467
20
2.26993531390301
30
0
41
1
10
3.7996009391195
20
2.29277129016168
30
0
41
1
10
3.62392348077634
20
2.30774445341436
30
0
0
SPLINE
5
F5
100
AcDbEntity
8
1
62
256
6
ByLayer
370
13
48
1
60
0
100
AcDbSpline
70
4
71
3
72
12
73
8
40
0
40
0
40
0
40
0
40
0.499999999999905
40
0.499999999999905
40
0.749999999999953
40
0.749999999999953
40
1
40
1
40
1
40
1
41
1
10
3.69693154737348
20
-2.28256836400317
30
0
41
1
10
3.68425550326515
20
-2.28378680560851
30
0
41
1
10
3.67181604288595
20
-2.28650684923315
30
0
41
1
10
3.6535307165355
20
-2.29276691361895
30
0
41
1
10
3.64749850513962
20
-2.29522092974429
30
0
41
1
10
3.63557107757515
20
-2.30090272761569
30
0
41
1
10
3.62965879454734
20
-2.30414420138709
30
0
41
1
10
3.62392348077754
20
-2.30774445342414
30
0
0
SPLINE
5
F6
100
AcDbEntity
8
1
62
256
6
ByLayer
370
18
48
1
60
0
100
AcDbSpline
70
4
71
3
72
79
73
75
40
0
40
0
40
0
40
0
40
0.000541418967597
40
0.000541418967597
40
0.0421907305004872
40
0.0421907305004872
40
0.0630153862669311
40
0.0630153862669311
40
0.0734277141501536
40
0.0734277141501536
40
0.0838400420333762
40
0.125489353566269
40
0.125489353566269
40
0.167138665099161
40
0.167138665099161
40
0.208787976632054
40
0.208787976632054
40
0.250437288164946
40
0.250437288164946
40
0.260849616048169
40
0.260849616048169
40
0.271261943931392
40
0.271261943931392
40
0.292086599697838
40
0.292086599697838
40
0.33373591123073
40
0.33373591123073
40
0.375385222763623
40
0.375385222763623
40
0.417034534296515
40
0.417034534296515
40
0.427446862179739
40
0.427446862179739
40
0.437859190062963
40
0.437859190062963
40
0.45868384582941
40
0.45868384582941
40
0.500333157362305
40
0.500333157362305
40
0.5419824688952
40
0.5419824688952
40
0.583631780428095
40
0.583631780428095
40
0.604456436194542
40
0.604456436194542
40
0.614868764077767
40
0.614868764077767
40
0.625281091960991
40
0.625281091960991
40
0.666930403493885
40
0.666930403493885
40
0.708579715026778
40
0.708579715026778
40
0.750229026559672
40
0.750229026559672
40
0.791878338092566
40
0.791878338092566
40
0.802290665975789
40
0.802290665975789
40
0.812702993859012
40
0.812702993859012
40
0.833527649625459
40
0.833527649625459
40
0.875176961158354
40
0.875176961158354
40
0.896001616924802
40
0.896001616924802
40
0.91682627269125
40
0.91682627269125
40
0.958475584224145
40
0.958475584224145
40
0.979300239990593
40
0.979300239990593
40
1
40
1
40
1
40
1
41
1
10
27.1822105566901
20
-2.24742368850875
30
0
41
1
10
27.1799548205982
20
-2.24783204225775
30
0
41
1
10
27.1776990311001
20
-2.24823912288912
30
0
41
1
10
27.001909647223
20
-2.27986212009043
30
0
41
1
10
26.8280665620198
20
-2.30355382090451
30
0
41
1
10
26.566187462651
20
-2.32734964501549
30
0
41
1
10
26.4786903973679
20
-2.3333181097112
30
0
41
1
10
26.3470263446432
20
-2.33926239445739
30
0
41
1
10
26.3030375350615
20
-2.34074235157542
30
0
41
1
10
26.2152684807366
20
-2.34268480521169
30
0
41
1
10
25.9961723093201
20
-2.34500752005764
30
0
41
1
10
25.7785023495363
20
-2.33479773374762
30
0
41
1
10
25.4311950908529
20
-2.30285371815296
30
0
41
1
10
25.2579437056846
20
-2.27908728521021
30
0
41
1
10
24.9111852937624
20
-2.21644667310122
30
0
41
1
10
24.7376810495191
20
-2.17757910600295
30
0
41
1
10
24.3895723711743
20
-2.08504088556555
30
0
41
1
10
24.2149514218471
20
-2.03137022241594
30
0
41
1
10
23.9952215968714
20
-1.95532827055101
30
0
41
1
10
23.9512731918285
20
-1.9396940194834
30
0
41
1
10
23.8635717361552
20
-1.90766622118085
30
0
41
1
10
23.8197862809494
20
-1.89126128583951
30
0
41
1
10
23.6886084935418
20
-1.8408972388159
30
0
41
1
10
23.6014031349989
20
-1.8057799916557
30
0
41
1
10
23.3402613493683
20
-1.69611799207459
30
0
41
1
10
23.1667461441741
20
-1.61732325907749
30
0
41
1
10
22.8198847496893
20
-1.4496474232227
30
0
41
1
10
22.6465494569045
20
-1.36075615267799
30
0
41
1
10
22.2992195153908
20
-1.17389643960834
30
0
41
1
10
22.1251907479942
20
-1.07596758279018
30
0
41
1
10
21.9064863783571
20
-0.948812048501338
30
0
41
1
10
21.8626888277846
20
-0.923141206422599
30
0
41
1
10
21.77496610589
20
-0.871336207661926
30
0
41
1
10
21.731004435521
20
-0.845180189285941
30
0
41
1
10
21.5991626640147
20
-0.766195894338665
30
0
41
1
10
21.511558384944
20
-0.712985558720192
30
0
41
1
10
21.2493747513994
20
-0.552075599125033
30
0
41
1
10
21.075403674912
20
-0.443130160201264
30
0
41
1
10
20.7281031432292
20
-0.223479558264472
30
0
41
1
10
20.5548379214216
20
-0.112672512175521
30
0
41
1
10
20.2079616794212
20
0.109133142771157
30
0
41
1
10
20.0343354472813
20
0.220107373477703
30
0
41
1
10
19.7728332964831
20
0.385435218824739
30
0
41
1
10
19.6854953150246
20
0.440366046798346
30
0
41
1
10
19.5541529918343
20
0.522369109660758
30
0
41
1
10
19.5103166061901
20
0.549638394533247
30
0
41
1
10
19.4225129451444
20
0.604015617981389
30
0
41
1
10
19.3785078668373
20
0.63114639109412
30
0
41
1
10
19.1589876488645
20
0.765775166485014
30
0
41
1
10
18.9844184654652
20
0.870486522856197
30
0
41
1
10
18.6363084805342
20
1.07257074921341
30
0
41
1
10
18.4628278915083
20
1.17003179708985
30
0
41
1
10
18.116000021638
20
1.35643896517152
30
0
41
1
10
17.9426013650079
20
1.44531628079005
30
0
41
1
10
17.5948241145765
20
1.61308850201411
30
0
41
1
10
17.4205054357333
20
1.69205629248296
30
0
41
1
10
17.2014132972508
20
1.78371284078716
30
0
41
1
10
17.1575331147335
20
1.80168915167587
30
0
41
1
10
17.0696299203647
20
1.83690617661477
30
0
41
1
10
17.025652323535
20
1.854127821764
30
0
41
1
10
16.8940252538623
20
1.90445052613109
30
0
41
1
10
16.806520355873
20
1.93627417058724
30
0
41
1
10
16.5445730467258
20
2.02650652745601
30
0
41
1
10
16.3707267318392
20
2.07970023048404
30
0
41
1
10
16.1103282128374
20
2.14861909341204
30
0
41
1
10
16.023584568969
20
2.16977735155032
30
0
41
1
10
15.850144708634
20
2.20842908732288
30
0
41
1
10
15.7634488560042
20
2.22592028863198
30
0
41
1
10
15.5031266774664
20
2.27272067172635
30
0
41
1
10
15.3292672545351
20
2.29636720492488
30
0
41
1
10
15.0673083660023
20
2.32011582219514
30
0
41
1
10
14.9797935429147
20
2.32607809818666
30
0
41
1
10
14.8048085629357
20
2.33399305978591
30
0
41
1
10
14.7172620021491
20
2.33596167852636
30
0
41
1
10
14.62993083956
20
2.33592684496222
30
0
0
SPLINE
5
F7
100
AcDbEntity
8
1
62
256
6
ByLayer
370
18
48
1
60
0
100
AcDbSpline
70
4
71
3
72
10
73
6
40
0
40
0
40
0
40
0
40
0.11894231179244
40
0.11894231179244
40
1
40
1
40
1
40
1
41
1
10
4.21959930696343
20
-2.22683770060215
30
0
41
1
10
4.19605826042843
20
-2.23121374077559
30
0
41
1
10
4.17251110378047
20
-2.23545280148997
30
0
41
1
10
3.97447865831475
20
-2.26993531390298
30
0
41
1
10
3.79960093911956
20
-2.29277129016168
30
0
41
1
10
3.6239234807764
20
-2.30774445341436
30
0
0
SPLINE
5
F8
100
AcDbEntity
8
1
62
256
6
ByLayer
370
18
48
1
60
0
100
AcDbSpline
70
4
71
3
72
62
73
58
40
0
40
0
40
0
40
0
40
0.0467080729520393
40
0.0467080729520393
40
0.0988375608861226
40
0.0988375608861226
40
0.124902304853164
40
0.124902304853164
40
0.150967048820206
40
0.150967048820206
40
0.203096536754288
40
0.203096536754288
40
0.25522602468837
40
0.25522602468837
40
0.307355512622451
40
0.307355512622451
40
0.333420256589492
40
0.333420256589492
40
0.346452628573013
40
0.346452628573013
40
0.359485000556535
40
0.359485000556535
40
0.411614488490619
40
0.411614488490619
40
0.463743976424704
40
0.463743976424704
40
0.515873464358789
40
0.515873464358789
40
0.568002952292874
40
0.568002952292874
40
0.581035324276395
40
0.581035324276395
40
0.594067696259916
40
0.594067696259916
40
0.620132440226957
40
0.620132440226957
40
0.633164812210476
40
0.633164812210476
40
0.646197184193996
40
0.646197184193996
40
0.672261928161035
40
0.672261928161035
40
0.724391416095114
40
0.724391416095114
40
0.776520904029193
40
0.776520904029193
40
0.828650391963272
40
0.828650391963272
40
0.854715135930312
40
0.854715135930312
40
0.880779879897352
40
0.880779879897352
40
0.932909367831433
40
0.932909367831433
40
0.985038855765513
40
0.985038855765513
40
1
40
1
40
1
40
1
41
1
10
27.1686403532139
20
-2.23199091157136
30
0
41
1
10
27.0134958479403
20
-2.25950720133179
30
0
41
1
10
26.85839856852
20
-2.28093169151501
30
0
41
1
10
26.5297243436232
20
-2.31330287286716
30
0
41
1
10
26.3560170453
20
-2.32274624571593
30
0
41
1
10
26.0941048103067
20
-2.32500916007069
30
0
41
1
10
26.0065771761323
20
-2.32378573104415
30
0
41
1
10
25.8309562428633
20
-2.31729214708682
30
0
41
1
10
25.7433767994394
20
-2.3120372385014
30
0
41
1
10
25.481439120829
20
-2.29039185217431
30
0
41
1
10
25.3076875788608
20
-2.26818585876504
30
0
41
1
10
24.9608171120856
20
-2.20894935315977
30
0
41
1
10
24.7877041649876
20
-2.17187295353375
30
0
41
1
10
24.4412837138462
20
-2.08319177578733
30
0
41
1
10
24.2679801621684
20
-2.03169761070882
30
0
41
1
10
24.0070184464753
20
-1.94422082341549
30
0
41
1
10
23.9198670205758
20
-1.91334232409798
30
0
41
1
10
23.7888177135889
20
-1.86446485498374
30
0
41
1
10
23.7450813218577
20
-1.84774628975333
30
0
41
1
10
23.6574912710845
20
-1.81346441575818
30
0
41
1
10
23.6136031649797
20
-1.7958865909624
30
0
41
1
10
23.3942154248391
20
-1.70610332432747
30
0
41
1
10
23.2197821627367
20
-1.62865391106615
30
0
41
1
10
22.8719959577898
20
-1.46395988414508
30
0
41
1
10
22.6986536405303
20
-1.37670121727783
30
0
41
1
10
22.3522415525333
20
-1.19350838337277
30
0
41
1
10
22.1791543713563
20
-1.0976470245979
30
0
41
1
10
21.832081427843
20
-0.898877012349857
30
0
41
1
10
21.6581322099727
20
-0.795891132045114
30
0
41
1
10
21.4395877570884
20
-0.663474072237733
30
0
41
1
10
21.3958215151927
20
-0.636809503474637
30
0
41
1
10
21.3081541423368
20
-0.583145229984325
30
0
41
1
10
21.2642257807675
20
-0.556128007626455
30
0
41
1
10
21.1324802738884
20
-0.474771572608802
30
0
41
1
10
21.0446788602198
20
-0.420117064365229
30
0
41
1
10
20.9129310152862
20
-0.337647936905057
30
0
41
1
10
20.8689816033444
20
-0.310060967712275
30
0
41
1
10
20.7812010893257
20
-0.254834605951089
30
0
41
1
10
20.7373766653542
20
-0.227195831595964
30
0
41
1
10
20.6060833139693
20
-0.144229308308638
30
0
41
1
10
20.5187801074978
20
-0.088875197375387
30
0
41
1
10
20.2573202176431
20
0.0769540136061551
30
0
41
1
10
20.0836116650158
20
0.187209183583747
30
0
41
1
10
19.7363252637325
20
0.405421743045963
30
0
41
1
10
19.5627901835988
20
0.513440411363888
30
0
41
1
10
19.2150224238753
20
0.725889898812511
30
0
41
1
10
19.040745118052
20
0.830251725470731
30
0
41
1
10
18.7778930603641
20
0.982639044222537
30
0
41
1
10
18.6899002287115
20
1.03283200979266
30
0
41
1
10
18.5146255920719
20
1.13098251845307
30
0
41
1
10
18.4272305891459
20
1.17901827405063
30
0
41
1
10
18.1655433153071
20
1.31975185139652
30
0
41
1
10
17.9917265101307
20
1.40903760224268
30
0
41
1
10
17.6443125518046
20
1.57720763933511
30
0
41
1
10
17.4707664048162
20
1.65614472297176
30
0
41
1
10
17.2470217660744
20
1.7504991197093
30
0
41
1
10
17.1970976683933
20
1.77106913152093
30
0
41
1
10
17.1471314253645
20
1.79115229934939
30
0
0
SPLINE
5
F9
100
AcDbEntity
8
1
62
256
6
ByLayer
370
13
48
1
60
0
100
AcDbSpline
70
4
71
3
72
20
73
16
40
0
40
0
40
0
40
0
40
0.20482627424096
40
0.20482627424096
40
0.276644707090723
40
0.276644707090723
40
0.348463139940487
40
0.348463139940487
40
0.492100005640013
40
0.492100005640013
40
0.635736871339538
40
0.635736871339538
40
0.779373737039065
40
0.779373737039065
40
1
40
1
40
1
40
1
41
1
10
17.1471314256129
20
1.79115229924949
30
0
41
1
10
17.0229990419933
20
1.84104541392597
30
0
41
1
10
16.8986065427502
20
1.88793379063429
30
0
41
1
10
16.7299801380978
20
1.94687471923692
30
0
41
1
10
16.6861487022063
20
1.96177668339158
30
0
41
1
10
16.5983612724221
20
1.99076154161068
30
0
41
1
10
16.5543869536014
20
2.00484999477953
30
0
41
1
10
16.4227947404579
20
2.04571174080252
30
0
41
1
10
16.3353367085211
20
2.07114793635847
30
0
41
1
10
16.160802798765
20
2.11836937054167
30
0
41
1
10
16.0737214938091
20
2.1401444114378
30
0
41
1
10
15.8998546610646
20
2.18000538104033
30
0
41
1
10
15.8130789916843
20
2.1980974488167
30
0
41
1
10
15.5931822751593
20
2.23917357878378
30
0
41
1
10
15.4601301223988
20
2.25956497419378
30
0
41
1
10
15.3269975719593
20
2.27543348870941
30
0
0
SPLINE
5
FA
100
AcDbEntity
8
1
62
256
6
ByLayer
370
13
48
1
60
0
100
AcDbSpline
70
4
71
3
72
10
73
6
40
0
40
0
40
0
40
0
40
0.467518653190183
40
0.467518653190183
40
1
40
1
40
1
40
1
41
1
10
4.19130243640581
20
-2.21423918415781
30
0
41
1
10
4.1146110052978
20
-2.22803378641453
30
0
41
1
10
4.03776718779139
20
-2.24038718330124
30
0
41
1
10
3.8729932284543
20
-2.26364287269288
30
0
41
1
10
3.78491399880892
20
-2.27411135024926
30
0
41
1
10
3.69693154737351
20
-2.28256836400317
30
0
0
SPLINE
5
FB
100
AcDbEntity
8
1
62
256
6
ByLayer
370
18
48
1
60
0
100
AcDbSpline
70
4
71
3
72
66
73
62
40
0
40
0
40
0
40
0
40
0.0351765859921552
40
0.0351765859921552
40
0.0703531719843104
40
0.0703531719843104
40
0.105529757976465
40
0.105529757976465
40
0.140706343968621
40
0.140706343968621
40
0.175882929960776
40
0.175882929960776
40
0.211059515952931
40
0.211059515952931
40
0.246236101945086
40
0.246236101945086
40
0.281412687937241
40
0.281412687937241
40
0.316589273929396
40
0.316589273929396
40
0.351765859921552
40
0.351765859921552
40
0.386942445913707
40
0.386942445913707
40
0.422119031905862
40
0.422119031905862
40
0.457295617898017
40
0.457295617898017
40
0.474883910894093
40
0.474883910894093
40
0.49247220389017
40
0.49247220389017
40
0.527648789882321
40
0.527648789882321
40
0.562825375874472
40
0.562825375874472
40
0.633178547858772
40
0.633178547858772
40
0.650766840854847
40
0.650766840854847
40
0.668355133850922
40
0.668355133850922
40
0.703531719843074
40
0.703531719843074
40
0.773884891827378
40
0.773884891827378
40
0.80906147781953
40
0.80906147781953
40
0.844238063811682
40
0.844238063811682
40
0.879414649803834
40
0.879414649803834
40
0.914591235795986
40
0.914591235795986
40
0.949767821788138
40
0.949767821788138
40
0.967356114784215
40
0.967356114784215
40
0.984944407780291
40
0.984944407780291
40
1
40
1
40
1
40
1
41
1
10
3.77830594595474
20
-0.587864005645059
30
0
41
1
10
3.86513241701706
20
-0.638588012332832
30
0
41
1
10
3.95179357316223
20
-0.688797553166211
30
0
41
1
10
4.12490543750914
20
-0.787929710542954
30
0
41
1
10
4.21135166274755
20
-0.836853222555391
30
0
41
1
10
4.38423172297644
20
-0.933106959329109
30
0
41
1
10
4.47066689922147
20
-0.98043602066798
30
0
41
1
10
4.64374758274411
20
-1.07319289164286
30
0
41
1
10
4.73043090691678
20
-1.11856500422076
30
0
41
1
10
4.90406650902833
20
-1.2073619847078
30
0
41
1
10
4.99109115607502
20
-1.25085487601362
30
0
41
1
10
5.1643949202068
20
-1.33551205173762
30
0
41
1
10
5.2507726608824
20
-1.3767427468203
30
0
41
1
10
5.42306014419648
20
-1.45700596422805
30
0
41
1
10
5.50895868840468
20
-1.49607342718261
30
0
41
1
10
5.68044746471742
20
-1.57175966986571
30
0
41
1
10
5.76610794181039
20
-1.6082380472883
30
0
41
1
10
5.9375054033919
20
-1.67797239727611
30
0
41
1
10
6.0231980003104
20
-1.71131987169204
30
0
41
1
10
6.19464349129865
20
-1.77507268947426
30
0
41
1
10
6.28038225115722
20
-1.80550128430076
30
0
41
1
10
6.4518488962438
20
-1.86362436296099
30
0
41
1
10
6.53758411864837
20
-1.89129298212651
30
0
41
1
10
6.70918921425772
20
-1.94357876986487
30
0
41
1
10
6.79506950228026
20
-1.96818130818701
30
0
41
1
10
6.96722201328424
20
-2.01396130040982
30
0
41
1
10
7.05347175785943
20
-2.03517109903174
30
0
41
1
10
7.18326335811219
20
-2.06447918979083
30
0
41
1
10
7.22659218108817
20
-2.07383500269645
30
0
41
1
10
7.31335288899322
20
-2.09175953510041
30
0
41
1
10
7.35677040914112
20
-2.10032917205237
30
0
41
1
10
7.48681681449182
20
-2.12480604034923
30
0
41
1
10
7.57337683001674
20
-2.13946073084196
30
0
41
1
10
7.74652071944294
20
-2.16468080860358
30
0
41
1
10
7.83309186056039
20
-2.17529679413002
30
0
41
1
10
8.09280705516755
20
-2.20148602508613
30
0
41
1
10
8.26594195583758
20
-2.21138639674032
30
0
41
1
10
8.48242193425651
20
-2.21558776109941
30
0
41
1
10
8.52575559611665
20
-2.21600742837455
30
0
41
1
10
8.61227936561252
20
-2.21588998382083
30
0
41
1
10
8.65549132502829
20
-2.21535208940088
30
0
41
1
10
8.78502372307574
20
-2.21215455328982
30
0
41
1
10
8.87124474989707
20
-2.20795410722135
30
0
41
1
10
9.12955078790165
20
-2.18986784866294
30
0
41
1
10
9.30124843942079
20
-2.17048033305073
30
0
41
1
10
9.55767889198231
20
-2.13187220143834
30
0
41
1
10
9.64297806676993
20
-2.11738270455984
30
0
41
1
10
9.81381150496733
20
-2.08442749429435
30
0
41
1
10
9.89935175472547
20
-2.06599207327503
30
0
41
1
10
10.0707602379624
20
-2.02580997453899
30
0
41
1
10
10.1565836940361
20
-2.00403095884397
30
0
41
1
10
10.3284248564555
20
-1.957301969084
30
0
41
1
10
10.4144563219912
20
-1.9323651221226
30
0
41
1
10
10.5865826410788
20
-1.87945619226849
30
0
41
1
10
10.6726715565127
20
-1.85146570071052
30
0
41
1
10
10.8023481290714
20
-1.80674652847287
30
0
41
1
10
10.845689983527
20
-1.79137901642059
30
0
41
1
10
10.9324202138224
20
-1.75983875853547
30
0
41
1
10
10.9757612719757
20
-1.74368436325631
30
0
41
1
10
11.0561523900153
20
-1.71303662032463
30
0
41
1
10
11.0932074082307
20
-1.69863540153696
30
0
41
1
10
11.1302470429555
20
-1.68398148964366
30
0
0
SPLINE
5
FC
100
AcDbEntity
8
1
62
256
6
ByLayer
370
18
48
1
60
0
100
AcDbSpline
70
4
71
3
72
112
73
108
40
0
40
0
40
0
40
0
40
0.0038600313734604
40
0.0038600313734604
40
0.0129638513242429
40
0.0129638513242429
40
0.0220676712750257
40
0.0220676712750257
40
0.0402753111765898
40
0.0402753111765898
40
0.0584829510781537
40
0.0584829510781537
40
0.0766905909797179
40
0.0766905909797179
40
0.0948982308812818
40
0.0948982308812818
40
0.104002050832064
40
0.104002050832064
40
0.113105870782846
40
0.113105870782846
40
0.131313510684411
40
0.131313510684411
40
0.149521150585977
40
0.149521150585977
40
0.167728790487542
40
0.167728790487542
40
0.185936430389107
40
0.185936430389107
40
0.204144070290673
40
0.204144070290673
40
0.240559350093804
40
0.240559350093804
40
0.258766989995371
40
0.258766989995371
40
0.267870809946154
40
0.267870809946154
40
0.276974629896938
40
0.276974629896938
40
0.313389909700075
40
0.313389909700075
40
0.331597549601643
40
0.331597549601643
40
0.349805189503212
40
0.349805189503212
40
0.36801282940478
40
0.36801282940478
40
0.386220469306349
40
0.386220469306349
40
0.404428109207917
40
0.404428109207917
40
0.422635749109485
40
0.422635749109485
40
0.459051028912622
40
0.459051028912622
40
0.477258668814191
40
0.477258668814191
40
0.495466308715759
40
0.495466308715759
40
0.513673948617328
40
0.513673948617328
40
0.531881588518896
40
0.531881588518896
40
0.550089228420464
40
0.550089228420464
40
0.568296868322033
40
0.568296868322033
40
0.586504508223601
40
0.586504508223601
40
0.60471214812517
40
0.60471214812517
40
0.622919788026738
40
0.622919788026738
40
0.641127427928307
40
0.641127427928307
40
0.677542707731444
40
0.677542707731444
40
0.695750347633012
40
0.695750347633012
40
0.71395798753458
40
0.71395798753458
40
0.750373267337719
40
0.750373267337719
40
0.76858090723929
40
0.76858090723929
40
0.78678854714086
40
0.78678854714086
40
0.823203826943999
40
0.823203826943999
40
0.841411466845569
40
0.841411466845569
40
0.859619106747138
40
0.859619106747138
40
0.877826746648708
40
0.877826746648708
40
0.896034386550277
40
0.896034386550277
40
0.914242026451847
40
0.914242026451847
40
0.923345846402632
40
0.923345846402632
40
0.932449666353416
40
0.932449666353416
40
0.950657306254986
40
0.950657306254986
40
0.968864946156555
40
0.968864946156555
40
1
40
1
40
1
40
1
41
1
10
20.0338202754886
20
2.22349682307342
30
0
41
1
10
20.0521657651894
20
2.22349567482226
30
0
41
1
10
20.0705187553061
20
2.22340402430248
30
0
41
1
10
20.132185375801
20
2.22279026139546
30
0
41
1
10
20.1755403747
20
2.2218518583623
30
0
41
1
10
20.2623379119448
20
2.2190000121002
30
0
41
1
10
20.3057848936072
20
2.21708576487319
30
0
41
1
10
20.4359710310884
20
2.2099543454483
30
0
41
1
10
20.5226490575838
20
2.20334848483606
30
0
41
1
10
20.6956213751424
20
2.18688619817999
30
0
41
1
10
20.7818788430331
20
2.17707902817594
30
0
41
1
10
20.9544138806855
20
2.15361312929315
30
0
41
1
10
21.0407032228218
20
2.1399041693555
30
0
41
1
10
21.2136480418173
20
2.10870995986883
30
0
41
1
10
21.3003213932467
20
2.09124306650259
30
0
41
1
10
21.4305239827186
20
2.06241968655155
30
0
41
1
10
21.4739625594935
20
2.05237546881821
30
0
41
1
10
21.5606495500159
20
2.0315286430004
30
0
41
1
10
21.6039292206091
20
2.02071906726539
30
0
41
1
10
21.7335473496421
20
1.98718635192833
30
0
41
1
10
21.8196645568968
20
1.96333602965882
30
0
41
1
10
21.9915954822565
20
1.91227947655398
30
0
41
1
10
22.0774025948815
20
1.88508579379277
30
0
41
1
10
22.248848937164
20
1.82754304706077
30
0
41
1
10
22.3344913622788
20
1.79720018989377
30
0
41
1
10
22.50569700677
20
1.73363812413132
30
0
41
1
10
22.5912970886227
20
1.70046481124899
30
0
41
1
10
22.7623915197466
20
1.63164651999585
30
0
41
1
10
22.8478538733111
20
1.59593502322366
30
0
41
1
10
23.1047409908724
20
1.48477708971919
30
0
41
1
10
23.276616957776
20
1.40535885656314
30
0
41
1
10
23.5353010743799
20
1.27883668111912
30
0
41
1
10
23.6216765806964
20
1.23543896500902
30
0
41
1
10
23.7513447894161
20
1.16859808736896
30
0
41
1
10
23.7946205596649
20
1.14600427506346
30
0
41
1
10
23.8811084364828
20
1.10035949750991
30
0
41
1
10
23.9243205008596
20
1.07731476169692
30
0
41
1
10
24.1404464797063
20
0.961208507488578
30
0
41
1
10
24.3134161968791
20
0.865347892378509
30
0
41
1
10
24.5730950280709
20
0.717803836447388
30
0
41
1
10
24.6596733008596
20
0.667977265519397
30
0
41
1
10
24.8326025509659
20
0.566827930339457
30
0
41
1
10
24.9190124781255
20
0.515468825935301
30
0
41
1
10
25.0920756783707
20
0.411986556706012
30
0
41
1
10
25.1783648017068
20
0.360057630713015
30
0
41
1
10
25.350625550182
20
0.256077590096083
30
0
41
1
10
25.4366440875677
20
0.204106232935118
30
0
41
1
10
25.6084597344458
20
0.100170706235531
30
0
41
1
10
25.6942382686315
20
0.0481734061511929
30
0
41
1
10
25.8654212200078
20
-0.0561356145755667
30
0
41
1
10
25.9508221894615
20
-0.108446629070727
30
0
41
1
10
26.2071968119518
20
-0.264424876495923
30
0
41
1
10
26.3783083082701
20
-0.367213561157172
30
0
41
1
10
26.6351874503943
20
-0.519958136687478
30
0
41
1
10
26.720839462087
20
-0.57064816798237
30
0
41
1
10
26.8923172977509
20
-0.671407479050231
30
0
41
1
10
26.9780988466243
20
-0.721548746612399
30
0
41
1
10
27.1503212797911
20
-0.820310007410825
30
0
41
1
10
27.2367930683357
20
-0.868880025273427
30
0
41
1
10
27.410352011137
20
-0.964604522105134
30
0
41
1
10
27.4970526741892
20
-1.01154906144313
30
0
41
1
10
27.6701364241919
20
-1.10392457089239
30
0
41
1
10
27.7565264653143
20
-1.14936692372623
30
0
41
1
10
27.9289881199782
20
-1.23892346349419
30
0
41
1
10
28.015030496169
20
-1.28308238213299
30
0
41
1
10
28.1875075631569
20
-1.36843889400379
30
0
41
1
10
28.2740103097813
20
-1.40953846078531
30
0
41
1
10
28.4473370272783
20
-1.48918750465958
30
0
41
1
10
28.5342300377229
20
-1.52775873271369
30
0
41
1
10
28.7076621742891
20
-1.60230195794148
30
0
41
1
10
28.7942560118885
20
-1.63832155996283
30
0
41
1
10
28.9671100708254
20
-1.70815042875017
30
0
41
1
10
29.0533490560086
20
-1.74199323802529
30
0
41
1
10
29.3122761183257
20
-1.83830276467924
30
0
41
1
10
29.4852661810764
20
-1.89536862914696
30
0
41
1
10
29.7456592255231
20
-1.97185437332584
30
0
41
1
10
29.832315606345
20
-1.99580888434235
30
0
41
1
10
30.0052392910584
20
-2.04112159022068
30
0
41
1
10
30.0915001290099
20
-2.06248205165176
30
0
41
1
10
30.3504327603722
20
-2.12048472994187
30
0
41
1
10
30.5232603614557
20
-2.15108883437813
30
0
41
1
10
30.7831257970749
20
-2.18592951247632
30
0
41
1
10
30.8699377241905
20
-2.1956980437713
30
0
41
1
10
31.0429970661239
20
-2.21141574093167
30
0
41
1
10
31.1293661798794
20
-2.21738571291513
30
0
41
1
10
31.3879480315176
20
-2.22987385112168
30
0
41
1
10
31.5597560550758
20
-2.23097397002701
30
0
41
1
10
31.8166235561018
20
-2.22239744692411
30
0
41
1
10
31.9020977688896
20
-2.2178207171809
30
0
41
1
10
32.0728719210625
20
-2.2051482188061
30
0
41
1
10
32.1581838178137
20
-2.19702592488557
30
0
41
1
10
32.3290483266774
20
-2.17680053292358
30
0
41
1
10
32.4146274093699
20
-2.16474580593194
30
0
41
1
10
32.5861723670904
20
-2.13699884439083
30
0
41
1
10
32.6720993923132
20
-2.12129312319206
30
0
41
1
10
32.8443068103924
20
-2.08641095626461
30
0
41
1
10
32.9305868788126
20
-2.06722073185665
30
0
41
1
10
33.0603304773267
20
-2.035757834333
30
0
41
1
10
33.1036328114147
20
-2.02482390638301
30
0
41
1
10
33.1903612931608
20
-2.00205420598323
30
0
41
1
10
33.2337830998623
20
-1.99021807460593
30
0
41
1
10
33.3638464608201
20
-1.95347086115436
30
0
41
1
10
33.4504247482924
20
-1.92729443246853
30
0
41
1
10
33.6234272674464
20
-1.87178887598634
30
0
41
1
10
33.7098323326443
20
-1.84244281474176
30
0
41
1
10
33.9440775598215
20
-1.75906551128321
30
0
41
1
10
34.0919077163453
20
-1.70221306293124
30
0
41
1
10
34.2400865442353
20
-1.64118482691316
30
0
0
SPLINE
5
FD
100
AcDbEntity
8
1
62
256
6
ByLayer
370
13
48
1
60
0
100
AcDbSpline
70
4
71
3
72
37
73
33
40
0
40
0
40
0
40
0
40
0.148409187456341
40
0.148409187456341
40
0.222613781184512
40
0.222613781184512
40
0.259716078048597
40
0.259716078048597
40
0.296818374912682
40
0.296818374912682
40
0.371022968640852
40
0.371022968640852
40
0.408125265504938
40
0.408125265504938
40
0.445227562369023
40
0.445227562369023
40
0.519432156097194
40
0.55653445296128
40
0.55653445296128
40
0.593636749825365
40
0.593636749825365
40
0.742045937281707
40
0.742045937281707
40
0.816250531009878
40
0.816250531009878
40
0.853352827873963
40
0.853352827873963
40
0.890455124738049
40
0.890455124738049
40
0.964659718466219
40
0.964659718466219
40
1
40
1
40
1
40
1
41
1
10
3.75108069355929
20
-0.571945394593286
30
0
41
1
10
3.75105609045062
20
-0.699605336224977
30
0
41
1
10
3.75102707192249
20
-0.822454062986907
30
0
41
1
10
3.75098096246467
20
-0.999762413708567
30
0
41
1
10
3.75096514587816
20
-1.05769733827268
30
0
41
1
10
3.75094113172764
20
-1.14281637003572
30
0
41
1
10
3.75093307805858
20
-1.17089171711609
30
0
41
1
10
3.75091692783758
20
-1.22643625515411
30
0
41
1
10
3.75090883730024
20
-1.25388342435093
30
0
41
1
10
3.75088476398108
20
-1.33467300352137
30
0
41
1
10
3.75086892147033
20
-1.38667947714958
30
0
41
1
10
3.75084569137152
20
-1.46192033965383
30
0
41
1
10
3.75083803603263
20
-1.4865384612207
30
0
41
1
10
3.75082292811896
20
-1.53484383774915
30
0
41
1
10
3.7508154734042
20
-1.55853750635421
30
0
41
1
10
3.75079355571947
20
-1.62784979992904
30
0
41
1
10
3.75077247696836
20
-1.69381993872651
30
0
41
1
10
3.75075268624116
20
-1.75479009418811
30
0
41
1
10
3.75073976872602
20
-1.79431463361172
30
0
41
1
10
3.75073347314492
20
-1.81344118336449
30
0
41
1
10
3.75070284133028
20
-1.90568023056599
30
0
41
1
10
3.75068100696376
20
-1.96897604794845
30
0
41
1
10
3.75065039226126
20
-2.04850105001068
30
0
41
1
10
3.75064053251819
20
-2.07242444632939
30
0
41
1
10
3.75062591131223
20
-2.10433293313758
30
0
41
1
10
3.7506210555517
20
-2.11432212401689
30
0
41
1
10
3.75061138196204
20
-2.13284353959455
30
0
41
1
10
3.75060656459811
20
-2.14137797152645
30
0
41
1
10
3.75059205634892
20
-2.16481581581448
30
0
41
1
10
3.75058231218634
20
-2.17755811744988
30
0
41
1
10
3.75056732567202
20
-2.19208842974103
30
0
41
1
10
3.75056239506517
20
-2.19611654672045
30
0
41
1
10
3.7505573603373
20
-2.19946429763272
30
0
0
SPLINE
5
FE
100
AcDbEntity
8
1
62
256
6
ByLayer
370
18
48
1
60
0
100
AcDbSpline
70
4
71
3
72
12
73
8
40
0
40
0
40
0
40
0
40
0.0181356188507895
40
0.0181356188507895
40
0.399934846834194
40
0.399934846834194
40
1
40
1
40
1
40
1
41
1
10
3.75055736049075
20
-2.19946419564235
30
0
41
1
10
3.75055710941547
20
-2.19963114434734
30
0
41
1
10
3.75055685808124
20
-2.19979640105856
30
0
41
1
10
3.75055130981298
20
-2.20340334693887
30
0
41
1
10
3.75054589031799
20
-2.20610424071839
30
0
41
1
10
3.75053152293037
20
-2.2111597881524
30
0
41
1
10
3.75052233610143
20
-2.21244743691813
30
0
41
1
10
3.75051255218176
20
-2.2119189542646
30
0
0
SPLINE
5
FF
100
AcDbEntity
8
1
62
256
6
ByLayer
370
13
48
1
60
0
100
AcDbSpline
70
4
71
3
72
48
73
44
40
0
40
0
40
0
40
0
40
0.0542658660499187
40
0.0542658660499187
40
0.128197550196807
40
0.128197550196807
40
0.165163392270251
40
0.165163392270251
40
0.202129234343695
40
0.202129234343695
40
0.276060918490586
40
0.276060918490586
40
0.349992602637477
40
0.349992602637477
40
0.423924286784368
40
0.423924286784368
40
0.460890128857812
40
0.460890128857812
40
0.479373049894535
40
0.479373049894535
40
0.497855970931259
40
0.497855970931259
40
0.534821813004705
40
0.534821813004705
40
0.553304734041427
40
0.553304734041427
40
0.57178765507815
40
0.57178765507815
40
0.64571933922504
40
0.64571933922504
40
0.719651023371931
40
0.719651023371931
40
0.793582707518822
40
0.793582707518822
40
0.867514391665712
40
0.867514391665712
40
0.885997312702436
40
0.885997312702436
40
0.904480233739159
40
0.904480233739159
40
0.941446075812607
40
0.941446075812607
40
1
40
1
40
1
40
1
41
1
10
17.4763758037465
20
1.65915074575688
30
0
41
1
10
17.6037990095949
20
1.60784749825632
30
0
41
1
10
17.7311305104887
20
1.55360782206324
30
0
41
1
10
18.032109958875
20
1.41893464951406
30
0
41
1
10
18.205763724395
20
1.33605711353974
30
0
41
1
10
18.4671310283351
20
1.20491231628344
30
0
41
1
10
18.5544100513164
20
1.16007488465479
30
0
41
1
10
18.729418957208
20
1.06831840349568
30
0
41
1
10
18.8172789834728
20
1.02131122093252
30
0
41
1
10
19.079868336386
20
0.878252549173396
30
0
41
1
10
19.2540037686015
20
0.779893052211804
30
0
41
1
10
19.6015156560894
20
0.579023002725194
30
0
41
1
10
19.7749515314893
20
0.476611109315201
30
0
41
1
10
20.1219773354567
20
0.269089725262887
30
0
41
1
10
20.295531001083
20
0.163924913874297
30
0
41
1
10
20.5566713331827
20
0.0053264864227458
30
0
41
1
10
20.6438553800968
20
-0.0476823546893002
30
0
41
1
10
20.7749596294786
20
-0.127206482383684
30
0
41
1
10
20.8187163030474
20
-0.153714757410967
30
0
41
1
10
20.906349421334
20
-0.206718067015032
30
0
41
1
10
20.9502362713055
20
-0.233222266743326
30
0
41
1
10
21.0818015955116
20
-0.312524602497291
30
0
41
1
10
21.16947521169
20
-0.36516563163849
30
0
41
1
10
21.3010168853181
20
-0.443646037125319
30
0
41
1
10
21.344888930386
20
-0.46973671005685
30
0
41
1
10
21.4324656166685
20
-0.52161406099961
30
0
41
1
10
21.4761900761875
20
-0.547412475828963
30
0
41
1
10
21.6945427950645
20
-0.675631457296021
30
0
41
1
10
21.8684009953716
20
-0.775674445570957
30
0
41
1
10
22.2152798748297
20
-0.969477469801745
30
0
41
1
10
22.3882768918207
20
-1.06328897392549
30
0
41
1
10
22.7344504975946
20
-1.24328869715683
30
0
41
1
10
22.9076707687709
20
-1.32936691983363
30
0
41
1
10
23.2550850187599
20
-1.49259454619462
30
0
41
1
10
23.4292727590201
20
-1.56975614975247
30
0
41
1
10
23.6482626850385
20
-1.65972701435135
30
0
41
1
10
23.6921199831102
20
-1.67739062215782
30
0
41
1
10
23.7796372818319
20
-1.7119006787768
30
0
41
1
10
23.8233409460777
20
-1.72876460594603
30
0
41
1
10
23.9542971587765
20
-1.77817260608441
30
0
41
1
10
24.0413915716242
20
-1.80953091922169
30
0
41
1
10
24.2660286772109
20
-1.8864100766007
30
0
41
1
10
24.4033232596859
20
-1.92953518218837
30
0
41
1
10
24.5404779045171
20
-1.96850854257207
30
0
0
SPLINE
5
100
100
AcDbEntity
8
1
62
256
6
ByLayer
370
18
48
1
60
0
100
AcDbSpline
70
4
71
3
72
28
73
24
40
0
40
0
40
0
40
0
40
0.0287809043027248
40
0.0287809043027248
40
0.167150909053969
40
0.167150909053969
40
0.305520913805212
40
0.305520913805212
40
0.374705916180832
40
0.374705916180832
40
0.443890918556452
40
0.443890918556452
40
0.582260923307695
40
0.582260923307695
40
0.720630928058939
40
0.720630928058939
40
0.859000932810182
40
0.859000932810182
40
0.928185935185804
40
0.928185935185804
40
0.997370937561426
40
0.997370937561426
40
1
40
1
40
1
40
1
41
1
10
24.5404779041254
20
-1.9685085424608
30
0
41
1
10
24.5764982262894
20
-1.97874394497919
30
0
41
1
10
24.6125088966447
20
-1.98869299245283
30
0
41
1
10
24.8216203483694
20
-2.04479528212718
30
0
41
1
10
24.9946449940671
20
-2.08440698436652
30
0
41
1
10
25.3412322081666
20
-2.14951398987469
30
0
41
1
10
25.514798539075
20
-2.17506020996521
30
0
41
1
10
25.7763447672005
20
-2.20237580005383
30
0
41
1
10
25.863748344157
20
-2.20962820108639
30
0
41
1
10
26.0391009875874
20
-2.22032690227451
30
0
41
1
10
26.1266067428982
20
-2.22374493318688
30
0
41
1
10
26.3883172994168
20
-2.2282808196214
30
0
41
1
10
26.5619129103907
20
-2.22366944155752
30
0
41
1
10
26.9084600422875
20
-2.19977531788479
30
0
41
1
10
27.0814486108373
20
-2.18056648845635
30
0
41
1
10
27.4275321070391
20
-2.12732703544094
30
0
41
1
10
27.6006499934
20
-2.09339662679082
30
0
41
1
10
27.8612045314471
20
-2.03197718526204
30
0
41
1
10
27.9482103137045
20
-2.00976524353973
30
0
41
1
10
28.1226320283128
20
-1.96182738845314
30
0
41
1
10
28.2100753426793
20
-1.9360750082746
30
0
41
1
10
28.3010599067321
20
-1.90756482492247
30
0
41
1
10
28.3043904111301
20
-1.90651883576518
30
0
41
1
10
28.3077205424216
20
-1.90547060007171
30
0
0
SPLINE
5
101
100
AcDbEntity
8
1
62
256
6
ByLayer
370
18
48
1
60
0
100
AcDbSpline
70
4
71
3
72
126
73
122
40
0
40
0
40
0
40
0
40
0.001858109350912
40
0.001858109350912
40
0.010966573233505
40
0.010966573233505
40
0.029183500998691
40
0.029183500998691
40
0.065617356529063
40
0.065617356529063
40
0.0838342842942484
40
0.0838342842942484
40
0.102051212059434
40
0.102051212059434
40
0.120268139824619
40
0.120268139824619
40
0.138485067589805
40
0.138485067589805
40
0.15670199535499
40
0.15670199535499
40
0.165810459237583
40
0.165810459237583
40
0.174918923120176
40
0.174918923120176
40
0.193135850885361
40
0.193135850885361
40
0.211352778650546
40
0.211352778650546
40
0.229569706415732
40
0.229569706415732
40
0.247786634180917
40
0.247786634180917
40
0.284220489711288
40
0.284220489711288
40
0.302437417476473
40
0.302437417476473
40
0.320654345241658
40
0.320654345241658
40
0.338871273006843
40
0.338871273006843
40
0.357088200772028
40
0.357088200772028
40
0.375305128537212
40
0.375305128537212
40
0.393522056302397
40
0.393522056302397
40
0.411738984067582
40
0.411738984067582
40
0.429955911832767
40
0.429955911832767
40
0.448172839597952
40
0.448172839597952
40
0.466389767363137
40
0.466389767363137
40
0.484606695128322
40
0.484606695128322
40
0.502823622893507
40
0.502823622893507
40
0.521040550658692
40
0.521040550658692
40
0.539257478423877
40
0.539257478423877
40
0.557474406189062
40
0.557474406189062
40
0.575691333954247
40
0.575691333954247
40
0.593908261719432
40
0.593908261719432
40
0.612125189484617
40
0.612125189484617
40
0.630342117249802
40
0.630342117249802
40
0.648559045014987
40
0.648559045014987
40
0.657667508897579
40
0.657667508897579
40
0.666775972780172
40
0.666775972780172
40
0.684992900545356
40
0.684992900545356
40
0.70320982831054
40
0.70320982831054
40
0.721426756075723
40
0.721426756075723
40
0.739643683840907
40
0.739643683840907
40
0.748752147723498
40
0.748752147723498
40
0.75786061160609
40
0.75786061160609
40
0.776077539371271
40
0.776077539371271
40
0.794294467136453
40
0.794294467136453
40
0.812511394901635
40
0.812511394901635
40
0.821619858784226
40
0.821619858784226
40
0.830728322666817
40
0.830728322666817
40
0.848945250432001
40
0.848945250432001
40
0.867162178197185
40
0.867162178197185
40
0.885379105962369
40
0.885379105962369
40
0.903596033727552
40
0.903596033727552
40
0.912704497610144
40
0.912704497610144
40
0.921812961492736
40
0.921812961492736
40
0.94002988925792
40
0.94002988925792
40
0.958246817023104
40
0.958246817023104
40
0.976463744788287
40
0.976463744788287
40
0.994680672553471
40
0.994680672553471
40
1
40
1
40
1
40
1
41
1
10
8.54253342168477
20
2.21592540948171
30
0
41
1
10
8.55136380902488
20
2.21595275627453
30
0
41
1
10
8.56019213845511
20
2.21596068533074
30
0
41
1
10
8.61227936561249
20
2.21588998382083
30
0
41
1
10
8.65549132502827
20
2.21535208940088
30
0
41
1
10
8.78502372307571
20
2.21215455328982
30
0
41
1
10
8.87124474989702
20
2.20795410722135
30
0
41
1
10
9.12955078790162
20
2.18986784866297
30
0
41
1
10
9.30124843942073
20
2.17048033305073
30
0
41
1
10
9.55767889198231
20
2.13187220143834
30
0
41
1
10
9.64297806676993
20
2.11738270455984
30
0
41
1
10
9.8138115049673
20
2.08442749429435
30
0
41
1
10
9.89935175472544
20
2.06599207327503
30
0
41
1
10
10.0707602379624
20
2.02580997453902
30
0
41
1
10
10.1565836940361
20
2.00403095884397
30
0
41
1
10
10.3284248564555
20
1.957301969084
30
0
41
1
10
10.4144563219912
20
1.9323651221226
30
0
41
1
10
10.5865826410788
20
1.87945619226849
30
0
41
1
10
10.6726715565127
20
1.85146570071052
30
0
41
1
10
10.8023481290714
20
1.8067465284729
30
0
41
1
10
10.845689983527
20
1.79137901642059
30
0
41
1
10
10.9324202138224
20
1.75983875853547
30
0
41
1
10
10.9757612719757
20
1.74368436325634
30
0
41
1
10
11.1057037585102
20
1.69414600603068
30
0
41
1
10
11.1922123256452
20
1.65966691719078
30
0
41
1
10
11.3651571369947
20
1.58814782672911
30
0
41
1
10
11.4516296429601
20
1.55115424627934
30
0
41
1
10
11.6244190129062
20
1.4746953583109
30
0
41
1
10
11.7107552415276
20
1.43523150532892
30
0
41
1
10
11.8838804196956
20
1.35381975530584
30
0
41
1
10
11.9706865594134
20
1.31186504004694
30
0
41
1
10
12.2312144928202
20
1.18263221346066
30
0
41
1
10
12.4042732460787
20
1.09231328596272
30
0
41
1
10
12.6631675850733
20
0.951414478763155
30
0
41
1
10
12.7493939507954
20
0.903585799967743
30
0
41
1
10
12.9223538578388
20
0.806760715004344
30
0
41
1
10
13.0090243365327
20
0.757699122057403
30
0
41
1
10
13.1826141919991
20
0.658357707595485
30
0
41
1
10
13.2695798242086
20
0.60805002536415
30
0
41
1
10
13.4430519954592
20
0.506562341703216
30
0
41
1
10
13.529635454488
20
0.455335257320257
30
0
41
1
10
13.7024680628408
20
0.351883609312125
30
0
41
1
10
13.7887373790316
20
0.299683278032717
30
0
41
1
10
13.9615358476449
20
0.195119812548313
30
0
41
1
10
14.0480237720754
20
0.142699400092113
30
0
41
1
10
14.2212468764157
20
0.0377813533930293
30
0
41
1
10
14.30801018878
20
-0.014736718235639
30
0
41
1
10
14.4815832598871
20
-0.119899567424
30
0
41
1
10
14.568228881151
20
-0.172391698417243
30
0
41
1
10
14.7412233065289
20
-0.277240579885046
30
0
41
1
10
14.8275845925906
20
-0.329562487063697
30
0
41
1
10
15.0006021732543
20
-0.432861289244244
30
0
41
1
10
15.0872245750882
20
-0.483914285090975
30
0
41
1
10
15.2604370674727
20
-0.585432413634663
30
0
41
1
10
15.3470360558308
20
-0.63587494310994
30
0
41
1
10
15.5203025748388
20
-0.736015864833945
30
0
41
1
10
15.607078077197
20
-0.785675543396025
30
0
41
1
10
15.7798510226581
20
-0.883696029692857
30
0
41
1
10
15.8659407765168
20
-0.932103574400116
30
0
41
1
10
16.0380796345102
20
-1.02606800730231
30
0
41
1
10
16.1241112495399
20
-1.07169840641922
30
0
41
1
10
16.2959590407897
20
-1.16096119574016
30
0
41
1
10
16.3817746706098
20
-1.2045906080167
30
0
41
1
10
16.5530486819442
20
-1.29036918482288
30
0
41
1
10
16.6385151614173
20
-1.33249725035822
30
0
41
1
10
16.8092555023052
20
-1.41492809988327
30
0
41
1
10
16.8945170354998
20
-1.45524116603184
30
0
41
1
10
17.0655387931779
20
-1.53260790554992
30
0
41
1
10
17.1512723818714
20
-1.56969749784093
30
0
41
1
10
17.3230141202107
20
-1.6412594193178
30
0
41
1
10
17.4090405998583
20
-1.6757111978153
30
0
41
1
10
17.5812406975106
20
-1.74235598180417
30
0
41
1
10
17.6674019413763
20
-1.77456854193994
30
0
41
1
10
17.7969056601469
20
-1.82083014312616
30
0
41
1
10
17.8401173442454
20
-1.83590724571772
30
0
41
1
10
17.926671618463
20
-1.86529395279351
30
0
41
1
10
17.9700061967272
20
-1.87959885864311
30
0
41
1
10
18.0998555332109
20
-1.92108958646096
30
0
41
1
10
18.1863504961967
20
-1.9468898157298
30
0
41
1
10
18.3593110070111
20
-1.99506211648304
30
0
41
1
10
18.4458242447997
20
-2.01740024762023
30
0
41
1
10
18.6186994725997
20
-2.05921579568718
30
0
41
1
10
18.7050489358553
20
-2.0787154467661
30
0
41
1
10
18.8779210511334
20
-2.11412383493652
30
0
41
1
10
18.9644372745032
20
-2.13003100074445
30
0
41
1
10
19.0944742990441
20
-2.15094622660243
30
0
41
1
10
19.1378729585299
20
-2.15742423771653
30
0
41
1
10
19.2245689804699
20
-2.16940282039579
30
0
41
1
10
19.2678889846171
20
-2.17490778662972
30
0
41
1
10
19.3977742931955
20
-2.19003149311016
30
0
41
1
10
19.4842726246487
20
-2.19825447977462
30
0
41
1
10
19.6569747312652
20
-2.21156446851356
30
0
41
1
10
19.7431787239838
20
-2.21666002060707
30
0
41
1
10
19.915847715806
20
-2.22291838238567
30
0
41
1
10
20.0022698601295
20
-2.22408330005933
30
0
41
1
10
20.132185375801
20
-2.22279026139546
30
0
41
1
10
20.1755403746999
20
-2.2218518583623
30
0
41
1
10
20.2623379119447
20
-2.2190000121002
30
0
41
1
10
20.3057848936071
20
-2.21708576487319
30
0
41
1
10
20.4359710310884
20
-2.2099543454483
30
0
41
1
10
20.5226490575837
20
-2.20334848483606
30
0
41
1
10
20.6956213751424
20
-2.18688619817999
30
0
41
1
10
20.7818788430331
20
-2.17707902817594
30
0
41
1
10
20.9544138806854
20
-2.15361312929318
30
0
41
1
10
21.0407032228217
20
-2.1399041693555
30
0
41
1
10
21.2136480418173
20
-2.10870995986886
30
0
41
1
10
21.3003213932466
20
-2.09124306650259
30
0
41
1
10
21.4305239827186
20
-2.06241968655158
30
0
41
1
10
21.4739625594935
20
-2.05237546881821
30
0
41
1
10
21.5606495500159
20
-2.03152864300043
30
0
41
1
10
21.6039292206091
20
-2.02071906726539
30
0
41
1
10
21.7335473496421
20
-1.98718635192836
30
0
41
1
10
21.8196645568968
20
-1.96333602965885
30
0
41
1
10
21.9915954822565
20
-1.912279476554
30
0
41
1
10
22.0774025948814
20
-1.88508579379277
30
0
41
1
10
22.248848937164
20
-1.82754304706077
30
0
41
1
10
22.3344913622788
20
-1.7972001898938
30
0
41
1
10
22.50569700677
20
-1.73363812413132
30
0
41
1
10
22.5912970886227
20
-1.70046481124902
30
0
41
1
10
22.7018240185238
20
-1.65600822430289
30
0
41
1
10
22.7267964972318
20
-1.64584973996077
30
0
41
1
10
22.7517680030571
20
-1.63557924668257
30
0
0
SPLINE
5
102
100
AcDbEntity
8
1
62
256
6
ByLayer
370
18
48
1
60
0
100
AcDbSpline
70
4
71
3
72
52
73
48
40
0
40
0
40
0
40
0
40
0.0392929405614509
40
0.0392929405614509
40
0.0873282935333807
40
0.0873282935333807
40
0.13536364650531
40
0.13536364650531
40
0.18339899947724
40
0.18339899947724
40
0.23143435244917
40
0.23143435244917
40
0.2794697054211
40
0.2794697054211
40
0.303487381907066
40
0.303487381907066
40
0.327505058393031
40
0.327505058393031
40
0.375540411364961
40
0.375540411364961
40
0.423575764336891
40
0.423575764336891
40
0.51964647028075
40
0.51964647028075
40
0.543664146766712
40
0.543664146766712
40
0.567681823252674
40
0.567681823252674
40
0.615717176224599
40
0.615717176224599
40
0.663752529196523
40
0.663752529196523
40
0.711787882168448
40
0.711787882168448
40
0.759823235140372
40
0.759823235140372
40
0.807858588112296
40
0.807858588112296
40
0.855893941084221
40
0.855893941084221
40
0.903929294056146
40
0.903929294056146
40
0.95196464702807
40
0.95196464702807
40
0.975982323514035
40
0.975982323514035
40
1
40
1
40
1
40
1
41
1
10
31.520599620618
20
2.22882253752326
30
0
41
1
10
31.5908283842412
20
2.22879286465704
30
0
41
1
10
31.6609618115676
20
2.2275948212237
30
0
41
1
10
31.8166235561018
20
2.22239744692411
30
0
41
1
10
31.9020977688895
20
2.2178207171809
30
0
41
1
10
32.0728719210624
20
2.2051482188061
30
0
41
1
10
32.1581838178136
20
2.19702592488557
30
0
41
1
10
32.3290483266774
20
2.17680053292361
30
0
41
1
10
32.4146274093699
20
2.16474580593194
30
0
41
1
10
32.5861723670903
20
2.13699884439083
30
0
41
1
10
32.6720993923131
20
2.12129312319203
30
0
41
1
10
32.8443068103924
20
2.08641095626461
30
0
41
1
10
32.9305868788126
20
2.06722073185665
30
0
41
1
10
33.0603304773267
20
2.035757834333
30
0
41
1
10
33.1036328114147
20
2.02482390638301
30
0
41
1
10
33.1903612931608
20
2.00205420598323
30
0
41
1
10
33.2337830998623
20
1.99021807460596
30
0
41
1
10
33.36384646082
20
1.95347086115436
30
0
41
1
10
33.4504247482924
20
1.92729443246853
30
0
41
1
10
33.6234272674464
20
1.87178887598637
30
0
41
1
10
33.7098323326443
20
1.84244281474179
30
0
41
1
10
33.9691444468436
20
1.75014319738514
30
0
41
1
10
34.1420496957973
20
1.68280773640694
30
0
41
1
10
34.3588721040303
20
1.59151721902171
30
0
41
1
10
34.4022856834334
20
1.57289530987421
30
0
41
1
10
34.4889192096852
20
1.53506356666154
30
0
41
1
10
34.5321704943513
20
1.51584081701773
30
0
41
1
10
34.6617382921332
20
1.45727458426157
30
0
41
1
10
34.7478627613599
20
1.41702525226185
30
0
41
1
10
34.9197256863703
20
1.33431678651107
30
0
41
1
10
35.0054584654668
20
1.29184918637358
30
0
41
1
10
35.1767417636842
20
1.20495702765717
30
0
41
1
10
35.2623390285742
20
1.16059846298722
30
0
41
1
10
35.4335564357249
20
1.07019745160744
30
0
41
1
10
35.5191671444748
20
1.02413559400702
30
0
41
1
10
35.690483514386
20
0.930488847974146
30
0
41
1
10
35.7761769451653
20
0.882887494786871
30
0
41
1
10
35.9476110836451
20
0.786149868467362
30
0
41
1
10
36.0333415865366
20
0.737005065088965
30
0
41
1
10
36.2049071922796
20
0.637247609913686
30
0
41
1
10
36.2907548700085
20
0.586649970809304
30
0
41
1
10
36.4627704893351
20
0.48425555747167
30
0
41
1
10
36.5489280464148
20
0.432442326494055
30
0
41
1
10
36.678676534912
20
0.354226813060535
30
0
41
1
10
36.7220402759226
20
0.328043265689502
30
0
41
1
10
36.8087375166743
20
0.275622641852863
30
0
41
1
10
36.8520719590717
20
0.249385985816531
30
0
41
1
10
36.8954116640476
20
0.223151974650165
30
0
0
SPLINE
5
103
100
AcDbEntity
8
1
62
256
6
ByLayer
370
13
48
1
60
0
100
AcDbSpline
70
4
71
3
72
54
73
50
40
0
40
0
40
0
40
0
40
0.0163701932801606
40
0.0163701932801606
40
0.035057589840778
40
0.035057589840778
40
0.0537449864013954
40
0.0537449864013954
40
0.128494572643864
40
0.128494572643864
40
0.203244158886332
40
0.203244158886332
40
0.240618952007565
40
0.240618952007565
40
0.277993745128798
40
0.277993745128798
40
0.352743331371264
40
0.352743331371264
40
0.371430727931882
40
0.371430727931882
40
0.390118124492499
40
0.390118124492499
40
0.427492917613735
40
0.427492917613735
40
0.502242503856205
40
0.502242503856205
40
0.539617296977441
40
0.539617296977441
40
0.576992090098676
40
0.576992090098676
40
0.651741676341147
40
0.651741676341147
40
0.689116469462383
40
0.689116469462383
40
0.707803866023
40
0.707803866023
40
0.726491262583617
40
0.726491262583617
40
0.801240848826085
40
0.801240848826085
40
0.838615641947319
40
0.838615641947319
40
0.875990435068554
40
0.875990435068554
40
0.950740021311022
40
0.950740021311022
40
0.988114814432256
40
0.988114814432256
40
1
40
1
40
1
40
1
41
1
10
5.98676461850812
20
1.65018850972913
30
0
41
1
10
6.02507614601279
20
1.63478827048553
30
0
41
1
10
6.06342820360592
20
1.61909877441863
30
0
41
1
10
6.14565854500455
20
1.58488729837097
30
0
41
1
10
6.18959241080765
20
1.56626059312359
30
0
41
1
10
6.27737644576638
20
1.52836821745245
30
0
41
1
10
6.32120267416229
20
1.50911366839392
30
0
41
1
10
6.54004317287746
20
1.41135696976207
30
0
41
1
10
6.71418194051338
20
1.32840254883604
30
0
41
1
10
7.06153861181306
20
1.15439969163418
30
0
41
1
10
7.23476314207807
20
1.0633630743676
30
0
41
1
10
7.49467869921725
20
0.921909499384299
30
0
41
1
10
7.58133232224617
20
0.873948410993393
30
0
41
1
10
7.75479780944741
20
0.776631508036587
30
0
41
1
10
7.84161021873297
20
0.727271567872322
30
0
41
1
10
8.10240588009799
20
0.577192856691568
30
0
41
1
10
8.27674328682528
20
0.474482191444792
30
0
41
1
10
8.49588201372609
20
0.343703922679623
30
0
41
1
10
8.53981348831653
20
0.317404280674253
30
0
41
1
10
8.62752846775322
20
0.264774806737336
30
0
41
1
10
8.67132584381758
20
0.238439030879761
30
0
41
1
10
8.80256256025589
20
0.159407621454619
30
0
41
1
10
8.88984920016244
20
0.106694427434405
30
0
41
1
10
9.15119480240884
20
-0.0513320178933157
30
0
41
1
10
9.3247409946822
20
-0.156535679662284
30
0
41
1
10
9.58477200777952
20
-0.312896622912945
30
0
41
1
10
9.67140385415269
20
-0.364773445625275
30
0
41
1
10
9.84471791892759
20
-0.467827781123788
30
0
41
1
10
9.93140124034625
20
-0.51900064798599
30
0
41
1
10
10.1916473621641
20
-0.671228461692664
30
0
41
1
10
10.3654004239608
20
-0.771008729415257
30
0
41
1
10
10.6271548764484
20
-0.916889610874762
30
0
41
1
10
10.7145955026079
20
-0.96488501819141
30
0
41
1
10
10.8461403096401
20
-1.03578138974299
30
0
41
1
10
10.8900779782628
20
-1.05924070149604
30
0
41
1
10
10.977754483589
20
-1.10558646709461
30
0
41
1
10
11.021531124218
20
-1.12849426590677
30
0
41
1
10
11.2401350191778
20
-1.24165766861441
30
0
41
1
10
11.4141177461563
20
-1.3278150428782
30
0
41
1
10
11.6744902549938
20
-1.4496268587196
30
0
41
1
10
11.7611853489986
20
-1.48900306048861
30
0
41
1
10
11.9345322621353
20
-1.56519634278806
30
0
41
1
10
12.0211817484511
20
-1.60199949819815
30
0
41
1
10
12.2811656532035
20
-1.70828294252539
30
0
41
1
10
12.454535784922
20
-1.77366184576087
30
0
41
1
10
12.7153922227627
20
-1.86265380020197
30
0
41
1
10
12.8024809898736
20
-1.89082175273899
30
0
41
1
10
12.9175380421063
20
-1.92591103808235
30
0
41
1
10
12.9453193174649
20
-1.93421914684896
30
0
41
1
10
12.9731229820403
20
-1.94236603426606
30
0
0
SPLINE
5
104
100
AcDbEntity
8
1
62
256
6
ByLayer
370
18
48
1
60
0
100
AcDbSpline
70
4
71
3
72
22
73
18
40
0
40
0
40
0
40
0
40
0.0976238019055533
40
0.0976238019055533
40
0.169195507997937
40
0.169195507997937
40
0.240767214090321
40
0.240767214090321
40
0.38391062627509
40
0.38391062627509
40
0.67019745064463
40
0.67019745064463
40
0.813340862829399
40
0.813340862829399
40
0.956484275014171
40
0.956484275014171
40
1
40
1
40
1
40
1
41
1
10
12.9731229820662
20
-1.94236603427368
30
0
41
1
10
13.0327522149826
20
-1.95983828675364
30
0
41
1
10
13.092484427989
20
-1.97656899524918
30
0
41
1
10
13.1962121518022
20
-2.00422615705119
30
0
41
1
10
13.2401075667183
20
-2.01549901316398
30
0
41
1
10
13.3277940728307
20
-2.03714318540025
30
0
41
1
10
13.3716086085785
20
-2.04752079887211
30
0
41
1
10
13.5029888760744
20
-2.07730827194075
30
0
41
1
10
13.5904898138467
20
-2.09536841930381
30
0
41
1
10
13.8529331009309
20
-2.14409238317668
30
0
41
1
10
14.0278411301261
20
-2.16943150781108
30
0
41
1
10
14.290830257003
20
-2.19615317716148
30
0
41
1
10
14.3786724496424
20
-2.20319262327499
30
0
41
1
10
14.5536800963001
20
-2.21344245294452
30
0
41
1
10
14.6409569447347
20
-2.21664729762242
30
0
41
1
10
14.754543192864
20
-2.21834476281703
30
0
41
1
10
14.7810078934664
20
-2.21856871768856
30
0
41
1
10
14.8074586034901
20
-2.21862089481698
30
0
0
SPLINE
5
105
100
AcDbEntity
8
1
62
256
6
ByLayer
370
13
48
1
60
0
100
AcDbSpline
70
4
71
3
72
52
73
48
40
0
40
0
40
0
40
0
40
0.0319458240339689
40
0.0319458240339689
40
0.0964827690983787
40
0.0964827690983787
40
0.161019714162789
40
0.161019714162789
40
0.177153950428891
40
0.177153950428891
40
0.193288186694994
40
0.193288186694994
40
0.225556659227199
40
0.225556659227199
40
0.290093604291605
40
0.290093604291605
40
0.354630549356011
40
0.354630549356011
40
0.419167494420417
40
0.419167494420417
40
0.45143596695262
40
0.45143596695262
40
0.483704439484823
40
0.483704439484823
40
0.548241384549225
40
0.548241384549225
40
0.612778329613627
40
0.612778329613627
40
0.741852219742428
40
0.741852219742428
40
0.774120692274628
40
0.774120692274628
40
0.790254928540726
40
0.790254928540726
40
0.806389164806823
40
0.806389164806823
40
0.870926109871211
40
0.870926109871211
40
0.935463054935597
40
0.935463054935597
40
0.967731527467793
40
0.983865763733893
40
0.991932881866944
40
0.995966440933472
40
0.997983220466736
40
0.997983220466736
40
1
40
1
40
1
40
1
41
1
10
29.0838494270558
20
1.6205635544917
30
0
41
1
10
29.1696217442096
20
1.58482228787071
30
0
41
1
10
29.2553107008379
20
1.54776898395872
30
0
41
1
10
29.5140026325651
20
1.43203767442091
30
0
41
1
10
29.6868929701899
20
1.34953508247435
30
0
41
1
10
30.0334134547523
20
1.1757565914867
30
0
41
1
10
30.2071674213135
20
1.08462894391641
30
0
41
1
10
30.4254103231473
20
0.965928458267484
30
0
41
1
10
30.4691120924731
20
0.94194821879114
30
0
41
1
10
30.5566352588068
20
0.893519981549645
30
0
41
1
10
30.6005008010575
20
0.869047071459818
30
0
41
1
10
30.7319349243394
20
0.795149372905854
30
0
41
1
10
30.8192794974735
20
0.745279430100766
30
0
41
1
10
31.0806613661051
20
0.594161905196188
30
0
41
1
10
31.254051357985
20
0.491414581052112
30
0
41
1
10
31.600085540615
20
0.283558353819075
30
0
41
1
10
31.7726873571152
20
0.178375691246401
30
0
41
1
10
32.1183291752638
20
-0.0323659188335341
30
0
41
1
10
32.2914383518513
20
-0.137808258253756
30
0
41
1
10
32.5519262525569
20
-0.295448282948172
30
0
41
1
10
32.6389026157894
20
-0.347890948528431
30
0
41
1
10
32.8132592608971
20
-0.45238709622879
30
0
41
1
10
32.9006708255197
20
-0.504461112278989
30
0
41
1
10
33.1635161773834
20
-0.659640439716725
30
0
41
1
10
33.3376785352236
20
-0.760553353687783
30
0
41
1
10
33.684904188192
20
-0.955855634487534
30
0
41
1
10
33.8579363563276
20
-1.05027930998423
30
0
41
1
10
34.3765798059005
20
-1.32204314367692
30
0
41
1
10
34.7217975402214
20
-1.4878103661965
30
0
41
1
10
35.1573754463109
20
-1.66904489388946
30
0
41
1
10
35.2446943100724
20
-1.70399204892598
30
0
41
1
10
35.3760682479664
20
-1.75433223003711
30
0
41
1
10
35.4198609777669
20
-1.77074015252137
30
0
41
1
10
35.5072384770319
20
-1.80271735933047
30
0
41
1
10
35.5508577959633
20
-1.81829983078626
30
0
41
1
10
35.7686533574116
20
-1.89415998480896
30
0
41
1
10
35.9419408299195
20
-1.9482804074641
30
0
41
1
10
36.2876120576756
20
-2.04287770650998
30
0
41
1
10
36.4599796829073
20
-2.08334487141678
30
0
41
1
10
36.7183525563975
20
-2.13346125078959
30
0
41
1
10
36.8474946017108
20
-2.1558768446339
30
0
41
1
10
36.9982093651581
20
-2.17734256333361
30
0
41
1
10
37.0735939560462
20
-2.1868965979925
30
0
41
1
10
37.111294902766
20
-2.19137800246301
30
0
41
1
10
37.1274545008578
20
-2.19323516267153
30
0
41
1
10
37.1382280432985
20
-2.19445916071126
30
0
41
1
10
37.1436010659152
20
-2.19506675739578
30
0
41
1
10
37.1490124517522
20
-2.19565933524277
30
0
0
SPLINE
5
106
100
AcDbEntity
8
1
62
256
6
ByLayer
370
18
48
1
60
0
100
AcDbSpline
70
4
71
3
72
40
73
36
40
0
40
0
40
0
40
0
40
0.125
40
0.125
40
0.15625
40
0.15625
40
0.187500000000001
40
0.187500000000001
40
0.250000000000001
40
0.250000000000001
40
0.312500000000002
40
0.375000000000002
40
0.375000000000002
40
0.406250000000003
40
0.406250000000003
40
0.437500000000003
40
0.468750000000004
40
0.468750000000004
40
0.500000000000004
40
0.500000000000004
40
0.625000000000004
40
0.625000000000004
40
0.687500000000003
40
0.687500000000003
40
0.718750000000003
40
0.718750000000003
40
0.750000000000002
40
0.750000000000002
40
0.812500000000002
40
0.812500000000002
40
0.843750000000002
40
0.843750000000002
40
0.875000000000002
40
0.875000000000002
40
1
40
1
40
1
40
1
41
1
10
36.8954116640477
20
0.223151974650079
30
0
41
1
10
36.8891975722487
20
0.0851450487092222
30
0
41
1
10
36.8908137882477
20
-0.0528624022621216
30
0
41
1
10
36.8992422755161
20
-0.225386657989645
30
0
41
1
10
36.9012516177243
20
-0.259892259926147
30
0
41
1
10
36.9058443348791
20
-0.328905345982179
30
0
41
1
10
36.9084339239365
20
-0.363474710231344
30
0
41
1
10
36.916864966531
20
-0.46612709599151
30
0
41
1
10
36.9233810605816
20
-0.533467912822658
30
0
41
1
10
36.9375628624059
20
-0.666087757004306
30
0
41
1
10
36.9528960223016
20
-0.796645177069394
30
0
41
1
10
36.9694851847107
20
-0.923190699070688
30
0
41
1
10
36.9820702114319
20
-1.01658875363998
30
0
41
1
10
36.9862826939263
20
-1.04741646823072
30
0
41
1
10
36.9946492036111
20
-1.10813407967211
30
0
41
1
10
37.0029705439279
20
-1.16801264288941
30
0
41
1
10
37.0111198810175
20
-1.22622556343813
30
0
41
1
10
37.0191485830294
20
-1.28360536295023
30
0
41
1
10
37.0231097376731
20
-1.31192987507256
30
0
41
1
10
37.0424484812086
20
-1.45077919745546
30
0
41
1
10
37.0563053735819
20
-1.55265903793168
30
0
41
1
10
37.0743559153205
20
-1.6920919590064
30
0
41
1
10
37.0799291944887
20
-1.73632265683702
30
0
41
1
10
37.0876970135951
20
-1.79920935548137
30
0
41
1
10
37.0901892558454
20
-1.81960108834914
30
0
41
1
10
37.094997022198
20
-1.85917345062416
30
0
41
1
10
37.0973000824655
20
-1.87825079953635
30
0
41
1
10
37.1039602818178
20
-1.93336985726387
30
0
41
1
10
37.1080652960157
20
-1.96730306386021
30
0
41
1
10
37.1139875447893
20
-2.01395552920394
30
0
41
1
10
37.115925695001
20
-2.02881430672846
30
0
41
1
10
37.119755741274
20
-2.05692612686556
30
0
41
1
10
37.1216501159791
20
-2.07019986035013
30
0
41
1
10
37.1311695408793
20
-2.13270133384483
30
0
41
1
10
37.1388853882384
20
-2.17041719070369
30
0
41
1
10
37.1490124517522
20
-2.19565933524277
30
0
0
SPLINE
5
107
100
AcDbEntity
8
1
62
256
6
ByLayer
370
18
48
1
60
0
100
AcDbSpline
70
4
71
3
72
19
73
15
40
0
40
0
40
0
40
0
40
0.25
40
0.25
40
0.375
40
0.375
40
0.5
40
0.5
40
0.625
40
0.625
40
0.75
40
0.875
40
0.875
40
1
40
1
40
1
40
1
41
1
10
3.57689612454931
20
-0.550943054117397
30
0
41
1
10
3.58883098854727
20
-0.544545663696198
30
0
41
1
10
3.60187484851704
20
-0.540180364788824
30
0
41
1
10
3.62321004079556
20
-0.536890386443787
30
0
41
1
10
3.63062228815898
20
-0.536354295589888
30
0
41
1
10
3.6455147598528
20
-0.536404222065187
30
0
41
1
10
3.6530593782403
20
-0.536977124711058
30
0
41
1
10
3.66833344409599
20
-0.539156194624894
30
0
41
1
10
3.67612106668338
20
-0.540780693569673
30
0
41
1
10
3.69151925537074
20
-0.544923442725917
30
0
41
1
10
3.70675124075274
20
-0.54994208368629
30
0
41
1
10
3.72169277866755
20
-0.556489364864518
30
0
41
1
10
3.73650329624743
20
-0.563725729219669
30
0
41
1
10
3.74385892534701
20
-0.567699160540855
30
0
41
1
10
3.75108069355935
20
-0.571945394403542
30
0
0
SPLINE
5
108
100
AcDbEntity
8
1
62
256
6
ByLayer
370
18
48
1
60
0
100
AcDbSpline
70
4
71
3
72
8
73
4
40
0
40
0
40
0
40
0
40
1
40
1
40
1
40
1
41
1
10
3.75108069394699
20
-0.571945394631484
30
0
41
1
10
3.7601449536979
20
-0.577274971205753
30
0
41
1
10
3.76921946435783
20
-0.582584177333388
30
0
41
1
10
3.77830411627281
20
-0.587873240802878
30
0
0
SPLINE
5
109
100
AcDbEntity
8
1
62
256
6
ByLayer
370
18
48
1
60
0
100
AcDbSpline
70
4
71
3
72
63
73
59
40
0
40
0
40
0
40
0
40
0.0107473015642457
40
0.0107473015642457
40
0.0461894322142695
40
0.0461894322142695
40
0.0816315628642935
40
0.0816315628642935
40
0.0993526281893055
40
0.0993526281893055
40
0.108213160851811
40
0.112643427183064
40
0.114858560348691
40
0.115966126931504
40
0.115966126931504
40
0.116519910222911
40
0.116519910222911
40
0.117073693514317
40
0.117073693514317
40
0.119288826679944
40
0.119288826679944
40
0.12150395984557
40
0.12150395984557
40
0.125934226176824
40
0.125934226176824
40
0.13479475883933
40
0.13479475883933
40
0.152515824164343
40
0.152515824164343
40
0.187957954814369
40
0.187957954814369
40
0.258842216114421
40
0.258842216114421
40
0.400610738714525
40
0.400610738714525
40
0.471495000014576
40
0.471495000014576
40
0.48921606533959
40
0.48921606533959
40
0.506937130664603
40
0.506937130664603
40
0.511367396995856
40
0.511367396995856
40
0.512474963578669
40
0.512474963578669
40
0.512751855224373
40
0.512751855224373
40
0.513028746870076
40
0.513028746870076
40
0.513582530161482
40
0.513582530161482
40
0.515797663327108
40
0.524658195989613
40
0.542379261314622
40
0.542379261314622
40
0.825916306514761
40
0.825916306514761
40
1
40
1
40
1
40
1
41
1
10
5.27684354441487
20
1.65371675872345
30
0
41
1
10
5.27915002138275
20
1.63907709936677
30
0
41
1
10
5.28035947451565
20
1.62432955789859
30
0
41
1
10
5.28024298376607
20
1.56065827956488
30
0
41
1
10
5.26775809512344
20
1.51011910084676
30
0
41
1
10
5.23032204009823
20
1.39969844212206
30
0
41
1
10
5.20596254170314
20
1.34039833569716
30
0
41
1
10
5.15925104474246
20
1.24629982089826
30
0
41
1
10
5.1425059102516
20
1.21378082016136
30
0
41
1
10
5.11369028124253
20
1.16429287365978
30
0
41
1
10
5.0984710088353
20
1.13930934625111
30
0
41
1
10
5.07943903382215
20
1.10965119410494
30
0
41
1
10
5.06962037933613
20
1.09468352203206
30
0
41
1
10
5.06534925824303
20
1.08823793673125
30
0
41
1
10
5.06320331799967
20
1.08500990256735
30
0
41
1
10
5.06259985906607
20
1.08376443325642
30
0
41
1
10
5.06382555911648
20
1.08095579476182
30
0
41
1
10
5.06491372246651
20
1.07965409250957
30
0
41
1
10
5.07040714362628
20
1.07344812746268
30
0
41
1
10
5.07572547550126
20
1.06904072109486
30
0
41
1
10
5.08616627448464
20
1.06025320779941
30
0
41
1
10
5.0914893078313
20
1.05595247320986
30
0
41
1
10
5.107569839197
20
1.04315085757409
30
0
41
1
10
5.11844117863535
20
1.0347648680565
30
0
41
1
10
5.15119009789706
20
1.00977101962175
30
0
41
1
10
5.17323281765619
20
0.993333916081781
30
0
41
1
10
5.23956796537189
20
0.944239342305934
30
0
41
1
10
5.28409009615331
20
0.911829581807467
30
0
41
1
10
5.41791490860734
20
0.814910690685167
30
0
41
1
10
5.50752124537641
20
0.750725874474455
30
0
41
1
10
5.77665709540369
20
0.558440748451403
30
0
41
1
10
5.95640604072344
20
0.430481363370376
30
0
41
1
10
6.4950499516292
20
0.0455112446376518
30
0
41
1
10
6.85376586801186
20
-0.212171398832595
30
0
41
1
10
7.39189075463398
20
-0.599386086110144
30
0
41
1
10
7.57146096035569
20
-0.728293976235506
30
0
41
1
10
7.79451753998771
20
-0.891604355201508
30
0
41
1
10
7.83905626345901
20
-0.924388740101705
30
0
41
1
10
7.92769153444226
20
-0.990560271187576
30
0
41
1
10
7.972057241698
20
-1.02362709348355
30
0
41
1
10
8.02574446059765
20
-1.06719812969891
30
0
41
1
10
8.0365924414055
20
-1.07587852072757
30
0
41
1
10
8.04883195268388
20
-1.08800413197673
30
0
41
1
10
8.05153599635321
20
-1.09040541208972
30
0
41
1
10
8.05324379472211
20
-1.09424675573234
30
0
41
1
10
8.05338622611862
20
-1.09520084621983
30
0
41
1
10
8.05225806092699
20
-1.09621003019868
30
0
41
1
10
8.05138931828293
20
-1.09628432272839
30
0
41
1
10
8.04896482202443
20
-1.09639228679134
30
0
41
1
10
8.04730092061106
20
-1.09621856936118
30
0
41
1
10
8.03907041742249
20
-1.09572042450395
30
0
41
1
10
8.00615064839579
20
-1.09371957413336
30
0
41
1
10
7.92058888240936
20
-1.08840980943702
30
0
41
1
10
7.84167335158037
20
-1.08326960659065
30
0
41
1
10
6.94780727372114
20
-1.02320277166746
30
0
41
1
10
6.11455252397053
20
-0.939337770672836
30
0
41
1
10
4.78269767029951
20
-0.757954808688822
30
0
41
1
10
4.27897227632974
20
-0.678174219419333
30
0
41
1
10
3.77830594591259
20
-0.587864005637442
30
0
0
SPLINE
5
10A
100
AcDbEntity
8
1
62
256
6
ByLayer
370
18
48
1
60
0
100
AcDbSpline
70
4
71
3
72
94
73
90
40
0
40
0
40
0
40
0
40
0.0624999999999821
40
0.0624999999999821
40
0.124999999999964
40
0.124999999999964
40
0.156249999999957
40
0.156249999999957
40
0.171874999999952
40
0.171874999999952
40
0.187499999999946
40
0.187499999999946
40
0.218749999999939
40
0.218749999999939
40
0.249999999999931
40
0.249999999999931
40
0.265624999999926
40
0.265624999999926
40
0.273437499999924
40
0.273437499999924
40
0.281249999999923
40
0.281249999999923
40
0.312499999999915
40
0.312499999999915
40
0.328124999999911
40
0.328124999999911
40
0.343749999999907
40
0.343749999999907
40
0.374999999999899
40
0.374999999999899
40
0.382812499999897
40
0.382812499999897
40
0.390624999999895
40
0.40624999999989
40
0.40624999999989
40
0.421874999999886
40
0.421874999999886
40
0.437499999999882
40
0.437499999999882
40
0.468749999999873
40
0.468749999999873
40
0.484374999999868
40
0.484374999999868
40
0.499999999999863
40
0.499999999999863
40
0.531249999999854
40
0.531249999999854
40
0.562499999999846
40
0.562499999999846
40
0.593749999999837
40
0.593749999999837
40
0.624999999999829
40
0.624999999999829
40
0.656249999999821
40
0.656249999999821
40
0.664062499999817
40
0.664062499999817
40
0.671874999999814
40
0.671874999999814
40
0.673828124999814
40
0.673828124999814
40
0.675781249999815
40
0.675781249999815
40
0.677734374999815
40
0.677734374999815
40
0.679687499999815
40
0.679687499999815
40
0.683593749999816
40
0.683593749999816
40
0.687499999999817
40
0.687499999999817
40
0.691406249999818
40
0.691406249999818
40
0.695312499999819
40
0.695312499999819
40
0.703124999999821
40
0.718749999999828
40
0.718749999999828
40
0.749999999999845
40
0.749999999999845
40
0.812499999999882
40
0.812499999999882
40
0.843749999999902
40
0.843749999999902
40
0.874999999999921
40
0.874999999999921
40
0.937499999999961
40
0.937499999999961
40
1
40
1
40
1
40
1
41
1
10
3.44353925681116
20
-0.525831240637046
30
0
41
1
10
3.32638212955555
20
-0.453841580847239
30
0
41
1
10
3.21150693074833
20
-0.378667989300993
30
0
41
1
10
2.98735971519005
20
-0.220487634476939
30
0
41
1
10
2.87806686332203
20
-0.137509995894192
30
0
41
1
10
2.71968614878668
20
-0.0052633335375276
30
0
41
1
10
2.6678265158065
20
0.0401260909410155
30
0
41
1
10
2.59172779827489
20
0.110577366999621
30
0
41
1
10
2.56664441264792
20
0.134457137376614
30
0
41
1
10
2.51710869041054
20
0.183100235375917
30
0
41
1
10
2.4926397082574
20
0.207885142732067
30
0
41
1
10
2.42096790387845
20
0.283010838190421
30
0
41
1
10
2.3752708376596
20
0.334323892401045
30
0
41
1
10
2.28890993453203
20
0.439920681749982
30
0
41
1
10
2.2482366126857
20
0.494198727468046
30
0
41
1
10
2.19199280606813
20
0.578433141941588
30
0
41
1
10
2.17404363248505
20
0.606983473693589
30
0
41
1
10
2.14850114807677
20
0.650626436839701
30
0
41
1
10
2.14021769474027
20
0.665310632595691
30
0
41
1
10
2.12414994799937
20
0.694974634426586
30
0
41
1
10
2.11634776740883
20
0.70999105451935
30
0
41
1
10
2.07892739665675
20
0.785401707731069
30
0
41
1
10
2.05419893087046
20
0.846408636261771
30
0
41
1
10
2.02651501991869
20
0.939172496654152
30
0
41
1
10
2.01885691618202
20
0.9703305614714
30
0
41
1
10
2.00708783296591
20
1.03301381092538
30
0
41
1
10
2.00308269144156
20
1.06397489951334
30
0
41
1
10
1.99673759187922
20
1.15572342920217
30
0
41
1
10
2.00005397261125
20
1.21537838899593
30
0
41
1
10
2.01394485737905
20
1.28804761003687
30
0
41
1
10
2.01720736022557
20
1.30244710929205
30
0
41
1
10
2.02460144975691
20
1.33069198771616
30
0
41
1
10
2.03702088468944
20
1.37236039204683
30
0
41
1
10
2.05324529478446
20
1.4120342338031
30
0
41
1
10
2.07799864204088
20
1.46330990972945
30
0
41
1
10
2.09195062627788
20
1.48815950396377
30
0
41
1
10
2.12269820738609
20
1.53626412941904
30
0
41
1
10
2.13929228728392
20
1.5592161772997
30
0
41
1
10
2.19223986913897
20
1.62523744300796
30
0
41
1
10
2.23173506773225
20
1.66549395303429
30
0
41
1
10
2.29591781934889
20
1.72151802436022
30
0
41
1
10
2.31814235776403
20
1.73945940400381
30
0
41
1
10
2.36409101422669
20
1.77402734707829
30
0
41
1
10
2.38782357269713
20
1.79065183155115
30
0
41
1
10
2.46026584149058
20
1.83825184486321
30
0
41
1
10
2.51047226038366
20
1.86717764517476
30
0
41
1
10
2.61389462757816
20
1.9206786171803
30
0
41
1
10
2.66711595349102
20
1.9452454053845
30
0
41
1
10
2.77604088029813
20
1.99084729858865
30
0
41
1
10
2.83174713755594
20
2.01187826591479
30
0
41
1
10
2.94526881887845
20
2.05098801635768
30
0
41
1
10
3.00316298419517
20
2.0690852871148
30
0
41
1
10
3.12031538174139
20
2.10262732674931
30
0
41
1
10
3.17957915974304
20
2.11807854085248
30
0
41
1
10
3.25440409252548
20
2.13598810420143
30
0
41
1
10
3.26940647084419
20
2.13949952324265
30
0
41
1
10
3.29948362400356
20
2.14638651756431
30
0
41
1
10
3.31454209583245
20
2.1497739757059
30
0
41
1
10
3.33344600482587
20
2.15389797728469
30
0
41
1
10
3.33724317842399
20
2.15471036087632
30
0
41
1
10
3.34508993068516
20
2.15614389581225
30
0
41
1
10
3.34909105801651
20
2.15677127993953
30
0
41
1
10
3.35724331142009
20
2.15781860496492
30
0
41
1
10
3.3613999641737
20
2.15823771657489
30
0
41
1
10
3.36983758366188
20
2.15891592975549
30
0
41
1
10
3.37414992657128
20
2.15917420358869
30
0
41
1
10
3.38707092215259
20
2.15961370622239
30
0
41
1
10
3.3956533074811
20
2.15961356196095
30
0
41
1
10
3.41276112045904
20
2.1590851482058
30
0
41
1
10
3.42134083441729
20
2.15855577563465
30
0
41
1
10
3.43813233778081
20
2.15702753073856
30
0
41
1
10
3.44633609892199
20
2.15602237952402
30
0
41
1
10
3.4626506470953
20
2.15388541084502
30
0
41
1
10
3.47079956114248
20
2.15280136784776
30
0
41
1
10
3.49523553056019
20
2.14952409565797
30
0
41
1
10
3.54404521264556
20
2.14284183375443
30
0
41
1
10
3.59265560482589
20
2.13576671104445
30
0
41
1
10
3.68960552808295
20
2.12106745632451
30
0
41
1
10
3.75389889281473
20
2.11053187343981
30
0
41
1
10
3.94545928042481
20
2.07656363356088
30
0
41
1
10
4.07147308952676
20
2.05074926203059
30
0
41
1
10
4.25823795939692
20
2.00657513000488
30
0
41
1
10
4.32012106934857
20
1.99094591260575
30
0
41
1
10
4.44320939728408
20
1.95778634848224
30
0
41
1
10
4.50440176260218
20
1.94025775239768
30
0
41
1
10
4.68658704562625
20
1.88483955686331
30
0
41
1
10
4.80635652722765
20
1.84407910150966
30
0
41
1
10
5.04332354642952
20
1.75474712099137
30
0
41
1
10
5.16050949997765
20
1.70616179529949
30
0
41
1
10
5.27683829665676
20
1.65371569156599
30
0
0
SPLINE
5
10B
100
AcDbEntity
8
1
62
256
6
ByLayer
370
18
48
1
60
0
100
AcDbSpline
70
4
71
3
72
8
73
4
40
0
40
0
40
0
40
0
40
1
40
1
40
1
40
1
41
1
10
3.57689494837243
20
-0.55093526347423
30
0
41
1
10
3.53241928433454
20
-0.54264844725688
30
0
41
1
10
3.4879679811898
20
-0.534278531383762
30
0
41
1
10
3.44354113263688
20
-0.525825692676818
30
0
0
SPLINE
5
10C
100
AcDbEntity
8
SK1
62
256
6
ByLayer
370
18
48
1
60
0
100
AcDbSpline
70
4
71
3
72
8
73
4
40
0
40
0
40
0
40
0
40
1
40
1
40
1
40
1
41
1
10
-35.75
20
1.65059348193944
30
0
41
1
10
-35.833652847831
20
1.61103487906158
30
0
41
1
10
-35.9170274236511
20
1.57136061036204
30
0
41
1
10
-36
20
1.53151924760581
30
0
0
SPLINE
5
10D
100
AcDbEntity
8
SK1
62
256
6
ByLayer
370
18
48
1
60
0
100
AcDbSpline
70
4
71
3
72
22
73
18
40
0
40
0
40
0
40
0
40
0.0625000000000011
40
0.0625000000000011
40
0.125000000000002
40
0.125000000000002
40
0.250000000000002
40
0.250000000000002
40
0.375000000000002
40
0.375000000000002
40
0.500000000000001
40
0.500000000000001
40
0.625000000000001
40
0.625000000000001
40
0.750000000000001
40
0.750000000000001
40
1
40
1
40
1
40
1
41
1
10
-35.65
20
1.62188690703095
30
0
41
1
10
-35.65
20
1.62514287753018
30
0
41
1
10
-35.6502718586019
20
1.62823663318494
30
0
41
1
10
-35.6512913504498
20
1.63397714767774
30
0
41
1
10
-35.652030658643
20
1.63660781475875
30
0
41
1
10
-35.6548298230237
20
1.64389218587135
30
0
41
1
10
-35.6575061245997
20
1.64797318568355
30
0
41
1
10
-35.6638376796887
20
1.65456773863323
30
0
41
1
10
-35.6674983282837
20
1.65712843858256
30
0
41
1
10
-35.6756151818521
20
1.6610750722335
30
0
41
1
10
-35.6800682064548
20
1.66244124707924
30
0
41
1
10
-35.6893906957631
20
1.66409459275556
30
0
41
1
10
-35.6942952881823
20
1.66439756943643
30
0
41
1
10
-35.7045485857552
20
1.66406618179889
30
0
41
1
10
-35.7099306774388
20
1.66342351714127
30
0
41
1
10
-35.7265024515808
20
1.66015241310384
30
0
41
1
10
-35.7380004903212
20
1.65626793117139
30
0
41
1
10
-35.7500000000001
20
1.65059348193955
30
0
0
SPLINE
5
10E
100
AcDbEntity
8
SK1
62
256
6
ByLayer
370
18
48
1
60
0
100
AcDbSpline
70
4
71
3
72
22
73
18
40
0
40
0
40
0
40
0
40
0.250000000000003
40
0.250000000000003
40
0.375000000000002
40
0.375000000000002
40
0.500000000000002
40
0.500000000000002
40
0.625000000000001
40
0.625000000000001
40
0.750000000000001
40
0.750000000000001
40
0.875
40
0.875
40
0.9375
40
0.9375
40
1
40
1
40
1
40
1
41
1
10
-35.75
20
0.309081442367301
30
0
41
1
10
-35.7379956523281
20
0.314758179438115
30
0
41
1
10
-35.7264866986603
20
0.322387079053357
30
0
41
1
10
-35.7098921057742
20
0.336595737687446
30
0
41
1
10
-35.7045257065493
20
0.341767014343787
30
0
41
1
10
-35.6942964893128
20
0.352826868485778
30
0
41
1
10
-35.6894060316865
20
0.358737592078967
30
0
41
1
10
-35.6801144608566
20
0.371401342327886
30
0
41
1
10
-35.6756964104891
20
0.378178861104544
30
0
41
1
10
-35.6675285377629
20
0.392666019726079
30
0
41
1
10
-35.6638529491705
20
0.400234403041026
30
0
41
1
10
-35.6575076548177
20
0.416174658709736
30
0
41
1
10
-35.6548318331324
20
0.42461261796069
30
0
41
1
10
-35.6520304488211
20
0.437442369566042
30
0
41
1
10
-35.65129058319
20
0.44176787012816
30
0
41
1
10
-35.650270741394
20
0.450534840507089
30
0
41
1
10
-35.65
20
0.45493527139368
30
0
41
1
10
-35.65
20
0.459243139401821
30
0
0
SPLINE
5
10F
100
AcDbEntity
8
SK1
62
256
6
ByLayer
370
18
48
1
60
0
100
AcDbSpline
70
4
71
3
72
8
73
4
40
0
40
0
40
0
40
0
40
1
40
1
40
1
40
1
41
1
10
-36
20
0.190007208033734
30
0
41
1
10
-35.9170337851676
20
0.229845516148288
30
0
41
1
10
-35.833658529101
20
0.269520152873241
30
0
41
1
10
-35.7499999999999
20
0.309081442367386
30
0
0
SPLINE
5
110
100
AcDbEntity
8
1
62
256
6
ByLayer
370
18
48
1
60
0
100
AcDbSpline
70
4
71
3
72
26
73
22
40
0
40
0
40
0
40
0
40
3.67394733343E-05
40
0.0001074671734781
40
0.0001719917476409
40
0.0002850729772091
40
0.0003896595489304
40
0.0012790170788597
40
0.0019817349237334
40
0.0032562869034401
40
0.0055950964819411
40
0.0099719339589413
40
0.0851405659174625
40
0.185351646416849
40
0.299253726106202
40
0.392653140751364
40
0.444411282937682
40
0.515640017885003
40
0.6099595943713
40
0.794734252291578
40
1
40
1
40
1
40
1
41
1
10
26.7449479939811
20
0.0715771784981598
30
0
41
1
10
26.7449534602958
20
0.071577528942953
30
0
41
1
10
26.7449628393398
20
0.0715807773952974
30
0
41
1
10
26.7449418978331
20
0.071597994622266
30
0
41
1
10
26.7448280096064
20
0.0716495344970554
30
0
41
1
10
26.7446203070896
20
0.0717322398944304
30
0
41
1
10
26.7434473142123
20
0.0721568050366557
30
0
41
1
10
26.7411844576868
20
0.0729060107092323
30
0
41
1
10
26.7376504577265
20
0.0741015487984384
30
0
41
1
10
26.7322262144822
20
0.0759275776911466
30
0
41
1
10
26.7222466482097
20
0.0792953657483224
30
0
41
1
10
26.6197105262113
20
0.113921896915343
30
0
41
1
10
26.3941656989789
20
0.191313108924419
30
0
41
1
10
26.0322736628604
20
0.319002875980857
30
0
41
1
10
25.6488000176373
20
0.458513249836358
30
0
41
1
10
25.3268355267047
20
0.578997843464379
30
0
41
1
10
25.0582253532185
20
0.681460231502768
30
0
41
1
10
24.7889924813543
20
0.785820004990427
30
0
41
1
10
24.3561296195183
20
0.957219516299062
30
0
41
1
10
23.7602695067658
20
1.20113071622933
30
0
41
1
10
23.283907006989
20
1.40594511418647
30
0
41
1
10
23.0341265303693
20
1.51600556535587
30
0
0
SPLINE
5
111
100
AcDbEntity
8
1
62
256
6
ByLayer
370
18
48
1
60
0
100
AcDbSpline
70
4
71
1
72
4
73
2
40
0
40
0
40
1
40
1
41
1
10
36.5612334197037
20
2.2548284248206
30
0
41
1
10
37.1929128080414
20
2.25733074210427
30
0
0
SPLINE
5
112
100
AcDbEntity
8
1
62
256
6
ByLayer
370
18
48
1
60
0
100
AcDbSpline
70
4
71
3
72
10
73
6
40
0
40
0
40
0
40
0
40
0.344520992870665
40
0.678049621570581
40
1
40
1
40
1
40
1
41
1
10
25.1310534536804
20
2.2575215158794
30
0
41
1
10
25.4485115027546
20
2.27759253609636
30
0
41
1
10
26.0727201833401
20
2.26506086633003
30
0
41
1
10
26.9917145004512
20
2.0853723098698
30
0
41
1
10
27.5929299587895
20
1.8849964116865
30
0
41
1
10
27.8879588902547
20
1.76506168571902
30
0
0
SPLINE
5
113
100
AcDbEntity
8
1
62
256
6
ByLayer
370
18
48
1
60
0
100
AcDbSpline
70
4
71
3
72
11
73
7
40
0
40
0
40
0
40
0
40
0.0806472541455944
40
0.328068268089585
40
0.644602959886881
40
1
40
1
40
1
40
1
41
1
10
36.7334928881075
20
0.616007908224191
30
0
41
1
10
36.6723087781323
20
0.639034984215556
30
0
41
1
10
36.4236556399487
20
0.733344135807812
30
0
41
1
10
35.9374028918703
20
0.924822310655429
30
0
41
1
10
35.2473272595333
20
1.20684458820591
30
0
41
1
10
34.7467198622145
20
1.42205360838821
30
0
41
1
10
34.4829206507126
20
1.53830615958162
30
0
0
SPLINE
5
114
100
AcDbEntity
8
1
62
256
6
ByLayer
370
18
48
1
60
0
100
AcDbSpline
70
4
71
3
72
27
73
23
40
0
40
0
40
0
40
0
40
5.8539368678E-05
40
0.0001204128639493
40
0.000177172668239
40
0.0002783373913182
40
0.0004629051909029
40
0.0022121052714299
40
0.0036191884921189
40
0.0062079766959821
40
0.0110736650342267
40
0.020537143277608
40
0.0916680364450964
40
0.182686274853908
40
0.290603610800332
40
0.397077151087128
40
0.469759886414716
40
0.509986860068002
40
0.57192075823014
40
0.688259086672993
40
0.84318419316496
40
1
40
1
40
1
40
1
41
1
10
15.2512731763548
20
0.0707202297832339
30
0
41
1
10
15.2512818913683
20
0.0707207999365664
30
0
41
1
10
15.2512874418527
20
0.0707261170173012
30
0
41
1
10
15.2512456497061
20
0.0707504370095364
30
0
41
1
10
15.2511397349372
20
0.0707976816474627
30
0
41
1
10
15.250885689429
20
0.0708989506344437
30
0
41
1
10
15.2485479176677
20
0.0717307801420759
30
0
41
1
10
15.2442123984982
20
0.0731688967642583
30
0
41
1
10
15.2371124273761
20
0.075587150904795
30
0
41
1
10
15.2260248856347
20
0.0793394742300393
30
0
41
1
10
15.204927779442
20
0.0864971272592925
30
0
41
1
10
15.0980940500604
20
0.122750499898388
30
0
41
1
10
14.882964036173
20
0.196545345552607
30
0
41
1
10
14.5455974497931
20
0.315163801774872
30
0
41
1
10
14.1653467241175
20
0.452725987941704
30
0
41
1
10
13.8093679790979
20
0.5854730058565
30
0
41
1
10
13.5380409040687
20
0.689177619330707
30
0
41
1
10
13.3220018043265
20
0.773008903999852
30
0
41
1
10
13.0525024817938
20
0.87897120804854
30
0
41
1
10
12.6427604190929
20
1.04380447506296
30
0
41
1
10
12.11863217932
20
1.26134341573047
30
0
41
1
10
11.7393055746772
20
1.42532315227734
30
0
41
1
10
11.5490521256726
20
1.50915576487236
30
0
0
SPLINE
5
115
100
AcDbEntity
8
1
62
256
6
ByLayer
370
18
48
1
60
0
100
AcDbSpline
70
4
71
3
72
8
73
4
40
0
40
0
40
0
40
0
40
1
40
1
40
1
40
1
41
1
10
26.3369041524331
20
-2.202914216447
30
0
41
1
10
26.252210101288
20
-2.21609474827386
30
0
41
1
10
26.1674951915983
20
-2.22736426861778
30
0
41
1
10
26.0827602533475
20
-2.23661607595648
30
0
0
SPLINE
5
116
100
AcDbEntity
8
1
62
256
6
ByLayer
370
18
48
1
60
0
100
AcDbSpline
70
4
71
3
72
18
73
14
40
0
40
0
40
0
40
0
40
0.133297675893554
40
0.24578134993149
40
0.342540596879845
40
0.424951722558399
40
0.494362126118401
40
0.544090889795893
40
0.587055235757818
40
0.644691091567916
40
0.728006498267635
40
0.844597419637177
40
1
40
1
40
1
40
1
41
1
10
26.2757891766349
20
-2.22613057048647
30
0
41
1
10
26.508762959495
20
-2.22528734449619
30
0
41
1
10
26.9397109283832
20
-2.22454628326761
30
0
41
1
10
27.5481176879494
20
-2.22505185641447
30
0
41
1
10
28.0619612152055
20
-2.2278734374267
30
0
41
1
10
28.5017298074427
20
-2.22789122812122
30
0
41
1
10
28.8583982706398
20
-2.22760692977849
30
0
41
1
10
29.1453527274035
20
-2.22861543941548
30
0
41
1
10
29.4115368309845
20
-2.2285741116053
30
0
41
1
10
29.7370411382524
20
-2.22743654213343
30
0
41
1
10
30.1914106980269
20
-2.22923158565132
30
0
41
1
10
30.8213934598018
20
-2.22928505662242
30
0
41
1
10
31.3020622650572
20
-2.22918103331824
30
0
41
1
10
31.576646343414
20
-2.22884129700836
30
0
0
SPLINE
5
117
100
AcDbEntity
8
1
62
256
6
ByLayer
370
18
48
1
60
0
100
AcDbSpline
70
4
71
3
72
17
73
13
40
0
40
0
40
0
40
0
40
0.181159538170711
40
0.321725122684448
40
0.426553029194536
40
0.500054544123831
40
0.564011447642514
40
0.663943277340554
40
0.775770274329357
40
0.833896810597877
40
0.913225503067755
40
1
40
1
40
1
40
1
41
1
10
20.0770712211862
20
2.22353449775648
30
0
41
1
10
19.8119726785052
20
2.22288459914381
30
0
41
1
10
19.341297023263
20
2.22208809276225
30
0
41
1
10
18.7138528530901
20
2.22119595432892
30
0
41
1
10
18.249741136822
20
2.22189441256248
30
0
41
1
10
17.8939138355215
20
2.22175749573057
30
0
41
1
10
17.5447837240754
20
2.22057237167965
30
0
41
1
10
17.1457111168966
20
2.22019842464365
30
0
41
1
10
16.7473490715058
20
2.21733635307896
30
0
41
1
10
16.3848016199136
20
2.21916538926987
30
0
41
1
10
16.0583822483872
20
2.2202553028761
30
0
41
1
10
15.8148348983015
20
2.21980718068355
30
0
41
1
10
15.6875026803047
20
2.21954400477654
30
0
0
SPLINE
5
118
100
AcDbEntity
8
1
62
256
6
ByLayer
370
18
48
1
60
0
100
AcDbSpline
70
4
71
3
72
19
73
15
40
0
40
0
40
0
40
0
40
0.0924862226014224
40
0.206364050281602
40
0.296593001894272
40
0.364395912386627
40
0.424662919411107
40
0.474746286742806
40
0.519599677928807
40
0.561828166051496
40
0.616757211849581
40
0.687006967886393
40
0.822982259336975
40
1
40
1
40
1
40
1
41
1
10
3.75045235915016
20
-2.1986897641458
30
0
41
1
10
3.89704759956641
20
-2.20239890124088
30
0
41
1
10
4.22495738722617
20
-2.20910332862266
30
0
41
1
10
4.69921715463954
20
-2.21213506959532
30
0
41
1
10
5.1357598868872
20
-2.21291342106088
30
0
41
1
10
5.48758407024894
20
-2.21298013876333
30
0
41
1
10
5.77572740421561
20
-2.21383017850158
30
0
41
1
10
6.02645456466411
20
-2.21392601507316
30
0
41
1
10
6.24797019218573
20
-2.21383404526014
30
0
41
1
10
6.47733906230383
20
-2.21387259444015
30
0
41
1
10
6.74797081318835
20
-2.2144991723099
30
0
41
1
10
7.1673411389576
20
-2.21415122745893
30
0
41
1
10
7.78758099285315
20
-2.21524550635382
30
0
41
1
10
8.29194403052421
20
-2.21570304954616
30
0
41
1
10
8.57728489817924
20
-2.21605727417864
30
0
0
SPLINE
5
119
100
AcDbEntity
8
1
62
256
6
ByLayer
370
18
48
1
60
0
100
AcDbSpline
70
4
71
3
72
20
73
16
40
0
40
0
40
0
40
0
40
0.109883652390924
40
0.202306696700213
40
0.277452337825293
40
0.331405285841924
40
0.3761416526433
40
0.444979348726637
40
0.535647731297863
40
0.612241338763087
40
0.666666153892556
40
0.706949968984995
40
0.775658666977371
40
0.873388431934647
40
1
40
1
40
1
40
1
41
1
10
14.7748468322781
20
-2.21858518475136
30
0
41
1
10
14.9679560384181
20
-2.2182680617455
30
0
41
1
10
15.323720350286
20
-2.21812219053319
30
0
41
1
10
15.8180055518447
20
-2.21876650239082
30
0
41
1
10
16.204652832009
20
-2.22039085635325
30
0
41
1
10
16.5096783854884
20
-2.21934383522716
30
0
41
1
10
16.8061481447639
20
-2.21955073487058
30
0
41
1
10
17.1681664520456
20
-2.22077595642622
30
0
41
1
10
17.5856633090408
20
-2.2203147614162
30
0
41
1
10
17.9777429201868
20
-2.22223003501264
30
0
41
1
10
18.2808535360895
20
-2.22171201515459
30
0
41
1
10
18.5702883229534
20
-2.22109690809023
30
0
41
1
10
18.9364690036948
20
-2.2229878618167
30
0
41
1
10
19.4556419172938
20
-2.22180098118943
30
0
41
1
10
19.8529028914116
20
-2.22287454569383
30
0
41
1
10
20.0770712211863
20
-2.22353449775648
30
0
0
SPLINE
5
11A
100
AcDbEntity
8
1
62
256
6
ByLayer
370
18
48
1
60
0
100
AcDbSpline
70
4
71
3
72
16
73
12
40
0
40
0
40
0
40
0
40
0.18712725035473
40
0.327519633037634
40
0.427843468919272
40
0.497245400305514
40
0.548980705500406
40
0.608861350910433
40
0.715632525842544
40
0.847763321137631
40
1
40
1
40
1
40
1
41
1
10
31.5766463434141
20
2.22884129700836
30
0
41
1
10
31.3020622650572
20
2.22918103331824
30
0
41
1
10
30.8213933588275
20
2.22928519111434
30
0
41
1
10
30.191410926879
20
2.2292312808334
30
0
41
1
10
29.7370406224228
20
2.22743722918906
30
0
41
1
10
29.4115379870474
20
2.22857257179547
30
0
41
1
10
29.1453493798036
20
2.22861989822732
30
0
41
1
10
28.8243254748485
20
2.22746065739128
30
0
41
1
10
28.3850791076778
20
2.22834965992269
30
0
41
1
10
27.8115521400853
20
2.22631575802632
30
0
41
1
10
27.3935918418085
20
2.2249968919005
30
0
41
1
10
27.1704435671743
20
2.22475132148861
30
0
0
SPLINE
5
11B
100
AcDbEntity
8
1
62
256
6
ByLayer
370
18
48
1
60
0
100
AcDbSpline
70
4
71
3
72
18
73
14
40
0
40
0
40
0
40
0
40
0.196311468450238
40
0.347107140328267
40
0.425013641191985
40
0.485929578774298
40
0.532760684417991
40
0.582502789676571
40
0.638044902851177
40
0.704880603068355
40
0.780073568892562
40
0.880136861540306
40
1
40
1
40
1
40
1
41
1
10
8.5772848981793
20
2.21605727417864
30
0
41
1
10
8.29194403052423
20
2.21570304954616
30
0
41
1
10
7.78758099285318
20
2.21524550635382
30
0
41
1
10
7.16734113895757
20
2.21415122745893
30
0
41
1
10
6.74797081318835
20
2.2144991723099
30
0
41
1
10
6.4773390623038
20
2.21387259444015
30
0
41
1
10
6.24797019218573
20
2.21383404526014
30
0
41
1
10
6.02645456466411
20
2.21392601507316
30
0
41
1
10
5.77572740421561
20
2.21383017850158
30
0
41
1
10
5.48758407024889
20
2.21298013876333
30
0
41
1
10
5.13575988688717
20
2.2129134210609
30
0
41
1
10
4.7085208234495
20
2.21215165794675
30
0
41
1
10
4.3913789248904
20
2.21016597311055
30
0
41
1
10
4.21909004034558
20
2.2078659889556
30
0
0
LINE
5
82
100
AcDbEntity
8
4
62
256
6
ByLayer
370
18
48
0.05
60
0
100
AcDbLine
10
0
20
0
30
0
11
38
21
0
31
0
39
0
210
0
220
0
230
1
0
LINE
5
84
100
AcDbEntity
8
81
62
256
6
ByLayer
370
18
48
1
60
0
100
AcDbLine
10
38
20
0
30
0
11
41
21
0
31
0
39
0
210
0
220
0
230
1
0
LINE
5
85
100
AcDbEntity
8
80
62
256
6
ByLayer
370
18
48
1
60
0
100
AcDbLine
10
0
20
0
30
0
11
-3
21
0
31
0
39
0
210
0
220
0
230
1
0
LINE
5
86
100
AcDbEntity
8
SK4
62
256
6
ByLayer
370
18
48
0.05
60
0
100
AcDbLine
10
-39
20
0
30
0
11
41
21
0
31
0
39
0
210
0
220
0
230
1
0
LINE
5
88
100
AcDbEntity
8
1
62
256
6
ByLayer
370
13
48
1
60
0
100
AcDbLine
10
37.957771
20
0.036477
30
0
11
37.402909
21
0.648949
31
0
39
0
210
0
220
0
230
1
0
LINE
5
89
100
AcDbEntity
8
1
62
256
6
ByLayer
370
13
48
1
60
0
100
AcDbLine
10
0.654779
20
2.659743
30
0
11
0.654779
21
-2.659743
31
0
39
0
210
0
220
0
230
1
0
LINE
5
8A
100
AcDbEntity
8
1
62
256
6
ByLayer
370
18
48
1
60
0
100
AcDbLine
10
3.54168
20
-2.319526
30
0
11
3.538311
21
-2.321902
31
0
39
0
210
0
220
0
230
1
0
LINE
5
8B
100
AcDbEntity
8
1
62
256
6
ByLayer
370
18
48
1
60
0
100
AcDbLine
10
3.538311
20
2.321902
30
0
11
3.53833
21
2.328995
31
0
39
0
210
0
220
0
230
1
0
LINE
5
8C
100
AcDbEntity
8
1
62
256
6
ByLayer
370
18
48
1
60
0
100
AcDbLine
10
14.5
20
2.321869
30
0
11
14.5
21
2.305759
31
0
39
0
210
0
220
0
230
1
0
LINE
5
8D
100
AcDbEntity
8
1
62
256
6
ByLayer
370
13
48
1
60
0
100
AcDbLine
10
1.304211
20
2.327598
30
0
11
1.304211
21
-2.327598
31
0
39
0
210
0
220
0
230
1
0
LINE
5
8E
100
AcDbEntity
8
1
62
256
6
ByLayer
370
13
48
1
60
0
100
AcDbLine
10
0.648931
20
2.667855
30
0
11
0.648931
21
-2.667855
31
0
39
0
210
0
220
0
230
1
0
LINE
5
8F
100
AcDbEntity
8
1
62
256
6
ByLayer
370
18
48
1
60
0
100
AcDbLine
10
0
20
3
30
0
11
0
21
-3
31
0
39
0
210
0
220
0
230
1
0
LINE
5
90
100
AcDbEntity
8
SK1
62
256
6
ByLayer
370
18
48
1
60
0
100
AcDbLine
10
-36
20
1.531519
30
0
11
-36
21
0.19002
31
0
39
0
210
0
220
0
230
1
0
LINE
5
92
100
AcDbEntity
8
SK1
62
256
6
ByLayer
370
13
48
1
60
0
100
AcDbLine
10
-35.75
20
0.309104
30
0
11
-35.75
21
1.650593
31
0
39
0
210
0
220
0
230
1
0
LINE
5
93
100
AcDbEntity
8
SK1
62
256
6
ByLayer
370
18
48
1
60
0
100
AcDbLine
10
0
20
3
30
0
11
0
21
-3
31
0
39
0
210
0
220
0
230
1
0
LINE
5
94
100
AcDbEntity
8
SK1
62
256
6
ByLayer
370
18
48
1
60
0
100
AcDbLine
10
-36
20
1.531519
30
0
11
-36
21
2.065
31
0
39
0
210
0
220
0
230
1
0
LINE
5
95
100
AcDbEntity
8
SK1
62
256
6
ByLayer
370
18
48
1
60
0
100
AcDbLine
10
-35.65
20
0.459243
30
0
11
-35.65
21
1.621887
31
0
39
0
210
0
220
0
230
1
0
LINE
5
96
100
AcDbEntity
8
SK1
62
256
6
ByLayer
370
18
48
1
60
0
100
AcDbLine
10
-36
20
-2.065
30
0
11
-36
21
0.190007
31
0
39
0
210
0
220
0
230
1
0
LINE
5
97
100
AcDbEntity
8
SK1
62
256
6
ByLayer
370
18
48
1
60
0
100
AcDbLine
10
-35.065
20
-3
30
0
11
-35.065
21
3
31
0
39
0
210
0
220
0
230
1
0
LINE
5
98
100
AcDbEntity
8
1
62
256
6
ByLayer
370
18
48
1
60
0
100
AcDbLine
10
0.654779
20
2.659743
30
0
11
0.648931
21
2.667855
31
0
39
0
210
0
220
0
230
1
0
LINE
5
99
100
AcDbEntity
8
1
62
256
6
ByLayer
370
18
48
1
60
0
100
AcDbLine
10
0.648931
20
-2.667855
30
0
11
0.654779
21
-2.659743
31
0
39
0
210
0
220
0
230
1
0
LINE
5
9A
100
AcDbEntity
8
1
62
256
6
ByLayer
370
18
48
1
60
0
100
AcDbLine
10
1.304211
20
-2.327598
30
0
11
3.538322
21
-2.328995
31
0
39
0
210
0
220
0
230
1
0
LINE
5
9B
100
AcDbEntity
8
1
62
256
6
ByLayer
370
18
48
1
60
0
100
AcDbLine
10
13.913043
20
-2.335479
30
0
11
14.629406
21
-2.335927
31
0
39
0
210
0
220
0
230
1
0
LINE
5
9C
100
AcDbEntity
8
1
62
256
6
ByLayer
370
18
48
1
60
0
100
AcDbLine
10
25.607673
20
-2.342788
30
0
11
26.129779
21
-2.343114
31
0
39
0
210
0
220
0
230
1
0
LINE
5
9D
100
AcDbEntity
8
1
62
256
6
ByLayer
370
18
48
1
60
0
100
AcDbLine
10
37.155893
20
2.350006
30
0
11
37.115593
21
2.349981
31
0
39
0
210
0
220
0
230
1
0
LINE
5
9E
100
AcDbEntity
8
1
62
256
6
ByLayer
370
18
48
1
60
0
100
AcDbLine
10
26.129779
20
2.343114
30
0
11
25.607673
21
2.342788
31
0
39
0
210
0
220
0
230
1
0
LINE
5
9F
100
AcDbEntity
8
1
62
256
6
ByLayer
370
18
48
1
60
0
100
AcDbLine
10
14.629406
20
2.335927
30
0
11
13.913043
21
2.335479
31
0
39
0
210
0
220
0
230
1
0
LINE
5
A0
100
AcDbEntity
8
1
62
256
6
ByLayer
370
18
48
1
60
0
100
AcDbLine
10
3.538322
20
2.328995
30
0
11
1.304211
21
2.327598
31
0
39
0
210
0
220
0
230
1
0
LINE
5
A1
100
AcDbEntity
8
SK1
62
256
6
ByLayer
370
18
48
1
60
0
100
AcDbLine
10
-35.065
20
-3
30
0
11
0
21
-3
31
0
39
0
210
0
220
0
230
1
0
LINE
5
A2
100
AcDbEntity
8
SK1
62
256
6
ByLayer
370
18
48
1
60
0
100
AcDbLine
10
0
20
3
30
0
11
-35.065
21
3
31
0
39
0
210
0
220
0
230
1
0
LINE
5
A3
100
AcDbEntity
8
SK1
62
256
6
ByLayer
370
18
48
1
60
0
100
AcDbLine
10
-36
20
-2.065
30
0
11
-35.065
21
-3
31
0
39
0
210
0
220
0
230
1
0
LINE
5
A4
100
AcDbEntity
8
SK1
62
256
6
ByLayer
370
18
48
1
60
0
100
AcDbLine
10
-35.065
20
3
30
0
11
-36
21
2.065
31
0
39
0
210
0
220
0
230
1
0
LINE
5
A5
100
AcDbEntity
8
2
62
256
6
ByLayer
370
13
48
1
60
0
100
AcDbLine
10
51.75
20
19.067465
30
0
11
51.75
21
-11.1
31
0
39
0
210
0
220
0
230
1
0
LINE
5
A7
100
AcDbEntity
8
2
62
256
6
ByLayer
370
13
48
1
60
0
100
AcDbLine
10
39.5875
20
2.35
30
0
11
53.75
21
2.35
31
0
39
0
210
0
220
0
230
1
0
LINE
5
A8
100
AcDbEntity
8
2
62
256
6
ByLayer
370
13
48
1
60
0
100
AcDbLine
10
39.5875
20
-2.35
30
0
11
53.75
21
-2.35
31
0
39
0
210
0
220
0
230
1
0
LINE
5
A9
100
AcDbEntity
8
1
62
256
6
ByLayer
370
18
48
1
60
1
100
AcDbLine
10
51.75
20
2.35
30
0
11
51.289216
21
5.849998
31
0
39
0
210
0
220
0
230
1
0
LINE
5
AA
100
AcDbEntity
8
1
62
256
6
ByLayer
370
18
48
1
60
1
100
AcDbLine
10
51.289216
20
5.849998
30
0
11
52.210784
21
5.850002
31
0
39
0
210
0
220
0
230
1
0
LINE
5
AB
100
AcDbEntity
8
1
62
256
6
ByLayer
370
18
48
1
60
1
100
AcDbLine
10
52.210784
20
5.850002
30
0
11
51.75
21
2.35
31
0
39
0
210
0
220
0
230
1
0
LINE
5
AC
100
AcDbEntity
8
1
62
256
6
ByLayer
370
18
48
1
60
1
100
AcDbLine
10
51.75
20
-2.35
30
0
11
52.210784
21
-5.849998
31
0
39
0
210
0
220
0
230
1
0
LINE
5
AD
100
AcDbEntity
8
1
62
256
6
ByLayer
370
18
48
1
60
1
100
AcDbLine
10
52.210784
20
-5.849998
30
0
11
51.289216
21
-5.850002
31
0
39
0
210
0
220
0
230
1
0
LINE
5
AE
100
AcDbEntity
8
1
62
256
6
ByLayer
370
18
48
1
60
1
100
AcDbLine
10
51.289216
20
-5.850002
30
0
11
51.75
21
-2.35
31
0
39
0
210
0
220
0
230
1
0
LINE
5
AF
100
AcDbEntity
8
SK2
62
256
6
ByLayer
370
13
48
1
60
0
100
AcDbLine
10
-44.25
20
20.315466
30
0
11
-44.25
21
-11.75
31
0
39
0
210
0
220
0
230
1
0
LINE
5
B1
100
AcDbEntity
8
SK2
62
256
6
ByLayer
370
13
48
1
60
0
100
AcDbLine
10
-37.5875
20
3
30
0
11
-46.25
21
3
31
0
39
0
210
0
220
0
230
1
0
LINE
5
B2
100
AcDbEntity
8
SK2
62
256
6
ByLayer
370
13
48
1
60
0
100
AcDbLine
10
-37.5875
20
-3
30
0
11
-46.25
21
-3
31
0
39
0
210
0
220
0
230
1
0
LINE
5
B3
100
AcDbEntity
8
1
62
256
6
ByLayer
370
18
48
1
60
1
100
AcDbLine
10
-44.25
20
3
30
0
11
-44.710784
21
6.499998
31
0
39
0
210
0
220
0
230
1
0
LINE
5
B4
100
AcDbEntity
8
1
62
256
6
ByLayer
370
18
48
1
60
1
100
AcDbLine
10
-44.710784
20
6.499998
30
0
11
-43.789216
21
6.500002
31
0
39
0
210
0
220
0
230
1
0
LINE
5
B5
100
AcDbEntity
8
1
62
256
6
ByLayer
370
18
48
1
60
1
100
AcDbLine
10
-43.789216
20
6.500002
30
0
11
-44.25
21
3
31
0
39
0
210
0
220
0
230
1
0
LINE
5
B6
100
AcDbEntity
8
1
62
256
6
ByLayer
370
18
48
1
60
1
100
AcDbLine
10
-44.25
20
-3
30
0
11
-43.789216
21
-6.499998
31
0
39
0
210
0
220
0
230
1
0
LINE
5
B7
100
AcDbEntity
8
1
62
256
6
ByLayer
370
18
48
1
60
1
100
AcDbLine
10
-43.789216
20
-6.499998
30
0
11
-44.710784
21
-6.500002
31
0
39
0
210
0
220
0
230
1
0
LINE
5
B8
100
AcDbEntity
8
1
62
256
6
ByLayer
370
18
48
1
60
1
100
AcDbLine
10
-44.710784
20
-6.500002
30
0
11
-44.25
21
-3
31
0
39
0
210
0
220
0
230
1
0
LINE
5
B9
100
AcDbEntity
8
SK2
62
256
6
ByLayer
370
13
48
1
60
0
100
AcDbLine
10
38.542772
20
1.491829
30
0
11
48.86629
21
29.866412
31
0
39
0
210
0
220
0
230
1
0
LINE
5
BA
100
AcDbEntity
8
SK2
62
256
6
ByLayer
370
13
48
1
60
0
100
AcDbLine
10
38.542772
20
-1.491829
30
0
11
48.86629
21
-29.866412
31
0
39
0
210
0
220
0
230
1
0
LINE
5
BB
100
AcDbEntity
8
1
62
256
6
ByLayer
370
18
48
1
60
1
100
AcDbLine
10
48.182483
20
27.986942
30
0
11
51.605206
21
27.122491
31
0
39
0
210
0
220
0
230
1
0
LINE
5
BC
100
AcDbEntity
8
1
62
256
6
ByLayer
370
18
48
1
60
1
100
AcDbLine
10
51.605206
20
27.122491
30
0
11
51.264847
21
26.266079
31
0
39
0
210
0
220
0
230
1
0
LINE
5
BD
100
AcDbEntity
8
1
62
256
6
ByLayer
370
18
48
1
60
1
100
AcDbLine
10
51.264847
20
26.266079
30
0
11
48.182483
21
27.986942
31
0
39
0
210
0
220
0
230
1
0
LINE
5
BE
100
AcDbEntity
8
1
62
256
6
ByLayer
370
18
48
1
60
1
100
AcDbLine
10
48.182483
20
-27.986942
30
0
11
51.264843
21
-26.26608
31
0
39
0
210
0
220
0
230
1
0
LINE
5
BF
100
AcDbEntity
8
1
62
256
6
ByLayer
370
18
48
1
60
1
100
AcDbLine
10
51.264843
20
-26.26608
30
0
11
51.60521
21
-27.12249
31
0
39
0
210
0
220
0
230
1
0
LINE
5
C0
100
AcDbEntity
8
1
62
256
6
ByLayer
370
18
48
1
60
1
100
AcDbLine
10
51.60521
20
-27.12249
30
0
11
48.182483
21
-27.986942
31
0
39
0
210
0
220
0
230
1
0
LINE
5
11C
100
AcDbEntity
8
1
62
256
6
ByLayer
370
13
48
0.05
60
0
100
AcDbLine
10
-42.5
20
0
30
0
11
43.655893
21
0
31
0
39
0
210
0
220
0
230
1
0
LINE
5
121
100
AcDbEntity
8
1
62
256
6
ByLayer
370
18
48
1
60
1
100
AcDbLine
10
51.75
20
2.35
30
0
11
51.289216
21
5.849998
31
0
39
0
210
0
220
0
230
1
0
LINE
5
122
100
AcDbEntity
8
1
62
256
6
ByLayer
370
18
48
1
60
1
100
AcDbLine
10
51.289216
20
5.849998
30
0
11
52.210784
21
5.850002
31
0
39
0
210
0
220
0
230
1
0
LINE
5
123
100
AcDbEntity
8
1
62
256
6
ByLayer
370
18
48
1
60
1
100
AcDbLine
10
52.210784
20
5.850002
30
0
11
51.75
21
2.35
31
0
39
0
210
0
220
0
230
1
0
LINE
5
125
100
AcDbEntity
8
1
62
256
6
ByLayer
370
18
48
1
60
1
100
AcDbLine
10
51.75
20
-2.35
30
0
11
52.210784
21
-5.849998
31
0
39
0
210
0
220
0
230
1
0
LINE
5
126
100
AcDbEntity
8
1
62
256
6
ByLayer
370
18
48
1
60
1
100
AcDbLine
10
52.210784
20
-5.849998
30
0
11
51.289216
21
-5.850002
31
0
39
0
210
0
220
0
230
1
0
LINE
5
127
100
AcDbEntity
8
1
62
256
6
ByLayer
370
18
48
1
60
1
100
AcDbLine
10
51.289216
20
-5.850002
30
0
11
51.75
21
-2.35
31
0
39
0
210
0
220
0
230
1
0
LINE
5
12B
100
AcDbEntity
8
1
62
256
6
ByLayer
370
18
48
1
60
1
100
AcDbLine
10
-44.25
20
3
30
0
11
-44.710784
21
6.499998
31
0
39
0
210
0
220
0
230
1
0
LINE
5
12C
100
AcDbEntity
8
1
62
256
6
ByLayer
370
18
48
1
60
1
100
AcDbLine
10
-44.710784
20
6.499998
30
0
11
-43.789216
21
6.500002
31
0
39
0
210
0
220
0
230
1
0
LINE
5
12D
100
AcDbEntity
8
1
62
256
6
ByLayer
370
18
48
1
60
1
100
AcDbLine
10
-43.789216
20
6.500002
30
0
11
-44.25
21
3
31
0
39
0
210
0
220
0
230
1
0
LINE
5
12F
100
AcDbEntity
8
1
62
256
6
ByLayer
370
18
48
1
60
1
100
AcDbLine
10
-44.25
20
-3
30
0
11
-43.789216
21
-6.499998
31
0
39
0
210
0
220
0
230
1
0
LINE
5
130
100
AcDbEntity
8
1
62
256
6
ByLayer
370
18
48
1
60
1
100
AcDbLine
10
-43.789216
20
-6.499998
30
0
11
-44.710784
21
-6.500002
31
0
39
0
210
0
220
0
230
1
0
LINE
5
131
100
AcDbEntity
8
1
62
256
6
ByLayer
370
18
48
1
60
1
100
AcDbLine
10
-44.710784
20
-6.500002
30
0
11
-44.25
21
-3
31
0
39
0
210
0
220
0
230
1
0
LINE
5
134
100
AcDbEntity
8
1
62
256
6
ByLayer
370
18
48
1
60
1
100
AcDbLine
10
48.182483
20
27.986942
30
0
11
51.605206
21
27.122491
31
0
39
0
210
0
220
0
230
1
0
LINE
5
135
100
AcDbEntity
8
1
62
256
6
ByLayer
370
18
48
1
60
1
100
AcDbLine
10
51.605206
20
27.122491
30
0
11
51.264847
21
26.266079
31
0
39
0
210
0
220
0
230
1
0
LINE
5
136
100
AcDbEntity
8
1
62
256
6
ByLayer
370
18
48
1
60
1
100
AcDbLine
10
51.264847
20
26.266079
30
0
11
48.182483
21
27.986942
31
0
39
0
210
0
220
0
230
1
0
LINE
5
138
100
AcDbEntity
8
1
62
256
6
ByLayer
370
18
48
1
60
1
100
AcDbLine
10
48.182483
20
-27.986942
30
0
11
51.264843
21
-26.26608
31
0
39
0
210
0
220
0
230
1
0
LINE
5
139
100
AcDbEntity
8
1
62
256
6
ByLayer
370
18
48
1
60
1
100
AcDbLine
10
51.264843
20
-26.26608
30
0
11
51.60521
21
-27.12249
31
0
39
0
210
0
220
0
230
1
0
LINE
5
13A
100
AcDbEntity
8
1
62
256
6
ByLayer
370
18
48
1
60
1
100
AcDbLine
10
51.60521
20
-27.12249
30
0
11
48.182483
21
-27.986942
31
0
39
0
210
0
220
0
230
1
0
MTEXT
5
11D
100
AcDbEntity
8
2
62
256
6
ByLayer
370
18
48
1
60
0
100
AcDbMText
10
50.185366
20
6.284844
30
0
210
0
220
0
230
1
1
%%c
40
3.5
41
0
44
1.084337
50
90
71
7
72
5
7
iso_b_vert
0
MTEXT
5
120
100
AcDbEntity
8
2
62
256
6
ByLayer
370
18
48
1
60
0
100
AcDbMText
10
50.185366
20
13.2575
30
0
210
0
220
0
230
1
1
\W0.7610;4.7
40
3.5
41
0
44
1.084337
50
90
71
7
72
5
7
iso_b_vert
0
MTEXT
5
129
100
AcDbEntity
8
SK2
62
256
6
ByLayer
370
18
48
1
60
0
100
AcDbMText
10
-45.814634
20
11.934844
30
0
210
0
220
0
230
1
1
%%c
40
3.5
41
0
44
1.084337
50
90
71
7
72
5
7
iso_b_vert
0
MTEXT
5
12A
100
AcDbEntity
8
SK2
62
256
6
ByLayer
370
18
48
1
60
0
100
AcDbMText
10
-45.814634
20
18.9075
30
0
210
0
220
0
230
1
1
\W0.5404;6
40
3.5
41
0
44
1.084337
50
90
71
7
72
5
7
iso_b_vert
0
MTEXT
5
133
100
AcDbEntity
8
SK2
62
256
6
ByLayer
370
18
48
1
60
0
100
AcDbMText
10
63.710088
20
-2.467366
30
0
210
0
220
0
230
1
1
\W0.7825;140%%d
40
3.5
41
0
44
1.084337
50
0
71
7
72
5
7
iso_b_vert
0
MTEXT
5
13C
100
AcDbEntity
8
SK6
62
256
6
ByLayer
370
18
48
1
60
0
100
AcDbMText
10
-30.058493
20
-97.467366
30
0
210
0
220
0
230
1
1
\W0.7547;860.1-0470-029A1-MM M2BM
40
3.5
41
0
44
1.084337
50
0
71
7
72
5
7
iso_b_vert
0
HATCH
5
124
100
AcDbEntity
8
2
62
256
6
ByLayer
370
13
48
1
60
0
100
AcDbHatch
10
0
20
0
30
0
210
0
220
0
230
1
2
ANSI31
70
0
71
0
91
1
92
5
93
3
72
1
10
51.75
20
2.34999999999999
11
51.2892162584472
21
5.84999830744681
72
1
10
51.2892162584472
20
5.84999830744681
11
52.2107837415528
21
5.85000169255318
72
1
10
52.2107837415528
20
5.85000169255318
11
51.75
21
2.34999999999999
97
0
75
0
76
1
52
0
41
0.0062
77
0
78
1
53
45
43
0
44
0
45
-0.0139193969876572
46
0.0139193969876572
79
0
47
0
98
1
10
0
20
0
0
HATCH
5
128
100
AcDbEntity
8
2
62
256
6
ByLayer
370
13
48
1
60
0
100
AcDbHatch
10
0
20
0
30
0
210
0
220
0
230
1
2
ANSI31
70
0
71
0
91
1
92
5
93
3
72
1
10
51.75
20
-2.34999999999999
11
52.2107837415528
21
-5.84999830744681
72
1
10
52.2107837415528
20
-5.84999830744681
11
51.2892162584472
21
-5.85000169255318
72
1
10
51.2892162584472
20
-5.85000169255318
11
51.75
21
-2.34999999999999
97
0
75
0
76
1
52
0
41
0.0062
77
0
78
1
53
45
43
0
44
0
45
-0.0139193969876572
46
0.0139193969876572
79
0
47
0
98
1
10
0
20
0
0
HATCH
5
12E
100
AcDbEntity
8
SK2
62
256
6
ByLayer
370
13
48
1
60
0
100
AcDbHatch
10
0
20
0
30
0
210
0
220
0
230
1
2
ANSI31
70
0
71
0
91
1
92
5
93
3
72
1
10
-44.25
20
3
11
-44.7107837415528
21
6.49999830744682
72
1
10
-44.7107837415528
20
6.49999830744682
11
-43.7892162584472
21
6.50000169255318
72
1
10
-43.7892162584472
20
6.50000169255318
11
-44.25
21
3
97
0
75
0
76
1
52
0
41
0.0062
77
0
78
1
53
45
43
0
44
0
45
-0.0139193969876572
46
0.0139193969876572
79
0
47
0
98
1
10
0
20
0
0
HATCH
5
132
100
AcDbEntity
8
SK2
62
256
6
ByLayer
370
13
48
1
60
0
100
AcDbHatch
10
0
20
0
30
0
210
0
220
0
230
1
2
ANSI31
70
0
71
0
91
1
92
5
93
3
72
1
10
-44.25
20
-3
11
-43.7892162584472
21
-6.49999830744682
72
1
10
-43.7892162584472
20
-6.49999830744682
11
-44.7107837415528
21
-6.50000169255318
72
1
10
-44.7107837415528
20
-6.50000169255318
11
-44.25
21
-3
97
0
75
0
76
1
52
0
41
0.0062
77
0
78
1
53
45
43
0
44
0
45
-0.0139193969876572
46
0.0139193969876572
79
0
47
0
98
1
10
0
20
0
0
HATCH
5
137
100
AcDbEntity
8
SK2
62
256
6
ByLayer
370
13
48
1
60
0
100
AcDbHatch
10
0
20
0
30
0
210
0
220
0
230
1
2
ANSI31
70
0
71
0
91
1
92
5
93
3
72
1
10
48.1824831655557
20
27.9869420339822
11
51.6052064570062
21
27.1224912957837
72
1
10
51.6052064570062
20
27.1224912957837
11
51.2648466048005
21
26.2660791304477
72
1
10
51.2648466048005
20
26.2660791304477
11
48.1824831655557
21
27.9869420339822
97
0
75
0
76
1
52
0
41
0.0062
77
0
78
1
53
45
43
0
44
0
45
-0.0139193969876572
46
0.0139193969876572
79
0
47
0
98
1
10
0
20
0
0
HATCH
5
13B
100
AcDbEntity
8
SK2
62
256
6
ByLayer
370
13
48
1
60
0
100
AcDbHatch
10
0
20
0
30
0
210
0
220
0
230
1
2
ANSI31
70
0
71
0
91
1
92
5
93
3
72
1
10
48.1824831655557
20
-27.9869420339822
11
51.2648434590276
21
-26.2660803806708
72
1
10
51.2648434590276
20
-26.2660803806708
11
51.6052096027791
21
-27.1224900455606
72
1
10
51.6052096027791
20
-27.1224900455606
11
48.1824831655557
21
-27.9869420339822
97
0
75
0
76
1
52
0
41
0.0062
77
0
78
1
53
45
43
0
44
0
45
-0.0139193969876572
46
0.0139193969876572
79
0
47
0
98
1
10
0
20
0
0
DIMENSION
5
13F
100
AcDbEntity
8
2
62
256
6
ByLayer
370
18
48
1
60
0
100
AcDbDimension
2
_U0
10
38
20
-58.046927
30
0
11
1
21
-58.046927
31
0
70
32
71
1
72
1
41
1
210
0
220
0
230
1
3
Standard
100
AcDbAlignedDimension
13
-36
23
-3
33
0
14
38
24
-2.35
34
0
50
0
100
AcDbRotatedDimension
1001
ACAD
1000
DSTYLE
1002
{
1070
   371
1070
    13
1070
   372
1070
    13
1070
     3
1000

1070
   170
1070
     0
1070
   144
1040
1.0
1070
   277
1070
     2
1070
   284
1070
     8
1070
   278
1070
    46
1070
   146
1040
1.0
1070
   345
1005
16
1070
   347
1005
16
1070
   346
1005
16
1070
   344
1005
0
1070
   343
1005
0
1070
   172
1070
     1
1070
    76
1070
     0
1070
    75
1070
     0
1070
   282
1070
     0
1070
   281
1070
     0
1070
    71
1070
     0
1070
    74
1070
     0
1070
   279
1070
     0
1070
   173
1070
     1
1070
   340
1005
11E
1070
   271
1070
     2
1070
   272
1070
     2
1070
    77
1070
     1
1070
    73
1070
     1
1070
   171
1070
     3
1070
   274
1070
     4
1070
   177
1070
     2
1070
   176
1070
     2
1070
   178
1070
     2
1070
    78
1070
     8
1070
    48
1040
-0.1
1070
    41
1040
3.5
1070
   147
1040
1.75
1070
    42
1040
1.5875
1070
    44
1040
2.0
1070
   140
1040
3.5
1002
}
1001
ACAD_DSTYLE_DIM_LINETYPE
1070
   380
1005
16
1001
ACAD_DSTYLE_DIM_EXT1_LINETYPE
1070
   381
1005
16
1001
ACAD_DSTYLE_DIM_EXT2_LINETYPE
1070
   382
1005
16
0
DIMENSION
5
158
100
AcDbEntity
8
SK2
62
256
6
ByLayer
370
18
48
1
60
0
100
AcDbDimension
2
_U1
10
2
20
-38.046927
30
0
11
20
21
-38.046927
31
0
70
32
71
1
72
1
41
1
210
0
220
0
230
1
3
Standard
100
AcDbAlignedDimension
13
38
23
-2.35
33
0
14
2
24
-2.35
34
0
50
0
100
AcDbRotatedDimension
1001
ACAD
1000
DSTYLE
1002
{
1070
   371
1070
    13
1070
   372
1070
    13
1070
     3
1000

1070
   170
1070
     0
1070
   144
1040
1.0
1070
   277
1070
     2
1070
   284
1070
     8
1070
   278
1070
    46
1070
   146
1040
1.0
1070
   345
1005
16
1070
   347
1005
16
1070
   346
1005
16
1070
   344
1005
0
1070
   343
1005
0
1070
   172
1070
     1
1070
    76
1070
     0
1070
    75
1070
     0
1070
   282
1070
     0
1070
   281
1070
     0
1070
    71
1070
     0
1070
    74
1070
     0
1070
   279
1070
     0
1070
   173
1070
     1
1070
   340
1005
11E
1070
   271
1070
     2
1070
   272
1070
     2
1070
    77
1070
     1
1070
    73
1070
     1
1070
   171
1070
     3
1070
   274
1070
     4
1070
   177
1070
     2
1070
   176
1070
     2
1070
   178
1070
     2
1070
    78
1070
     8
1070
    48
1040
-0.1
1070
    41
1040
3.5
1070
   147
1040
1.75
1070
    42
1040
1.5875
1070
    44
1040
2.0
1070
   140
1040
3.5
1002
}
1001
ACAD_DSTYLE_DIM_LINETYPE
1070
   380
1005
16
1001
ACAD_DSTYLE_DIM_EXT1_LINETYPE
1070
   381
1005
16
1001
ACAD_DSTYLE_DIM_EXT2_LINETYPE
1070
   382
1005
16
0
DIMENSION
5
170
100
AcDbEntity
8
SK2
62
256
6
ByLayer
370
18
48
1
60
0
100
AcDbDimension
2
_U2
10
9
20
-28.046927
30
0
11
23.5
21
-28.046927
31
0
70
32
71
1
72
1
41
1
210
0
220
0
230
1
3
Standard
100
AcDbAlignedDimension
13
38
23
-2.35
33
0
14
9
24
-2.35
34
0
50
0
100
AcDbRotatedDimension
1001
ACAD
1000
DSTYLE
1002
{
1070
   371
1070
    13
1070
   372
1070
    13
1070
     3
1000

1070
   170
1070
     0
1070
   144
1040
1.0
1070
   277
1070
     2
1070
   284
1070
     8
1070
   278
1070
    46
1070
   146
1040
1.0
1070
   345
1005
16
1070
   347
1005
16
1070
   346
1005
16
1070
   344
1005
0
1070
   343
1005
0
1070
   172
1070
     1
1070
    76
1070
     0
1070
    75
1070
     0
1070
   282
1070
     0
1070
   281
1070
     0
1070
    71
1070
     0
1070
    74
1070
     0
1070
   279
1070
     0
1070
   173
1070
     1
1070
   340
1005
11E
1070
   271
1070
     2
1070
   272
1070
     2
1070
    77
1070
     1
1070
    73
1070
     1
1070
   171
1070
     3
1070
   274
1070
     4
1070
   177
1070
     2
1070
   176
1070
     2
1070
   178
1070
     2
1070
    78
1070
     8
1070
    48
1040
-0.1
1070
    41
1040
3.5
1070
   147
1040
1.75
1070
    42
1040
1.5875
1070
    44
1040
2.0
1070
   140
1040
3.5
1002
}
1001
ACAD_DSTYLE_DIM_LINETYPE
1070
   380
1005
16
1001
ACAD_DSTYLE_DIM_EXT1_LINETYPE
1070
   381
1005
16
1001
ACAD_DSTYLE_DIM_EXT2_LINETYPE
1070
   382
1005
16
0
DIMENSION
5
18A
100
AcDbEntity
8
SK2
62
256
6
ByLayer
370
18
48
1
60
0
100
AcDbDimension
2
_U3
10
0
20
-38.046927
30
0
11
-18
21
-38.046927
31
0
70
32
71
1
72
1
41
1
210
0
220
0
230
1
3
Standard
100
AcDbAlignedDimension
13
-36
23
-3
33
0
14
0
24
-3
34
0
50
0
100
AcDbRotatedDimension
1001
ACAD
1000
DSTYLE
1002
{
1070
   371
1070
    13
1070
   372
1070
    13
1070
     3
1000

1070
   170
1070
     0
1070
   144
1040
1.0
1070
   277
1070
     2
1070
   284
1070
     8
1070
   278
1070
    46
1070
   146
1040
1.0
1070
   345
1005
16
1070
   347
1005
16
1070
   346
1005
16
1070
   344
1005
0
1070
   343
1005
0
1070
   172
1070
     1
1070
    76
1070
     0
1070
    75
1070
     0
1070
   282
1070
     0
1070
   281
1070
     0
1070
    71
1070
     0
1070
    74
1070
     0
1070
   279
1070
     0
1070
   173
1070
     1
1070
   340
1005
11E
1070
   271
1070
     2
1070
   272
1070
     2
1070
    77
1070
     1
1070
    73
1070
     1
1070
   171
1070
     3
1070
   274
1070
     4
1070
   177
1070
     2
1070
   176
1070
     2
1070
   178
1070
     2
1070
    78
1070
     8
1070
    48
1040
-0.1
1070
    41
1040
3.5
1070
   147
1040
1.75
1070
    42
1040
1.5875
1070
    44
1040
2.0
1070
   140
1040
3.5
1002
}
1001
ACAD_DSTYLE_DIM_LINETYPE
1070
   380
1005
16
1001
ACAD_DSTYLE_DIM_EXT1_LINETYPE
1070
   381
1005
16
1001
ACAD_DSTYLE_DIM_EXT2_LINETYPE
1070
   382
1005
16
0
DIMENSION
5
1A2
100
AcDbEntity
8
SK2
62
256
6
ByLayer
370
18
48
1
60
0
100
AcDbDimension
2
_U4
10
38
20
-48.046927
30
0
11
19
21
-48.046927
31
0
70
32
71
1
72
1
41
1
210
0
220
0
230
1
3
Standard
100
AcDbAlignedDimension
13
0
23
-3
33
0
14
38
24
-2.35
34
0
50
0
100
AcDbRotatedDimension
1001
ACAD
1000
DSTYLE
1002
{
1070
   371
1070
    13
1070
   372
1070
    13
1070
     3
1000

1070
   170
1070
     0
1070
   144
1040
1.0
1070
   277
1070
     2
1070
   284
1070
     8
1070
   278
1070
    46
1070
   146
1040
1.0
1070
   345
1005
16
1070
   347
1005
16
1070
   346
1005
16
1070
   344
1005
0
1070
   343
1005
0
1070
   172
1070
     1
1070
    76
1070
     0
1070
    75
1070
     0
1070
   282
1070
     0
1070
   281
1070
     0
1070
    71
1070
     0
1070
    74
1070
     0
1070
   279
1070
     0
1070
   173
1070
     1
1070
   340
1005
11E
1070
   271
1070
     2
1070
   272
1070
     2
1070
    77
1070
     1
1070
    73
1070
     1
1070
   171
1070
     3
1070
   274
1070
     4
1070
   177
1070
     2
1070
   176
1070
     2
1070
   178
1070
     2
1070
    78
1070
     8
1070
    48
1040
-0.1
1070
    41
1040
3.5
1070
   147
1040
1.75
1070
    42
1040
1.5875
1070
    44
1040
2.0
1070
   140
1040
3.5
1002
}
1001
ACAD_DSTYLE_DIM_LINETYPE
1070
   380
1005
16
1001
ACAD_DSTYLE_DIM_EXT1_LINETYPE
1070
   381
1005
16
1001
ACAD_DSTYLE_DIM_EXT2_LINETYPE
1070
   382
1005
16
0
ENDSEC
0
SECTION
2
OBJECTS
0
DICTIONARY
5
22a
330
0
100
AcDbDictionary
280
0
281
1
3
ACAD_GROUP
350
22b
3
ACAD_MLINESTYLE
350
22c
0
DICTIONARY
5
22b
330
0
100
AcDbDictionary
280
0
281
1
0
DICTIONARY
5
22c
330
0
100
AcDbDictionary
280
0
281
1
3
Standard
350
18
0
MLINESTYLE
5
18
330
22c
100
AcDbMlineStyle
2
Standard
70
0
3

62
256
51
90
52
90
71
2
49
-0.5
62
256
6
ByLayer
49
0.5
62
256
6
ByLayer
0
RASTERVARIABLES
5
218
330

100
AcDbRasterVariables
90
0
70
1
71
1
72
1
0
ENDSEC
0
EOF
