0
SECTION
2
HEADER
9
$ACADVER
1
AC1015
9
$DWGCODEPAGE
3
ANSI_1252
9
$HANDSEED
5
233
9
$ANGBASE
50
0
9
$ANGDIR
70
0
9
$ATTMODE
70
1
9
$AUNITS
70
0
9
$AUPREC
70
0
9
$CECOLOR
62
256
9
$CELTSCALE
40
1
9
$CELTYPE
6
ByLayer
9
$CELWEIGHT
370
18
9
$CLAYER
8
0
9
$CMLJUST
70
0
9
$CMLSCALE
40
1
9
$CMLSTYLE
2
Standard
9
$DIMSTYLE
2
Standard
9
$TEXTSIZE
40
0.2
9
$TEXTSTYLE
7
Standard
9
$LUNITS
70
2
9
$LUPREC
70
4
9
$EXTNAMES
290
1
9
$INSUNITS
70
4
9
$LTSCALE
40
1
9
$LWDISPLAY
290
1
9
$PDMODE
70
0
9
$PDSIZE
40
0
9
$PLINEGEN
70
0
0
ENDSEC
0
SECTION
2
CLASSES
0
CLASS
1
RASTERVARIABLES
2
AcDbRasterVariables
3
ISM
90
0
280
0
281
0
0
ENDSEC
0
SECTION
2
TABLES
0
TABLE
2
VPORT
5
229
100
AcDbSymbolTable
0
VPORT
5
1
100
AcDbSymbolTableRecord
100
AcDbViewportTableRecord
2
*Active
70
0
10
0
20
0
11
1
21
1
12
-1
22
1
13
0
23
0
14
0.5
24
0.5
15
10
25
10
16
0
26
0
36
1
17
0
27
0
37
0
0
ENDTAB
0
TABLE
2
LTYPE
5
22a
100
AcDbSymbolTable
0
LTYPE
5
14
100
AcDbSymbolTableRecord
100
AcDbLinetypeTableRecord
70
0
2
ByBlock
3

72
65
73
0
40
0
0
LTYPE
5
15
100
AcDbSymbolTableRecord
100
AcDbLinetypeTableRecord
70
0
2
ByLayer
3

72
65
73
0
40
0
0
LTYPE
5
16
100
AcDbSymbolTableRecord
100
AcDbLinetypeTableRecord
70
0
2
Continuous
3
Solid line
72
65
73
0
40
0
0
LTYPE
5
6E
100
AcDbSymbolTableRecord
100
AcDbLinetypeTableRecord
70
0
2
CENTER
3
____ _ ____ _ ____ _ ____
72
65
73
4
40
47.5
49
22
74
0
49
-8.5
74
0
49
8.5
74
0
49
-8.5
74
0
0
LTYPE
5
6F
100
AcDbSymbolTableRecord
100
AcDbLinetypeTableRecord
70
0
2
DASHED
3
__ __ __ __ __ __ __ __ __
72
65
73
2
40
25.72
49
12.86
74
0
49
-12.86
74
0
0
ENDTAB
0
TABLE
2
LAYER
5
22b
100
AcDbSymbolTable
0
LAYER
5
10
100
AcDbSymbolTableRecord
100
AcDbLayerTableRecord
2
0
70
0
62
7
6
Continuous
290
1
370
-3
390
0
0
LAYER
5
71
100
AcDbSymbolTableRecord
100
AcDbLayerTableRecord
2
81
70
0
62
-3
6
Continuous
290
1
370
-3
390
0
0
LAYER
5
73
100
AcDbSymbolTableRecord
100
AcDbLayerTableRecord
2
80
70
0
62
-6
6
Continuous
290
1
370
-3
390
0
0
LAYER
5
75
100
AcDbSymbolTableRecord
100
AcDbLayerTableRecord
2
1
70
0
62
4
6
Continuous
290
1
370
-3
390
0
0
LAYER
5
83
100
AcDbSymbolTableRecord
100
AcDbLayerTableRecord
2
4
70
0
62
-2
6
CENTER
290
1
370
-3
390
0
0
LAYER
5
A8
100
AcDbSymbolTableRecord
100
AcDbLayerTableRecord
2
2
70
0
62
7
6
Continuous
290
1
370
-3
390
0
0
LAYER
5
13E
100
AcDbSymbolTableRecord
100
AcDbLayerTableRecord
2
Defpoints
70
0
62
7
6
Continuous
290
0
370
-3
390
0
0
LAYER
5
215
100
AcDbSymbolTableRecord
100
AcDbLayerTableRecord
2
SK4
70
0
62
2
6
CENTER
290
1
370
-3
390
0
0
LAYER
5
216
100
AcDbSymbolTableRecord
100
AcDbLayerTableRecord
2
SK1
70
0
62
4
6
Continuous
290
1
370
-3
390
0
0
LAYER
5
217
100
AcDbSymbolTableRecord
100
AcDbLayerTableRecord
2
SK2
70
0
62
7
6
Continuous
290
1
370
-3
390
0
0
LAYER
5
218
100
AcDbSymbolTableRecord
100
AcDbLayerTableRecord
2
SK6
70
0
62
5
6
Continuous
290
1
370
-3
390
0
0
ENDTAB
0
TABLE
2
STYLE
5
22c
100
AcDbSymbolTable
0
STYLE
5
11
100
AcDbSymbolTableRecord
100
AcDbTextStyleTableRecord
2
Standard
3
txt
70
0
71
0
40
0
41
1
42
0
50
0
0
STYLE
5
11A
100
AcDbSymbolTableRecord
100
AcDbTextStyleTableRecord
2
iso_b_vert
3
simplex.shx
70
0
71
0
40
0
41
1
42
0
50
0
0
STYLE
5
11B
100
AcDbSymbolTableRecord
100
AcDbTextStyleTableRecord
2
DWGDirectTextStyle
3
simplex
70
0
71
0
40
0
41
1
42
0
50
0
0
ENDTAB
0
TABLE
2
DIMSTYLE
5
22d
100
AcDbSymbolTable
100
AcDbDimStyleTable
0
DIMSTYLE
105
27
100
AcDbSymbolTableRecord
100
AcDbDimStyleTableRecord
2
Standard
70
0
3
<>
41
0.18
42
0.0625
44
0.18
140
0.18
147
0.09
73
0
74
0
77
1
271
2
275
0
278
52
280
0
340
11
0
ENDTAB
0
TABLE
2
VIEW
5
22e
100
AcDbSymbolTable
0
ENDTAB
0
TABLE
2
UCS
5
22f
100
AcDbSymbolTable
0
ENDTAB
0
TABLE
2
APPID
5
230
100
AcDbSymbolTable
0
APPID
5
12
100
AcDbSymbolTableRecord
100
AcDbRegAppTableRecord
2
ACAD
70
0
0
APPID
5
13A
100
AcDbSymbolTableRecord
100
AcDbRegAppTableRecord
2
ACAD_DSTYLE_DIMBREAK
70
0
0
APPID
5
1D4
100
AcDbSymbolTableRecord
100
AcDbRegAppTableRecord
2
ACAD_DSTYLE_DIM_LINETYPE
70
0
0
APPID
5
1D5
100
AcDbSymbolTableRecord
100
AcDbRegAppTableRecord
2
ACAD_DSTYLE_DIM_EXT1_LINETYPE
70
0
0
APPID
5
1D6
100
AcDbSymbolTableRecord
100
AcDbRegAppTableRecord
2
ACAD_DSTYLE_DIM_EXT2_LINETYPE
70
0
0
APPID
5
211
100
AcDbSymbolTableRecord
100
AcDbRegAppTableRecord
2
ACAD_MLEADERVER
70
0
0
ENDTAB
0
TABLE
2
BLOCK_RECORD
5
231
100
AcDbSymbolTable
0
BLOCK_RECORD
5
1F
100
AcDbSymbolTableRecord
100
AcDbBlockTableRecord
2
*Model_Space
340
0
70
0
0
BLOCK_RECORD
5
1B
100
AcDbSymbolTableRecord
100
AcDbBlockTableRecord
2
*Paper_Space
340
0
70
0
0
BLOCK_RECORD
5
23
100
AcDbSymbolTableRecord
100
AcDbBlockTableRecord
2
*Paper_Space0
340
0
70
0
0
BLOCK_RECORD
5
13F
100
AcDbSymbolTableRecord
100
AcDbBlockTableRecord
2
*D1
340
0
70
0
0
BLOCK_RECORD
5
14B
100
AcDbSymbolTableRecord
100
AcDbBlockTableRecord
2
_U0
340
0
70
0
0
BLOCK_RECORD
5
157
100
AcDbSymbolTableRecord
100
AcDbBlockTableRecord
2
*D3
340
0
70
0
0
BLOCK_RECORD
5
163
100
AcDbSymbolTableRecord
100
AcDbBlockTableRecord
2
_U1
340
0
70
0
0
BLOCK_RECORD
5
16F
100
AcDbSymbolTableRecord
100
AcDbBlockTableRecord
2
*D5
340
0
70
0
0
BLOCK_RECORD
5
17B
100
AcDbSymbolTableRecord
100
AcDbBlockTableRecord
2
_U2
340
0
70
0
0
BLOCK_RECORD
5
189
100
AcDbSymbolTableRecord
100
AcDbBlockTableRecord
2
*D7
340
0
70
0
0
BLOCK_RECORD
5
195
100
AcDbSymbolTableRecord
100
AcDbBlockTableRecord
2
_U3
340
0
70
0
0
BLOCK_RECORD
5
1A1
100
AcDbSymbolTableRecord
100
AcDbBlockTableRecord
2
*D9
340
0
70
0
0
BLOCK_RECORD
5
1AD
100
AcDbSymbolTableRecord
100
AcDbBlockTableRecord
2
_U4
340
0
70
0
0
ENDTAB
0
ENDSEC
0
SECTION
2
BLOCKS
0
BLOCK
5
20
100
AcDbEntity
8
0
100
AcDbBlockBegin
2
*Model_Space
70
0
10
0
20
0
30
0
3
*Model_Space
0
ENDBLK
5
21
100
AcDbEntity
8
0
100
AcDbBlockEnd
0
BLOCK
5
1C
100
AcDbEntity
8
0
100
AcDbBlockBegin
2
*Paper_Space
70
0
10
0
20
0
30
0
3
*Paper_Space
0
ENDBLK
5
1D
100
AcDbEntity
8
0
100
AcDbBlockEnd
0
BLOCK
5
24
100
AcDbEntity
8
0
100
AcDbBlockBegin
2
*Paper_Space0
70
0
10
0
20
0
30
0
3
*Paper_Space0
0
ENDBLK
5
25
100
AcDbEntity
8
0
100
AcDbBlockEnd
0
BLOCK
5
140
100
AcDbEntity
8
0
100
AcDbBlockBegin
2
*D1
70
1
10
0
20
0
30
0
3
*D1
0
LINE
5
142
100
AcDbEntity
8
0
62
256
6
ByLayer
370
-2
48
1
60
0
100
AcDbLine
10
-36
20
-4.5875
30
0
11
-36
21
-58.714355
31
0
39
0
210
0
220
0
230
1
0
LINE
5
143
100
AcDbEntity
8
0
62
256
6
ByLayer
370
-2
48
1
60
0
100
AcDbLine
10
46
20
-4.3625
30
0
11
46
21
-58.714355
31
0
39
0
210
0
220
0
230
1
0
LINE
5
144
100
AcDbEntity
8
0
62
256
6
ByLayer
370
-2
48
1
60
0
100
AcDbLine
10
-32.5
20
-56.714355
30
0
11
42.5
21
-56.714355
31
0
39
0
210
0
220
0
230
1
0
SOLID
5
145
100
AcDbEntity
8
0
62
256
6
ByLayer
370
-1
48
1
60
0
100
AcDbTrace
10
-32.5
20
-56.131021
30
0
11
-32.5
21
-57.297688
31
0
12
-36
22
-56.714355
32
0
13
-36
23
-56.714355
33
0
39
0
210
0
220
0
230
1
0
SOLID
5
146
100
AcDbEntity
8
0
62
256
6
ByLayer
370
-1
48
1
60
0
100
AcDbTrace
10
42.5
20
-57.297688
30
0
11
42.5
21
-56.131021
31
0
12
46
22
-56.714355
32
0
13
46
23
-56.714355
33
0
39
0
210
0
220
0
230
1
0
MTEXT
5
147
100
AcDbEntity
8
0
62
256
6
ByLayer
370
18
48
1
60
0
100
AcDbMText
10
5
20
-49.714355
30
0
210
0
220
0
230
1
1
\A1;82
40
3.5
41
0
44
1
50
0
71
5
72
5
7
iso_b_vert
0
POINT
5
148
100
AcDbEntity
8
Defpoints
62
0
6
ByLayer
370
-1
48
1
60
0
100
AcDbPoint
10
-36
20
-3
30
0
39
0
210
0
220
0
230
1
50
360
0
POINT
5
149
100
AcDbEntity
8
Defpoints
62
0
6
ByLayer
370
-1
48
1
60
0
100
AcDbPoint
10
46
20
-2.775
30
0
39
0
210
0
220
0
230
1
50
360
0
POINT
5
14A
100
AcDbEntity
8
Defpoints
62
0
6
ByLayer
370
-1
48
1
60
0
100
AcDbPoint
10
46
20
-56.714355
30
0
39
0
210
0
220
0
230
1
50
360
0
ENDBLK
5
141
100
AcDbEntity
8
0
100
AcDbBlockEnd
0
BLOCK
5
152
100
AcDbEntity
8
0
100
AcDbBlockBegin
2
_U0
70
0
10
0
20
0
30
0
3
_U0
0
MTEXT
5
14C
100
AcDbEntity
8
2
62
256
6
ByLayer
370
18
48
1
60
0
100
AcDbMText
10
3.095034
20
-55.681721
30
0
210
0
220
0
230
1
1
\W0.6740;82
40
3.5
41
0
44
1.084337
50
0
71
7
72
5
7
iso_b_vert
0
LINE
5
14D
100
AcDbEntity
8
2
62
256
6
ByLayer
370
13
48
1
60
0
100
AcDbLine
10
-36
20
-4.5875
30
0
11
-36
21
-58.714355
31
0
39
0
210
0
220
0
230
1
0
LINE
5
14E
100
AcDbEntity
8
2
62
256
6
ByLayer
370
13
48
1
60
0
100
AcDbLine
10
46
20
-4.3625
30
0
11
46
21
-58.714355
31
0
39
0
210
0
220
0
230
1
0
LINE
5
14F
100
AcDbEntity
8
2
62
256
6
ByLayer
370
13
48
1
60
0
100
AcDbLine
10
-36
20
-56.714355
30
0
11
46
21
-56.714355
31
0
39
0
210
0
220
0
230
1
0
SOLID
5
150
100
AcDbEntity
8
2
62
256
6
ByLayer
370
18
48
1
60
0
100
AcDbTrace
10
-36
20
-56.714355
30
0
11
-32.500002
21
-56.253571
31
0
12
-32.499998
22
-57.175138
32
0
13
-32.499998
23
-57.175138
33
0
39
0
210
0
220
0
230
1
0
SOLID
5
151
100
AcDbEntity
8
2
62
256
6
ByLayer
370
18
48
1
60
0
100
AcDbTrace
10
46
20
-56.714355
30
0
11
42.500002
21
-57.175138
31
0
12
42.499998
22
-56.253571
32
0
13
42.499998
23
-56.253571
33
0
39
0
210
0
220
0
230
1
0
ENDBLK
5
153
100
AcDbEntity
8
0
100
AcDbBlockEnd
0
BLOCK
5
158
100
AcDbEntity
8
0
100
AcDbBlockBegin
2
*D3
70
1
10
0
20
0
30
0
3
*D3
0
LINE
5
15A
100
AcDbEntity
8
0
62
256
6
ByLayer
370
-2
48
1
60
0
100
AcDbLine
10
46
20
-4.3625
30
0
11
46
21
-38.714355
31
0
39
0
210
0
220
0
230
1
0
LINE
5
15B
100
AcDbEntity
8
0
62
256
6
ByLayer
370
-2
48
1
60
0
100
AcDbLine
10
2
20
-4.3625
30
0
11
2
21
-38.714355
31
0
39
0
210
0
220
0
230
1
0
LINE
5
15C
100
AcDbEntity
8
0
62
256
6
ByLayer
370
-2
48
1
60
0
100
AcDbLine
10
42.5
20
-36.714355
30
0
11
5.5
21
-36.714355
31
0
39
0
210
0
220
0
230
1
0
SOLID
5
15D
100
AcDbEntity
8
0
62
256
6
ByLayer
370
-1
48
1
60
0
100
AcDbTrace
10
42.5
20
-37.297688
30
0
11
42.5
21
-36.131021
31
0
12
46
22
-36.714355
32
0
13
46
23
-36.714355
33
0
39
0
210
0
220
0
230
1
0
SOLID
5
15E
100
AcDbEntity
8
0
62
256
6
ByLayer
370
-1
48
1
60
0
100
AcDbTrace
10
5.5
20
-36.131021
30
0
11
5.5
21
-37.297688
31
0
12
2
22
-36.714355
32
0
13
2
23
-36.714355
33
0
39
0
210
0
220
0
230
1
0
MTEXT
5
15F
100
AcDbEntity
8
0
62
256
6
ByLayer
370
18
48
1
60
0
100
AcDbMText
10
24
20
-29.714355
30
0
210
0
220
0
230
1
1
\A1;44
40
3.5
41
0
44
1
50
0
71
5
72
5
7
iso_b_vert
0
POINT
5
160
100
AcDbEntity
8
Defpoints
62
0
6
ByLayer
370
-1
48
1
60
0
100
AcDbPoint
10
46
20
-2.775
30
0
39
0
210
0
220
0
230
1
50
360
0
POINT
5
161
100
AcDbEntity
8
Defpoints
62
0
6
ByLayer
370
-1
48
1
60
0
100
AcDbPoint
10
2
20
-2.775
30
0
39
0
210
0
220
0
230
1
50
360
0
POINT
5
162
100
AcDbEntity
8
Defpoints
62
0
6
ByLayer
370
-1
48
1
60
0
100
AcDbPoint
10
2
20
-36.714355
30
0
39
0
210
0
220
0
230
1
50
360
0
ENDBLK
5
159
100
AcDbEntity
8
0
100
AcDbBlockEnd
0
BLOCK
5
16A
100
AcDbEntity
8
0
100
AcDbBlockBegin
2
_U1
70
0
10
0
20
0
30
0
3
_U1
0
MTEXT
5
164
100
AcDbEntity
8
SK2
62
256
6
ByLayer
370
18
48
1
60
0
100
AcDbMText
10
21.7265
20
-35.681721
30
0
210
0
220
0
230
1
1
\W0.7685;44
40
3.5
41
0
44
1.084337
50
0
71
7
72
5
7
iso_b_vert
0
LINE
5
165
100
AcDbEntity
8
SK2
62
256
6
ByLayer
370
13
48
1
60
0
100
AcDbLine
10
46
20
-4.3625
30
0
11
46
21
-38.714355
31
0
39
0
210
0
220
0
230
1
0
LINE
5
166
100
AcDbEntity
8
SK2
62
256
6
ByLayer
370
13
48
1
60
0
100
AcDbLine
10
2
20
-4.3625
30
0
11
2
21
-38.714355
31
0
39
0
210
0
220
0
230
1
0
LINE
5
167
100
AcDbEntity
8
SK2
62
256
6
ByLayer
370
13
48
1
60
0
100
AcDbLine
10
46
20
-36.714355
30
0
11
2
21
-36.714355
31
0
39
0
210
0
220
0
230
1
0
SOLID
5
168
100
AcDbEntity
8
SK2
62
256
6
ByLayer
370
18
48
1
60
0
100
AcDbTrace
10
46
20
-36.714355
30
0
11
42.500002
21
-37.175138
31
0
12
42.499998
22
-36.253571
32
0
13
42.499998
23
-36.253571
33
0
39
0
210
0
220
0
230
1
0
SOLID
5
169
100
AcDbEntity
8
SK2
62
256
6
ByLayer
370
18
48
1
60
0
100
AcDbTrace
10
2
20
-36.714355
30
0
11
5.499998
21
-36.253571
31
0
12
5.500002
22
-37.175138
32
0
13
5.500002
23
-37.175138
33
0
39
0
210
0
220
0
230
1
0
ENDBLK
5
16B
100
AcDbEntity
8
0
100
AcDbBlockEnd
0
BLOCK
5
170
100
AcDbEntity
8
0
100
AcDbBlockBegin
2
*D5
70
1
10
0
20
0
30
0
3
*D5
0
LINE
5
172
100
AcDbEntity
8
0
62
256
6
ByLayer
370
-2
48
1
60
0
100
AcDbLine
10
46
20
-4.3625
30
0
11
46
21
-28.714355
31
0
39
0
210
0
220
0
230
1
0
LINE
5
173
100
AcDbEntity
8
0
62
256
6
ByLayer
370
-2
48
1
60
0
100
AcDbLine
10
11
20
-4.3625
30
0
11
11
21
-28.714355
31
0
39
0
210
0
220
0
230
1
0
LINE
5
174
100
AcDbEntity
8
0
62
256
6
ByLayer
370
-2
48
1
60
0
100
AcDbLine
10
42.5
20
-26.714355
30
0
11
14.5
21
-26.714355
31
0
39
0
210
0
220
0
230
1
0
SOLID
5
175
100
AcDbEntity
8
0
62
256
6
ByLayer
370
-1
48
1
60
0
100
AcDbTrace
10
42.5
20
-27.297688
30
0
11
42.5
21
-26.131021
31
0
12
46
22
-26.714355
32
0
13
46
23
-26.714355
33
0
39
0
210
0
220
0
230
1
0
SOLID
5
176
100
AcDbEntity
8
0
62
256
6
ByLayer
370
-1
48
1
60
0
100
AcDbTrace
10
14.5
20
-26.131021
30
0
11
14.5
21
-27.297688
31
0
12
11
22
-26.714355
32
0
13
11
23
-26.714355
33
0
39
0
210
0
220
0
230
1
0
MTEXT
5
177
100
AcDbEntity
8
0
62
256
6
ByLayer
370
18
48
1
60
0
100
AcDbMText
10
28.5
20
-19.714355
30
0
210
0
220
0
230
1
1
\A1;35
40
3.5
41
0
44
1
50
0
71
5
72
5
7
iso_b_vert
0
POINT
5
178
100
AcDbEntity
8
Defpoints
62
0
6
ByLayer
370
-1
48
1
60
0
100
AcDbPoint
10
46
20
-2.775
30
0
39
0
210
0
220
0
230
1
50
360
0
POINT
5
179
100
AcDbEntity
8
Defpoints
62
0
6
ByLayer
370
-1
48
1
60
0
100
AcDbPoint
10
11
20
-2.775
30
0
39
0
210
0
220
0
230
1
50
360
0
POINT
5
17A
100
AcDbEntity
8
Defpoints
62
0
6
ByLayer
370
-1
48
1
60
0
100
AcDbPoint
10
11
20
-26.714355
30
0
39
0
210
0
220
0
230
1
50
360
0
ENDBLK
5
171
100
AcDbEntity
8
0
100
AcDbBlockEnd
0
BLOCK
5
184
100
AcDbEntity
8
0
100
AcDbBlockBegin
2
_U2
70
0
10
0
20
0
30
0
3
_U2
0
MTEXT
5
17C
100
AcDbEntity
8
SK2
62
256
6
ByLayer
370
18
48
1
60
0
100
AcDbMText
10
26.595034
20
-25.681721
30
0
210
0
220
0
230
1
1
\W0.6740;35
40
3.5
41
0
44
1.084337
50
0
71
7
72
5
7
iso_b_vert
0
MTEXT
5
17D
100
AcDbEntity
8
SK2
62
256
6
ByLayer
370
18
48
1
60
0
100
AcDbMText
10
22.727034
20
-25.681721
30
0
210
0
220
0
230
1
1
\W0.1790;(
40
3.5
41
0
44
1.084337
50
0
71
7
72
5
7
iso_b_vert
0
MTEXT
5
17E
100
AcDbEntity
8
SK2
62
256
6
ByLayer
370
18
48
1
60
0
100
AcDbMText
10
34.275966
20
-25.681721
30
0
210
0
220
0
230
1
1
\W0.1969;)
40
3.5
41
0
44
1.084337
50
0
71
7
72
5
7
iso_b_vert
0
LINE
5
17F
100
AcDbEntity
8
SK2
62
256
6
ByLayer
370
13
48
1
60
0
100
AcDbLine
10
46
20
-4.3625
30
0
11
46
21
-28.714355
31
0
39
0
210
0
220
0
230
1
0
LINE
5
180
100
AcDbEntity
8
SK2
62
256
6
ByLayer
370
13
48
1
60
0
100
AcDbLine
10
11
20
-4.3625
30
0
11
11
21
-28.714355
31
0
39
0
210
0
220
0
230
1
0
LINE
5
181
100
AcDbEntity
8
SK2
62
256
6
ByLayer
370
13
48
1
60
0
100
AcDbLine
10
46
20
-26.714355
30
0
11
11
21
-26.714355
31
0
39
0
210
0
220
0
230
1
0
SOLID
5
182
100
AcDbEntity
8
SK2
62
256
6
ByLayer
370
18
48
1
60
0
100
AcDbTrace
10
46
20
-26.714355
30
0
11
42.500002
21
-27.175138
31
0
12
42.499998
22
-26.253571
32
0
13
42.499998
23
-26.253571
33
0
39
0
210
0
220
0
230
1
0
SOLID
5
183
100
AcDbEntity
8
SK2
62
256
6
ByLayer
370
18
48
1
60
0
100
AcDbTrace
10
11
20
-26.714355
30
0
11
14.499998
21
-26.253571
31
0
12
14.500002
22
-27.175138
32
0
13
14.500002
23
-27.175138
33
0
39
0
210
0
220
0
230
1
0
ENDBLK
5
185
100
AcDbEntity
8
0
100
AcDbBlockEnd
0
BLOCK
5
18A
100
AcDbEntity
8
0
100
AcDbBlockBegin
2
*D7
70
1
10
0
20
0
30
0
3
*D7
0
LINE
5
18C
100
AcDbEntity
8
0
62
256
6
ByLayer
370
-2
48
1
60
0
100
AcDbLine
10
-36
20
-4.5875
30
0
11
-36
21
-38.714355
31
0
39
0
210
0
220
0
230
1
0
LINE
5
18D
100
AcDbEntity
8
0
62
256
6
ByLayer
370
-2
48
1
60
0
100
AcDbLine
10
0
20
-4.5875
30
0
11
0
21
-38.714355
31
0
39
0
210
0
220
0
230
1
0
LINE
5
18E
100
AcDbEntity
8
0
62
256
6
ByLayer
370
-2
48
1
60
0
100
AcDbLine
10
-32.5
20
-36.714355
30
0
11
-3.5
21
-36.714355
31
0
39
0
210
0
220
0
230
1
0
SOLID
5
18F
100
AcDbEntity
8
0
62
256
6
ByLayer
370
-1
48
1
60
0
100
AcDbTrace
10
-32.5
20
-36.131021
30
0
11
-32.5
21
-37.297688
31
0
12
-36
22
-36.714355
32
0
13
-36
23
-36.714355
33
0
39
0
210
0
220
0
230
1
0
SOLID
5
190
100
AcDbEntity
8
0
62
256
6
ByLayer
370
-1
48
1
60
0
100
AcDbTrace
10
-3.5
20
-37.297688
30
0
11
-3.5
21
-36.131021
31
0
12
0
22
-36.714355
32
0
13
0
23
-36.714355
33
0
39
0
210
0
220
0
230
1
0
MTEXT
5
191
100
AcDbEntity
8
0
62
256
6
ByLayer
370
18
48
1
60
0
100
AcDbMText
10
-18
20
-29.714355
30
0
210
0
220
0
230
1
1
\A1;36
40
3.5
41
0
44
1
50
0
71
5
72
5
7
iso_b_vert
0
POINT
5
192
100
AcDbEntity
8
Defpoints
62
0
6
ByLayer
370
-1
48
1
60
0
100
AcDbPoint
10
-36
20
-3
30
0
39
0
210
0
220
0
230
1
50
360
0
POINT
5
193
100
AcDbEntity
8
Defpoints
62
0
6
ByLayer
370
-1
48
1
60
0
100
AcDbPoint
10
0
20
-3
30
0
39
0
210
0
220
0
230
1
50
360
0
POINT
5
194
100
AcDbEntity
8
Defpoints
62
0
6
ByLayer
370
-1
48
1
60
0
100
AcDbPoint
10
0
20
-36.714355
30
0
39
0
210
0
220
0
230
1
50
360
0
ENDBLK
5
18B
100
AcDbEntity
8
0
100
AcDbBlockEnd
0
BLOCK
5
19C
100
AcDbEntity
8
0
100
AcDbBlockBegin
2
_U3
70
0
10
0
20
0
30
0
3
_U3
0
MTEXT
5
196
100
AcDbEntity
8
SK2
62
256
6
ByLayer
370
18
48
1
60
0
100
AcDbMText
10
-19.904966
20
-35.681721
30
0
210
0
220
0
230
1
1
\W0.6740;36
40
3.5
41
0
44
1.084337
50
0
71
7
72
5
7
iso_b_vert
0
LINE
5
197
100
AcDbEntity
8
SK2
62
256
6
ByLayer
370
13
48
1
60
0
100
AcDbLine
10
-36
20
-4.5875
30
0
11
-36
21
-38.714355
31
0
39
0
210
0
220
0
230
1
0
LINE
5
198
100
AcDbEntity
8
SK2
62
256
6
ByLayer
370
13
48
1
60
0
100
AcDbLine
10
0
20
-4.5875
30
0
11
0
21
-38.714355
31
0
39
0
210
0
220
0
230
1
0
LINE
5
199
100
AcDbEntity
8
SK2
62
256
6
ByLayer
370
13
48
1
60
0
100
AcDbLine
10
-36
20
-36.714355
30
0
11
0
21
-36.714355
31
0
39
0
210
0
220
0
230
1
0
SOLID
5
19A
100
AcDbEntity
8
SK2
62
256
6
ByLayer
370
18
48
1
60
0
100
AcDbTrace
10
-36
20
-36.714355
30
0
11
-32.500002
21
-36.253571
31
0
12
-32.499998
22
-37.175138
32
0
13
-32.499998
23
-37.175138
33
0
39
0
210
0
220
0
230
1
0
SOLID
5
19B
100
AcDbEntity
8
SK2
62
256
6
ByLayer
370
18
48
1
60
0
100
AcDbTrace
10
0
20
-36.714355
30
0
11
-3.499998
21
-37.175138
31
0
12
-3.500002
22
-36.253571
32
0
13
-3.500002
23
-36.253571
33
0
39
0
210
0
220
0
230
1
0
ENDBLK
5
19D
100
AcDbEntity
8
0
100
AcDbBlockEnd
0
BLOCK
5
1A2
100
AcDbEntity
8
0
100
AcDbBlockBegin
2
*D9
70
1
10
0
20
0
30
0
3
*D9
0
LINE
5
1A4
100
AcDbEntity
8
0
62
256
6
ByLayer
370
-2
48
1
60
0
100
AcDbLine
10
0
20
-4.5875
30
0
11
0
21
-48.714355
31
0
39
0
210
0
220
0
230
1
0
LINE
5
1A5
100
AcDbEntity
8
0
62
256
6
ByLayer
370
-2
48
1
60
0
100
AcDbLine
10
46
20
-4.3625
30
0
11
46
21
-48.714355
31
0
39
0
210
0
220
0
230
1
0
LINE
5
1A6
100
AcDbEntity
8
0
62
256
6
ByLayer
370
-2
48
1
60
0
100
AcDbLine
10
3.5
20
-46.714355
30
0
11
42.5
21
-46.714355
31
0
39
0
210
0
220
0
230
1
0
SOLID
5
1A7
100
AcDbEntity
8
0
62
256
6
ByLayer
370
-1
48
1
60
0
100
AcDbTrace
10
3.5
20
-46.131021
30
0
11
3.5
21
-47.297688
31
0
12
0
22
-46.714355
32
0
13
0
23
-46.714355
33
0
39
0
210
0
220
0
230
1
0
SOLID
5
1A8
100
AcDbEntity
8
0
62
256
6
ByLayer
370
-1
48
1
60
0
100
AcDbTrace
10
42.5
20
-47.297688
30
0
11
42.5
21
-46.131021
31
0
12
46
22
-46.714355
32
0
13
46
23
-46.714355
33
0
39
0
210
0
220
0
230
1
0
MTEXT
5
1A9
100
AcDbEntity
8
0
62
256
6
ByLayer
370
18
48
1
60
0
100
AcDbMText
10
23
20
-39.714355
30
0
210
0
220
0
230
1
1
\A1;46
40
3.5
41
0
44
1
50
0
71
5
72
5
7
iso_b_vert
0
POINT
5
1AA
100
AcDbEntity
8
Defpoints
62
0
6
ByLayer
370
-1
48
1
60
0
100
AcDbPoint
10
0
20
-3
30
0
39
0
210
0
220
0
230
1
50
360
0
POINT
5
1AB
100
AcDbEntity
8
Defpoints
62
0
6
ByLayer
370
-1
48
1
60
0
100
AcDbPoint
10
46
20
-2.775
30
0
39
0
210
0
220
0
230
1
50
360
0
POINT
5
1AC
100
AcDbEntity
8
Defpoints
62
0
6
ByLayer
370
-1
48
1
60
0
100
AcDbPoint
10
46
20
-46.714355
30
0
39
0
210
0
220
0
230
1
50
360
0
ENDBLK
5
1A3
100
AcDbEntity
8
0
100
AcDbBlockEnd
0
BLOCK
5
1B4
100
AcDbEntity
8
0
100
AcDbBlockBegin
2
_U4
70
0
10
0
20
0
30
0
3
_U4
0
MTEXT
5
1AE
100
AcDbEntity
8
SK2
62
256
6
ByLayer
370
18
48
1
60
0
100
AcDbMText
10
20.910767
20
-45.681721
30
0
210
0
220
0
230
1
1
\W0.7361;46
40
3.5
41
0
44
1.084337
50
0
71
7
72
5
7
iso_b_vert
0
LINE
5
1AF
100
AcDbEntity
8
SK2
62
256
6
ByLayer
370
13
48
1
60
0
100
AcDbLine
10
0
20
-4.5875
30
0
11
0
21
-48.714355
31
0
39
0
210
0
220
0
230
1
0
LINE
5
1B0
100
AcDbEntity
8
SK2
62
256
6
ByLayer
370
13
48
1
60
0
100
AcDbLine
10
46
20
-4.3625
30
0
11
46
21
-48.714355
31
0
39
0
210
0
220
0
230
1
0
LINE
5
1B1
100
AcDbEntity
8
SK2
62
256
6
ByLayer
370
13
48
1
60
0
100
AcDbLine
10
0
20
-46.714355
30
0
11
46
21
-46.714355
31
0
39
0
210
0
220
0
230
1
0
SOLID
5
1B2
100
AcDbEntity
8
SK2
62
256
6
ByLayer
370
18
48
1
60
0
100
AcDbTrace
10
0
20
-46.714355
30
0
11
3.499998
21
-46.253571
31
0
12
3.500002
22
-47.175138
32
0
13
3.500002
23
-47.175138
33
0
39
0
210
0
220
0
230
1
0
SOLID
5
1B3
100
AcDbEntity
8
SK2
62
256
6
ByLayer
370
18
48
1
60
0
100
AcDbTrace
10
46
20
-46.714355
30
0
11
42.500002
21
-47.175138
31
0
12
42.499998
22
-46.253571
32
0
13
42.499998
23
-46.253571
33
0
39
0
210
0
220
0
230
1
0
ENDBLK
5
1B5
100
AcDbEntity
8
0
100
AcDbBlockEnd
0
ENDSEC
0
SECTION
2
ENTITIES
0
ARC
5
C3
100
AcDbEntity
8
1
62
256
6
ByLayer
370
18
48
1
60
0
100
AcDbCircle
39
0
10
0.862879
20
3.547419
30
0
40
0.800000000000004
210
0
220
0
230
1
100
AcDbArc
50
237.722835
51
270.03581
0
ARC
5
C4
100
AcDbEntity
8
1
62
256
6
ByLayer
370
18
48
1
60
0
100
AcDbCircle
39
0
10
0.862879
20
-3.547419
30
0
40
0.800000000000004
210
0
220
0
230
1
100
AcDbArc
50
89.96419
51
122.277165
0
ARC
5
C5
100
AcDbEntity
8
1
62
256
6
ByLayer
370
18
48
1
60
0
100
AcDbCircle
39
0
10
0
20
2.2
30
0
40
0.799999999999998
210
0
220
0
230
1
100
AcDbArc
50
57.722835
51
90
0
ARC
5
C6
100
AcDbEntity
8
1
62
256
6
ByLayer
370
18
48
1
60
0
100
AcDbCircle
39
0
10
0
20
-2.2
30
0
40
0.799999999999998
210
0
220
0
230
1
100
AcDbArc
50
270
51
302.277165
0
ARC
5
C7
100
AcDbEntity
8
SK2
62
256
6
ByLayer
370
13
48
1
60
0
100
AcDbCircle
39
0
10
46
20
0
30
0
40
30.6531387366929
210
0
220
0
230
1
100
AcDbArc
50
6.086226
51
70.000317
0
ARC
5
C8
100
AcDbEntity
8
SK2
62
256
6
ByLayer
370
13
48
1
60
0
100
AcDbCircle
39
0
10
46
20
0
30
0
40
30.6531387366929
210
0
220
0
230
1
100
AcDbArc
50
289.999683
51
353.913774
0
ELLIPSE
5
C9
100
AcDbEntity
8
1
62
256
6
ByLayer
370
13
48
1
60
0
100
AcDbEllipse
10
3.680368
20
0.696525
30
0
11
-0.0529504923462846
21
-0.0848306864305957
31
0
210
0
220
0
230
1
40
0.304995
41
-1.1182583243752
42
-0.535561238665901
0
ELLIPSE
5
CA
100
AcDbEntity
8
1
62
256
6
ByLayer
370
13
48
1
60
0
100
AcDbEllipse
10
3.750265
20
0.657424
30
0
11
-0.0450798956248417
21
-0.0892625509967835
31
0
210
0
220
0
230
1
40
0.113319
41
-0.188569623116369
42
1.353898725398
0
ELLIPSE
5
CB
100
AcDbEntity
8
1
62
256
6
ByLayer
370
18
48
1
60
0
100
AcDbEllipse
10
3.75
20
-2.862104
30
0
11
-0.25
21
3.06151588455594E-17
31
0
210
0
220
0
230
1
40
1
41
-1.56598772418518
42
-0.562544055281498
0
ELLIPSE
5
CC
100
AcDbEntity
8
1
62
256
6
ByLayer
370
18
48
1
60
0
100
AcDbEllipse
10
3.75
20
2.862104
30
0
11
-0.25
21
3.06151588455594E-17
31
0
210
0
220
0
230
1
40
1
41
0.558287830349695
42
1.58817878781819
0
POINT
5
70
100
AcDbEntity
8
81
62
256
6
ByLayer
370
18
48
1
60
0
100
AcDbPoint
10
46
20
0
30
0
39
0
210
0
220
0
230
1
50
360
0
POINT
5
72
100
AcDbEntity
8
80
62
256
6
ByLayer
370
18
48
1
60
0
100
AcDbPoint
10
0
20
0
30
0
39
0
210
0
220
0
230
1
50
360
0
POINT
5
74
100
AcDbEntity
8
1
62
256
6
ByLayer
370
18
48
1
60
0
100
AcDbPoint
10
-214.348431
20
-200
30
0
39
0
210
0
220
0
230
1
50
360
0
POINT
5
76
100
AcDbEntity
8
1
62
256
6
ByLayer
370
13
48
1
60
1
100
AcDbPoint
10
-37.5
20
0
30
0
39
0
210
0
220
0
230
1
50
360
0
POINT
5
77
100
AcDbEntity
8
1
62
256
6
ByLayer
370
13
48
1
60
1
100
AcDbPoint
10
46.519698
20
0
30
0
39
0
210
0
220
0
230
1
50
360
0
POINT
5
78
100
AcDbEntity
8
1
62
256
6
ByLayer
370
18
48
1
60
1
100
AcDbPoint
10
-36
20
-3
30
0
39
0
210
0
220
0
230
1
50
360
0
POINT
5
79
100
AcDbEntity
8
1
62
256
6
ByLayer
370
18
48
1
60
1
100
AcDbPoint
10
46
20
-2.775
30
0
39
0
210
0
220
0
230
1
50
360
0
POINT
5
7A
100
AcDbEntity
8
1
62
256
6
ByLayer
370
18
48
1
60
1
100
AcDbPoint
10
46
20
-2.775
30
0
39
0
210
0
220
0
230
1
50
360
0
POINT
5
7B
100
AcDbEntity
8
1
62
256
6
ByLayer
370
18
48
1
60
1
100
AcDbPoint
10
2
20
-2.775
30
0
39
0
210
0
220
0
230
1
50
360
0
POINT
5
7C
100
AcDbEntity
8
1
62
256
6
ByLayer
370
18
48
1
60
1
100
AcDbPoint
10
46
20
-2.775
30
0
39
0
210
0
220
0
230
1
50
360
0
POINT
5
7D
100
AcDbEntity
8
1
62
256
6
ByLayer
370
18
48
1
60
1
100
AcDbPoint
10
11
20
-2.775
30
0
39
0
210
0
220
0
230
1
50
360
0
POINT
5
7E
100
AcDbEntity
8
1
62
256
6
ByLayer
370
18
48
1
60
1
100
AcDbPoint
10
-36
20
-3
30
0
39
0
210
0
220
0
230
1
50
360
0
POINT
5
7F
100
AcDbEntity
8
1
62
256
6
ByLayer
370
18
48
1
60
1
100
AcDbPoint
10
0
20
-3
30
0
39
0
210
0
220
0
230
1
50
360
0
POINT
5
80
100
AcDbEntity
8
1
62
256
6
ByLayer
370
18
48
1
60
1
100
AcDbPoint
10
0
20
-3
30
0
39
0
210
0
220
0
230
1
50
360
0
POINT
5
81
100
AcDbEntity
8
1
62
256
6
ByLayer
370
18
48
1
60
1
100
AcDbPoint
10
46
20
-2.775
30
0
39
0
210
0
220
0
230
1
50
360
0
SPLINE
5
CD
100
AcDbEntity
8
1
62
256
6
ByLayer
370
18
48
1
60
0
100
AcDbSpline
70
4
71
3
72
8
73
4
40
0
40
0
40
0
40
0
40
1
40
1
40
1
40
1
41
1
10
45.7580041450738
20
0.883718854123885
30
0
41
1
10
45.8393329793051
20
0.655538129924338
30
0
41
1
10
45.9186612817653
20
0.426635134843593
30
0
41
1
10
45.995960895918
20
0.196999703261383
30
0
0
SPLINE
5
CE
100
AcDbEntity
8
1
62
256
6
ByLayer
370
18
48
1
60
0
100
AcDbSpline
70
4
71
3
72
26
73
22
40
0
40
0
40
0
40
0
40
0.0052522976447286
40
0.0052522976447286
40
0.0605160588866681
40
0.0605160588866681
40
0.115779820128608
40
0.115779820128608
40
0.171043581370547
40
0.171043581370547
40
0.226307342612486
40
0.226307342612486
40
0.336834865096417
40
0.336834865096417
40
0.447362387580348
40
0.447362387580348
40
0.557889910064278
40
0.557889910064278
40
0.778944955032139
40
0.778944955032139
40
1
40
1
40
1
40
1
41
1
10
45.2985248675635
20
-0.240574820170139
30
0
41
1
10
45.2989075968096
20
-0.240632005881906
30
0
41
1
10
45.299295860328
20
-0.240693919333381
30
0
41
1
10
45.3038316344818
20
-0.24146037966409
30
0
41
1
10
45.3086089619144
20
-0.242686404085504
30
0
41
1
10
45.3188662277425
20
-0.245886310315797
30
0
41
1
10
45.324368102671
20
-0.247860829181917
30
0
41
1
10
45.3359522235286
20
-0.252394288688322
30
0
41
1
10
45.342035671467
20
-0.254954519487256
30
0
41
1
10
45.3546778913692
20
-0.260560151385022
30
0
41
1
10
45.361239707244
20
-0.263608409631047
30
0
41
1
10
45.3812274882529
20
-0.273232234454554
30
0
41
1
10
45.3950526561179
20
-0.280323411567821
30
0
41
1
10
45.423380489327
20
-0.295523120715075
30
0
41
1
10
45.4378871898117
20
-0.303636622190254
30
0
41
1
10
45.4674037250632
20
-0.320754303148561
30
0
41
1
10
45.4824494927355
20
-0.329783128237807
30
0
41
1
10
45.5275695398468
20
-0.357784912471288
30
0
41
1
10
45.5578114196123
20
-0.377744528506298
30
0
41
1
10
45.6180112936068
20
-0.420644250855219
30
0
41
1
10
45.647983880445
20
-0.443552655284378
30
0
41
1
10
45.6774198765807
20
-0.468789128921117
30
0
0
SPLINE
5
CF
100
AcDbEntity
8
1
62
256
6
ByLayer
370
13
48
1
60
0
100
AcDbSpline
70
4
71
3
72
12
73
8
40
0
40
0
40
0
40
0
40
0.5
40
0.5
40
0.75
40
0.75
40
1
40
1
40
1
40
1
41
1
10
3.75044222987785
20
0.633226396405831
30
0
41
1
10
3.73016135906804
20
0.639141363201446
30
0
41
1
10
3.71028298918989
20
0.645478385704905
30
0
41
1
10
3.68106851259407
20
0.655659803886039
30
0
41
1
10
3.67143185848906
20
0.659167233498152
30
0
41
1
10
3.65237434426993
20
0.666429906356825
30
0
41
1
10
3.64302537480754
20
0.67015883863931
30
0
41
1
10
3.63394718993229
20
0.673956866655942
30
0
0
SPLINE
5
D0
100
AcDbEntity
8
1
62
256
6
ByLayer
370
18
48
1
60
0
100
AcDbSpline
70
4
71
3
72
8
73
4
40
0
40
0
40
0
40
0
40
1
40
1
40
1
40
1
41
1
10
3.63394718993229
20
0.610190055393872
30
0
41
1
10
3.61353207736332
20
0.622008357358311
30
0
41
1
10
3.59545979035315
20
0.636357785136255
30
0
41
1
10
3.57940562745074
20
0.652895951781261
30
0
0
SPLINE
5
D1
100
AcDbEntity
8
1
62
256
6
ByLayer
370
13
48
1
60
0
100
AcDbSpline
70
4
71
3
72
14
73
10
40
0
40
0
40
0
40
0
40
0.500000000000001
40
0.500000000000001
40
0.625000000000001
40
0.625000000000001
40
0.75
40
0.75
40
1
40
1
40
1
40
1
41
1
10
3.63394718993229
20
0.673956866655971
30
0
41
1
10
3.60961519407212
20
0.684136611092498
30
0
41
1
10
3.58856077579747
20
0.696947099245648
30
0
41
1
10
3.56579004355746
20
0.715893990616735
30
0
41
1
10
3.56142464383984
20
0.71983202660391
30
0
41
1
10
3.55320447033458
20
0.727859148170097
30
0
41
1
10
3.54932783056026
20
0.731965745969603
30
0
41
1
10
3.53836352777842
20
0.744553669214156
30
0
41
1
10
3.53193778029794
20
0.753301731222933
30
0
41
1
10
3.5263553968808
20
0.762396044708737
30
0
0
SPLINE
5
D2
100
AcDbEntity
8
1
62
256
6
ByLayer
370
18
48
1
60
0
100
AcDbSpline
70
4
71
3
72
23
73
19
40
0
40
0
40
0
40
0
40
0.249999999999964
40
0.249999999999964
40
0.312499999999972
40
0.312499999999972
40
0.374999999999981
40
0.374999999999981
40
0.499999999999973
40
0.499999999999973
40
0.624999999999965
40
0.624999999999965
40
0.687499999999961
40
0.687499999999961
40
0.749999999999956
40
0.749999999999956
40
0.874999999999978
40
1
40
1
40
1
40
1
41
1
10
45.9501343333972
20
0.0430743049573152
30
0
41
1
10
45.9344469622309
20
-0.0092647243801878
30
0
41
1
10
45.9165034364404
20
-0.0604772561354423
30
0
41
1
10
45.8912376803267
20
-0.123023213137827
30
0
41
1
10
45.8860411580366
20
-0.135458105499339
30
0
41
1
10
45.8753537296025
20
-0.160173931124263
30
0
41
1
10
45.8698411364961
20
-0.172500570659821
30
0
41
1
10
45.8530529227741
20
-0.208794397396929
30
0
41
1
10
45.8415173975516
20
-0.232118111719188
30
0
41
1
10
45.8177963539298
20
-0.27699693145135
30
0
41
1
10
45.8056110984457
20
-0.298552785272221
30
0
41
1
10
45.7868409951666
20
-0.329477466383963
30
0
41
1
10
45.7805018988976
20
-0.33955010508015
30
0
41
1
10
45.7676529590127
20
-0.359199441030711
30
0
41
1
10
45.7611440711428
20
-0.368769722280234
30
0
41
1
10
45.7417366178001
20
-0.396164971724829
30
0
41
1
10
45.7159291380048
20
-0.429585826491404
30
0
41
1
10
45.6902458864458
20
-0.456808506441661
30
0
41
1
10
45.6774198765807
20
-0.468789128921088
30
0
0
SPLINE
5
D3
100
AcDbEntity
8
1
62
256
6
ByLayer
370
18
48
1
60
0
100
AcDbSpline
70
4
71
3
72
58
73
54
40
0
40
0
40
0
40
0
40
0.0312500000000003
40
0.0312500000000003
40
0.0625000000000008
40
0.0625000000000008
40
0.0937500000000014
40
0.0937500000000014
40
0.125000000000002
40
0.125000000000002
40
0.156250000000002
40
0.156250000000002
40
0.187500000000003
40
0.218750000000003
40
0.218750000000003
40
0.250000000000004
40
0.250000000000004
40
0.281250000000004
40
0.281250000000004
40
0.312500000000005
40
0.312500000000005
40
0.375000000000025
40
0.375000000000025
40
0.406250000000026
40
0.406250000000026
40
0.437500000000026
40
0.437500000000026
40
0.500000000000045
40
0.500000000000045
40
0.531250000000047
40
0.531250000000047
40
0.562500000000048
40
0.562500000000048
40
0.625000000000051
40
0.625000000000051
40
0.656250000000047
40
0.656250000000047
40
0.687500000000043
40
0.687500000000043
40
0.750000000000035
40
0.750000000000035
40
0.812500000000027
40
0.812500000000027
40
0.843750000000022
40
0.843750000000022
40
0.875000000000018
40
0.906250000000013
40
0.906250000000013
40
0.937500000000009
40
0.937500000000009
40
0.968750000000004
40
0.968750000000004
40
1
40
1
40
1
40
1
41
1
10
45.6774198765807
20
-0.46878912892106
30
0
41
1
10
45.6754918690261
20
-0.47835876688734
30
0
41
1
10
45.6732510418572
20
-0.488008428196565
30
0
41
1
10
45.6682550596087
20
-0.507181051832703
30
0
41
1
10
45.6654906826339
20
-0.516749630034269
30
0
41
1
10
45.6594561257497
20
-0.53585598396441
30
0
41
1
10
45.6561677608915
20
-0.545435337281077
30
0
41
1
10
45.6492774113363
20
-0.564088293777417
30
0
41
1
10
45.6456600548963
20
-0.573217321486197
30
0
41
1
10
45.6381111729329
20
-0.591106851357466
30
0
41
1
10
45.634173572487
20
-0.599879739844482
30
0
41
1
10
45.6260229421125
20
-0.617014238807002
30
0
41
1
10
45.617712811494
20
-0.633497967712287
30
0
41
1
10
45.6091202996472
20
-0.648780345261798
30
0
41
1
10
45.600396256944
20
-0.663484791728422
30
0
41
1
10
45.5959496681192
20
-0.670575528059516
30
0
41
1
10
45.5870289908723
20
-0.684028516757223
30
0
41
1
10
45.5825621344029
20
-0.690383848962767
30
0
41
1
10
45.5736165566144
20
-0.702379828799366
30
0
41
1
10
45.5691180178157
20
-0.708043405772827
30
0
41
1
10
45.5557387671558
20
-0.723804682178809
30
0
41
1
10
45.5470278612915
20
-0.732637423633264
30
0
41
1
10
45.5342346771176
20
-0.743509696528463
30
0
41
1
10
45.530016062311
20
-0.746734129266429
30
0
41
1
10
45.521666269108
20
-0.752365747703067
30
0
41
1
10
45.517517942369
20
-0.754778401292526
30
0
41
1
10
45.50543707138
20
-0.760623972832576
30
0
41
1
10
45.4978018139409
20
-0.762735088437665
30
0
41
1
10
45.486933334391
20
-0.763179954355678
30
0
41
1
10
45.4834086124096
20
-0.762871200670105
30
0
41
1
10
45.4765570644614
20
-0.761285820908455
30
0
41
1
10
45.4732612187664
20
-0.760011798589687
30
0
41
1
10
45.4638765790552
20
-0.754794496225287
30
0
41
1
10
45.4582297900823
20
-0.749462200432674
30
0
41
1
10
45.4506894049028
20
-0.738470906655408
30
0
41
1
10
45.4483176466306
20
-0.734269511210812
30
0
41
1
10
45.4439932093751
20
-0.724954123960345
30
0
41
1
10
45.4420410265765
20
-0.719856476801226
30
0
41
1
10
45.4368109020131
20
-0.703235694920295
30
0
41
1
10
45.4341449356747
20
-0.690386445772788
30
0
41
1
10
45.4306968691357
20
-0.660775203390472
30
0
41
1
10
45.4299915531719
20
-0.644687362488611
30
0
41
1
10
45.4305224356793
20
-0.6185989147817
30
0
41
1
10
45.4309717679085
20
-0.609518635141313
30
0
41
1
10
45.4324384675606
20
-0.59089734541476
30
0
41
1
10
45.4344486241132
20
-0.572049112491413
30
0
41
1
10
45.4375386575769
20
-0.552764015124438
30
0
41
1
10
45.4411905614315
20
-0.533259500529908
30
0
41
1
10
45.44331099542
20
-0.523357909021257
30
0
41
1
10
45.4479994769741
20
-0.503934520750647
30
0
41
1
10
45.4505787394505
20
-0.494341091847815
30
0
41
1
10
45.4562029414586
20
-0.475385464159302
30
0
41
1
10
45.4592604407977
20
-0.46598841932996
30
0
41
1
10
45.4625302044402
20
-0.456785776645234
30
0
0
SPLINE
5
D4
100
AcDbEntity
8
1
62
256
6
ByLayer
370
18
48
1
60
0
100
AcDbSpline
70
4
71
3
72
8
73
4
40
0
40
0
40
0
40
0
40
1
40
1
40
1
40
1
41
1
10
45.4625302044402
20
-0.45678577664529
30
0
41
1
10
45.460775470022
20
-0.454062185076651
30
0
41
1
10
45.4590397057373
20
-0.451266809979529
30
0
41
1
10
45.4573222334517
20
-0.448400508321669
30
0
0
SPLINE
5
D5
100
AcDbEntity
8
1
62
256
6
ByLayer
370
18
48
1
60
0
100
AcDbSpline
70
4
71
3
72
10
73
6
40
0
40
0
40
0
40
0
40
0.5
40
0.5
40
1
40
1
40
1
40
1
41
1
10
45.4573222334518
20
-0.448400508321413
30
0
41
1
10
45.3819653112062
20
-0.322636807232385
30
0
41
1
10
45.2985882929905
20
-0.189588502139543
30
0
41
1
10
45.1146429415455
20
0.09212287408522
30
0
41
1
10
45.0140709208085
20
0.240789294557629
30
0
41
1
10
44.9044887620318
20
0.397639568176516
30
0
0
SPLINE
5
D6
100
AcDbEntity
8
1
62
256
6
ByLayer
370
18
48
1
60
0
100
AcDbSpline
70
4
71
3
72
8
73
4
40
0
40
0
40
0
40
0
40
1
40
1
40
1
40
1
41
1
10
45.7580041450738
20
-0.883718854123885
30
0
41
1
10
45.8393329793067
20
-0.655538129919904
30
0
41
1
10
45.9186612817684
20
-0.426635134834669
30
0
41
1
10
45.9959608959225
20
-0.19699970324794
30
0
0
SPLINE
5
D7
100
AcDbEntity
8
1
62
256
6
ByLayer
370
18
48
1
60
0
100
AcDbSpline
70
4
71
3
72
8
73
4
40
0
40
0
40
0
40
0
40
1
40
1
40
1
40
1
41
1
10
45.995960895918
20
0.196999703261355
30
0
41
1
10
46.0013495640908
20
0.0655886266554262
30
0
41
1
10
46.0013431757439
20
-0.0657444164486378
30
0
41
1
10
45.9959608959184
20
-0.196999703251919
30
0
0
SPLINE
5
D8
100
AcDbEntity
8
1
62
256
6
ByLayer
370
18
48
1
60
0
100
AcDbSpline
70
4
71
3
72
8
73
4
40
0
40
0
40
0
40
0
40
1
40
1
40
1
40
1
41
1
10
45.995960895918
20
0.196999703261326
30
0
41
1
10
45.9807794660237
20
0.14566109794228
30
0
41
1
10
45.9655037984786
20
0.0943526788334168
30
0
41
1
10
45.9501343333971
20
0.0430743049573152
30
0
0
SPLINE
5
D9
100
AcDbEntity
8
1
62
256
6
ByLayer
370
18
48
1
60
0
100
AcDbSpline
70
4
71
3
72
21
73
17
40
0
40
0
40
0
40
0
40
0.499999999999992
40
0.499999999999992
40
0.749999999999955
40
0.874999999999971
40
0.874999999999971
40
0.937499999999978
40
0.937499999999978
40
0.968749999999985
40
0.968749999999985
40
0.984375000000025
40
0.984375000000025
40
0.992187500000012
40
0.992187500000012
40
1
40
1
40
1
40
1
41
1
10
44.9921634837617
20
-2.77492060925968
30
0
41
1
10
45.0032426290554
20
-2.75102162680039
30
0
41
1
10
45.0145436618452
20
-2.72710704868737
30
0
41
1
10
45.031831196397
20
-2.69117827999409
30
0
41
1
10
45.0405584646479
20
-2.67320191073881
30
0
41
1
10
45.0493972956275
20
-2.65525911755469
30
0
41
1
10
45.053834218924
20
-2.64629755366875
30
0
41
1
10
45.055314900998
20
-2.64331709442163
30
0
41
1
10
45.0575451837391
20
-2.63882832922707
30
0
41
1
10
45.0582908829568
20
-2.63732595339914
30
0
41
1
10
45.0594131713494
20
-2.63506174538321
30
0
41
1
10
45.0597874195225
20
-2.63430727265879
30
0
41
1
10
45.0603451657477
20
-2.63319216288002
30
0
41
1
10
45.0605306176372
20
-2.6328225938768
30
0
41
1
10
45.0608986981272
20
-2.63209558469779
30
0
41
1
10
45.0610949718669
20
-2.63170071735598
30
0
41
1
10
45.0612227441774
20
-2.63152823790375
30
0
0
SPLINE
5
DA
100
AcDbEntity
8
1
62
256
6
ByLayer
370
18
48
1
60
0
100
AcDbSpline
70
4
71
3
72
30
73
26
40
0
40
0
40
0
40
0
40
0.124999999999994
40
0.124999999999994
40
0.249999999999989
40
0.249999999999989
40
0.374999999999983
40
0.374999999999983
40
0.499999999999977
40
0.499999999999977
40
0.531249999999976
40
0.531249999999976
40
0.562499999999975
40
0.562499999999975
40
0.624999999999973
40
0.624999999999973
40
0.749999999999976
40
0.749999999999976
40
0.812499999999977
40
0.812499999999977
40
0.843749999999983
40
0.843749999999983
40
0.874999999999988
40
0.874999999999988
40
1
40
1
40
1
40
1
41
1
10
45.0612227441781
20
-2.63152823790412
30
0
41
1
10
45.0879952832628
20
-2.55754132763121
30
0
41
1
10
45.114628954618
20
-2.48322269025232
30
0
41
1
10
45.1678112491823
20
-2.33403629262304
30
0
41
1
10
45.1943701574171
20
-2.25914635954396
30
0
41
1
10
45.2475289150894
20
-2.10912065346849
30
0
41
1
10
45.2741423570052
20
-2.03395252955619
30
0
41
1
10
45.3275440898296
20
-1.88348061498263
30
0
41
1
10
45.3543304185019
20
-1.80818283866654
30
0
41
1
10
45.3879378410746
20
-1.71405467414004
30
0
41
1
10
45.3946449954345
20
-1.69522533859532
30
0
41
1
10
45.4082319973657
20
-1.65758671951829
30
0
41
1
10
45.4150917347167
20
-1.63875611941114
30
0
41
1
10
45.4358340855746
20
-1.58245628079493
30
0
41
1
10
45.4498793349902
20
-1.54518411696773
30
0
41
1
10
45.4928231958972
20
-1.43422364017175
30
0
41
1
10
45.522546452858
20
-1.36140904682958
30
0
41
1
10
45.569374074365
20
-1.25419382344518
30
0
41
1
10
45.5853531282498
20
-1.21878577741336
30
0
41
1
10
45.6099275974522
20
-1.16618131669983
30
0
41
1
10
45.6182203961197
20
-1.14873148145205
30
0
41
1
10
45.6350205790611
20
-1.11400762398489
30
0
41
1
10
45.643516921093
20
-1.09675762490824
30
0
41
1
10
45.6862634894553
20
-1.01154255083139
30
0
41
1
10
45.7215258675301
20
-0.946244954150757
30
0
41
1
10
45.7580041450742
20
-0.883718854123316
30
0
0
SPLINE
5
DB
100
AcDbEntity
8
1
62
256
6
ByLayer
370
18
48
1
60
0
100
AcDbSpline
70
4
71
3
72
84
73
80
40
0
40
0
40
0
40
0
40
0.0108573056371207
40
0.0108573056371207
40
0.0376655198962012
40
0.0376655198962012
40
0.0644737341552816
40
0.0644737341552816
40
0.0912819484143621
40
0.0912819484143621
40
0.118090162673442
40
0.118090162673442
40
0.171706591191606
40
0.171706591191606
40
0.198514805450686
40
0.198514805450686
40
0.225323019709766
40
0.225323019709766
40
0.252131233968847
40
0.252131233968847
40
0.278939448227927
40
0.278939448227927
40
0.305747662487008
40
0.305747662487008
40
0.332555876746088
40
0.332555876746088
40
0.386172305264249
40
0.386172305264249
40
0.412980519523329
40
0.412980519523329
40
0.43978873378241
40
0.43978873378241
40
0.46659694804149
40
0.46659694804149
40
0.493405162300571
40
0.493405162300571
40
0.520213376559651
40
0.520213376559651
40
0.533617483689191
40
0.533617483689191
40
0.547021590818731
40
0.547021590818731
40
0.573829805077812
40
0.573829805077812
40
0.600638019336892
40
0.600638019336892
40
0.627446233595973
40
0.627446233595973
40
0.654254447855053
40
0.654254447855053
40
0.681062662114134
40
0.681062662114134
40
0.707870876373214
40
0.707870876373214
40
0.734679090632295
40
0.734679090632295
40
0.748083197761835
40
0.748083197761835
40
0.761487304891375
40
0.761487304891375
40
0.788295519150455
40
0.788295519150455
40
0.815103733409536
40
0.815103733409536
40
0.841911947668616
40
0.841911947668616
40
0.855316054798156
40
0.855316054798156
40
0.868720161927697
40
0.868720161927697
40
0.895528376186779
40
0.895528376186779
40
0.92233659044586
40
0.92233659044586
40
0.949144804704942
40
0.949144804704942
40
0.975953018964023
40
0.975953018964023
40
1
40
1
40
1
40
1
41
1
10
40.1944476990918
20
-1.68747270815274
30
0
41
1
10
40.13772589619
20
-1.66537116688556
30
0
41
1
10
40.0810026236542
20
-1.64297052612793
30
0
41
1
10
39.8842182605785
20
-1.56426985822108
30
0
41
1
10
39.7441681907073
20
-1.50649588083149
30
0
41
1
10
39.4642526115667
20
-1.38795402766212
30
0
41
1
10
39.3243370452429
20
-1.32716835946548
30
0
41
1
10
39.0444125302892
20
-1.20289281077322
30
0
41
1
10
38.9043752954774
20
-1.13935558409551
30
0
41
1
10
38.6243433381527
20
-1.00970366857683
30
0
41
1
10
38.4845366550037
20
-0.943792109610314
30
0
41
1
10
38.0653723320348
20
-0.743489014852315
30
0
41
1
10
37.7863884393751
20
-0.606341676532395
30
0
41
1
10
37.3673748187852
20
-0.397598578736478
30
0
41
1
10
37.2276220914448
20
-0.327502359341992
30
0
41
1
10
36.9479000741939
20
-0.186387442095167
30
0
41
1
10
36.8078207977086
20
-0.115403240779273
30
0
41
1
10
36.5276932259064
20
0.0264745340272441
30
0
41
1
10
36.3876174586859
20
0.0974816955199742
30
0
41
1
10
36.107677237721
20
0.238998462901492
30
0
41
1
10
35.9677663189927
20
0.309521996113716
30
0
41
1
10
35.6878743141093
20
0.449729909682873
30
0
41
1
10
35.5478883221992
20
0.519405177372278
30
0
41
1
10
35.2678044404879
20
0.657827054490724
30
0
41
1
10
35.1279980708695
20
0.72635770607377
30
0
41
1
10
34.7088134710081
20
0.928893177167367
30
0
41
1
10
34.4298246594144
20
1.06023124470155
30
0
41
1
10
34.0108695425988
20
1.24959607436767
30
0
41
1
10
33.8711284508153
20
1.31142896455626
30
0
41
1
10
33.5914452075289
20
1.43246668561855
30
0
41
1
10
33.4514169127263
20
1.4916835929655
30
0
41
1
10
33.1712996261655
20
1.60654389328815
30
0
41
1
10
33.0312081726963
20
1.66226707023563
30
0
41
1
10
32.7511654050016
20
1.76996719754163
30
0
41
1
10
32.611234874919
20
1.82190498053447
30
0
41
1
10
32.331359740989
20
1.92168954087191
30
0
41
1
10
32.1914017709484
20
1.96952332418084
30
0
41
1
10
31.9814059018706
20
2.03814790152978
30
0
41
1
10
31.9113725386478
20
2.0605110486901
30
0
41
1
10
31.7713961048592
20
2.10408015168562
30
0
41
1
10
31.7014603558521
20
2.12528566164789
30
0
41
1
10
31.4917399300203
20
2.18706070254831
30
0
41
1
10
31.3520575169871
20
2.22581758027556
30
0
41
1
10
31.0728280073112
20
2.29845630308114
30
0
41
1
10
30.9332662734322
20
2.33230565949083
30
0
41
1
10
30.6540488559486
20
2.39489307183641
30
0
41
1
10
30.5143820675763
20
2.42362528245275
30
0
41
1
10
30.2348597675098
20
2.47594408008902
30
0
41
1
10
30.0950077215186
20
2.49955491156254
30
0
41
1
10
29.8149278344847
20
2.54125910991181
30
0
41
1
10
29.6748467862047
20
2.55931293146645
30
0
41
1
10
29.3947705362673
20
2.58987798170338
30
0
41
1
10
29.2548312492503
20
2.60235605857116
30
0
41
1
10
28.974945950115
20
2.62166273462037
30
0
41
1
10
28.8349914945977
20
2.62849505524807
30
0
41
1
10
28.6249670286151
20
2.63451251737501
30
0
41
1
10
28.5549251377138
20
2.63581085970401
30
0
41
1
10
28.4149442062742
20
2.63697525309789
30
0
41
1
10
28.3450097186456
20
2.63684371578464
30
0
41
1
10
28.1353081415022
20
2.6342928454533
30
0
41
1
10
27.9956280798065
20
2.62968874348448
30
0
41
1
10
27.7164211488336
20
2.61476314332503
30
0
41
1
10
27.576877914562
20
2.6044442748522
30
0
41
1
10
27.2976968810594
20
2.57819905464464
30
0
41
1
10
27.1580539977549
20
2.56227580965924
30
0
41
1
10
26.9484097918353
20
2.53429155794171
30
0
41
1
10
26.8785053136091
20
2.52427697877735
30
0
41
1
10
26.7386354592935
20
2.50287048508594
30
0
41
1
10
26.6686313300678
20
2.49147524556091
30
0
41
1
10
26.458684995218
20
2.45529581467937
30
0
41
1
10
26.3190996312363
20
2.42857361301526
30
0
41
1
10
26.0405878173084
20
2.37008738490445
30
0
41
1
10
25.90165780538
20
2.3383137234149
30
0
41
1
10
25.6242398257319
20
2.2699484889188
30
0
41
1
10
25.4857485374316
20
2.23336502345356
30
0
41
1
10
25.2090387545585
20
2.15565964508983
30
0
41
1
10
25.0708587127908
20
2.11450387596392
30
0
41
1
10
24.8088581082748
20
2.03232992605032
30
0
41
1
10
24.6849971772494
20
1.99174715233139
30
0
41
1
10
24.5611070482101
20
1.94951014771314
30
0
0
SPLINE
5
DC
100
AcDbEntity
8
1
62
256
6
ByLayer
370
18
48
1
60
0
100
AcDbSpline
70
4
71
3
72
12
73
8
40
0
40
0
40
0
40
0
40
0.24999999999999
40
0.24999999999999
40
0.499999999999979
40
0.499999999999979
40
1
40
1
40
1
40
1
41
1
10
44.9044887620318
20
0.397639568176544
30
0
41
1
10
44.8866211604546
20
0.391169310444638
30
0
41
1
10
44.8687861979189
20
0.383830193310217
30
0
41
1
10
44.8334608824829
20
0.368034683573313
30
0
41
1
10
44.8159615077948
20
0.359524496204841
30
0
41
1
10
44.7640976923609
20
0.331561223525426
30
0
41
1
10
44.7303355324152
20
0.309912829908853
30
0
41
1
10
44.6975858045293
20
0.285102987415968
30
0
0
SPLINE
5
DD
100
AcDbEntity
8
1
62
256
6
ByLayer
370
18
48
1
60
0
100
AcDbSpline
70
4
71
3
72
26
73
22
40
0
40
0
40
0
40
0
40
0.275805081764104
40
0.275805081764104
40
0.344756352205147
40
0.344756352205147
40
0.413707622646191
40
0.413707622646191
40
0.551610163528278
40
0.551610163528278
40
0.620561433969336
40
0.620561433969336
40
0.689512704410393
40
0.689512704410393
40
0.75846397485145
40
0.75846397485145
40
0.827415245292507
40
0.827415245292507
40
0.965317786174621
40
0.965317786174621
40
1
40
1
40
1
40
1
41
1
10
44.904488762032
20
0.397639568176373
30
0
41
1
10
44.8708300146706
20
0.427218981742016
30
0
41
1
10
44.8383291027932
20
0.455128279850726
30
0
41
1
10
44.799849671941
20
0.486918390137959
30
0
41
1
10
44.7922604964253
20
0.493122487811235
30
0
41
1
10
44.7773061871543
20
0.505207514959466
30
0
41
1
10
44.7699266088767
20
0.511099686817289
30
0
41
1
10
44.7482594760299
20
0.528177014045184
30
0
41
1
10
44.7344470480565
20
0.538764933525613
30
0
41
1
10
44.7147328974063
20
0.553380783571157
30
0
41
1
10
44.708329741142
20
0.558040705219611
30
0
41
1
10
44.6959034502905
20
0.566881581177086
30
0
41
1
10
44.6898923353179
20
0.571047386342684
30
0
41
1
10
44.6781573777589
20
0.579016927616237
30
0
41
1
10
44.672404337916
20
0.582857463025732
30
0
41
1
10
44.6611581523144
20
0.590210971535384
30
0
41
1
10
44.6556964018406
20
0.593687478487453
30
0
41
1
10
44.6402363185651
20
0.60305256277374
30
0
41
1
10
44.6310175281052
20
0.608027653927167
30
0
41
1
10
44.6214347906689
20
0.611975366367602
30
0
41
1
10
44.6196116267415
20
0.61264912610082
30
0
41
1
10
44.6178932092383
20
0.613200773649538
30
0
0
SPLINE
5
DE
100
AcDbEntity
8
1
62
256
6
ByLayer
370
18
48
1
60
0
100
AcDbSpline
70
4
71
3
72
26
73
22
40
0
40
0
40
0
40
0
40
0.0289165220881732
40
0.0289165220881732
40
0.136814686300554
40
0.136814686300554
40
0.190763768406762
40
0.190763768406762
40
0.244712850512971
40
0.244712850512971
40
0.352611014725425
40
0.352611014725425
40
0.46050917893788
40
0.46050917893788
40
0.568407343150335
40
0.568407343150335
40
0.784203671575195
40
0.784203671575195
40
0.892101835787598
40
0.892101835787598
40
1
40
1
40
1
40
1
41
1
10
44.7426715296435
20
0.523829862726615
30
0
41
1
10
44.7459745865052
20
0.525985801204655
30
0
41
1
10
44.7493429224395
20
0.52818023678708
30
0
41
1
10
44.765582898842
20
0.538746447434647
30
0
41
1
10
44.7792741465085
20
0.547632325244081
30
0
41
1
10
44.8011977289685
20
0.561701557099298
30
0
41
1
10
44.8087376791659
20
0.566514261533314
30
0
41
1
10
44.8243011657201
20
0.576368779957363
30
0
41
1
10
44.8323466777764
20
0.581424263343763
30
0
41
1
10
44.8570868274297
20
0.596808013879922
30
0
41
1
10
44.8742777416902
20
0.607291685997239
30
0
41
1
10
44.9101241524981
20
0.628470300807408
30
0
41
1
10
44.9287808708281
20
0.639164112279474
30
0
41
1
10
44.9677214392294
20
0.660434782103977
30
0
41
1
10
44.9880403132992
20
0.67102876764389
30
0
41
1
10
45.0515724617032
20
0.701931954740246
30
0
41
1
10
45.095915342288
20
0.720659761191172
30
0
41
1
10
45.165608377236
20
0.744653438628632
30
0
41
1
10
45.1893971184928
20
0.751934691140036
30
0
41
1
10
45.2381193862263
20
0.764672593319659
30
0
41
1
10
45.2627411062877
20
0.770050347097538
30
0
41
1
10
45.287634012617
20
0.774359702895396
30
0
0
SPLINE
5
DF
100
AcDbEntity
8
1
62
256
6
ByLayer
370
18
48
1
60
0
100
AcDbSpline
70
4
71
3
72
14
73
10
40
0
40
0
40
0
40
0
40
0.25
40
0.25
40
0.5
40
0.5
40
0.75
40
0.75
40
1
40
1
40
1
40
1
41
1
10
45.287634012617
20
0.774359702895367
30
0
41
1
10
45.3271198949718
20
0.781195333649265
30
0
41
1
10
45.3665554061383
20
0.788428809182818
30
0
41
1
10
45.4453268707002
20
0.803682093484554
30
0
41
1
10
45.4846580568706
20
0.811739555039708
30
0
41
1
10
45.5631367144237
20
0.829305505444665
30
0
41
1
10
45.6022860143104
20
0.838799552294262
30
0
41
1
10
45.6803465784051
20
0.859667713850541
30
0
41
1
10
45.7192586219365
20
0.871035673257751
30
0
41
1
10
45.7580041450778
20
0.883718854125306
30
0
0
SPLINE
5
E0
100
AcDbEntity
8
1
62
256
6
ByLayer
370
18
48
1
60
0
100
AcDbSpline
70
4
71
3
72
30
73
26
40
0
40
0
40
0
40
0
40
0.124999999999982
40
0.124999999999982
40
0.249999999999964
40
0.249999999999964
40
0.374999999999947
40
0.374999999999947
40
0.499999999999929
40
0.499999999999929
40
0.53124999999993
40
0.53124999999993
40
0.562499999999931
40
0.562499999999931
40
0.62499999999994
40
0.62499999999994
40
0.749999999999951
40
0.749999999999951
40
0.812499999999961
40
0.812499999999961
40
0.843749999999971
40
0.843749999999971
40
0.87499999999998
40
0.87499999999998
40
1
40
1
40
1
40
1
41
1
10
45.0612227441796
20
2.63152823789989
30
0
41
1
10
45.0879952832642
20
2.55754132762723
30
0
41
1
10
45.1146289546193
20
2.4832226902486
30
0
41
1
10
45.1678112491835
20
2.33403629261986
30
0
41
1
10
45.1943701574182
20
2.25914635954101
30
0
41
1
10
45.2475289150903
20
2.10912065346605
30
0
41
1
10
45.274142357006
20
2.03395252955397
30
0
41
1
10
45.3275440898302
20
1.8834806149809
30
0
41
1
10
45.3543304185024
20
1.80818283866506
30
0
41
1
10
45.3879378410751
20
1.71405467413891
30
0
41
1
10
45.394644995435
20
1.69522533859427
30
0
41
1
10
45.4082319973661
20
1.65758671951738
30
0
41
1
10
45.415091734717
20
1.63875611941032
30
0
41
1
10
45.4358340855751
20
1.58245628079348
30
0
41
1
10
45.4498793349907
20
1.545184116966
30
0
41
1
10
45.4928231958979
20
1.43422364016965
30
0
41
1
10
45.5225464528587
20
1.3614090468279
30
0
41
1
10
45.5693740743651
20
1.25419382344495
30
0
41
1
10
45.5853531282496
20
1.21878577741378
30
0
41
1
10
45.6099275974514
20
1.16618131670137
30
0
41
1
10
45.6182203961187
20
1.14873148145401
30
0
41
1
10
45.6350205790597
20
1.11400762398776
30
0
41
1
10
45.643516921092
20
1.09675762491045
30
0
41
1
10
45.686263489455
20
1.01154255083202
30
0
41
1
10
45.7215258675301
20
0.946244954150785
30
0
41
1
10
45.7580041450741
20
0.883718854123316
30
0
0
SPLINE
5
E1
100
AcDbEntity
8
1
62
256
6
ByLayer
370
18
48
1
60
0
100
AcDbSpline
70
4
71
3
72
8
73
4
40
0
40
0
40
0
40
0
40
1
40
1
40
1
40
1
41
1
10
18.25
20
0.985764532279944
30
0
41
1
10
18.25
20
0.98431312337496
30
0
41
1
10
18.25
20
0.982014796772546
30
0
41
1
10
18.25
20
0.97887768656696
30
0
0
SPLINE
5
E2
100
AcDbEntity
8
1
62
256
6
ByLayer
370
18
48
1
60
0
100
AcDbSpline
70
4
71
3
72
22
73
18
40
0
40
0
40
0
40
0
40
0.202757493617962
40
0.202757493617962
40
0.304136240426947
40
0.304136240426947
40
0.405514987235931
40
0.405514987235931
40
0.608272480853893
40
0.608272480853893
40
0.709651227662874
40
0.709651227662874
40
0.811029974471855
40
0.811029974471855
40
0.912408721280836
40
0.912408721280836
40
1
40
1
40
1
40
1
41
1
10
45.0612227441817
20
2.63152823790133
30
0
41
1
10
44.7810478270638
20
2.63996502191853
30
0
41
1
10
44.5012781210689
20
2.63700539177452
30
0
41
1
10
44.0812335187984
20
2.61548316637848
30
0
41
1
10
43.9411136125483
20
2.6054100612543
30
0
41
1
10
43.6613627067302
20
2.57962059210428
30
0
41
1
10
43.5216264651754
20
2.56390559642557
30
0
41
1
10
43.1026590403608
20
2.50854019225758
30
0
41
1
10
42.8236309223097
20
2.46067361274149
30
0
41
1
10
42.4043823051923
20
2.37330461097693
30
0
41
1
10
42.2645634433647
20
2.34155350439687
30
0
41
1
10
41.9845726617339
20
2.27289402690815
30
0
41
1
10
41.844459325166
20
2.23602322559395
30
0
41
1
10
41.5643348211274
20
2.15748781122173
30
0
41
1
10
41.4242750873977
20
2.11581715773238
30
0
41
1
10
41.1633765042594
20
2.03402277728486
30
0
41
1
10
41.0424778931215
20
1.99444980334786
30
0
41
1
10
40.9215553016788
20
1.95330072435786
30
0
0
SPLINE
5
E3
100
AcDbEntity
8
1
62
256
6
ByLayer
370
18
48
1
60
0
100
AcDbSpline
70
4
71
3
72
36
73
32
40
0
40
0
40
0
40
0
40
0.0807415218960025
40
0.0807415218960025
40
0.157346395071337
40
0.157346395071337
40
0.195648831659002
40
0.195648831659002
40
0.233951268246668
40
0.233951268246668
40
0.310556141421999
40
0.310556141421999
40
0.38716101459733
40
0.38716101459733
40
0.463765887772661
40
0.463765887772661
40
0.502068324360328
40
0.502068324360328
40
0.540370760947995
40
0.540370760947995
40
0.616975634123329
40
0.616975634123329
40
0.693580507298664
40
0.693580507298664
40
0.770185380473997
40
0.770185380473997
40
0.846790253649331
40
0.846790253649331
40
0.923395126824666
40
0.923395126824666
40
1
40
1
40
1
40
1
41
1
10
23.7109443360154
20
-1.63506335983919
30
0
41
1
10
23.5648460346539
20
-1.57701869042793
30
0
41
1
10
23.4185269826908
20
-1.51693035532401
30
0
41
1
10
23.1328203703706
20
-1.39607913395918
30
0
41
1
10
22.9934126741552
20
-1.33556832798075
30
0
41
1
10
22.7836729303307
20
-1.24251940057934
30
0
41
1
10
22.713617389367
20
-1.21109182486231
30
0
41
1
10
22.5736631237658
20
-1.14766798665295
30
0
41
1
10
22.5037334423727
20
-1.11565875105612
30
0
41
1
10
22.2940485983156
20
-1.01880680982396
30
0
41
1
10
22.1543977094791
20
-0.953136557627147
30
0
41
1
10
21.8751822759854
20
-0.819971620443056
30
0
41
1
10
21.7356270820473
20
-0.752462071196021
30
0
41
1
10
21.4565359255886
20
-0.615775213866272
30
0
41
1
10
21.3169560968874
20
-0.546678370455169
30
0
41
1
10
21.1073359500132
20
-0.442265100685631
30
0
41
1
10
21.0374303488948
20
-0.407317115811196
30
0
41
1
10
20.8975325495942
20
-0.337176379175872
30
0
41
1
10
20.8275020288347
20
-0.301966696554842
30
0
41
1
10
20.6175121342193
20
-0.196189498468584
30
0
41
1
10
20.4778032657393
20
-0.125552047126291
30
0
41
1
10
20.1987758312223
20
0.0156041646719984
30
0
41
1
10
20.0594551927664
20
0.0861201345497875
30
0
41
1
10
19.7811655570497
20
0.226955015175065
30
0
41
1
10
19.6421636518701
20
0.29720652151795
30
0
41
1
10
19.3641225286251
20
0.436726745575328
30
0
41
1
10
19.2251246611958
20
0.506083579075749
30
0
41
1
10
18.9469848444597
20
0.643620282470835
30
0
41
1
10
18.8078369292441
20
0.711787626162703
30
0
41
1
10
18.5291979885518
20
0.846552406003696
30
0
41
1
10
18.3896971568829
20
0.913132285089063
30
0
41
1
10
18.25
20
0.97887768656696
30
0
0
SPLINE
5
E4
100
AcDbEntity
8
1
62
256
6
ByLayer
370
18
48
1
60
0
100
AcDbSpline
70
4
71
3
72
21
73
17
40
0
40
0
40
0
40
0
40
0.499999999999965
40
0.499999999999965
40
0.749999999999912
40
0.87499999999992
40
0.87499999999992
40
0.937499999999926
40
0.937499999999926
40
0.968749999999929
40
0.968749999999929
40
0.98437499999993
40
0.98437499999993
40
0.992187499999965
40
0.992187499999965
40
1
40
1
40
1
40
1
41
1
10
44.9921634837617
20
2.77492060925971
30
0
41
1
10
45.0032426290561
20
2.75102162679909
30
0
41
1
10
45.0145436618464
20
2.72710704868476
30
0
41
1
10
45.0318311963992
20
2.69117827998952
30
0
41
1
10
45.0405584646506
20
2.67320191073321
30
0
41
1
10
45.0493972956307
20
2.65525911754815
30
0
41
1
10
45.0538342189275
20
2.6462975536617
30
0
41
1
10
45.0553149010016
20
2.64331709441444
30
0
41
1
10
45.0575451837428
20
2.63882832921962
30
0
41
1
10
45.0582908829606
20
2.63732595339153
30
0
41
1
10
45.0594131713532
20
2.63506174537548
30
0
41
1
10
45.0597874195264
20
2.63430727265103
30
0
41
1
10
45.0603451657516
20
2.63319216287235
30
0
41
1
10
45.0605306176411
20
2.63282259386907
30
0
41
1
10
45.060898698131
20
2.63209558469038
30
0
41
1
10
45.0610949718712
20
2.63170071734777
30
0
41
1
10
45.0612227441801
20
2.63152823790014
30
0
0
SPLINE
5
E5
100
AcDbEntity
8
1
62
256
6
ByLayer
370
18
48
1
60
0
100
AcDbSpline
70
4
71
3
72
8
73
4
40
0
40
0
40
0
40
0
40
1
40
1
40
1
40
1
41
1
10
3.52700558224649
20
-2.74909393198891
30
0
41
1
10
3.52701745594158
20
-2.74915719233528
30
0
41
1
10
3.52702731504453
20
-2.74025677686788
30
0
41
1
10
3.52703476062752
20
-2.72230472801175
30
0
0
SPLINE
5
E6
100
AcDbEntity
8
1
62
256
6
ByLayer
370
18
48
1
60
0
100
AcDbSpline
70
4
71
3
72
32
73
28
40
0
40
0
40
0
40
0
40
0.129023937878231
40
0.129023937878231
40
0.258047875756463
40
0.258047875756463
40
0.322559844695577
40
0.322559844695577
40
0.387071813634692
40
0.387071813634692
40
0.51609575151292
40
0.51609575151292
40
0.580607720452034
40
0.580607720452034
40
0.612863704921593
40
0.612863704921593
40
0.645119689391152
40
0.645119689391152
40
0.774143627269391
40
0.774143627269391
40
0.838655596208512
40
0.838655596208512
40
0.903167565147634
40
0.903167565147634
40
0.967679534086755
40
0.967679534086755
40
1
40
1
40
1
40
1
41
1
10
6.11594293960573
20
-1.18070556837225
30
0
41
1
10
6.37056638661497
20
-1.30237593687838
30
0
41
1
10
6.62380123557318
20
-1.41903210091988
30
0
41
1
10
7.12846264806041
20
-1.64101185338586
30
0
41
1
10
7.37994637949615
20
-1.74623693959725
30
0
41
1
10
7.75669191494271
20
-1.89433187301606
30
0
41
1
10
7.88218127524451
20
-1.94208860965276
30
0
41
1
10
8.13323247207919
20
-2.03403770252143
30
0
41
1
10
8.25879512144596
20
-2.07823262138314
30
0
41
1
10
8.63565401684176
20
-2.20540147684719
30
0
41
1
10
8.88713263820515
20
-2.28293389690677
30
0
41
1
10
9.2656444695757
20
-2.38713671310217
30
0
41
1
10
9.39201541957385
20
-2.41987175581886
30
0
41
1
10
9.58198911686398
20
-2.46582260911677
30
0
41
1
10
9.64538656100001
20
-2.48061112053938
30
0
41
1
10
9.77236053196106
20
-2.50909620033704
30
0
41
1
10
9.83596930539781
20
-2.52279791524521
30
0
41
1
10
10.1541495682866
20
-2.58847717067405
30
0
41
1
10
10.4072556371433
20
-2.63164703362557
30
0
41
1
10
10.7856078180422
20
-2.68216498341954
30
0
41
1
10
10.9115224490143
20
-2.6966250986093
30
0
41
1
10
11.1630414030856
20
-2.72078169411583
30
0
41
1
10
11.2886347434578
20
-2.73047805713492
30
0
41
1
10
11.539750694795
20
-2.74505750972301
30
0
41
1
10
11.6652818019843
20
-2.74994399356146
30
0
41
1
10
11.8536934721296
20
-2.75368065426545
30
0
41
1
10
11.9165802410782
20
-2.75432556188247
30
0
41
1
10
11.9794749866985
20
-2.75436711094463
30
0
0
SPLINE
5
E7
100
AcDbEntity
8
1
62
256
6
ByLayer
370
18
48
1
60
0
100
AcDbSpline
70
4
71
3
72
77
73
73
40
0
40
0
40
0
40
0
40
4.09111166883E-05
40
4.09111166883E-05
40
0.01026418743353
40
0.01026418743353
40
0.0204874637503718
40
0.0204874637503718
40
0.0613805690177386
40
0.0613805690177386
40
0.102273674285106
40
0.102273674285106
40
0.122720226918789
40
0.122720226918789
40
0.143166779552473
40
0.143166779552473
40
0.184059884819839
40
0.184059884819839
40
0.194283161136681
40
0.194283161136681
40
0.204506437453522
40
0.224952990087203
40
0.224952990087203
40
0.265846095354565
40
0.265846095354565
40
0.306739200621927
40
0.306739200621927
40
0.34763230588929
40
0.34763230588929
40
0.368078858522971
40
0.368078858522971
40
0.378302134839812
40
0.378302134839812
40
0.388525411156652
40
0.429418516424012
40
0.429418516424012
40
0.470311621691373
40
0.470311621691373
40
0.511204726958734
40
0.511204726958734
40
0.552097832226094
40
0.552097832226094
40
0.562321108542934
40
0.562321108542934
40
0.572544384859774
40
0.572544384859774
40
0.592990937493456
40
0.592990937493456
40
0.63388404276082
40
0.63388404276082
40
0.674777148028184
40
0.674777148028184
40
0.715670253295547
40
0.715670253295547
40
0.736116805929229
40
0.736116805929229
40
0.74634008224607
40
0.74634008224607
40
0.756563358562911
40
0.756563358562911
40
0.838349569097639
40
0.838349569097639
40
0.84857284541448
40
0.84857284541448
40
0.858796121731321
40
0.879242674365006
40
0.879242674365006
40
0.920135779632376
40
0.920135779632376
40
0.961028884899746
40
0.961028884899746
40
1
40
1
40
1
40
1
41
1
10
24.524837059712
20
1.96347974126897
30
0
41
1
10
24.5251169102668
20
1.96358421053443
30
0
41
1
10
24.5253967623182
20
1.96368867191268
30
0
41
1
10
24.5956092011754
20
1.98989500123338
30
0
41
1
10
24.6656354496016
20
2.01550402689278
30
0
41
1
10
24.8058999442344
20
2.06569507764755
30
0
41
1
10
24.8760650753121
20
2.09025018898836
30
0
41
1
10
25.2264592634312
20
2.21001980047586
30
0
41
1
10
25.5060287319018
20
2.29644244732614
30
0
41
1
10
26.0653373641474
20
2.44879618704314
30
0
41
1
10
26.3450908761116
20
2.51472127372102
30
0
41
1
10
26.7659826357508
20
2.59713388548016
30
0
41
1
10
26.9061039074981
20
2.62178055470636
30
0
41
1
10
27.1860337920559
20
2.66530180428603
30
0
41
1
10
27.3258695935429
20
2.68418136811977
30
0
41
1
10
27.7453088245531
20
2.73204807110062
30
0
41
1
10
28.0248584757793
20
2.75225406984259
30
0
41
1
10
28.3752228118709
20
2.76255766187575
30
0
41
1
10
28.4453708250145
20
2.76387143845162
30
0
41
1
10
28.5856434016887
20
2.76499594172685
30
0
41
1
10
28.7957260055256
20
2.76442792881394
30
0
41
1
10
29.0049352443573
20
2.75715265562977
30
0
41
1
10
29.4224823469412
20
2.7338131235596
30
0
41
1
10
29.6996845950789
20
2.70652827403686
30
0
41
1
10
30.2533865711684
20
2.6294363517971
30
0
41
1
10
30.5298810009443
20
2.57963324272723
30
0
41
1
10
31.0836245002476
20
2.45844914897052
30
0
41
1
10
31.3608771390678
20
2.3870657137652
30
0
41
1
10
31.7785261211779
20
2.2646481864245
30
0
41
1
10
31.9180396131924
20
2.2212890674908
30
0
41
1
10
32.1278976798122
20
2.15252459332024
30
0
41
1
10
32.1979812223197
20
2.12897035986205
30
0
41
1
10
32.3382253879267
20
2.08068593441973
30
0
41
1
10
32.6882835819581
20
1.95729548235971
30
0
41
1
10
33.0358886116415
20
1.8210004217778
30
0
41
1
10
33.5905307492562
20
1.58904496129114
30
0
41
1
10
33.8671038855709
20
1.46615174587487
30
0
41
1
10
34.4202059776868
20
1.20896360178395
30
0
41
1
10
34.6967223421736
20
1.07464454660263
30
0
41
1
10
35.251257313237
20
0.797208389219293
30
0
41
1
10
35.5292910251256
20
0.654119409372782
30
0
41
1
10
35.8787846537288
20
0.471518062544362
30
0
41
1
10
35.9487801194001
20
0.434809238204821
30
0
41
1
10
36.0889890954052
20
0.361057107997794
30
0
41
1
10
36.1590643060224
20
0.324086525318279
30
0
41
1
10
36.3688771237346
20
0.213155197516528
30
0
41
1
10
36.5083541751689
20
0.139094673769023
30
0
41
1
10
36.925902541676
20
-0.0828135252378672
30
0
41
1
10
37.2030948180847
20
-0.230381337328112
30
0
41
1
10
37.7565752921174
20
-0.522054593023057
30
0
41
1
10
38.0328665237073
20
-0.66615212396178
30
0
41
1
10
38.5861592692454
20
-0.94784922109281
30
0
41
1
10
38.8631843805417
20
-1.0854077746082
30
0
41
1
10
39.2803446040491
20
-1.2848415322768
30
0
41
1
10
39.4196679215087
20
-1.35016942196
30
0
41
1
10
39.6292061449156
20
-1.44615973999203
30
0
41
1
10
39.6991445930725
20
-1.47782263889655
30
0
41
1
10
39.8392327699658
20
-1.54043159708954
30
0
41
1
10
39.9093623957603
20
-1.57136782231871
30
0
41
1
10
40.5396180729694
20
-1.84549570067205
30
0
41
1
10
41.0968995382379
20
-2.06000197828766
30
0
41
1
10
41.72768091015
20
-2.25881428853828
30
0
41
1
10
41.7977552573324
20
-2.28029115997614
30
0
41
1
10
41.9376375626781
20
-2.32191478582789
30
0
41
1
10
42.1471844696892
20
-2.38239134475953
30
0
41
1
10
42.3559988283308
20
-2.43694222234061
30
0
41
1
10
42.7729184245354
20
-2.53798987239262
30
0
41
1
10
43.0499143822744
20
-2.59461498884775
30
0
41
1
10
43.6035755821686
20
-2.68545675764867
30
0
41
1
10
43.8802537287239
20
-2.71966336912257
30
0
41
1
10
44.4218834425646
20
-2.76379847419872
30
0
41
1
10
44.6867360511727
20
-2.77481095123156
30
0
41
1
10
44.9527905486368
20
-2.77497546403768
30
0
0
SPLINE
5
E8
100
AcDbEntity
8
1
62
256
6
ByLayer
370
18
48
1
60
0
100
AcDbSpline
70
4
71
3
72
12
73
8
40
0
40
0
40
0
40
0
40
0.5
40
0.5
40
0.75
40
0.75
40
1
40
1
40
1
40
1
41
1
10
44.9921634837678
20
-2.77492060924263
30
0
41
1
10
44.9850676053402
20
-2.77542645121102
30
0
41
1
10
44.9788702152352
20
-2.77347895808498
30
0
41
1
10
44.9706297720233
20
-2.76680397211595
30
0
41
1
10
44.9680589711933
20
-2.76395282680056
30
0
41
1
10
44.9632213213209
20
-2.75697926936743
30
0
41
1
10
44.960950507278
20
-2.75284731003677
30
0
41
1
10
44.9588180776783
20
-2.74809233261956
30
0
0
SPLINE
5
E9
100
AcDbEntity
8
1
62
256
6
ByLayer
370
18
48
1
60
0
100
AcDbSpline
70
4
71
3
72
8
73
4
40
0
40
0
40
0
40
0
40
1
40
1
40
1
40
1
41
1
10
3.63317771553236
20
0.615659016953543
30
0
41
1
10
3.61345924928762
20
0.625813659436403
30
0
41
1
10
3.59555232890483
20
0.638255230049197
30
0
41
1
10
3.57940562745097
20
0.652895951781431
30
0
0
SPLINE
5
EA
100
AcDbEntity
8
1
62
256
6
ByLayer
370
18
48
1
60
0
100
AcDbSpline
70
4
71
3
72
14
73
10
40
0
40
0
40
0
40
0
40
0.25
40
0.25
40
0.5
40
0.5
40
0.75
40
0.75
40
1
40
1
40
1
40
1
41
1
10
3.57940562745071
20
0.65289595178163
30
0
41
1
10
3.57150932315457
20
0.660055779084018
30
0
41
1
10
3.56433496124285
20
0.667775781123282
30
0
41
1
10
3.55150130440183
20
0.684384373362576
30
0
41
1
10
3.54579966340648
20
0.693375792679035
30
0
41
1
10
3.53650433811856
20
0.711954735507362
30
0
41
1
10
3.5328543957699
20
0.721574552469718
30
0
41
1
10
3.52777224533503
20
0.741544885730207
30
0
41
1
10
3.5263524782375
20
0.751977948490378
30
0
41
1
10
3.52635539688848
20
0.762396044729513
30
0
0
SPLINE
5
EB
100
AcDbEntity
8
1
62
256
6
ByLayer
370
18
48
1
60
0
100
AcDbSpline
70
4
71
3
72
40
73
36
40
0
40
0
40
0
40
0
40
0.069316732172607
40
0.069316732172607
40
0.103975098258911
40
0.103975098258911
40
0.138633464345214
40
0.138633464345214
40
0.277266928690428
40
0.277266928690428
40
0.346583660863035
40
0.346583660863035
40
0.381242026949339
40
0.381242026949339
40
0.415900393035643
40
0.415900393035643
40
0.554533857380858
40
0.554533857380858
40
0.623850589553465
40
0.623850589553465
40
0.641179772596617
40
0.641179772596617
40
0.658508955639768
40
0.693167321726072
40
0.693167321726072
40
0.831800786071284
40
0.831800786071284
40
0.866459152157588
40
0.883788335200739
40
0.883788335200739
40
0.901117518243891
40
0.901117518243891
40
0.970434250416497
40
0.970434250416497
40
1
40
1
40
1
40
1
41
1
10
3.5263553968885
20
0.762396044729513
30
0
41
1
10
3.52637756527358
20
0.841525879499329
30
0
41
1
10
3.52639905550822
20
0.919471523260682
30
0
41
1
10
3.52643045685076
20
1.03461374857005
30
0
41
1
10
3.52644078480012
20
1.0726980059984
30
0
41
1
10
3.5264611913222
20
1.14826813021705
30
0
41
1
10
3.52647121812339
20
1.18556210033833
30
0
41
1
10
3.52652050240423
20
1.36939393316706
30
0
41
1
10
3.52655730328146
20
1.50832387982956
30
0
41
1
10
3.52661004818688
20
1.70475084527286
30
0
41
1
10
3.52662721520588
20
1.76822003172967
30
0
41
1
10
3.52665249021894
20
1.86033419217986
30
0
41
1
10
3.52666085553889
20
1.89059342447334
30
0
41
1
10
3.52667730640084
20
1.94954894170058
30
0
41
1
10
3.52668540120465
20
1.97828023203763
30
0
41
1
10
3.52672528992443
20
2.11826832494256
30
0
41
1
10
3.52675536388918
20
2.21860660715271
30
0
41
1
10
3.5267985605962
20
2.35178929948265
30
0
41
1
10
3.52681263344067
20
2.393279280195
30
0
41
1
10
3.52682985318719
20
2.44139461578283
30
0
41
1
10
3.52683327725151
20
2.45082620374794
30
0
41
1
10
3.52684005405459
20
2.46921852685424
30
0
41
1
10
3.52685012530028
20
2.49613743250328
30
0
41
1
10
3.52685992055959
20
2.521067989535
30
0
41
1
10
3.52689197359706
20
2.59981527472016
30
0
41
1
10
3.52691574549095
20
2.64898125137228
30
0
41
1
10
3.52694293795307
20
2.69311772789763
30
0
41
1
10
3.52695090248267
20
2.70504994959066
30
0
41
1
10
3.52695855955238
20
2.71498839597297
30
0
41
1
10
3.52696359338134
20
2.72116620745615
30
0
41
1
10
3.52696607596241
20
2.72403192024007
30
0
41
1
10
3.52697824432346
20
2.73716774771083
30
0
41
1
10
3.52698724924142
20
2.74393216450449
30
0
41
1
10
3.52699898283552
20
2.74839741579044
30
0
41
1
10
3.52700235099908
20
2.74907518666353
30
0
41
1
10
3.52700557104097
20
2.74909386963043
30
0
0
SPLINE
5
EC
100
AcDbEntity
8
1
62
256
6
ByLayer
370
18
48
1
60
0
100
AcDbSpline
70
4
71
3
72
60
73
56
40
0
40
0
40
0
40
0
40
0.0328640526389335
40
0.0328640526389335
40
0.107259125512856
40
0.107259125512856
40
0.144456661949818
40
0.144456661949818
40
0.163055430168299
40
0.163055430168299
40
0.181654198386781
40
0.181654198386781
40
0.256049271260711
40
0.256049271260711
40
0.293246807697677
40
0.293246807697677
40
0.330444344134643
40
0.330444344134643
40
0.367641880571609
40
0.367641880571609
40
0.404839417008575
40
0.404839417008575
40
0.479234489882507
40
0.479234489882507
40
0.516432026319472
40
0.516432026319472
40
0.535030794537954
40
0.535030794537954
40
0.553629562756437
40
0.553629562756437
40
0.628024635630364
40
0.628024635630364
40
0.665222172067327
40
0.665222172067327
40
0.702419708504291
40
0.702419708504291
40
0.721018476722772
40
0.721018476722772
40
0.739617244941253
40
0.739617244941253
40
0.776814781378216
40
0.776814781378216
40
0.81401231781518
40
0.81401231781518
40
0.851209854252143
40
0.851209854252143
40
0.888407390689106
40
0.888407390689106
40
0.907006158907588
40
0.907006158907588
40
0.92560492712607
40
0.92560492712607
40
0.962802463563035
40
0.962802463563035
40
1
40
1
40
1
40
1
41
1
10
8.05157931481651
20
2.00405865154096
30
0
41
1
10
8.16248914563923
20
2.04431054757995
30
0
41
1
10
8.27342970994985
20
2.08317097866475
30
0
41
1
10
8.63565401684176
20
2.20540147684719
30
0
41
1
10
8.88713263820515
20
2.28293389690677
30
0
41
1
10
9.26564446957573
20
2.38713671310217
30
0
41
1
10
9.39201541957385
20
2.41987175581886
30
0
41
1
10
9.58198911686398
20
2.46582260911677
30
0
41
1
10
9.64538656100001
20
2.48061112053938
30
0
41
1
10
9.77236053196106
20
2.50909620033704
30
0
41
1
10
9.83596930539781
20
2.52279791524521
30
0
41
1
10
10.1541495682866
20
2.58847717067405
30
0
41
1
10
10.4072556371433
20
2.63164703362557
30
0
41
1
10
10.7856078180422
20
2.68216498341954
30
0
41
1
10
10.9115224490143
20
2.6966250986093
30
0
41
1
10
11.1630414030856
20
2.72078169411583
30
0
41
1
10
11.2886347434578
20
2.73047805713492
30
0
41
1
10
11.539750694795
20
2.74505750972301
30
0
41
1
10
11.6652818019843
20
2.74994399356146
30
0
41
1
10
11.9163300758549
20
2.75492289013963
30
0
41
1
10
12.0418511679299
20
2.7550127227475
30
0
41
1
10
12.418613838887
20
2.7480582344256
30
0
41
1
10
12.6700851407507
20
2.73379524117482
30
0
41
1
10
13.0485171901682
20
2.6978765636284
30
0
41
1
10
13.1748865867038
20
2.68348811125867
30
0
41
1
10
13.3649313071691
20
2.6583154869117
30
0
41
1
10
13.4283559627291
20
2.64932410702173
30
0
41
1
10
13.5553655377975
20
2.63013509955209
30
0
41
1
10
13.618989282916
20
2.61993125299441
30
0
41
1
10
13.9370941216797
20
2.56597512147519
30
0
41
1
10
14.1908455889208
20
2.51354624310665
30
0
41
1
10
14.5712842011514
20
2.42177835351194
30
0
41
1
10
14.6980375636827
20
2.38897551760058
30
0
41
1
10
14.9516914691371
20
2.31918483222137
30
0
41
1
10
15.0786066151388
20
2.28221582371427
30
0
41
1
10
15.2691490361316
20
2.22368681755637
30
0
41
1
10
15.3326919904869
20
2.20366469416285
30
0
41
1
10
15.4598524413546
20
2.16261044836736
30
0
41
1
10
15.5234997250186
20
2.14156804500638
30
0
41
1
10
15.7142867398099
20
2.07705396125533
30
0
41
1
10
15.8413007305571
20
2.0321855023692
30
0
41
1
10
16.0951469508933
20
1.93896839703575
30
0
41
1
10
16.2219740230643
20
1.89061385923429
30
0
41
1
10
16.4755474455765
20
1.79056629423215
30
0
41
1
10
16.6023190671489
20
1.73890736213369
30
0
41
1
10
16.8560495970841
20
1.63264444537228
30
0
41
1
10
16.9829804555945
20
1.57800007511784
30
0
41
1
10
17.1735500714526
20
1.49386848511688
30
0
41
1
10
17.2371033419152
20
1.46546548575242
30
0
41
1
10
17.3642893437227
20
1.40796895778485
30
0
41
1
10
17.4279262426604
20
1.37887284831589
30
0
41
1
10
17.6184454862675
20
1.29084680575266
30
0
41
1
10
17.7451240785847
20
1.23111208162996
30
0
41
1
10
17.9979387590824
20
1.10977923761101
30
0
41
1
10
18.1240526291905
20
1.04814039489932
30
0
41
1
10
18.2499999999871
20
0.985764532286339
30
0
0
SPLINE
5
ED
100
AcDbEntity
8
1
62
256
6
ByLayer
370
18
48
1
60
0
100
AcDbSpline
70
4
71
3
72
47
73
43
40
0
40
0
40
0
40
0
40
0.0810635526952692
40
0.0810635526952692
40
0.101329440869087
40
0.101329440869087
40
0.121595329042904
40
0.162127105390538
40
0.162127105390538
40
0.243190658085809
40
0.243190658085809
40
0.263456546259627
40
0.263456546259627
40
0.283722434433445
40
0.283722434433445
40
0.324254210781082
40
0.324254210781082
40
0.405317763476352
40
0.405317763476352
40
0.486381316171623
40
0.486381316171623
40
0.567444868866894
40
0.567444868866894
40
0.60797664521453
40
0.60797664521453
40
0.628242533388348
40
0.628242533388348
40
0.648508421562167
40
0.648508421562167
40
0.729571974257443
40
0.729571974257443
40
0.810635526952718
40
0.810635526952718
40
0.851167303300356
40
0.851167303300356
40
0.891699079647994
40
0.891699079647994
40
0.972762632343266
40
0.972762632343266
40
0.993028520517084
40
0.993028520517084
40
1
40
1
40
1
40
1
41
1
10
18.25
20
1.10955601052598
30
0
41
1
10
18.5304499974093
20
0.973565381466472
30
0
41
1
10
18.8105840150906
20
0.832873513459163
30
0
41
1
10
19.1613697798898
20
0.65293366786679
30
0
41
1
10
19.2315466315209
20
0.61674701450255
30
0
41
1
10
19.3717518976262
20
0.544135980113623
30
0
41
1
10
19.5819236788479
20
0.434818340939501
30
0
41
1
10
19.7918100878642
20
0.32453005911799
30
0
41
1
10
20.2115338256718
20
0.103287751980304
30
0
41
1
10
20.4912598521406
20
-0.0451402095738729
30
0
41
1
10
20.8416689150073
20
-0.230204565162381
30
0
41
1
10
20.9117890392949
20
-0.267192530505099
30
0
41
1
10
21.0521303679631
20
-0.341072320447921
30
0
41
1
10
21.1222613225465
20
-0.377916482071669
30
0
41
1
10
21.3322510510267
20
-0.487923879435442
30
0
41
1
10
21.4718395451273
20
-0.560632076733953
30
0
41
1
10
21.8896999031783
20
-0.776314072584995
30
0
41
1
10
22.1670705211942
20
-0.916834901862728
30
0
41
1
10
22.7210431779683
20
-1.18848096681447
30
0
41
1
10
22.9976170107999
20
-1.31965952253827
30
0
41
1
10
23.5514341276634
20
-1.5701566729895
30
0
41
1
10
23.8286944005294
20
-1.68944488723309
30
0
41
1
10
24.2463202969357
20
-1.85741523839553
30
0
41
1
10
24.38581144525
20
-1.91158937374053
30
0
41
1
10
24.5956092011754
20
-1.98989500123338
30
0
41
1
10
24.6656354496016
20
-2.01550402689278
30
0
41
1
10
24.8058999442344
20
-2.06569507764755
30
0
41
1
10
24.8760650753122
20
-2.09025018898836
30
0
41
1
10
25.2264592634312
20
-2.21001980047586
30
0
41
1
10
25.5060287319018
20
-2.29644244732614
30
0
41
1
10
26.0653373641474
20
-2.44879618704312
30
0
41
1
10
26.3450908761116
20
-2.51472127372102
30
0
41
1
10
26.7659826357508
20
-2.59713388548016
30
0
41
1
10
26.9061039074981
20
-2.62178055470636
30
0
41
1
10
27.186033792056
20
-2.66530180428603
30
0
41
1
10
27.3258695935428
20
-2.68418136811977
30
0
41
1
10
27.7453088245531
20
-2.73204807110062
30
0
41
1
10
28.0248584757793
20
-2.75225406984259
30
0
41
1
10
28.3752228118709
20
-2.76255766187575
30
0
41
1
10
28.4453708250145
20
-2.76387143845162
30
0
41
1
10
28.5396340448217
20
-2.76462710503964
30
0
41
1
10
28.5637481067595
20
-2.76473157956559
30
0
41
1
10
28.5878497759827
20
-2.76474737167879
30
0
0
SPLINE
5
EE
100
AcDbEntity
8
1
62
256
6
ByLayer
370
18
48
1
60
0
100
AcDbSpline
70
4
71
3
72
12
73
8
40
0
40
0
40
0
40
0
40
0.228097287519689
40
0.228097287519689
40
0.614048643759845
40
0.614048643759845
40
1
40
1
40
1
40
1
41
1
10
42.8355889213585
20
2.54786018523956
30
0
41
1
10
42.9994734051137
20
2.58243495280686
30
0
41
1
10
43.1631380718442
20
2.61319212633299
30
0
41
1
10
43.6035755821687
20
2.68545675764867
30
0
41
1
10
43.8802537287239
20
2.71966336912257
30
0
41
1
10
44.4349181529696
20
2.76486061739115
30
0
41
1
10
44.7128615760532
20
2.77587158759454
30
0
41
1
10
44.992163483759
20
2.77492060924288
30
0
0
SPLINE
5
EF
100
AcDbEntity
8
1
62
256
6
ByLayer
370
18
48
1
60
0
100
AcDbSpline
70
4
71
3
72
81
73
77
40
0
40
0
40
0
40
0
40
0.0116049161334354
40
0.0116049161334354
40
0.08346206219284
40
0.08346206219284
40
0.155319208252245
40
0.155319208252245
40
0.16430135150967
40
0.16430135150967
40
0.173283494767096
40
0.173283494767096
40
0.191247781281947
40
0.191247781281947
40
0.227176354311649
40
0.227176354311649
40
0.299033500371056
40
0.299033500371056
40
0.370890646430462
40
0.370890646430462
40
0.379872789687889
40
0.379872789687889
40
0.388854932945315
40
0.406819219460166
40
0.406819219460166
40
0.442747792489872
40
0.442747792489872
40
0.478676365519576
40
0.478676365519576
40
0.514604938549281
40
0.514604938549281
40
0.550533511578986
40
0.550533511578986
40
0.586462084608691
40
0.586462084608691
40
0.604426371123544
40
0.604426371123544
40
0.622390657638396
40
0.622390657638396
40
0.6583192306681
40
0.6583192306681
40
0.676283517182952
40
0.676283517182952
40
0.685265660440377
40
0.685265660440377
40
0.694247803697803
40
0.694247803697803
40
0.730176376727509
40
0.730176376727509
40
0.748140663242362
40
0.748140663242362
40
0.766104949757214
40
0.766104949757214
40
0.784069236272066
40
0.784069236272066
40
0.802033522786919
40
0.802033522786919
40
0.819997809301771
40
0.819997809301771
40
0.837962095816624
40
0.837962095816624
40
0.873890668846329
40
0.873890668846329
40
0.891854955361181
40
0.891854955361181
40
0.900837098618607
40
0.900837098618607
40
0.909819241876034
40
0.909819241876034
40
0.945747814905738
40
0.945747814905738
40
0.96371210142059
40
0.96371210142059
40
0.981676387935442
40
0.981676387935442
40
1
40
1
40
1
40
1
41
1
10
30.973137434702
20
-2.63017186856746
30
0
41
1
10
30.9037344859758
20
-2.64155758109223
30
0
41
1
10
30.8343936121017
20
-2.65223150444353
30
0
41
1
10
30.3360578538542
20
-2.72385471196148
30
0
41
1
10
29.9088743545742
20
-2.75805914793557
30
0
41
1
10
29.0526817307032
20
-2.77035273275848
30
0
41
1
10
28.6236359812122
20
-2.74843993196612
30
0
41
1
10
28.1367043879436
20
-2.69177821299414
30
0
41
1
10
28.0825412938921
20
-2.68503816263137
30
0
41
1
10
27.97408330159
20
-2.67066898053315
30
0
41
1
10
27.9198630104076
20
-2.66304925834822
30
0
41
1
10
27.7574616459204
20
-2.63893601532064
30
0
41
1
10
27.6494358019706
20
-2.62117476979842
30
0
41
1
10
27.3259426432996
20
-2.56297969959923
30
0
41
1
10
27.1110533587443
20
-2.51763947153853
30
0
41
1
10
26.4676710330433
20
-2.36310643546452
30
0
41
1
10
26.0405362721512
20
-2.23529772034937
30
0
41
1
10
25.1838387988921
20
-1.93678575495324
30
0
41
1
10
24.7544715196111
20
-1.76583450824742
30
0
41
1
10
24.2668372231016
20
-1.55324726623149
30
0
41
1
10
24.2125504677725
20
-1.52932462182409
30
0
41
1
10
24.1041357103661
20
-1.48105936358957
30
0
41
1
10
23.9417052494713
20
-1.40801293056833
30
0
41
1
10
23.7797988144311
20
-1.33311528199525
30
0
41
1
10
23.4565437222988
20
-1.18111264780964
30
0
41
1
10
23.2418001493409
20
-1.07680517816104
30
0
41
1
10
22.8130418099226
20
-0.863714202998324
30
0
41
1
10
22.5990171813675
20
-0.754950034706866
30
0
41
1
10
22.1710516127655
20
-0.534160578102615
30
0
41
1
10
21.9571205711592
20
-0.42211540016612
30
0
41
1
10
21.5285854059948
20
-0.196186450033821
30
0
41
1
10
21.313980691832
20
-0.0823049956198929
30
0
41
1
10
20.8834426307446
20
0.146057151820628
30
0
41
1
10
20.6674849330834
20
0.26049014451533
30
0
41
1
10
20.3419647126476
20
0.431467544014595
30
0
41
1
10
20.2335187156674
20
0.488183792375935
30
0
41
1
10
20.0168742938343
20
0.600770042735405
30
0
41
1
10
19.9086394232023
20
0.656658621846702
30
0
41
1
10
19.5840391563002
20
0.822826029455683
30
0
41
1
10
19.3678145134469
20
0.931673282159892
30
0
41
1
10
19.0431827127147
20
1.09104155877984
30
0
41
1
10
18.9349094110142
20
1.14349050444011
30
0
41
1
10
18.7723849534534
20
1.22111366076084
30
0
41
1
10
18.7181916955175
20
1.24681398879207
30
0
41
1
10
18.6097478247749
20
1.29783021098345
30
0
41
1
10
18.5554758438241
20
1.32315564152768
30
0
41
1
10
18.284291833614
20
1.44856340269359
30
0
41
1
10
18.0677783194608
20
1.54504179255835
30
0
41
1
10
17.7431493572545
20
1.68325574113734
30
0
41
1
10
17.6349620836307
20
1.72824194507729
30
0
41
1
10
17.4186109351207
20
1.81600868338546
30
0
41
1
10
17.3104486751637
20
1.85878961544992
30
0
41
1
10
17.0939712283413
20
1.94188400940132
30
0
41
1
10
16.985655477561
20
1.9821979122747
30
0
41
1
10
16.7687886482552
20
2.06024490065295
30
0
41
1
10
16.6601706753818
20
2.09799872502532
30
0
41
1
10
16.4432700058231
20
2.17059142471723
30
0
41
1
10
16.3349225935364
20
2.20545620279771
30
0
41
1
10
16.1184025536741
20
2.27229505699216
30
0
41
1
10
16.0102288752186
20
2.30426560883359
30
0
41
1
10
15.6857135751365
20
2.39556753280971
30
0
41
1
10
15.4693834373886
20
2.45030160616457
30
0
41
1
10
15.144405316613
20
2.52274763228567
30
0
41
1
10
15.0360002988468
20
2.54528898173726
30
0
41
1
10
14.8732474871474
20
2.57665200730389
30
0
41
1
10
14.818957200332
20
2.58669913343567
30
0
41
1
10
14.7105633561718
20
2.60591300647229
30
0
41
1
10
14.6564289354684
20
2.61508590007475
30
0
41
1
10
14.3860206486738
20
2.65876535576294
30
0
41
1
10
14.1705459086216
20
2.68672501156149
30
0
41
1
10
13.8481109555722
20
2.71819757287071
30
0
41
1
10
13.7407654035021
20
2.72694562369935
30
0
41
1
10
13.5262981743963
20
2.74095774520094
30
0
41
1
10
13.4191702547259
20
2.74621812178822
30
0
41
1
10
13.2028342381152
20
2.7533029825122
30
0
41
1
10
13.0936310312503
20
2.75505871285361
30
0
41
1
10
12.9844209444401
20
2.7549954083324
30
0
0
SPLINE
5
F0
100
AcDbEntity
8
1
62
256
6
ByLayer
370
13
48
1
60
0
100
AcDbSpline
70
4
71
3
72
26
73
22
40
0
40
0
40
0
40
0
40
0.200022367450638
40
0.200022367450638
40
0.255925764915171
40
0.255925764915171
40
0.311829162379706
40
0.311829162379706
40
0.423635957308771
40
0.423635957308771
40
0.647249547166893
40
0.647249547166893
40
0.759056342095955
40
0.759056342095955
40
0.870863137025019
40
0.870863137025019
40
0.926766534489551
40
0.926766534489551
40
0.982669931954083
40
0.982669931954083
40
1
40
1
40
1
40
1
41
1
10
30.6814352128938
20
-2.63530682472592
30
0
41
1
10
30.2985688847602
20
-2.68639140230121
30
0
41
1
10
29.9149524966877
20
-2.71627862010874
30
0
41
1
10
29.420592763243
20
-2.72556811177668
30
0
41
1
10
29.3123918338896
20
-2.72584155702114
30
0
41
1
10
29.0954692777912
20
-2.72286347752177
30
0
41
1
10
28.9872447446475
20
-2.71961456962137
30
0
41
1
10
28.6632439297256
20
-2.7046471937914
30
0
41
1
10
28.4480975719597
20
-2.68768581469752
30
0
41
1
10
27.8042233690603
20
-2.61644498679786
30
0
41
1
10
27.3769809637229
20
-2.54218860625969
30
0
41
1
10
26.7349565837823
20
-2.39307885042501
30
0
41
1
10
26.5207808415845
20
-2.33713619525585
30
0
41
1
10
26.0914012252842
20
-2.21343965079049
30
0
41
1
10
25.8761704251854
20
-2.145661280398
30
0
41
1
10
25.5519583435828
20
-2.03546968563916
30
0
41
1
10
25.4436080799086
20
-1.99730022155938
30
0
41
1
10
25.226635015056
20
-1.91830520143446
30
0
41
1
10
25.1181819240105
20
-1.87754264404435
30
0
41
1
10
24.9760858456492
20
-1.82257678547072
30
0
41
1
10
24.9424591449523
20
-1.80945465849206
30
0
41
1
10
24.9088371062323
20
-1.79622255340036
30
0
0
SPLINE
5
F1
100
AcDbEntity
8
1
62
256
6
ByLayer
370
18
48
1
60
0
100
AcDbSpline
70
4
71
3
72
42
73
38
40
0
40
0
40
0
40
0
40
0.0296442586677336
40
0.0296442586677336
40
0.0726069688170476
40
0.0726069688170476
40
0.158532389115675
40
0.158532389115675
40
0.244457809414303
40
0.244457809414303
40
0.287420519563616
40
0.287420519563616
40
0.308901874638272
40
0.308901874638272
40
0.330383229712928
40
0.330383229712928
40
0.416308650011549
40
0.416308650011549
40
0.502234070310169
40
0.502234070310169
40
0.58815949060879
40
0.58815949060879
40
0.674084910907411
40
0.674084910907411
40
0.760010331206031
40
0.760010331206031
40
0.781491686280688
40
0.781491686280688
40
0.802973041355343
40
0.802973041355343
40
0.845935751504652
40
0.845935751504652
40
0.931861171803273
40
0.931861171803273
40
0.974823881952584
40
0.974823881952584
40
1
40
1
40
1
40
1
41
1
10
24.9088371067116
20
-1.79622255358899
30
0
41
1
10
24.8340010486763
20
-1.76677048517814
30
0
41
1
10
24.7591880870171
20
-1.73677356296938
30
0
41
1
10
24.5761569991954
20
-1.66210208442109
30
0
41
1
10
24.4679688646533
20
-1.6168651584471
30
0
41
1
10
24.1436255629951
20
-1.47820597576222
30
0
41
1
10
23.9276982466918
20
-1.38183768310751
30
0
41
1
10
23.4957479555991
20
-1.18247484542374
30
0
41
1
10
23.2797373001737
20
-1.07944214551068
30
0
41
1
10
22.9550833009703
20
-0.920828415442884
30
0
41
1
10
22.84675267195
20
-0.867290191611858
30
0
41
1
10
22.6840303034033
20
-0.786086297132954
30
0
41
1
10
22.6297864816656
20
-0.758885682217226
30
0
41
1
10
22.5214757145517
20
-0.704337249525679
30
0
41
1
10
22.4673803162472
20
-0.676975369514565
30
0
41
1
10
22.1971759390733
20
-0.539781227132437
30
0
41
1
10
21.9819010016789
20
-0.428763450617225
30
0
41
1
10
21.5523632582203
20
-0.205707375277711
30
0
41
1
10
21.338091352279
20
-0.0936877048035285
30
0
41
1
10
20.9099171908605
20
0.130125539371989
30
0
41
1
10
20.6959936829513
20
0.241874179081179
30
0
41
1
10
20.2677754478453
20
0.46368674586023
30
0
41
1
10
20.0535004682772
20
0.573792280310528
30
0
41
1
10
19.6238747368913
20
0.790953610391057
30
0
41
1
10
19.4085332546294
20
0.898022084305751
30
0
41
1
10
19.1382863462509
20
1.02918077404212
30
0
41
1
10
19.0841790908225
20
1.05527000443408
30
0
41
1
10
18.9758407143678
20
1.10714714569781
30
0
41
1
10
18.9215726444009
20
1.13295466804908
30
0
41
1
10
18.7588651178401
20
1.20979422630524
30
0
41
1
10
18.6506665132946
20
1.26020160892324
30
0
41
1
10
18.3266832800649
20
1.4085681458406
30
0
41
1
10
18.1114986234512
20
1.50356648541742
30
0
41
1
10
17.7894063710706
20
1.63953229762274
30
0
41
1
10
17.6821529214209
20
1.68375669936441
30
0
41
1
10
17.5122053484008
20
1.75217497099774
30
0
41
1
10
17.4494496869331
20
1.77709132858257
30
0
41
1
10
17.3867156756367
20
1.80161792349529
30
0
0
SPLINE
5
F2
100
AcDbEntity
8
1
62
256
6
ByLayer
370
18
48
1
60
0
100
AcDbSpline
70
4
71
3
72
26
73
22
40
0
40
0
40
0
40
0
40
0.185322468700863
40
0.185322468700863
40
0.277983703051295
40
0.277983703051295
40
0.370644937401726
40
0.370644937401726
40
0.463306171752158
40
0.463306171752158
40
0.55596740610259
40
0.55596740610259
40
0.648628640453021
40
0.648628640453021
40
0.741289874803453
40
0.741289874803453
40
0.833951109153885
40
0.833951109153885
40
0.926612343504316
40
0.926612343504316
40
1
40
1
40
1
40
1
41
1
10
4.68159024546094
20
-2.61152729256574
30
0
41
1
10
4.89190468750499
20
-2.60620800701946
30
0
41
1
10
5.10120224708291
20
-2.59437019449115
30
0
41
1
10
5.41397877889793
20
-2.56736740880433
30
0
41
1
10
5.51803571516518
20
-2.55682127157672
30
0
41
1
10
5.72581279446561
20
-2.53274592104842
30
0
41
1
10
5.82954890334773
20
-2.51923170683844
30
0
41
1
10
6.03687577659792
20
-2.48951824568371
30
0
41
1
10
6.14047445758769
20
-2.47329252858631
30
0
41
1
10
6.34788769759129
20
-2.43778576255599
30
0
41
1
10
6.45165822806658
20
-2.41848953323608
30
0
41
1
10
6.65924950603304
20
-2.37695675943419
30
0
41
1
10
6.76309291740569
20
-2.3547377054916
30
0
41
1
10
6.97084277952095
20
-2.30757777811175
30
0
41
1
10
7.07473904767164
20
-2.28264257005901
30
0
41
1
10
7.28262228902821
20
-2.22996140466236
30
0
41
1
10
7.38660251667074
20
-2.2022045512314
30
0
41
1
10
7.59483107483294
20
-2.14386535628313
30
0
41
1
10
7.69908211489852
20
-2.11326193043738
30
0
41
1
10
7.88627411083809
20
-2.0560951913466
30
0
41
1
10
7.96917173493765
20
-2.03006656469412
30
0
41
1
10
8.05219715640933
20
-2.00327215506866
30
0
0
SPLINE
5
F3
100
AcDbEntity
8
1
62
256
6
ByLayer
370
18
48
1
60
0
100
AcDbSpline
70
4
71
3
72
130
73
126
40
0
40
0
40
0
40
0
40
0.0074847135373825
40
0.0074847135373825
40
0.0230131461152067
40
0.0230131461152067
40
0.038541578693031
40
0.038541578693031
40
0.0540700112708553
40
0.0540700112708553
40
0.0695984438486795
40
0.0695984438486795
40
0.0851268764265039
40
0.0851268764265039
40
0.100655309004328
40
0.100655309004328
40
0.116183741582153
40
0.116183741582153
40
0.131712174159977
40
0.131712174159977
40
0.147240606737801
40
0.147240606737801
40
0.162769039315625
40
0.162769039315625
40
0.178297471893449
40
0.178297471893449
40
0.193825904471274
40
0.193825904471274
40
0.209354337049098
40
0.209354337049098
40
0.224882769626923
40
0.224882769626923
40
0.240411202204747
40
0.240411202204747
40
0.255939634782571
40
0.255939634782571
40
0.271468067360395
40
0.271468067360395
40
0.28699649993822
40
0.28699649993822
40
0.302524932516043
40
0.302524932516043
40
0.310289148804955
40
0.310289148804955
40
0.318053365093866
40
0.318053365093866
40
0.33358179767169
40
0.33358179767169
40
0.349110230249513
40
0.349110230249513
40
0.364638662827336
40
0.364638662827336
40
0.38016709540516
40
0.38016709540516
40
0.395695527982983
40
0.395695527982983
40
0.411223960560807
40
0.411223960560807
40
0.42675239313863
40
0.42675239313863
40
0.442280825716453
40
0.442280825716453
40
0.457809258294277
40
0.457809258294277
40
0.4733376908721
40
0.4733376908721
40
0.488866123449924
40
0.488866123449924
40
0.504394556027747
40
0.504394556027747
40
0.519922988605571
40
0.519922988605571
40
0.535451421183394
40
0.535451421183394
40
0.550979853761217
40
0.550979853761217
40
0.566508286339041
40
0.566508286339041
40
0.582036718916864
40
0.582036718916864
40
0.597565151494687
40
0.597565151494687
40
0.628622016650335
40
0.628622016650335
40
0.644150449228158
40
0.644150449228158
40
0.659678881805981
40
0.659678881805981
40
0.69073574696163
40
0.69073574696163
40
0.698499963250542
40
0.698499963250542
40
0.706264179539455
40
0.706264179539455
40
0.72179261211728
40
0.72179261211728
40
0.737321044695106
40
0.737321044695106
40
0.75284947727293
40
0.75284947727293
40
0.768377909850756
40
0.768377909850756
40
0.783906342428581
40
0.783906342428581
40
0.814963207584229
40
0.814963207584229
40
0.846020072739878
40
0.846020072739878
40
0.861548505317701
40
0.861548505317701
40
0.877076937895525
40
0.877076937895525
40
0.884841154184436
40
0.884841154184436
40
0.892605370473346
40
0.892605370473346
40
0.908133803051168
40
0.908133803051168
40
0.939190668206813
40
0.939190668206813
40
0.970247533362459
40
0.970247533362459
40
0.985775965940281
40
0.985775965940281
40
1
40
1
40
1
40
1
41
1
10
20.791049665095
20
2.6221035751544
30
0
41
1
10
20.8414929748599
20
2.62196974864204
30
0
41
1
10
20.8919358007265
20
2.62149094948933
30
0
41
1
10
21.0470327257238
20
2.61894178955294
30
0
41
1
10
21.151708916018
20
2.61569486825033
30
0
41
1
10
21.3612176709318
20
2.60586097377131
30
0
41
1
10
21.4658459013849
20
2.59923873280602
30
0
41
1
10
21.6751055760982
20
2.58269435300633
30
0
41
1
10
21.7797773539304
20
2.57281626552469
30
0
41
1
10
21.9890044107524
20
2.55006422907218
30
0
41
1
10
22.093574877252
20
2.5371924958132
30
0
41
1
10
22.3025805429699
20
2.5087528289001
30
0
41
1
10
22.4070371338757
20
2.49311236895201
30
0
41
1
10
22.6160884442974
20
2.45851471777573
30
0
41
1
10
22.7206648227292
20
2.43958732763221
30
0
41
1
10
22.9299783614426
20
2.39857359479552
30
0
41
1
10
23.0347219263715
20
2.37651393130332
30
0
41
1
10
23.2443555089266
20
2.32954437001194
30
0
41
1
10
23.3489501753348
20
2.30472654529442
30
0
41
1
10
23.5578268723541
20
2.25278559606792
30
0
41
1
10
23.6620476123066
20
2.2255766004069
30
0
41
1
10
23.8702601675471
20
2.16838955517142
30
0
41
1
10
23.9742515179045
20
2.13846324764873
30
0
41
1
10
24.1820436962479
20
2.07609091979307
30
0
41
1
10
24.2858351529287
20
2.043654723266
30
0
41
1
10
24.4931477019749
20
1.97640460997474
30
0
41
1
10
24.5966612554318
20
1.9415890617189
30
0
41
1
10
24.8034878297865
20
1.86972344245848
30
0
41
1
10
24.9067956972349
20
1.83263052584056
30
0
41
1
10
25.1135395579094
20
1.75640163725555
30
0
41
1
10
25.2170168366629
20
1.71733103648054
30
0
41
1
10
25.4240957131607
20
1.63711195207617
30
0
41
1
10
25.5277018931568
20
1.59599816654364
30
0
41
1
10
25.7350180489607
20
1.51192043137604
30
0
41
1
10
25.8387265232055
20
1.46895321613363
30
0
41
1
10
26.0462064003184
20
1.3811422418662
30
0
41
1
10
26.1499836397414
20
1.33628080293374
30
0
41
1
10
26.3578057042897
20
1.24472913414718
30
0
41
1
10
26.4618581475566
20
1.19805816769537
30
0
41
1
10
26.6704241384979
20
1.10315488032509
30
0
41
1
10
26.7749509473327
20
1.05496449097507
30
0
41
1
10
26.932170490126
20
0.981846311640084
30
0
41
1
10
26.9846627030767
20
0.957300587254764
30
0
41
1
10
27.0895504547969
20
0.907928996622417
30
0
41
1
10
27.1419561419126
20
0.883102945637773
30
0
41
1
10
27.2990685636264
20
0.808227171202105
30
0
41
1
10
27.403680301542
20
0.757788857850358
30
0
41
1
10
27.6128682107714
20
0.656177293681651
30
0
41
1
10
27.7174313092479
20
0.60498829798135
30
0
41
1
10
27.9264899527545
20
0.501856314557159
30
0
41
1
10
28.0309844120047
20
0.449910461562865
30
0
41
1
10
28.2399939885005
20
0.345459567561676
30
0
41
1
10
28.3444851594813
20
0.292910588585841
30
0
41
1
10
28.5535282848435
20
0.187413772640213
30
0
41
1
10
28.6581299272476
20
0.134556523493757
30
0
41
1
10
28.8676251113052
20
0.0287532931634189
30
0
41
1
10
28.9726236592364
20
-0.0242053840885035
30
0
41
1
10
29.1820353143595
20
-0.129572223956245
30
0
41
1
10
29.2865464707452
20
-0.182032817281282
30
0
41
1
10
29.495171956923
20
-0.286599456920243
30
0
41
1
10
29.5992796142513
20
-0.338721834717632
30
0
41
1
10
29.8070388804157
20
-0.442896075310756
30
0
41
1
10
29.9106959937178
20
-0.49492891831693
30
0
41
1
10
30.1178555670305
20
-0.598019781777651
30
0
41
1
10
30.2213950500605
20
-0.649004312934778
30
0
41
1
10
30.4285371882662
20
-0.74965113300874
30
0
41
1
10
30.5320798761998
20
-0.799432152029027
30
0
41
1
10
30.7391162742385
20
-0.897965325817211
30
0
41
1
10
30.8426216682621
20
-0.946693082761215
30
0
41
1
10
31.0494945233228
20
-1.04343109740333
30
0
41
1
10
31.1528358473665
20
-1.09150744493536
30
0
41
1
10
31.3596025481815
20
-1.18626281431068
30
0
41
1
10
31.4630535835774
20
-1.23287242351029
30
0
41
1
10
31.6701847545576
20
-1.32444316064974
30
0
41
1
10
31.7738445591273
20
-1.36944276325426
30
0
41
1
10
31.9815092876115
20
-1.45768029589595
30
0
41
1
10
32.0855547141581
20
-1.50084709219209
30
0
41
1
10
32.293768402844
20
-1.58594203026556
30
0
41
1
10
32.3979117948642
20
-1.627944466835
30
0
41
1
10
32.6066290561876
20
-1.70997868892817
30
0
41
1
10
32.7112548719012
20
-1.7498818928579
30
0
41
1
10
33.0259646986733
20
-1.86621331306776
30
0
41
1
10
33.2353297921319
20
-1.93888824941109
30
0
41
1
10
33.5487197720076
20
-2.04179991609405
30
0
41
1
10
33.6530746126068
20
-2.0751752943352
30
0
41
1
10
33.8619131024073
20
-2.13917101920504
30
0
41
1
10
33.9663827032295
20
-2.16969256122681
30
0
41
1
10
34.2801287573761
20
-2.25652984652206
30
0
41
1
10
34.4897304767588
20
-2.30835117745056
30
0
41
1
10
34.7518373067843
20
-2.36712869144418
30
0
41
1
10
34.804271935996
20
-2.37858231522847
30
0
41
1
10
34.9089485280929
20
-2.40084595708382
30
0
41
1
10
34.9612168709541
20
-2.41165492939769
30
0
41
1
10
35.11785467066
20
-2.44294258752626
30
0
41
1
10
35.2220521247413
20
-2.46220837103559
30
0
41
1
10
35.4303069616203
20
-2.4972214249145
30
0
41
1
10
35.5343784503255
20
-2.51302832644603
30
0
41
1
10
35.7422182045132
20
-2.54174801524999
30
0
41
1
10
35.8460065736229
20
-2.55465846648903
30
0
41
1
10
36.0533080612006
20
-2.57783849261065
30
0
41
1
10
36.1568061109568
20
-2.58815868252313
30
0
41
1
10
36.363557272426
20
-2.60592342578943
30
0
41
1
10
36.4668371460323
20
-2.61323482259107
30
0
41
1
10
36.7767459320728
20
-2.62968846591252
30
0
41
1
10
36.9833494764154
20
-2.63365094106561
30
0
41
1
10
37.3976900123268
20
-2.62903122138715
30
0
41
1
10
37.6051998040337
20
-2.62040175158981
30
0
41
1
10
37.9171664987803
20
-2.59835192847945
30
0
41
1
10
38.0212626244919
20
-2.5894856286167
30
0
41
1
10
38.2296292895991
20
-2.56876786708165
30
0
41
1
10
38.3338930651774
20
-2.55692411627777
30
0
41
1
10
38.4904793666671
20
-2.53694037550321
30
0
41
1
10
38.5427087530827
20
-2.52990404693202
30
0
41
1
10
38.6472618794055
20
-2.51505717794379
30
0
41
1
10
38.699600133366
20
-2.50724545107596
30
0
41
1
10
38.8565019462617
20
-2.48270319296699
30
0
41
1
10
38.961081611684
20
-2.46485246279173
30
0
41
1
10
39.2746842109301
20
-2.40650614909902
30
0
41
1
10
39.4836731379661
20
-2.36144345871995
30
0
41
1
10
39.9014889216677
20
-2.26022716711293
30
0
41
1
10
40.1102393606176
20
-2.20389438125264
30
0
41
1
10
40.4239296773371
20
-2.11124002404659
30
0
41
1
10
40.5286554676667
20
-2.07904554148286
30
0
41
1
10
40.7295352598722
20
-2.0151393198995
30
0
41
1
10
40.825476600844
20
-1.98359915910532
30
0
41
1
10
40.9213338976664
20
-1.9511179640096
30
0
0
SPLINE
5
F4
100
AcDbEntity
8
1
62
256
6
ByLayer
370
13
48
1
60
0
100
AcDbSpline
70
4
71
3
72
8
73
4
40
0
40
0
40
0
40
0
40
1
40
1
40
1
40
1
41
1
10
3.7516336637012
20
-2.58380893645449
30
0
41
1
10
3.75162360349117
20
-2.60326230463929
30
0
41
1
10
3.75160819347295
20
-2.61273227616664
30
0
41
1
10
3.7515882253563
20
-2.6120880286187
30
0
0
SPLINE
5
F5
100
AcDbEntity
8
1
62
256
6
ByLayer
370
13
48
1
60
0
100
AcDbSpline
70
4
71
3
72
48
73
44
40
0
40
0
40
0
40
0
40
0.0171482918861637
40
0.0171482918861637
40
0.0901196849477794
40
0.0901196849477794
40
0.126605381478587
40
0.126605381478587
40
0.144848229743991
40
0.144848229743991
40
0.163091078009395
40
0.163091078009395
40
0.236062471071015
40
0.236062471071015
40
0.309033864132634
40
0.309033864132634
40
0.382005257194253
40
0.382005257194253
40
0.454976650255873
40
0.454976650255873
40
0.527948043317492
40
0.527948043317492
40
0.564433739848302
40
0.564433739848302
40
0.600919436379111
40
0.600919436379111
40
0.673890829440731
40
0.673890829440731
40
0.74686222250235
40
0.74686222250235
40
0.78334791903316
40
0.78334791903316
40
0.819833615563971
40
0.819833615563971
40
0.856319312094782
40
0.856319312094782
40
0.874562160360188
40
0.874562160360188
40
0.892805008625595
40
0.892805008625595
40
0.965776401687216
40
0.965776401687216
40
1
40
1
40
1
40
1
41
1
10
17.783225745916
20
1.66755392148161
30
0
41
1
10
17.8336155015622
20
1.64803876984507
30
0
41
1
10
17.8840262334381
20
1.62828116259348
30
0
41
1
10
18.1490737235064
20
1.52317183889139
30
0
41
1
10
18.3641178885833
20
1.43369540496064
30
0
41
1
10
18.6878520879117
20
1.29364554186032
30
0
41
1
10
18.795959150881
20
1.24601289721275
30
0
41
1
10
18.958481952111
20
1.17328932123792
30
0
41
1
10
19.0127018158229
20
1.14883781780372
30
0
41
1
10
19.1209458888855
20
1.0996487376666
30
0
41
1
10
19.1750084779229
20
1.07489206672463
30
0
41
1
10
19.4450532425744
20
0.95035672209184
30
0
41
1
10
19.6602841337376
20
0.848436626913184
30
0
41
1
10
20.0897647577139
20
0.641258111147351
30
0
41
1
10
20.3039865454639
20
0.535950687987764
30
0
41
1
10
20.7320827809301
20
0.323283805049186
30
0
41
1
10
20.9459590438218
20
0.215922639526553
30
0
41
1
10
21.3740265750863
20
0.0004844024794863
30
0
41
1
10
21.5882205095964
20
-0.107581583630292
30
0
41
1
10
22.0175229796407
20
-0.323222247514934
30
0
41
1
10
22.2326571829828
20
-0.43074296951383
30
0
41
1
10
22.5566077628799
20
-0.590500028813494
30
0
41
1
10
22.664836486001
20
-0.643533372936446
30
0
41
1
10
22.8815924965898
20
-0.748868733787248
30
0
41
1
10
22.989823362843
20
-0.801028167148928
30
0
41
1
10
23.3141973334827
20
-0.955741267355364
30
0
41
1
10
23.5300550771507
20
-1.05647483779586
30
0
41
1
10
23.9616902624676
20
-1.25191356075013
30
0
41
1
10
24.1774415325077
20
-1.34668009615709
30
0
41
1
10
24.5014822448482
20
-1.48344788011963
30
0
41
1
10
24.6095645885245
20
-1.52813737474665
30
0
41
1
10
24.8259511267068
20
-1.61556361235611
30
0
41
1
10
24.9343104183195
20
-1.65832495112528
30
0
41
1
10
25.15103874531
20
-1.74165129402223
30
0
41
1
10
25.2593837349099
20
-1.78221022502794
30
0
41
1
10
25.4219395172925
20
-1.84129701357551
30
0
41
1
10
25.4761290370702
20
-1.86069903180214
30
0
41
1
10
25.5843471285949
20
-1.89883656096902
30
0
41
1
10
25.6383986166423
20
-1.91758034742875
30
0
41
1
10
25.9083920900469
20
-2.009642065202
30
0
41
1
10
26.1235338837144
20
-2.07796281561787
30
0
41
1
10
26.4388173507923
20
-2.17012420418598
30
0
41
1
10
26.539365862829
20
-2.19832918701593
30
0
41
1
10
26.6398382086436
20
-2.22527902294703
30
0
0
SPLINE
5
F6
100
AcDbEntity
8
1
62
256
6
ByLayer
370
18
48
1
60
0
100
AcDbSpline
70
4
71
3
72
16
73
12
40
0
40
0
40
0
40
0
40
0.118289117926583
40
0.118289117926583
40
0.563822692201634
40
0.563822692201634
40
0.786589479339153
40
0.786589479339153
40
0.89797287290792
40
0.89797287290792
40
1
40
1
40
1
40
1
41
1
10
26.6398382096609
20
-2.22527902321988
30
0
41
1
10
26.7535925199574
20
-2.25579149879852
30
0
41
1
10
26.8672491953612
20
-2.28469504420437
30
0
41
1
10
27.4087631155124
20
-2.4145436266958
30
0
41
1
10
27.835952108352
20
-2.493262763557
30
0
41
1
10
28.4794719494143
20
-2.57311276483483
30
0
41
1
10
28.6944773077295
20
-2.5932553152293
30
0
41
1
10
29.0181688223591
20
-2.61342778408772
30
0
41
1
10
29.1262639576378
20
-2.61848498815141
30
0
41
1
10
29.3338339365758
20
-2.6249483128561
30
0
41
1
10
29.4329212735983
20
-2.62661732447813
30
0
41
1
10
29.5318125138391
20
-2.62686620805951
30
0
0
SPLINE
5
F7
100
AcDbEntity
8
1
62
256
6
ByLayer
370
18
48
1
60
0
100
AcDbSpline
70
4
71
3
72
130
73
126
40
0
40
0
40
0
40
0
40
0.0315278394461876
40
0.0315278394461876
40
0.0472917591692818
40
0.0472917591692818
40
0.0630556788923761
40
0.0630556788923761
40
0.0788195986154703
40
0.0788195986154703
40
0.0945835183385645
40
0.0945835183385645
40
0.110347438061659
40
0.110347438061659
40
0.126111357784753
40
0.126111357784753
40
0.141875277507847
40
0.141875277507847
40
0.157639197230941
40
0.157639197230941
40
0.173403116954036
40
0.173403116954036
40
0.18916703667713
40
0.18916703667713
40
0.204930956400224
40
0.204930956400224
40
0.220694876123318
40
0.220694876123318
40
0.236458795846413
40
0.236458795846413
40
0.252222715569507
40
0.252222715569507
40
0.267986635292601
40
0.267986635292601
40
0.283750555015695
40
0.283750555015695
40
0.299514474738789
40
0.299514474738789
40
0.315278394461884
40
0.315278394461884
40
0.331042314184978
40
0.331042314184978
40
0.346806233908072
40
0.346806233908072
40
0.362570153631166
40
0.362570153631166
40
0.37833407335426
40
0.37833407335426
40
0.394097993077355
40
0.394097993077355
40
0.409861912800449
40
0.409861912800449
40
0.425625832523543
40
0.425625832523543
40
0.441389752246637
40
0.441389752246637
40
0.457153671969731
40
0.457153671969731
40
0.472917591692826
40
0.472917591692826
40
0.504445431139013
40
0.504445431139013
40
0.520209350862107
40
0.520209350862107
40
0.5359732705852
40
0.5359732705852
40
0.543855230446747
40
0.543855230446747
40
0.551737190308293
40
0.551737190308293
40
0.567501110031387
40
0.567501110031387
40
0.583265029754481
40
0.583265029754481
40
0.599028949477576
40
0.599028949477576
40
0.630556788923765
40
0.630556788923765
40
0.64632070864686
40
0.64632070864686
40
0.662084628369954
40
0.662084628369954
40
0.677848548093049
40
0.677848548093049
40
0.693612467816143
40
0.693612467816143
40
0.709376387539238
40
0.709376387539238
40
0.725140307262333
40
0.725140307262333
40
0.740904226985427
40
0.740904226985427
40
0.756668146708522
40
0.756668146708522
40
0.772432066431616
40
0.772432066431616
40
0.788195986154711
40
0.788195986154711
40
0.803959905877806
40
0.803959905877806
40
0.8197238256009
40
0.8197238256009
40
0.835487745323995
40
0.835487745323995
40
0.851251665047089
40
0.851251665047089
40
0.867015584770184
40
0.867015584770184
40
0.882779504493278
40
0.882779504493278
40
0.898543424216373
40
0.898543424216373
40
0.914307343939468
40
0.914307343939468
40
0.930071263662562
40
0.930071263662562
40
0.945835183385657
40
0.945835183385657
40
0.961599103108751
40
0.961599103108751
40
0.977363022831846
40
0.977363022831846
40
0.993126942554941
40
0.993126942554941
40
1
40
1
40
1
40
1
41
1
10
4.68159024546094
20
2.61152729256574
30
0
41
1
10
4.89190468750499
20
2.60620800701946
30
0
41
1
10
5.10120224708291
20
2.59437019449115
30
0
41
1
10
5.41397877889793
20
2.56736740880433
30
0
41
1
10
5.51803571516518
20
2.55682127157672
30
0
41
1
10
5.72581279446564
20
2.53274592104842
30
0
41
1
10
5.82954890334779
20
2.51923170683844
30
0
41
1
10
6.03687577659795
20
2.48951824568371
30
0
41
1
10
6.14047445758769
20
2.47329252858631
30
0
41
1
10
6.34788769759129
20
2.43778576255599
30
0
41
1
10
6.45165822806661
20
2.41848953323608
30
0
41
1
10
6.65924950603304
20
2.37695675943419
30
0
41
1
10
6.76309291740571
20
2.3547377054916
30
0
41
1
10
6.97084277952101
20
2.30757777811175
30
0
41
1
10
7.07473904767167
20
2.28264257005901
30
0
41
1
10
7.28262228902824
20
2.22996140466236
30
0
41
1
10
7.38660251667076
20
2.2022045512314
30
0
41
1
10
7.59483107483297
20
2.14386535628313
30
0
41
1
10
7.69908211489854
20
2.11326193043738
30
0
41
1
10
7.90800180494765
20
2.04945975047761
30
0
41
1
10
8.01272545176849
20
2.01634230120345
30
0
41
1
10
8.22254867267409
20
1.94766338988322
30
0
41
1
10
8.32725847058066
20
1.91220815005235
30
0
41
1
10
8.53630740012929
20
1.83919815903198
30
0
41
1
10
8.64065677618478
20
1.80163276827326
30
0
41
1
10
8.8490749177312
20
1.72438671949942
30
0
41
1
10
8.95314685946116
20
1.68469475989124
30
0
41
1
10
9.1610607314706
20
1.60326989119074
30
0
41
1
10
9.26490935007959
20
1.56155633434383
30
0
41
1
10
9.4724516525857
20
1.47632912689167
30
0
41
1
10
9.57613250038602
20
1.43280564129026
30
0
41
1
10
9.78359136125491
20
1.34441875805936
30
0
41
1
10
9.88732033897131
20
1.29946373749417
30
0
41
1
10
10.0948151977183
20
1.20799869130462
30
0
41
1
10
10.1986135673733
20
1.16153126420895
30
0
41
1
10
10.4063780319742
20
1.06724096824035
30
0
41
1
10
10.5103323491501
20
1.01941220132014
30
0
41
1
10
10.7183016424846
20
0.922347588884492
30
0
41
1
10
10.8222914915197
20
0.873084921837489
30
0
41
1
10
11.0304000693272
20
0.773276094462062
30
0
41
1
10
11.1345461685504
20
0.722733091350307
30
0
41
1
10
11.3433606618934
20
0.620864649091033
30
0
41
1
10
11.448064664766
20
0.569644341941455
30
0
41
1
10
11.6579277628488
20
0.46644084662401
30
0
41
1
10
11.7626820338797
20
0.414633622493682
30
0
41
1
10
11.9717388834164
20
0.310756210818198
30
0
41
1
10
12.0760572036412
20
0.2586473276763
30
0
41
1
10
12.2842741577621
20
0.15408890911533
30
0
41
1
10
12.3881840509273
20
0.101680600187279
30
0
41
1
10
12.5957598300587
20
-0.0029985167256541
30
0
41
1
10
12.699423228717
20
-0.0552873544165209
30
0
41
1
10
12.9065710568626
20
-0.159662590095905
30
0
41
1
10
13.0100545265577
20
-0.211749160161872
30
0
41
1
10
13.2170643396157
20
-0.315303982785792
30
0
41
1
10
13.3205304499172
20
-0.366899265784554
30
0
41
1
10
13.5273183208984
20
-0.469874122173764
30
0
41
1
10
13.6306825457853
20
-0.521153568548868
30
0
41
1
10
13.8376036971407
20
-0.622688717684923
30
0
41
1
10
13.9411380177563
20
-0.673003030306205
30
0
41
1
10
14.251835469532
20
-0.822920170323897
30
0
41
1
10
14.4590656742849
20
-0.921540624690465
30
0
41
1
10
14.7703430256393
20
-1.0671019901684
30
0
41
1
10
14.8742588323957
20
-1.11505494385051
30
0
41
1
10
15.0826649968598
20
-1.20918655652514
30
0
41
1
10
15.1871259574022
20
-1.25543077257174
30
0
41
1
10
15.3441565486727
20
-1.32371015212666
30
0
41
1
10
15.3965559210041
20
-1.34628958941738
30
0
41
1
10
15.5014629241753
20
-1.39109733094395
30
0
41
1
10
15.5539701455371
20
-1.41332622728069
30
0
41
1
10
15.7112968555656
20
-1.47937882170916
30
0
41
1
10
15.8160338433843
20
-1.52262463553248
30
0
41
1
10
16.0251762988089
20
-1.60771217524172
30
0
41
1
10
16.1295929699668
20
-1.64951830360826
30
0
41
1
10
16.3384905464879
20
-1.73051197361229
30
0
41
1
10
16.4429724102807
20
-1.76970906543991
30
0
41
1
10
16.7567435163107
20
-1.88361003475811
30
0
41
1
10
16.9660850780925
20
-1.95502889601971
30
0
41
1
10
17.2801458079718
20
-2.05632717016877
30
0
41
1
10
17.3848730907949
20
-2.08918196678752
30
0
41
1
10
17.5944862101392
20
-2.15170974830389
30
0
41
1
10
17.6992280374025
20
-2.18125846024847
30
0
41
1
10
17.9085584043264
20
-2.23760963271383
30
0
41
1
10
18.0131236717525
20
-2.26445865213722
30
0
41
1
10
18.2221931959798
20
-2.3155472919311
30
0
41
1
10
18.3267547351559
20
-2.33973519963612
30
0
41
1
10
18.5357332524225
20
-2.38578415751584
30
0
41
1
10
18.6401177220391
20
-2.40773838644569
30
0
41
1
10
18.8491311022479
20
-2.44815675834025
30
0
41
1
10
18.9538185206295
20
-2.46644763895398
30
0
41
1
10
19.1634034516356
20
-2.49984322325813
30
0
41
1
10
19.2682957152396
20
-2.51504249252713
30
0
41
1
10
19.4780315197049
20
-2.5426536879188
30
0
41
1
10
19.5827346897128
20
-2.55503734304742
30
0
41
1
10
19.7918817494901
20
-2.57699914572567
30
0
41
1
10
19.8963167584174
20
-2.586634182924
30
0
41
1
10
20.1053347228439
20
-2.60248353547763
30
0
41
1
10
20.2098941120467
20
-2.60858742530522
30
0
41
1
10
20.4191069777005
20
-2.61736304181127
30
0
41
1
10
20.5237565728702
20
-2.6200983879265
30
0
41
1
10
20.7330729459319
20
-2.62259430969644
30
0
41
1
10
20.8377252168078
20
-2.6223819500598
30
0
41
1
10
21.0470327257239
20
-2.61894178955294
30
0
41
1
10
21.1517089160181
20
-2.61569486825033
30
0
41
1
10
21.3612176709319
20
-2.60586097377131
30
0
41
1
10
21.4658459013851
20
-2.59923873280599
30
0
41
1
10
21.6751055760982
20
-2.5826943530063
30
0
41
1
10
21.7797773539304
20
-2.57281626552469
30
0
41
1
10
21.9890044107525
20
-2.55006422907215
30
0
41
1
10
22.093574877252
20
-2.53719249581317
30
0
41
1
10
22.30258054297
20
-2.5087528289001
30
0
41
1
10
22.4070371338758
20
-2.49311236895201
30
0
41
1
10
22.6160884442975
20
-2.45851471777573
30
0
41
1
10
22.7206648227293
20
-2.43958732763218
30
0
41
1
10
22.9299783614427
20
-2.39857359479549
30
0
41
1
10
23.0347219263717
20
-2.37651393130329
30
0
41
1
10
23.2443555089266
20
-2.32954437001192
30
0
41
1
10
23.3489501753348
20
-2.30472654529439
30
0
41
1
10
23.5578268723542
20
-2.25278559606789
30
0
41
1
10
23.6620476123067
20
-2.22557660040687
30
0
41
1
10
23.8702601675472
20
-2.16838955517139
30
0
41
1
10
23.9742515179046
20
-2.13846324764873
30
0
41
1
10
24.182043696248
20
-2.07609091979307
30
0
41
1
10
24.2858351529287
20
-2.043654723266
30
0
41
1
10
24.4346854871688
20
-1.99536916656845
30
0
41
1
10
24.4798524162731
20
-1.98048235958427
30
0
41
1
10
24.5249957334786
20
-1.96537531509509
30
0
0
SPLINE
5
F8
100
AcDbEntity
8
1
62
256
6
ByLayer
370
18
48
1
60
0
100
AcDbSpline
70
4
71
3
72
46
73
42
40
0
40
0
40
0
40
0
40
0.0081004756167694
40
0.0081004756167694
40
0.0907587693153612
40
0.0907587693153612
40
0.132087916164657
40
0.132087916164657
40
0.173417063013953
40
0.173417063013953
40
0.194081636438603
40
0.194081636438603
40
0.214746209863253
40
0.214746209863253
40
0.256075356712554
40
0.256075356712554
40
0.338733650411159
40
0.338733650411159
40
0.421391944109764
40
0.421391944109764
40
0.462721090959065
40
0.462721090959065
40
0.504050237808365
40
0.504050237808365
40
0.586708531506966
40
0.586708531506966
40
0.628037678356266
40
0.628037678356266
40
0.669366825205566
40
0.669366825205566
40
0.710695972054867
40
0.710695972054867
40
0.73136054547952
40
0.73136054547952
40
0.752025118904172
40
0.752025118904172
40
0.834683412602782
40
0.834683412602782
40
0.917341706301391
40
0.917341706301391
40
1
40
1
40
1
40
1
41
1
10
37.1296277577679
20
2.63183876895181
30
0
41
1
10
37.1499200009156
20
2.63173357272518
30
0
41
1
10
37.1702171512615
20
2.63156744645201
30
0
41
1
10
37.3976900123268
20
2.62903122138715
30
0
41
1
10
37.6051998040337
20
2.62040175158981
30
0
41
1
10
37.9171664987803
20
2.59835192847945
30
0
41
1
10
38.0212626244919
20
2.5894856286167
30
0
41
1
10
38.2296292895992
20
2.56876786708165
30
0
41
1
10
38.3338930651774
20
2.55692411627777
30
0
41
1
10
38.4904793666671
20
2.53694037550321
30
0
41
1
10
38.5427087530827
20
2.52990404693202
30
0
41
1
10
38.6472618794055
20
2.51505717794379
30
0
41
1
10
38.6996001333661
20
2.50724545107596
30
0
41
1
10
38.8565019462618
20
2.48270319296699
30
0
41
1
10
38.9610816116841
20
2.4648524627917
30
0
41
1
10
39.2746842109301
20
2.40650614909902
30
0
41
1
10
39.4836731379662
20
2.36144345871995
30
0
41
1
10
39.9014889216678
20
2.26022716711293
30
0
41
1
10
40.1102393606177
20
2.20389438125261
30
0
41
1
10
40.4239296773372
20
2.11124002404659
30
0
41
1
10
40.5286554676668
20
2.07904554148286
30
0
41
1
10
40.7383421701182
20
2.01233756293101
30
0
41
1
10
40.8430721795119
20
1.97780614342278
30
0
41
1
10
41.1569653369109
20
1.87086263789004
30
0
41
1
10
41.3658655220913
20
1.795121874497
30
0
41
1
10
41.6790506766043
20
1.67479933924685
30
0
41
1
10
41.7834215558251
20
1.63357888527793
30
0
41
1
10
41.9922217400527
20
1.54912354638884
30
0
41
1
10
42.0966305688415
20
1.50585429860982
30
0
41
1
10
42.3057133717285
20
1.41769728231279
30
0
41
1
10
42.4103967359665
20
1.37283421767955
30
0
41
1
10
42.5675655190057
20
1.30419674073247
30
0
41
1
10
42.6199622581318
20
1.28111322622979
30
0
41
1
10
42.724613641858
20
1.23464234721027
30
0
41
1
10
42.77689244372
20
1.21124276115228
30
0
41
1
10
43.0380791759862
20
1.09346764128719
30
0
41
1
10
43.2463751760264
20
0.996764768024434
30
0
41
1
10
43.6617884364187
20
0.798837905239026
30
0
41
1
10
43.8688982718825
20
0.697606361772188
30
0
41
1
10
44.2833313698585
20
0.493250619985503
30
0
41
1
10
44.490368622472
20
0.389607440642948
30
0
41
1
10
44.6975858045288
20
0.285102987414859
30
0
0
SPLINE
5
F9
100
AcDbEntity
8
1
62
256
6
ByLayer
370
18
48
1
60
0
100
AcDbSpline
70
4
71
3
72
8
73
4
40
0
40
0
40
0
40
0
40
1
40
1
40
1
40
1
41
1
10
4.43578971089394
20
2.6147675804695
30
0
41
1
10
4.51713352886054
20
2.61475175370805
30
0
41
1
10
4.59903688114994
20
2.61362496692567
30
0
41
1
10
4.6814408854797
20
2.61153106913343
30
0
0
SPLINE
5
FA
100
AcDbEntity
8
1
62
256
6
ByLayer
370
13
48
1
60
0
100
AcDbSpline
70
4
71
3
72
36
73
32
40
0
40
0
40
0
40
0
40
0.0237922817248968
40
0.0237922817248968
40
0.0586568430918648
40
0.0586568430918648
40
0.0935214044588327
40
0.0935214044588327
40
0.163250527192769
40
0.163250527192769
40
0.302708772660641
40
0.302708772660641
40
0.337573334027609
40
0.337573334027609
40
0.372437895394577
40
0.372437895394577
40
0.442167018128512
40
0.511896140862448
40
0.529328421545932
40
0.529328421545932
40
0.546760702229416
40
0.546760702229416
40
0.581625263596384
40
0.581625263596384
40
0.721083509064256
40
0.721083509064256
40
0.790812631798192
40
0.790812631798192
40
0.860541754532128
40
0.860541754532128
40
1
40
1
40
1
40
1
41
1
10
3.7515882231352
20
2.61208795691212
30
0
41
1
10
3.75158411550751
20
2.61195527713949
30
0
41
1
10
3.75157981500564
20
2.61139461507852
30
0
41
1
10
3.75156875414851
20
2.60895443083547
30
0
41
1
10
3.75156177530988
20
2.60657528420447
30
0
41
1
10
3.75154703184273
20
2.59992190511818
30
0
41
1
10
3.75153931506858
20
2.59566816924573
30
0
41
1
10
3.75151524687905
20
2.58020245242628
30
0
41
1
10
3.75149796258606
20
2.56628300398776
30
0
41
1
10
3.75144279913852
20
2.51393054447286
30
0
41
1
10
3.75140167445926
20
2.46499392598935
30
0
41
1
10
3.75134516408099
20
2.38569443475998
30
0
41
1
10
3.75133359305803
20
2.36890511030177
30
0
41
1
10
3.75131015209399
20
2.33381836031512
30
0
41
1
10
3.75129825527631
20
2.31548437080963
30
0
41
1
10
3.75126203374597
20
2.25814125591342
30
0
41
1
10
3.75121232921225
20
2.17545032645046
30
0
41
1
10
3.75115301666602
20
2.06849387896023
30
0
41
1
10
3.75111871242953
20
2.00414554498059
30
0
41
1
10
3.75110487662081
20
1.97800708813077
30
0
41
1
10
3.75109789881395
20
1.96473245326973
30
0
41
1
10
3.7510768901264
20
1.92450352660882
30
0
41
1
10
3.75106275155093
20
1.89708334308779
30
0
41
1
10
3.75099131800576
20
1.75703247801201
30
0
41
1
10
3.75093185509257
20
1.63562586561659
30
0
41
1
10
3.75083708951436
20
1.4395947520257
30
0
41
1
10
3.75080456216679
20
1.37191653597034
30
0
41
1
10
3.75073712763049
20
1.23173053270889
30
0
41
1
10
3.75070267096987
20
1.16016459263139
30
0
41
1
10
3.75059658710899
20
0.941427614994268
30
0
41
1
10
3.75052222340625
20
0.790132660709332
30
0
41
1
10
3.75044222987785
20
0.633226396405831
30
0
0
SPLINE
5
FB
100
AcDbEntity
8
1
62
256
6
ByLayer
370
18
48
1
60
0
100
AcDbSpline
70
4
71
3
72
44
73
40
40
0
40
0
40
0
40
0
40
0.0624999999999979
40
0.0624999999999979
40
0.124999999999996
40
0.124999999999996
40
0.156249999999995
40
0.156249999999995
40
0.187499999999993
40
0.187499999999993
40
0.249999999999992
40
0.249999999999992
40
0.31249999999999
40
0.31249999999999
40
0.374999999999988
40
0.374999999999988
40
0.390624999999988
40
0.390624999999988
40
0.406249999999987
40
0.437499999999987
40
0.437499999999987
40
0.499999999999988
40
0.562499999999988
40
0.562499999999988
40
0.593749999999989
40
0.593749999999989
40
0.62499999999999
40
0.62499999999999
40
0.687499999999991
40
0.749999999999992
40
0.812499999999994
40
0.812499999999994
40
0.843749999999995
40
0.843749999999995
40
0.874999999999996
40
0.874999999999996
40
0.937499999999998
40
0.937499999999998
40
1
40
1
40
1
40
1
41
1
10
44.6975858045293
20
0.285102987415968
30
0
41
1
10
44.6934256148041
20
0.202570480048934
30
0
41
1
10
44.6916881589929
20
0.120047132064627
30
0
41
1
10
44.6921652367875
20
-0.0449855982361953
30
0
41
1
10
44.6943810861601
20
-0.127494974115137
30
0
41
1
10
44.7000833673741
20
-0.251251523533909
30
0
41
1
10
44.7023812809216
20
-0.292502451805149
30
0
41
1
10
44.7076811060212
20
-0.375002270586805
30
0
41
1
10
44.7106926304023
20
-0.41636219561471
30
0
41
1
10
44.7205635394405
20
-0.539365370908598
30
0
41
1
10
44.7282507036616
20
-0.620028696438624
30
0
41
1
10
44.7450435378188
20
-0.778838635342652
30
0
41
1
10
44.7541507815937
20
-0.856984828642993
30
0
41
1
10
44.7731389111377
20
-1.0108325542943
30
0
41
1
10
44.7830206970501
20
-1.08653407317803
30
0
41
1
10
44.7955213320986
20
-1.17962760298153
30
0
41
1
10
44.7980321055073
20
-1.19819128627176
30
0
41
1
10
44.803039587863
20
-1.23500366427399
30
0
41
1
10
44.8105339791075
20
-1.28978134947278
30
0
41
1
10
44.8179458157587
20
-1.34325376835417
30
0
41
1
10
44.8325868778061
20
-1.44849086906265
30
0
41
1
10
44.8516134414184
20
-1.58426159937099
30
0
41
1
10
44.8690775435625
20
-1.71107202019098
30
0
41
1
10
44.8814644198356
20
-1.80276662385364
30
0
41
1
10
44.8854757517134
20
-1.83276157149311
30
0
41
1
10
44.8932534086938
20
-1.89158958811174
30
0
41
1
10
44.8970238078696
20
-1.92045629864188
30
0
41
1
10
44.9078531485566
20
-2.00439052475096
30
0
41
1
10
44.9210817478322
20
-2.10981127839724
30
0
41
1
10
44.9378272846162
20
-2.24891163796656
30
0
41
1
10
44.9475109081926
20
-2.3289136093797
30
0
41
1
10
44.954535268776
20
-2.38399664963154
30
0
41
1
10
44.9568434939382
20
-2.40157448531519
30
0
41
1
10
44.9614146919355
20
-2.43479762227147
30
0
41
1
10
44.9636790183905
20
-2.45045665970741
30
0
41
1
10
44.9705204493472
20
-2.49461045306734
30
0
41
1
10
44.9751430083088
20
-2.52028768571458
30
0
41
1
10
44.9851750735134
20
-2.56416288185085
30
0
41
1
10
44.990584162391
20
-2.58235925485533
30
0
41
1
10
44.9967701926383
20
-2.59674559360846
30
0
0
SPLINE
5
FC
100
AcDbEntity
8
1
62
256
6
ByLayer
370
18
48
1
60
0
100
AcDbSpline
70
4
71
3
72
8
73
4
40
0
40
0
40
0
40
0
40
1
40
1
40
1
40
1
41
1
10
44.9722100309505
20
-2.7093347333076
30
0
41
1
10
44.9677254599602
20
-2.72225453980124
30
0
41
1
10
44.9632613582786
20
-2.73517363530601
30
0
41
1
10
44.9588180776732
20
-2.74809233263463
30
0
0
SPLINE
5
FD
100
AcDbEntity
8
1
62
256
6
ByLayer
370
18
48
1
60
0
100
AcDbSpline
70
4
71
3
72
55
73
51
40
0
40
0
40
0
40
0
40
0.0825457117728055
40
0.0825457117728055
40
0.103182139716008
40
0.103182139716008
40
0.113500353687609
40
0.113500353687609
40
0.12381856765921
40
0.12381856765921
40
0.165091423545613
40
0.165091423545613
40
0.247637135318417
40
0.247637135318417
40
0.288909991204819
40
0.288909991204819
40
0.330182847091222
40
0.330182847091222
40
0.350819275034422
40
0.350819275034422
40
0.361137489006024
40
0.361137489006024
40
0.371455702977625
40
0.41272855886403
40
0.41272855886403
40
0.495274270636837
40
0.495274270636837
40
0.577819982409645
40
0.577819982409645
40
0.598456410352846
40
0.598456410352846
40
0.608774624324447
40
0.608774624324447
40
0.619092838296047
40
0.660365694182452
40
0.660365694182452
40
0.742911405955262
40
0.742911405955262
40
0.825457117728071
40
0.825457117728071
40
0.835775331699673
40
0.835775331699673
40
0.846093545671276
40
0.846093545671276
40
0.86672997361448
40
0.908002829500887
40
0.908002829500887
40
0.990548541273698
40
0.990548541273698
40
1
40
1
40
1
40
1
41
1
10
44.9588180776742
20
-2.74809233261937
30
0
41
1
10
44.5265089399425
20
-2.71570432958723
30
0
41
1
10
44.0955303183528
20
-2.65499997193243
30
0
41
1
10
43.5554130750645
20
-2.54570662064933
30
0
41
1
10
43.4473216123674
20
-2.52217226932575
30
0
41
1
10
43.2850100726556
20
-2.48439719407321
30
0
41
1
10
43.230877034286
20
-2.47139337230391
30
0
41
1
10
43.122539690812
20
-2.44456923515506
30
0
41
1
10
43.0683111038603
20
-2.43074214782422
30
0
41
1
10
42.7976176401564
20
-2.35976387152175
30
0
41
1
10
42.582047299723
20
-2.29699076785042
30
0
41
1
10
41.9372397627593
20
-2.09218392661299
30
0
41
1
10
41.5099230386183
20
-1.93361945606614
30
0
41
1
10
40.8683588698349
20
-1.66906678111209
30
0
41
1
10
40.6544024085298
20
-1.57644389484901
30
0
41
1
10
40.2256535849693
20
-1.38324646111056
30
0
41
1
10
40.0108757057033
20
-1.28264389180163
30
0
41
1
10
39.6874961526995
20
-1.12665191839827
30
0
41
1
10
39.5794979674713
20
-1.07381240077089
30
0
41
1
10
39.417121359996
20
-0.993402281670626
30
0
41
1
10
39.3628912470522
20
-0.966385281663804
30
0
41
1
10
39.2545156731436
20
-0.912092237554447
30
0
41
1
10
38.9838956716928
20
-0.77576932022501
30
0
41
1
10
38.7147491945113
20
-0.636727464240323
30
0
41
1
10
38.0706355750021
20
-0.299711305327719
30
0
41
1
10
37.6434863820453
20
-0.070980217703152
30
0
41
1
10
36.787928016098
20
0.383489165545797
30
0
41
1
10
36.3595566953654
20
0.609300483131847
30
0
41
1
10
35.819973731039
20
0.883297602263099
30
0
41
1
10
35.7118406428174
20
0.937663455409478
30
0
41
1
10
35.5492403968789
20
1.0184163185088
30
0
41
1
10
35.495021173465
20
1.04517830420323
30
0
41
1
10
35.3867748844536
20
1.09825426708878
30
0
41
1
10
35.1164603099753
20
1.22991091186981
30
0
41
1
10
34.8475249773437
20
1.35622101406344
30
0
41
1
10
34.2036859078609
20
1.6475621471688
30
0
41
1
10
33.7764792120561
20
1.82585029598707
30
0
41
1
10
32.9206911768809
20
2.1427943253662
30
0
41
1
10
32.4920255666582
20
2.28132984666087
30
0
41
1
10
32.0057358294745
20
2.41037335646598
30
0
41
1
10
31.9516469732923
20
2.4243386734646
30
0
41
1
10
31.8433432846575
20
2.45150701960162
30
0
41
1
10
31.7890845233707
20
2.4647202792122
30
0
41
1
10
31.6265124768431
20
2.50309800116679
30
0
41
1
10
31.3021306224922
20
2.57482788573179
30
0
41
1
10
30.9796254418011
20
2.63135808866988
30
0
41
1
10
30.3360578538542
20
2.72385471196148
30
0
41
1
10
29.9088743545742
20
2.75805914793557
30
0
41
1
10
29.4317611459854
20
2.76490974619628
30
0
41
1
10
29.382731802035
20
2.76524568573095
30
0
41
1
10
29.3336857582946
20
2.76521316814592
30
0
0
SPLINE
5
FE
100
AcDbEntity
8
1
62
256
6
ByLayer
370
18
48
1
60
0
100
AcDbSpline
70
4
71
3
72
43
73
39
40
0
40
0
40
0
40
0
40
0.0576594361176535
40
0.0576594361176535
40
0.0871075787389742
40
0.0871075787389742
40
0.116555721360295
40
0.116555721360295
40
0.175452006602936
40
0.175452006602936
40
0.204900149224258
40
0.204900149224258
40
0.234348291845579
40
0.234348291845579
40
0.293244577088222
40
0.293244577088222
40
0.307968648398883
40
0.307968648398883
40
0.322692719709545
40
0.322692719709545
40
0.352140862330869
40
0.352140862330869
40
0.411037147573516
40
0.411037147573516
40
0.528829718058809
40
0.528829718058809
40
0.646622288544101
40
0.646622288544101
40
0.661346359854764
40
0.661346359854764
40
0.676070431165426
40
0.676070431165426
40
0.705518573786751
40
0.764414859029401
40
0.764414859029401
40
0.882207429514701
40
0.882207429514701
40
1
40
1
40
1
40
1
41
1
10
14.5887195254625
20
-2.62601404401548
30
0
41
1
10
14.3769707395373
20
-2.65993660965958
30
0
41
1
10
14.1660317202433
20
-2.68716563708659
30
0
41
1
10
13.8481109555722
20
-2.71819757287071
30
0
41
1
10
13.7407654035021
20
-2.72694562369935
30
0
41
1
10
13.5262981743963
20
-2.74095774520094
30
0
41
1
10
13.4191702547259
20
-2.74621812178822
30
0
41
1
10
13.0978794935066
20
-2.75674018062429
30
0
41
1
10
12.8838236349441
20
-2.75675077456063
30
0
41
1
10
12.5624631942042
20
-2.74629151000275
30
0
41
1
10
12.4553006845121
20
-2.74105927610535
30
0
41
1
10
12.2408432953377
20
-2.72709149601215
30
0
41
1
10
12.1335415302454
20
-2.71835565399979
30
0
41
1
10
11.8112022096719
20
-2.68692365811646
30
0
41
1
10
11.5957455889002
20
-2.65900345802905
30
0
41
1
10
11.3253031578523
20
-2.61544389240473
30
0
41
1
10
11.2711592486517
20
-2.60629858119913
30
0
41
1
10
11.1627543367956
20
-2.58713857181536
30
0
41
1
10
11.1084508908383
20
-2.57711508410077
30
0
41
1
10
10.9457040324157
20
-2.54580718941006
30
0
41
1
10
10.8374750092768
20
-2.523301862419
30
0
41
1
10
10.5133964001193
20
-2.45109733190091
30
0
41
1
10
10.2981675501737
20
-2.39670234185789
30
0
41
1
10
9.65391584615824
20
-2.21603903019579
30
0
41
1
10
9.22628780379253
20
-2.07232627555481
30
0
41
1
10
8.36927283258709
20
-1.74541380770395
30
0
41
1
10
7.93986911458222
20
-1.56223126605718
30
0
41
1
10
7.45256537627463
20
-1.33827942209589
30
0
41
1
10
7.39836191209619
20
-1.31314768770201
30
0
41
1
10
7.28982507350136
20
-1.26240582579226
30
0
41
1
10
7.23551958606762
20
-1.23680839809978
30
0
41
1
10
7.07290764098192
20
-1.15957539385653
30
0
41
1
10
6.748412786676
20
-1.00312145895032
30
0
41
1
10
6.42567321722012
20
-0.841529997111962
30
0
41
1
10
5.78155626959287
20
-0.513373869166912
30
0
41
1
10
5.35403968601969
20
-0.287816260812804
30
0
41
1
10
4.49664834505998
20
0.165062406499601
30
0
41
1
10
4.06677068255033
20
0.392366722893144
30
0
41
1
10
3.63317771553054
20
0.615659016954481
30
0
0
SPLINE
5
FF
100
AcDbEntity
8
1
62
256
6
ByLayer
370
13
48
1
60
0
100
AcDbSpline
70
4
71
3
72
25
73
21
40
0
40
0
40
0
40
0
40
0.191828131365877
40
0.191828131365877
40
0.287742197048815
40
0.287742197048815
40
0.383656262731754
40
0.383656262731754
40
0.479570328414691
40
0.527527361256162
40
0.527527361256162
40
0.551505877676896
40
0.551505877676896
40
0.575484394097629
40
0.575484394097629
40
0.767312525463497
40
0.767312525463497
40
0.959140656829366
40
0.959140656829366
40
1
40
1
40
1
40
1
41
1
10
3.75044222987785
20
0.633226396405831
30
0
41
1
10
4.1830901144009
20
0.422855608096199
30
0
41
1
10
4.61228170517043
20
0.207687217412939
30
0
41
1
10
5.25462009530915
20
-0.114702660296558
30
0
41
1
10
5.46849759957081
20
-0.222093908910182
30
0
41
1
10
5.89646317911362
20
-0.435355241838607
30
0
41
1
10
6.11058774724592
20
-0.541146930379142
30
0
41
1
10
6.53970934222983
20
-0.749849931677403
30
0
41
1
10
6.8621890271113
20
-0.904250901869801
30
0
41
1
10
7.18635376349096
20
-1.05398820227833
30
0
41
1
10
7.34878016983794
20
-1.12795215579885
30
0
41
1
10
7.40300659236343
20
-1.1524679162095
30
0
41
1
10
7.51146413137764
20
-1.20112068127011
30
0
41
1
10
7.56563144189897
20
-1.22522939666175
30
0
41
1
10
8.0526379981483
20
-1.44016342870629
30
0
41
1
10
8.48201037370774
20
-1.61669501984738
30
0
41
1
10
9.33892443684448
20
-1.93302677838557
30
0
41
1
10
9.7664921532558
20
-2.07281979401967
30
0
41
1
10
10.2871168999608
20
-2.21586376107518
30
0
41
1
10
10.3786121092363
20
-2.2399881691172
30
0
41
1
10
10.4702083682714
20
-2.26308605115571
30
0
0
SPLINE
5
100
100
AcDbEntity
8
1
62
256
6
ByLayer
370
18
48
1
60
0
100
AcDbSpline
70
4
71
3
72
20
73
16
40
0
40
0
40
0
40
0
40
0.137058331452149
40
0.137058331452149
40
0.256447075804818
40
0.256447075804818
40
0.316141447981149
40
0.316141447981149
40
0.375835820157482
40
0.375835820157482
40
0.614613308862804
40
0.614613308862804
40
0.853390797568125
40
0.853390797568125
40
1
40
1
40
1
40
1
41
1
10
10.4702085535303
20
-2.26308609787256
30
0
41
1
10
10.5936271823515
20
-2.29420864354017
30
0
41
1
10
10.7172292711438
20
-2.32346748955535
30
0
41
1
10
10.9489620824337
20
-2.37457600680682
30
0
41
1
10
11.0570334836338
20
-2.39689887882685
30
0
41
1
10
11.2194974219837
20
-2.42812161053399
30
0
41
1
10
11.2737522568933
20
-2.438157632036
30
0
41
1
10
11.3821542074306
20
-2.45741273172507
30
0
41
1
10
11.4362956500022
20
-2.46663133508861
30
0
41
1
10
11.7067218953644
20
-2.51066281271844
30
0
41
1
10
11.9221673184771
20
-2.53930435396799
30
0
41
1
10
12.3519498295465
20
-2.58332393836318
30
0
41
1
10
12.5663393819228
20
-2.59881190432901
30
0
41
1
10
12.9120272366764
20
-2.61307650446892
30
0
41
1
10
13.043445973777
20
-2.61598655943837
30
0
41
1
10
13.1748528879804
20
-2.61637806850442
30
0
0
SPLINE
5
101
100
AcDbEntity
8
1
62
256
6
ByLayer
370
13
48
1
60
0
100
AcDbSpline
70
4
71
3
72
51
73
47
40
0
40
0
40
0
40
0
40
0.0530303229539844
40
0.0530303229539844
40
0.112215927769362
40
0.112215927769362
40
0.17140153258474
40
0.17140153258474
40
0.230587137400117
40
0.230587137400117
40
0.245383538603962
40
0.245383538603962
40
0.260179939807807
40
0.260179939807807
40
0.289772742215492
40
0.289772742215492
40
0.408143951846239
40
0.408143951846239
40
0.467329556661613
40
0.467329556661613
40
0.526515161476986
40
0.526515161476986
40
0.58570076629236
40
0.58570076629236
40
0.644886371107733
40
0.644886371107733
40
0.659682772311576
40
0.659682772311576
40
0.67447917351542
40
0.67447917351542
40
0.704071975923109
40
0.704071975923109
40
0.763257580738489
40
0.763257580738489
40
0.822443185553868
40
0.822443185553868
40
0.881628790369247
40
0.881628790369247
40
0.940814395184627
40
0.940814395184627
40
0.970407197592315
40
0.985203598796159
40
0.992601799398081
40
0.99630089969904
40
0.99630089969904
40
1
40
1
40
1
40
1
41
1
10
34.1368583721028
20
1.67263160796583
30
0
41
1
10
34.3289005198325
20
1.59780775821642
30
0
41
1
10
34.5205843921819
20
1.51968964089715
30
0
41
1
10
34.9259556477308
20
1.34831583566185
30
0
41
1
10
35.1396466276107
20
1.25437768729162
30
0
41
1
10
35.5673493110796
20
1.06034898499595
30
0
41
1
10
35.7813629494904
20
0.960285175294672
30
0
41
1
10
36.210402298193
20
0.755291071883278
30
0
41
1
10
36.4254741049088
20
0.650420302748842
30
0
41
1
10
36.6953628846642
20
0.517002995908683
30
0
41
1
10
36.7493934024846
20
0.490203979236611
30
0
41
1
10
36.8575702976782
20
0.436394058405341
30
0
41
1
10
36.9117598349224
20
0.40936153267856
30
0
41
1
10
37.0741090075418
20
0.328179871771709
30
0
41
1
10
37.1820735277766
20
0.273934922698174
30
0
41
1
10
37.7207698239615
20
0.0025175499287968
30
0
41
1
10
38.1481170211266
20
-0.215254475130735
30
0
41
1
10
38.7878088309767
20
-0.534683000623573
30
0
41
1
10
39.0008446162969
20
-0.639905747109509
30
0
41
1
10
39.4270601223534
20
-0.84675237100555
30
0
41
1
10
39.6402434501304
20
-0.948370398146409
30
0
41
1
10
40.0673916540675
20
-1.14677478808548
30
0
41
1
10
40.2813676204776
20
-1.24354847419326
30
0
41
1
10
40.7108254344537
20
-1.43089848567925
30
0
41
1
10
40.9263000776655
20
-1.5214811014234
30
0
41
1
10
41.1969754773432
20
-1.63005615908364
30
0
41
1
10
41.251110437349
20
-1.65151122430973
30
0
41
1
10
41.3591927822669
20
-1.69380963414949
30
0
41
1
10
41.4131704406758
20
-1.71466514840969
30
0
41
1
10
41.5749284760025
20
-1.77633263999991
30
0
41
1
10
41.6825331270593
20
-1.81624625983429
30
0
41
1
10
42.0047799150019
20
-1.93224138358599
30
0
41
1
10
42.2188607165023
20
-2.00456941548919
30
0
41
1
10
42.6461979895063
20
-2.13845993003329
30
0
41
1
10
42.8594454898902
20
-2.20003085611344
30
0
41
1
10
43.2857079961734
20
-2.31180455562966
30
0
41
1
10
43.498738738113
20
-2.36200961610436
30
0
41
1
10
43.9252936104678
20
-2.4504270282207
30
0
41
1
10
44.1388110158219
20
-2.48862710293858
30
0
41
1
10
44.4598600844414
20
-2.53639416657398
30
0
41
1
10
44.6205776031916
20
-2.55789924302189
30
0
41
1
10
44.8085098215594
20
-2.57875065690897
30
0
41
1
10
44.9025941636595
20
-2.58810736859806
30
0
41
1
10
44.9429425474493
20
-2.5918872980611
30
0
41
1
10
44.9698474952982
20
-2.59435600661158
30
0
41
1
10
44.9832873133738
20
-2.59556575862277
30
0
41
1
10
44.9967701926341
20
-2.59674559360849
30
0
0
SPLINE
5
102
100
AcDbEntity
8
1
62
256
6
ByLayer
370
13
48
1
60
0
100
AcDbSpline
70
4
71
3
72
18
73
14
40
0
40
0
40
0
40
0
40
0.0209520594277597
40
0.0209520594277597
40
0.0419041188555193
40
0.083808237711041
40
0.167616475422093
40
0.167616475422093
40
0.335232950844196
40
0.335232950844196
40
0.670465901688402
40
0.670465901688402
40
1
40
1
40
1
40
1
41
1
10
44.9722100309485
20
-2.70933473330663
30
0
41
1
10
44.945279429435
20
-2.70731948195765
30
0
41
1
10
44.9183474977023
20
-2.70530167791409
30
0
41
1
10
44.8645189267615
20
-2.70098143627681
30
0
41
1
10
44.7838142548538
20
-2.69417954382479
30
0
41
1
10
44.5957583768403
20
-2.67606757171365
30
0
41
1
10
44.434962479312
20
-2.65673520554699
30
0
41
1
10
44.113781005661
20
-2.61308334176206
30
0
41
1
10
43.9002065392057
20
-2.57732030466912
30
0
41
1
10
43.2602760479793
20
-2.451013091612
30
0
41
1
10
42.8347155156751
20
-2.34152660542071
30
0
41
1
10
41.9872820716938
20
-2.07903428965622
30
0
41
1
10
41.5655365247237
20
-1.92672126363522
30
0
41
1
10
41.1394084598708
20
-1.75508872343641
30
0
0
SPLINE
5
103
100
AcDbEntity
8
1
62
256
6
ByLayer
370
18
48
1
60
0
100
AcDbSpline
70
4
71
3
72
30
73
26
40
0
40
0
40
0
40
0
40
0.0029317551795341
40
0.0029317551795341
40
0.0891609566791787
40
0.0891609566791787
40
0.175390158178823
40
0.175390158178823
40
0.347848561178117
40
0.347848561178117
40
0.520306964177411
40
0.520306964177411
40
0.563421564927234
40
0.563421564927234
40
0.584978865302145
40
0.584978865302145
40
0.606536165677056
40
0.606536165677056
40
0.6927653671767
40
0.6927653671767
40
0.778994568676345
40
0.778994568676345
40
0.86522377017599
40
0.86522377017599
40
1
40
1
40
1
40
1
41
1
10
41.1394085933372
20
-1.75508877719295
30
0
41
1
10
41.1320392325657
20
-1.75212060357063
30
0
41
1
10
41.124668561095
20
-1.74914665197446
30
0
41
1
10
40.9004703598247
20
-1.65852714311882
30
0
41
1
10
40.6847815605394
20
-1.56684214784301
30
0
41
1
10
40.2550094843067
20
-1.37664687088045
30
0
41
1
10
40.0409402822482
20
-1.2781190569923
30
0
41
1
10
39.4000434982853
20
-0.974335753899965
30
0
41
1
10
38.9744109804397
20
-0.761039308220745
30
0
41
1
10
38.1215536811396
20
-0.322050389892098
30
0
41
1
10
37.6941887942993
20
-0.0966233218873072
30
0
41
1
10
37.1552469136714
20
0.18570566600232
30
0
41
1
10
37.0472218635397
20
0.242199586934561
30
0
41
1
10
36.8847622174816
20
0.326856008699735
30
0
41
1
10
36.8305075583592
20
0.355077060925709
30
0
41
1
10
36.7221981237315
20
0.411289074123516
30
0
41
1
10
36.6681059399796
20
0.439299587778947
30
0
41
1
10
36.3979317099624
20
0.578828167027012
30
0
41
1
10
36.1827142208001
20
0.688783216061807
30
0
41
1
10
35.7534407368506
20
0.904110102881589
30
0
41
1
10
35.5393456284168
20
1.00943232546757
30
0
41
1
10
35.1115212099319
20
1.21418669169947
30
0
41
1
10
34.8978008163933
20
1.31361936862425
30
0
41
1
10
34.3497189166824
20
1.55948618204002
30
0
41
1
10
34.0151178003478
20
1.70086353872802
30
0
41
1
10
33.6788463900888
20
1.83136299981052
30
0
0
SPLINE
5
104
100
AcDbEntity
8
1
62
256
6
ByLayer
370
13
48
1
60
0
100
AcDbSpline
70
4
71
3
72
31
73
27
40
0
40
0
40
0
40
0
40
0.0546772834138088
40
0.0546772834138088
40
0.109574073217341
40
0.109574073217341
40
0.164470863020874
40
0.164470863020874
40
0.274264442627939
40
0.274264442627939
40
0.329161232431473
40
0.329161232431473
40
0.384058022235007
40
0.384058022235007
40
0.493851601842072
40
0.521299996743838
40
0.521299996743838
40
0.548748391645603
40
0.548748391645603
40
0.603645181449134
40
0.603645181449134
40
0.713438761056196
40
0.713438761056196
40
0.933025920270318
40
0.933025920270318
40
1
40
1
40
1
40
1
41
1
10
14.3471300851346
20
-2.62302099929818
30
0
41
1
10
14.2399348048935
20
-2.63744217956443
30
0
41
1
10
14.1328916650114
20
-2.65015840846317
30
0
41
1
10
13.9185965506869
20
-2.67222356809935
30
0
41
1
10
13.8113437716447
20
-2.68155372633339
30
0
41
1
10
13.5970214275443
20
-2.69682431727622
30
0
41
1
10
13.4899565037852
20
-2.70277921805328
30
0
41
1
10
13.1688344853286
20
-2.71548832183356
30
0
41
1
10
12.9548379298316
20
-2.71702741719167
30
0
41
1
10
12.6334789898749
20
-2.70895918352721
30
0
41
1
10
12.5262968403246
20
-2.70453589498354
30
0
41
1
10
12.3117735245871
20
-2.69226204224898
30
0
41
1
10
12.2044366858057
20
-2.6844220195446
30
0
41
1
10
11.8819810995706
20
-2.65573928018901
30
0
41
1
10
11.6125127006454
20
-2.62318224042872
30
0
41
1
10
11.3415702365938
20
-2.57986644781175
30
0
41
1
10
11.2330688982553
20
-2.56167818411322
30
0
41
1
10
11.1787529431888
20
-2.55215254901836
30
0
41
1
10
11.016130390697
20
-2.52239189457006
30
0
41
1
10
10.9079756189191
20
-2.50095129918182
30
0
41
1
10
10.5841004287081
20
-2.43197268959386
30
0
41
1
10
10.3689704287064
20
-2.37975853171628
30
0
41
1
10
9.72491270728659
20
-2.20572080948628
30
0
41
1
10
9.29730077986056
20
-2.06649017893304
30
0
41
1
10
8.73803234687225
20
-1.85905019413073
30
0
41
1
10
8.60723436966214
20
-1.80872950183894
30
0
41
1
10
8.47626894942999
20
-1.75667850310543
30
0
0
SPLINE
5
105
100
AcDbEntity
8
1
62
256
6
ByLayer
370
18
48
1
60
0
100
AcDbSpline
70
4
71
3
72
19
73
15
40
0
40
0
40
0
40
0
40
0.188092019953026
40
0.221921519121649
40
0.221921519121649
40
0.255751018290272
40
0.255751018290272
40
0.323410016627522
40
0.323410016627522
40
0.458728013302018
40
0.458728013302018
40
0.729364006651009
40
0.729364006651009
40
1
40
1
40
1
40
1
41
1
10
8.47626894873662
20
-1.75667850282983
30
0
41
1
10
8.17783952420575
20
-1.63807047963928
30
0
41
1
10
7.82470993600367
20
-1.48752968312346
30
0
41
1
10
7.46905721077061
20
-1.32626483566383
30
0
41
1
10
7.36049768579738
20
-1.27661482702274
30
0
41
1
10
7.30621065263753
20
-1.25157462719372
30
0
41
1
10
7.14362403949116
20
-1.17598784075685
30
0
41
1
10
7.03547212057438
20
-1.12491759197326
30
0
41
1
10
6.71159236174822
20
-0.969941968147396
30
0
41
1
10
6.49643830194509
20
-0.864275538106739
30
0
41
1
10
5.85229764925899
20
-0.542132247929203
30
0
41
1
10
5.42473250027393
20
-0.320302149215308
30
0
41
1
10
4.56739381813205
20
0.125867209895119
30
0
41
1
10
4.13760604210305
20
0.350188077209907
30
0
41
1
10
3.70408843504023
20
0.57070185666737
30
0
0
SPLINE
5
106
100
AcDbEntity
8
1
62
256
6
ByLayer
370
18
48
1
60
0
100
AcDbSpline
70
4
71
3
72
22
73
18
40
0
40
0
40
0
40
0
40
0.125
40
0.125
40
0.25
40
0.25
40
0.375
40
0.375
40
0.5
40
0.5
40
0.625
40
0.625
40
0.75
40
0.75
40
0.875
40
0.875
40
1
40
1
40
1
40
1
41
1
10
44.9967701926385
20
-2.59674559360886
30
0
41
1
10
44.997273993783
20
-2.59791724224931
30
0
41
1
10
44.9976122366511
20
-2.59956468459617
30
0
41
1
10
44.997928852089
20
-2.60387327084032
30
0
41
1
10
44.9979068031556
20
-2.60654760211472
30
0
41
1
10
44.997437585372
20
-2.61302699175815
30
0
41
1
10
44.9969970682469
20
-2.61675746868846
30
0
41
1
10
44.9956613651277
20
-2.62529747063229
30
0
41
1
10
44.9947495319986
20
-2.63017478055616
30
0
41
1
10
44.9925094405537
20
-2.64064386947172
30
0
41
1
10
44.9911792618291
20
-2.64626889224613
30
0
41
1
10
44.9880680732353
20
-2.65837243583229
30
0
41
1
10
44.986329247379
20
-2.66467945656208
30
0
41
1
10
44.9825978193805
20
-2.67746887295917
30
0
41
1
10
44.9805690268264
20
-2.68406796560242
30
0
41
1
10
44.9764562047588
20
-2.6968782845951
30
0
41
1
10
44.9743525613931
20
-2.70316221897252
30
0
41
1
10
44.9722100309508
20
-2.70933473330692
30
0
0
SPLINE
5
107
100
AcDbEntity
8
1
62
256
6
ByLayer
370
18
48
1
60
0
100
AcDbSpline
70
4
71
3
72
28
73
24
40
0
40
0
40
0
40
0
40
0.124999999999996
40
0.124999999999996
40
0.249999999999991
40
0.249999999999991
40
0.312499999999989
40
0.312499999999989
40
0.374999999999987
40
0.437499999999985
40
0.437499999999985
40
0.499999999999983
40
0.499999999999983
40
0.625000000000035
40
0.625000000000035
40
0.687500000000029
40
0.687500000000029
40
0.750000000000023
40
0.812500000000017
40
0.812500000000017
40
0.875000000000011
40
0.875000000000011
40
1
40
1
40
1
40
1
41
1
10
3.52703476062752
20
-2.72230472801175
30
0
41
1
10
3.53152200189862
20
-2.71250345603752
30
0
41
1
10
3.53672994535879
20
-2.70261260026535
30
0
41
1
10
3.54853574315106
20
-2.68331772801935
30
0
41
1
10
3.55513419875402
20
-2.67388290720643
30
0
41
1
10
3.56631522040331
20
-2.66012109999571
30
0
41
1
10
3.5702797794122
20
-2.65557663644958
30
0
41
1
10
3.5785784835835
20
-2.64676764346987
30
0
41
1
10
3.58723333865052
20
-2.63824530665917
30
0
41
1
10
3.596649890512
20
-2.63033558957778
30
0
41
1
10
3.60648181780448
20
-2.62275972055755
30
0
41
1
10
3.61164675299514
20
-2.6191136675007
30
0
41
1
10
3.62746739419779
20
-2.60895926612599
30
0
41
1
10
3.63843032960281
20
-2.60321734215148
30
0
41
1
10
3.65549221168135
20
-2.59613150556694
30
0
41
1
10
3.66132431910995
20
-2.59401328019266
30
0
41
1
10
3.67295057204467
20
-2.59036808457259
30
0
41
1
10
3.68453765719124
20
-2.58730301016808
30
0
41
1
10
3.69605317392381
20
-2.58529487218868
30
0
41
1
10
3.7075354884341
20
-2.58377624820986
30
0
41
1
10
3.713258509024
20
-2.58326441045355
30
0
41
1
10
3.73010149527929
20
-2.58241820237143
30
0
41
1
10
3.74100058580643
20
-2.58275124248382
30
0
41
1
10
3.75163366370955
20
-2.58380893643738
30
0
0
SPLINE
5
108
100
AcDbEntity
8
1
62
256
6
ByLayer
370
18
48
1
60
0
100
AcDbSpline
70
4
71
3
72
10
73
6
40
0
40
0
40
0
40
0
40
0.5
40
0.5
40
1
40
1
40
1
40
1
41
1
10
3.75163366383669
20
-2.58380893645003
30
0
41
1
10
3.90158763278353
20
-2.59872516368082
30
0
41
1
10
4.05443792003314
20
-2.60757263557051
30
0
41
1
10
4.36470743449377
20
-2.61601256169948
30
0
41
1
10
4.52213863981089
20
-2.61557896247569
30
0
41
1
10
4.68144088548075
20
-2.61153106913341
30
0
0
SPLINE
5
109
100
AcDbEntity
8
1
62
256
6
ByLayer
370
18
48
1
60
0
100
AcDbSpline
70
4
71
3
72
10
73
6
40
0
40
0
40
0
40
0
40
0.429137168424916
40
0.429137168424916
40
1
40
1
40
1
40
1
41
1
10
7.44122452380236
20
-1.76114110336459
30
0
41
1
10
7.04323918102827
20
-1.88029380578973
30
0
41
1
10
6.64658658699403
20
-2.00073766709403
30
0
41
1
10
5.72561205430767
20
-2.28370632885966
30
0
41
1
10
5.20238922736129
20
-2.4469754977132
30
0
41
1
10
4.68151754720094
20
-2.6115502623154
30
0
0
SPLINE
5
10A
100
AcDbEntity
8
1
62
256
6
ByLayer
370
18
48
1
60
0
100
AcDbSpline
70
4
71
3
72
101
73
97
40
0
40
0
40
0
40
0
40
0.0625000000000041
40
0.0625000000000041
40
0.093750000000005
40
0.093750000000005
40
0.109375000000004
40
0.109375000000004
40
0.125000000000004
40
0.125000000000004
40
0.156250000000005
40
0.156250000000005
40
0.171875000000004
40
0.171875000000004
40
0.187500000000003
40
0.187500000000003
40
0.218750000000002
40
0.218750000000002
40
0.250000000000001
40
0.250000000000001
40
0.257812500000002
40
0.257812500000002
40
0.265625000000002
40
0.281250000000004
40
0.281250000000004
40
0.296875000000005
40
0.296875000000005
40
0.304687500000006
40
0.304687500000006
40
0.312500000000007
40
0.312500000000007
40
0.34375000000001
40
0.34375000000001
40
0.351562500000012
40
0.351562500000012
40
0.359375000000013
40
0.375000000000016
40
0.375000000000016
40
0.382812500000017
40
0.382812500000017
40
0.390625000000019
40
0.390625000000019
40
0.406250000000021
40
0.406250000000021
40
0.437500000000026
40
0.437500000000026
40
0.453125000000029
40
0.453125000000029
40
0.460937500000031
40
0.460937500000031
40
0.468750000000032
40
0.468750000000032
40
0.500000000000042
40
0.500000000000042
40
0.531250000000051
40
0.531250000000051
40
0.562500000000061
40
0.562500000000061
40
0.578125000000066
40
0.578125000000066
40
0.593750000000071
40
0.593750000000071
40
0.62500000000008
40
0.62500000000008
40
0.65625000000009
40
0.65625000000009
40
0.65820312500009
40
0.65820312500009
40
0.66015625000009
40
0.66015625000009
40
0.66210937500009
40
0.66210937500009
40
0.66406250000009
40
0.66406250000009
40
0.66601562500009
40
0.66601562500009
40
0.66796875000009
40
0.66796875000009
40
0.67187500000009
40
0.67187500000009
40
0.67578125000009
40
0.67578125000009
40
0.67968750000009
40
0.67968750000009
40
0.68750000000009
40
0.750000000000073
40
0.750000000000073
40
0.812500000000055
40
0.812500000000055
40
0.875000000000038
40
0.875000000000038
40
0.906250000000029
40
0.906250000000029
40
0.93750000000002
40
0.93750000000002
40
1
40
1
40
1
40
1
41
1
10
3.52703476062752
20
-2.72230472801175
30
0
41
1
10
3.39045193195622
20
-2.71035023493087
30
0
41
1
10
3.25621354735984
20
-2.69401429145859
30
0
41
1
10
3.05948202376152
20
-2.66064529042279
30
0
41
1
10
2.99468155801091
20
-2.6480335064372
30
0
41
1
10
2.89886931719084
20
-2.62642907612462
30
0
41
1
10
2.86714744612812
20
-2.61877262631421
30
0
41
1
10
2.80451145060837
20
-2.60254368441059
30
0
41
1
10
2.77356303898972
20
-2.59396419474098
30
0
41
1
10
2.68192841629659
20
-2.56669806481432
30
0
41
1
10
2.62244322592201
20
-2.54649584922564
30
0
41
1
10
2.53616840530987
20
-2.51244999198542
30
0
41
1
10
2.50790439746973
20
-2.50047496342088
30
0
41
1
10
2.45249043822034
20
-2.47511108973731
30
0
41
1
10
2.42536823903529
20
-2.46172991719453
30
0
41
1
10
2.34656297544089
20
-2.41955640682107
30
0
41
1
10
2.29720201990392
20
-2.38865959659611
30
0
41
1
10
2.20646060418537
20
-2.31987866124172
30
0
41
1
10
2.16505481798811
20
-2.28201609649813
30
0
41
1
10
2.11994680659004
20
-2.22888032486983
30
0
41
1
10
2.11126275513175
20
-2.21795572162983
30
0
41
1
10
2.09478914811055
20
-2.19570532251498
30
0
41
1
10
2.07135249414958
20
-2.16164937717329
30
0
41
1
10
2.05189776122387
20
-2.12546925770076
30
0
41
1
10
2.02985381021117
20
-2.0751579553785
30
0
41
1
10
2.02077870138234
20
-2.04896721908926
30
0
41
1
10
2.01042511104484
20
-2.0079555720186
30
0
41
1
10
2.00752542185251
20
-1.99400351062218
30
0
41
1
10
2.00292443824841
20
-1.96590471065474
30
0
41
1
10
2.00120991010633
20
-1.95171036044312
30
0
41
1
10
1.99556154132546
20
-1.88001848800849
30
0
41
1
10
2.00038010993401
20
-1.82036467058177
30
0
41
1
10
2.01819164451766
20
-1.74295462755643
30
0
41
1
10
2.02234874422501
20
-1.72733349559874
30
0
41
1
10
2.03170385562984
20
-1.6962351815863
30
0
41
1
10
2.04733213116253
20
-1.64964280409322
30
0
41
1
10
2.06749969775413
20
-1.60321375100227
30
0
41
1
10
2.09042393923411
20
-1.55689221449487
30
0
41
1
10
2.0985254331429
20
-1.54146963476009
30
0
41
1
10
2.11561045310404
20
-1.51066025188192
30
0
41
1
10
2.1246148282776
20
-1.49523995006987
30
0
41
1
10
2.15274251573939
20
-1.44928586070793
30
0
41
1
10
2.17290212280813
20
-1.41916330015337
30
0
41
1
10
2.23700528481012
20
-1.33012976481561
30
0
41
1
10
2.2845442488701
20
-1.27254290345093
30
0
41
1
10
2.36144034234314
20
-1.188260604779
30
0
41
1
10
2.38801222630471
20
-1.1605191459677
30
0
41
1
10
2.42913719231589
20
-1.11938716906462
30
0
41
1
10
2.44307358477533
20
-1.10574122742352
30
0
41
1
10
2.47121017872678
20
-1.07873414700066
30
0
41
1
10
2.48542196104012
20
-1.06536073866857
30
0
41
1
10
2.55715021112357
20
-0.999101962738081
30
0
41
1
10
2.61665776653703
20
-0.948026461134816
30
0
41
1
10
2.73900609573715
20
-0.848930481976538
30
0
41
1
10
2.80185302035042
20
-0.800915427612097
30
0
41
1
10
2.93028848133881
20
-0.707419110620549
30
0
41
1
10
2.99588004147108
20
-0.661940514608347
30
0
41
1
10
3.0960104641126
20
-0.595347279726866
30
0
41
1
10
3.12967890641372
20
-0.573421300752528
30
0
41
1
10
3.19755730036971
20
-0.53007613318303
30
0
41
1
10
3.2317800553771
20
-0.508649575412079
30
0
41
1
10
3.33495511331424
20
-0.445234342450249
30
0
41
1
10
3.40448979242726
20
-0.404057055792947
30
0
41
1
10
3.54486213752378
20
-0.323616985684936
30
0
41
1
10
3.61571807464011
20
-0.284344647443788
30
0
41
1
10
3.69155531119205
20
-0.243550168740654
30
0
41
1
10
3.69599120091539
20
-0.241098243309324
30
0
41
1
10
3.7051169030515
20
-0.236694487763373
30
0
41
1
10
3.70979446250831
20
-0.234782728001193
30
0
41
1
10
3.71935479291452
20
-0.231563231025035
30
0
41
1
10
3.72427821347881
20
-0.230279487118082
30
0
41
1
10
3.73417959253129
20
-0.228319652305459
30
0
41
1
10
3.7391504453071
20
-0.227635356041304
30
0
41
1
10
3.74912249938771
20
-0.226711800133785
30
0
41
1
10
3.75412810540703
20
-0.226537132961255
30
0
41
1
10
3.7641696005675
20
-0.226631903570933
30
0
41
1
10
3.76921736824863
20
-0.226862234899016
30
0
41
1
10
3.78430944695418
20
-0.228244917357387
30
0
41
1
10
3.7941594093729
20
-0.230006043849386
30
0
41
1
10
3.81354111423738
20
-0.23479094399795
30
0
41
1
10
3.82306091463991
20
-0.237862050658521
30
0
41
1
10
3.84214538611946
20
-0.243825248793996
30
0
41
1
10
3.85169168693838
20
-0.246791337252518
30
0
41
1
10
3.88030859437561
20
-0.255768120015858
30
0
41
1
10
4.05185825514201
20
-0.310087036712417
30
0
41
1
10
4.22204473296617
20
-0.368533726119551
30
0
41
1
10
4.52211985425885
20
-0.478139620470842
30
0
41
1
10
4.67077781208374
20
-0.535742391926249
30
0
41
1
10
4.96562918384532
20
-0.655596119014547
30
0
41
1
10
5.1118233999797
20
-0.71784468327445
30
0
41
1
10
5.32955532216707
20
-0.81384479738378
30
0
41
1
10
5.40187341414432
20
-0.846281289133088
30
0
41
1
10
5.54605404258214
20
-0.911853788263755
30
0
41
1
10
5.61792644557639
20
-0.944996741333227
30
0
41
1
10
5.83265211609492
20
-1.04510034325838
30
0
41
1
10
5.97470640902151
20
-1.11278069333213
30
0
41
1
10
6.11595746890822
20
-1.18070461695277
30
0
0
SPLINE
5
10B
100
AcDbEntity
8
SK1
62
256
6
ByLayer
370
18
48
1
60
0
100
AcDbSpline
70
4
71
3
72
8
73
4
40
0
40
0
40
0
40
0
40
1
40
1
40
1
40
1
41
1
10
-35.75
20
-1.07743851911673
30
0
41
1
10
-35.8336522503604
20
-1.01315091653999
30
0
41
1
10
-35.9170267545355
20
-0.948674945231943
30
0
41
1
10
-36
20
-0.88392683843395
30
0
0
SPLINE
5
10C
100
AcDbEntity
8
SK1
62
256
6
ByLayer
370
18
48
1
60
0
100
AcDbSpline
70
4
71
3
72
22
73
18
40
0
40
0
40
0
40
0
40
0.0625000000000008
40
0.0625000000000008
40
0.125000000000002
40
0.125000000000002
40
0.250000000000001
40
0.250000000000001
40
0.375000000000001
40
0.375000000000001
40
0.500000000000001
40
0.500000000000001
40
0.625
40
0.625
40
0.75
40
0.75
40
1
40
1
40
1
40
1
41
1
10
-35.65
20
-1.2447862483337
30
0
41
1
10
-35.65
20
-1.24102051060694
30
0
41
1
10
-35.6502718586019
20
-1.23707533335482
30
0
41
1
10
-35.6512913504498
20
-1.22905717717313
30
0
41
1
10
-35.652030658643
20
-1.22501408646647
30
0
41
1
10
-35.6548298230237
20
-1.21279831616999
30
0
41
1
10
-35.6575061245996
20
-1.2044506971894
30
0
41
1
10
-35.6638376796887
20
-1.18824102072492
30
0
41
1
10
-35.6674983282836
20
-1.18031738487622
30
0
41
1
10
-35.6756151818517
20
-1.1647619660632
30
0
41
1
10
-35.6800682064545
20
-1.15715758099543
30
0
41
1
10
-35.689390695763
20
-1.14265686845255
30
0
41
1
10
-35.6942952881821
20
-1.13569462645202
30
0
41
1
10
-35.7045485857548
20
-1.12229141567619
30
0
41
1
10
-35.7099306774379
20
-1.11581538204459
30
0
41
1
10
-35.7265024515805
20
-1.09744466330631
30
0
41
1
10
-35.7380004903212
20
-1.08666026397148
30
0
41
1
10
-35.7500000000001
20
-1.0774385191167
30
0
0
SPLINE
5
10D
100
AcDbEntity
8
SK1
62
256
6
ByLayer
370
18
48
1
60
0
100
AcDbSpline
70
4
71
3
72
22
73
18
40
0
40
0
40
0
40
0
40
0.250000000000003
40
0.250000000000003
40
0.375000000000003
40
0.375000000000003
40
0.500000000000003
40
0.500000000000003
40
0.625000000000004
40
0.625000000000004
40
0.750000000000004
40
0.750000000000004
40
0.875000000000004
40
0.875000000000004
40
0.937500000000002
40
0.937500000000002
40
1
40
1
40
1
40
1
41
1
10
-35.75
20
-2.10729737540098
30
0
41
1
10
-35.7379956523281
20
-2.11652283830244
30
0
41
1
10
-35.7264866986603
20
-2.12444568597516
30
0
41
1
10
-35.7098921057742
20
-2.13445065345655
30
0
41
1
10
-35.7045257065493
20
-2.13743103221299
30
0
41
1
10
-35.6942964893128
20
-2.14256664164216
30
0
41
1
10
-35.6894060316865
20
-2.14473930145593
30
0
41
1
10
-35.6801144608566
20
-2.14820305796982
30
0
41
1
10
-35.6756964104891
20
-2.14949988380263
30
0
41
1
10
-35.6675285377629
20
-2.15097690257295
30
0
41
1
10
-35.6638529491706
20
-2.15114807760088
30
0
41
1
10
-35.6575076548177
20
-2.15008054957636
30
0
41
1
10
-35.6548318331324
20
-2.14881657345183
30
0
41
1
10
-35.6520304488211
20
-2.14559596948865
30
0
41
1
10
-35.65129058319
20
-2.1443005004983
30
0
41
1
10
-35.650270741394
20
-2.14118419542737
30
0
41
1
10
-35.65
20
-2.13937338231383
30
0
41
1
10
-35.65
20
-2.1373305904466
30
0
0
SPLINE
5
10E
100
AcDbEntity
8
SK1
62
256
6
ByLayer
370
18
48
1
60
0
100
AcDbSpline
70
4
71
3
72
8
73
4
40
0
40
0
40
0
40
0
40
1
40
1
40
1
40
1
41
1
10
-36
20
-1.91378569471806
30
0
41
1
10
-35.9170199808277
20
-1.97853908737363
30
0
41
1
10
-35.8336462029648
20
-2.04301442030891
30
0
41
1
10
-35.7499999999999
20
-2.10729737540086
30
0
0
SPLINE
5
10F
100
AcDbEntity
8
1
62
256
6
ByLayer
370
18
48
1
60
0
100
AcDbSpline
70
4
71
3
72
31
73
27
40
0
40
0
40
0
40
0
40
4.47937517886E-05
40
9.96375563952E-05
40
0.0001491958365503
40
0.0002424233407761
40
0.0003363987899655
40
0.0013795715850687
40
0.0021979698911757
40
0.0036761380136529
40
0.006369109615855
40
0.011348217735878
40
0.0207822735062917
40
0.0386951190237847
40
0.071018193053988
40
0.129554258417351
40
0.226792062654194
40
0.323642755203725
40
0.39602707824803
40
0.486111863259127
40
0.583888171505262
40
0.654635125794149
40
0.72286924460951
40
0.791406670731244
40
0.889241178891089
40
1
40
1
40
1
40
1
41
1
10
29.9832079433493
20
0.0736925043793519
30
0
41
1
10
29.9832105894535
20
0.0736955537309143
30
0
41
1
10
29.9832056984938
20
0.0737054684937561
30
0
41
1
10
29.9831582822734
20
0.07373167686643
30
0
41
1
10
29.9830256735998
20
0.073785282425348
30
0
41
1
10
29.9827565666131
20
0.0738776645498831
30
0
41
1
10
29.9810093429726
20
0.074427277011921
30
0
41
1
10
29.9778705243951
20
0.0753410615594987
30
0
41
1
10
29.9727603598038
20
0.0768688198987775
30
0
41
1
10
29.9650377925774
20
0.0791632456091804
30
0
41
1
10
29.9509292732158
20
0.0833651402920168
30
0
41
1
10
29.92451488072
20
0.0912303606164926
30
0
41
1
10
29.8746126815342
20
0.106110661553515
30
0
41
1
10
29.7824697016862
20
0.133659312804866
30
0
41
1
10
29.6144645354963
20
0.184182058084588
30
0
41
1
10
29.32341361597
20
0.272924154439636
30
0
41
1
10
28.9328341806594
20
0.395109582516739
30
0
41
1
10
28.5219452242143
20
0.527558551581393
30
0
41
1
10
28.1229053764582
20
0.659446865338083
30
0
41
1
10
27.7232109469929
20
0.794634724726308
30
0
41
1
10
27.3270921356533
20
0.932124959824137
30
0
41
1
10
26.965259853255
20
1.06056844695891
30
0
41
1
10
26.6487302893635
20
1.17497502434256
30
0
41
1
10
26.291566119785
20
1.30635157292997
30
0
41
1
10
25.8706670962064
20
1.46423066252143
30
0
41
1
10
25.5550309800303
20
1.58611916115351
30
0
41
1
10
25.3877445217122
20
1.65165417522007
30
0
0
SPLINE
5
110
100
AcDbEntity
8
1
62
256
6
ByLayer
370
18
48
1
60
0
100
AcDbSpline
70
4
71
2
72
6
73
3
40
0
40
0
40
0
40
1
40
1
40
1
41
1
10
3.75148837462339
20
-2.61184377816954
30
0
41
1
10
4.09587456758345
20
-2.61455397212578
30
0
41
1
10
4.44021543795776
20
-2.61460452595625
30
0
0
SPLINE
5
111
100
AcDbEntity
8
1
62
256
6
ByLayer
370
18
48
1
60
0
100
AcDbSpline
70
4
71
2
72
6
73
3
40
0
40
0
40
0
40
1
40
1
40
1
41
1
10
4.4402154379577
20
2.61460452595625
30
0
41
1
10
4.09587456758339
20
2.61455397212578
30
0
41
1
10
3.75148837462339
20
2.61184377816954
30
0
0
SPLINE
5
112
100
AcDbEntity
8
1
62
256
6
ByLayer
370
18
48
1
60
0
100
AcDbSpline
70
4
71
3
72
14
73
10
40
0
40
0
40
0
40
0
40
0.113059454975512
40
0.320127734678515
40
0.449819620249517
40
0.564132233070471
40
0.670875918327185
40
0.820821136639667
40
1
40
1
40
1
40
1
41
1
10
44.6232770168494
20
0.612149993791348
30
0
41
1
10
44.511171328431
20
0.648942253184686
30
0
41
1
10
44.1941208558393
20
0.754251378446156
30
0
41
1
10
43.7503092105664
20
0.907469741462819
30
0
41
1
10
43.3065396742841
20
1.064654482837
30
0
41
1
10
42.9622835586555
20
1.18918697562967
30
0
41
1
10
42.5989262242394
20
1.32301079947405
30
0
41
1
10
42.1731634305229
20
1.48295834033141
30
0
41
1
10
41.8528353347491
20
1.60671146564386
30
0
41
1
10
41.6787834412752
20
1.67493497423732
30
0
0
SPLINE
5
113
100
AcDbEntity
8
1
62
256
6
ByLayer
370
18
48
1
60
0
100
AcDbSpline
70
4
71
3
72
30
73
26
40
0
40
0
40
0
40
0
40
2.43667270309E-05
40
0.0001099845449192
40
0.0001820345388018
40
0.0002514178687861
40
0.0007751910311085
40
0.0011803670789539
40
0.0019152043953746
40
0.003263487821292
40
0.0057862385865109
40
0.0106585454300309
40
0.0205322435000675
40
0.0419106243371592
40
0.0918111923273007
40
0.194227918932233
40
0.321854411896956
40
0.427327058920626
40
0.503307978530532
40
0.572748468431305
40
0.636513874489244
40
0.695202528326193
40
0.768147952994252
40
0.878691823285861
40
1
40
1
40
1
40
1
41
1
10
13.7306592494989
20
0.0451135074472404
30
0
41
1
10
13.730662289791
20
0.0451140967220454
30
0
41
1
10
13.7306692170786
20
0.0451187667127044
30
0
41
1
10
13.7306267114957
20
0.0451423781406106
30
0
41
1
10
13.73041556922
20
0.0452158343168776
30
0
41
1
10
13.7295215105652
20
0.0455000183422953
30
0
41
1
10
13.727873001978
20
0.0459920235849722
30
0
41
1
10
13.7252965669231
20
0.0467712995531997
30
0
41
1
10
13.7213823661158
20
0.0479507047388097
30
0
41
1
10
13.7141706288755
20
0.0501244266544632
30
0
41
1
10
13.7004425251697
20
0.054255474976685
30
0
41
1
10
13.6733053149545
20
0.0624082190161346
30
0
41
1
10
13.6164126212154
20
0.0794674184033681
30
0
41
1
10
13.4883315470883
20
0.117864177713272
30
0
41
1
10
13.2137923164248
20
0.200667288735133
30
0
41
1
10
12.7706184151783
20
0.337116812941531
30
0
41
1
10
12.2403235195478
20
0.506368999285826
30
0
41
1
10
11.7535963533208
20
0.667221890761994
30
0
41
1
10
11.3594914764492
20
0.800912087698975
30
0
41
1
10
11.03160796891
20
0.914427532863186
30
0
41
1
10
10.7314290561733
20
1.02026590844758
30
0
41
1
10
10.4263247688407
20
1.12961804325147
30
0
41
1
10
10.0490087060382
20
1.26724234258546
30
0
41
1
10
9.57543875138009
20
1.44386532440666
30
0
41
1
10
9.21672512296598
20
1.5821346940001
30
0
41
1
10
9.02943402368993
20
1.65549511060746
30
0
0
SPLINE
5
114
100
AcDbEntity
8
1
62
256
6
ByLayer
370
18
48
1
60
0
100
AcDbSpline
70
4
71
3
72
22
73
18
40
0
40
0
40
0
40
0
40
0.0694808856018274
40
0.141439148096802
40
0.217499955810709
40
0.282405709456249
40
0.330607034987299
40
0.367585624950985
40
0.41849673604403
40
0.486436979995992
40
0.561381853571938
40
0.620926392695839
40
0.676241261205621
40
0.740027732827538
40
0.819049052761636
40
0.910977008333656
40
1
40
1
40
1
40
1
41
1
10
29.4964466758724
20
-2.62685453505057
30
0
41
1
10
29.6668489615751
20
-2.62572235752876
30
0
41
1
10
30.0172733552308
20
-2.62423710327943
30
0
41
1
10
30.5793517506703
20
-2.62183357862841
30
0
41
1
10
31.1165773800576
20
-2.62751518016006
30
0
41
1
10
31.5942436429204
20
-2.62860363586339
30
0
41
1
10
31.9779377654727
20
-2.62786884414996
30
0
41
1
10
32.3258888415594
20
-2.62802063513178
30
0
41
1
10
32.7245417450184
20
-2.62931782301396
30
0
41
1
10
33.220466133179
20
-2.62855150801002
30
0
41
1
10
33.7384129381816
20
-2.62936549506392
30
0
41
1
10
34.2242029610103
20
-2.63034517235388
30
0
41
1
10
34.6809472462784
20
-2.62880562810719
30
0
41
1
10
35.1890362610555
20
-2.63091400531169
30
0
41
1
10
35.7781641181084
20
-2.62594968165291
30
0
41
1
10
36.4491623005322
20
-2.62908530798188
30
0
41
1
10
36.905864479654
20
-2.63029874830517
30
0
41
1
10
37.1300035977771
20
-2.63125885183615
30
0
0
SPLINE
5
115
100
AcDbEntity
8
1
62
256
6
ByLayer
370
18
48
1
60
0
100
AcDbSpline
70
4
71
3
72
20
73
16
40
0
40
0
40
0
40
0
40
0.091342277093623
40
0.195246647353062
40
0.292836544292547
40
0.376442263013801
40
0.438811258945542
40
0.484691753080082
40
0.546706335653866
40
0.619337725577404
40
0.702680115708406
40
0.779385460261155
40
0.848502360823481
40
0.970421848545444
40
1
40
1
40
1
40
1
41
1
10
20.7902672615068
20
2.62199638001869
30
0
41
1
10
20.6037044050762
20
2.62174485241229
30
0
41
1
10
20.2036045945444
20
2.62134113138583
30
0
41
1
10
19.5964178057515
20
2.61615884744307
30
0
41
1
10
19.0064783936703
20
2.62099641175956
30
0
41
1
10
18.5064590404028
20
2.62027422316419
30
0
41
1
10
18.1101813740491
20
2.61986936334344
30
0
41
1
10
17.7574013686588
20
2.62071156856561
30
0
41
1
10
17.3835168540736
20
2.62078215549229
30
0
41
1
10
16.9319926205526
20
2.61880110700827
30
0
41
1
10
16.4500717789832
20
2.61983414892089
30
0
41
1
10
15.9753543181994
20
2.61873414120686
30
0
41
1
10
15.4210019624166
20
2.61824348392892
30
0
41
1
10
14.9630444713253
20
2.6184093414796
30
0
41
1
10
14.6513876358967
20
2.61727618843958
30
0
41
1
10
14.5903635760595
20
2.61711612872273
30
0
0
SPLINE
5
116
100
AcDbEntity
8
1
62
256
6
ByLayer
370
18
48
1
60
0
100
AcDbSpline
70
4
71
3
72
23
73
19
40
0
40
0
40
0
40
0
40
0.0643180739800972
40
0.111790806859777
40
0.147044639615065
40
0.184235566672095
40
0.227954290506028
40
0.277886249798951
40
0.324588561575255
40
0.396277274928842
40
0.450720257709214
40
0.502338088735604
40
0.59553382996051
40
0.680605095254019
40
0.729891485949295
40
0.803118935242981
40
0.900181869788042
40
1
40
1
40
1
40
1
41
1
10
13.1423440509547
20
-2.61637587586176
30
0
41
1
10
13.2938027565359
20
-2.61483633132548
30
0
41
1
10
13.5617876576841
20
-2.61360286644631
30
0
41
1
10
13.9426896308159
20
-2.60633562308215
30
0
41
1
10
14.2348719517069
20
-2.61510754891847
30
0
41
1
10
14.5147094470773
20
-2.61761431641165
30
0
41
1
10
14.8494192200769
20
-2.61799603506964
30
0
41
1
10
15.2078105178167
20
-2.61843666886298
30
0
41
1
10
15.6380328782014
20
-2.61823804420672
30
0
41
1
10
16.0796608378679
20
-2.61925692983428
30
0
41
1
10
16.5338840517231
20
-2.61953702198414
30
0
41
1
10
17.0430602331503
20
-2.61891843216856
30
0
41
1
10
17.6305143100356
20
-2.6219038246993
30
0
41
1
10
18.2120173001176
20
-2.6190732227648
30
0
41
1
10
18.7424846725243
20
-2.62217646328813
30
0
41
1
10
19.3035628918758
20
-2.62076436257689
30
0
41
1
10
19.9938360167444
20
-2.62246278760713
30
0
41
1
10
20.4969085789146
20
-2.62231582520167
30
0
41
1
10
20.751958934915
20
-2.6222486108224
30
0
0
SPLINE
5
117
100
AcDbEntity
8
1
62
256
6
ByLayer
370
18
48
1
60
0
100
AcDbSpline
70
4
71
3
72
20
73
16
40
0
40
0
40
0
40
0
40
0.110583276196763
40
0.224775063182818
40
0.322934384546189
40
0.402169162854026
40
0.470880618936415
40
0.544846120350099
40
0.637941729687097
40
0.722336273401982
40
0.785577435646759
40
0.831511789803797
40
0.891386889421073
40
0.972012026228931
40
1
40
1
40
1
40
1
41
1
10
37.1300035977771
20
2.63125885183615
30
0
41
1
10
36.905864479654
20
2.63029874830517
30
0
41
1
10
36.4491623005323
20
2.62908530798188
30
0
41
1
10
35.7781641181083
20
2.62594968165291
30
0
41
1
10
35.1890362610555
20
2.63091400531169
30
0
41
1
10
34.6809472462784
20
2.62880562810719
30
0
41
1
10
34.2242029610103
20
2.63034517235388
30
0
41
1
10
33.7384129381816
20
2.62936549506392
30
0
41
1
10
33.220466133179
20
2.62855150801002
30
0
41
1
10
32.7245417450185
20
2.62931782301396
30
0
41
1
10
32.3258888415594
20
2.62802063513178
30
0
41
1
10
31.9779377654727
20
2.62786884414996
30
0
41
1
10
31.5942436429204
20
2.62860363586339
30
0
41
1
10
31.2517445659833
20
2.6278231849447
30
0
41
1
10
31.0310675473878
20
2.62618497369505
30
0
41
1
10
30.9741453196009
20
2.62574812199981
30
0
0
LINE
5
82
100
AcDbEntity
8
4
62
256
6
ByLayer
370
18
48
0.05
60
0
100
AcDbLine
10
0
20
0
30
0
11
46
21
0
31
0
39
0
210
0
220
0
230
1
0
LINE
5
84
100
AcDbEntity
8
81
62
256
6
ByLayer
370
18
48
1
60
0
100
AcDbLine
10
46
20
0
30
0
11
49
21
0
31
0
39
0
210
0
220
0
230
1
0
LINE
5
85
100
AcDbEntity
8
80
62
256
6
ByLayer
370
18
48
1
60
0
100
AcDbLine
10
0
20
0
30
0
11
-3
21
0
31
0
39
0
210
0
220
0
230
1
0
LINE
5
86
100
AcDbEntity
8
SK4
62
256
6
ByLayer
370
18
48
0.05
60
0
100
AcDbLine
10
-39
20
0
30
0
11
49
21
0
31
0
39
0
210
0
220
0
230
1
0
LINE
5
88
100
AcDbEntity
8
1
62
256
6
ByLayer
370
13
48
1
60
0
100
AcDbLine
10
45.950134
20
0.043074
30
0
11
45.287634
21
0.77436
31
0
39
0
210
0
220
0
230
1
0
LINE
5
89
100
AcDbEntity
8
1
62
256
6
ByLayer
370
13
48
1
60
0
100
AcDbLine
10
0.863379
20
2.74742
30
0
11
0.863379
21
-2.74742
31
0
39
0
210
0
220
0
230
1
0
LINE
5
8A
100
AcDbEntity
8
1
62
256
6
ByLayer
370
13
48
1
60
0
100
AcDbLine
10
0.435667
20
2.87104
30
0
11
0.435667
21
-2.87104
31
0
39
0
210
0
220
0
230
1
0
LINE
5
8B
100
AcDbEntity
8
1
62
256
6
ByLayer
370
13
48
1
60
0
100
AcDbLine
10
0.427212
20
2.87638
30
0
11
0.427212
21
-2.87638
31
0
39
0
210
0
220
0
230
1
0
LINE
5
8C
100
AcDbEntity
8
1
62
256
6
ByLayer
370
18
48
1
60
0
100
AcDbLine
10
0
20
3
30
0
11
0
21
-3
31
0
39
0
210
0
220
0
230
1
0
LINE
5
8D
100
AcDbEntity
8
1
62
256
6
ByLayer
370
18
48
1
60
0
100
AcDbLine
10
18.25
20
1.109556
30
0
11
18.25
21
0.985765
31
0
39
0
210
0
220
0
230
1
0
LINE
5
8E
100
AcDbEntity
8
1
62
256
6
ByLayer
370
18
48
1
60
0
100
AcDbLine
10
1
20
-2.747505
30
0
11
1
21
2.747505
31
0
39
0
210
0
220
0
230
1
0
LINE
5
8F
100
AcDbEntity
8
SK1
62
256
6
ByLayer
370
18
48
1
60
0
100
AcDbLine
10
-36
20
-0.883921
30
0
11
-36
21
-1.913786
31
0
39
0
210
0
220
0
230
1
0
LINE
5
91
100
AcDbEntity
8
SK1
62
256
6
ByLayer
370
13
48
1
60
0
100
AcDbLine
10
-35.75
20
-2.107297
30
0
11
-35.75
21
-1.077433
31
0
39
0
210
0
220
0
230
1
0
LINE
5
92
100
AcDbEntity
8
SK1
62
256
6
ByLayer
370
18
48
1
60
0
100
AcDbLine
10
-35.65
20
-2.137331
30
0
11
-35.65
21
-1.244786
31
0
39
0
210
0
220
0
230
1
0
LINE
5
93
100
AcDbEntity
8
SK1
62
256
6
ByLayer
370
18
48
1
60
0
100
AcDbLine
10
-36
20
-2.065
30
0
11
-36
21
-1.913786
31
0
39
0
210
0
220
0
230
1
0
LINE
5
94
100
AcDbEntity
8
SK1
62
256
6
ByLayer
370
18
48
1
60
0
100
AcDbLine
10
-36
20
2.065
30
0
11
-36
21
-0.883927
31
0
39
0
210
0
220
0
230
1
0
LINE
5
95
100
AcDbEntity
8
SK1
62
256
6
ByLayer
370
18
48
1
60
0
100
AcDbLine
10
0
20
3
30
0
11
0
21
-3
31
0
39
0
210
0
220
0
230
1
0
LINE
5
96
100
AcDbEntity
8
SK1
62
256
6
ByLayer
370
18
48
1
60
0
100
AcDbLine
10
-35.065
20
-3
30
0
11
-35.065
21
3
31
0
39
0
210
0
220
0
230
1
0
LINE
5
97
100
AcDbEntity
8
1
62
256
6
ByLayer
370
18
48
1
60
0
100
AcDbLine
10
0.863379
20
-2.74742
30
0
11
1
21
-2.747505
31
0
39
0
210
0
220
0
230
1
0
LINE
5
98
100
AcDbEntity
8
1
62
256
6
ByLayer
370
18
48
1
60
0
100
AcDbLine
10
1
20
2.747505
30
0
11
0.863379
21
2.74742
31
0
39
0
210
0
220
0
230
1
0
LINE
5
99
100
AcDbEntity
8
1
62
256
6
ByLayer
370
18
48
1
60
0
100
AcDbLine
10
0.435667
20
2.87104
30
0
11
0.427212
21
2.87638
31
0
39
0
210
0
220
0
230
1
0
LINE
5
9A
100
AcDbEntity
8
1
62
256
6
ByLayer
370
18
48
1
60
0
100
AcDbLine
10
0.427212
20
-2.87638
30
0
11
0.435667
21
-2.87104
31
0
39
0
210
0
220
0
230
1
0
LINE
5
9B
100
AcDbEntity
8
1
62
256
6
ByLayer
370
18
48
1
60
0
100
AcDbLine
10
1
20
-2.747505
30
0
11
3.526983
21
-2.749084
31
0
39
0
210
0
220
0
230
1
0
LINE
5
9C
100
AcDbEntity
8
1
62
256
6
ByLayer
370
18
48
1
60
0
100
AcDbLine
10
11.979431
20
-2.754367
30
0
11
12.984032
21
-2.754995
31
0
39
0
210
0
220
0
230
1
0
LINE
5
9D
100
AcDbEntity
8
1
62
256
6
ByLayer
370
18
48
1
60
0
100
AcDbLine
10
28.587916
20
-2.764747
30
0
11
29.333823
21
-2.765214
31
0
39
0
210
0
220
0
230
1
0
LINE
5
9E
100
AcDbEntity
8
1
62
256
6
ByLayer
370
18
48
1
60
0
100
AcDbLine
10
44.952783
20
-2.774975
30
0
11
45.019698
21
-2.775017
31
0
39
0
210
0
220
0
230
1
0
LINE
5
9F
100
AcDbEntity
8
1
62
256
6
ByLayer
370
18
48
1
60
0
100
AcDbLine
10
45.019698
20
2.775017
30
0
11
44.952783
21
2.774975
31
0
39
0
210
0
220
0
230
1
0
LINE
5
A0
100
AcDbEntity
8
1
62
256
6
ByLayer
370
18
48
1
60
0
100
AcDbLine
10
29.333823
20
2.765214
30
0
11
28.587916
21
2.764747
31
0
39
0
210
0
220
0
230
1
0
LINE
5
A1
100
AcDbEntity
8
1
62
256
6
ByLayer
370
18
48
1
60
0
100
AcDbLine
10
12.984032
20
2.754995
30
0
11
11.979431
21
2.754367
31
0
39
0
210
0
220
0
230
1
0
LINE
5
A2
100
AcDbEntity
8
1
62
256
6
ByLayer
370
18
48
1
60
0
100
AcDbLine
10
3.526983
20
2.749084
30
0
11
1
21
2.747505
31
0
39
0
210
0
220
0
230
1
0
LINE
5
A3
100
AcDbEntity
8
SK1
62
256
6
ByLayer
370
18
48
1
60
0
100
AcDbLine
10
-36
20
-2.065
30
0
11
-35.065
21
-3
31
0
39
0
210
0
220
0
230
1
0
LINE
5
A4
100
AcDbEntity
8
SK1
62
256
6
ByLayer
370
18
48
1
60
0
100
AcDbLine
10
-35.065
20
3
30
0
11
-36
21
2.065
31
0
39
0
210
0
220
0
230
1
0
LINE
5
A5
100
AcDbEntity
8
SK1
62
256
6
ByLayer
370
18
48
1
60
0
100
AcDbLine
10
-35.065
20
-3
30
0
11
0
21
-3
31
0
39
0
210
0
220
0
230
1
0
LINE
5
A6
100
AcDbEntity
8
SK1
62
256
6
ByLayer
370
18
48
1
60
0
100
AcDbLine
10
0
20
3
30
0
11
-35.065
21
3
31
0
39
0
210
0
220
0
230
1
0
LINE
5
A7
100
AcDbEntity
8
2
62
256
6
ByLayer
370
13
48
1
60
0
100
AcDbLine
10
59.75
20
21.739398
30
0
11
59.75
21
-11.525
31
0
39
0
210
0
220
0
230
1
0
LINE
5
A9
100
AcDbEntity
8
2
62
256
6
ByLayer
370
13
48
1
60
0
100
AcDbLine
10
47.5875
20
2.775
30
0
11
61.75
21
2.775
31
0
39
0
210
0
220
0
230
1
0
LINE
5
AA
100
AcDbEntity
8
2
62
256
6
ByLayer
370
13
48
1
60
0
100
AcDbLine
10
47.5875
20
-2.775
30
0
11
61.75
21
-2.775
31
0
39
0
210
0
220
0
230
1
0
LINE
5
AB
100
AcDbEntity
8
1
62
256
6
ByLayer
370
18
48
1
60
1
100
AcDbLine
10
59.75
20
2.775
30
0
11
59.289216
21
6.274998
31
0
39
0
210
0
220
0
230
1
0
LINE
5
AC
100
AcDbEntity
8
1
62
256
6
ByLayer
370
18
48
1
60
1
100
AcDbLine
10
59.289216
20
6.274998
30
0
11
60.210784
21
6.275002
31
0
39
0
210
0
220
0
230
1
0
LINE
5
AD
100
AcDbEntity
8
1
62
256
6
ByLayer
370
18
48
1
60
1
100
AcDbLine
10
60.210784
20
6.275002
30
0
11
59.75
21
2.775
31
0
39
0
210
0
220
0
230
1
0
LINE
5
AE
100
AcDbEntity
8
1
62
256
6
ByLayer
370
18
48
1
60
1
100
AcDbLine
10
59.75
20
-2.775
30
0
11
60.210784
21
-6.274998
31
0
39
0
210
0
220
0
230
1
0
LINE
5
AF
100
AcDbEntity
8
1
62
256
6
ByLayer
370
18
48
1
60
1
100
AcDbLine
10
60.210784
20
-6.274998
30
0
11
59.289216
21
-6.275002
31
0
39
0
210
0
220
0
230
1
0
LINE
5
B0
100
AcDbEntity
8
1
62
256
6
ByLayer
370
18
48
1
60
1
100
AcDbLine
10
59.289216
20
-6.275002
30
0
11
59.75
21
-2.775
31
0
39
0
210
0
220
0
230
1
0
LINE
5
B1
100
AcDbEntity
8
SK2
62
256
6
ByLayer
370
13
48
1
60
0
100
AcDbLine
10
-44.25
20
20.315466
30
0
11
-44.25
21
-11.75
31
0
39
0
210
0
220
0
230
1
0
LINE
5
B3
100
AcDbEntity
8
SK2
62
256
6
ByLayer
370
13
48
1
60
0
100
AcDbLine
10
-37.5875
20
3
30
0
11
-46.25
21
3
31
0
39
0
210
0
220
0
230
1
0
LINE
5
B4
100
AcDbEntity
8
SK2
62
256
6
ByLayer
370
13
48
1
60
0
100
AcDbLine
10
-37.5875
20
-3
30
0
11
-46.25
21
-3
31
0
39
0
210
0
220
0
230
1
0
LINE
5
B5
100
AcDbEntity
8
1
62
256
6
ByLayer
370
18
48
1
60
1
100
AcDbLine
10
-44.25
20
3
30
0
11
-44.710784
21
6.499998
31
0
39
0
210
0
220
0
230
1
0
LINE
5
B6
100
AcDbEntity
8
1
62
256
6
ByLayer
370
18
48
1
60
1
100
AcDbLine
10
-44.710784
20
6.499998
30
0
11
-43.789216
21
6.500002
31
0
39
0
210
0
220
0
230
1
0
LINE
5
B7
100
AcDbEntity
8
1
62
256
6
ByLayer
370
18
48
1
60
1
100
AcDbLine
10
-43.789216
20
6.500002
30
0
11
-44.25
21
3
31
0
39
0
210
0
220
0
230
1
0
LINE
5
B8
100
AcDbEntity
8
1
62
256
6
ByLayer
370
18
48
1
60
1
100
AcDbLine
10
-44.25
20
-3
30
0
11
-43.789216
21
-6.499998
31
0
39
0
210
0
220
0
230
1
0
LINE
5
B9
100
AcDbEntity
8
1
62
256
6
ByLayer
370
18
48
1
60
1
100
AcDbLine
10
-43.789216
20
-6.499998
30
0
11
-44.710784
21
-6.500002
31
0
39
0
210
0
220
0
230
1
0
LINE
5
BA
100
AcDbEntity
8
1
62
256
6
ByLayer
370
18
48
1
60
1
100
AcDbLine
10
-44.710784
20
-6.500002
30
0
11
-44.25
21
-3
31
0
39
0
210
0
220
0
230
1
0
LINE
5
BB
100
AcDbEntity
8
SK2
62
256
6
ByLayer
370
13
48
1
60
0
100
AcDbLine
10
46.542949
20
1.491765
30
0
11
57.167861
21
30.683975
31
0
39
0
210
0
220
0
230
1
0
LINE
5
BC
100
AcDbEntity
8
SK2
62
256
6
ByLayer
370
13
48
1
60
0
100
AcDbLine
10
46.542949
20
-1.491765
30
0
11
57.167861
21
-30.683975
31
0
39
0
210
0
220
0
230
1
0
LINE
5
BD
100
AcDbEntity
8
1
62
256
6
ByLayer
370
18
48
1
60
1
100
AcDbLine
10
56.483831
20
28.804586
30
0
11
59.907171
21
27.942579
31
0
39
0
210
0
220
0
230
1
0
LINE
5
BE
100
AcDbEntity
8
1
62
256
6
ByLayer
370
18
48
1
60
1
100
AcDbLine
10
59.907171
20
27.942579
30
0
11
59.567423
21
27.085924
31
0
39
0
210
0
220
0
230
1
0
LINE
5
BF
100
AcDbEntity
8
1
62
256
6
ByLayer
370
18
48
1
60
1
100
AcDbLine
10
59.567423
20
27.085924
30
0
11
56.483831
21
28.804586
31
0
39
0
210
0
220
0
230
1
0
LINE
5
C0
100
AcDbEntity
8
1
62
256
6
ByLayer
370
18
48
1
60
1
100
AcDbLine
10
56.483831
20
-28.804586
30
0
11
59.56742
21
-27.085926
31
0
39
0
210
0
220
0
230
1
0
LINE
5
C1
100
AcDbEntity
8
1
62
256
6
ByLayer
370
18
48
1
60
1
100
AcDbLine
10
59.56742
20
-27.085926
30
0
11
59.907174
21
-27.942578
31
0
39
0
210
0
220
0
230
1
0
LINE
5
C2
100
AcDbEntity
8
1
62
256
6
ByLayer
370
18
48
1
60
1
100
AcDbLine
10
59.907174
20
-27.942578
30
0
11
56.483831
21
-28.804586
31
0
39
0
210
0
220
0
230
1
0
LINE
5
118
100
AcDbEntity
8
1
62
256
6
ByLayer
370
13
48
0.05
60
0
100
AcDbLine
10
-42.5
20
0
30
0
11
51.519698
21
0
31
0
39
0
210
0
220
0
230
1
0
LINE
5
11D
100
AcDbEntity
8
1
62
256
6
ByLayer
370
18
48
1
60
1
100
AcDbLine
10
59.75
20
2.775
30
0
11
59.289216
21
6.274998
31
0
39
0
210
0
220
0
230
1
0
LINE
5
11E
100
AcDbEntity
8
1
62
256
6
ByLayer
370
18
48
1
60
1
100
AcDbLine
10
59.289216
20
6.274998
30
0
11
60.210784
21
6.275002
31
0
39
0
210
0
220
0
230
1
0
LINE
5
11F
100
AcDbEntity
8
1
62
256
6
ByLayer
370
18
48
1
60
1
100
AcDbLine
10
60.210784
20
6.275002
30
0
11
59.75
21
2.775
31
0
39
0
210
0
220
0
230
1
0
LINE
5
121
100
AcDbEntity
8
1
62
256
6
ByLayer
370
18
48
1
60
1
100
AcDbLine
10
59.75
20
-2.775
30
0
11
60.210784
21
-6.274998
31
0
39
0
210
0
220
0
230
1
0
LINE
5
122
100
AcDbEntity
8
1
62
256
6
ByLayer
370
18
48
1
60
1
100
AcDbLine
10
60.210784
20
-6.274998
30
0
11
59.289216
21
-6.275002
31
0
39
0
210
0
220
0
230
1
0
LINE
5
123
100
AcDbEntity
8
1
62
256
6
ByLayer
370
18
48
1
60
1
100
AcDbLine
10
59.289216
20
-6.275002
30
0
11
59.75
21
-2.775
31
0
39
0
210
0
220
0
230
1
0
LINE
5
127
100
AcDbEntity
8
1
62
256
6
ByLayer
370
18
48
1
60
1
100
AcDbLine
10
-44.25
20
3
30
0
11
-44.710784
21
6.499998
31
0
39
0
210
0
220
0
230
1
0
LINE
5
128
100
AcDbEntity
8
1
62
256
6
ByLayer
370
18
48
1
60
1
100
AcDbLine
10
-44.710784
20
6.499998
30
0
11
-43.789216
21
6.500002
31
0
39
0
210
0
220
0
230
1
0
LINE
5
129
100
AcDbEntity
8
1
62
256
6
ByLayer
370
18
48
1
60
1
100
AcDbLine
10
-43.789216
20
6.500002
30
0
11
-44.25
21
3
31
0
39
0
210
0
220
0
230
1
0
LINE
5
12B
100
AcDbEntity
8
1
62
256
6
ByLayer
370
18
48
1
60
1
100
AcDbLine
10
-44.25
20
-3
30
0
11
-43.789216
21
-6.499998
31
0
39
0
210
0
220
0
230
1
0
LINE
5
12C
100
AcDbEntity
8
1
62
256
6
ByLayer
370
18
48
1
60
1
100
AcDbLine
10
-43.789216
20
-6.499998
30
0
11
-44.710784
21
-6.500002
31
0
39
0
210
0
220
0
230
1
0
LINE
5
12D
100
AcDbEntity
8
1
62
256
6
ByLayer
370
18
48
1
60
1
100
AcDbLine
10
-44.710784
20
-6.500002
30
0
11
-44.25
21
-3
31
0
39
0
210
0
220
0
230
1
0
LINE
5
130
100
AcDbEntity
8
1
62
256
6
ByLayer
370
18
48
1
60
1
100
AcDbLine
10
56.483831
20
28.804586
30
0
11
59.907171
21
27.942579
31
0
39
0
210
0
220
0
230
1
0
LINE
5
131
100
AcDbEntity
8
1
62
256
6
ByLayer
370
18
48
1
60
1
100
AcDbLine
10
59.907171
20
27.942579
30
0
11
59.567423
21
27.085924
31
0
39
0
210
0
220
0
230
1
0
LINE
5
132
100
AcDbEntity
8
1
62
256
6
ByLayer
370
18
48
1
60
1
100
AcDbLine
10
59.567423
20
27.085924
30
0
11
56.483831
21
28.804586
31
0
39
0
210
0
220
0
230
1
0
LINE
5
134
100
AcDbEntity
8
1
62
256
6
ByLayer
370
18
48
1
60
1
100
AcDbLine
10
56.483831
20
-28.804586
30
0
11
59.56742
21
-27.085926
31
0
39
0
210
0
220
0
230
1
0
LINE
5
135
100
AcDbEntity
8
1
62
256
6
ByLayer
370
18
48
1
60
1
100
AcDbLine
10
59.56742
20
-27.085926
30
0
11
59.907174
21
-27.942578
31
0
39
0
210
0
220
0
230
1
0
LINE
5
136
100
AcDbEntity
8
1
62
256
6
ByLayer
370
18
48
1
60
1
100
AcDbLine
10
59.907174
20
-27.942578
30
0
11
56.483831
21
-28.804586
31
0
39
0
210
0
220
0
230
1
0
MTEXT
5
119
100
AcDbEntity
8
2
62
256
6
ByLayer
370
18
48
1
60
0
100
AcDbMText
10
58.185366
20
6.709844
30
0
210
0
220
0
230
1
1
%%c
40
3.5
41
0
44
1.084337
50
90
71
7
72
5
7
iso_b_vert
0
MTEXT
5
11C
100
AcDbEntity
8
2
62
256
6
ByLayer
370
18
48
1
60
0
100
AcDbMText
10
58.185366
20
13.6825
30
0
210
0
220
0
230
1
1
\W0.7346;5.55
40
3.5
41
0
44
1.084337
50
90
71
7
72
5
7
iso_b_vert
0
MTEXT
5
125
100
AcDbEntity
8
SK2
62
256
6
ByLayer
370
18
48
1
60
0
100
AcDbMText
10
-45.814634
20
11.934844
30
0
210
0
220
0
230
1
1
%%c
40
3.5
41
0
44
1.084337
50
90
71
7
72
5
7
iso_b_vert
0
MTEXT
5
126
100
AcDbEntity
8
SK2
62
256
6
ByLayer
370
18
48
1
60
0
100
AcDbMText
10
-45.814634
20
18.9075
30
0
210
0
220
0
230
1
1
\W0.5404;6
40
3.5
41
0
44
1.084337
50
90
71
7
72
5
7
iso_b_vert
0
MTEXT
5
12F
100
AcDbEntity
8
SK2
62
256
6
ByLayer
370
18
48
1
60
0
100
AcDbMText
10
72.581489
20
-2.467366
30
0
210
0
220
0
230
1
1
\W0.7825;140%%d
40
3.5
41
0
44
1.084337
50
0
71
7
72
5
7
iso_b_vert
0
MTEXT
5
138
100
AcDbEntity
8
SK6
62
256
6
ByLayer
370
18
48
1
60
0
100
AcDbMText
10
-25.438526
20
-97.467366
30
0
210
0
220
0
230
1
1
\W0.7501;860.1-0555-035A1-MM M2BM
40
3.5
41
0
44
1.084337
50
0
71
7
72
5
7
iso_b_vert
0
HATCH
5
120
100
AcDbEntity
8
2
62
256
6
ByLayer
370
13
48
1
60
0
100
AcDbHatch
10
0
20
0
30
0
210
0
220
0
230
1
2
ANSI31
70
0
71
0
91
1
92
5
93
3
72
1
10
59.75
20
2.77500000000001
11
59.2892162584472
21
6.27499830744682
72
1
10
59.2892162584472
20
6.27499830744682
11
60.2107837415528
21
6.27500169255319
72
1
10
60.2107837415528
20
6.27500169255319
11
59.75
21
2.77500000000001
97
0
75
0
76
1
52
0
41
0.0062
77
0
78
1
53
45
43
0
44
0
45
-0.0139193969876572
46
0.0139193969876572
79
0
47
0
98
1
10
0
20
0
0
HATCH
5
124
100
AcDbEntity
8
2
62
256
6
ByLayer
370
13
48
1
60
0
100
AcDbHatch
10
0
20
0
30
0
210
0
220
0
230
1
2
ANSI31
70
0
71
0
91
1
92
5
93
3
72
1
10
59.75
20
-2.77500000000001
11
60.2107837415528
21
-6.27499830744682
72
1
10
60.2107837415528
20
-6.27499830744682
11
59.2892162584472
21
-6.27500169255319
72
1
10
59.2892162584472
20
-6.27500169255319
11
59.75
21
-2.77500000000001
97
0
75
0
76
1
52
0
41
0.0062
77
0
78
1
53
45
43
0
44
0
45
-0.0139193969876572
46
0.0139193969876572
79
0
47
0
98
1
10
0
20
0
0
HATCH
5
12A
100
AcDbEntity
8
SK2
62
256
6
ByLayer
370
13
48
1
60
0
100
AcDbHatch
10
0
20
0
30
0
210
0
220
0
230
1
2
ANSI31
70
0
71
0
91
1
92
5
93
3
72
1
10
-44.25
20
3
11
-44.7107837415528
21
6.49999830744682
72
1
10
-44.7107837415528
20
6.49999830744682
11
-43.7892162584472
21
6.50000169255318
72
1
10
-43.7892162584472
20
6.50000169255318
11
-44.25
21
3
97
0
75
0
76
1
52
0
41
0.0062
77
0
78
1
53
45
43
0
44
0
45
-0.0139193969876572
46
0.0139193969876572
79
0
47
0
98
1
10
0
20
0
0
HATCH
5
12E
100
AcDbEntity
8
SK2
62
256
6
ByLayer
370
13
48
1
60
0
100
AcDbHatch
10
0
20
0
30
0
210
0
220
0
230
1
2
ANSI31
70
0
71
0
91
1
92
5
93
3
72
1
10
-44.25
20
-3
11
-43.7892162584472
21
-6.49999830744682
72
1
10
-43.7892162584472
20
-6.49999830744682
11
-44.7107837415528
21
-6.50000169255318
72
1
10
-44.7107837415528
20
-6.50000169255318
11
-44.25
21
-3
97
0
75
0
76
1
52
0
41
0.0062
77
0
78
1
53
45
43
0
44
0
45
-0.0139193969876572
46
0.0139193969876572
79
0
47
0
98
1
10
0
20
0
0
HATCH
5
133
100
AcDbEntity
8
SK2
62
256
6
ByLayer
370
13
48
1
60
0
100
AcDbHatch
10
0
20
0
30
0
210
0
220
0
230
1
2
ANSI31
70
0
71
0
91
1
92
5
93
3
72
1
10
56.4838314182446
20
28.8045863224031
11
59.9071710039755
21
27.9425794260398
72
1
10
59.9071710039755
20
27.9425794260398
11
59.5674226660289
21
27.085924482208
72
1
10
59.5674226660289
20
27.085924482208
11
56.4838314182446
21
28.8045863224031
97
0
75
0
76
1
52
0
41
0.0062
77
0
78
1
53
45
43
0
44
0
45
-0.0139193969876572
46
0.0139193969876572
79
0
47
0
98
1
10
0
20
0
0
HATCH
5
137
100
AcDbEntity
8
SK2
62
256
6
ByLayer
370
13
48
1
60
0
100
AcDbHatch
10
0
20
0
30
0
210
0
220
0
230
1
2
ANSI31
70
0
71
0
91
1
92
5
93
3
72
1
10
56.4838314182446
20
-28.8045863224031
11
59.5674195193642
21
-27.0859257301849
72
1
10
59.5674195193642
20
-27.0859257301849
11
59.9071741506403
21
-27.9425781780629
72
1
10
59.9071741506403
20
-27.9425781780629
11
56.4838314182446
21
-28.8045863224031
97
0
75
0
76
1
52
0
41
0.0062
77
0
78
1
53
45
43
0
44
0
45
-0.0139193969876572
46
0.0139193969876572
79
0
47
0
98
1
10
0
20
0
0
DIMENSION
5
13B
100
AcDbEntity
8
2
62
256
6
ByLayer
370
18
48
1
60
0
100
AcDbDimension
2
_U0
10
46
20
-56.714355
30
0
11
5
21
-56.714355
31
0
70
32
71
1
72
1
41
1
210
0
220
0
230
1
3
Standard
100
AcDbAlignedDimension
13
-36
23
-3
33
0
14
46
24
-2.775
34
0
50
0
100
AcDbRotatedDimension
1001
ACAD
1000
DSTYLE
1002
{
1070
   371
1070
    13
1070
   372
1070
    13
1070
     3
1000

1070
   170
1070
     0
1070
   144
1040
1.0
1070
   277
1070
     2
1070
   284
1070
     8
1070
   278
1070
    46
1070
   146
1040
1.0
1070
   345
1005
16
1070
   347
1005
16
1070
   346
1005
16
1070
   344
1005
0
1070
   343
1005
0
1070
   172
1070
     1
1070
    76
1070
     0
1070
    75
1070
     0
1070
   282
1070
     0
1070
   281
1070
     0
1070
    71
1070
     0
1070
    74
1070
     0
1070
   279
1070
     0
1070
   173
1070
     1
1070
   340
1005
11A
1070
   271
1070
     2
1070
   272
1070
     2
1070
    77
1070
     1
1070
    73
1070
     1
1070
   171
1070
     3
1070
   274
1070
     4
1070
   177
1070
     2
1070
   176
1070
     2
1070
   178
1070
     2
1070
    78
1070
     8
1070
    48
1040
-0.1
1070
    41
1040
3.5
1070
   147
1040
1.75
1070
    42
1040
1.5875
1070
    44
1040
2.0
1070
   140
1040
3.5
1002
}
1001
ACAD_DSTYLE_DIM_LINETYPE
1070
   380
1005
16
1001
ACAD_DSTYLE_DIM_EXT1_LINETYPE
1070
   381
1005
16
1001
ACAD_DSTYLE_DIM_EXT2_LINETYPE
1070
   382
1005
16
0
DIMENSION
5
154
100
AcDbEntity
8
SK2
62
256
6
ByLayer
370
18
48
1
60
0
100
AcDbDimension
2
_U1
10
2
20
-36.714355
30
0
11
24
21
-36.714355
31
0
70
32
71
1
72
1
41
1
210
0
220
0
230
1
3
Standard
100
AcDbAlignedDimension
13
46
23
-2.775
33
0
14
2
24
-2.775
34
0
50
0
100
AcDbRotatedDimension
1001
ACAD
1000
DSTYLE
1002
{
1070
   371
1070
    13
1070
   372
1070
    13
1070
     3
1000

1070
   170
1070
     0
1070
   144
1040
1.0
1070
   277
1070
     2
1070
   284
1070
     8
1070
   278
1070
    46
1070
   146
1040
1.0
1070
   345
1005
16
1070
   347
1005
16
1070
   346
1005
16
1070
   344
1005
0
1070
   343
1005
0
1070
   172
1070
     1
1070
    76
1070
     0
1070
    75
1070
     0
1070
   282
1070
     0
1070
   281
1070
     0
1070
    71
1070
     0
1070
    74
1070
     0
1070
   279
1070
     0
1070
   173
1070
     1
1070
   340
1005
11A
1070
   271
1070
     2
1070
   272
1070
     2
1070
    77
1070
     1
1070
    73
1070
     1
1070
   171
1070
     3
1070
   274
1070
     4
1070
   177
1070
     2
1070
   176
1070
     2
1070
   178
1070
     2
1070
    78
1070
     8
1070
    48
1040
-0.1
1070
    41
1040
3.5
1070
   147
1040
1.75
1070
    42
1040
1.5875
1070
    44
1040
2.0
1070
   140
1040
3.5
1002
}
1001
ACAD_DSTYLE_DIM_LINETYPE
1070
   380
1005
16
1001
ACAD_DSTYLE_DIM_EXT1_LINETYPE
1070
   381
1005
16
1001
ACAD_DSTYLE_DIM_EXT2_LINETYPE
1070
   382
1005
16
0
DIMENSION
5
16C
100
AcDbEntity
8
SK2
62
256
6
ByLayer
370
18
48
1
60
0
100
AcDbDimension
2
_U2
10
11
20
-26.714355
30
0
11
28.5
21
-26.714355
31
0
70
32
71
1
72
1
41
1
210
0
220
0
230
1
3
Standard
100
AcDbAlignedDimension
13
46
23
-2.775
33
0
14
11
24
-2.775
34
0
50
0
100
AcDbRotatedDimension
1001
ACAD
1000
DSTYLE
1002
{
1070
   371
1070
    13
1070
   372
1070
    13
1070
     3
1000

1070
   170
1070
     0
1070
   144
1040
1.0
1070
   277
1070
     2
1070
   284
1070
     8
1070
   278
1070
    46
1070
   146
1040
1.0
1070
   345
1005
16
1070
   347
1005
16
1070
   346
1005
16
1070
   344
1005
0
1070
   343
1005
0
1070
   172
1070
     1
1070
    76
1070
     0
1070
    75
1070
     0
1070
   282
1070
     0
1070
   281
1070
     0
1070
    71
1070
     0
1070
    74
1070
     0
1070
   279
1070
     0
1070
   173
1070
     1
1070
   340
1005
11A
1070
   271
1070
     2
1070
   272
1070
     2
1070
    77
1070
     1
1070
    73
1070
     1
1070
   171
1070
     3
1070
   274
1070
     4
1070
   177
1070
     2
1070
   176
1070
     2
1070
   178
1070
     2
1070
    78
1070
     8
1070
    48
1040
-0.1
1070
    41
1040
3.5
1070
   147
1040
1.75
1070
    42
1040
1.5875
1070
    44
1040
2.0
1070
   140
1040
3.5
1002
}
1001
ACAD_DSTYLE_DIM_LINETYPE
1070
   380
1005
16
1001
ACAD_DSTYLE_DIM_EXT1_LINETYPE
1070
   381
1005
16
1001
ACAD_DSTYLE_DIM_EXT2_LINETYPE
1070
   382
1005
16
0
DIMENSION
5
186
100
AcDbEntity
8
SK2
62
256
6
ByLayer
370
18
48
1
60
0
100
AcDbDimension
2
_U3
10
0
20
-36.714355
30
0
11
-18
21
-36.714355
31
0
70
32
71
1
72
1
41
1
210
0
220
0
230
1
3
Standard
100
AcDbAlignedDimension
13
-36
23
-3
33
0
14
0
24
-3
34
0
50
0
100
AcDbRotatedDimension
1001
ACAD
1000
DSTYLE
1002
{
1070
   371
1070
    13
1070
   372
1070
    13
1070
     3
1000

1070
   170
1070
     0
1070
   144
1040
1.0
1070
   277
1070
     2
1070
   284
1070
     8
1070
   278
1070
    46
1070
   146
1040
1.0
1070
   345
1005
16
1070
   347
1005
16
1070
   346
1005
16
1070
   344
1005
0
1070
   343
1005
0
1070
   172
1070
     1
1070
    76
1070
     0
1070
    75
1070
     0
1070
   282
1070
     0
1070
   281
1070
     0
1070
    71
1070
     0
1070
    74
1070
     0
1070
   279
1070
     0
1070
   173
1070
     1
1070
   340
1005
11A
1070
   271
1070
     2
1070
   272
1070
     2
1070
    77
1070
     1
1070
    73
1070
     1
1070
   171
1070
     3
1070
   274
1070
     4
1070
   177
1070
     2
1070
   176
1070
     2
1070
   178
1070
     2
1070
    78
1070
     8
1070
    48
1040
-0.1
1070
    41
1040
3.5
1070
   147
1040
1.75
1070
    42
1040
1.5875
1070
    44
1040
2.0
1070
   140
1040
3.5
1002
}
1001
ACAD_DSTYLE_DIM_LINETYPE
1070
   380
1005
16
1001
ACAD_DSTYLE_DIM_EXT1_LINETYPE
1070
   381
1005
16
1001
ACAD_DSTYLE_DIM_EXT2_LINETYPE
1070
   382
1005
16
0
DIMENSION
5
19E
100
AcDbEntity
8
SK2
62
256
6
ByLayer
370
18
48
1
60
0
100
AcDbDimension
2
_U4
10
46
20
-46.714355
30
0
11
23
21
-46.714355
31
0
70
32
71
1
72
1
41
1
210
0
220
0
230
1
3
Standard
100
AcDbAlignedDimension
13
0
23
-3
33
0
14
46
24
-2.775
34
0
50
0
100
AcDbRotatedDimension
1001
ACAD
1000
DSTYLE
1002
{
1070
   371
1070
    13
1070
   372
1070
    13
1070
     3
1000

1070
   170
1070
     0
1070
   144
1040
1.0
1070
   277
1070
     2
1070
   284
1070
     8
1070
   278
1070
    46
1070
   146
1040
1.0
1070
   345
1005
16
1070
   347
1005
16
1070
   346
1005
16
1070
   344
1005
0
1070
   343
1005
0
1070
   172
1070
     1
1070
    76
1070
     0
1070
    75
1070
     0
1070
   282
1070
     0
1070
   281
1070
     0
1070
    71
1070
     0
1070
    74
1070
     0
1070
   279
1070
     0
1070
   173
1070
     1
1070
   340
1005
11A
1070
   271
1070
     2
1070
   272
1070
     2
1070
    77
1070
     1
1070
    73
1070
     1
1070
   171
1070
     3
1070
   274
1070
     4
1070
   177
1070
     2
1070
   176
1070
     2
1070
   178
1070
     2
1070
    78
1070
     8
1070
    48
1040
-0.1
1070
    41
1040
3.5
1070
   147
1040
1.75
1070
    42
1040
1.5875
1070
    44
1040
2.0
1070
   140
1040
3.5
1002
}
1001
ACAD_DSTYLE_DIM_LINETYPE
1070
   380
1005
16
1001
ACAD_DSTYLE_DIM_EXT1_LINETYPE
1070
   381
1005
16
1001
ACAD_DSTYLE_DIM_EXT2_LINETYPE
1070
   382
1005
16
0
ENDSEC
0
SECTION
2
OBJECTS
0
DICTIONARY
5
226
330
0
100
AcDbDictionary
280
0
281
1
3
ACAD_GROUP
350
227
3
ACAD_MLINESTYLE
350
228
0
DICTIONARY
5
227
330
0
100
AcDbDictionary
280
0
281
1
0
DICTIONARY
5
228
330
0
100
AcDbDictionary
280
0
281
1
3
Standard
350
18
0
MLINESTYLE
5
18
330
228
100
AcDbMlineStyle
2
Standard
70
0
3

62
256
51
90
52
90
71
2
49
-0.5
62
256
6
ByLayer
49
0.5
62
256
6
ByLayer
0
RASTERVARIABLES
5
214
330

100
AcDbRasterVariables
90
0
70
1
71
1
72
1
0
ENDSEC
0
EOF
