0
SECTION
2
HEADER
9
$ACADVER
1
AC1015
9
$DWGCODEPAGE
3
ANSI_1252
9
$HANDSEED
5
22a
9
$ANGBASE
50
0
9
$ANGDIR
70
0
9
$ATTMODE
70
1
9
$AUNITS
70
0
9
$AUPREC
70
0
9
$CECOLOR
62
256
9
$CELTSCALE
40
1
9
$CELTYPE
6
ByLayer
9
$CELWEIGHT
370
18
9
$CLAYER
8
0
9
$CMLJUST
70
0
9
$CMLSCALE
40
1
9
$CMLSTYLE
2
Standard
9
$DIMSTYLE
2
Standard
9
$TEXTSIZE
40
0.2
9
$TEXTSTYLE
7
Standard
9
$LUNITS
70
2
9
$LUPREC
70
4
9
$EXTNAMES
290
1
9
$INSUNITS
70
4
9
$LTSCALE
40
1
9
$LWDISPLAY
290
1
9
$PDMODE
70
0
9
$PDSIZE
40
0
9
$PLINEGEN
70
0
0
ENDSEC
0
SECTION
2
CLASSES
0
CLASS
1
RASTERVARIABLES
2
AcDbRasterVariables
3
ISM
90
0
280
0
281
0
0
ENDSEC
0
SECTION
2
TABLES
0
TABLE
2
VPORT
5
220
100
AcDbSymbolTable
0
VPORT
5
1
100
AcDbSymbolTableRecord
100
AcDbViewportTableRecord
2
*Active
70
0
10
0
20
0
11
1
21
1
12
-1
22
1
13
0
23
0
14
0.5
24
0.5
15
10
25
10
16
0
26
0
36
1
17
0
27
0
37
0
0
ENDTAB
0
TABLE
2
LTYPE
5
221
100
AcDbSymbolTable
0
LTYPE
5
14
100
AcDbSymbolTableRecord
100
AcDbLinetypeTableRecord
70
0
2
ByBlock
3

72
65
73
0
40
0
0
LTYPE
5
15
100
AcDbSymbolTableRecord
100
AcDbLinetypeTableRecord
70
0
2
ByLayer
3

72
65
73
0
40
0
0
LTYPE
5
16
100
AcDbSymbolTableRecord
100
AcDbLinetypeTableRecord
70
0
2
Continuous
3
Solid line
72
65
73
0
40
0
0
LTYPE
5
6E
100
AcDbSymbolTableRecord
100
AcDbLinetypeTableRecord
70
0
2
CENTER
3
____ _ ____ _ ____ _ ____
72
65
73
4
40
47.5
49
22
74
0
49
-8.5
74
0
49
8.5
74
0
49
-8.5
74
0
0
LTYPE
5
6F
100
AcDbSymbolTableRecord
100
AcDbLinetypeTableRecord
70
0
2
DASHED
3
__ __ __ __ __ __ __ __ __
72
65
73
2
40
25.72
49
12.86
74
0
49
-12.86
74
0
0
ENDTAB
0
TABLE
2
LAYER
5
222
100
AcDbSymbolTable
0
LAYER
5
10
100
AcDbSymbolTableRecord
100
AcDbLayerTableRecord
2
0
70
0
62
7
6
Continuous
290
1
370
-3
390
0
0
LAYER
5
71
100
AcDbSymbolTableRecord
100
AcDbLayerTableRecord
2
80
70
0
62
-6
6
Continuous
290
1
370
-3
390
0
0
LAYER
5
73
100
AcDbSymbolTableRecord
100
AcDbLayerTableRecord
2
81
70
0
62
-3
6
Continuous
290
1
370
-3
390
0
0
LAYER
5
75
100
AcDbSymbolTableRecord
100
AcDbLayerTableRecord
2
1
70
0
62
4
6
Continuous
290
1
370
-3
390
0
0
LAYER
5
85
100
AcDbSymbolTableRecord
100
AcDbLayerTableRecord
2
4
70
0
62
-2
6
CENTER
290
1
370
-3
390
0
0
LAYER
5
A6
100
AcDbSymbolTableRecord
100
AcDbLayerTableRecord
2
2
70
0
62
7
6
Continuous
290
1
370
-3
390
0
0
LAYER
5
135
100
AcDbSymbolTableRecord
100
AcDbLayerTableRecord
2
Defpoints
70
0
62
7
6
Continuous
290
0
370
-3
390
0
0
LAYER
5
20c
100
AcDbSymbolTableRecord
100
AcDbLayerTableRecord
2
SK4
70
0
62
2
6
CENTER
290
1
370
-3
390
0
0
LAYER
5
20d
100
AcDbSymbolTableRecord
100
AcDbLayerTableRecord
2
SK1
70
0
62
4
6
Continuous
290
1
370
-3
390
0
0
LAYER
5
20e
100
AcDbSymbolTableRecord
100
AcDbLayerTableRecord
2
SK2
70
0
62
7
6
Continuous
290
1
370
-3
390
0
0
LAYER
5
20f
100
AcDbSymbolTableRecord
100
AcDbLayerTableRecord
2
SK6
70
0
62
5
6
Continuous
290
1
370
-3
390
0
0
ENDTAB
0
TABLE
2
STYLE
5
223
100
AcDbSymbolTable
0
STYLE
5
11
100
AcDbSymbolTableRecord
100
AcDbTextStyleTableRecord
2
Standard
3
txt
70
0
71
0
40
0
41
1
42
0
50
0
0
STYLE
5
111
100
AcDbSymbolTableRecord
100
AcDbTextStyleTableRecord
2
iso_b_vert
3
simplex.shx
70
0
71
0
40
0
41
1
42
0
50
0
0
STYLE
5
112
100
AcDbSymbolTableRecord
100
AcDbTextStyleTableRecord
2
DWGDirectTextStyle
3
simplex
70
0
71
0
40
0
41
1
42
0
50
0
0
ENDTAB
0
TABLE
2
DIMSTYLE
5
224
100
AcDbSymbolTable
100
AcDbDimStyleTable
0
DIMSTYLE
105
27
100
AcDbSymbolTableRecord
100
AcDbDimStyleTableRecord
2
Standard
70
0
3
<>
41
0.18
42
0.0625
44
0.18
140
0.18
147
0.09
73
0
74
0
77
1
271
2
275
0
278
52
280
0
340
11
0
ENDTAB
0
TABLE
2
VIEW
5
225
100
AcDbSymbolTable
0
ENDTAB
0
TABLE
2
UCS
5
226
100
AcDbSymbolTable
0
ENDTAB
0
TABLE
2
APPID
5
227
100
AcDbSymbolTable
0
APPID
5
12
100
AcDbSymbolTableRecord
100
AcDbRegAppTableRecord
2
ACAD
70
0
0
APPID
5
131
100
AcDbSymbolTableRecord
100
AcDbRegAppTableRecord
2
ACAD_DSTYLE_DIMBREAK
70
0
0
APPID
5
1CB
100
AcDbSymbolTableRecord
100
AcDbRegAppTableRecord
2
ACAD_DSTYLE_DIM_LINETYPE
70
0
0
APPID
5
1CC
100
AcDbSymbolTableRecord
100
AcDbRegAppTableRecord
2
ACAD_DSTYLE_DIM_EXT1_LINETYPE
70
0
0
APPID
5
1CD
100
AcDbSymbolTableRecord
100
AcDbRegAppTableRecord
2
ACAD_DSTYLE_DIM_EXT2_LINETYPE
70
0
0
APPID
5
208
100
AcDbSymbolTableRecord
100
AcDbRegAppTableRecord
2
ACAD_MLEADERVER
70
0
0
ENDTAB
0
TABLE
2
BLOCK_RECORD
5
228
100
AcDbSymbolTable
0
BLOCK_RECORD
5
1F
100
AcDbSymbolTableRecord
100
AcDbBlockTableRecord
2
*Model_Space
340
0
70
0
0
BLOCK_RECORD
5
1B
100
AcDbSymbolTableRecord
100
AcDbBlockTableRecord
2
*Paper_Space
340
0
70
0
0
BLOCK_RECORD
5
23
100
AcDbSymbolTableRecord
100
AcDbBlockTableRecord
2
*Paper_Space0
340
0
70
0
0
BLOCK_RECORD
5
136
100
AcDbSymbolTableRecord
100
AcDbBlockTableRecord
2
*D1
340
0
70
0
0
BLOCK_RECORD
5
142
100
AcDbSymbolTableRecord
100
AcDbBlockTableRecord
2
_U0
340
0
70
0
0
BLOCK_RECORD
5
14E
100
AcDbSymbolTableRecord
100
AcDbBlockTableRecord
2
*D3
340
0
70
0
0
BLOCK_RECORD
5
15A
100
AcDbSymbolTableRecord
100
AcDbBlockTableRecord
2
_U1
340
0
70
0
0
BLOCK_RECORD
5
166
100
AcDbSymbolTableRecord
100
AcDbBlockTableRecord
2
*D5
340
0
70
0
0
BLOCK_RECORD
5
172
100
AcDbSymbolTableRecord
100
AcDbBlockTableRecord
2
_U2
340
0
70
0
0
BLOCK_RECORD
5
180
100
AcDbSymbolTableRecord
100
AcDbBlockTableRecord
2
*D7
340
0
70
0
0
BLOCK_RECORD
5
18C
100
AcDbSymbolTableRecord
100
AcDbBlockTableRecord
2
_U3
340
0
70
0
0
BLOCK_RECORD
5
198
100
AcDbSymbolTableRecord
100
AcDbBlockTableRecord
2
*D9
340
0
70
0
0
BLOCK_RECORD
5
1A4
100
AcDbSymbolTableRecord
100
AcDbBlockTableRecord
2
_U4
340
0
70
0
0
ENDTAB
0
ENDSEC
0
SECTION
2
BLOCKS
0
BLOCK
5
20
100
AcDbEntity
8
0
100
AcDbBlockBegin
2
*Model_Space
70
0
10
0
20
0
30
0
3
*Model_Space
0
ENDBLK
5
21
100
AcDbEntity
8
0
100
AcDbBlockEnd
0
BLOCK
5
1C
100
AcDbEntity
8
0
100
AcDbBlockBegin
2
*Paper_Space
70
0
10
0
20
0
30
0
3
*Paper_Space
0
ENDBLK
5
1D
100
AcDbEntity
8
0
100
AcDbBlockEnd
0
BLOCK
5
24
100
AcDbEntity
8
0
100
AcDbBlockBegin
2
*Paper_Space0
70
0
10
0
20
0
30
0
3
*Paper_Space0
0
ENDBLK
5
25
100
AcDbEntity
8
0
100
AcDbBlockEnd
0
BLOCK
5
137
100
AcDbEntity
8
0
100
AcDbBlockBegin
2
*D1
70
1
10
0
20
0
30
0
3
*D1
0
LINE
5
139
100
AcDbEntity
8
0
62
256
6
ByLayer
370
-2
48
1
60
0
100
AcDbLine
10
-36
20
-4.5875
30
0
11
-36
21
-58.725152
31
0
39
0
210
0
220
0
230
1
0
LINE
5
13A
100
AcDbEntity
8
0
62
256
6
ByLayer
370
-2
48
1
60
0
100
AcDbLine
10
30
20
-3.0875
30
0
11
30
21
-58.725152
31
0
39
0
210
0
220
0
230
1
0
LINE
5
13B
100
AcDbEntity
8
0
62
256
6
ByLayer
370
-2
48
1
60
0
100
AcDbLine
10
-32.5
20
-56.725152
30
0
11
26.5
21
-56.725152
31
0
39
0
210
0
220
0
230
1
0
SOLID
5
13C
100
AcDbEntity
8
0
62
256
6
ByLayer
370
-1
48
1
60
0
100
AcDbTrace
10
-32.5
20
-56.141818
30
0
11
-32.5
21
-57.308485
31
0
12
-36
22
-56.725152
32
0
13
-36
23
-56.725152
33
0
39
0
210
0
220
0
230
1
0
SOLID
5
13D
100
AcDbEntity
8
0
62
256
6
ByLayer
370
-1
48
1
60
0
100
AcDbTrace
10
26.5
20
-57.308485
30
0
11
26.5
21
-56.141818
31
0
12
30
22
-56.725152
32
0
13
30
23
-56.725152
33
0
39
0
210
0
220
0
230
1
0
MTEXT
5
13E
100
AcDbEntity
8
0
62
256
6
ByLayer
370
18
48
1
60
0
100
AcDbMText
10
-3
20
-49.725152
30
0
210
0
220
0
230
1
1
\A1;66
40
3.5
41
0
44
1
50
0
71
5
72
5
7
iso_b_vert
0
POINT
5
13F
100
AcDbEntity
8
Defpoints
62
0
6
ByLayer
370
-1
48
1
60
0
100
AcDbPoint
10
-36
20
-3
30
0
39
0
210
0
220
0
230
1
50
360
0
POINT
5
140
100
AcDbEntity
8
Defpoints
62
0
6
ByLayer
370
-1
48
1
60
0
100
AcDbPoint
10
30
20
-1.5
30
0
39
0
210
0
220
0
230
1
50
360
0
POINT
5
141
100
AcDbEntity
8
Defpoints
62
0
6
ByLayer
370
-1
48
1
60
0
100
AcDbPoint
10
30
20
-56.725152
30
0
39
0
210
0
220
0
230
1
50
360
0
ENDBLK
5
138
100
AcDbEntity
8
0
100
AcDbBlockEnd
0
BLOCK
5
149
100
AcDbEntity
8
0
100
AcDbBlockBegin
2
_U0
70
0
10
0
20
0
30
0
3
_U0
0
MTEXT
5
143
100
AcDbEntity
8
2
62
256
6
ByLayer
370
18
48
1
60
0
100
AcDbMText
10
-4.904966
20
-55.692518
30
0
210
0
220
0
230
1
1
\W0.6740;66
40
3.5
41
0
44
1.084337
50
0
71
7
72
5
7
iso_b_vert
0
LINE
5
144
100
AcDbEntity
8
2
62
256
6
ByLayer
370
13
48
1
60
0
100
AcDbLine
10
-36
20
-4.5875
30
0
11
-36
21
-58.725152
31
0
39
0
210
0
220
0
230
1
0
LINE
5
145
100
AcDbEntity
8
2
62
256
6
ByLayer
370
13
48
1
60
0
100
AcDbLine
10
30
20
-3.0875
30
0
11
30
21
-58.725152
31
0
39
0
210
0
220
0
230
1
0
LINE
5
146
100
AcDbEntity
8
2
62
256
6
ByLayer
370
13
48
1
60
0
100
AcDbLine
10
-36
20
-56.725152
30
0
11
30
21
-56.725152
31
0
39
0
210
0
220
0
230
1
0
SOLID
5
147
100
AcDbEntity
8
2
62
256
6
ByLayer
370
18
48
1
60
0
100
AcDbTrace
10
-36
20
-56.725152
30
0
11
-32.500002
21
-56.264368
31
0
12
-32.499998
22
-57.185935
32
0
13
-32.499998
23
-57.185935
33
0
39
0
210
0
220
0
230
1
0
SOLID
5
148
100
AcDbEntity
8
2
62
256
6
ByLayer
370
18
48
1
60
0
100
AcDbTrace
10
30
20
-56.725152
30
0
11
26.500002
21
-57.185935
31
0
12
26.499998
22
-56.264368
32
0
13
26.499998
23
-56.264368
33
0
39
0
210
0
220
0
230
1
0
ENDBLK
5
14A
100
AcDbEntity
8
0
100
AcDbBlockEnd
0
BLOCK
5
14F
100
AcDbEntity
8
0
100
AcDbBlockBegin
2
*D3
70
1
10
0
20
0
30
0
3
*D3
0
LINE
5
151
100
AcDbEntity
8
0
62
256
6
ByLayer
370
-2
48
1
60
0
100
AcDbLine
10
30
20
-3.0875
30
0
11
30
21
-38.725152
31
0
39
0
210
0
220
0
230
1
0
LINE
5
152
100
AcDbEntity
8
0
62
256
6
ByLayer
370
-2
48
1
60
0
100
AcDbLine
10
2
20
-3.0875
30
0
11
2
21
-38.725152
31
0
39
0
210
0
220
0
230
1
0
LINE
5
153
100
AcDbEntity
8
0
62
256
6
ByLayer
370
-2
48
1
60
0
100
AcDbLine
10
26.5
20
-36.725152
30
0
11
5.5
21
-36.725152
31
0
39
0
210
0
220
0
230
1
0
SOLID
5
154
100
AcDbEntity
8
0
62
256
6
ByLayer
370
-1
48
1
60
0
100
AcDbTrace
10
26.5
20
-37.308485
30
0
11
26.5
21
-36.141818
31
0
12
30
22
-36.725152
32
0
13
30
23
-36.725152
33
0
39
0
210
0
220
0
230
1
0
SOLID
5
155
100
AcDbEntity
8
0
62
256
6
ByLayer
370
-1
48
1
60
0
100
AcDbTrace
10
5.5
20
-36.141818
30
0
11
5.5
21
-37.308485
31
0
12
2
22
-36.725152
32
0
13
2
23
-36.725152
33
0
39
0
210
0
220
0
230
1
0
MTEXT
5
156
100
AcDbEntity
8
0
62
256
6
ByLayer
370
18
48
1
60
0
100
AcDbMText
10
16
20
-29.725152
30
0
210
0
220
0
230
1
1
\A1;28
40
3.5
41
0
44
1
50
0
71
5
72
5
7
iso_b_vert
0
POINT
5
157
100
AcDbEntity
8
Defpoints
62
0
6
ByLayer
370
-1
48
1
60
0
100
AcDbPoint
10
30
20
-1.5
30
0
39
0
210
0
220
0
230
1
50
360
0
POINT
5
158
100
AcDbEntity
8
Defpoints
62
0
6
ByLayer
370
-1
48
1
60
0
100
AcDbPoint
10
2
20
-1.5
30
0
39
0
210
0
220
0
230
1
50
360
0
POINT
5
159
100
AcDbEntity
8
Defpoints
62
0
6
ByLayer
370
-1
48
1
60
0
100
AcDbPoint
10
2
20
-36.725152
30
0
39
0
210
0
220
0
230
1
50
360
0
ENDBLK
5
150
100
AcDbEntity
8
0
100
AcDbBlockEnd
0
BLOCK
5
161
100
AcDbEntity
8
0
100
AcDbBlockBegin
2
_U1
70
0
10
0
20
0
30
0
3
_U1
0
MTEXT
5
15B
100
AcDbEntity
8
SK2
62
256
6
ByLayer
370
18
48
1
60
0
100
AcDbMText
10
14.095034
20
-35.692518
30
0
210
0
220
0
230
1
1
\W0.6740;28
40
3.5
41
0
44
1.084337
50
0
71
7
72
5
7
iso_b_vert
0
LINE
5
15C
100
AcDbEntity
8
SK2
62
256
6
ByLayer
370
13
48
1
60
0
100
AcDbLine
10
30
20
-3.0875
30
0
11
30
21
-38.725152
31
0
39
0
210
0
220
0
230
1
0
LINE
5
15D
100
AcDbEntity
8
SK2
62
256
6
ByLayer
370
13
48
1
60
0
100
AcDbLine
10
2
20
-3.0875
30
0
11
2
21
-38.725152
31
0
39
0
210
0
220
0
230
1
0
LINE
5
15E
100
AcDbEntity
8
SK2
62
256
6
ByLayer
370
13
48
1
60
0
100
AcDbLine
10
30
20
-36.725152
30
0
11
2
21
-36.725152
31
0
39
0
210
0
220
0
230
1
0
SOLID
5
15F
100
AcDbEntity
8
SK2
62
256
6
ByLayer
370
18
48
1
60
0
100
AcDbTrace
10
30
20
-36.725152
30
0
11
26.500002
21
-37.185935
31
0
12
26.499998
22
-36.264368
32
0
13
26.499998
23
-36.264368
33
0
39
0
210
0
220
0
230
1
0
SOLID
5
160
100
AcDbEntity
8
SK2
62
256
6
ByLayer
370
18
48
1
60
0
100
AcDbTrace
10
2
20
-36.725152
30
0
11
5.499998
21
-36.264368
31
0
12
5.500002
22
-37.185935
32
0
13
5.500002
23
-37.185935
33
0
39
0
210
0
220
0
230
1
0
ENDBLK
5
162
100
AcDbEntity
8
0
100
AcDbBlockEnd
0
BLOCK
5
167
100
AcDbEntity
8
0
100
AcDbBlockBegin
2
*D5
70
1
10
0
20
0
30
0
3
*D5
0
LINE
5
169
100
AcDbEntity
8
0
62
256
6
ByLayer
370
-2
48
1
60
0
100
AcDbLine
10
30
20
-3.0875
30
0
11
30
21
-28.725152
31
0
39
0
210
0
220
0
230
1
0
LINE
5
16A
100
AcDbEntity
8
0
62
256
6
ByLayer
370
-2
48
1
60
0
100
AcDbLine
10
11
20
-3.0875
30
0
11
11
21
-28.725152
31
0
39
0
210
0
220
0
230
1
0
LINE
5
16B
100
AcDbEntity
8
0
62
256
6
ByLayer
370
-2
48
1
60
0
100
AcDbLine
10
26.5
20
-26.725152
30
0
11
14.5
21
-26.725152
31
0
39
0
210
0
220
0
230
1
0
SOLID
5
16C
100
AcDbEntity
8
0
62
256
6
ByLayer
370
-1
48
1
60
0
100
AcDbTrace
10
26.5
20
-27.308485
30
0
11
26.5
21
-26.141818
31
0
12
30
22
-26.725152
32
0
13
30
23
-26.725152
33
0
39
0
210
0
220
0
230
1
0
SOLID
5
16D
100
AcDbEntity
8
0
62
256
6
ByLayer
370
-1
48
1
60
0
100
AcDbTrace
10
14.5
20
-26.141818
30
0
11
14.5
21
-27.308485
31
0
12
11
22
-26.725152
32
0
13
11
23
-26.725152
33
0
39
0
210
0
220
0
230
1
0
MTEXT
5
16E
100
AcDbEntity
8
0
62
256
6
ByLayer
370
18
48
1
60
0
100
AcDbMText
10
20.5
20
-19.725152
30
0
210
0
220
0
230
1
1
\A1;19
40
3.5
41
0
44
1
50
0
71
5
72
5
7
iso_b_vert
0
POINT
5
16F
100
AcDbEntity
8
Defpoints
62
0
6
ByLayer
370
-1
48
1
60
0
100
AcDbPoint
10
30
20
-1.5
30
0
39
0
210
0
220
0
230
1
50
360
0
POINT
5
170
100
AcDbEntity
8
Defpoints
62
0
6
ByLayer
370
-1
48
1
60
0
100
AcDbPoint
10
11
20
-1.5
30
0
39
0
210
0
220
0
230
1
50
360
0
POINT
5
171
100
AcDbEntity
8
Defpoints
62
0
6
ByLayer
370
-1
48
1
60
0
100
AcDbPoint
10
11
20
-26.725152
30
0
39
0
210
0
220
0
230
1
50
360
0
ENDBLK
5
168
100
AcDbEntity
8
0
100
AcDbBlockEnd
0
BLOCK
5
17B
100
AcDbEntity
8
0
100
AcDbBlockBegin
2
_U2
70
0
10
0
20
0
30
0
3
_U2
0
MTEXT
5
173
100
AcDbEntity
8
SK2
62
256
6
ByLayer
370
18
48
1
60
0
100
AcDbMText
10
19.032467
20
-25.692518
30
0
210
0
220
0
230
1
1
\W0.5469;19
40
3.5
41
0
44
1.084337
50
0
71
7
72
5
7
iso_b_vert
0
MTEXT
5
174
100
AcDbEntity
8
SK2
62
256
6
ByLayer
370
18
48
1
60
0
100
AcDbMText
10
15.164468
20
-25.692518
30
0
210
0
220
0
230
1
1
\W0.1790;(
40
3.5
41
0
44
1.084337
50
0
71
7
72
5
7
iso_b_vert
0
MTEXT
5
175
100
AcDbEntity
8
SK2
62
256
6
ByLayer
370
18
48
1
60
0
100
AcDbMText
10
25.838533
20
-25.692518
30
0
210
0
220
0
230
1
1
\W0.1969;)
40
3.5
41
0
44
1.084337
50
0
71
7
72
5
7
iso_b_vert
0
LINE
5
176
100
AcDbEntity
8
SK2
62
256
6
ByLayer
370
13
48
1
60
0
100
AcDbLine
10
30
20
-3.0875
30
0
11
30
21
-28.725152
31
0
39
0
210
0
220
0
230
1
0
LINE
5
177
100
AcDbEntity
8
SK2
62
256
6
ByLayer
370
13
48
1
60
0
100
AcDbLine
10
11
20
-3.0875
30
0
11
11
21
-28.725152
31
0
39
0
210
0
220
0
230
1
0
LINE
5
178
100
AcDbEntity
8
SK2
62
256
6
ByLayer
370
13
48
1
60
0
100
AcDbLine
10
30
20
-26.725152
30
0
11
11
21
-26.725152
31
0
39
0
210
0
220
0
230
1
0
SOLID
5
179
100
AcDbEntity
8
SK2
62
256
6
ByLayer
370
18
48
1
60
0
100
AcDbTrace
10
30
20
-26.725152
30
0
11
26.500002
21
-27.185935
31
0
12
26.499998
22
-26.264368
32
0
13
26.499998
23
-26.264368
33
0
39
0
210
0
220
0
230
1
0
SOLID
5
17A
100
AcDbEntity
8
SK2
62
256
6
ByLayer
370
18
48
1
60
0
100
AcDbTrace
10
11
20
-26.725152
30
0
11
14.499998
21
-26.264368
31
0
12
14.500002
22
-27.185935
32
0
13
14.500002
23
-27.185935
33
0
39
0
210
0
220
0
230
1
0
ENDBLK
5
17C
100
AcDbEntity
8
0
100
AcDbBlockEnd
0
BLOCK
5
181
100
AcDbEntity
8
0
100
AcDbBlockBegin
2
*D7
70
1
10
0
20
0
30
0
3
*D7
0
LINE
5
183
100
AcDbEntity
8
0
62
256
6
ByLayer
370
-2
48
1
60
0
100
AcDbLine
10
-36
20
-4.5875
30
0
11
-36
21
-38.725152
31
0
39
0
210
0
220
0
230
1
0
LINE
5
184
100
AcDbEntity
8
0
62
256
6
ByLayer
370
-2
48
1
60
0
100
AcDbLine
10
0
20
-4.5875
30
0
11
0
21
-38.725152
31
0
39
0
210
0
220
0
230
1
0
LINE
5
185
100
AcDbEntity
8
0
62
256
6
ByLayer
370
-2
48
1
60
0
100
AcDbLine
10
-32.5
20
-36.725152
30
0
11
-3.5
21
-36.725152
31
0
39
0
210
0
220
0
230
1
0
SOLID
5
186
100
AcDbEntity
8
0
62
256
6
ByLayer
370
-1
48
1
60
0
100
AcDbTrace
10
-32.5
20
-36.141818
30
0
11
-32.5
21
-37.308485
31
0
12
-36
22
-36.725152
32
0
13
-36
23
-36.725152
33
0
39
0
210
0
220
0
230
1
0
SOLID
5
187
100
AcDbEntity
8
0
62
256
6
ByLayer
370
-1
48
1
60
0
100
AcDbTrace
10
-3.5
20
-37.308485
30
0
11
-3.5
21
-36.141818
31
0
12
0
22
-36.725152
32
0
13
0
23
-36.725152
33
0
39
0
210
0
220
0
230
1
0
MTEXT
5
188
100
AcDbEntity
8
0
62
256
6
ByLayer
370
18
48
1
60
0
100
AcDbMText
10
-18
20
-29.725152
30
0
210
0
220
0
230
1
1
\A1;36
40
3.5
41
0
44
1
50
0
71
5
72
5
7
iso_b_vert
0
POINT
5
189
100
AcDbEntity
8
Defpoints
62
0
6
ByLayer
370
-1
48
1
60
0
100
AcDbPoint
10
-36
20
-3
30
0
39
0
210
0
220
0
230
1
50
360
0
POINT
5
18A
100
AcDbEntity
8
Defpoints
62
0
6
ByLayer
370
-1
48
1
60
0
100
AcDbPoint
10
0
20
-3
30
0
39
0
210
0
220
0
230
1
50
360
0
POINT
5
18B
100
AcDbEntity
8
Defpoints
62
0
6
ByLayer
370
-1
48
1
60
0
100
AcDbPoint
10
0
20
-36.725152
30
0
39
0
210
0
220
0
230
1
50
360
0
ENDBLK
5
182
100
AcDbEntity
8
0
100
AcDbBlockEnd
0
BLOCK
5
193
100
AcDbEntity
8
0
100
AcDbBlockBegin
2
_U3
70
0
10
0
20
0
30
0
3
_U3
0
MTEXT
5
18D
100
AcDbEntity
8
SK2
62
256
6
ByLayer
370
18
48
1
60
0
100
AcDbMText
10
-19.904966
20
-35.692518
30
0
210
0
220
0
230
1
1
\W0.6740;36
40
3.5
41
0
44
1.084337
50
0
71
7
72
5
7
iso_b_vert
0
LINE
5
18E
100
AcDbEntity
8
SK2
62
256
6
ByLayer
370
13
48
1
60
0
100
AcDbLine
10
-36
20
-4.5875
30
0
11
-36
21
-38.725152
31
0
39
0
210
0
220
0
230
1
0
LINE
5
18F
100
AcDbEntity
8
SK2
62
256
6
ByLayer
370
13
48
1
60
0
100
AcDbLine
10
0
20
-4.5875
30
0
11
0
21
-38.725152
31
0
39
0
210
0
220
0
230
1
0
LINE
5
190
100
AcDbEntity
8
SK2
62
256
6
ByLayer
370
13
48
1
60
0
100
AcDbLine
10
-36
20
-36.725152
30
0
11
0
21
-36.725152
31
0
39
0
210
0
220
0
230
1
0
SOLID
5
191
100
AcDbEntity
8
SK2
62
256
6
ByLayer
370
18
48
1
60
0
100
AcDbTrace
10
-36
20
-36.725152
30
0
11
-32.500002
21
-36.264368
31
0
12
-32.499998
22
-37.185935
32
0
13
-32.499998
23
-37.185935
33
0
39
0
210
0
220
0
230
1
0
SOLID
5
192
100
AcDbEntity
8
SK2
62
256
6
ByLayer
370
18
48
1
60
0
100
AcDbTrace
10
0
20
-36.725152
30
0
11
-3.499998
21
-37.185935
31
0
12
-3.500002
22
-36.264368
32
0
13
-3.500002
23
-36.264368
33
0
39
0
210
0
220
0
230
1
0
ENDBLK
5
194
100
AcDbEntity
8
0
100
AcDbBlockEnd
0
BLOCK
5
199
100
AcDbEntity
8
0
100
AcDbBlockBegin
2
*D9
70
1
10
0
20
0
30
0
3
*D9
0
LINE
5
19B
100
AcDbEntity
8
0
62
256
6
ByLayer
370
-2
48
1
60
0
100
AcDbLine
10
0
20
-4.5875
30
0
11
0
21
-48.725152
31
0
39
0
210
0
220
0
230
1
0
LINE
5
19C
100
AcDbEntity
8
0
62
256
6
ByLayer
370
-2
48
1
60
0
100
AcDbLine
10
30
20
-3.0875
30
0
11
30
21
-48.725152
31
0
39
0
210
0
220
0
230
1
0
LINE
5
19D
100
AcDbEntity
8
0
62
256
6
ByLayer
370
-2
48
1
60
0
100
AcDbLine
10
3.5
20
-46.725152
30
0
11
26.5
21
-46.725152
31
0
39
0
210
0
220
0
230
1
0
SOLID
5
19E
100
AcDbEntity
8
0
62
256
6
ByLayer
370
-1
48
1
60
0
100
AcDbTrace
10
3.5
20
-46.141818
30
0
11
3.5
21
-47.308485
31
0
12
0
22
-46.725152
32
0
13
0
23
-46.725152
33
0
39
0
210
0
220
0
230
1
0
SOLID
5
19F
100
AcDbEntity
8
0
62
256
6
ByLayer
370
-1
48
1
60
0
100
AcDbTrace
10
26.5
20
-47.308485
30
0
11
26.5
21
-46.141818
31
0
12
30
22
-46.725152
32
0
13
30
23
-46.725152
33
0
39
0
210
0
220
0
230
1
0
MTEXT
5
1A0
100
AcDbEntity
8
0
62
256
6
ByLayer
370
18
48
1
60
0
100
AcDbMText
10
15
20
-39.725152
30
0
210
0
220
0
230
1
1
\A1;30
40
3.5
41
0
44
1
50
0
71
5
72
5
7
iso_b_vert
0
POINT
5
1A1
100
AcDbEntity
8
Defpoints
62
0
6
ByLayer
370
-1
48
1
60
0
100
AcDbPoint
10
0
20
-3
30
0
39
0
210
0
220
0
230
1
50
360
0
POINT
5
1A2
100
AcDbEntity
8
Defpoints
62
0
6
ByLayer
370
-1
48
1
60
0
100
AcDbPoint
10
30
20
-1.5
30
0
39
0
210
0
220
0
230
1
50
360
0
POINT
5
1A3
100
AcDbEntity
8
Defpoints
62
0
6
ByLayer
370
-1
48
1
60
0
100
AcDbPoint
10
30
20
-46.725152
30
0
39
0
210
0
220
0
230
1
50
360
0
ENDBLK
5
19A
100
AcDbEntity
8
0
100
AcDbBlockEnd
0
BLOCK
5
1AB
100
AcDbEntity
8
0
100
AcDbBlockBegin
2
_U4
70
0
10
0
20
0
30
0
3
_U4
0
MTEXT
5
1A5
100
AcDbEntity
8
SK2
62
256
6
ByLayer
370
18
48
1
60
0
100
AcDbMText
10
13.095034
20
-45.692518
30
0
210
0
220
0
230
1
1
\W0.6740;30
40
3.5
41
0
44
1.084337
50
0
71
7
72
5
7
iso_b_vert
0
LINE
5
1A6
100
AcDbEntity
8
SK2
62
256
6
ByLayer
370
13
48
1
60
0
100
AcDbLine
10
0
20
-4.5875
30
0
11
0
21
-48.725152
31
0
39
0
210
0
220
0
230
1
0
LINE
5
1A7
100
AcDbEntity
8
SK2
62
256
6
ByLayer
370
13
48
1
60
0
100
AcDbLine
10
30
20
-3.0875
30
0
11
30
21
-48.725152
31
0
39
0
210
0
220
0
230
1
0
LINE
5
1A8
100
AcDbEntity
8
SK2
62
256
6
ByLayer
370
13
48
1
60
0
100
AcDbLine
10
0
20
-46.725152
30
0
11
30
21
-46.725152
31
0
39
0
210
0
220
0
230
1
0
SOLID
5
1A9
100
AcDbEntity
8
SK2
62
256
6
ByLayer
370
18
48
1
60
0
100
AcDbTrace
10
0
20
-46.725152
30
0
11
3.499998
21
-46.264368
31
0
12
3.500002
22
-47.185935
32
0
13
3.500002
23
-47.185935
33
0
39
0
210
0
220
0
230
1
0
SOLID
5
1AA
100
AcDbEntity
8
SK2
62
256
6
ByLayer
370
18
48
1
60
0
100
AcDbTrace
10
30
20
-46.725152
30
0
11
26.500002
21
-47.185935
31
0
12
26.499998
22
-46.264368
32
0
13
26.499998
23
-46.264368
33
0
39
0
210
0
220
0
230
1
0
ENDBLK
5
1AC
100
AcDbEntity
8
0
100
AcDbBlockEnd
0
ENDSEC
0
SECTION
2
ENTITIES
0
ARC
5
C1
100
AcDbEntity
8
1
62
256
6
ByLayer
370
18
48
1
60
0
100
AcDbCircle
39
0
10
1.597898
20
2.282589
30
0
40
0.800000000000002
210
0
220
0
230
1
100
AcDbArc
50
183.316843
51
270.03581
0
ARC
5
C2
100
AcDbEntity
8
1
62
256
6
ByLayer
370
18
48
1
60
0
100
AcDbCircle
39
0
10
1.597898
20
-2.282589
30
0
40
0.800000000000002
210
0
220
0
230
1
100
AcDbArc
50
89.96419
51
176.683157
0
ARC
5
C3
100
AcDbEntity
8
1
62
256
6
ByLayer
370
18
48
1
60
0
100
AcDbCircle
39
0
10
0
20
2.2
30
0
40
0.799999999999987
210
0
220
0
230
1
100
AcDbArc
50
3.316843
51
90
0
ARC
5
C4
100
AcDbEntity
8
1
62
256
6
ByLayer
370
18
48
1
60
0
100
AcDbCircle
39
0
10
0
20
-2.2
30
0
40
0.799999999999987
210
0
220
0
230
1
100
AcDbArc
50
270
51
356.683157
0
ARC
5
C5
100
AcDbEntity
8
SK2
62
256
6
ByLayer
370
13
48
1
60
0
100
AcDbCircle
39
0
10
30
20
0
30
0
40
29.35
210
0
220
0
230
1
100
AcDbArc
50
6.357545
51
69.998494
0
ARC
5
C6
100
AcDbEntity
8
SK2
62
256
6
ByLayer
370
13
48
1
60
0
100
AcDbCircle
39
0
10
30
20
0
30
0
40
29.35
210
0
220
0
230
1
100
AcDbArc
50
290.001506
51
353.642455
0
ELLIPSE
5
C7
100
AcDbEntity
8
1
62
256
6
ByLayer
370
13
48
1
60
0
100
AcDbEllipse
10
3.67954
20
-1.488119
30
0
11
0.0533967260417382
21
-0.0845505153622588
31
0
210
0
220
0
230
1
40
0.298213
41
2.9317603037885
42
-2.8985020117742
0
ELLIPSE
5
C8
100
AcDbEntity
8
1
62
256
6
ByLayer
370
18
48
1
60
0
100
AcDbEllipse
10
3.75
20
1.65974
30
0
11
-0.25
21
3.06151588455594E-17
31
0
210
0
220
0
230
1
40
1
41
0.806412697875733
42
1.58787401853558
0
ELLIPSE
5
C9
100
AcDbEntity
8
1
62
256
6
ByLayer
370
18
48
1
60
0
100
AcDbEllipse
10
3.75
20
-1.65974
30
0
11
-0.25
21
3.06151588455594E-17
31
0
210
0
220
0
230
1
40
1
41
-1.56045282710968
42
-0.808199314625386
0
POINT
5
70
100
AcDbEntity
8
80
62
256
6
ByLayer
370
18
48
1
60
0
100
AcDbPoint
10
0
20
0
30
0
39
0
210
0
220
0
230
1
50
360
0
POINT
5
72
100
AcDbEntity
8
81
62
256
6
ByLayer
370
18
48
1
60
0
100
AcDbPoint
10
30
20
0
30
0
39
0
210
0
220
0
230
1
50
360
0
POINT
5
74
100
AcDbEntity
8
1
62
256
6
ByLayer
370
18
48
1
60
0
100
AcDbPoint
10
-223
20
-200
30
0
39
0
210
0
220
0
230
1
50
360
0
POINT
5
76
100
AcDbEntity
8
1
62
256
6
ByLayer
370
13
48
1
60
1
100
AcDbPoint
10
-37.5
20
0
30
0
39
0
210
0
220
0
230
1
50
360
0
POINT
5
77
100
AcDbEntity
8
1
62
256
6
ByLayer
370
13
48
1
60
1
100
AcDbPoint
10
30.973493
20
0
30
0
39
0
210
0
220
0
230
1
50
360
0
POINT
5
78
100
AcDbEntity
8
1
62
256
6
ByLayer
370
18
48
1
60
1
100
AcDbPoint
10
-36
20
-3
30
0
39
0
210
0
220
0
230
1
50
360
0
POINT
5
79
100
AcDbEntity
8
1
62
256
6
ByLayer
370
18
48
1
60
1
100
AcDbPoint
10
30
20
-1.5
30
0
39
0
210
0
220
0
230
1
50
360
0
POINT
5
7A
100
AcDbEntity
8
1
62
256
6
ByLayer
370
18
48
1
60
1
100
AcDbPoint
10
30
20
-1.5
30
0
39
0
210
0
220
0
230
1
50
360
0
POINT
5
7B
100
AcDbEntity
8
1
62
256
6
ByLayer
370
18
48
1
60
1
100
AcDbPoint
10
2
20
-1.5
30
0
39
0
210
0
220
0
230
1
50
360
0
POINT
5
7C
100
AcDbEntity
8
1
62
256
6
ByLayer
370
18
48
1
60
1
100
AcDbPoint
10
30
20
-1.5
30
0
39
0
210
0
220
0
230
1
50
360
0
POINT
5
7D
100
AcDbEntity
8
1
62
256
6
ByLayer
370
18
48
1
60
1
100
AcDbPoint
10
11
20
-1.5
30
0
39
0
210
0
220
0
230
1
50
360
0
POINT
5
7E
100
AcDbEntity
8
1
62
256
6
ByLayer
370
18
48
1
60
1
100
AcDbPoint
10
-36
20
-3
30
0
39
0
210
0
220
0
230
1
50
360
0
POINT
5
7F
100
AcDbEntity
8
1
62
256
6
ByLayer
370
18
48
1
60
1
100
AcDbPoint
10
0
20
-3
30
0
39
0
210
0
220
0
230
1
50
360
0
POINT
5
80
100
AcDbEntity
8
1
62
256
6
ByLayer
370
18
48
1
60
1
100
AcDbPoint
10
0
20
-3
30
0
39
0
210
0
220
0
230
1
50
360
0
POINT
5
81
100
AcDbEntity
8
1
62
256
6
ByLayer
370
18
48
1
60
1
100
AcDbPoint
10
30
20
-1.5
30
0
39
0
210
0
220
0
230
1
50
360
0
SPLINE
5
CA
100
AcDbEntity
8
1
62
256
6
ByLayer
370
18
48
1
60
0
100
AcDbSpline
70
4
71
3
72
8
73
4
40
0
40
0
40
0
40
0
40
1
40
1
40
1
40
1
41
1
10
29.8519034512393
20
0.526014693295281
30
0
41
1
10
29.9019284983993
20
0.386672548343654
30
0
41
1
10
29.9505735668161
20
0.246832400405708
30
0
41
1
10
29.9978167005066
20
0.106486326065721
30
0
0
SPLINE
5
CB
100
AcDbEntity
8
1
62
256
6
ByLayer
370
18
48
1
60
0
100
AcDbSpline
70
2053
71
3
72
90
73
86
40
0
40
0
40
0
40
0
40
0.0312499999999984
40
0.0312499999999984
40
0.0624999999999967
40
0.0624999999999967
40
0.0937499999999949
40
0.0937499999999949
40
0.124999999999993
40
0.124999999999993
40
0.156249999999991
40
0.156249999999991
40
0.18749999999999
40
0.18749999999999
40
0.218749999999988
40
0.218749999999988
40
0.249999999999986
40
0.249999999999986
40
0.281249999999984
40
0.281249999999984
40
0.296874999999984
40
0.296874999999984
40
0.312499999999984
40
0.312499999999984
40
0.343749999999984
40
0.343749999999984
40
0.359374999999985
40
0.359374999999985
40
0.374999999999986
40
0.390624999999987
40
0.390624999999987
40
0.406249999999988
40
0.406249999999988
40
0.437499999999991
40
0.437499999999991
40
0.453124999999992
40
0.453124999999992
40
0.468749999999993
40
0.484374999999994
40
0.484374999999994
40
0.499999999999995
40
0.499999999999995
40
0.531250000000007
40
0.531250000000007
40
0.546875000000013
40
0.546875000000013
40
0.562500000000019
40
0.562500000000019
40
0.593750000000021
40
0.593750000000021
40
0.609375000000022
40
0.609375000000022
40
0.625000000000023
40
0.625000000000023
40
0.656250000000025
40
0.656250000000025
40
0.671875000000026
40
0.671875000000026
40
0.687500000000027
40
0.687500000000027
40
0.718750000000028
40
0.718750000000028
40
0.734375000000027
40
0.734375000000027
40
0.750000000000025
40
0.765625000000024
40
0.765625000000024
40
0.781250000000022
40
0.781250000000022
40
0.812500000000019
40
0.812500000000019
40
0.828125000000017
40
0.828125000000017
40
0.843750000000016
40
0.859375000000014
40
0.859375000000014
40
0.875000000000013
40
0.875000000000013
40
0.906250000000009
40
0.906250000000009
40
0.937500000000006
40
0.937500000000006
40
0.968750000000003
40
0.968750000000003
40
1
40
1
40
1
40
1
41
1
10
29.6077486806853
20
-0.726008156111547
30
0
41
1
10
29.6013191528456
20
-0.735604729461954
30
0
41
1
10
29.5951029298627
20
-0.743864235909626
30
0
41
1
10
29.5830304547109
20
-0.757893435259831
30
0
41
1
10
29.577174455519
20
-0.763661855523651
30
0
41
1
10
29.5657673210605
20
-0.772613570387847
30
0
41
1
10
29.5603756258117
20
-0.77567087827137
30
0
41
1
10
29.5501058363826
20
-0.779039048604602
30
0
41
1
10
29.5452273704211
20
-0.779349995053849
30
0
41
1
10
29.5359172257102
20
-0.777046142540797
30
0
41
1
10
29.5316185932705
20
-0.774464482371059
30
0
41
1
10
29.5236236085603
20
-0.766483466560913
30
0
41
1
10
29.5199273191263
20
-0.761085877768778
30
0
41
1
10
29.5131007638155
20
-0.747230684797415
30
0
41
1
10
29.5100723961782
20
-0.73897551978331
30
0
41
1
10
29.5047515818795
20
-0.719875198743381
30
0
41
1
10
29.5024498762764
20
-0.708998665157111
30
0
41
1
10
29.4986562588292
20
-0.684446787316631
30
0
41
1
10
29.4972250134256
20
-0.671179318506887
30
0
41
1
10
29.4958134622328
20
-0.64977111135309
30
0
41
1
10
29.4954667769573
20
-0.642382011862139
30
0
41
1
10
29.4950453108982
20
-0.627068500006402
30
0
41
1
10
29.4949721713334
20
-0.619090184575924
30
0
41
1
10
29.4952073909203
20
-0.594914387020481
30
0
41
1
10
29.4959528939735
20
-0.57836693789011
30
0
41
1
10
29.4980887933272
20
-0.552884442732932
30
0
41
1
10
29.4989793110559
20
-0.54422207352701
30
0
41
1
10
29.50111273588
20
-0.526939897466519
30
0
41
1
10
29.5035790350952
20
-0.50981979617822
30
0
41
1
10
29.5067302549827
20
-0.493021250234875
30
0
41
1
10
29.5102438852095
20
-0.476387394327531
30
0
41
1
10
29.5121974640675
20
-0.468096560436038
30
0
41
1
10
29.5185155992964
20
-0.443972451963901
30
0
41
1
10
29.5233150601602
20
-0.428895865868242
30
0
41
1
10
29.5313972379272
20
-0.407695196818537
30
0
41
1
10
29.5342489490501
20
-0.400850826475505
30
0
41
1
10
29.5401172267263
20
-0.387924713547562
30
0
41
1
10
29.5461784110485
20
-0.375679289788707
30
0
41
1
10
29.5526075787678
20
-0.364711957892638
30
0
41
1
10
29.5592146102046
20
-0.354360894487769
30
0
41
1
10
29.5626028182565
20
-0.349504946108709
30
0
41
1
10
29.5728350885705
20
-0.336071651165014
30
0
41
1
10
29.5798076673809
20
-0.328519963743247
30
0
41
1
10
29.5904439635735
20
-0.319097840540849
30
0
41
1
10
29.5940304267401
20
-0.316271006363081
30
0
41
1
10
29.6011529597733
20
-0.311314875222962
30
0
41
1
10
29.6046985611916
20
-0.309175022113436
30
0
41
1
10
29.6152787641335
20
-0.3037186126883
30
0
41
1
10
29.6222576508117
20
-0.301357180787903
30
0
41
1
10
29.632561608294
20
-0.299684145781356
30
0
41
1
10
29.6359699611582
20
-0.29944309501343
30
0
41
1
10
29.6426186643229
20
-0.299591788392036
30
0
41
1
10
29.6458723903597
20
-0.299978507582466
30
0
41
1
10
29.6554094184301
20
-0.30206341786041
30
0
41
1
10
29.6614708859709
20
-0.304677434772913
30
0
41
1
10
29.6700329151743
20
-0.310538976587992
30
0
41
1
10
29.672808432179
20
-0.31282915482069
30
0
41
1
10
29.6781072771113
20
-0.318055340319717
30
0
41
1
10
29.6806219449098
20
-0.320979018242525
30
0
41
1
10
29.687741125395
20
-0.330700472616314
30
0
41
1
10
29.6919255697449
20
-0.338436842569081
30
0
41
1
10
29.6972068366699
20
-0.352181560989493
30
0
41
1
10
29.6988048464409
20
-0.357148575837044
30
0
41
1
10
29.701571398943
20
-0.367652909491937
30
0
41
1
10
29.7039252151291
20
-0.378758883046601
30
0
41
1
10
29.7054174740869
20
-0.391119942303447
30
0
41
1
10
29.7064484640491
20
-0.40415755822815
30
0
41
1
10
29.7067315958259
20
-0.411063641878457
30
0
41
1
10
29.7068296829711
20
-0.43234230673508
30
0
41
1
10
29.705920323938
20
-0.447355529171318
30
0
41
1
10
29.7030819607412
20
-0.471195552931363
30
0
41
1
10
29.7018757512803
20
-0.479430837769826
30
0
41
1
10
29.6990257245444
20
-0.495952637634247
30
0
41
1
10
29.6957443435683
20
-0.51254613981007
30
0
41
1
10
29.6916601963702
20
-0.52928654786777
30
0
41
1
10
29.6871916675559
20
-0.54610483160377
30
0
41
1
10
29.6847615197063
20
-0.554555201903298
30
0
41
1
10
29.6771247484118
20
-0.579366376399719
30
0
41
1
10
29.6715185402111
20
-0.595422873715876
30
0
41
1
10
29.6594545992056
20
-0.626659872485021
30
0
41
1
10
29.6531930274232
20
-0.641334512916245
30
0
41
1
10
29.640351883282
20
-0.669006052761347
30
0
41
1
10
29.6337319248611
20
-0.682055525081324
30
0
41
1
10
29.620680501838
20
-0.705683056651424
30
0
41
1
10
29.614178208525
20
-0.71641158276114
30
0
41
1
10
29.6077486806853
20
-0.726008156111547
30
0
0
SPLINE
5
CC
100
AcDbEntity
8
1
62
256
6
ByLayer
370
18
48
1
60
0
100
AcDbSpline
70
4
71
3
72
8
73
4
40
0
40
0
40
0
40
0
40
1
40
1
40
1
40
1
41
1
10
29.8519034512393
20
-0.526014693295281
30
0
41
1
10
29.9019284983988
20
-0.386672548345104
30
0
41
1
10
29.9505735668151
20
-0.246832400408607
30
0
41
1
10
29.9978167005052
20
-0.106486326070097
30
0
0
SPLINE
5
CD
100
AcDbEntity
8
1
62
256
6
ByLayer
370
18
48
1
60
0
100
AcDbSpline
70
4
71
3
72
10
73
6
40
0
40
0
40
0
40
0
40
0.5
40
0.5
40
1
40
1
40
1
40
1
41
1
10
29.9978167004999
20
0.10648632607149
30
0
41
1
10
29.9992655646087
20
0.0711535153817806
30
0
41
1
10
29.9999970342846
20
0.0357306044816141
30
0
41
1
10
30.0000029477187
20
-0.0352982105729041
30
0
41
1
10
29.999273253974
20
-0.070965998216991
30
0
41
1
10
29.9978167004998
20
-0.106486326074531
30
0
0
SPLINE
5
CE
100
AcDbEntity
8
1
62
256
6
ByLayer
370
18
48
1
60
0
100
AcDbSpline
70
4
71
3
72
8
73
4
40
0
40
0
40
0
40
0
40
1
40
1
40
1
40
1
41
1
10
29.997816700494
20
0.106486326069813
30
0
41
1
10
29.9896104613226
20
0.0787355228251556
30
0
41
1
10
29.9813533430755
20
0.0510012427957065
30
0
41
1
10
29.9730455856222
20
0.0232834080826194
30
0
0
SPLINE
5
CF
100
AcDbEntity
8
1
62
256
6
ByLayer
370
18
48
1
60
0
100
AcDbSpline
70
4
71
3
72
27
73
23
40
0
40
0
40
0
40
0
40
0.16159300739851
40
0.16159300739851
40
0.201991259248155
40
0.201991259248155
40
0.2423895110978
40
0.2423895110978
40
0.323186014797051
40
0.403982518496302
40
0.403982518496302
40
0.484779022195553
40
0.484779022195553
40
0.646372029594101
40
0.646372029594101
40
0.807965036992649
40
0.807965036992649
40
0.888761540691923
40
0.888761540691923
40
0.969558044391198
40
0.969558044391198
40
1
40
1
40
1
40
1
41
1
10
29.9730455856222
20
0.0232834080826478
30
0
41
1
10
29.9662370021162
20
0.0005673871451393
30
0
41
1
10
29.9584504058323
20
-0.0216614821824805
30
0
41
1
10
29.947447105998
20
-0.0487962622912903
30
0
41
1
10
29.9451821999876
20
-0.0541902688216567
30
0
41
1
10
29.9405192110933
20
-0.0649095059878277
30
0
41
1
10
29.9381123746308
20
-0.0702526830137913
30
0
41
1
10
29.9307861635737
20
-0.0859551086862211
30
0
41
1
10
29.9206999283268
20
-0.10611718010486
30
0
41
1
10
29.9099959233453
20
-0.124697596003557
30
0
41
1
10
29.898972062808
20
-0.14243000549547
30
0
41
1
10
29.8932442510914
20
-0.150942320431682
30
0
41
1
10
29.8761357539071
20
-0.174249468056814
30
0
41
1
10
29.8647462568544
20
-0.187050974776355
30
0
41
1
10
29.8419341099078
20
-0.20687757718909
30
0
41
1
10
29.8311447133096
20
-0.213347882166318
30
0
41
1
10
29.8156740249243
20
-0.218266283403523
30
0
41
1
10
29.8106894128639
20
-0.21907205790734
30
0
41
1
10
29.8011834572327
20
-0.219118519735474
30
0
41
1
10
29.7966326077083
20
-0.21836853969333
30
0
41
1
10
29.7906068132678
20
-0.216334107544782
30
0
41
1
10
29.7889821400448
20
-0.215672004306271
30
0
41
1
10
29.7873859729412
20
-0.214911163947278
30
0
0
SPLINE
5
D0
100
AcDbEntity
8
1
62
256
6
ByLayer
370
18
48
1
60
0
100
AcDbSpline
70
4
71
3
72
11
73
7
40
0
40
0
40
0
40
0
40
0.0133163886876732
40
0.506658194343836
40
0.506658194343836
40
1
40
1
40
1
40
1
41
1
10
29.7687610053355
20
-0.200348604198297
30
0
41
1
10
29.7686648609266
20
-0.200240652848805
30
0
41
1
10
29.7650119409514
20
-0.196117598192615
30
0
41
1
10
29.7615542000406
20
-0.191396869650248
30
0
41
1
10
29.7551426805584
20
-0.181143594273948
30
0
41
1
10
29.7520937525767
20
-0.175473488566979
30
0
41
1
10
29.7492184305123
20
-0.169363538206682
30
0
0
SPLINE
5
D1
100
AcDbEntity
8
1
62
256
6
ByLayer
370
18
48
1
60
0
100
AcDbSpline
70
4
71
3
72
8
73
4
40
0
40
0
40
0
40
0
40
1
40
1
40
1
40
1
41
1
10
29.7492184305123
20
-0.169363538206824
30
0
41
1
10
29.7123010769242
20
-0.0909155616643602
30
0
41
1
10
29.6705039324983
20
-0.0085912134370574
30
0
41
1
10
29.6236437524804
20
0.0777550710699018
30
0
0
SPLINE
5
D2
100
AcDbEntity
8
1
62
256
6
ByLayer
370
18
48
1
60
0
100
AcDbSpline
70
4
71
3
72
18
73
14
40
0
40
0
40
0
40
0
40
0.499999999999937
40
0.499999999999937
40
0.749999999999906
40
0.874999999999953
40
0.874999999999953
40
0.937499999999976
40
0.968749999999988
40
0.968749999999988
40
0.984374999999994
40
0.984374999999994
40
1
40
1
40
1
40
1
41
1
10
29.4561489516215
20
1.49986595492038
30
0
41
1
10
29.4621887330446
20
1.48686242020045
30
0
41
1
10
29.4683469250327
20
1.47385570641393
30
0
41
1
10
29.4777606037627
20
1.4543350649748
30
0
41
1
10
29.482511381257
20
1.44457243420692
30
0
41
1
10
29.4873274876354
20
1.43480591787093
30
0
41
1
10
29.4897464329827
20
1.42992186880224
30
0
41
1
10
29.4909580594055
20
1.42748204130359
30
0
41
1
10
29.4921798725872
20
1.42501621062922
30
0
41
1
10
29.4927929858536
20
1.42377663138336
30
0
41
1
10
29.4929984522773
20
1.42335941762249
30
0
41
1
10
29.4934069741884
20
1.42253556070639
30
0
41
1
10
29.4936224217552
20
1.42210000050355
30
0
41
1
10
29.493766097197
20
1.42190462844479
30
0
0
SPLINE
5
D3
100
AcDbEntity
8
1
62
256
6
ByLayer
370
18
48
1
60
0
100
AcDbSpline
70
4
71
3
72
43
73
39
40
0
40
0
40
0
40
0
40
0.124999999999829
40
0.124999999999829
40
0.249999999999657
40
0.249999999999657
40
0.281249999999626
40
0.281249999999626
40
0.289062499999619
40
0.289062499999619
40
0.292968749999615
40
0.292968749999615
40
0.294921874999613
40
0.294921874999613
40
0.296874999999611
40
0.312499999999618
40
0.312499999999618
40
0.343749999999633
40
0.343749999999633
40
0.374999999999648
40
0.374999999999648
40
0.406249999999663
40
0.406249999999663
40
0.437499999999678
40
0.437499999999678
40
0.499999999999708
40
0.499999999999708
40
0.562499999999738
40
0.562499999999738
40
0.624999999999768
40
0.624999999999768
40
0.687499999999798
40
0.687499999999798
40
0.749999999999828
40
0.749999999999828
40
0.874999999999914
40
0.874999999999914
40
1
40
1
40
1
40
1
41
1
10
29.6236437524803
20
0.0777550710697597
30
0
41
1
10
29.6101783898053
20
0.0817448891723984
30
0
41
1
10
29.5968498237347
20
0.0873494738978025
30
0
41
1
10
29.570674823758
20
0.101353192512335
30
0
41
1
10
29.5577674461385
20
0.109783823835926
30
0
41
1
10
29.5418226854429
20
0.121990683744713
30
0
41
1
10
29.5386430308338
20
0.124511891200996
30
0
41
1
10
29.5346820689276
20
0.127767962846207
30
0
41
1
10
29.5338903861334
20
0.12842383035013
30
0
41
1
10
29.5327049725375
20
0.129419802864391
30
0
41
1
10
29.5323074437658
20
0.12974427074883
30
0
41
1
10
29.5317239152593
20
0.130277757243107
30
0
41
1
10
29.5315576628506
20
0.130543249929872
30
0
41
1
10
29.5311925376352
20
0.13097354982915
30
0
41
1
10
29.5295287791689
20
0.132841827200053
30
0
41
1
10
29.5277328250002
20
0.134270225615722
30
0
41
1
10
29.5228597961945
20
0.137619229754279
30
0
41
1
10
29.519493778378
20
0.139302003584845
30
0
41
1
10
29.512658747757
20
0.142193472518898
30
0
41
1
10
29.5091860517919
20
0.143353120895682
30
0
41
1
10
29.5023039246624
20
0.146162822503811
30
0
41
1
10
29.4988593102773
20
0.147587225089495
30
0
41
1
10
29.4919045819203
20
0.15000205429655
30
0
41
1
10
29.4884058285731
20
0.151079598541543
30
0
41
1
10
29.4778548062675
20
0.153961700292399
30
0
41
1
10
29.4707432343963
20
0.155381427610678
30
0
41
1
10
29.4563693549852
20
0.157025531587635
30
0
41
1
10
29.4490980231241
20
0.157236763184244
30
0
41
1
10
29.4346318086359
20
0.156694447779444
30
0
41
1
10
29.4274126012396
20
0.155964743720148
30
0
41
1
10
29.4130180634149
20
0.153739268927723
30
0
41
1
10
29.4058429278611
20
0.152254826511808
30
0
41
1
10
29.3915258779653
20
0.14913132305648
30
0
41
1
10
29.3843863560737
20
0.147403179357923
30
0
41
1
10
29.3630679626085
20
0.141170640259418
30
0
41
1
10
29.3489795877794
20
0.135854872454871
30
0
41
1
10
29.3211617651171
20
0.122880607939607
30
0
41
1
10
29.307434904377
20
0.115171713113597
30
0
41
1
10
29.2939602802122
20
0.106102481223104
30
0
0
SPLINE
5
D4
100
AcDbEntity
8
1
62
256
6
ByLayer
370
18
48
1
60
0
100
AcDbSpline
70
4
71
3
72
30
73
26
40
0
40
0
40
0
40
0
40
0.125000000000012
40
0.125000000000012
40
0.187500000000018
40
0.187500000000018
40
0.250000000000024
40
0.250000000000024
40
0.375000000000024
40
0.375000000000024
40
0.437500000000021
40
0.437500000000021
40
0.500000000000019
40
0.500000000000019
40
0.562500000000017
40
0.562500000000017
40
0.625000000000014
40
0.625000000000014
40
0.750000000000009
40
0.750000000000009
40
0.875000000000005
40
0.875000000000005
40
0.937500000000002
40
0.937500000000002
40
1
40
1
40
1
40
1
41
1
10
29.4434605474521
20
0.168140109977372
30
0
41
1
10
29.4306375045982
20
0.17626830997537
30
0
41
1
10
29.4198916183535
20
0.184845073372685
30
0
41
1
10
29.4070166094848
20
0.198900849156871
30
0
41
1
10
29.4032676398804
20
0.203785372279754
30
0
41
1
10
29.3969150429587
20
0.214057636559886
30
0
41
1
10
29.3943375052994
20
0.219418999972305
30
0
41
1
10
29.3885436294779
20
0.23596598697182
30
0
41
1
10
29.387165578285
20
0.247720190536171
30
0
41
1
10
29.3890873531062
20
0.266788930989634
30
0
41
1
10
29.3904142575721
20
0.273421372570141
30
0
41
1
10
29.3943511164928
20
0.286842622142217
30
0
41
1
10
29.3969569758631
20
0.293677371708355
30
0
41
1
10
29.4034392751282
20
0.307621624586204
30
0
41
1
10
29.4073173003365
20
0.314729156717277
30
0
41
1
10
29.4164460616889
20
0.329215063722728
30
0
41
1
10
29.4217117366882
20
0.336594807785161
30
0
41
1
10
29.4391646506778
20
0.358335492499464
30
0
41
1
10
29.4531339604873
20
0.372600630759052
30
0
41
1
10
29.4865171460631
20
0.39967938010372
30
0
41
1
10
29.5050592580174
20
0.411738158758595
30
0
41
1
10
29.5359534781753
20
0.426785460078634
30
0
41
1
10
29.5467780904577
20
0.431275160453936
30
0
41
1
10
29.5687622295914
20
0.438844009439691
30
0
41
1
10
29.5800094397289
20
0.441967751635047
30
0
41
1
10
29.5915021774563
20
0.444441125776507
30
0
0
SPLINE
5
D5
100
AcDbEntity
8
1
62
256
6
ByLayer
370
18
48
1
60
0
100
AcDbSpline
70
4
71
3
72
14
73
10
40
0
40
0
40
0
40
0
40
0.25
40
0.25
40
0.5
40
0.5
40
0.75
40
0.75
40
1
40
1
40
1
40
1
41
1
10
29.5915021774563
20
0.444441125776507
30
0
41
1
10
29.6138033033024
20
0.449240593866819
30
0
41
1
10
29.6360157041215
20
0.45436272729998
30
0
41
1
10
29.6801675218511
20
0.465599751782065
30
0
41
1
10
29.7021027223089
20
0.471729976758951
30
0
41
1
10
29.7456554959383
20
0.485145538416447
30
0
41
1
10
29.7673063908589
20
0.492454551478858
30
0
41
1
10
29.810044208298
20
0.508310260974667
30
0
41
1
10
29.8311369898198
20
0.516819150858765
30
0
41
1
10
29.8519034512392
20
0.526014693295281
30
0
0
SPLINE
5
D6
100
AcDbEntity
8
1
62
256
6
ByLayer
370
18
48
1
60
0
100
AcDbSpline
70
4
71
3
72
22
73
18
40
0
40
0
40
0
40
0
40
0.250000000000001
40
0.250000000000001
40
0.374999999999995
40
0.374999999999995
40
0.437499999999991
40
0.437499999999991
40
0.499999999999987
40
0.499999999999987
40
0.750000000000002
40
0.750000000000002
40
0.875000000000001
40
0.875000000000001
40
0.937500000000001
40
0.937500000000001
40
1
40
1
40
1
40
1
41
1
10
29.4937660971969
20
1.42190462844462
30
0
41
1
10
29.5214913556966
20
1.3461412093688
30
0
41
1
10
29.5489244041308
20
1.26984218488033
30
0
41
1
10
29.5900066309894
20
1.15491964456615
30
0
41
1
10
29.6036790982036
20
1.11655933527479
30
0
41
1
10
29.6241774146653
20
1.05896162620519
30
0
41
1
10
29.630994122421
20
1.03975255292477
30
0
41
1
10
29.644826183794
20
1.00131604797312
30
0
41
1
10
29.6518310050276
20
0.982079849844894
30
0
41
1
10
29.6873620758393
20
0.885992605407722
30
0
41
1
10
29.716951529035
20
0.810804756360739
30
0
41
1
10
29.7647895984142
20
0.701268931604204
30
0
41
1
10
29.7813051620628
20
0.665292084076242
30
0
41
1
10
29.807103134918
20
0.612189308125778
30
0
41
1
10
29.8158945295392
20
0.594591411503643
30
0
41
1
10
29.8337288430587
20
0.559898005279393
30
0
41
1
10
29.8427578087564
20
0.542826273981319
30
0
41
1
10
29.8519034512393
20
0.526014693295281
30
0
0
SPLINE
5
D7
100
AcDbEntity
8
1
62
256
6
ByLayer
370
18
48
1
60
0
100
AcDbSpline
70
4
71
3
72
30
73
26
40
0
40
0
40
0
40
0
40
0.0964227142851156
40
0.0964227142851156
40
0.192845428570231
40
0.192845428570231
40
0.289268142855347
40
0.289268142855347
40
0.385690857140463
40
0.385690857140463
40
0.482113571425578
40
0.482113571425578
40
0.578536285710694
40
0.578536285710694
40
0.626747642853245
40
0.626747642853245
40
0.674958999995795
40
0.674958999995795
40
0.771381714280897
40
0.771381714280897
40
0.867804428565998
40
0.867804428565998
40
0.9642271428511
40
0.9642271428511
40
1
40
1
40
1
40
1
41
1
10
29.4937660972014
20
1.42190462843217
30
0
41
1
10
29.4186247464849
20
1.42429852872226
30
0
41
1
10
29.3435050306356
20
1.42537245710659
30
0
41
1
10
29.193279444375
20
1.4248929645519
30
0
41
1
10
29.1181968023322
20
1.42330720929289
30
0
41
1
10
28.9682185486319
20
1.41687873247815
30
0
41
1
10
28.893263088602
20
1.41210477315994
30
0
41
1
10
28.7431962135654
20
1.39957568525799
30
0
41
1
10
28.6681145589451
20
1.39180671603742
30
0
41
1
10
28.5177691910946
20
1.37333972206122
30
0
41
1
10
28.4424875790037
20
1.3626312714247
30
0
41
1
10
28.2915568223243
20
1.33829298597527
30
0
41
1
10
28.2159114031784
20
1.32467236457796
30
0
41
1
10
28.1021353171042
20
1.30220468000508
30
0
41
1
10
28.0641615914318
20
1.29437755201795
30
0
41
1
10
27.9881435046074
20
1.27799659436872
30
0
41
1
10
27.950113379194
20
1.26944144264502
30
0
41
1
10
27.8360874458126
20
1.24276943099997
30
0
41
1
10
27.7601046820195
20
1.22365707977798
30
0
41
1
10
27.6080720085687
20
1.18290632799094
30
0
41
1
10
27.5320556919539
20
1.16123507558552
30
0
41
1
10
27.3802932900653
20
1.11560692728545
30
0
41
1
10
27.3044843714073
20
1.09163983912148
30
0
41
1
10
27.2005681570255
20
1.05731319813251
30
0
41
1
10
27.1724489196482
20
1.04787909116632
30
0
41
1
10
27.1443306717081
20
1.03830142314916
30
0
0
SPLINE
5
D8
100
AcDbEntity
8
1
62
256
6
ByLayer
370
18
48
1
60
0
100
AcDbSpline
70
4
71
3
72
32
73
28
40
0
40
0
40
0
40
0
40
0.0052763870793656
40
0.0052763870793656
40
0.0485252398150446
40
0.0485252398150446
40
0.135022945286404
40
0.135022945286404
40
0.221520650757764
40
0.221520650757764
40
0.308018356229124
40
0.308018356229124
40
0.394516061700483
40
0.394516061700483
40
0.481013767171843
40
0.481013767171843
40
0.567511472643203
40
0.567511472643203
40
0.654009178114562
40
0.654009178114562
40
0.740506883585922
40
0.740506883585922
40
0.827004589057281
40
0.827004589057281
40
0.913502294528641
40
0.913502294528641
40
1
40
1
40
1
40
1
41
1
10
17.6156119693971
20
-0.841149159305246
30
0
41
1
10
17.6109812247207
20
-0.839287278202789
30
0
41
1
10
17.6063496405252
20
-0.837421786503228
30
0
41
1
10
17.5637465261098
20
-0.820232465821874
30
0
41
1
10
17.5257215864863
20
-0.804671327032878
30
0
41
1
10
17.4119007236957
20
-0.757494018654711
30
0
41
1
10
17.3362074276933
20
-0.725323104618752
30
0
41
1
10
17.1850984897679
20
-0.659761956481674
30
0
41
1
10
17.1096776685061
20
-0.626387003806798
30
0
41
1
10
16.9592306062345
20
-0.558198938097007
30
0
41
1
10
16.8841587953164
20
-0.52347423560991
30
0
41
1
10
16.734094075007
20
-0.453198860379047
30
0
41
1
10
16.6591204838024
20
-0.417610031154197
30
0
41
1
10
16.5092526708082
20
-0.345610468858979
30
0
41
1
10
16.4343398525072
20
-0.309232523039384
30
0
41
1
10
16.2844051821277
20
-0.23600872777098
30
0
41
1
10
16.2093877923541
20
-0.199155518033166
30
0
41
1
10
16.0591822763376
20
-0.125139513195194
30
0
41
1
10
15.9840174342139
20
-0.0879343876623011
30
0
41
1
10
15.8336077610681
20
-0.0130165588309694
30
0
41
1
10
15.7583131109984
20
0.02459189065533
30
0
41
1
10
15.6073572676295
20
0.0997296901319658
30
0
41
1
10
15.531728278322
20
0.137324256660691
30
0
41
1
10
15.3800738321529
20
0.212374210014616
30
0
41
1
10
15.3040014601921
20
0.249807864694731
30
0
41
1
10
15.1520215466058
20
0.32381881339353
30
0
41
1
10
15.0760261733887
20
0.360445398281655
30
0
41
1
10
15.0000000000003
20
0.396656508727602
30
0
0
SPLINE
5
D9
100
AcDbEntity
8
1
62
256
6
ByLayer
370
18
48
1
60
0
100
AcDbSpline
70
4
71
3
72
8
73
4
40
0
40
0
40
0
40
0
40
1
40
1
40
1
40
1
41
1
10
15
20
0.395166954175238
30
0
41
1
10
15
20
0.396060114760672
30
0
41
1
10
15
20
0.396553934784095
30
0
41
1
10
15
20
0.396656508727744
30
0
0
SPLINE
5
DA
100
AcDbEntity
8
1
62
256
6
ByLayer
370
18
48
1
60
0
100
AcDbSpline
70
4
71
3
72
17
73
13
40
0
40
0
40
0
40
0
40
0.125000000000023
40
0.125000000000023
40
0.250000000000046
40
0.375000000000069
40
0.375000000000069
40
0.500000000000091
40
0.500000000000091
40
0.750000000000046
40
0.750000000000046
40
1
40
1
40
1
40
1
41
1
10
3.57338199162928
20
-0.579595388556811
30
0
41
1
10
3.57928910678856
20
-0.576070626132349
30
0
41
1
10
3.58556885363038
20
-0.573006967694255
30
0
41
1
10
3.59885360425756
20
-0.567860314167802
30
0
41
1
10
3.61257717725419
20
-0.563799480075602
30
0
41
1
10
3.62715287016749
20
-0.561737968482618
30
0
41
1
10
3.64215362860136
20
-0.560631684751087
30
0
41
1
10
3.64988410569112
20
-0.560563792949381
30
0
41
1
10
3.67309826526431
20
-0.561712808687588
30
0
41
1
10
3.68885624795689
20
-0.564251814116744
30
0
41
1
10
3.720565200864
20
-0.572408352957495
30
0
41
1
10
3.73619971298436
20
-0.577937131916883
30
0
41
1
10
3.75161604221898
20
-0.584767369477021
30
0
0
SPLINE
5
DB
100
AcDbEntity
8
1
62
256
6
ByLayer
370
18
48
1
60
0
100
AcDbSpline
70
4
71
3
72
22
73
18
40
0
40
0
40
0
40
0
40
0.249999999999971
40
0.249999999999971
40
0.374999999999964
40
0.374999999999964
40
0.437499999999961
40
0.437499999999961
40
0.499999999999957
40
0.499999999999957
40
0.749999999999988
40
0.749999999999988
40
0.875000000000003
40
0.875000000000003
40
0.937500000000001
40
0.937500000000001
40
1
40
1
40
1
40
1
41
1
10
29.4937660971972
20
-1.4219046284438
30
0
41
1
10
29.5214913556969
20
-1.34614120936803
30
0
41
1
10
29.548924404131
20
-1.26984218487965
30
0
41
1
10
29.5900066309896
20
-1.15491964456555
30
0
41
1
10
29.6036790982039
20
-1.11655933527425
30
0
41
1
10
29.6241774146654
20
-1.05896162620471
30
0
41
1
10
29.6309941224212
20
-1.03975255292428
30
0
41
1
10
29.6448261837942
20
-1.00131604797267
30
0
41
1
10
29.6518310050278
20
-0.982079849844467
30
0
41
1
10
29.6873620758394
20
-0.885992605407353
30
0
41
1
10
29.7169515290351
20
-0.810804756360454
30
0
41
1
10
29.7647895984142
20
-0.701268931604034
30
0
41
1
10
29.7813051620628
20
-0.6652920840761
30
0
41
1
10
29.807103134918
20
-0.612189308125693
30
0
41
1
10
29.8158945295393
20
-0.594591411503558
30
0
41
1
10
29.8337288430587
20
-0.559898005279365
30
0
41
1
10
29.8427578087564
20
-0.542826273981319
30
0
41
1
10
29.8519034512393
20
-0.526014693295309
30
0
0
SPLINE
5
DC
100
AcDbEntity
8
1
62
256
6
ByLayer
370
18
48
1
60
0
100
AcDbSpline
70
4
71
3
72
84
73
80
40
0
40
0
40
0
40
0
40
0.0176574411104553
40
0.0176574411104553
40
0.0435480788432097
40
0.0435480788432097
40
0.069438716575964
40
0.069438716575964
40
0.0953293543087184
40
0.0953293543087184
40
0.121219992041473
40
0.121219992041473
40
0.147110629774227
40
0.147110629774227
40
0.173001267506982
40
0.173001267506982
40
0.198891905239736
40
0.198891905239736
40
0.224782542972491
40
0.224782542972491
40
0.250673180705245
40
0.250673180705245
40
0.276563818437999
40
0.276563818437999
40
0.302454456170754
40
0.302454456170754
40
0.328345093903508
40
0.328345093903508
40
0.354235731636262
40
0.354235731636262
40
0.380126369369017
40
0.380126369369017
40
0.406017007101771
40
0.406017007101771
40
0.431907644834526
40
0.431907644834526
40
0.45779828256728
40
0.45779828256728
40
0.483688920300035
40
0.483688920300035
40
0.509579558032789
40
0.509579558032789
40
0.535470195765543
40
0.535470195765543
40
0.561360833498298
40
0.561360833498298
40
0.574306152364675
40
0.574306152364675
40
0.587251471231052
40
0.587251471231052
40
0.613142108963807
40
0.613142108963807
40
0.639032746696561
40
0.639032746696561
40
0.69081402216207
40
0.69081402216207
40
0.716704659894825
40
0.716704659894825
40
0.74259529762758
40
0.74259529762758
40
0.768485935360336
40
0.768485935360336
40
0.794376573093091
40
0.794376573093091
40
0.820267210825847
40
0.820267210825847
40
0.846157848558602
40
0.846157848558602
40
0.872048486291357
40
0.872048486291357
40
0.897939124024112
40
0.897939124024112
40
0.923829761756868
40
0.923829761756868
40
0.949720399489623
40
0.949720399489623
40
0.975611037222378
40
0.975611037222378
40
1
40
1
40
1
40
1
41
1
10
26.9290449100927
20
-0.962146359272424
30
0
41
1
10
26.8773851261003
20
-0.943167606755878
30
0
41
1
10
26.8257428887168
20
-0.923678203345901
30
0
41
1
10
26.6983405364168
20
-0.874461110375535
30
0
41
1
10
26.6225367855577
20
-0.844245215848332
30
0
41
1
10
26.4707241523252
20
-0.782047400306965
30
0
41
1
10
26.3946996446293
20
-0.750014346782194
30
0
41
1
10
26.242626105045
20
-0.684513612362963
30
0
41
1
10
26.1665661763658
20
-0.651045967805544
30
0
41
1
10
26.0144263960285
20
-0.582936411581073
30
0
41
1
10
25.9383057956659
20
-0.548323513235459
30
0
41
1
10
25.7861133763852
20
-0.477864446830239
30
0
41
1
10
25.7100970802808
20
-0.441926660190205
30
0
41
1
10
25.5580846979903
20
-0.369265653063252
30
0
41
1
10
25.482062927391
20
-0.332558171218238
30
0
41
1
10
25.3300029388295
20
-0.258436832459069
30
0
41
1
10
25.2541144416613
20
-0.221106592643281
30
0
41
1
10
25.1024497983782
20
-0.146253911868342
30
0
41
1
10
25.0266725613918
20
-0.108733767517748
30
0
41
1
10
24.8751488763036
20
-0.0336659572810731
30
0
41
1
10
24.79938401275
20
0.0038446594016364
30
0
41
1
10
24.6480020064362
20
0.0791298999092191
30
0
41
1
10
24.5723648818027
20
0.116863793156853
30
0
41
1
10
24.4209312579148
20
0.191973326822989
30
0
41
1
10
24.3451363290557
20
0.229352074180895
30
0
41
1
10
24.1933785293122
20
0.303734827888519
30
0
41
1
10
24.1172833842774
20
0.340754453632087
30
0
41
1
10
23.9655427886279
20
0.413588621244571
30
0
41
1
10
23.8898480519078
20
0.449437138771429
30
0
41
1
10
23.7387105558675
20
0.519915672794696
30
0
41
1
10
23.6632674809178
20
0.554564392216662
30
0
41
1
10
23.5127708640268
20
0.622856150283013
30
0
41
1
10
23.4376686937833
20
0.656406924184239
30
0
41
1
10
23.2875378476321
20
0.721909726627558
30
0
41
1
10
23.2125321822347
20
0.753905301075207
30
0
41
1
10
23.0625790678379
20
0.816316670712013
30
0
41
1
10
22.9876126212512
20
0.846694146483571
30
0
41
1
10
22.8375545547864
20
0.905519856000097
30
0
41
1
10
22.7624677132817
20
0.933979719800192
30
0
41
1
10
22.6121146160456
20
0.988948046506749
30
0
41
1
10
22.536880717065
20
1.01551277808241
30
0
41
1
10
22.3863084278922
20
1.06674903104548
30
0
41
1
10
22.3109202803604
20
1.0913579118633
30
0
41
1
10
22.1597654075169
20
1.13828321831849
30
0
41
1
10
22.0840334357933
20
1.16065740809415
30
0
41
1
10
21.9701220585033
20
1.19245931106636
30
0
41
1
10
21.9320820502223
20
1.20276439140125
30
0
41
1
10
21.8561655571248
20
1.22266477230571
30
0
41
1
10
21.8182534659262
20
1.23226921839643
30
0
41
1
10
21.7046376133551
20
1.26004845299596
30
0
41
1
10
21.6290481505768
20
1.27718696367447
30
0
41
1
10
21.4781329577596
20
1.30879967404562
30
0
41
1
10
21.4028688198511
20
1.32330243564292
30
0
41
1
10
21.177482525931
20
1.36258794203383
30
0
41
1
10
21.0275946661975
20
1.38312808502678
30
0
41
1
10
20.8027822312255
20
1.4053287891669
30
0
41
1
10
20.7278272141356
20
1.41125878358108
30
0
41
1
10
20.5777745750282
20
1.42015582694944
30
0
41
1
10
20.5026693774024
20
1.42313628871815
30
0
41
1
10
20.3523190659299
20
1.42623607257175
30
0
41
1
10
20.277132076267
20
1.42632023210294
30
0
41
1
10
20.1265045997046
20
1.42351137680203
30
0
41
1
10
20.0510446193515
20
1.42062523596525
30
0
41
1
10
19.8997644846761
20
1.4118809349211
30
0
41
1
10
19.8239235011689
20
1.40603117894807
30
0
41
1
10
19.6719221879132
20
1.39134451342261
30
0
41
1
10
19.5961191748531
20
1.38253296336239
30
0
41
1
10
19.4448061598449
20
1.36212868741936
30
0
41
1
10
19.3692769194181
20
1.3505685518769
30
0
41
1
10
19.2185628341936
20
1.32470930437333
30
0
41
1
10
19.1434142117158
20
1.31034241751536
30
0
41
1
10
18.9932559644388
20
1.27896365910243
30
0
41
1
10
18.9182389394263
20
1.26194754968665
30
0
41
1
10
18.7683136949242
20
1.22531669848411
30
0
41
1
10
18.69339969489
20
1.20571842745198
30
0
41
1
10
18.5434954611725
20
1.16410195832467
30
0
41
1
10
18.4685035080268
20
1.14207648393508
30
0
41
1
10
18.3227142671619
20
1.09713145139506
30
0
41
1
10
18.25190968152
20
1.07438193791177
30
0
41
1
10
18.1810785068304
20
1.05059558527347
30
0
0
SPLINE
5
DD
100
AcDbEntity
8
1
62
256
6
ByLayer
370
18
48
1
60
0
100
AcDbSpline
70
4
71
3
72
18
73
14
40
0
40
0
40
0
40
0
40
0.499999999999874
40
0.499999999999874
40
0.749999999999875
40
0.874999999999876
40
0.874999999999876
40
0.937499999999938
40
0.968749999999971
40
0.968749999999971
40
0.984374999999985
40
0.984374999999985
40
1
40
1
40
1
40
1
41
1
10
29.4561489516215
20
-1.49986595492047
30
0
41
1
10
29.4621887330447
20
-1.48686242020051
30
0
41
1
10
29.4683469250327
20
-1.47385570641396
30
0
41
1
10
29.4777606037627
20
-1.45433506497477
30
0
41
1
10
29.4825113812571
20
-1.44457243420683
30
0
41
1
10
29.4873274876355
20
-1.43480591787082
30
0
41
1
10
29.4897464329828
20
-1.4299218688021
30
0
41
1
10
29.4909580594056
20
-1.42748204130348
30
0
41
1
10
29.4921798725872
20
-1.42501621062908
30
0
41
1
10
29.4927929858537
20
-1.42377663138322
30
0
41
1
10
29.4929984522773
20
-1.42335941762235
30
0
41
1
10
29.4934069741884
20
-1.42253556070625
30
0
41
1
10
29.4936224217552
20
-1.42210000050346
30
0
41
1
10
29.493766097197
20
-1.42190462844471
30
0
0
SPLINE
5
DE
100
AcDbEntity
8
1
62
256
6
ByLayer
370
18
48
1
60
0
100
AcDbSpline
70
4
71
3
72
56
73
52
40
0
40
0
40
0
40
0
40
0.0753238938902091
40
0.0753238938902091
40
0.112985840835314
40
0.112985840835314
40
0.150647787780418
40
0.150647787780418
40
0.188309734725523
40
0.188309734725523
40
0.225971681670627
40
0.225971681670627
40
0.263633628615732
40
0.263633628615732
40
0.301295575560837
40
0.301295575560837
40
0.338957522505941
40
0.338957522505941
40
0.376619469451046
40
0.376619469451046
40
0.451943363341255
40
0.451943363341255
40
0.489605310286361
40
0.489605310286361
40
0.527267257231467
40
0.527267257231467
40
0.564929204176573
40
0.564929204176573
40
0.602591151121679
40
0.602591151121679
40
0.621422124594233
40
0.621422124594233
40
0.640253098066786
40
0.640253098066786
40
0.677915045011892
40
0.677915045011892
40
0.753238938902104
40
0.753238938902104
40
0.790900885847212
40
0.790900885847212
40
0.82856283279232
40
0.82856283279232
40
0.903886726682535
40
0.903886726682535
40
0.941548673627643
40
0.941548673627643
40
0.960379647100195
40
0.960379647100195
40
0.979210620572748
40
0.979210620572748
40
1
40
1
40
1
40
1
41
1
10
3.75161604221901
20
-0.584767369477021
30
0
41
1
10
3.88611266178538
20
-0.644356383741865
30
0
41
1
10
4.01980818945674
20
-0.702605744545366
30
0
41
1
10
4.21982654919356
20
-0.786572458631184
30
0
41
1
10
4.28639738199624
20
-0.814025112037143
30
0
41
1
10
4.41962897418128
20
-0.867389078292291
30
0
41
1
10
4.48628502461207
20
-0.893308894642189
30
0
41
1
10
4.61989042113694
20
-0.943348999400911
30
0
41
1
10
4.68688635957997
20
-0.967402816510742
30
0
41
1
10
4.82100716026994
20
-1.01404932699978
30
0
41
1
10
4.88821923884126
20
-1.03664066930622
30
0
41
1
10
5.02226307530054
20
-1.0802161403551
30
0
41
1
10
5.08911665399563
20
-1.10128711956588
30
0
41
1
10
5.22250478769567
20
-1.14156595564205
30
0
41
1
10
5.28904400891514
20
-1.16070001604643
30
0
41
1
10
5.42186173376166
20
-1.1969194745636
30
0
41
1
10
5.4881506206095
20
-1.21401077371044
30
0
41
1
10
5.62053808163665
20
-1.24626778551894
30
0
41
1
10
5.68664902682417
20
-1.26143593603212
30
0
41
1
10
5.88523014120955
20
-1.30364132900564
30
0
41
1
10
6.0175608631842
20
-1.32765863158019
30
0
41
1
10
6.21634584194047
20
-1.35680657112999
30
0
41
1
10
6.28263839464034
20
-1.3654251622481
30
0
41
1
10
6.41521697878864
20
-1.38062007343956
30
0
41
1
10
6.48149214984386
20
-1.38721808969433
30
0
41
1
10
6.61411026312885
20
-1.39832787296521
30
0
41
1
10
6.68043037551462
20
-1.40282603780705
30
0
41
1
10
6.81343518783441
20
-1.40941667957543
30
0
41
1
10
6.88020394189613
20
-1.41148116305703
30
0
41
1
10
6.98061729294139
20
-1.41274174015643
30
0
41
1
10
7.01413262330377
20
-1.41286025566137
30
0
41
1
10
7.08126113683318
20
-1.41251370143851
30
0
41
1
10
7.11485933306645
20
-1.41204844081605
30
0
41
1
10
7.21545683356567
20
-1.4098223197482
30
0
41
1
10
7.28237005950862
20
-1.40725293888301
30
0
41
1
10
7.48258985279438
20
-1.39636276360139
30
0
41
1
10
7.61531427508089
20
-1.38468948870434
30
0
41
1
10
7.81394019143573
20
-1.3599051482729
30
0
41
1
10
7.88010545368124
20
-1.35049212256541
30
0
41
1
10
8.01258975247248
20
-1.3297351708265
30
0
41
1
10
8.07881038173659
20
-1.31834899809121
30
0
41
1
10
8.27740183767438
20
-1.28126127281348
30
0
41
1
10
8.40980395001199
20
-1.25260035248508
30
0
41
1
10
8.60864215168618
20
-1.20293753116712
30
0
41
1
10
8.67494707691608
20
-1.18530215997652
30
0
41
1
10
8.77446344787356
20
-1.15739576729118
30
0
41
1
10
8.80764446027717
20
-1.14785072376392
30
0
41
1
10
8.87401825985731
20
-1.12829378595072
30
0
41
1
10
8.9072099897981
20
-1.11828628923536
30
0
41
1
10
8.97714295841831
20
-1.09680312022505
30
0
41
1
10
9.01390995562247
20
-1.08529345502336
30
0
41
1
10
9.05074130743529
20
-1.07351091464042
30
0
0
SPLINE
5
DF
100
AcDbEntity
8
1
62
256
6
ByLayer
370
18
48
1
60
0
100
AcDbSpline
70
4
71
3
72
120
73
116
40
0
40
0
40
0
40
0
40
0.00857860457751
40
0.00857860457751
40
0.0265254813191338
40
0.0265254813191338
40
0.0444723580607574
40
0.0444723580607574
40
0.0534457964315686
40
0.0534457964315686
40
0.0624192348023797
40
0.0624192348023797
40
0.0803661115440035
40
0.0803661115440035
40
0.0983129882856276
40
0.0983129882856276
40
0.116259865027251
40
0.116259865027251
40
0.134206741768875
40
0.134206741768875
40
0.152153618510499
40
0.152153618510499
40
0.170100495252123
40
0.170100495252123
40
0.188047371993747
40
0.188047371993747
40
0.197020810364559
40
0.197020810364559
40
0.205994248735371
40
0.205994248735371
40
0.223941125476994
40
0.223941125476994
40
0.241888002218618
40
0.241888002218618
40
0.25086144058943
40
0.25086144058943
40
0.259834878960242
40
0.259834878960242
40
0.277781755701864
40
0.277781755701864
40
0.295728632443487
40
0.295728632443487
40
0.331622385926733
40
0.331622385926733
40
0.349569262668356
40
0.349569262668356
40
0.367516139409979
40
0.367516139409979
40
0.385463016151602
40
0.385463016151602
40
0.394436454522413
40
0.394436454522413
40
0.403409892893225
40
0.403409892893225
40
0.421356769634848
40
0.421356769634848
40
0.439303646376471
40
0.439303646376471
40
0.457250523118094
40
0.457250523118094
40
0.475197399859717
40
0.475197399859717
40
0.49314427660134
40
0.49314427660134
40
0.511091153342964
40
0.511091153342964
40
0.529038030084587
40
0.529038030084587
40
0.54698490682621
40
0.54698490682621
40
0.564931783567833
40
0.564931783567833
40
0.582878660309456
40
0.582878660309456
40
0.618772413792702
40
0.618772413792702
40
0.636719290534325
40
0.636719290534325
40
0.654666167275948
40
0.654666167275948
40
0.672613044017571
40
0.672613044017571
40
0.690559920759194
40
0.690559920759194
40
0.708506797500817
40
0.708506797500817
40
0.72645367424244
40
0.72645367424244
40
0.744400550984064
40
0.744400550984064
40
0.762347427725687
40
0.762347427725687
40
0.78029430446731
40
0.78029430446731
40
0.798241181208933
40
0.798241181208933
40
0.816188057950556
40
0.816188057950556
40
0.834134934692179
40
0.834134934692179
40
0.852081811433802
40
0.852081811433802
40
0.870028688175425
40
0.870028688175425
40
0.90592244165867
40
0.90592244165867
40
0.923869318400292
40
0.923869318400292
40
0.941816195141913
40
0.941816195141913
40
0.977709948625157
40
0.977709948625157
40
0.995656825366782
40
0.995656825366782
40
1
40
1
40
1
40
1
41
1
10
16.0248931887541
20
1.41745860023266
30
0
41
1
10
16.0568982211872
20
1.41749581967753
30
0
41
1
10
16.0888597027121
20
1.41727742370836
30
0
41
1
10
16.1875543140531
20
1.41575908786078
30
0
41
1
10
16.2541328382647
20
1.41353713823483
30
0
41
1
10
16.3870275408362
20
1.40652288468172
30
0
41
1
10
16.4533403011997
20
1.40175775468367
30
0
41
1
10
16.5526655151752
20
1.39296839743369
30
0
41
1
10
16.5857573101281
20
1.38976572686264
30
0
41
1
10
16.6519621792592
20
1.38286896879967
30
0
41
1
10
16.6850717144696
20
1.37917580396189
30
0
41
1
10
16.7843544009443
20
1.36736460760343
30
0
41
1
10
16.8504629024336
20
1.35848602322716
30
0
41
1
10
16.9826855814826
20
1.33854887975565
30
0
41
1
10
17.0487957881847
20
1.32749466970319
30
0
41
1
10
17.1810612834945
20
1.30311031703656
30
0
41
1
10
17.2472088024461
20
1.28979282058958
30
0
41
1
10
17.3794535103644
20
1.26106070788259
30
0
41
1
10
17.4455615280813
20
1.24564944252722
30
0
41
1
10
17.577791773017
20
1.2128619266523
30
0
41
1
10
17.6438824531606
20
1.19543000444682
30
0
41
1
10
17.7765260222004
20
1.15880235797607
30
0
41
1
10
17.8430519654847
20
1.13959344088443
30
0
41
1
10
17.9764004544189
20
1.09913699577865
30
0
41
1
10
18.0432631667847
20
1.07794987260596
30
0
41
1
10
18.143809738004
20
1.04483689831585
30
0
41
1
10
18.1773881982244
20
1.03356884098216
30
0
41
1
10
18.2444132754416
20
1.01065818579698
30
0
41
1
10
18.2778774099728
20
0.999010567937944
30
0
41
1
10
18.3781088796005
20
0.963486639398582
30
0
41
1
10
18.4447057273199
20
0.938998063699472
30
0
41
1
10
18.5776200826515
20
0.888420377407954
30
0
41
1
10
18.6439312483618
20
0.862334559445429
30
0
41
1
10
18.7432855806738
20
0.822229034700683
30
0
41
1
10
18.7763936583351
20
0.808712509319946
30
0
41
1
10
18.8426432912191
20
0.781486510007994
30
0
41
1
10
18.8757791147077
20
0.767767389287428
30
0
41
1
10
18.9751572238189
20
0.72619912321943
30
0
41
1
10
19.0413549898726
20
0.697915591265769
30
0
41
1
10
19.1736538883102
20
0.640369843986804
30
0
41
1
10
19.239753853407
20
0.611089884520226
30
0
41
1
10
19.4381201117139
20
0.521748941093534
30
0
41
1
10
19.5703647488953
20
0.460065766916443
30
0
41
1
10
19.7689475397183
20
0.365037739730099
30
0
41
1
10
19.8351521080382
20
0.332892676943175
30
0
41
1
10
19.9678721117363
20
0.268402767475692
30
0
41
1
10
20.0343520430451
20
0.23597847492394
30
0
41
1
10
20.1676319630688
20
0.170662585487918
30
0
41
1
10
20.2344701882792
20
0.137860197547923
30
0
41
1
10
20.3350157879822
20
0.0884671150189718
30
0
41
1
10
20.3685974142318
20
0.0719597943129031
30
0
41
1
10
20.4356864218517
20
0.0389395137792121
30
0
41
1
10
20.4692069796991
20
0.0224201948331881
30
0
41
1
10
20.5696860415347
20
-0.0271915829284524
30
0
41
1
10
20.6365532271915
20
-0.0603563319395164
30
0
41
1
10
20.7700429147299
20
-0.126919215601362
30
0
41
1
10
20.8366542265413
20
-0.160335735074256
30
0
41
1
10
20.9699817734995
20
-0.226589249099135
30
0
41
1
10
21.0367947263893
20
-0.259235834427301
30
0
41
1
10
21.1706063626131
20
-0.323830272927637
30
0
41
1
10
21.2375677144733
20
-0.355851961725847
30
0
41
1
10
21.3716466592288
20
-0.419284972298527
30
0
41
1
10
21.438826906179
20
-0.450743707645444
30
0
41
1
10
21.5727946637919
20
-0.513223845006223
30
0
41
1
10
21.6395571870076
20
-0.544246147346684
30
0
41
1
10
21.7727475891823
20
-0.605116330077607
30
0
41
1
10
21.8391928153445
20
-0.634942076368162
30
0
41
1
10
21.971861096458
20
-0.693386037264531
30
0
41
1
10
22.038069066988
20
-0.722027918403597
30
0
41
1
10
22.1705931443242
20
-0.777696809133204
30
0
41
1
10
22.2368372306392
20
-0.804859048740752
30
0
41
1
10
22.3691310003544
20
-0.858279105458337
30
0
41
1
10
22.4352094619598
20
-0.884487772139181
30
0
41
1
10
22.6335470267158
20
-0.960373715077907
30
0
41
1
10
22.7658915219731
20
-1.00731214498759
30
0
41
1
10
22.9644024879397
20
-1.07344440420641
30
0
41
1
10
23.0305657325512
20
-1.09478384942935
30
0
41
1
10
23.1630151283232
20
-1.13592478222287
30
0
41
1
10
23.2293839243844
20
-1.1556359696458
30
0
41
1
10
23.362482641262
20
-1.19291721326277
30
0
41
1
10
23.4292054672651
20
-1.21047214260238
30
0
41
1
10
23.5630245629925
20
-1.24354350972547
30
0
41
1
10
23.6301887701079
20
-1.25908844098865
30
0
41
1
10
23.7643308999569
20
-1.28841359720468
30
0
41
1
10
23.8312667779583
20
-1.30220486681603
30
0
41
1
10
23.9648307437594
20
-1.32810592877868
30
0
41
1
10
24.0314626941515
20
-1.34022913991347
30
0
41
1
10
24.1647073232811
20
-1.36187965625729
30
0
41
1
10
24.2313354175561
20
-1.37136835643878
30
0
41
1
10
24.3649812776867
20
-1.38766807020988
30
0
41
1
10
24.4319048787614
20
-1.39453647793516
30
0
41
1
10
24.5658850242615
20
-1.40592405425778
30
0
41
1
10
24.6329691465784
20
-1.41043249555605
30
0
41
1
10
24.7673180994976
20
-1.41714694317994
30
0
41
1
10
24.8344464426245
20
-1.41934649600611
30
0
41
1
10
24.9682105931321
20
-1.42151759710416
30
0
41
1
10
25.0348979757059
20
-1.42148981293221
30
0
41
1
10
25.1679593572383
20
-1.41929281783706
30
0
41
1
10
25.2343087805574
20
-1.41711903553499
30
0
41
1
10
25.3668493171689
20
-1.41075342935153
30
0
41
1
10
25.4331272612654
20
-1.40658623968278
30
0
41
1
10
25.5655497476557
20
-1.39603268235845
30
0
41
1
10
25.6317024040589
20
-1.38964120261812
30
0
41
1
10
25.8302417242461
20
-1.36681419989438
30
0
41
1
10
25.9626778832073
20
-1.34676963579972
30
0
41
1
10
26.1612253218019
20
-1.31012704471166
30
0
41
1
10
26.2274089738409
20
-1.29682171764071
30
0
41
1
10
26.3598773731264
20
-1.26803014559985
30
0
41
1
10
26.4261796725174
20
-1.25255363891597
30
0
41
1
10
26.6258195109928
20
-1.20336995203289
30
0
41
1
10
26.75950450562
20
-1.16654336988299
30
0
41
1
10
26.9608545514807
20
-1.10575545102822
30
0
41
1
10
27.0279911619785
20
-1.08458214018933
30
0
41
1
10
27.1111475531022
20
-1.05716357807492
30
0
41
1
10
27.1273430247949
20
-1.05176683065298
30
0
41
1
10
27.1435321704228
20
-1.046316543833
30
0
0
SPLINE
5
E0
100
AcDbEntity
8
1
62
256
6
ByLayer
370
13
48
1
60
0
100
AcDbSpline
70
4
71
3
72
31
73
27
40
0
40
0
40
0
40
0
40
0.158422299573894
40
0.158422299573894
40
0.237633449360841
40
0.237633449360841
40
0.316844599147788
40
0.396055748934735
40
0.396055748934735
40
0.435661323828208
40
0.435661323828208
40
0.475266898721682
40
0.475266898721682
40
0.633689198295577
40
0.633689198295577
40
0.712900348082524
40
0.712900348082524
40
0.792111497869472
40
0.792111497869472
40
0.871322647656419
40
0.871322647656419
40
0.910928222549893
40
0.910928222549893
40
0.950533797443367
40
0.950533797443367
40
1
40
1
40
1
40
1
41
1
10
3.75161604221904
20
-0.584767369476992
30
0
41
1
10
3.75160696763305
20
-0.658859441944514
30
0
41
1
10
3.75159156517617
20
-0.729775976028691
30
0
41
1
10
3.75156033623199
20
-0.831276991462033
30
0
41
1
10
3.7515485205904
20
-0.8643550916523
30
0
41
1
10
3.75152271054316
20
-0.9277443561148
30
0
41
1
10
3.75149465024282
20
-0.988647005342955
30
0
41
1
10
3.7514623904321
20
-1.04461905095135
30
0
41
1
10
3.75143665071528
20
-1.08472256312967
30
0
41
1
10
3.75142779182625
20
-1.09780511686483
30
0
41
1
10
3.75140968172931
20
-1.12315708314537
30
0
41
1
10
3.75140042892639
20
-1.13543294654175
30
0
41
1
10
3.75135319081966
20
-1.19484841910577
30
0
41
1
10
3.75131234325752
20
-1.23614049536366
30
0
41
1
10
3.75124603140267
20
-1.2888736140593
30
0
41
1
10
3.75122307572354
20
-1.30490858438023
30
0
41
1
10
3.75117523499978
20
-1.33381293269335
30
0
41
1
10
3.75115029499278
20
-1.34669051480469
30
0
41
1
10
3.75109895884719
20
-1.36883320223006
30
0
41
1
10
3.75107248106446
20
-1.37815686254939
30
0
41
1
10
3.75103133101925
20
-1.38951290796956
30
0
41
1
10
3.75101734825387
20
-1.3928641185262
30
0
41
1
10
3.75098902407171
20
-1.3986487837127
30
0
41
1
10
3.75097468046724
20
-1.40108519546032
30
0
41
1
10
3.7509419746888
20
-1.40555679478808
30
0
41
1
10
3.75092350450473
20
-1.40734596650421
30
0
41
1
10
3.75090468549252
20
-1.40844349517454
30
0
0
SPLINE
5
E1
100
AcDbEntity
8
1
62
256
6
ByLayer
370
18
48
1
60
0
100
AcDbSpline
70
4
71
3
72
132
73
128
40
0
40
0
40
0
40
0
40
0.0066759897712164
40
0.0066759897712164
40
0.0246222221082323
40
0.0246222221082323
40
0.0605146867822642
40
0.0605146867822642
40
0.0784609191192801
40
0.0784609191192801
40
0.096407151456296
40
0.096407151456296
40
0.132299616130329
40
0.132299616130329
40
0.150245848467346
40
0.150245848467346
40
0.159218964635854
40
0.159218964635854
40
0.168192080804361
40
0.168192080804361
40
0.186138313141376
40
0.186138313141376
40
0.195111429309885
40
0.195111429309885
40
0.204084545478393
40
0.204084545478393
40
0.22203077781541
40
0.22203077781541
40
0.239977010152427
40
0.239977010152427
40
0.257923242489443
40
0.257923242489443
40
0.266896358657951
40
0.266896358657951
40
0.275869474826459
40
0.275869474826459
40
0.293815707163474
40
0.293815707163474
40
0.311761939500489
40
0.311761939500489
40
0.329708171837504
40
0.329708171837504
40
0.34765440417452
40
0.34765440417452
40
0.365600636511535
40
0.365600636511535
40
0.38354686884855
40
0.38354686884855
40
0.392519985017058
40
0.392519985017058
40
0.401493101185565
40
0.401493101185565
40
0.419439333522579
40
0.419439333522579
40
0.437385565859593
40
0.437385565859593
40
0.455331798196607
40
0.455331798196607
40
0.464304914365113
40
0.464304914365113
40
0.47327803053362
40
0.47327803053362
40
0.491224262870634
40
0.491224262870634
40
0.509170495207648
40
0.509170495207648
40
0.527116727544662
40
0.527116727544662
40
0.545062959881675
40
0.545062959881675
40
0.563009192218689
40
0.563009192218689
40
0.580955424555703
40
0.580955424555703
40
0.598901656892716
40
0.598901656892716
40
0.61684788922973
40
0.61684788922973
40
0.634794121566744
40
0.634794121566744
40
0.652740353903758
40
0.652740353903758
40
0.661713470072264
40
0.661713470072264
40
0.67068658624077
40
0.67068658624077
40
0.688632818577782
40
0.688632818577782
40
0.706579050914794
40
0.706579050914794
40
0.724525283251807
40
0.724525283251807
40
0.742471515588819
40
0.742471515588819
40
0.760417747925831
40
0.760417747925831
40
0.778363980262843
40
0.778363980262843
40
0.796310212599856
40
0.796310212599856
40
0.805283328768362
40
0.805283328768362
40
0.814256444936868
40
0.814256444936868
40
0.83220267727388
40
0.83220267727388
40
0.850148909610892
40
0.850148909610892
40
0.859122025779398
40
0.859122025779398
40
0.868095141947904
40
0.868095141947904
40
0.886041374284918
40
0.886041374284918
40
0.903987606621932
40
0.903987606621932
40
0.921933838958945
40
0.921933838958945
40
0.939880071295959
40
0.939880071295959
40
0.957826303632973
40
0.957826303632973
40
0.975772535969986
40
0.975772535969986
40
0.993718768307
40
0.993718768307
40
1
40
1
40
1
40
1
41
1
10
7.07347932761772
20
1.41249674957982
30
0
41
1
10
7.09845917265247
20
1.41225734792857
30
0
41
1
10
7.12344368546454
20
1.4118584777689
30
0
41
1
10
7.21545683356567
20
1.4098223197482
30
0
41
1
10
7.28237005950865
20
1.40725293888301
30
0
41
1
10
7.48258985279438
20
1.39636276360139
30
0
41
1
10
7.61531427508092
20
1.38468948870434
30
0
41
1
10
7.81394019143571
20
1.3599051482729
30
0
41
1
10
7.88010545368124
20
1.35049212256541
30
0
41
1
10
8.01258975247251
20
1.3297351708265
30
0
41
1
10
8.07881038173659
20
1.31834899809121
30
0
41
1
10
8.27740183767435
20
1.28126127281348
30
0
41
1
10
8.40980395001196
20
1.25260035248508
30
0
41
1
10
8.60864215168618
20
1.20293753116712
30
0
41
1
10
8.67494707691608
20
1.18530215997654
30
0
41
1
10
8.77446344787356
20
1.15739576729118
30
0
41
1
10
8.80764446027715
20
1.14785072376392
30
0
41
1
10
8.87401825985731
20
1.12829378595072
30
0
41
1
10
8.9072099897981
20
1.11828628923536
30
0
41
1
10
9.00692433713931
20
1.08765438244021
30
0
41
1
10
9.07363733772979
20
1.06645487354876
30
0
41
1
10
9.17399252191692
20
1.03316948858833
30
0
41
1
10
9.20749218875886
20
1.021840385552
30
0
41
1
10
9.27459572532206
20
0.998751256918496
30
0
41
1
10
9.30821899524989
20
0.986983610582371
30
0
41
1
10
9.40890121880372
20
0.951162809075612
30
0
41
1
10
9.47587373293638
20
0.926568388466649
30
0
41
1
10
9.60946695271937
20
0.875942071282481
30
0
41
1
10
9.67607175787771
20
0.849898234435699
30
0
41
1
10
9.80894211733761
20
0.79637545027694
30
0
41
1
10
9.87523411873036
20
0.768901643250246
30
0
41
1
10
9.97458172450365
20
0.726754512191349
30
0
41
1
10
10.0076833273619
20
0.71255723719193
30
0
41
1
10
10.073915109839
20
0.683986007549066
30
0
41
1
10
10.1070513934118
20
0.66962395110815
30
0
41
1
10
10.206471625039
20
0.626235269613915
30
0
41
1
10
10.2727304439213
20
0.596837602742568
30
0
41
1
10
10.4052099644913
20
0.537176784169617
30
0
41
1
10
10.4714291894374
20
0.506925901427621
30
0
41
1
10
10.6038289286191
20
0.445550070486547
30
0
41
1
10
10.6700329059037
20
0.414430180486477
30
0
41
1
10
10.8025575320991
20
0.351397416491494
30
0
41
1
10
10.8688584513323
20
0.319477211580704
30
0
41
1
10
11.0015669397788
20
0.254979932441529
30
0
41
1
10
11.0679456916932
20
0.222334525361845
30
0
41
1
10
11.2010292234209
20
0.156885954709395
30
0
41
1
10
11.267762412999
20
0.124163134850789
30
0
41
1
10
11.3679870213305
20
0.0747087697454276
30
0
41
1
10
11.4014292564909
20
0.0581841411034532
30
0
41
1
10
11.4684344995283
20
0.0251339836220836
30
0
41
1
10
11.5020321382199
20
0.0085961930227541
30
0
41
1
10
11.6027533221781
20
-0.0408895150205524
30
0
41
1
10
11.6697555230429
20
-0.0736930982970421
30
0
41
1
10
11.8034122378601
20
-0.139194507973656
30
0
41
1
10
11.8700602931592
20
-0.171896324481736
30
0
41
1
10
12.0030224694289
20
-0.237192530798808
30
0
41
1
10
12.0693342433065
20
-0.269805904345418
30
0
41
1
10
12.1686183654128
20
-0.318488300122055
30
0
41
1
10
12.2016915991363
20
-0.33465072508605
30
0
41
1
10
12.2678836766337
20
-0.366629767762703
30
0
41
1
10
12.3010089866013
20
-0.382428921800994
30
0
41
1
10
12.4004126073844
20
-0.429399186664341
30
0
41
1
10
12.4666832852649
20
-0.460227767610519
30
0
41
1
10
12.599209103509
20
-0.521127421846586
30
0
41
1
10
12.665474063379
20
-0.551167639868709
30
0
41
1
10
12.7979529435766
20
-0.610587576335007
30
0
41
1
10
12.8641522671482
20
-0.640006717637391
30
0
41
1
10
12.9964403299068
20
-0.698280346735032
30
0
41
1
10
13.0625677221328
20
-0.727018558967217
30
0
41
1
10
13.1951400784054
20
-0.782807358765069
30
0
41
1
10
13.2615146746218
20
-0.810029816699227
30
0
41
1
10
13.3946296503438
20
-0.863010958217558
30
0
41
1
10
13.4613993722093
20
-0.88870883727742
30
0
41
1
10
13.5950979912297
20
-0.939016685212152
30
0
41
1
10
13.6620611257815
20
-0.963574561791432
30
0
41
1
10
13.7962414071299
20
-1.0114434692122
30
0
41
1
10
13.8631701804486
20
-1.03456270956249
30
0
41
1
10
13.9967085736847
20
-1.07848990950259
30
0
41
1
10
14.0633141481118
20
-1.09941658359168
30
0
41
1
10
14.1962149297016
20
-1.1396102126713
30
0
41
1
10
14.262512578841
20
-1.15885661874063
30
0
41
1
10
14.3617789771674
20
-1.18648359996223
30
0
41
1
10
14.3948453100007
20
-1.19547044275845
30
0
41
1
10
14.4610001429382
20
-1.21290939038192
30
0
41
1
10
14.4940886655232
20
-1.22136282173241
30
0
41
1
10
14.5933352113592
20
-1.24595639861553
30
0
41
1
10
14.6594503051929
20
-1.26134492386962
30
0
41
1
10
14.7917438859462
20
-1.28976510964102
30
0
41
1
10
14.8579168550691
20
-1.30282873190649
30
0
41
1
10
14.9902713965974
20
-1.32688092888051
30
0
41
1
10
15.0564453763945
20
-1.33788821470566
30
0
41
1
10
15.1886723621897
20
-1.35817305032063
30
0
41
1
10
15.2547404093993
20
-1.36740686847978
30
0
41
1
10
15.3869702114773
20
-1.38364519095555
30
0
41
1
10
15.4530977868831
20
-1.39065855213491
30
0
41
1
10
15.5858825231911
20
-1.40203034714392
30
0
41
1
10
15.6525244193629
20
-1.40643496237288
30
0
41
1
10
15.7860218309072
20
-1.41305022090333
30
0
41
1
10
15.8529196706462
20
-1.41524742565005
30
0
41
1
10
15.9534386922681
20
-1.41704586723665
30
0
41
1
10
15.9869915051256
20
-1.41738833102298
30
0
41
1
10
16.0539560502284
20
-1.41751534564287
30
0
41
1
10
16.0873906259664
20
-1.41730002425214
30
0
41
1
10
16.187554314053
20
-1.41575908786078
30
0
41
1
10
16.2541328382647
20
-1.41353713823483
30
0
41
1
10
16.3870275408362
20
-1.40652288468172
30
0
41
1
10
16.4533403011997
20
-1.40175775468367
30
0
41
1
10
16.5526655151752
20
-1.39296839743369
30
0
41
1
10
16.5857573101281
20
-1.38976572686266
30
0
41
1
10
16.6519621792592
20
-1.38286896879967
30
0
41
1
10
16.6850717144695
20
-1.37917580396189
30
0
41
1
10
16.7843544009443
20
-1.36736460760343
30
0
41
1
10
16.8504629024335
20
-1.35848602322716
30
0
41
1
10
16.9826855814826
20
-1.33854887975565
30
0
41
1
10
17.0487957881846
20
-1.32749466970319
30
0
41
1
10
17.1810612834945
20
-1.30311031703656
30
0
41
1
10
17.2472088024461
20
-1.28979282058961
30
0
41
1
10
17.3794535103643
20
-1.26106070788262
30
0
41
1
10
17.4455615280813
20
-1.24564944252722
30
0
41
1
10
17.5777917730169
20
-1.21286192665232
30
0
41
1
10
17.6438824531606
20
-1.19543000444685
30
0
41
1
10
17.7765260222004
20
-1.1588023579761
30
0
41
1
10
17.8430519654847
20
-1.13959344088445
30
0
41
1
10
17.9764004544189
20
-1.09913699577865
30
0
41
1
10
18.0432631667847
20
-1.07794987260598
30
0
41
1
10
18.1337552690381
20
-1.04814813377948
30
0
41
1
10
18.1572471631821
20
-1.04030881370943
30
0
41
1
10
18.1807256973072
20
-1.03237138979782
30
0
0
SPLINE
5
E2
100
AcDbEntity
8
1
62
256
6
ByLayer
370
18
48
1
60
0
100
AcDbSpline
70
4
71
3
72
42
73
38
40
0
40
0
40
0
40
0
40
0.0201568343574093
40
0.0201568343574093
40
0.0668160327213436
40
0.0668160327213436
40
0.113475231085279
40
0.113475231085279
40
0.160134429449213
40
0.160134429449213
40
0.253452826177082
40
0.253452826177082
40
0.300112024541017
40
0.300112024541017
40
0.346771222904951
40
0.346771222904951
40
0.440089619632817
40
0.440089619632817
40
0.486748817996746
40
0.486748817996746
40
0.533408016360674
40
0.533408016360674
40
0.580067214724603
40
0.580067214724603
40
0.626726413088531
40
0.626726413088531
40
0.67338561145246
40
0.67338561145246
40
0.720044809816388
40
0.720044809816388
40
0.813363206544254
40
0.813363206544254
40
0.86002240490819
40
0.86002240490819
40
0.906681603272127
40
0.906681603272127
40
1
40
1
40
1
40
1
41
1
10
25.0151138401371
20
1.42121207021287
30
0
41
1
10
25.0439167340218
20
1.42114059810638
30
0
41
1
10
25.0726873215609
20
1.42086586775338
30
0
41
1
10
25.1679593572382
20
1.41929281783706
30
0
41
1
10
25.2343087805574
20
1.41711903553499
30
0
41
1
10
25.3668493171688
20
1.41075342935153
30
0
41
1
10
25.4331272612654
20
1.40658623968278
30
0
41
1
10
25.5655497476557
20
1.39603268235845
30
0
41
1
10
25.6317024040589
20
1.38964120261812
30
0
41
1
10
25.830241724246
20
1.36681419989438
30
0
41
1
10
25.9626778832073
20
1.34676963579972
30
0
41
1
10
26.1612253218019
20
1.31012704471166
30
0
41
1
10
26.2274089738409
20
1.29682171764071
30
0
41
1
10
26.3598773731264
20
1.26803014559985
30
0
41
1
10
26.4261796725174
20
1.25255363891597
30
0
41
1
10
26.6258195109928
20
1.20336995203289
30
0
41
1
10
26.75950450562
20
1.16654336988302
30
0
41
1
10
26.9608545514806
20
1.10575545102822
30
0
41
1
10
27.0279911619785
20
1.08458214018933
30
0
41
1
10
27.1618982110632
20
1.04042992659186
30
0
41
1
10
27.228725467165
20
1.01742677681983
30
0
41
1
10
27.3622782701202
20
0.969672610139725
30
0
41
1
10
27.4289738559403
20
0.944873652061034
30
0
41
1
10
27.5625084140129
20
0.893932789560608
30
0
41
1
10
27.6294161359128
20
0.867905709446433
30
0
41
1
10
27.7632582509092
20
0.81440651356391
30
0
41
1
10
27.830219737727
20
0.786977383329599
30
0
41
1
10
27.9643109547541
20
0.73086890048279
30
0
41
1
10
28.0315247651931
20
0.702143193766659
30
0
41
1
10
28.232566706789
20
0.614359075502563
30
0
41
1
10
28.3658106467271
20
0.553588975701047
30
0
41
1
10
28.56495010449
20
0.459981389268336
30
0
41
1
10
28.6312567531295
20
0.428461065828316
30
0
41
1
10
28.7639556350136
20
0.365234412012739
30
0
41
1
10
28.8302532743581
20
0.333348889324157
30
0
41
1
10
29.0290629714027
20
0.23701298907784
30
0
41
1
10
29.1615260159344
20
0.171962203882401
30
0
41
1
10
29.2939602802123
20
0.106102481223047
30
0
0
SPLINE
5
E3
100
AcDbEntity
8
1
62
256
6
ByLayer
370
18
48
1
60
0
100
AcDbSpline
70
4
71
3
72
34
73
30
40
0
40
0
40
0
40
0
40
0.124999999999998
40
0.124999999999998
40
0.187499999999997
40
0.187499999999997
40
0.218749999999998
40
0.218749999999998
40
0.249999999999998
40
0.249999999999998
40
0.374999999999999
40
0.374999999999999
40
0.437499999999998
40
0.437499999999998
40
0.499999999999997
40
0.499999999999997
40
0.562499999999996
40
0.562499999999996
40
0.624999999999995
40
0.624999999999995
40
0.656249999999995
40
0.656249999999995
40
0.687499999999994
40
0.749999999999995
40
0.812499999999996
40
0.812499999999996
40
0.874999999999997
40
0.874999999999997
40
1
40
1
40
1
40
1
41
1
10
29.2939602802122
20
0.106102481223076
30
0
41
1
10
29.2913877191695
20
0.020293169775897
30
0
41
1
10
29.293309108742
20
-0.0650877896460429
30
0
41
1
10
29.3004940872052
20
-0.192586128123367
30
0
41
1
10
29.3036136372651
20
-0.234989383487488
30
0
41
1
10
29.3091262287067
20
-0.298452851387708
30
0
41
1
10
29.3110944939914
20
-0.319484002020715
30
0
41
1
10
29.3152266859748
20
-0.361122947537353
30
0
41
1
10
29.3173932008337
20
-0.381760476713595
30
0
41
1
10
29.3286172371196
20
-0.484063581222557
30
0
41
1
10
29.338814404689
20
-0.56310174048599
30
0
41
1
10
29.3542836538808
20
-0.677606795381962
30
0
41
1
10
29.3594928009122
20
-0.715215636957481
30
0
41
1
10
29.3696515452194
20
-0.788130894110026
30
0
41
1
10
29.3746097886857
20
-0.823505880904236
30
0
41
1
10
29.3841433008979
20
-0.892098170939875
30
0
41
1
10
29.3887222319377
20
-0.92534530257123
30
0
41
1
10
29.3973304872416
20
-0.989015900741322
30
0
41
1
10
29.4013716886772
20
-1.01952347463828
30
0
41
1
10
29.4070338081758
20
-1.06327815369397
30
0
41
1
10
29.4088572343553
20
-1.07754612072523
30
0
41
1
10
29.4123516701749
20
-1.10520515118475
30
0
41
1
10
29.4173746704895
20
-1.1454465088992
30
0
41
1
10
29.4247397156055
20
-1.20638566786548
30
0
41
1
10
29.429835063631
20
-1.24867187303369
30
0
41
1
10
29.4347243663453
20
-1.28768390688026
30
0
41
1
10
29.4370672196488
20
-1.30556436402583
30
0
41
1
10
29.44415785556
20
-1.35404256281942
30
0
41
1
10
29.4488493751349
20
-1.37883570371656
30
0
41
1
10
29.4548230939803
20
-1.39612337900209
30
0
0
SPLINE
5
E4
100
AcDbEntity
8
1
62
256
6
ByLayer
370
18
48
1
60
0
100
AcDbSpline
70
4
71
3
72
56
73
52
40
0
40
0
40
0
40
0
40
0.030436775010782
40
0.030436775010782
40
0.0522473700248836
40
0.0522473700248836
40
0.0631526675319345
40
0.0631526675319345
40
0.0686053162854599
40
0.0699684784738412
40
0.0699684784738412
40
0.0706500595680318
40
0.0706500595680318
40
0.0713316406622226
40
0.0713316406622226
40
0.0740579650389854
40
0.0740579650389854
40
0.0849632625460362
40
0.0849632625460362
40
0.095868560053087
40
0.095868560053087
40
0.117679155067189
40
0.117679155067189
40
0.161300345095392
40
0.161300345095392
40
0.248542725151798
40
0.248542725151798
40
0.423027485264611
40
0.423027485264611
40
0.510269865321018
40
0.510269865321018
40
0.53208046033512
40
0.53208046033512
40
0.542985757842171
40
0.542985757842171
40
0.545712082218933
40
0.545712082218933
40
0.546393663313124
40
0.546393663313124
40
0.546734453860219
40
0.546734453860219
40
0.547075244407315
40
0.547075244407315
40
0.548438406595696
40
0.548438406595696
40
0.553891055349223
40
0.597512245377437
40
0.597512245377437
40
0.946481765603147
40
0.946481765603147
40
1
40
1
40
1
40
1
41
1
10
3.83763664672972
20
1.26792414640769
30
0
41
1
10
3.83230564790694
20
1.22605499545585
30
0
41
1
10
3.82344769879518
20
1.18283559406254
30
0
41
1
10
3.80185631992228
20
1.10609999199897
30
0
41
1
10
3.79141586481023
20
1.07297149544093
30
0
41
1
10
3.77155275698979
20
1.02327316866254
30
0
41
1
10
3.76431598328259
20
1.00665280284116
30
0
41
1
10
3.75266841873338
20
0.981634876252713
30
0
41
1
10
3.74764874911932
20
0.971189478900101
30
0
41
1
10
3.74243782052332
20
0.960717313213308
30
0
41
1
10
3.74086326424882
20
0.957573948906145
30
0
41
1
10
3.74009876171172
20
0.956586184912908
30
0
41
1
10
3.74032978555817
20
0.95404062656263
30
0
41
1
10
3.74116227637535
20
0.952788215447612
30
0
41
1
10
3.74548217298201
20
0.947009415236266
30
0
41
1
10
3.75007318700639
20
0.943130082423579
30
0
41
1
10
3.77232150740497
20
0.923540765276073
30
0
41
1
10
3.79121555233786
20
0.909032554005393
30
0
41
1
10
3.82886028476594
20
0.879880253378303
30
0
41
1
10
3.8478254835178
20
0.86547693261582
30
0
41
1
10
3.90488888212928
20
0.82246816380848
30
0
41
1
10
3.94316470809849
20
0.794075865218076
30
0
41
1
10
4.05824314713621
20
0.709192234760252
30
0
41
1
10
4.13532318900809
20
0.653046737380805
30
0
41
1
10
4.36664185366658
20
0.484693577257246
30
0
41
1
10
4.52093908115395
20
0.372506853609764
30
0
41
1
10
4.98344667346814
20
0.0352237683665635
30
0
41
1
10
5.29134121219823
20
-0.190440410335469
30
0
41
1
10
5.75370382577256
20
-0.528242935534053
30
0
41
1
10
5.90826031211526
20
-0.640259823253416
30
0
41
1
10
6.09939565392406
20
-0.783010645538127
30
0
41
1
10
6.13753689878217
20
-0.811679864607612
30
0
41
1
10
6.19403535899721
20
-0.855566475110891
30
0
41
1
10
6.21289198517462
20
-0.870209286995134
30
0
41
1
10
6.23538134369574
20
-0.88963725282872
30
0
41
1
10
6.23988494415721
20
-0.893516743222676
30
0
41
1
10
6.24495378594051
20
-0.898956612851237
30
0
41
1
10
6.24597289676549
20
-0.90008955409408
30
0
41
1
10
6.24713764390907
20
-0.901977085559992
30
0
41
1
10
6.24753287833238
20
-0.902691960062839
30
0
41
1
10
6.24724855276827
20
-0.903977288465086
30
0
41
1
10
6.24645205985337
20
-0.904179282109851
30
0
41
1
10
6.242953526924
20
-0.904427763970318
30
0
41
1
10
6.2399823417216
20
-0.903781543871588
30
0
41
1
10
6.22550029575407
20
-0.902259077444825
30
0
41
1
10
6.12124260042933
20
-0.891251033076202
30
0
41
1
10
6.01710194867872
20
-0.879825946623953
30
0
41
1
10
5.18484155780226
20
-0.785442390596415
30
0
41
1
10
4.45147387554889
20
-0.680326281745295
30
0
41
1
10
3.61284889071368
20
-0.533663590267622
30
0
41
1
10
3.50148856773237
20
-0.513645714525381
30
0
41
1
10
3.39027899301408
20
-0.493114607687147
30
0
0
SPLINE
5
E5
100
AcDbEntity
8
1
62
256
6
ByLayer
370
18
48
1
60
0
100
AcDbSpline
70
4
71
3
72
20
73
16
40
0
40
0
40
0
40
0
40
0.249999999999998
40
0.249999999999998
40
0.374999999999999
40
0.374999999999999
40
0.499999999999999
40
0.499999999999999
40
0.624999999999999
40
0.624999999999999
40
0.749999999999999
40
0.749999999999999
40
0.875
40
0.875
40
1
40
1
40
1
40
1
41
1
10
29.4548230939802
20
-1.39612337900206
30
0
41
1
10
29.4556097921362
20
-1.39840004829631
30
0
41
1
10
29.4559435235097
20
-1.40196775675102
30
0
41
1
10
29.4555963983494
20
-1.40961469614271
30
0
41
1
10
29.4553340100443
20
-1.41255564313602
30
0
41
1
10
29.4545034879325
20
-1.41909682124751
30
0
41
1
10
29.4539352918793
20
-1.42271656487847
30
0
41
1
10
29.4524536199689
20
-1.43074626171529
30
0
41
1
10
29.4515469132065
20
-1.43510781509542
30
0
41
1
10
29.4494491841691
20
-1.44428888765287
30
0
41
1
10
29.4482519872366
20
-1.44914333969018
30
0
41
1
10
29.4455449150527
20
-1.45942735837701
30
0
41
1
10
29.4440723951012
20
-1.46471229770174
30
0
41
1
10
29.4409574116979
20
-1.47539569593181
30
0
41
1
10
29.4392893479798
20
-1.48087864737749
30
0
41
1
10
29.4375835123007
20
-1.48629339238272
30
0
0
SPLINE
5
E6
100
AcDbEntity
8
1
62
256
6
ByLayer
370
13
48
1
60
0
100
AcDbSpline
70
4
71
3
72
41
73
37
40
0
40
0
40
0
40
0
40
0.0464616487180734
40
0.0464616487180734
40
0.113602784518296
40
0.113602784518296
40
0.147173352418408
40
0.163958636368463
40
0.163958636368463
40
0.180743920318518
40
0.180743920318518
40
0.247885056118732
40
0.247885056118732
40
0.382167327719159
40
0.382167327719159
40
0.516449599319585
40
0.516449599319585
40
0.55002016721969
40
0.55002016721969
40
0.583590735119796
40
0.583590735119796
40
0.650731870920009
40
0.650731870920009
40
0.717873006720221
40
0.717873006720221
40
0.785014142520434
40
0.785014142520434
40
0.852155278320647
40
0.852155278320647
40
0.885725846220752
40
0.885725846220752
40
0.919296414120857
40
0.919296414120857
40
0.986437549921065
40
0.986437549921065
40
1
40
1
40
1
40
1
41
1
10
4.6753611280831
20
1.18483523826089
30
0
41
1
10
4.76753595943475
20
1.16024436211717
30
0
41
1
10
4.85972909374428
20
1.13381558846933
30
0
41
1
10
5.08542668642792
20
1.06497441918094
30
0
41
1
10
5.21910180487771
20
1.02072089401335
30
0
41
1
10
5.42030008689133
20
0.949201637688873
30
0
41
1
10
5.52107537640535
20
0.912169732730916
30
0
41
1
10
5.62218678307636
20
0.873320738292279
30
0
41
1
10
5.6896771920112
20
0.847027664978754
30
0
41
1
10
5.7234524794373
20
0.833687978752295
30
0
41
1
10
5.8919956820246
20
0.766257980082059
30
0
41
1
10
6.02619644245058
20
0.709795291984733
30
0
41
1
10
6.42772879006111
20
0.534449234359954
30
0
41
1
10
6.69400263305269
20
0.409672477248478
30
0
41
1
10
7.22764258585977
20
0.152049546008982
30
0
41
1
10
7.495035089033
20
0.0192949119400794
30
0
41
1
10
7.83250736745472
20
-0.146511661679057
30
0
41
1
10
7.89991891154853
20
-0.179537104235749
30
0
41
1
10
8.03439357392401
20
-0.245065577490323
30
0
41
1
10
8.10149757180182
20
-0.277587055707841
30
0
41
1
10
8.30249668138106
20
-0.374254620767545
30
0
41
1
10
8.43607147407019
20
-0.437516101760679
30
0
41
1
10
8.70286991358466
20
-0.560678472554287
30
0
41
1
10
8.8361019375472
20
-0.620566633195068
30
0
41
1
10
9.10276596845296
20
-0.736008584878022
30
0
41
1
10
9.23622059854983
20
-0.791560438924336
30
0
41
1
10
9.50378549365433
20
-0.897400566270449
30
0
41
1
10
9.63789454452231
20
-0.947697120058677
30
0
41
1
10
9.83994629289344
20
-1.01853529424861
30
0
41
1
10
9.90752305554867
20
-1.04141164465136
30
0
41
1
10
10.0422233230793
20
-1.08523935368635
30
0
41
1
10
10.109426727106
20
-1.10621926370885
30
0
41
1
10
10.3106654154384
20
-1.16626479619509
30
0
41
1
10
10.4443341948601
20
-1.20242680117246
30
0
41
1
10
10.6047442806095
20
-1.24101919546504
30
0
41
1
10
10.6316944503067
20
-1.2473420634754
30
0
41
1
10
10.6586390674724
20
-1.25349942051301
30
0
0
SPLINE
5
E7
100
AcDbEntity
8
1
62
256
6
ByLayer
370
18
48
1
60
0
100
AcDbSpline
70
4
71
3
72
16
73
12
40
0
40
0
40
0
40
0
40
0.233675259024739
40
0.233675259024739
40
0.526501073808422
40
0.526501073808422
40
0.819326888592105
40
0.819326888592105
40
0.965739795983939
40
0.965739795983939
40
1
40
1
40
1
40
1
41
1
10
10.658639067514
20
-1.25349942052253
30
0
41
1
10
10.7650842279689
20
-1.27782416241069
30
0
41
1
10
10.8714427323834
20
-1.29956584368077
30
0
41
1
10
11.1111115228652
20
-1.34234022824251
30
0
41
1
10
11.2444270950702
20
-1.36181035058371
30
0
41
1
10
11.5116247244755
20
-1.39184414957774
30
0
41
1
10
11.645534082911
20
-1.40251997919961
30
0
41
1
10
11.847199805501
20
-1.41149343122876
30
0
41
1
10
11.9146055176545
20
-1.41331847681465
30
0
41
1
10
11.9978555062523
20
-1.41409876254517
30
0
41
1
10
12.0136324619613
20
-1.41418083220376
30
0
41
1
10
12.0294006099709
20
-1.4141976896407
30
0
0
SPLINE
5
E8
100
AcDbEntity
8
1
62
256
6
ByLayer
370
18
48
1
60
0
100
AcDbSpline
70
4
71
3
72
10
73
6
40
0
40
0
40
0
40
0
40
0.82051182309902
40
0.82051182309902
40
1
40
1
40
1
40
1
41
1
10
21.0301596155847
20
1.42007681743368
30
0
41
1
10
21.0947880410561
20
1.42013465726924
30
0
41
1
10
21.1595786200985
20
1.41910416055606
30
0
41
1
10
21.2383805148621
20
1.41654167446075
30
0
41
1
10
21.2525213731729
20
1.41603063621878
30
0
41
1
10
21.266659455456
20
1.41546853376712
30
0
0
SPLINE
5
E9
100
AcDbEntity
8
1
62
256
6
ByLayer
370
13
48
1
60
0
100
AcDbSpline
70
4
71
3
72
44
73
40
40
0
40
0
40
0
40
0
40
0.0241102281569029
40
0.0241102281569029
40
0.0815155088535583
40
0.0815155088535583
40
0.138920789550213
40
0.138920789550213
40
0.196326070246868
40
0.196326070246868
40
0.225028710595196
40
0.225028710595196
40
0.253731350943524
40
0.253731350943524
40
0.311136631640179
40
0.311136631640179
40
0.425947193033486
40
0.425947193033486
40
0.483352473730139
40
0.483352473730139
40
0.540757754426792
40
0.540757754426792
40
0.569460394775119
40
0.569460394775119
40
0.598163035123447
40
0.598163035123447
40
0.655568315820098
40
0.655568315820098
40
0.684270956168423
40
0.684270956168423
40
0.712973596516748
40
0.712973596516748
40
0.770378877213399
40
0.770378877213399
40
0.885189438606699
40
0.885189438606699
40
0.942594719303349
40
0.942594719303349
40
1
40
1
40
1
40
1
41
1
10
22.4671719845495
20
1.24665493560008
30
0
41
1
10
22.5234412431918
20
1.23330200524265
30
0
41
1
10
22.5796312700952
20
1.21924085115776
30
0
41
1
10
22.7693818969769
20
1.16935906279491
30
0
41
1
10
22.9026441264027
20
1.13035637557672
30
0
41
1
10
23.1689763543072
20
1.04540952785192
30
0
41
1
10
23.3020975078185
20
0.999510059224065
30
0
41
1
10
23.5686093300995
20
0.901261888007184
30
0
41
1
10
23.7020030689093
20
0.848956293135387
30
0
41
1
10
23.9027006415422
20
0.766360736944961
30
0
41
1
10
23.9697125829168
20
0.738153682970704
30
0
41
1
10
24.1040385695306
20
0.680502082294311
30
0
41
1
10
24.1714024581106
20
0.651019035815267
30
0
41
1
10
24.3736364378233
20
0.560965950908525
30
0
41
1
10
24.5078203476369
20
0.499163711620923
30
0
41
1
10
24.9091220825829
20
0.309814149864877
30
0
41
1
10
25.1750301031505
20
0.178411119343252
30
0
41
1
10
25.5745219194908
20
-0.0201909218848186
30
0
41
1
10
25.7077901484094
20
-0.0866432188027773
30
0
41
1
10
25.9751413921027
20
-0.218809391676302
30
0
41
1
10
26.1092145101152
20
-0.284543169237765
30
0
41
1
10
26.3112701495835
20
-0.381893780917125
30
0
41
1
10
26.3786703097913
20
-0.414079195476887
30
0
41
1
10
26.5132265572773
20
-0.477597526443702
30
0
41
1
10
26.5804447556621
20
-0.508960542403599
30
0
41
1
10
26.7820185562251
20
-0.601673026042022
30
0
41
1
10
26.9162917921706
20
-0.661645738391087
30
0
41
1
10
27.1178983742404
20
-0.74816956490892
30
0
41
1
10
27.1851343608777
20
-0.776437519900043
30
0
41
1
10
27.319741147946
20
-0.831703667516763
30
0
41
1
10
27.387201024442
20
-0.858734930629737
30
0
41
1
10
27.5890388586657
20
-0.937411150620619
30
0
41
1
10
27.722933329715
20
-0.986673022386441
30
0
41
1
10
28.123377229063
20
-1.12400617090213
30
0
41
1
10
28.3887187766771
20
-1.20150207371287
30
0
41
1
10
28.7874016476938
20
-1.29350635018744
30
0
41
1
10
28.9203975019029
20
-1.32013366873167
30
0
41
1
10
29.1870302266121
20
-1.36471132088792
30
0
41
1
10
29.3206641907267
20
-1.38267565339734
30
0
41
1
10
29.4548230939806
20
-1.39612337900209
30
0
0
SPLINE
5
EA
100
AcDbEntity
8
1
62
256
6
ByLayer
370
13
48
1
60
0
100
AcDbSpline
70
4
71
3
72
44
73
40
40
0
40
0
40
0
40
0
40
0.0629697027257328
40
0.0629697027257328
40
0.0953615142155039
40
0.0953615142155039
40
0.11155741996039
40
0.11155741996039
40
0.127753325705275
40
0.127753325705275
40
0.257320571664351
40
0.257320571664351
40
0.386887817623427
40
0.386887817623427
40
0.419279629113196
40
0.419279629113196
40
0.451671440602965
40
0.451671440602965
40
0.516455063582505
40
0.516455063582505
40
0.581238686562046
40
0.581238686562046
40
0.613630498051816
40
0.613630498051816
40
0.646022309541586
40
0.646022309541586
40
0.775589555500668
40
0.775589555500668
40
0.840373178480207
40
0.840373178480207
40
0.905156801459746
40
0.905156801459746
40
0.92135270720463
40
0.92135270720463
40
0.937548612949514
40
0.937548612949514
40
0.96994042443928
40
0.96994042443928
40
1
40
1
40
1
40
1
41
1
10
13.3971111992702
20
1.25785661584106
30
0
41
1
10
13.5268864679812
20
1.22859306917309
30
0
41
1
10
13.656876843686
20
1.19533360183263
30
0
41
1
10
13.8544306128298
20
1.13924675351089
30
0
41
1
10
13.9216537443193
20
1.11922040452217
30
0
41
1
10
14.0227221639088
20
1.08777454617288
30
0
41
1
10
14.0564776479552
20
1.07704717876626
30
0
41
1
10
14.1238952028868
20
1.05517757079687
30
0
41
1
10
14.157564654987
20
1.0440339274478
30
0
41
1
10
14.4602683040451
20
0.941913223871097
30
0
41
1
10
14.727070464606
20
0.838115392780082
30
0
41
1
10
15.2601966893364
20
0.611958271473497
30
0
41
1
10
15.5265387564412
20
0.489441890778267
30
0
41
1
10
15.8616517094155
20
0.329263449207275
30
0
41
1
10
15.9287875753176
20
0.296876089102938
30
0
41
1
10
16.0633534175694
20
0.231516298468108
30
0
41
1
10
16.1308611302325
20
0.198500038788751
30
0
41
1
10
16.3330881887042
20
0.0991724378786785
30
0
41
1
10
16.4676211482026
20
0.0325233408728138
30
0
41
1
10
16.7366515163325
20
-0.100548191091832
30
0
41
1
10
16.8711534787543
20
-0.166959462607224
30
0
41
1
10
17.0732652391613
20
-0.265621425649215
30
0
41
1
10
17.1407727045175
20
-0.298388526599382
30
0
41
1
10
17.2754992380629
20
-0.363247149281449
30
0
41
1
10
17.3427223364411
20
-0.395340077792781
30
0
41
1
10
17.6782919631884
20
-0.55380445396537
30
0
41
1
10
17.944999194808
20
-0.674058413512626
30
0
41
1
10
18.3455122692482
20
-0.839489088886211
30
0
41
1
10
18.4791233068796
20
-0.892046742588263
30
0
41
1
10
18.7469529895646
20
-0.991286495318178
30
0
41
1
10
18.8811717242238
20
-1.0379878314024
30
0
41
1
10
19.0496718085428
20
-1.09215974959156
30
0
41
1
10
19.0834021991741
20
-1.10277784683836
30
0
41
1
10
19.1507409251191
20
-1.12350268811156
30
0
41
1
10
19.1843751517884
20
-1.1336179388355
30
0
41
1
10
19.2851765335691
20
-1.16321841354602
30
0
41
1
10
19.3522388917059
20
-1.18195851288161
30
0
41
1
10
19.481321839216
20
-1.21614854211569
30
0
41
1
10
19.54335815195
20
-1.23174228086845
30
0
41
1
10
19.6053273103706
20
-1.24645443395551
30
0
0
SPLINE
5
EB
100
AcDbEntity
8
1
62
256
6
ByLayer
370
18
48
1
60
0
100
AcDbSpline
70
4
71
3
72
16
73
12
40
0
40
0
40
0
40
0
40
0.150731230109235
40
0.150731230109235
40
0.431946005291563
40
0.431946005291563
40
0.713160780473893
40
0.713160780473893
40
0.994375555656221
40
0.994375555656221
40
1
40
1
40
1
40
1
41
1
10
19.6053273104952
20
-1.24645443398509
30
0
41
1
10
19.676912486071
20
-1.26344953426712
30
0
41
1
10
19.7484080490824
20
-1.27926822236822
30
0
41
1
10
19.9531563956001
20
-1.32114546274622
30
0
41
1
10
20.0863428279623
20
-1.34412981671173
30
0
41
1
10
20.3528347697738
20
-1.38123759168073
30
0
41
1
10
20.4861447137659
20
-1.39540392698595
30
0
41
1
10
20.7534323936752
20
-1.41469706322454
30
0
41
1
10
20.8874682239674
20
-1.41975440593751
30
0
41
1
10
21.0247740470692
20
-1.42007010773821
30
0
41
1
10
21.0274666908235
20
-1.42007440737487
30
0
41
1
10
21.03015961611
20
-1.42007681743416
30
0
0
SPLINE
5
EC
100
AcDbEntity
8
1
62
256
6
ByLayer
370
18
48
1
60
0
100
AcDbSpline
70
4
71
3
72
56
73
52
40
0
40
0
40
0
40
0
40
0.0230459750435436
40
0.0230459750435436
40
0.064053110526541
40
0.064053110526541
40
0.105060246009539
40
0.105060246009539
40
0.125563813751038
40
0.125563813751038
40
0.146067381492538
40
0.146067381492538
40
0.187074516975537
40
0.187074516975537
40
0.228081652458536
40
0.228081652458536
40
0.269088787941535
40
0.269088787941535
40
0.351103058907532
40
0.351103058907532
40
0.433117329873529
40
0.433117329873529
40
0.515131600839525
40
0.515131600839525
40
0.556138736322524
40
0.556138736322524
40
0.576642304064023
40
0.576642304064023
40
0.597145871805522
40
0.597145871805522
40
0.679160142771522
40
0.679160142771522
40
0.761174413737522
40
0.761174413737522
40
0.781677981479022
40
0.781677981479022
40
0.802181549220522
40
0.802181549220522
40
0.843188684703522
40
0.843188684703522
40
0.884195820186522
40
0.884195820186522
40
0.925202955669522
40
0.925202955669522
40
0.966210091152522
40
0.966210091152522
40
0.986713658894022
40
0.986713658894022
40
0.996965442764773
40
0.996965442764773
40
1
40
1
40
1
40
1
41
1
10
21.6246441522238
20
-1.43728925604094
30
0
41
1
10
21.5496752402097
20
-1.44801536415551
30
0
41
1
10
21.4747648040341
20
-1.45725743900516
30
0
41
1
10
21.2666134484571
20
-1.47877693240224
30
0
41
1
10
21.1333791925355
20
-1.48778733189204
30
0
41
1
10
20.8663855600365
20
-1.49609861131916
30
0
41
1
10
20.7326247127734
20
-1.49540545072983
30
0
41
1
10
20.531247669098
20
-1.48696460523539
30
0
41
1
10
20.4639930030487
20
-1.4829171075425
30
0
41
1
10
20.3291409153535
20
-1.47234165605562
30
0
41
1
10
20.2614610690767
20
-1.46580028241658
30
0
41
1
10
20.0592017139903
20
-1.44262027116332
30
0
41
1
10
19.9249975776669
20
-1.42241492129366
30
0
41
1
10
19.657406124212
20
-1.3729569677609
30
0
41
1
10
19.5239867500433
20
-1.34372089307931
30
0
41
1
10
19.2573089709596
20
-1.27682648011208
30
0
41
1
10
19.1240473744069
20
-1.23917737891219
30
0
41
1
10
18.7238542923492
20
-1.11427112478208
30
0
41
1
10
18.4563331983066
20
-1.01523902082334
30
0
41
1
10
17.9154039930842
20
-0.790671717515608
30
0
41
1
10
17.647891508931
20
-0.667457309037303
30
0
41
1
10
17.1141397528501
20
-0.408032433229778
30
0
41
1
10
16.8480022853188
20
-0.271591535675782
30
0
41
1
10
16.4464621345692
20
-0.0633651049543573
30
0
41
1
10
16.3122453861763
20
0.0066729388262274
30
0
41
1
10
16.1099581268182
20
0.111897979404915
30
0
41
1
10
16.042259368206
20
0.147046441381434
30
0
41
1
10
15.9073355234039
20
0.216764929237939
30
0
41
1
10
15.8400347303213
20
0.251372938337738
30
0
41
1
10
15.5041765569095
20
0.422873681576249
30
0
41
1
10
15.2376419617595
20
0.555298465766725
30
0
41
1
10
14.7041941466396
20
0.802223954376529
30
0
41
1
10
14.4374358502747
20
0.91699560789192
30
0
41
1
10
14.1010065126853
20
1.04452831040851
30
0
41
1
10
14.0335718150444
20
1.06924015139325
30
0
41
1
10
13.8983588424151
20
1.11698941656112
30
0
41
1
10
13.8308458922644
20
1.13994513753241
30
0
41
1
10
13.6289265220825
20
1.20572604989027
30
0
41
1
10
13.4948789056403
20
1.24546921863637
30
0
41
1
10
13.227342246373
20
1.31633062228857
30
0
41
1
10
13.0938635093558
20
1.34747080073706
30
0
41
1
10
12.8272001992077
20
1.40093844692521
30
0
41
1
10
12.6938835846271
20
1.42315334422955
30
0
41
1
10
12.4267111360225
20
1.45820921453966
30
0
41
1
10
12.292867690287
20
1.47106916853428
30
0
41
1
10
12.0914972268978
20
1.48312400337412
30
0
41
1
10
12.0242476542557
20
1.48592687776556
30
0
41
1
10
11.9231068058369
20
1.48827744552787
30
0
41
1
10
11.8893500894183
20
1.48875235621381
30
0
41
1
10
11.8455403217019
20
1.48896528740593
30
0
41
1
10
11.8355318215574
20
1.48898664248605
30
0
41
1
10
11.8255233547311
20
1.48898077640393
30
0
0
SPLINE
5
ED
100
AcDbEntity
8
1
62
256
6
ByLayer
370
18
48
1
60
0
100
AcDbSpline
70
4
71
3
72
8
73
4
40
0
40
0
40
0
40
0
40
1
40
1
40
1
40
1
41
1
10
3.83100036465768
20
-1.39346338968028
30
0
41
1
10
3.78926233144699
20
-1.40086478868812
30
0
41
1
10
3.74747404219241
20
-1.40783205882255
30
0
41
1
10
3.70562774090376
20
-1.41435708793935
30
0
0
SPLINE
5
EE
100
AcDbEntity
8
1
62
256
6
ByLayer
370
18
48
1
60
0
100
AcDbSpline
70
4
71
3
72
36
73
32
40
0
40
0
40
0
40
0
40
0.0410749771513598
40
0.0410749771513598
40
0.0779567087993846
40
0.0779567087993846
40
0.114838440447409
40
0.114838440447409
40
0.262365367039509
40
0.262365367039509
40
0.336128830335558
40
0.336128830335558
40
0.373010561983583
40
0.373010561983583
40
0.409892293631608
40
0.409892293631608
40
0.557419220223707
40
0.557419220223707
40
0.631182683519756
40
0.631182683519756
40
0.668064415167781
40
0.668064415167781
40
0.704946146815805
40
0.704946146815805
40
0.852473073407903
40
0.852473073407903
40
0.926236536703951
40
0.926236536703951
40
0.963118268351976
40
0.963118268351976
40
1
40
1
40
1
40
1
41
1
10
3.57236778242719
20
-1.48382316622366
30
0
41
1
10
3.57239021659677
20
-1.48381348923527
30
0
41
1
10
3.57241228105187
20
-1.48323412778521
30
0
41
1
10
3.57245352068935
20
-1.48103810100716
30
0
41
1
10
3.57247280672121
20
-1.47952699527914
30
0
41
1
10
3.57251059652805
20
-1.47558539500565
30
0
41
1
10
3.5725291070948
20
-1.47315756453142
30
0
41
1
10
3.57261990979683
20
-1.45877227266627
30
0
41
1
10
3.57268701096723
20
-1.44012583564009
30
0
41
1
10
3.57278186196834
20
-1.40158255741866
30
0
41
1
10
3.57281250045472
20
-1.38696290265352
30
0
41
1
10
3.57285720898443
20
-1.36230220552869
30
0
41
1
10
3.5728719263856
20
-1.35360903789541
30
0
41
1
10
3.5729007046952
20
-1.335468716848
30
0
41
1
10
3.5729147963971
20
-1.32600650257441
30
0
41
1
10
3.57298387406988
20
-1.27676670964493
30
0
41
1
10
3.57303479317369
20
-1.23124537323619
30
0
41
1
10
3.573105746914
20
-1.15384914686112
30
0
41
1
10
3.57312847924129
20
-1.12652312050068
30
0
41
1
10
3.57316120162611
20
-1.08317527858259
30
0
41
1
10
3.57317187270067
20
-1.06833592907546
30
0
41
1
10
3.57319254527999
20
-1.03816039198637
30
0
41
1
10
3.57320257398544
20
-1.02278911867643
30
0
41
1
10
3.57325118815678
20
-0.944536659749758
30
0
41
1
10
3.57328526858049
20
-0.877497877551747
30
0
41
1
10
3.57332833165691
20
-0.770317172781205
30
0
41
1
10
3.57334132702502
20
-0.733480555204437
30
0
41
1
10
3.57335851731057
20
-0.676508346430552
30
0
41
1
10
3.57336383907156
20
-0.657302375135316
30
0
41
1
10
3.5733735833561
20
-0.618663575061362
30
0
41
1
10
3.57337801516553
20
-0.5992003679888
30
0
41
1
10
3.57338199164411
20
-0.579595388553486
30
0
0
SPLINE
5
EF
100
AcDbEntity
8
1
62
256
6
ByLayer
370
18
48
1
60
0
100
AcDbSpline
70
4
71
3
72
8
73
4
40
0
40
0
40
0
40
0
40
1
40
1
40
1
40
1
41
1
10
3.57338199163445
20
-0.579595388544988
30
0
41
1
10
3.51251135554554
20
-0.550989322929297
30
0
41
1
10
3.45149202478839
20
-0.522139733237594
30
0
41
1
10
3.39029036634051
20
-0.49312374874026
30
0
0
SPLINE
5
F0
100
AcDbEntity
8
1
62
256
6
ByLayer
370
18
48
1
60
0
100
AcDbSpline
70
4
71
3
72
84
73
80
40
0
40
0
40
0
40
0
40
0.0624999999999712
40
0.0624999999999712
40
0.124999999999943
40
0.124999999999943
40
0.187499999999914
40
0.187499999999914
40
0.218749999999901
40
0.218749999999901
40
0.249999999999889
40
0.249999999999889
40
0.281249999999876
40
0.281249999999876
40
0.312499999999864
40
0.312499999999864
40
0.343749999999851
40
0.343749999999851
40
0.374999999999839
40
0.374999999999839
40
0.382812499999836
40
0.382812499999836
40
0.390624999999834
40
0.390624999999834
40
0.406249999999828
40
0.421874999999823
40
0.421874999999823
40
0.42968749999982
40
0.42968749999982
40
0.437499999999817
40
0.437499999999817
40
0.468749999999805
40
0.468749999999805
40
0.4843749999998
40
0.4843749999998
40
0.499999999999794
40
0.515624999999789
40
0.515624999999789
40
0.523437499999787
40
0.523437499999787
40
0.531249999999785
40
0.531249999999785
40
0.562499999999781
40
0.562499999999781
40
0.578124999999779
40
0.578124999999779
40
0.593749999999776
40
0.593749999999776
40
0.624999999999772
40
0.624999999999772
40
0.656249999999767
40
0.656249999999767
40
0.687499999999763
40
0.687499999999763
40
0.718749999999758
40
0.718749999999758
40
0.749999999999754
40
0.749999999999754
40
0.76562499999975
40
0.76562499999975
40
0.773437499999745
40
0.773437499999745
40
0.777343749999745
40
0.777343749999745
40
0.781249999999745
40
0.781249999999745
40
0.78906249999975
40
0.78906249999975
40
0.796874999999754
40
0.796874999999754
40
0.800781249999758
40
0.800781249999758
40
0.804687499999763
40
0.804687499999763
40
0.812499999999772
40
0.812499999999772
40
0.874999999999848
40
0.874999999999848
40
1
40
1
40
1
40
1
41
1
10
3.39026821162363
20
-0.493112993724992
30
0
41
1
10
3.30774097171039
20
-0.45304992941675
30
0
41
1
10
3.22605481172386
20
-0.411327502184179
30
0
41
1
10
3.06463411979846
20
-0.324010517535101
30
0
41
1
10
2.98489647967727
20
-0.278422200877912
30
0
41
1
10
2.82779147679145
20
-0.182520282441004
30
0
41
1
10
2.75041669805441
20
-0.132221557172045
30
0
41
1
10
2.63666817735353
20
-0.0521439338457128
30
0
41
1
10
2.59906649730874
20
-0.0246155830149348
30
0
41
1
10
2.52524700041371
20
0.0319327315869202
30
0
41
1
10
2.48902245596389
20
0.0609504510826469
30
0
41
1
10
2.41819477866704
20
0.120744692408607
30
0
41
1
10
2.383589595339
20
0.151518987435622
30
0
41
1
10
2.3163642108149
20
0.215220257650031
30
0
41
1
10
2.28364457374624
20
0.248265149570102
30
0
41
1
10
2.22176448109357
20
0.315947035394572
30
0
41
1
10
2.19249276201848
20
0.350669270392274
30
0
41
1
10
2.13812561758226
20
0.422321641341
30
0
41
1
10
2.11301744595741
20
0.459244933845071
30
0
41
1
10
2.08509503397283
20
0.507233038582172
30
0
41
1
10
2.07968565981764
20
0.516923414587552
30
0
41
1
10
2.06924828924446
20
0.536506310502205
30
0
41
1
10
2.06420897673442
20
0.54642413892924
30
0
41
1
10
2.04986293717303
20
0.576198042441916
30
0
41
1
10
2.03271403092492
20
0.616076409504359
30
0
41
1
10
2.01989853291235
20
0.656353446601173
30
0
41
1
10
2.01209006950276
20
0.686729410257612
30
0
41
1
10
2.00978820438016
20
0.696882809712747
30
0
41
1
10
2.00582213188571
20
0.717249545915877
30
0
41
1
10
2.00416184142856
20
0.727459175732179
30
0
41
1
10
1.99761793924421
20
0.777923836280905
30
0
41
1
10
1.99786818531121
20
0.817019708102492
30
0
41
1
10
2.00650036248027
20
0.873776021107318
30
0
41
1
10
2.01080214970364
20
0.892490967110007
30
0
41
1
10
2.02188578783091
20
0.928423104725368
30
0
41
1
10
2.035433608284
20
0.963010780976333
30
0
41
1
10
2.05344133118405
20
0.995178783385199
30
0
41
1
10
2.06848009082742
20
1.01847799603155
30
0
41
1
10
2.07375744871337
20
1.02611616055682
30
0
41
1
10
2.08469445467057
20
1.04098798621314
30
0
41
1
10
2.09036481294379
20
1.04823981734779
30
0
41
1
10
2.11964921409566
20
1.08365069857115
30
0
41
1
10
2.14603142816199
20
1.10929278588111
30
0
41
1
10
2.18898769706888
20
1.14471368971772
30
0
41
1
10
2.20387616281522
20
1.15600809166534
30
0
41
1
10
2.23467149331884
20
1.1776858142544
30
0
41
1
10
2.25061105571746
20
1.18808569472796
30
0
41
1
10
2.29929540346083
20
1.2177598473362
30
0
41
1
10
2.33303769846429
20
1.23563211903158
30
0
41
1
10
2.40251590132362
20
1.26845141701332
30
0
41
1
10
2.4382559825481
20
1.28339196296216
30
0
41
1
10
2.51136360911855
20
1.3109142208263
30
0
41
1
10
2.54873315090819
20
1.3234928344381
30
0
41
1
10
2.62484441853468
20
1.3466858755834
30
0
41
1
10
2.6636374836545
20
1.35731040082854
30
0
41
1
10
2.74212954484466
20
1.37681688533675
30
0
41
1
10
2.78181718815952
20
1.38569885090624
30
0
41
1
10
2.84192074548645
20
1.39790886012978
30
0
41
1
10
2.86205102236022
20
1.40179278563264
30
0
41
1
10
2.89238036815871
20
1.4073590497409
30
0
41
1
10
2.90251070786437
20
1.40917084711387
30
0
41
1
10
2.9177358968318
20
1.41182537930405
30
0
41
1
10
2.9227727186194
20
1.41272389933167
30
0
41
1
10
2.9330867696325
20
1.41437121435121
30
0
41
1
10
2.93843056775933
20
1.41505996530532
30
0
41
1
10
2.95504403507039
20
1.41668631973042
30
0
41
1
10
2.96648138008834
20
1.4171600577007
30
0
41
1
10
2.98968527641844
20
1.41729492992218
30
0
41
1
10
3.00109472553891
20
1.41696505267589
30
0
41
1
10
3.01795584859957
20
1.41593648898939
30
0
41
1
10
3.02353627724511
20
1.41550170350834
30
0
41
1
10
3.03461845325893
20
1.41449121739402
30
0
41
1
10
3.04007377151896
20
1.4139110350923
30
0
41
1
10
3.05639129707637
20
1.41211739517089
30
0
41
1
10
3.06725457616304
20
1.41089372791001
30
0
41
1
10
3.16493942410074
20
1.39966629239734
30
0
41
1
10
3.25098615219005
20
1.38805362528768
30
0
41
1
10
3.50673575883337
20
1.3473593129975
30
0
41
1
10
3.67346055750934
20
1.31243102240342
30
0
41
1
10
3.83759817048821
20
1.26793384669159
30
0
0
SPLINE
5
F1
100
AcDbEntity
8
1
62
256
6
ByLayer
370
18
48
1
60
0
100
AcDbSpline
70
4
71
3
72
61
73
57
40
0
40
0
40
0
40
0
40
0.0469373385701977
40
0.0469373385701977
40
0.0938746771403955
40
0.0938746771403955
40
0.140812015710593
40
0.140812015710593
40
0.164280684995691
40
0.164280684995691
40
0.187749354280789
40
0.187749354280789
40
0.234686692850987
40
0.234686692850987
40
0.281624031421184
40
0.281624031421184
40
0.305092700706284
40
0.305092700706284
40
0.328561369991384
40
0.328561369991384
40
0.375498708561586
40
0.375498708561586
40
0.422436047131788
40
0.422436047131788
40
0.469373385701991
40
0.469373385701991
40
0.516310724272193
40
0.516310724272193
40
0.563248062842395
40
0.563248062842395
40
0.574982397484945
40
0.574982397484945
40
0.586716732127495
40
0.610185401412597
40
0.610185401412597
40
0.657122739982801
40
0.657122739982801
40
0.704060078553006
40
0.704060078553006
40
0.75099741712321
40
0.75099741712321
40
0.774466086408312
40
0.774466086408312
40
0.797934755693414
40
0.797934755693414
40
0.844872094263621
40
0.844872094263621
40
0.868340763548723
40
0.868340763548723
40
0.891809432833826
40
0.891809432833826
40
0.938746771404028
40
0.938746771404028
40
0.98568410997423
40
0.98568410997423
40
1
40
1
40
1
40
1
41
1
10
3.83763664603973
20
1.26792414098858
30
0
41
1
10
3.95523355177008
20
1.23656893657369
30
0
41
1
10
4.07226259651492
20
1.2021756687742
30
0
41
1
10
4.3053688708803
20
1.12757205646514
30
0
41
1
10
4.42142278879615
20
1.08732218342368
30
0
41
1
10
4.65310425116718
20
1.00168077747699
30
0
41
1
10
4.76885025863524
20
0.956467805823564
30
0
41
1
10
4.94242778049974
20
0.885247691364583
30
0
41
1
10
5.00028236071398
20
0.860942171218511
30
0
41
1
10
5.11611220890757
20
0.811414389503341
30
0
41
1
10
5.17409039611402
20
0.786199386050043
30
0
41
1
10
5.34810367273917
20
0.709018431478285
30
0
41
1
10
5.46422775562996
20
0.65552860077409
30
0
41
1
10
5.69704807411759
20
0.544969055610608
30
0
41
1
10
5.81381583498305
20
0.488032588432589
30
0
41
1
10
5.98975551863029
20
0.400545413370622
30
0
41
1
10
6.04836175383059
20
0.371112066931118
30
0
41
1
10
6.16529172877526
20
0.312079411294434
30
0
41
1
10
6.22368504251645
20
0.282497028641899
30
0
41
1
10
6.39859476106921
20
0.193435975843045
30
0
41
1
10
6.51479167467065
20
0.133544940058869
30
0
41
1
10
6.74663987528874
20
0.013273173397863
30
0
41
1
10
6.86234779688948
20
-0.0469946047124949
30
0
41
1
10
7.09375532808824
20
-0.166958304587837
30
0
41
1
10
7.20940541538505
20
-0.226750579191787
30
0
41
1
10
7.4413420930822
20
-0.344504737279607
30
0
41
1
10
7.55747357117664
20
-0.402770561466127
30
0
41
1
10
7.79023282980589
20
-0.517736928330493
30
0
41
1
10
7.90689407870212
20
-0.574371612345828
30
0
41
1
10
8.05343120340666
20
-0.643407379972132
30
0
41
1
10
8.08278104992445
20
-0.657139800385949
30
0
41
1
10
8.14136828718614
20
-0.684351079433213
30
0
41
1
10
8.22914737678977
20
-0.724811988214725
30
0
41
1
10
8.31666745516804
20
-0.764125996844143
30
0
41
1
10
8.49155299852299
20
-0.840930734613721
30
0
41
1
10
8.60781620002382
20
-0.889926375643569
30
0
41
1
10
8.83971964556392
20
-0.983505912238996
30
0
41
1
10
8.95537691644168
20
-1.02804562962447
30
0
41
1
10
9.18673332054419
20
-1.11171584701577
30
0
41
1
10
9.30232886230607
20
-1.15098725231667
30
0
41
1
10
9.47609326037175
20
-1.20541714732707
30
0
41
1
10
9.534098553886
20
-1.22279206451722
30
0
41
1
10
9.65020480614078
20
-1.25609007014774
30
0
41
1
10
9.7083079722685
20
-1.27200923716029
30
0
41
1
10
9.88281317739333
20
-1.31750276142537
30
0
41
1
10
9.99938425753624
20
-1.34483134755379
30
0
41
1
10
10.1750546543447
20
-1.38077563960476
30
0
41
1
10
10.2337726739188
20
-1.39191582342235
30
0
41
1
10
10.3507528936401
20
-1.41237347663738
30
0
41
1
10
10.4091115154491
20
-1.42170456969907
30
0
41
1
10
10.5839457321049
20
-1.44694909629192
30
0
41
1
10
10.7002647575725
20
-1.46009256265575
30
0
41
1
10
10.9322653491596
20
-1.47924357598822
30
0
41
1
10
11.0479565433362
20
-1.48521943060174
30
0
41
1
10
11.1988719456161
20
-1.48824075430181
30
0
41
1
10
11.2341409697178
20
-1.48860702916559
30
0
41
1
10
11.2694119297088
20
-1.48863342741493
30
0
0
SPLINE
5
F2
100
AcDbEntity
8
1
62
256
6
ByLayer
370
18
48
1
60
0
100
AcDbSpline
70
4
71
3
72
55
73
51
40
0
40
0
40
0
40
0
40
0.0022946985454415
40
0.0022946985454415
40
0.102065228690903
40
0.102065228690903
40
0.151950493763633
40
0.151950493763633
40
0.164421810031816
40
0.164421810031816
40
0.176893126299998
40
0.201835758836364
40
0.201835758836364
40
0.301606288981825
40
0.301606288981825
40
0.351491554054556
40
0.351491554054556
40
0.376434186590921
40
0.388905502859103
40
0.388905502859103
40
0.401376819127286
40
0.401376819127286
40
0.451262084200017
40
0.451262084200017
40
0.501147349272747
40
0.501147349272747
40
0.551032614345478
40
0.551032614345478
40
0.600917879418208
40
0.600917879418208
40
0.625860511954573
40
0.625860511954573
40
0.638331828222755
40
0.638331828222755
40
0.650803144490937
40
0.70068840956366
40
0.70068840956366
40
0.750573674636383
40
0.750573674636383
40
0.800458939709107
40
0.800458939709107
40
0.85034420478183
40
0.85034420478183
40
0.875286837318192
40
0.875286837318192
40
0.900229469854554
40
0.900229469854554
40
0.950114734927277
40
0.950114734927277
40
1
40
1
40
1
40
1
41
1
10
20.4089556858822
20
1.49434536458566
30
0
41
1
10
20.415858173718
20
1.49434825986239
30
0
41
1
10
20.4227599493816
20
1.4943381529325
30
0
41
1
10
20.7297121420627
20
1.49331061261114
30
0
41
1
10
21.0284303856542
20
1.46770941930131
30
0
41
1
10
21.4792525675541
20
1.39384401011026
30
0
41
1
10
21.6299885579432
20
1.36332899602092
30
0
41
1
10
21.8194260802863
20
1.31796057921855
30
0
41
1
10
21.8573960063524
20
1.3085177424976
30
0
41
1
10
21.9333025910048
20
1.28895323255963
30
0
41
1
10
22.0469875857491
20
1.25862247423015
30
0
41
1
10
22.1602060017052
20
1.22541931199231
30
0
41
1
10
22.5368259888622
20
1.1087249490013
30
0
41
1
10
22.835681869522
20
0.996145605037526
30
0
41
1
10
23.2849680023548
20
0.805336658731619
30
0
41
1
10
23.4349080548927
20
0.738099182099376
30
0
41
1
10
23.6606560624838
20
0.632673518211789
30
0
41
1
10
23.7737358454464
20
0.578811777754851
30
0
41
1
10
23.8872345844867
20
0.52339708345869
30
0
41
1
10
23.9630072103763
20
0.486130667624849
30
0
41
1
10
24.0009836874273
20
0.467317206243394
30
0
41
1
10
24.1905091620711
20
0.3728274923551
30
0
41
1
10
24.3412334284277
20
0.295766532144057
30
0
41
1
10
24.6418063153698
20
0.140506111405955
30
0
41
1
10
24.7916761498112
20
0.0623479359282442
30
0
41
1
10
25.0912225587455
20
-0.0937740097386381
30
0
41
1
10
25.2408900773103
20
-0.171755268698121
30
0
41
1
10
25.5407575905241
20
-0.326101025488839
30
0
41
1
10
25.690963370406
20
-0.402454056135497
30
0
41
1
10
25.9173123388413
20
-0.514518673774489
30
0
41
1
10
25.9929322454112
20
-0.55146883568429
30
0
41
1
10
26.1066877771627
20
-0.606149568746133
30
0
41
1
10
26.1446617254328
20
-0.62425225484688
30
0
41
1
10
26.2204215111658
20
-0.660039358914219
30
0
41
1
10
26.4095446621505
20
-0.748555055056556
30
0
41
1
10
26.5974435960494
20
-0.832061195966702
30
0
41
1
10
26.89738614927
20
-0.957971249562178
30
0
41
1
10
27.0470226154297
20
-1.0170617788167
30
0
41
1
10
27.3463164706954
20
-1.12655877002984
30
0
41
1
10
27.495971034055
20
-1.17696557250969
30
0
41
1
10
27.7960862331719
20
-1.26800197350917
30
0
41
1
10
27.9465493945457
20
-1.30862882850522
30
0
41
1
10
28.1734585151719
20
-1.36142877228104
30
0
41
1
10
28.2494191003763
20
-1.37769093139727
30
0
41
1
10
28.4008600268783
20
-1.40717656127245
30
0
41
1
10
28.4764241659366
20
-1.42042395627874
30
0
41
1
10
28.7028266631815
20
-1.45562603089113
30
0
41
1
10
28.8533769505083
20
-1.4730326099118
30
0
41
1
10
29.1546539957463
20
-1.4956063443197
30
0
41
1
10
29.3054025639724
20
-1.50082596949568
30
0
41
1
10
29.4561489516184
20
-1.49986595490628
30
0
0
SPLINE
5
F3
100
AcDbEntity
8
1
62
256
6
ByLayer
370
18
48
1
60
0
100
AcDbSpline
70
4
71
3
72
8
73
4
40
0
40
0
40
0
40
0
40
1
40
1
40
1
40
1
41
1
10
29.456148951627
20
-1.49986595490555
30
0
41
1
10
29.4481582585778
20
-1.50085555160558
30
0
41
1
10
29.4422868410388
20
-1.49633411466851
30
0
41
1
10
29.4375835123007
20
-1.48629339238303
30
0
0
SPLINE
5
F4
100
AcDbEntity
8
1
62
256
6
ByLayer
370
18
48
1
60
0
100
AcDbSpline
70
4
71
3
72
56
73
52
40
0
40
0
40
0
40
0
40
0.0233252468774689
40
0.0233252468774689
40
0.0466504937549379
40
0.0466504937549379
40
0.0699757406324068
40
0.0699757406324068
40
0.0933009875098757
40
0.0933009875098757
40
0.186601975019759
40
0.186601975019759
40
0.279902962529642
40
0.279902962529642
40
0.303228209407113
40
0.303228209407113
40
0.314890832845849
40
0.314890832845849
40
0.326553456284584
40
0.326553456284584
40
0.373203950039522
40
0.373203950039522
40
0.41985444379446
40
0.41985444379446
40
0.466504937549397
40
0.466504937549397
40
0.559805925059275
40
0.559805925059275
40
0.583131171936744
40
0.583131171936744
40
0.606456418814212
40
0.606456418814212
40
0.653106912569147
40
0.653106912569147
40
0.699757406324082
40
0.699757406324082
40
0.746407900079017
40
0.746407900079017
40
0.793058393833952
40
0.793058393833952
40
0.81638364071142
40
0.81638364071142
40
0.839708887588889
40
0.839708887588889
40
0.886359381343826
40
0.886359381343826
40
0.933009875098763
40
0.933009875098763
40
0.979660368853699
40
0.979660368853699
40
1
40
1
40
1
40
1
41
1
10
29.4375835123007
20
-1.48629339238272
30
0
41
1
10
29.3700968572121
20
-1.48147059874276
30
0
41
1
10
29.3027120552832
20
-1.47539237813581
30
0
41
1
10
29.1679021168292
20
-1.46081673899028
30
0
41
1
10
29.1005043904451
20
-1.45231247471429
30
0
41
1
10
28.9656565457767
20
-1.43291672476312
30
0
41
1
10
28.8982056437334
20
-1.42202593019394
30
0
41
1
10
28.7631964307553
20
-1.39789304762289
30
0
41
1
10
28.6955853261655
20
-1.38463702380417
30
0
41
1
10
28.3586929071372
20
-1.3129118217328
30
0
41
1
10
28.0918349625435
20
-1.23788801006066
30
0
41
1
10
27.558865942841
20
-1.05826633421594
30
0
41
1
10
27.2927233329335
20
-0.953719340069853
30
0
41
1
10
26.9577536329259
20
-0.808328150086368
30
0
41
1
10
26.8906415177493
20
-0.778521051034744
30
0
41
1
10
26.7897420709593
20
-0.732795350535781
30
0
41
1
10
26.7560707618594
20
-0.717383621882703
30
0
41
1
10
26.6886444104138
20
-0.686230574017259
30
0
41
1
10
26.6548653328927
20
-0.670477920352596
30
0
41
1
10
26.4860255343769
20
-0.591051209099874
30
0
41
1
10
26.3516983372464
20
-0.525634420238532
30
0
41
1
10
26.0839235620846
20
-0.392227650365385
30
0
41
1
10
25.9504565636553
20
-0.324275213901018
30
0
41
1
10
25.6838763338687
20
-0.186819838660739
30
0
41
1
10
25.5507892693683
20
-0.117265611703459
30
0
41
1
10
25.1511645328611
20
0.091986189822336
30
0
41
1
10
24.8841659603047
20
0.232082060262059
30
0
41
1
10
24.5469137428688
20
0.402492829919709
30
0
41
1
10
24.4792283168919
20
0.436363366306182
30
0
41
1
10
24.3443993102778
20
0.503032388022831
30
0
41
1
10
24.2771440614912
20
0.535891626283302
30
0
41
1
10
24.0757808343715
20
0.632927204750388
30
0
41
1
10
23.9420933310222
20
0.695592908628868
30
0
41
1
10
23.6752647034521
20
0.815920892557784
30
0
41
1
10
23.5420674714407
20
0.873487335319993
30
0
41
1
10
23.2755347572037
20
0.982541951000883
30
0
41
1
10
23.1422045544054
20
1.03404233025748
30
0
41
1
10
22.8749908085775
20
1.13031268951585
30
0
41
1
10
22.7410564097377
20
1.17500883699424
30
0
41
1
10
22.539228568626
20
1.23625432369846
30
0
41
1
10
22.471760697783
20
1.25571427152445
30
0
41
1
10
22.3366160739237
20
1.29256844000611
30
0
41
1
10
22.2692325951304
20
1.30989040869611
30
0
41
1
10
22.0675398836966
20
1.35847688008374
30
0
41
1
10
21.9336554060961
20
1.38632880699078
30
0
41
1
10
21.6664512927278
20
1.43269872953439
30
0
41
1
10
21.5331326157216
20
1.45122314854987
30
0
41
1
10
21.2666134484572
20
1.47877693240224
30
0
41
1
10
21.1333791925355
20
1.48778733189204
30
0
41
1
10
20.9416777189894
20
1.49375483193433
30
0
41
1
10
20.883422870375
20
1.4946449532824
30
0
41
1
10
20.8250990589701
20
1.49460626834406
30
0
0
SPLINE
5
F5
100
AcDbEntity
8
1
62
256
6
ByLayer
370
18
48
1
60
0
100
AcDbSpline
70
4
71
3
72
60
73
56
40
0
40
0
40
0
40
0
40
0.0044347743041094
40
0.0044347743041094
40
0.0496877391084626
40
0.0496877391084626
40
0.0723142215106392
40
0.0723142215106392
40
0.0836274627117267
40
0.0836274627117267
40
0.0949407039128139
40
0.0949407039128139
40
0.140193668717165
40
0.140193668717165
40
0.185446633521516
40
0.185446633521516
40
0.230699598325868
40
0.230699598325868
40
0.275952563130219
40
0.275952563130219
40
0.32120552793457
40
0.32120552793457
40
0.332518769135659
40
0.332518769135659
40
0.343832010336747
40
0.366458492738923
40
0.366458492738923
40
0.411711457543276
40
0.411711457543276
40
0.45696442234763
40
0.45696442234763
40
0.547470351956336
40
0.547470351956336
40
0.558783593157425
40
0.558783593157425
40
0.570096834358516
40
0.570096834358516
40
0.592723316760697
40
0.592723316760697
40
0.63797628156506
40
0.63797628156506
40
0.728482211173788
40
0.728482211173788
40
0.773735175978151
40
0.773735175978151
40
0.796361658380334
40
0.796361658380334
40
0.807674899581426
40
0.807674899581426
40
0.818988140782518
40
0.864241105586889
40
0.864241105586889
40
0.909494070391259
40
0.909494070391259
40
1
40
1
40
1
40
1
41
1
10
12.5995640663589
20
-1.43539320371605
30
0
41
1
10
12.5864775750555
20
-1.43720080342496
30
0
41
1
10
12.5733887623468
20
-1.43896354803192
30
0
41
1
10
12.4267111360229
20
-1.45820921453924
30
0
41
1
10
12.292867690287
20
-1.47106916853426
30
0
41
1
10
12.0914972268978
20
-1.48312400337412
30
0
41
1
10
12.0242476542557
20
-1.48592687776556
30
0
41
1
10
11.923106805837
20
-1.48827744552787
30
0
41
1
10
11.8893500894183
20
-1.48875235621381
30
0
41
1
10
11.821742571822
20
-1.48908095301007
30
0
41
1
10
11.7879103801098
20
-1.48893392483865
30
0
41
1
10
11.6190939614293
20
-1.48665305366038
30
0
41
1
10
11.484686552816
20
-1.47989616240486
30
0
41
1
10
11.2168432126702
20
-1.45675920031923
30
0
41
1
10
11.0832919404753
20
-1.44040525834456
30
0
41
1
10
10.8163478360371
20
-1.39855556037378
30
0
41
1
10
10.6829671034259
20
-1.37306395896445
30
0
41
1
10
10.4160793683834
20
-1.31312065990693
30
0
41
1
10
10.2824599043264
20
-1.27875314718801
30
0
41
1
10
10.0142931248056
20
-1.20172471148027
30
0
41
1
10
9.8797602585384
20
-1.15905878490324
30
0
41
1
10
9.71080648753986
20
-1.10064044638264
30
0
41
1
10
9.67697115846846
20
-1.08870713381123
30
0
41
1
10
9.60944142279024
20
-1.06445212264504
30
0
41
1
10
9.50826753857967
20
-1.02745400156928
30
0
41
1
10
9.40741835920957
20
-0.988675800536527
30
0
41
1
10
9.20605418864113
20
-0.908920944435778
30
0
41
1
10
9.07225860035527
20
-0.852821025027453
30
0
41
1
10
8.80522008091921
20
-0.735356791100116
30
0
41
1
10
8.67188911432149
20
-0.674135342694797
30
0
41
1
10
8.27162147875515
20
-0.484492087513047
30
0
41
1
10
8.00442958614534
20
-0.350053447228987
30
0
41
1
10
7.70100946780519
20
-0.194203204299811
30
0
41
1
10
7.66725701346459
20
-0.176822207324079
30
0
41
1
10
7.59966506819129
20
-0.141947654023539
30
0
41
1
10
7.56580856655853
20
-0.12444558819783
30
0
41
1
10
7.46445057395263
20
-0.0719829956000524
30
0
41
1
10
7.39705165120216
20
-0.0370101112569898
30
0
41
1
10
7.19526124567901
20
0.0676830726894195
30
0
41
1
10
7.06127232963092
20
0.137170349842108
30
0
41
1
10
6.66012679045207
20
0.343190109477433
30
0
41
1
10
6.39378546284354
20
0.477261700143004
30
0
41
1
10
5.99260505896194
20
0.667198822636152
30
0
41
1
10
5.85861306702722
20
0.728673717088014
30
0
41
1
10
5.65677461923474
20
0.817287583806092
30
0
41
1
10
5.58935235987846
20
0.846224226111303
30
0
41
1
10
5.48795244697263
20
0.888630728149735
30
0
41
1
10
5.45408380262714
20
0.902609864095041
30
0
41
1
10
5.38645057167048
20
0.930139807860513
30
0
41
1
10
5.21754651680433
20
0.997930030557285
30
0
41
1
10
5.04942631446772
20
1.06042304100726
30
0
41
1
10
4.78100270174625
20
1.15310540696612
30
0
41
1
10
4.64703555851787
20
1.1957328664966
30
0
41
1
10
4.24489712218534
20
1.31136382274306
30
0
41
1
10
3.97647758498871
20
1.37212389015337
30
0
41
1
10
3.70562774090376
20
1.41435708793935
30
0
0
SPLINE
5
F6
100
AcDbEntity
8
1
62
256
6
ByLayer
370
18
48
1
60
0
100
AcDbSpline
70
4
71
3
72
10
73
6
40
0
40
0
40
0
40
0
40
0.5
40
0.5
40
1
40
1
40
1
40
1
41
1
10
3.70562774090408
20
1.41435708793929
30
0
41
1
10
3.69090655350189
20
1.41665253994998
30
0
41
1
10
3.67639788502805
20
1.41899647499767
30
0
41
1
10
3.64814815422704
20
1.42389859160451
30
0
41
1
10
3.63440336068234
20
1.4264592460047
30
0
41
1
10
3.62156104496805
20
1.42930569599358
30
0
0
SPLINE
5
F7
100
AcDbEntity
8
1
62
256
6
ByLayer
370
18
48
1
60
0
100
AcDbSpline
70
4
71
3
72
16
73
12
40
0
40
0
40
0
40
0
40
0.250000000000001
40
0.250000000000001
40
0.500000000000001
40
0.500000000000001
40
0.750000000000002
40
0.750000000000002
40
0.875000000000001
40
0.875000000000001
40
1
40
1
40
1
40
1
41
1
10
3.62156104496796
20
1.42930569599361
30
0
41
1
10
3.61456316984737
20
1.43085674815603
30
0
41
1
10
3.60811969610029
20
1.43250565440101
30
0
41
1
10
3.59643172745564
20
1.43598280635504
30
0
41
1
10
3.5911536218556
20
1.43782315381813
30
0
41
1
10
3.58219691179372
20
1.44163745427855
30
0
41
1
10
3.57859378236822
20
1.44357218208003
30
0
41
1
10
3.57476791541978
20
1.44651232344657
30
0
41
1
10
3.5737607023521
20
1.44750168734149
30
0
41
1
10
3.57240318667414
20
1.44944646944038
30
0
41
1
10
3.57204300974127
20
1.45040749371086
30
0
41
1
10
3.5720480748148
20
1.45135726844086
30
0
0
SPLINE
5
F8
100
AcDbEntity
8
1
62
256
6
ByLayer
370
18
48
1
60
0
100
AcDbSpline
70
4
71
3
72
10
73
6
40
0
40
0
40
0
40
0
40
0.819190493254859
40
0.819190493254859
40
1
40
1
40
1
40
1
41
1
10
3.57204807481605
20
1.45135726844092
30
0
41
1
10
3.57214287584256
20
1.46913383541488
30
0
41
1
10
3.57223073470377
20
1.47956424423197
30
0
41
1
10
3.57233176982913
20
1.48347501395691
30
0
41
1
10
3.57234978849127
20
1.48382812390193
30
0
41
1
10
3.57236757474541
20
1.48382323953084
30
0
0
SPLINE
5
F9
100
AcDbEntity
8
1
62
256
6
ByLayer
370
18
48
1
60
0
100
AcDbSpline
70
4
71
3
72
60
73
56
40
0
40
0
40
0
40
0
40
0.003458590295947
40
0.003458590295947
40
0.0620786732197196
40
0.0620786732197196
40
0.0913887146816044
40
0.0913887146816044
40
0.120698756143489
40
0.120698756143489
40
0.179318839067259
40
0.179318839067259
40
0.208628880529144
40
0.208628880529144
40
0.237938921991029
40
0.237938921991029
40
0.296559004914799
40
0.296559004914799
40
0.355179087838569
40
0.355179087838569
40
0.413799170762339
40
0.413799170762339
40
0.443109212224222
40
0.443109212224222
40
0.472419253686105
40
0.472419253686105
40
0.531039336609873
40
0.531039336609873
40
0.560349378071756
40
0.560349378071756
40
0.58965941953364
40
0.58965941953364
40
0.618969460995523
40
0.618969460995523
40
0.648279502457407
40
0.648279502457407
40
0.706899585381176
40
0.706899585381176
40
0.765519668304946
40
0.765519668304946
40
0.79482970976683
40
0.79482970976683
40
0.824139751228713
40
0.824139751228713
40
0.882759834152477
40
0.882759834152477
40
0.897414854883418
40
0.897414854883418
40
0.912069875614358
40
0.912069875614358
40
0.941379917076239
40
0.941379917076239
40
0.970689958538119
40
0.970689958538119
40
1
40
1
40
1
40
1
41
1
10
9.05058019855258
20
1.06244776155248
30
0
41
1
10
9.05740514218661
20
1.06493477300924
30
0
41
1
10
9.06423009390892
20
1.0674124630508
30
0
41
1
10
9.18673332054411
20
1.11171584701575
30
0
41
1
10
9.30232886230596
20
1.15098725231664
30
0
41
1
10
9.47609326037167
20
1.20541714732704
30
0
41
1
10
9.53409855388585
20
1.22279206451719
30
0
41
1
10
9.65020480614069
20
1.25609007014768
30
0
41
1
10
9.70830797226841
20
1.27200923716026
30
0
41
1
10
9.88281317739322
20
1.31750276142534
30
0
41
1
10
9.99938425753612
20
1.34483134755376
30
0
41
1
10
10.1750546543446
20
1.38077563960474
30
0
41
1
10
10.2337726739187
20
1.39191582342232
30
0
41
1
10
10.35075289364
20
1.41237347663736
30
0
41
1
10
10.4091115154491
20
1.42170456969904
30
0
41
1
10
10.5839457321048
20
1.44694909629192
30
0
41
1
10
10.7002647575724
20
1.46009256265572
30
0
41
1
10
10.9322653491595
20
1.47924357598819
30
0
41
1
10
11.047956543336
20
1.48521943060174
30
0
41
1
10
11.2792445095261
20
1.48984981161809
30
0
41
1
10
11.3948627459665
20
1.48851159449987
30
0
41
1
10
11.5684804498073
20
1.4810231906236
30
0
41
1
10
11.6264064545381
20
1.47761604780584
30
0
41
1
10
11.742445542613
20
1.4690096716397
30
0
41
1
10
11.8005344202794
20
1.4638055443157
30
0
41
1
10
11.9749791167797
20
1.44545665484796
30
0
41
1
10
12.0915137632034
20
1.42956647932104
30
0
41
1
10
12.2670169540201
20
1.40024318618083
30
0
41
1
10
12.3257243430678
20
1.38954578751012
30
0
41
1
10
12.442777958561
20
1.36649348764439
30
0
41
1
10
12.5011681245424
20
1.3541188367987
30
0
41
1
10
12.6177415834268
20
1.32774319139574
30
0
41
1
10
12.6759238654587
20
1.31374022305275
30
0
41
1
10
12.7922154037764
20
1.28425754217827
30
0
41
1
10
12.8503141640825
20
1.26877049621177
30
0
41
1
10
13.0243789954511
20
1.21999965340422
30
0
41
1
10
13.1401276641401
20
1.18441416529336
30
0
41
1
10
13.3713967653719
20
1.10749644088645
30
0
41
1
10
13.4869883612599
20
1.06625573752456
30
0
41
1
10
13.6605341767303
20
1.00051197557173
30
0
41
1
10
13.7184075817576
20
0.977946578424394
30
0
41
1
10
13.8343179745435
20
0.931683021217225
30
0
41
1
10
13.8923725790697
20
0.908014328513161
30
0
41
1
10
14.0667503048398
20
0.83526844064582
30
0
41
1
10
14.1832589011234
20
0.784401024680221
30
0
41
1
10
14.329410597132
20
0.718072457466349
30
0
41
1
10
14.3586682847734
20
0.704672181196713
30
0
41
1
10
14.4172490439376
20
0.6776190703834
30
0
41
1
10
14.4465769621264
20
0.663963776954176
30
0
41
1
10
14.5343996248571
20
0.622778486489892
30
0
41
1
10
14.5928295845936
20
0.594996769066341
30
0
41
1
10
14.7094491150135
20
0.538779604884212
30
0
41
1
10
14.7676426130694
20
0.510351383301128
30
0
41
1
10
14.8838909796603
20
0.453036431788263
30
0
41
1
10
14.9419657576793
20
0.424187861859195
30
0
41
1
10
14.9999999999895
20
0.395166954180496
30
0
0
SPLINE
5
FA
100
AcDbEntity
8
1
62
256
6
ByLayer
370
18
48
1
60
0
100
AcDbSpline
70
4
71
3
72
38
73
34
40
0
40
0
40
0
40
0
40
0.0836540042479886
40
0.0836540042479886
40
0.125481006371983
40
0.125481006371983
40
0.167308008495977
40
0.167308008495977
40
0.250962012743966
40
0.250962012743966
40
0.334616016991954
40
0.334616016991954
40
0.418270021239943
40
0.418270021239943
40
0.460097023363937
40
0.460097023363937
40
0.481010524425935
40
0.481010524425935
40
0.501924025487932
40
0.501924025487932
40
0.585578029735927
40
0.585578029735927
40
0.669232033983921
40
0.669232033983921
40
0.752886038231916
40
0.752886038231916
40
0.836540042479911
40
0.836540042479911
40
0.87836704460391
40
0.87836704460391
40
0.920194046727909
40
0.920194046727909
40
1
40
1
40
1
40
1
41
1
10
15
20
0.461974317986289
30
0
41
1
10
15.1517804558854
20
0.386997156264215
30
0
41
1
10
15.3033000590196
20
0.310268099281444
30
0
41
1
10
15.5307336004142
20
0.193580824688468
30
0
41
1
10
15.6065700445632
20
0.154418525972687
30
0
41
1
10
15.7583912175621
20
0.075745683633528
30
0
41
1
10
15.8344330217331
20
0.0362055221023354
30
0
41
1
10
16.0617485771799
20
-0.0820214303789442
30
0
41
1
10
16.2125749537993
20
-0.16049917988272
30
0
41
1
10
16.5136310101072
20
-0.315173830693425
30
0
41
1
10
16.6638671122127
20
-0.391359431222639
30
0
41
1
10
16.964497616196
20
-0.540030185633981
30
0
41
1
10
17.1148872789259
20
-0.612523038153824
30
0
41
1
10
17.341202191581
20
-0.717343514140254
30
0
41
1
10
17.4167630444048
20
-0.751629267866747
30
0
41
1
10
17.5303696466147
20
-0.801926795045517
30
0
41
1
10
17.5682830289488
20
-0.818503639918845
30
0
41
1
10
17.6442099236887
20
-0.851258847784777
30
0
41
1
10
17.682212521017
20
-0.867432461996287
30
0
41
1
10
17.8717796997352
20
-0.946961919428475
30
0
41
1
10
18.0225704146011
20
-1.00655757195514
30
0
41
1
10
18.3231743417472
20
-1.11677298693141
30
0
41
1
10
18.4729895784792
20
-1.16738488048443
30
0
41
1
10
18.7724944928897
20
-1.25861558720669
30
0
41
1
10
18.9221934829155
20
-1.29922452894877
30
0
41
1
10
19.2223109851211
20
-1.36957199049593
30
0
41
1
10
19.372704944601
20
-1.39933784654113
30
0
41
1
10
19.599335921029
20
-1.43530029974369
30
0
41
1
10
19.6750541797526
20
-1.44583869730914
30
0
41
1
10
19.8269429428387
20
-1.46391231723504
30
0
41
1
10
19.9026787088306
20
-1.47139491038936
30
0
41
1
10
20.1223430703683
20
-1.48863275150967
30
0
41
1
10
20.2658025208202
20
-1.49428531750289
30
0
41
1
10
20.4089556512493
20
-1.49434536457036
30
0
0
SPLINE
5
FB
100
AcDbEntity
8
1
62
256
6
ByLayer
370
18
48
1
60
0
100
AcDbSpline
70
4
71
3
72
8
73
4
40
0
40
0
40
0
40
0
40
1
40
1
40
1
40
1
41
1
10
29.3139228734994
20
1.49894154161473
30
0
41
1
10
29.3613294545337
20
1.49985857564965
30
0
41
1
10
29.4087393109163
20
1.50016787886835
30
0
41
1
10
29.4561489516181
20
1.49986595490543
30
0
0
SPLINE
5
FC
100
AcDbEntity
8
1
62
256
6
ByLayer
370
18
48
1
60
0
100
AcDbSpline
70
4
71
3
72
16
73
12
40
0
40
0
40
0
40
0
40
0.25
40
0.25
40
0.5
40
0.5
40
0.75
40
0.75
40
0.875
40
0.875
40
1
40
1
40
1
40
1
41
1
10
0.832455673476318
20
1.49228774796879
30
0
41
1
10
0.83915958289947
20
1.42534950719047
30
0
41
1
10
0.845507387892098
20
1.3586828003364
30
0
41
1
10
0.85456383452555
20
1.22648573308243
30
0
41
1
10
0.857210936177069
20
1.16096832999901
30
0
41
1
10
0.857303885373653
20
1.03141944761129
30
0
41
1
10
0.854741303851881
20
0.967390845866419
30
0
41
1
10
0.847940209670128
20
0.872303037967356
30
0
41
1
10
0.845203700327346
20
0.840779622308389
30
0
41
1
10
0.839158762357897
20
0.778106980808701
30
0
41
1
10
0.835850803561499
20
0.746936250289394
30
0
41
1
10
0.832455673474499
20
0.715864239682134
30
0
0
SPLINE
5
FD
100
AcDbEntity
8
SK1
62
256
6
ByLayer
370
18
48
1
60
0
100
AcDbSpline
70
4
71
3
72
8
73
4
40
0
40
0
40
0
40
0
40
1
40
1
40
1
40
1
41
1
10
-35.75
20
0.844433649077075
30
0
41
1
10
-35.8336561661515
20
0.840592379349374
30
0
41
1
10
-35.9170311395139
20
0.836740010023476
30
0
41
1
10
-36
20
0.832871610095395
30
0
0
SPLINE
5
FE
100
AcDbEntity
8
SK1
62
256
6
ByLayer
370
18
48
1
60
0
100
AcDbSpline
70
4
71
3
72
22
73
18
40
0
40
0
40
0
40
0
40
0.0624999999999991
40
0.0624999999999991
40
0.124999999999998
40
0.124999999999998
40
0.249999999999998
40
0.249999999999998
40
0.374999999999997
40
0.374999999999997
40
0.499999999999997
40
0.499999999999997
40
0.624999999999996
40
0.624999999999996
40
0.749999999999996
40
0.749999999999996
40
1
40
1
40
1
40
1
41
1
10
-35.65
20
0.750424659884686
30
0
41
1
10
-35.65
20
0.754601597628835
30
0
41
1
10
-35.6502718625116
20
0.758726927273955
30
0
41
1
10
-35.6512913537383
20
0.766678916195588
30
0
41
1
10
-35.6520306616353
20
0.770480180758739
30
0
41
1
10
-35.6548298331892
20
0.781440933259546
30
0
41
1
10
-35.6575061477626
20
0.788222645885071
30
0
41
1
10
-35.6638377028973
20
0.800340996287531
30
0
41
1
10
-35.6674983604362
20
0.80574116849013
30
0
41
1
10
-35.6756152593952
20
0.815489235057157
30
0
41
1
10
-35.6800682716845
20
0.819809794799141
30
0
41
1
10
-35.6893907621078
20
0.827296881143269
30
0
41
1
10
-35.6942953643167
20
0.830503979496456
30
0
41
1
10
-35.7045487034337
20
0.835955622499455
30
0
41
1
10
-35.7099308492529
20
0.838208562663596
30
0
41
1
10
-35.7265025632837
20
0.843455727214433
30
0
41
1
10
-35.7380005522051
20
0.844984631959704
30
0
41
1
10
-35.7500000000001
20
0.844433649077189
30
0
0
SPLINE
5
FF
100
AcDbEntity
8
SK1
62
256
6
ByLayer
370
18
48
1
60
0
100
AcDbSpline
70
4
71
3
72
22
73
18
40
0
40
0
40
0
40
0
40
0.249999999999999
40
0.249999999999999
40
0.374999999999999
40
0.374999999999999
40
0.499999999999999
40
0.499999999999999
40
0.624999999999998
40
0.624999999999998
40
0.749999999999998
40
0.749999999999998
40
0.874999999999998
40
0.874999999999998
40
0.937499999999999
40
0.937499999999999
40
1
40
1
40
1
40
1
41
1
10
-35.75
20
-0.654150352333261
30
0
41
1
10
-35.737995701924
20
-0.653599146738685
30
0
41
1
10
-35.72648672861
20
-0.650950783699187
30
0
41
1
10
-35.7098920298463
20
-0.643992907162215
30
0
41
1
10
-35.7045257114215
20
-0.641178881498718
30
0
41
1
10
-35.6942965206181
20
-0.634632485547684
30
0
41
1
10
-35.6894060572726
20
-0.63089007072179
30
0
41
1
10
-35.6801144437816
20
-0.622364127442012
30
0
41
1
10
-35.6756962826689
20
-0.617563595648051
30
0
41
1
10
-35.6675285063472
20
-0.606750695001523
30
0
41
1
10
-35.6638529333099
20
-0.600845842610568
30
0
41
1
10
-35.6575076283548
20
-0.58780042083626
30
0
41
1
10
-35.6548318257138
20
-0.580596982877921
30
0
41
1
10
-35.6520304473164
20
-0.569090640277466
30
0
41
1
10
-35.6512905782853
20
-0.565121934554668
30
0
41
1
10
-35.6502707318343
20
-0.556868925163457
30
0
41
1
10
-35.65
20
-0.552621457530847
30
0
41
1
10
-35.65
20
-0.548348141337499
30
0
0
SPLINE
5
100
100
AcDbEntity
8
SK1
62
256
6
ByLayer
370
18
48
1
60
0
100
AcDbSpline
70
4
71
3
72
8
73
4
40
0
40
0
40
0
40
0
40
1
40
1
40
1
40
1
41
1
10
-35.9999999999999
20
-0.665712391314827
30
0
41
1
10
-35.9170310333547
20
-0.661843986437106
30
0
41
1
10
-35.833656071342
20
-0.657991617707438
30
0
41
1
10
-35.7499999999999
20
-0.654150352333147
30
0
0
SPLINE
5
101
100
AcDbEntity
8
SK1
62
256
6
ByLayer
370
18
48
1
60
0
100
AcDbSpline
70
4
71
3
72
22
73
18
40
0
40
0
40
0
40
0
40
0.249999999999997
40
0.249999999999997
40
0.374999999999998
40
0.374999999999998
40
0.499999999999999
40
0.499999999999999
40
0.625
40
0.625
40
0.750000000000001
40
0.750000000000001
40
0.875000000000002
40
0.875000000000002
40
0.937500000000001
40
0.937500000000001
40
1
40
1
40
1
40
1
41
1
10
-35.75
20
0.654150352333261
30
0
41
1
10
-35.737995701924
20
0.653599146738685
30
0
41
1
10
-35.72648672861
20
0.650950783699187
30
0
41
1
10
-35.7098920298463
20
0.643992907162215
30
0
41
1
10
-35.7045257114215
20
0.641178881498746
30
0
41
1
10
-35.6942965206181
20
0.634632485547712
30
0
41
1
10
-35.6894060572726
20
0.63089007072179
30
0
41
1
10
-35.6801144437816
20
0.622364127442012
30
0
41
1
10
-35.6756962826689
20
0.617563595648051
30
0
41
1
10
-35.6675285063472
20
0.606750695001523
30
0
41
1
10
-35.6638529333099
20
0.600845842610568
30
0
41
1
10
-35.6575076283548
20
0.58780042083626
30
0
41
1
10
-35.6548318257138
20
0.580596982877921
30
0
41
1
10
-35.6520304473164
20
0.569090640277466
30
0
41
1
10
-35.6512905782853
20
0.565121934554668
30
0
41
1
10
-35.6502707318343
20
0.556868925163457
30
0
41
1
10
-35.65
20
0.552621457530847
30
0
41
1
10
-35.65
20
0.548348141337527
30
0
0
SPLINE
5
102
100
AcDbEntity
8
SK1
62
256
6
ByLayer
370
18
48
1
60
0
100
AcDbSpline
70
4
71
3
72
8
73
4
40
0
40
0
40
0
40
0
40
1
40
1
40
1
40
1
41
1
10
-35.9999999999999
20
0.665712391314827
30
0
41
1
10
-35.9170310333547
20
0.661843986437106
30
0
41
1
10
-35.833656071342
20
0.657991617707467
30
0
41
1
10
-35.7499999999999
20
0.654150352333147
30
0
0
SPLINE
5
103
100
AcDbEntity
8
1
62
256
6
ByLayer
370
18
48
1
60
0
100
AcDbSpline
70
4
71
1
72
4
73
2
40
0
40
0
40
1
40
1
41
1
10
29.3014532637569
20
1.44066683649913
30
0
41
1
10
29.4846786588656
20
1.44118030790156
30
0
0
SPLINE
5
104
100
AcDbEntity
8
1
62
256
6
ByLayer
370
18
48
1
60
0
100
AcDbSpline
70
4
71
3
72
11
73
7
40
0
40
0
40
0
40
0
40
0.12874830911153
40
0.375840273286227
40
0.722705784314388
40
1
40
1
40
1
40
1
41
1
10
29.4969608419469
20
0.148273962167423
30
0
41
1
10
29.4241639050889
20
0.174544590610907
30
0
41
1
10
29.2118393289505
20
0.251778033095206
30
0
41
1
10
28.8046286672518
20
0.403634323000091
30
0
41
1
10
28.3155596135292
20
0.591696766839362
30
0
41
1
10
27.9674004655371
20
0.732220837470976
30
0
41
1
10
27.8131021756313
20
0.795651715923952
30
0
0
SPLINE
5
105
100
AcDbEntity
8
1
62
256
6
ByLayer
370
18
48
1
60
0
100
AcDbSpline
70
4
71
3
72
22
73
18
40
0
40
0
40
0
40
0
40
0.0001081463602058
40
0.0002505053823357
40
0.0003837656850982
40
0.0005135212141553
40
0.0009800731822557
40
0.0055429004964871
40
0.0093616303233398
40
0.0166995018732054
40
0.0313926084747245
40
0.0607063940343402
40
0.247631280516561
40
0.441518823331078
40
0.607009054527872
40
0.827676609333428
40
1
40
1
40
1
40
1
41
1
10
12.1611029905063
20
-0.0843492023799115
30
0
41
1
10
12.1611123463172
20
-0.0843504942111224
30
0
41
1
10
12.1611132345083
20
-0.084346339708901
30
0
41
1
10
12.1610141402216
20
-0.0843058287013321
30
0
41
1
10
12.1608064227346
20
-0.0842291114003615
30
0
41
1
10
12.1603322658142
20
-0.0840592274390133
30
0
41
1
10
12.1563840462036
20
-0.0826778270567274
30
0
41
1
10
12.1493845177078
20
-0.080275704767871
30
0
41
1
10
12.1371426142093
20
-0.0760380845281929
30
0
41
1
10
12.1169309370712
20
-0.0690588704746347
30
0
41
1
10
12.0768285966128
20
-0.0551987407727665
30
0
41
1
10
11.8964428315164
20
0.0073159784861616
30
0
41
1
10
11.5765838693087
20
0.120096198784637
30
0
41
1
10
11.1519589718309
20
0.274846192760066
30
0
41
1
10
10.7028767887251
20
0.443657657041115
30
0
41
1
10
10.2719286126554
20
0.60996371705366
30
0
41
1
10
9.97056871958162
20
0.73171086298882
30
0
41
1
10
9.83872863143699
20
0.785864047800118
30
0
0
SPLINE
5
106
100
AcDbEntity
8
1
62
256
6
ByLayer
370
18
48
1
60
0
100
AcDbSpline
70
4
71
3
72
25
73
21
40
0
40
0
40
0
40
0
40
2.711707195E-05
40
0.0001421582298118
40
0.0002473512378325
40
0.0003486384209727
40
0.000551501006735
40
0.0007560917833947
40
0.0026735107286544
40
0.0042388607652048
40
0.0071333333664269
40
0.0126479422877454
40
0.0235984771450557
40
0.115357747403326
40
0.226867848961058
40
0.328149282605748
40
0.42074051326705
40
0.587372999543378
40
0.824943707722381
40
1
40
1
40
1
40
1
41
1
10
21.1155794722593
20
-0.0688450919329284
30
0
41
1
10
21.1155814987734
20
-0.068844991601793
30
0
41
1
10
21.115589722426
20
-0.0688436376017307
30
0
41
1
10
21.1155808536898
20
-0.0688333115933233
30
0
41
1
10
21.1155038586658
20
-0.0687979932023666
30
0
41
1
10
21.1153343081586
20
-0.068729923190233
30
0
41
1
10
21.1150253811071
20
-0.0686147159991606
30
0
41
1
10
21.1133686818226
20
-0.0680213853913187
30
0
41
1
10
21.1103918175117
20
-0.0670051633341018
30
0
41
1
10
21.1054545744588
20
-0.0653103217215971
30
0
41
1
10
21.097673203914
20
-0.0626309626423449
30
0
41
1
10
21.0826103747821
20
-0.057445065726057
30
0
41
1
10
20.9983402603103
20
-0.0283793455313344
30
0
41
1
10
20.8317148332037
20
0.0296301398355752
30
0
41
1
10
20.5952425304389
20
0.113460907463292
30
0
41
1
10
20.3586707550891
20
0.198903327564324
30
0
41
1
10
20.0800152549126
20
0.301212230726748
30
0
41
1
10
19.6971270883709
20
0.445014996115987
30
0
41
1
10
19.252295914864
20
0.616801572893138
30
0
41
1
10
18.9375633377019
20
0.744177393702415
30
0
41
1
10
18.8043598067336
20
0.798984894565137
30
0
0
SPLINE
5
107
100
AcDbEntity
8
1
62
256
6
ByLayer
370
18
48
1
60
0
100
AcDbSpline
70
4
71
3
72
8
73
4
40
0
40
0
40
0
40
0
40
1
40
1
40
1
40
1
41
1
10
5.91399278819017
20
0.438556864563992
30
0
41
1
10
5.90144794732427
20
0.444882651738993
30
0
41
1
10
5.88886081223748
20
0.451269880951429
30
0
41
1
10
5.87623031911656
20
0.457718698248072
30
0
0
SPLINE
5
108
100
AcDbEntity
8
1
62
256
6
ByLayer
370
18
48
1
60
0
100
AcDbSpline
70
4
71
3
72
17
73
13
40
0
40
0
40
0
40
0
40
0.136294420998314
40
0.250088101220329
40
0.340127870091507
40
0.403553352598729
40
0.460634821990103
40
0.531828181060178
40
0.618211929702578
40
0.721416163908367
40
0.846612221900554
40
1
40
1
40
1
40
1
41
1
10
21.0100743721782
20
-1.42006515820711
30
0
41
1
10
21.1918425286668
20
-1.41991227088056
30
0
41
1
10
21.5253373056959
20
-1.41978102402871
30
0
41
1
10
21.9810074064635
20
-1.42062053508889
30
0
41
1
10
22.335918404825
20
-1.42061030454312
30
0
41
1
10
22.6178581953554
20
-1.42145467681121
30
0
41
1
10
22.8738136618727
20
-1.42110300075319
30
0
41
1
10
23.1608575552365
20
-1.42088663392715
30
0
41
1
10
23.5096365911862
20
-1.42149545008849
30
0
41
1
10
23.9293786388005
20
-1.42057664433105
30
0
41
1
10
24.4400104869883
20
-1.42234669178791
30
0
41
1
10
24.8111862093105
20
-1.42170976181279
30
0
41
1
10
25.0153864937053
20
-1.42119700777027
30
0
0
SPLINE
5
109
100
AcDbEntity
8
1
62
256
6
ByLayer
370
18
48
1
60
0
100
AcDbSpline
70
4
71
3
72
15
73
11
40
0
40
0
40
0
40
0
40
0.1887626899822
40
0.381102154653753
40
0.537825967996455
40
0.643594613989678
40
0.758900527074306
40
0.852652439896562
40
0.983574394616646
40
1
40
1
40
1
40
1
41
1
10
16.0633434343825
20
1.41756489812386
30
0
41
1
10
15.8463891800456
20
1.41635033682238
30
0
41
1
10
15.4078419612729
20
1.41452227499428
30
0
41
1
10
14.788787272781
20
1.41780769040344
30
0
41
1
10
14.2620344703091
20
1.41569062414536
30
0
41
1
10
13.8250466826501
20
1.41642910626163
30
0
41
1
10
13.4605130205497
20
1.41515033115016
30
0
41
1
10
13.0676158451243
20
1.41560077303066
30
0
41
1
10
12.7884557865776
20
1.41490036831817
30
0
41
1
10
12.6179233772708
20
1.41464080493199
30
0
41
1
10
12.5989140847746
20
1.41461377946783
30
0
0
SPLINE
5
10A
100
AcDbEntity
8
1
62
256
6
ByLayer
370
18
48
1
60
0
100
AcDbSpline
70
4
71
3
72
17
73
13
40
0
40
0
40
0
40
0
40
0.132838650604269
40
0.264321018245898
40
0.349001653204515
40
0.414274551224775
40
0.450924599881386
40
0.495129418392859
40
0.572228485897579
40
0.682391408976329
40
0.82513706707589
40
1
40
1
40
1
40
1
41
1
10
3.75075705712183
20
-1.40806330542264
30
0
41
1
10
3.89669087296517
20
-1.40928232786445
30
0
41
1
10
4.18741861102407
20
-1.41103145193009
30
0
41
1
10
4.5723833709236
20
-1.41074301619935
30
0
41
1
10
4.88319236794183
20
-1.41042633479046
30
0
41
1
10
5.08921767967001
20
-1.41088347595809
30
0
41
1
10
5.25056669459715
20
-1.41142733723566
30
0
41
1
10
5.42497327042781
20
-1.41159364400792
30
0
41
1
10
5.68054180968852
20
-1.41148724718283
30
0
41
1
10
6.0449083721941
20
-1.41229612069515
30
0
41
1
10
6.51725099064296
20
-1.41184186429138
30
0
41
1
10
6.86790993945812
20
-1.41238576905957
30
0
41
1
10
7.06096316551023
20
-1.41273780225049
30
0
0
SPLINE
5
10B
100
AcDbEntity
8
1
62
256
6
ByLayer
370
18
48
1
60
0
100
AcDbSpline
70
4
71
3
72
15
73
11
40
0
40
0
40
0
40
0
40
0.159474161255608
40
0.27135516019524
40
0.351472033499508
40
0.450008148142281
40
0.540394071538507
40
0.674324372471599
40
0.838690475078119
40
1
40
1
40
1
40
1
41
1
10
12.00820624383
20
-1.41418365850836
30
0
41
1
10
12.2240878761599
20
-1.41426597792
30
0
41
1
10
12.5913998927544
20
-1.41440596063907
30
0
41
1
10
13.0676158451243
20
-1.41560077303066
30
0
41
1
10
13.4605130205497
20
-1.41515033115016
30
0
41
1
10
13.8250466826501
20
-1.41642910626163
30
0
41
1
10
14.2620344703091
20
-1.41569062414536
30
0
41
1
10
14.788787272781
20
-1.41780769040344
30
0
41
1
10
15.407841961273
20
-1.41452227499428
30
0
41
1
10
15.8463891800456
20
-1.41635033682238
30
0
41
1
10
16.0633434343825
20
-1.41756489812386
30
0
0
SPLINE
5
10C
100
AcDbEntity
8
1
62
256
6
ByLayer
370
18
48
1
60
0
100
AcDbSpline
70
4
71
3
72
16
73
12
40
0
40
0
40
0
40
0
40
0.181235788189276
40
0.329161565128905
40
0.451102836868497
40
0.553169813559432
40
0.637288539997607
40
0.704733320959495
40
0.779673889601341
40
0.886060647933341
40
1
40
1
40
1
40
1
41
1
10
25.0153864937053
20
1.42119700777027
30
0
41
1
10
24.8111862093105
20
1.42170976181279
30
0
41
1
10
24.4400104869884
20
1.42234669178791
30
0
41
1
10
23.9293786388005
20
1.42057664433105
30
0
41
1
10
23.5096365911862
20
1.42149545008849
30
0
41
1
10
23.1608575552365
20
1.42088663392715
30
0
41
1
10
22.8738136618726
20
1.42110300075319
30
0
41
1
10
22.6178581953554
20
1.42145467681121
30
0
41
1
10
22.335918404825
20
1.42061030454312
30
0
41
1
10
22.0040633287158
20
1.4206198704866
30
0
41
1
10
21.7544332482733
20
1.42019942789477
30
0
41
1
10
21.625453115485
20
1.42005886443596
30
0
0
SPLINE
5
10D
100
AcDbEntity
8
1
62
256
6
ByLayer
370
18
48
1
60
0
100
AcDbSpline
70
4
71
3
72
8
73
4
40
0
40
0
40
0
40
0
40
1
40
1
40
1
40
1
41
1
10
21.0699003535768
20
1.42001796185866
30
0
41
1
10
21.049958158906
20
1.42003259059121
30
0
41
1
10
21.0300163756516
20
1.4200483847543
30
0
41
1
10
21.0100743721782
20
1.42006515820711
30
0
0
SPLINE
5
10E
100
AcDbEntity
8
1
62
256
6
ByLayer
370
18
48
1
60
0
100
AcDbSpline
70
4
71
3
72
16
73
12
40
0
40
0
40
0
40
0
40
0.165965680603918
40
0.291441014265447
40
0.375871948744633
40
0.421073781223678
40
0.461825546202788
40
0.51000643316365
40
0.63144056533844
40
0.808626174669917
40
1
40
1
40
1
40
1
41
1
10
7.06096316551029
20
1.41273780225049
30
0
41
1
10
6.87778727595119
20
1.41238712021075
30
0
41
1
10
6.55608086146626
20
1.41190074422599
30
0
41
1
10
6.14105496355467
20
1.41215656994092
30
0
41
1
10
5.85934878034979
20
1.41180363680243
30
0
41
1
10
5.67131306467167
20
1.4115754800072
30
0
41
1
10
5.52329331874387
20
1.41154750118659
30
0
41
1
10
5.29105642676706
20
1.41161987591946
30
0
41
1
10
4.90810554686379
20
1.40997400838003
30
0
41
1
10
4.36715425184622
20
1.4114890493675
30
0
41
1
10
3.96132657513459
20
1.40929558564372
30
0
41
1
10
3.75080408122926
20
1.40786183735736
30
0
0
LINE
5
82
100
AcDbEntity
8
SK4
62
256
6
ByLayer
370
18
48
0.05
60
0
100
AcDbLine
10
-39
20
0
30
0
11
33
21
0
31
0
39
0
210
0
220
0
230
1
0
LINE
5
84
100
AcDbEntity
8
4
62
256
6
ByLayer
370
18
48
0.05
60
0
100
AcDbLine
10
0
20
0
30
0
11
30
21
0
31
0
39
0
210
0
220
0
230
1
0
LINE
5
86
100
AcDbEntity
8
81
62
256
6
ByLayer
370
18
48
1
60
0
100
AcDbLine
10
30
20
0
30
0
11
33
21
0
31
0
39
0
210
0
220
0
230
1
0
LINE
5
87
100
AcDbEntity
8
80
62
256
6
ByLayer
370
18
48
1
60
0
100
AcDbLine
10
0
20
0
30
0
11
-3
21
0
31
0
39
0
210
0
220
0
230
1
0
LINE
5
88
100
AcDbEntity
8
1
62
256
6
ByLayer
370
13
48
1
60
0
100
AcDbLine
10
29.973046
20
0.023283
30
0
11
29.591502
21
0.444441
31
0
39
0
210
0
220
0
230
1
0
LINE
5
89
100
AcDbEntity
8
1
62
256
6
ByLayer
370
18
48
1
60
0
100
AcDbLine
10
3.750905
20
-1.408444
30
0
11
3.750859
21
-1.409751
31
0
39
0
210
0
220
0
230
1
0
LINE
5
8A
100
AcDbEntity
8
1
62
256
6
ByLayer
370
18
48
1
60
0
100
AcDbLine
10
15
20
0.461974
30
0
11
15
21
0.395167
31
0
39
0
210
0
220
0
230
1
0
LINE
5
8B
100
AcDbEntity
8
1
62
256
6
ByLayer
370
18
48
1
60
0
100
AcDbLine
10
0.832456
20
1.492288
30
0
11
0.832456
21
0.715864
31
0
39
0
210
0
220
0
230
1
0
LINE
5
8C
100
AcDbEntity
8
1
62
256
6
ByLayer
370
13
48
1
60
0
100
AcDbLine
10
1.598398
20
1.482589
30
0
11
1.598398
21
-1.482589
31
0
39
0
210
0
220
0
230
1
0
LINE
5
8D
100
AcDbEntity
8
1
62
256
6
ByLayer
370
13
48
1
60
0
100
AcDbLine
10
0.799238
20
2.236303
30
0
11
0.799238
21
-2.236303
31
0
39
0
210
0
220
0
230
1
0
LINE
5
8E
100
AcDbEntity
8
1
62
256
6
ByLayer
370
13
48
1
60
0
100
AcDbLine
10
0.79866
20
2.246286
30
0
11
0.79866
21
-2.246286
31
0
39
0
210
0
220
0
230
1
0
LINE
5
8F
100
AcDbEntity
8
1
62
256
6
ByLayer
370
18
48
1
60
0
100
AcDbLine
10
0
20
3
30
0
11
0
21
-3
31
0
39
0
210
0
220
0
230
1
0
LINE
5
90
100
AcDbEntity
8
SK1
62
256
6
ByLayer
370
18
48
1
60
0
100
AcDbLine
10
-36
20
0.832872
30
0
11
-36
21
0.665712
31
0
39
0
210
0
220
0
230
1
0
LINE
5
92
100
AcDbEntity
8
SK1
62
256
6
ByLayer
370
13
48
1
60
0
100
AcDbLine
10
-35.75
20
0.65415
30
0
11
-35.75
21
0.844434
31
0
39
0
210
0
220
0
230
1
0
LINE
5
93
100
AcDbEntity
8
SK1
62
256
6
ByLayer
370
18
48
1
60
0
100
AcDbLine
10
0
20
3
30
0
11
0
21
-3
31
0
39
0
210
0
220
0
230
1
0
LINE
5
94
100
AcDbEntity
8
SK1
62
256
6
ByLayer
370
18
48
1
60
0
100
AcDbLine
10
-35.65
20
-0.548348
30
0
11
-35.65
21
0.750425
31
0
39
0
210
0
220
0
230
1
0
LINE
5
95
100
AcDbEntity
8
SK1
62
256
6
ByLayer
370
18
48
1
60
0
100
AcDbLine
10
-36
20
-2.065
30
0
11
-36
21
-0.665712
31
0
39
0
210
0
220
0
230
1
0
LINE
5
96
100
AcDbEntity
8
SK1
62
256
6
ByLayer
370
18
48
1
60
0
100
AcDbLine
10
-36
20
0.832872
30
0
11
-36
21
2.065
31
0
39
0
210
0
220
0
230
1
0
LINE
5
97
100
AcDbEntity
8
SK1
62
256
6
ByLayer
370
18
48
1
60
0
100
AcDbLine
10
-35.065
20
-3
30
0
11
-35.065
21
3
31
0
39
0
210
0
220
0
230
1
0
LINE
5
98
100
AcDbEntity
8
1
62
256
6
ByLayer
370
18
48
1
60
0
100
AcDbLine
10
1.598398
20
-1.482589
30
0
11
3.572351
21
-1.483823
31
0
39
0
210
0
220
0
230
1
0
LINE
5
99
100
AcDbEntity
8
1
62
256
6
ByLayer
370
18
48
1
60
0
100
AcDbLine
10
11.269691
20
-1.488633
30
0
11
11.82535
21
-1.488981
31
0
39
0
210
0
220
0
230
1
0
LINE
5
9A
100
AcDbEntity
8
1
62
256
6
ByLayer
370
18
48
1
60
0
100
AcDbLine
10
20.408468
20
-1.494345
30
0
11
20.82516
21
-1.494606
31
0
39
0
210
0
220
0
230
1
0
LINE
5
9B
100
AcDbEntity
8
1
62
256
6
ByLayer
370
18
48
1
60
0
100
AcDbLine
10
29.473493
20
1.500011
30
0
11
29.41772
21
1.499976
31
0
39
0
210
0
220
0
230
1
0
LINE
5
9C
100
AcDbEntity
8
1
62
256
6
ByLayer
370
18
48
1
60
0
100
AcDbLine
10
20.82516
20
1.494606
30
0
11
20.408468
21
1.494345
31
0
39
0
210
0
220
0
230
1
0
LINE
5
9D
100
AcDbEntity
8
1
62
256
6
ByLayer
370
18
48
1
60
0
100
AcDbLine
10
11.82535
20
1.488981
30
0
11
11.269691
21
1.488633
31
0
39
0
210
0
220
0
230
1
0
LINE
5
9E
100
AcDbEntity
8
1
62
256
6
ByLayer
370
18
48
1
60
0
100
AcDbLine
10
3.572351
20
1.483823
30
0
11
1.598398
21
1.482589
31
0
39
0
210
0
220
0
230
1
0
LINE
5
9F
100
AcDbEntity
8
1
62
256
6
ByLayer
370
18
48
1
60
0
100
AcDbLine
10
0.799238
20
2.236303
30
0
11
0.79866
21
2.246286
31
0
39
0
210
0
220
0
230
1
0
LINE
5
A0
100
AcDbEntity
8
1
62
256
6
ByLayer
370
18
48
1
60
0
100
AcDbLine
10
0.79866
20
-2.246286
30
0
11
0.799238
21
-2.236303
31
0
39
0
210
0
220
0
230
1
0
LINE
5
A1
100
AcDbEntity
8
SK1
62
256
6
ByLayer
370
18
48
1
60
0
100
AcDbLine
10
-35.065
20
-3
30
0
11
0
21
-3
31
0
39
0
210
0
220
0
230
1
0
LINE
5
A2
100
AcDbEntity
8
SK1
62
256
6
ByLayer
370
18
48
1
60
0
100
AcDbLine
10
0
20
3
30
0
11
-35.065
21
3
31
0
39
0
210
0
220
0
230
1
0
LINE
5
A3
100
AcDbEntity
8
SK1
62
256
6
ByLayer
370
18
48
1
60
0
100
AcDbLine
10
-36
20
-2.065
30
0
11
-35.065
21
-3
31
0
39
0
210
0
220
0
230
1
0
LINE
5
A4
100
AcDbEntity
8
SK1
62
256
6
ByLayer
370
18
48
1
60
0
100
AcDbLine
10
-35.065
20
3
30
0
11
-36
21
2.065
31
0
39
0
210
0
220
0
230
1
0
LINE
5
A5
100
AcDbEntity
8
2
62
256
6
ByLayer
370
13
48
1
60
0
100
AcDbLine
10
43.75
20
13.815466
30
0
11
43.75
21
-10.25
31
0
39
0
210
0
220
0
230
1
0
LINE
5
A7
100
AcDbEntity
8
2
62
256
6
ByLayer
370
13
48
1
60
0
100
AcDbLine
10
31.5875
20
1.5
30
0
11
45.75
21
1.5
31
0
39
0
210
0
220
0
230
1
0
LINE
5
A8
100
AcDbEntity
8
2
62
256
6
ByLayer
370
13
48
1
60
0
100
AcDbLine
10
31.5875
20
-1.5
30
0
11
45.75
21
-1.5
31
0
39
0
210
0
220
0
230
1
0
LINE
5
A9
100
AcDbEntity
8
1
62
256
6
ByLayer
370
18
48
1
60
1
100
AcDbLine
10
43.75
20
1.5
30
0
11
43.289216
21
4.999998
31
0
39
0
210
0
220
0
230
1
0
LINE
5
AA
100
AcDbEntity
8
1
62
256
6
ByLayer
370
18
48
1
60
1
100
AcDbLine
10
43.289216
20
4.999998
30
0
11
44.210784
21
5.000002
31
0
39
0
210
0
220
0
230
1
0
LINE
5
AB
100
AcDbEntity
8
1
62
256
6
ByLayer
370
18
48
1
60
1
100
AcDbLine
10
44.210784
20
5.000002
30
0
11
43.75
21
1.5
31
0
39
0
210
0
220
0
230
1
0
LINE
5
AC
100
AcDbEntity
8
1
62
256
6
ByLayer
370
18
48
1
60
1
100
AcDbLine
10
43.75
20
-1.5
30
0
11
44.210784
21
-4.999998
31
0
39
0
210
0
220
0
230
1
0
LINE
5
AD
100
AcDbEntity
8
1
62
256
6
ByLayer
370
18
48
1
60
1
100
AcDbLine
10
44.210784
20
-4.999998
30
0
11
43.289216
21
-5.000002
31
0
39
0
210
0
220
0
230
1
0
LINE
5
AE
100
AcDbEntity
8
1
62
256
6
ByLayer
370
18
48
1
60
1
100
AcDbLine
10
43.289216
20
-5.000002
30
0
11
43.75
21
-1.5
31
0
39
0
210
0
220
0
230
1
0
LINE
5
AF
100
AcDbEntity
8
SK2
62
256
6
ByLayer
370
13
48
1
60
0
100
AcDbLine
10
-44.25
20
20.315466
30
0
11
-44.25
21
-11.75
31
0
39
0
210
0
220
0
230
1
0
LINE
5
B1
100
AcDbEntity
8
SK2
62
256
6
ByLayer
370
13
48
1
60
0
100
AcDbLine
10
-37.5875
20
3
30
0
11
-46.25
21
3
31
0
39
0
210
0
220
0
230
1
0
LINE
5
B2
100
AcDbEntity
8
SK2
62
256
6
ByLayer
370
13
48
1
60
0
100
AcDbLine
10
-37.5875
20
-3
30
0
11
-46.25
21
-3
31
0
39
0
210
0
220
0
230
1
0
LINE
5
B3
100
AcDbEntity
8
1
62
256
6
ByLayer
370
18
48
1
60
1
100
AcDbLine
10
-44.25
20
3
30
0
11
-44.710784
21
6.499998
31
0
39
0
210
0
220
0
230
1
0
LINE
5
B4
100
AcDbEntity
8
1
62
256
6
ByLayer
370
18
48
1
60
1
100
AcDbLine
10
-44.710784
20
6.499998
30
0
11
-43.789216
21
6.500002
31
0
39
0
210
0
220
0
230
1
0
LINE
5
B5
100
AcDbEntity
8
1
62
256
6
ByLayer
370
18
48
1
60
1
100
AcDbLine
10
-43.789216
20
6.500002
30
0
11
-44.25
21
3
31
0
39
0
210
0
220
0
230
1
0
LINE
5
B6
100
AcDbEntity
8
1
62
256
6
ByLayer
370
18
48
1
60
1
100
AcDbLine
10
-44.25
20
-3
30
0
11
-43.789216
21
-6.499998
31
0
39
0
210
0
220
0
230
1
0
LINE
5
B7
100
AcDbEntity
8
1
62
256
6
ByLayer
370
18
48
1
60
1
100
AcDbLine
10
-43.789216
20
-6.499998
30
0
11
-44.710784
21
-6.500002
31
0
39
0
210
0
220
0
230
1
0
LINE
5
B8
100
AcDbEntity
8
1
62
256
6
ByLayer
370
18
48
1
60
1
100
AcDbLine
10
-44.710784
20
-6.500002
30
0
11
-44.25
21
-3
31
0
39
0
210
0
220
0
230
1
0
LINE
5
B9
100
AcDbEntity
8
SK2
62
256
6
ByLayer
370
13
48
1
60
0
100
AcDbLine
10
30.542996
20
1.491748
30
0
11
40.723106
21
29.459082
31
0
39
0
210
0
220
0
230
1
0
LINE
5
BA
100
AcDbEntity
8
SK2
62
256
6
ByLayer
370
13
48
1
60
0
100
AcDbLine
10
30.542996
20
-1.491748
30
0
11
40.723106
21
-29.459082
31
0
39
0
210
0
220
0
230
1
0
LINE
5
BB
100
AcDbEntity
8
1
62
256
6
ByLayer
370
18
48
1
60
1
100
AcDbLine
10
40.039016
20
27.579715
30
0
11
43.461237
21
26.713275
31
0
39
0
210
0
220
0
230
1
0
LINE
5
BC
100
AcDbEntity
8
1
62
256
6
ByLayer
370
18
48
1
60
1
100
AcDbLine
10
43.461237
20
26.713275
30
0
11
43.120379
21
25.857061
31
0
39
0
210
0
220
0
230
1
0
LINE
5
BD
100
AcDbEntity
8
1
62
256
6
ByLayer
370
18
48
1
60
1
100
AcDbLine
10
43.120379
20
25.857061
30
0
11
40.039016
21
27.579715
31
0
39
0
210
0
220
0
230
1
0
LINE
5
BE
100
AcDbEntity
8
1
62
256
6
ByLayer
370
18
48
1
60
1
100
AcDbLine
10
40.039016
20
-27.579715
30
0
11
43.120376
21
-25.857062
31
0
39
0
210
0
220
0
230
1
0
LINE
5
BF
100
AcDbEntity
8
1
62
256
6
ByLayer
370
18
48
1
60
1
100
AcDbLine
10
43.120376
20
-25.857062
30
0
11
43.46124
21
-26.713274
31
0
39
0
210
0
220
0
230
1
0
LINE
5
C0
100
AcDbEntity
8
1
62
256
6
ByLayer
370
18
48
1
60
1
100
AcDbLine
10
43.46124
20
-26.713274
30
0
11
40.039016
21
-27.579715
31
0
39
0
210
0
220
0
230
1
0
LINE
5
10F
100
AcDbEntity
8
1
62
256
6
ByLayer
370
13
48
0.05
60
0
100
AcDbLine
10
-42.5
20
0
30
0
11
35.973493
21
0
31
0
39
0
210
0
220
0
230
1
0
LINE
5
114
100
AcDbEntity
8
1
62
256
6
ByLayer
370
18
48
1
60
1
100
AcDbLine
10
43.75
20
1.5
30
0
11
43.289216
21
4.999998
31
0
39
0
210
0
220
0
230
1
0
LINE
5
115
100
AcDbEntity
8
1
62
256
6
ByLayer
370
18
48
1
60
1
100
AcDbLine
10
43.289216
20
4.999998
30
0
11
44.210784
21
5.000002
31
0
39
0
210
0
220
0
230
1
0
LINE
5
116
100
AcDbEntity
8
1
62
256
6
ByLayer
370
18
48
1
60
1
100
AcDbLine
10
44.210784
20
5.000002
30
0
11
43.75
21
1.5
31
0
39
0
210
0
220
0
230
1
0
LINE
5
118
100
AcDbEntity
8
1
62
256
6
ByLayer
370
18
48
1
60
1
100
AcDbLine
10
43.75
20
-1.5
30
0
11
44.210784
21
-4.999998
31
0
39
0
210
0
220
0
230
1
0
LINE
5
119
100
AcDbEntity
8
1
62
256
6
ByLayer
370
18
48
1
60
1
100
AcDbLine
10
44.210784
20
-4.999998
30
0
11
43.289216
21
-5.000002
31
0
39
0
210
0
220
0
230
1
0
LINE
5
11A
100
AcDbEntity
8
1
62
256
6
ByLayer
370
18
48
1
60
1
100
AcDbLine
10
43.289216
20
-5.000002
30
0
11
43.75
21
-1.5
31
0
39
0
210
0
220
0
230
1
0
LINE
5
11E
100
AcDbEntity
8
1
62
256
6
ByLayer
370
18
48
1
60
1
100
AcDbLine
10
-44.25
20
3
30
0
11
-44.710784
21
6.499998
31
0
39
0
210
0
220
0
230
1
0
LINE
5
11F
100
AcDbEntity
8
1
62
256
6
ByLayer
370
18
48
1
60
1
100
AcDbLine
10
-44.710784
20
6.499998
30
0
11
-43.789216
21
6.500002
31
0
39
0
210
0
220
0
230
1
0
LINE
5
120
100
AcDbEntity
8
1
62
256
6
ByLayer
370
18
48
1
60
1
100
AcDbLine
10
-43.789216
20
6.500002
30
0
11
-44.25
21
3
31
0
39
0
210
0
220
0
230
1
0
LINE
5
122
100
AcDbEntity
8
1
62
256
6
ByLayer
370
18
48
1
60
1
100
AcDbLine
10
-44.25
20
-3
30
0
11
-43.789216
21
-6.499998
31
0
39
0
210
0
220
0
230
1
0
LINE
5
123
100
AcDbEntity
8
1
62
256
6
ByLayer
370
18
48
1
60
1
100
AcDbLine
10
-43.789216
20
-6.499998
30
0
11
-44.710784
21
-6.500002
31
0
39
0
210
0
220
0
230
1
0
LINE
5
124
100
AcDbEntity
8
1
62
256
6
ByLayer
370
18
48
1
60
1
100
AcDbLine
10
-44.710784
20
-6.500002
30
0
11
-44.25
21
-3
31
0
39
0
210
0
220
0
230
1
0
LINE
5
127
100
AcDbEntity
8
1
62
256
6
ByLayer
370
18
48
1
60
1
100
AcDbLine
10
40.039016
20
27.579715
30
0
11
43.461237
21
26.713275
31
0
39
0
210
0
220
0
230
1
0
LINE
5
128
100
AcDbEntity
8
1
62
256
6
ByLayer
370
18
48
1
60
1
100
AcDbLine
10
43.461237
20
26.713275
30
0
11
43.120379
21
25.857061
31
0
39
0
210
0
220
0
230
1
0
LINE
5
129
100
AcDbEntity
8
1
62
256
6
ByLayer
370
18
48
1
60
1
100
AcDbLine
10
43.120379
20
25.857061
30
0
11
40.039016
21
27.579715
31
0
39
0
210
0
220
0
230
1
0
LINE
5
12B
100
AcDbEntity
8
1
62
256
6
ByLayer
370
18
48
1
60
1
100
AcDbLine
10
40.039016
20
-27.579715
30
0
11
43.120376
21
-25.857062
31
0
39
0
210
0
220
0
230
1
0
LINE
5
12C
100
AcDbEntity
8
1
62
256
6
ByLayer
370
18
48
1
60
1
100
AcDbLine
10
43.120376
20
-25.857062
30
0
11
43.46124
21
-26.713274
31
0
39
0
210
0
220
0
230
1
0
LINE
5
12D
100
AcDbEntity
8
1
62
256
6
ByLayer
370
18
48
1
60
1
100
AcDbLine
10
43.46124
20
-26.713274
30
0
11
40.039016
21
-27.579715
31
0
39
0
210
0
220
0
230
1
0
MTEXT
5
110
100
AcDbEntity
8
2
62
256
6
ByLayer
370
18
48
1
60
0
100
AcDbMText
10
42.185366
20
5.434844
30
0
210
0
220
0
230
1
1
%%c
40
3.5
41
0
44
1.084337
50
90
71
7
72
5
7
iso_b_vert
0
MTEXT
5
113
100
AcDbEntity
8
2
62
256
6
ByLayer
370
18
48
1
60
0
100
AcDbMText
10
42.185366
20
12.4075
30
0
210
0
220
0
230
1
1
\W0.5404;3
40
3.5
41
0
44
1.084337
50
90
71
7
72
5
7
iso_b_vert
0
MTEXT
5
11C
100
AcDbEntity
8
SK2
62
256
6
ByLayer
370
18
48
1
60
0
100
AcDbMText
10
-45.814634
20
11.934844
30
0
210
0
220
0
230
1
1
%%c
40
3.5
41
0
44
1.084337
50
90
71
7
72
5
7
iso_b_vert
0
MTEXT
5
11D
100
AcDbEntity
8
SK2
62
256
6
ByLayer
370
18
48
1
60
0
100
AcDbMText
10
-45.814634
20
18.9075
30
0
210
0
220
0
230
1
1
\W0.5404;6
40
3.5
41
0
44
1.084337
50
90
71
7
72
5
7
iso_b_vert
0
MTEXT
5
126
100
AcDbEntity
8
SK2
62
256
6
ByLayer
370
18
48
1
60
0
100
AcDbMText
10
55.278351
20
-2.467366
30
0
210
0
220
0
230
1
1
\W0.7825;140%%d
40
3.5
41
0
44
1.084337
50
0
71
7
72
5
7
iso_b_vert
0
MTEXT
5
12F
100
AcDbEntity
8
SK6
62
256
6
ByLayer
370
18
48
1
60
0
100
AcDbMText
10
-33.652662
20
-97.467366
30
0
210
0
220
0
230
1
1
\W0.7396;860.1-0300-019A1-MM M2BM
40
3.5
41
0
44
1.084337
50
0
71
7
72
5
7
iso_b_vert
0
HATCH
5
117
100
AcDbEntity
8
2
62
256
6
ByLayer
370
13
48
1
60
0
100
AcDbHatch
10
0
20
0
30
0
210
0
220
0
230
1
2
ANSI31
70
0
71
0
91
1
92
5
93
3
72
1
10
43.75
20
1.5
11
43.2892162584472
21
4.99999830744682
72
1
10
43.2892162584472
20
4.99999830744682
11
44.2107837415528
21
5.00000169255318
72
1
10
44.2107837415528
20
5.00000169255318
11
43.75
21
1.5
97
0
75
0
76
1
52
0
41
0.0062
77
0
78
1
53
45
43
0
44
0
45
-0.0139193969876572
46
0.0139193969876572
79
0
47
0
98
1
10
0
20
0
0
HATCH
5
11B
100
AcDbEntity
8
2
62
256
6
ByLayer
370
13
48
1
60
0
100
AcDbHatch
10
0
20
0
30
0
210
0
220
0
230
1
2
ANSI31
70
0
71
0
91
1
92
5
93
3
72
1
10
43.75
20
-1.5
11
44.2107837415528
21
-4.99999830744682
72
1
10
44.2107837415528
20
-4.99999830744682
11
43.2892162584472
21
-5.00000169255318
72
1
10
43.2892162584472
20
-5.00000169255318
11
43.75
21
-1.5
97
0
75
0
76
1
52
0
41
0.0062
77
0
78
1
53
45
43
0
44
0
45
-0.0139193969876572
46
0.0139193969876572
79
0
47
0
98
1
10
0
20
0
0
HATCH
5
121
100
AcDbEntity
8
SK2
62
256
6
ByLayer
370
13
48
1
60
0
100
AcDbHatch
10
0
20
0
30
0
210
0
220
0
230
1
2
ANSI31
70
0
71
0
91
1
92
5
93
3
72
1
10
-44.25
20
3
11
-44.7107837415528
21
6.49999830744682
72
1
10
-44.7107837415528
20
6.49999830744682
11
-43.7892162584472
21
6.50000169255318
72
1
10
-43.7892162584472
20
6.50000169255318
11
-44.25
21
3
97
0
75
0
76
1
52
0
41
0.0062
77
0
78
1
53
45
43
0
44
0
45
-0.0139193969876572
46
0.0139193969876572
79
0
47
0
98
1
10
0
20
0
0
HATCH
5
125
100
AcDbEntity
8
SK2
62
256
6
ByLayer
370
13
48
1
60
0
100
AcDbHatch
10
0
20
0
30
0
210
0
220
0
230
1
2
ANSI31
70
0
71
0
91
1
92
5
93
3
72
1
10
-44.25
20
-3
11
-43.7892162584472
21
-6.49999830744682
72
1
10
-43.7892162584472
20
-6.49999830744682
11
-44.7107837415528
21
-6.50000169255318
72
1
10
-44.7107837415528
20
-6.50000169255318
11
-44.25
21
-3
97
0
75
0
76
1
52
0
41
0.0062
77
0
78
1
53
45
43
0
44
0
45
-0.0139193969876572
46
0.0139193969876572
79
0
47
0
98
1
10
0
20
0
0
HATCH
5
12A
100
AcDbEntity
8
SK2
62
256
6
ByLayer
370
13
48
1
60
0
100
AcDbHatch
10
0
20
0
30
0
210
0
220
0
230
1
2
ANSI31
70
0
71
0
91
1
92
5
93
3
72
1
10
40.0390161029638
20
27.5797145685817
11
43.4612365856447
21
26.7132754325029
72
1
10
43.4612365856447
20
26.7132754325029
11
43.1203792300408
21
25.857061154965
72
1
10
43.1203792300408
20
25.857061154965
11
40.0390161029638
21
27.5797145685817
97
0
75
0
76
1
52
0
41
0.0062
77
0
78
1
53
45
43
0
44
0
45
-0.0139193969876572
46
0.0139193969876572
79
0
47
0
98
1
10
0
20
0
0
HATCH
5
12E
100
AcDbEntity
8
SK2
62
256
6
ByLayer
370
13
48
1
60
0
100
AcDbHatch
10
0
20
0
30
0
210
0
220
0
230
1
2
ANSI31
70
0
71
0
91
1
92
5
93
3
72
1
10
40.0390161029635
20
-27.5797145685818
11
43.1203760849944
21
-25.8570624070157
72
1
10
43.1203760849944
20
-25.8570624070157
11
43.4612397306905
21
-26.7132741804525
72
1
10
43.4612397306905
20
-26.7132741804525
11
40.0390161029635
21
-27.5797145685818
97
0
75
0
76
1
52
0
41
0.0062
77
0
78
1
53
45
43
0
44
0
45
-0.0139193969876572
46
0.0139193969876572
79
0
47
0
98
1
10
0
20
0
0
DIMENSION
5
132
100
AcDbEntity
8
2
62
256
6
ByLayer
370
18
48
1
60
0
100
AcDbDimension
2
_U0
10
30
20
-56.725152
30
0
11
-3
21
-56.725152
31
0
70
32
71
1
72
1
41
1
210
0
220
0
230
1
3
Standard
100
AcDbAlignedDimension
13
-36
23
-3
33
0
14
30
24
-1.5
34
0
50
0
100
AcDbRotatedDimension
1001
ACAD
1000
DSTYLE
1002
{
1070
   371
1070
    13
1070
   372
1070
    13
1070
     3
1000

1070
   170
1070
     0
1070
   144
1040
1.0
1070
   277
1070
     2
1070
   284
1070
     8
1070
   278
1070
    46
1070
   146
1040
1.0
1070
   345
1005
16
1070
   347
1005
16
1070
   346
1005
16
1070
   344
1005
0
1070
   343
1005
0
1070
   172
1070
     1
1070
    76
1070
     0
1070
    75
1070
     0
1070
   282
1070
     0
1070
   281
1070
     0
1070
    71
1070
     0
1070
    74
1070
     0
1070
   279
1070
     0
1070
   173
1070
     1
1070
   340
1005
111
1070
   271
1070
     2
1070
   272
1070
     2
1070
    77
1070
     1
1070
    73
1070
     1
1070
   171
1070
     3
1070
   274
1070
     4
1070
   177
1070
     2
1070
   176
1070
     2
1070
   178
1070
     2
1070
    78
1070
     8
1070
    48
1040
-0.1
1070
    41
1040
3.5
1070
   147
1040
1.75
1070
    42
1040
1.5875
1070
    44
1040
2.0
1070
   140
1040
3.5
1002
}
1001
ACAD_DSTYLE_DIM_LINETYPE
1070
   380
1005
16
1001
ACAD_DSTYLE_DIM_EXT1_LINETYPE
1070
   381
1005
16
1001
ACAD_DSTYLE_DIM_EXT2_LINETYPE
1070
   382
1005
16
0
DIMENSION
5
14B
100
AcDbEntity
8
SK2
62
256
6
ByLayer
370
18
48
1
60
0
100
AcDbDimension
2
_U1
10
2
20
-36.725152
30
0
11
16
21
-36.725152
31
0
70
32
71
1
72
1
41
1
210
0
220
0
230
1
3
Standard
100
AcDbAlignedDimension
13
30
23
-1.5
33
0
14
2
24
-1.5
34
0
50
0
100
AcDbRotatedDimension
1001
ACAD
1000
DSTYLE
1002
{
1070
   371
1070
    13
1070
   372
1070
    13
1070
     3
1000

1070
   170
1070
     0
1070
   144
1040
1.0
1070
   277
1070
     2
1070
   284
1070
     8
1070
   278
1070
    46
1070
   146
1040
1.0
1070
   345
1005
16
1070
   347
1005
16
1070
   346
1005
16
1070
   344
1005
0
1070
   343
1005
0
1070
   172
1070
     1
1070
    76
1070
     0
1070
    75
1070
     0
1070
   282
1070
     0
1070
   281
1070
     0
1070
    71
1070
     0
1070
    74
1070
     0
1070
   279
1070
     0
1070
   173
1070
     1
1070
   340
1005
111
1070
   271
1070
     2
1070
   272
1070
     2
1070
    77
1070
     1
1070
    73
1070
     1
1070
   171
1070
     3
1070
   274
1070
     4
1070
   177
1070
     2
1070
   176
1070
     2
1070
   178
1070
     2
1070
    78
1070
     8
1070
    48
1040
-0.1
1070
    41
1040
3.5
1070
   147
1040
1.75
1070
    42
1040
1.5875
1070
    44
1040
2.0
1070
   140
1040
3.5
1002
}
1001
ACAD_DSTYLE_DIM_LINETYPE
1070
   380
1005
16
1001
ACAD_DSTYLE_DIM_EXT1_LINETYPE
1070
   381
1005
16
1001
ACAD_DSTYLE_DIM_EXT2_LINETYPE
1070
   382
1005
16
0
DIMENSION
5
163
100
AcDbEntity
8
SK2
62
256
6
ByLayer
370
18
48
1
60
0
100
AcDbDimension
2
_U2
10
11
20
-26.725152
30
0
11
20.5
21
-26.725152
31
0
70
32
71
1
72
1
41
1
210
0
220
0
230
1
3
Standard
100
AcDbAlignedDimension
13
30
23
-1.5
33
0
14
11
24
-1.5
34
0
50
0
100
AcDbRotatedDimension
1001
ACAD
1000
DSTYLE
1002
{
1070
   371
1070
    13
1070
   372
1070
    13
1070
     3
1000

1070
   170
1070
     0
1070
   144
1040
1.0
1070
   277
1070
     2
1070
   284
1070
     8
1070
   278
1070
    46
1070
   146
1040
1.0
1070
   345
1005
16
1070
   347
1005
16
1070
   346
1005
16
1070
   344
1005
0
1070
   343
1005
0
1070
   172
1070
     1
1070
    76
1070
     0
1070
    75
1070
     0
1070
   282
1070
     0
1070
   281
1070
     0
1070
    71
1070
     0
1070
    74
1070
     0
1070
   279
1070
     0
1070
   173
1070
     1
1070
   340
1005
111
1070
   271
1070
     2
1070
   272
1070
     2
1070
    77
1070
     1
1070
    73
1070
     1
1070
   171
1070
     3
1070
   274
1070
     4
1070
   177
1070
     2
1070
   176
1070
     2
1070
   178
1070
     2
1070
    78
1070
     8
1070
    48
1040
-0.1
1070
    41
1040
3.5
1070
   147
1040
1.75
1070
    42
1040
1.5875
1070
    44
1040
2.0
1070
   140
1040
3.5
1002
}
1001
ACAD_DSTYLE_DIM_LINETYPE
1070
   380
1005
16
1001
ACAD_DSTYLE_DIM_EXT1_LINETYPE
1070
   381
1005
16
1001
ACAD_DSTYLE_DIM_EXT2_LINETYPE
1070
   382
1005
16
0
DIMENSION
5
17D
100
AcDbEntity
8
SK2
62
256
6
ByLayer
370
18
48
1
60
0
100
AcDbDimension
2
_U3
10
0
20
-36.725152
30
0
11
-18
21
-36.725152
31
0
70
32
71
1
72
1
41
1
210
0
220
0
230
1
3
Standard
100
AcDbAlignedDimension
13
-36
23
-3
33
0
14
0
24
-3
34
0
50
0
100
AcDbRotatedDimension
1001
ACAD
1000
DSTYLE
1002
{
1070
   371
1070
    13
1070
   372
1070
    13
1070
     3
1000

1070
   170
1070
     0
1070
   144
1040
1.0
1070
   277
1070
     2
1070
   284
1070
     8
1070
   278
1070
    46
1070
   146
1040
1.0
1070
   345
1005
16
1070
   347
1005
16
1070
   346
1005
16
1070
   344
1005
0
1070
   343
1005
0
1070
   172
1070
     1
1070
    76
1070
     0
1070
    75
1070
     0
1070
   282
1070
     0
1070
   281
1070
     0
1070
    71
1070
     0
1070
    74
1070
     0
1070
   279
1070
     0
1070
   173
1070
     1
1070
   340
1005
111
1070
   271
1070
     2
1070
   272
1070
     2
1070
    77
1070
     1
1070
    73
1070
     1
1070
   171
1070
     3
1070
   274
1070
     4
1070
   177
1070
     2
1070
   176
1070
     2
1070
   178
1070
     2
1070
    78
1070
     8
1070
    48
1040
-0.1
1070
    41
1040
3.5
1070
   147
1040
1.75
1070
    42
1040
1.5875
1070
    44
1040
2.0
1070
   140
1040
3.5
1002
}
1001
ACAD_DSTYLE_DIM_LINETYPE
1070
   380
1005
16
1001
ACAD_DSTYLE_DIM_EXT1_LINETYPE
1070
   381
1005
16
1001
ACAD_DSTYLE_DIM_EXT2_LINETYPE
1070
   382
1005
16
0
DIMENSION
5
195
100
AcDbEntity
8
SK2
62
256
6
ByLayer
370
18
48
1
60
0
100
AcDbDimension
2
_U4
10
30
20
-46.725152
30
0
11
15
21
-46.725152
31
0
70
32
71
1
72
1
41
1
210
0
220
0
230
1
3
Standard
100
AcDbAlignedDimension
13
0
23
-3
33
0
14
30
24
-1.5
34
0
50
0
100
AcDbRotatedDimension
1001
ACAD
1000
DSTYLE
1002
{
1070
   371
1070
    13
1070
   372
1070
    13
1070
     3
1000

1070
   170
1070
     0
1070
   144
1040
1.0
1070
   277
1070
     2
1070
   284
1070
     8
1070
   278
1070
    46
1070
   146
1040
1.0
1070
   345
1005
16
1070
   347
1005
16
1070
   346
1005
16
1070
   344
1005
0
1070
   343
1005
0
1070
   172
1070
     1
1070
    76
1070
     0
1070
    75
1070
     0
1070
   282
1070
     0
1070
   281
1070
     0
1070
    71
1070
     0
1070
    74
1070
     0
1070
   279
1070
     0
1070
   173
1070
     1
1070
   340
1005
111
1070
   271
1070
     2
1070
   272
1070
     2
1070
    77
1070
     1
1070
    73
1070
     1
1070
   171
1070
     3
1070
   274
1070
     4
1070
   177
1070
     2
1070
   176
1070
     2
1070
   178
1070
     2
1070
    78
1070
     8
1070
    48
1040
-0.1
1070
    41
1040
3.5
1070
   147
1040
1.75
1070
    42
1040
1.5875
1070
    44
1040
2.0
1070
   140
1040
3.5
1002
}
1001
ACAD_DSTYLE_DIM_LINETYPE
1070
   380
1005
16
1001
ACAD_DSTYLE_DIM_EXT1_LINETYPE
1070
   381
1005
16
1001
ACAD_DSTYLE_DIM_EXT2_LINETYPE
1070
   382
1005
16
0
ENDSEC
0
SECTION
2
OBJECTS
0
DICTIONARY
5
21d
330
0
100
AcDbDictionary
280
0
281
1
3
ACAD_GROUP
350
21e
3
ACAD_MLINESTYLE
350
21f
0
DICTIONARY
5
21e
330
0
100
AcDbDictionary
280
0
281
1
0
DICTIONARY
5
21f
330
0
100
AcDbDictionary
280
0
281
1
3
Standard
350
18
0
MLINESTYLE
5
18
330
21f
100
AcDbMlineStyle
2
Standard
70
0
3

62
256
51
90
52
90
71
2
49
-0.5
62
256
6
ByLayer
49
0.5
62
256
6
ByLayer
0
RASTERVARIABLES
5
20b
330

100
AcDbRasterVariables
90
0
70
1
71
1
72
1
0
ENDSEC
0
EOF
