0
SECTION
2
HEADER
9
$ACADVER
1
AC1015
9
$DWGCODEPAGE
3
ANSI_1252
9
$HANDSEED
5
22e
9
$ANGBASE
50
0
9
$ANGDIR
70
0
9
$ATTMODE
70
1
9
$AUNITS
70
0
9
$AUPREC
70
0
9
$CECOLOR
62
256
9
$CELTSCALE
40
1
9
$CELTYPE
6
ByLayer
9
$CELWEIGHT
370
18
9
$CLAYER
8
0
9
$CMLJUST
70
0
9
$CMLSCALE
40
1
9
$CMLSTYLE
2
Standard
9
$DIMSTYLE
2
Standard
9
$TEXTSIZE
40
0.2
9
$TEXTSTYLE
7
Standard
9
$LUNITS
70
2
9
$LUPREC
70
4
9
$EXTNAMES
290
1
9
$INSUNITS
70
4
9
$LTSCALE
40
1
9
$LWDISPLAY
290
1
9
$PDMODE
70
0
9
$PDSIZE
40
0
9
$PLINEGEN
70
0
0
ENDSEC
0
SECTION
2
CLASSES
0
CLASS
1
RASTERVARIABLES
2
AcDbRasterVariables
3
ISM
90
0
280
0
281
0
0
ENDSEC
0
SECTION
2
TABLES
0
TABLE
2
VPORT
5
224
100
AcDbSymbolTable
0
VPORT
5
1
100
AcDbSymbolTableRecord
100
AcDbViewportTableRecord
2
*Active
70
0
10
0
20
0
11
1
21
1
12
-1
22
1
13
0
23
0
14
0.5
24
0.5
15
10
25
10
16
0
26
0
36
1
17
0
27
0
37
0
0
ENDTAB
0
TABLE
2
LTYPE
5
225
100
AcDbSymbolTable
0
LTYPE
5
14
100
AcDbSymbolTableRecord
100
AcDbLinetypeTableRecord
70
0
2
ByBlock
3

72
65
73
0
40
0
0
LTYPE
5
15
100
AcDbSymbolTableRecord
100
AcDbLinetypeTableRecord
70
0
2
ByLayer
3

72
65
73
0
40
0
0
LTYPE
5
16
100
AcDbSymbolTableRecord
100
AcDbLinetypeTableRecord
70
0
2
Continuous
3
Solid line
72
65
73
0
40
0
0
LTYPE
5
6E
100
AcDbSymbolTableRecord
100
AcDbLinetypeTableRecord
70
0
2
CENTER
3
____ _ ____ _ ____ _ ____
72
65
73
4
40
47.5
49
22
74
0
49
-8.5
74
0
49
8.5
74
0
49
-8.5
74
0
0
LTYPE
5
6F
100
AcDbSymbolTableRecord
100
AcDbLinetypeTableRecord
70
0
2
DASHED
3
__ __ __ __ __ __ __ __ __
72
65
73
2
40
25.72
49
12.86
74
0
49
-12.86
74
0
0
ENDTAB
0
TABLE
2
LAYER
5
226
100
AcDbSymbolTable
0
LAYER
5
10
100
AcDbSymbolTableRecord
100
AcDbLayerTableRecord
2
0
70
0
62
7
6
Continuous
290
1
370
-3
390
0
0
LAYER
5
71
100
AcDbSymbolTableRecord
100
AcDbLayerTableRecord
2
81
70
0
62
-3
6
Continuous
290
1
370
-3
390
0
0
LAYER
5
73
100
AcDbSymbolTableRecord
100
AcDbLayerTableRecord
2
80
70
0
62
-6
6
Continuous
290
1
370
-3
390
0
0
LAYER
5
75
100
AcDbSymbolTableRecord
100
AcDbLayerTableRecord
2
1
70
0
62
4
6
Continuous
290
1
370
-3
390
0
0
LAYER
5
87
100
AcDbSymbolTableRecord
100
AcDbLayerTableRecord
2
4
70
0
62
-2
6
CENTER
290
1
370
-3
390
0
0
LAYER
5
A6
100
AcDbSymbolTableRecord
100
AcDbLayerTableRecord
2
2
70
0
62
7
6
Continuous
290
1
370
-3
390
0
0
LAYER
5
139
100
AcDbSymbolTableRecord
100
AcDbLayerTableRecord
2
Defpoints
70
0
62
7
6
Continuous
290
0
370
-3
390
0
0
LAYER
5
210
100
AcDbSymbolTableRecord
100
AcDbLayerTableRecord
2
SK4
70
0
62
2
6
CENTER
290
1
370
-3
390
0
0
LAYER
5
211
100
AcDbSymbolTableRecord
100
AcDbLayerTableRecord
2
SK1
70
0
62
4
6
Continuous
290
1
370
-3
390
0
0
LAYER
5
212
100
AcDbSymbolTableRecord
100
AcDbLayerTableRecord
2
SK2
70
0
62
7
6
Continuous
290
1
370
-3
390
0
0
LAYER
5
213
100
AcDbSymbolTableRecord
100
AcDbLayerTableRecord
2
SK6
70
0
62
5
6
Continuous
290
1
370
-3
390
0
0
ENDTAB
0
TABLE
2
STYLE
5
227
100
AcDbSymbolTable
0
STYLE
5
11
100
AcDbSymbolTableRecord
100
AcDbTextStyleTableRecord
2
Standard
3
txt
70
0
71
0
40
0
41
1
42
0
50
0
0
STYLE
5
115
100
AcDbSymbolTableRecord
100
AcDbTextStyleTableRecord
2
iso_b_vert
3
simplex.shx
70
0
71
0
40
0
41
1
42
0
50
0
0
STYLE
5
116
100
AcDbSymbolTableRecord
100
AcDbTextStyleTableRecord
2
DWGDirectTextStyle
3
simplex
70
0
71
0
40
0
41
1
42
0
50
0
0
ENDTAB
0
TABLE
2
DIMSTYLE
5
228
100
AcDbSymbolTable
100
AcDbDimStyleTable
0
DIMSTYLE
105
27
100
AcDbSymbolTableRecord
100
AcDbDimStyleTableRecord
2
Standard
70
0
3
<>
41
0.18
42
0.0625
44
0.18
140
0.18
147
0.09
73
0
74
0
77
1
271
2
275
0
278
52
280
0
340
11
0
ENDTAB
0
TABLE
2
VIEW
5
229
100
AcDbSymbolTable
0
ENDTAB
0
TABLE
2
UCS
5
22a
100
AcDbSymbolTable
0
ENDTAB
0
TABLE
2
APPID
5
22b
100
AcDbSymbolTable
0
APPID
5
12
100
AcDbSymbolTableRecord
100
AcDbRegAppTableRecord
2
ACAD
70
0
0
APPID
5
135
100
AcDbSymbolTableRecord
100
AcDbRegAppTableRecord
2
ACAD_DSTYLE_DIMBREAK
70
0
0
APPID
5
1CF
100
AcDbSymbolTableRecord
100
AcDbRegAppTableRecord
2
ACAD_DSTYLE_DIM_LINETYPE
70
0
0
APPID
5
1D0
100
AcDbSymbolTableRecord
100
AcDbRegAppTableRecord
2
ACAD_DSTYLE_DIM_EXT1_LINETYPE
70
0
0
APPID
5
1D1
100
AcDbSymbolTableRecord
100
AcDbRegAppTableRecord
2
ACAD_DSTYLE_DIM_EXT2_LINETYPE
70
0
0
APPID
5
20C
100
AcDbSymbolTableRecord
100
AcDbRegAppTableRecord
2
ACAD_MLEADERVER
70
0
0
ENDTAB
0
TABLE
2
BLOCK_RECORD
5
22c
100
AcDbSymbolTable
0
BLOCK_RECORD
5
1F
100
AcDbSymbolTableRecord
100
AcDbBlockTableRecord
2
*Model_Space
340
0
70
0
0
BLOCK_RECORD
5
1B
100
AcDbSymbolTableRecord
100
AcDbBlockTableRecord
2
*Paper_Space
340
0
70
0
0
BLOCK_RECORD
5
23
100
AcDbSymbolTableRecord
100
AcDbBlockTableRecord
2
*Paper_Space0
340
0
70
0
0
BLOCK_RECORD
5
13A
100
AcDbSymbolTableRecord
100
AcDbBlockTableRecord
2
*D1
340
0
70
0
0
BLOCK_RECORD
5
146
100
AcDbSymbolTableRecord
100
AcDbBlockTableRecord
2
_U0
340
0
70
0
0
BLOCK_RECORD
5
152
100
AcDbSymbolTableRecord
100
AcDbBlockTableRecord
2
*D3
340
0
70
0
0
BLOCK_RECORD
5
15E
100
AcDbSymbolTableRecord
100
AcDbBlockTableRecord
2
_U1
340
0
70
0
0
BLOCK_RECORD
5
16A
100
AcDbSymbolTableRecord
100
AcDbBlockTableRecord
2
*D5
340
0
70
0
0
BLOCK_RECORD
5
176
100
AcDbSymbolTableRecord
100
AcDbBlockTableRecord
2
_U2
340
0
70
0
0
BLOCK_RECORD
5
184
100
AcDbSymbolTableRecord
100
AcDbBlockTableRecord
2
*D7
340
0
70
0
0
BLOCK_RECORD
5
190
100
AcDbSymbolTableRecord
100
AcDbBlockTableRecord
2
_U3
340
0
70
0
0
BLOCK_RECORD
5
19C
100
AcDbSymbolTableRecord
100
AcDbBlockTableRecord
2
*D9
340
0
70
0
0
BLOCK_RECORD
5
1A8
100
AcDbSymbolTableRecord
100
AcDbBlockTableRecord
2
_U4
340
0
70
0
0
ENDTAB
0
ENDSEC
0
SECTION
2
BLOCKS
0
BLOCK
5
20
100
AcDbEntity
8
0
100
AcDbBlockBegin
2
*Model_Space
70
0
10
0
20
0
30
0
3
*Model_Space
0
ENDBLK
5
21
100
AcDbEntity
8
0
100
AcDbBlockEnd
0
BLOCK
5
1C
100
AcDbEntity
8
0
100
AcDbBlockBegin
2
*Paper_Space
70
0
10
0
20
0
30
0
3
*Paper_Space
0
ENDBLK
5
1D
100
AcDbEntity
8
0
100
AcDbBlockEnd
0
BLOCK
5
24
100
AcDbEntity
8
0
100
AcDbBlockBegin
2
*Paper_Space0
70
0
10
0
20
0
30
0
3
*Paper_Space0
0
ENDBLK
5
25
100
AcDbEntity
8
0
100
AcDbBlockEnd
0
BLOCK
5
13B
100
AcDbEntity
8
0
100
AcDbBlockBegin
2
*D1
70
1
10
0
20
0
30
0
3
*D1
0
LINE
5
13D
100
AcDbEntity
8
0
62
256
6
ByLayer
370
-2
48
1
60
0
100
AcDbLine
10
-36
20
-4.5875
30
0
11
-36
21
-58.86199
31
0
39
0
210
0
220
0
230
1
0
LINE
5
13E
100
AcDbEntity
8
0
62
256
6
ByLayer
370
-2
48
1
60
0
100
AcDbLine
10
30
20
-3.3725
30
0
11
30
21
-58.86199
31
0
39
0
210
0
220
0
230
1
0
LINE
5
13F
100
AcDbEntity
8
0
62
256
6
ByLayer
370
-2
48
1
60
0
100
AcDbLine
10
-32.5
20
-56.86199
30
0
11
26.5
21
-56.86199
31
0
39
0
210
0
220
0
230
1
0
SOLID
5
140
100
AcDbEntity
8
0
62
256
6
ByLayer
370
-1
48
1
60
0
100
AcDbTrace
10
-32.5
20
-56.278656
30
0
11
-32.5
21
-57.445323
31
0
12
-36
22
-56.86199
32
0
13
-36
23
-56.86199
33
0
39
0
210
0
220
0
230
1
0
SOLID
5
141
100
AcDbEntity
8
0
62
256
6
ByLayer
370
-1
48
1
60
0
100
AcDbTrace
10
26.5
20
-57.445323
30
0
11
26.5
21
-56.278656
31
0
12
30
22
-56.86199
32
0
13
30
23
-56.86199
33
0
39
0
210
0
220
0
230
1
0
MTEXT
5
142
100
AcDbEntity
8
0
62
256
6
ByLayer
370
18
48
1
60
0
100
AcDbMText
10
-3
20
-49.86199
30
0
210
0
220
0
230
1
1
\A1;66
40
3.5
41
0
44
1
50
0
71
5
72
5
7
iso_b_vert
0
POINT
5
143
100
AcDbEntity
8
Defpoints
62
0
6
ByLayer
370
-1
48
1
60
0
100
AcDbPoint
10
-36
20
-3
30
0
39
0
210
0
220
0
230
1
50
360
0
POINT
5
144
100
AcDbEntity
8
Defpoints
62
0
6
ByLayer
370
-1
48
1
60
0
100
AcDbPoint
10
30
20
-1.785
30
0
39
0
210
0
220
0
230
1
50
360
0
POINT
5
145
100
AcDbEntity
8
Defpoints
62
0
6
ByLayer
370
-1
48
1
60
0
100
AcDbPoint
10
30
20
-56.86199
30
0
39
0
210
0
220
0
230
1
50
360
0
ENDBLK
5
13C
100
AcDbEntity
8
0
100
AcDbBlockEnd
0
BLOCK
5
14D
100
AcDbEntity
8
0
100
AcDbBlockBegin
2
_U0
70
0
10
0
20
0
30
0
3
_U0
0
MTEXT
5
147
100
AcDbEntity
8
2
62
256
6
ByLayer
370
18
48
1
60
0
100
AcDbMText
10
-4.904966
20
-55.829356
30
0
210
0
220
0
230
1
1
\W0.6740;66
40
3.5
41
0
44
1.084337
50
0
71
7
72
5
7
iso_b_vert
0
LINE
5
148
100
AcDbEntity
8
2
62
256
6
ByLayer
370
13
48
1
60
0
100
AcDbLine
10
-36
20
-4.5875
30
0
11
-36
21
-58.86199
31
0
39
0
210
0
220
0
230
1
0
LINE
5
149
100
AcDbEntity
8
2
62
256
6
ByLayer
370
13
48
1
60
0
100
AcDbLine
10
30
20
-3.3725
30
0
11
30
21
-58.86199
31
0
39
0
210
0
220
0
230
1
0
LINE
5
14A
100
AcDbEntity
8
2
62
256
6
ByLayer
370
13
48
1
60
0
100
AcDbLine
10
-36
20
-56.86199
30
0
11
30
21
-56.86199
31
0
39
0
210
0
220
0
230
1
0
SOLID
5
14B
100
AcDbEntity
8
2
62
256
6
ByLayer
370
18
48
1
60
0
100
AcDbTrace
10
-36
20
-56.86199
30
0
11
-32.500002
21
-56.401206
31
0
12
-32.499998
22
-57.322773
32
0
13
-32.499998
23
-57.322773
33
0
39
0
210
0
220
0
230
1
0
SOLID
5
14C
100
AcDbEntity
8
2
62
256
6
ByLayer
370
18
48
1
60
0
100
AcDbTrace
10
30
20
-56.86199
30
0
11
26.500002
21
-57.322773
31
0
12
26.499998
22
-56.401206
32
0
13
26.499998
23
-56.401206
33
0
39
0
210
0
220
0
230
1
0
ENDBLK
5
14E
100
AcDbEntity
8
0
100
AcDbBlockEnd
0
BLOCK
5
153
100
AcDbEntity
8
0
100
AcDbBlockBegin
2
*D3
70
1
10
0
20
0
30
0
3
*D3
0
LINE
5
155
100
AcDbEntity
8
0
62
256
6
ByLayer
370
-2
48
1
60
0
100
AcDbLine
10
30
20
-3.3725
30
0
11
30
21
-38.86199
31
0
39
0
210
0
220
0
230
1
0
LINE
5
156
100
AcDbEntity
8
0
62
256
6
ByLayer
370
-2
48
1
60
0
100
AcDbLine
10
2
20
-3.3725
30
0
11
2
21
-38.86199
31
0
39
0
210
0
220
0
230
1
0
LINE
5
157
100
AcDbEntity
8
0
62
256
6
ByLayer
370
-2
48
1
60
0
100
AcDbLine
10
26.5
20
-36.86199
30
0
11
5.5
21
-36.86199
31
0
39
0
210
0
220
0
230
1
0
SOLID
5
158
100
AcDbEntity
8
0
62
256
6
ByLayer
370
-1
48
1
60
0
100
AcDbTrace
10
26.5
20
-37.445323
30
0
11
26.5
21
-36.278656
31
0
12
30
22
-36.86199
32
0
13
30
23
-36.86199
33
0
39
0
210
0
220
0
230
1
0
SOLID
5
159
100
AcDbEntity
8
0
62
256
6
ByLayer
370
-1
48
1
60
0
100
AcDbTrace
10
5.5
20
-36.278656
30
0
11
5.5
21
-37.445323
31
0
12
2
22
-36.86199
32
0
13
2
23
-36.86199
33
0
39
0
210
0
220
0
230
1
0
MTEXT
5
15A
100
AcDbEntity
8
0
62
256
6
ByLayer
370
18
48
1
60
0
100
AcDbMText
10
16
20
-29.86199
30
0
210
0
220
0
230
1
1
\A1;28
40
3.5
41
0
44
1
50
0
71
5
72
5
7
iso_b_vert
0
POINT
5
15B
100
AcDbEntity
8
Defpoints
62
0
6
ByLayer
370
-1
48
1
60
0
100
AcDbPoint
10
30
20
-1.785
30
0
39
0
210
0
220
0
230
1
50
360
0
POINT
5
15C
100
AcDbEntity
8
Defpoints
62
0
6
ByLayer
370
-1
48
1
60
0
100
AcDbPoint
10
2
20
-1.785
30
0
39
0
210
0
220
0
230
1
50
360
0
POINT
5
15D
100
AcDbEntity
8
Defpoints
62
0
6
ByLayer
370
-1
48
1
60
0
100
AcDbPoint
10
2
20
-36.86199
30
0
39
0
210
0
220
0
230
1
50
360
0
ENDBLK
5
154
100
AcDbEntity
8
0
100
AcDbBlockEnd
0
BLOCK
5
165
100
AcDbEntity
8
0
100
AcDbBlockBegin
2
_U1
70
0
10
0
20
0
30
0
3
_U1
0
MTEXT
5
15F
100
AcDbEntity
8
SK2
62
256
6
ByLayer
370
18
48
1
60
0
100
AcDbMText
10
14.095034
20
-35.829356
30
0
210
0
220
0
230
1
1
\W0.6740;28
40
3.5
41
0
44
1.084337
50
0
71
7
72
5
7
iso_b_vert
0
LINE
5
160
100
AcDbEntity
8
SK2
62
256
6
ByLayer
370
13
48
1
60
0
100
AcDbLine
10
30
20
-3.3725
30
0
11
30
21
-38.86199
31
0
39
0
210
0
220
0
230
1
0
LINE
5
161
100
AcDbEntity
8
SK2
62
256
6
ByLayer
370
13
48
1
60
0
100
AcDbLine
10
2
20
-3.3725
30
0
11
2
21
-38.86199
31
0
39
0
210
0
220
0
230
1
0
LINE
5
162
100
AcDbEntity
8
SK2
62
256
6
ByLayer
370
13
48
1
60
0
100
AcDbLine
10
30
20
-36.86199
30
0
11
2
21
-36.86199
31
0
39
0
210
0
220
0
230
1
0
SOLID
5
163
100
AcDbEntity
8
SK2
62
256
6
ByLayer
370
18
48
1
60
0
100
AcDbTrace
10
30
20
-36.86199
30
0
11
26.500002
21
-37.322773
31
0
12
26.499998
22
-36.401206
32
0
13
26.499998
23
-36.401206
33
0
39
0
210
0
220
0
230
1
0
SOLID
5
164
100
AcDbEntity
8
SK2
62
256
6
ByLayer
370
18
48
1
60
0
100
AcDbTrace
10
2
20
-36.86199
30
0
11
5.499998
21
-36.401206
31
0
12
5.500002
22
-37.322773
32
0
13
5.500002
23
-37.322773
33
0
39
0
210
0
220
0
230
1
0
ENDBLK
5
166
100
AcDbEntity
8
0
100
AcDbBlockEnd
0
BLOCK
5
16B
100
AcDbEntity
8
0
100
AcDbBlockBegin
2
*D5
70
1
10
0
20
0
30
0
3
*D5
0
LINE
5
16D
100
AcDbEntity
8
0
62
256
6
ByLayer
370
-2
48
1
60
0
100
AcDbLine
10
30
20
-3.3725
30
0
11
30
21
-28.86199
31
0
39
0
210
0
220
0
230
1
0
LINE
5
16E
100
AcDbEntity
8
0
62
256
6
ByLayer
370
-2
48
1
60
0
100
AcDbLine
10
11
20
-3.3725
30
0
11
11
21
-28.86199
31
0
39
0
210
0
220
0
230
1
0
LINE
5
16F
100
AcDbEntity
8
0
62
256
6
ByLayer
370
-2
48
1
60
0
100
AcDbLine
10
26.5
20
-26.86199
30
0
11
14.5
21
-26.86199
31
0
39
0
210
0
220
0
230
1
0
SOLID
5
170
100
AcDbEntity
8
0
62
256
6
ByLayer
370
-1
48
1
60
0
100
AcDbTrace
10
26.5
20
-27.445323
30
0
11
26.5
21
-26.278656
31
0
12
30
22
-26.86199
32
0
13
30
23
-26.86199
33
0
39
0
210
0
220
0
230
1
0
SOLID
5
171
100
AcDbEntity
8
0
62
256
6
ByLayer
370
-1
48
1
60
0
100
AcDbTrace
10
14.5
20
-26.278656
30
0
11
14.5
21
-27.445323
31
0
12
11
22
-26.86199
32
0
13
11
23
-26.86199
33
0
39
0
210
0
220
0
230
1
0
MTEXT
5
172
100
AcDbEntity
8
0
62
256
6
ByLayer
370
18
48
1
60
0
100
AcDbMText
10
20.5
20
-19.86199
30
0
210
0
220
0
230
1
1
\A1;19
40
3.5
41
0
44
1
50
0
71
5
72
5
7
iso_b_vert
0
POINT
5
173
100
AcDbEntity
8
Defpoints
62
0
6
ByLayer
370
-1
48
1
60
0
100
AcDbPoint
10
30
20
-1.785
30
0
39
0
210
0
220
0
230
1
50
360
0
POINT
5
174
100
AcDbEntity
8
Defpoints
62
0
6
ByLayer
370
-1
48
1
60
0
100
AcDbPoint
10
11
20
-1.785
30
0
39
0
210
0
220
0
230
1
50
360
0
POINT
5
175
100
AcDbEntity
8
Defpoints
62
0
6
ByLayer
370
-1
48
1
60
0
100
AcDbPoint
10
11
20
-26.86199
30
0
39
0
210
0
220
0
230
1
50
360
0
ENDBLK
5
16C
100
AcDbEntity
8
0
100
AcDbBlockEnd
0
BLOCK
5
17F
100
AcDbEntity
8
0
100
AcDbBlockBegin
2
_U2
70
0
10
0
20
0
30
0
3
_U2
0
MTEXT
5
177
100
AcDbEntity
8
SK2
62
256
6
ByLayer
370
18
48
1
60
0
100
AcDbMText
10
19.032467
20
-25.829356
30
0
210
0
220
0
230
1
1
\W0.5469;19
40
3.5
41
0
44
1.084337
50
0
71
7
72
5
7
iso_b_vert
0
MTEXT
5
178
100
AcDbEntity
8
SK2
62
256
6
ByLayer
370
18
48
1
60
0
100
AcDbMText
10
15.164468
20
-25.829356
30
0
210
0
220
0
230
1
1
\W0.1790;(
40
3.5
41
0
44
1.084337
50
0
71
7
72
5
7
iso_b_vert
0
MTEXT
5
179
100
AcDbEntity
8
SK2
62
256
6
ByLayer
370
18
48
1
60
0
100
AcDbMText
10
25.838533
20
-25.829356
30
0
210
0
220
0
230
1
1
\W0.1969;)
40
3.5
41
0
44
1.084337
50
0
71
7
72
5
7
iso_b_vert
0
LINE
5
17A
100
AcDbEntity
8
SK2
62
256
6
ByLayer
370
13
48
1
60
0
100
AcDbLine
10
30
20
-3.3725
30
0
11
30
21
-28.86199
31
0
39
0
210
0
220
0
230
1
0
LINE
5
17B
100
AcDbEntity
8
SK2
62
256
6
ByLayer
370
13
48
1
60
0
100
AcDbLine
10
11
20
-3.3725
30
0
11
11
21
-28.86199
31
0
39
0
210
0
220
0
230
1
0
LINE
5
17C
100
AcDbEntity
8
SK2
62
256
6
ByLayer
370
13
48
1
60
0
100
AcDbLine
10
30
20
-26.86199
30
0
11
11
21
-26.86199
31
0
39
0
210
0
220
0
230
1
0
SOLID
5
17D
100
AcDbEntity
8
SK2
62
256
6
ByLayer
370
18
48
1
60
0
100
AcDbTrace
10
30
20
-26.86199
30
0
11
26.500002
21
-27.322773
31
0
12
26.499998
22
-26.401206
32
0
13
26.499998
23
-26.401206
33
0
39
0
210
0
220
0
230
1
0
SOLID
5
17E
100
AcDbEntity
8
SK2
62
256
6
ByLayer
370
18
48
1
60
0
100
AcDbTrace
10
11
20
-26.86199
30
0
11
14.499998
21
-26.401206
31
0
12
14.500002
22
-27.322773
32
0
13
14.500002
23
-27.322773
33
0
39
0
210
0
220
0
230
1
0
ENDBLK
5
180
100
AcDbEntity
8
0
100
AcDbBlockEnd
0
BLOCK
5
185
100
AcDbEntity
8
0
100
AcDbBlockBegin
2
*D7
70
1
10
0
20
0
30
0
3
*D7
0
LINE
5
187
100
AcDbEntity
8
0
62
256
6
ByLayer
370
-2
48
1
60
0
100
AcDbLine
10
-36
20
-4.5875
30
0
11
-36
21
-38.86199
31
0
39
0
210
0
220
0
230
1
0
LINE
5
188
100
AcDbEntity
8
0
62
256
6
ByLayer
370
-2
48
1
60
0
100
AcDbLine
10
0
20
-4.5875
30
0
11
0
21
-38.86199
31
0
39
0
210
0
220
0
230
1
0
LINE
5
189
100
AcDbEntity
8
0
62
256
6
ByLayer
370
-2
48
1
60
0
100
AcDbLine
10
-32.5
20
-36.86199
30
0
11
-3.5
21
-36.86199
31
0
39
0
210
0
220
0
230
1
0
SOLID
5
18A
100
AcDbEntity
8
0
62
256
6
ByLayer
370
-1
48
1
60
0
100
AcDbTrace
10
-32.5
20
-36.278656
30
0
11
-32.5
21
-37.445323
31
0
12
-36
22
-36.86199
32
0
13
-36
23
-36.86199
33
0
39
0
210
0
220
0
230
1
0
SOLID
5
18B
100
AcDbEntity
8
0
62
256
6
ByLayer
370
-1
48
1
60
0
100
AcDbTrace
10
-3.5
20
-37.445323
30
0
11
-3.5
21
-36.278656
31
0
12
0
22
-36.86199
32
0
13
0
23
-36.86199
33
0
39
0
210
0
220
0
230
1
0
MTEXT
5
18C
100
AcDbEntity
8
0
62
256
6
ByLayer
370
18
48
1
60
0
100
AcDbMText
10
-18
20
-29.86199
30
0
210
0
220
0
230
1
1
\A1;36
40
3.5
41
0
44
1
50
0
71
5
72
5
7
iso_b_vert
0
POINT
5
18D
100
AcDbEntity
8
Defpoints
62
0
6
ByLayer
370
-1
48
1
60
0
100
AcDbPoint
10
-36
20
-3
30
0
39
0
210
0
220
0
230
1
50
360
0
POINT
5
18E
100
AcDbEntity
8
Defpoints
62
0
6
ByLayer
370
-1
48
1
60
0
100
AcDbPoint
10
0
20
-3
30
0
39
0
210
0
220
0
230
1
50
360
0
POINT
5
18F
100
AcDbEntity
8
Defpoints
62
0
6
ByLayer
370
-1
48
1
60
0
100
AcDbPoint
10
0
20
-36.86199
30
0
39
0
210
0
220
0
230
1
50
360
0
ENDBLK
5
186
100
AcDbEntity
8
0
100
AcDbBlockEnd
0
BLOCK
5
197
100
AcDbEntity
8
0
100
AcDbBlockBegin
2
_U3
70
0
10
0
20
0
30
0
3
_U3
0
MTEXT
5
191
100
AcDbEntity
8
SK2
62
256
6
ByLayer
370
18
48
1
60
0
100
AcDbMText
10
-19.904966
20
-35.829356
30
0
210
0
220
0
230
1
1
\W0.6740;36
40
3.5
41
0
44
1.084337
50
0
71
7
72
5
7
iso_b_vert
0
LINE
5
192
100
AcDbEntity
8
SK2
62
256
6
ByLayer
370
13
48
1
60
0
100
AcDbLine
10
-36
20
-4.5875
30
0
11
-36
21
-38.86199
31
0
39
0
210
0
220
0
230
1
0
LINE
5
193
100
AcDbEntity
8
SK2
62
256
6
ByLayer
370
13
48
1
60
0
100
AcDbLine
10
0
20
-4.5875
30
0
11
0
21
-38.86199
31
0
39
0
210
0
220
0
230
1
0
LINE
5
194
100
AcDbEntity
8
SK2
62
256
6
ByLayer
370
13
48
1
60
0
100
AcDbLine
10
-36
20
-36.86199
30
0
11
0
21
-36.86199
31
0
39
0
210
0
220
0
230
1
0
SOLID
5
195
100
AcDbEntity
8
SK2
62
256
6
ByLayer
370
18
48
1
60
0
100
AcDbTrace
10
-36
20
-36.86199
30
0
11
-32.500002
21
-36.401206
31
0
12
-32.499998
22
-37.322773
32
0
13
-32.499998
23
-37.322773
33
0
39
0
210
0
220
0
230
1
0
SOLID
5
196
100
AcDbEntity
8
SK2
62
256
6
ByLayer
370
18
48
1
60
0
100
AcDbTrace
10
0
20
-36.86199
30
0
11
-3.499998
21
-37.322773
31
0
12
-3.500002
22
-36.401206
32
0
13
-3.500002
23
-36.401206
33
0
39
0
210
0
220
0
230
1
0
ENDBLK
5
198
100
AcDbEntity
8
0
100
AcDbBlockEnd
0
BLOCK
5
19D
100
AcDbEntity
8
0
100
AcDbBlockBegin
2
*D9
70
1
10
0
20
0
30
0
3
*D9
0
LINE
5
19F
100
AcDbEntity
8
0
62
256
6
ByLayer
370
-2
48
1
60
0
100
AcDbLine
10
0
20
-4.5875
30
0
11
0
21
-48.86199
31
0
39
0
210
0
220
0
230
1
0
LINE
5
1A0
100
AcDbEntity
8
0
62
256
6
ByLayer
370
-2
48
1
60
0
100
AcDbLine
10
30
20
-3.3725
30
0
11
30
21
-48.86199
31
0
39
0
210
0
220
0
230
1
0
LINE
5
1A1
100
AcDbEntity
8
0
62
256
6
ByLayer
370
-2
48
1
60
0
100
AcDbLine
10
3.5
20
-46.86199
30
0
11
26.5
21
-46.86199
31
0
39
0
210
0
220
0
230
1
0
SOLID
5
1A2
100
AcDbEntity
8
0
62
256
6
ByLayer
370
-1
48
1
60
0
100
AcDbTrace
10
3.5
20
-46.278656
30
0
11
3.5
21
-47.445323
31
0
12
0
22
-46.86199
32
0
13
0
23
-46.86199
33
0
39
0
210
0
220
0
230
1
0
SOLID
5
1A3
100
AcDbEntity
8
0
62
256
6
ByLayer
370
-1
48
1
60
0
100
AcDbTrace
10
26.5
20
-47.445323
30
0
11
26.5
21
-46.278656
31
0
12
30
22
-46.86199
32
0
13
30
23
-46.86199
33
0
39
0
210
0
220
0
230
1
0
MTEXT
5
1A4
100
AcDbEntity
8
0
62
256
6
ByLayer
370
18
48
1
60
0
100
AcDbMText
10
15
20
-39.86199
30
0
210
0
220
0
230
1
1
\A1;30
40
3.5
41
0
44
1
50
0
71
5
72
5
7
iso_b_vert
0
POINT
5
1A5
100
AcDbEntity
8
Defpoints
62
0
6
ByLayer
370
-1
48
1
60
0
100
AcDbPoint
10
0
20
-3
30
0
39
0
210
0
220
0
230
1
50
360
0
POINT
5
1A6
100
AcDbEntity
8
Defpoints
62
0
6
ByLayer
370
-1
48
1
60
0
100
AcDbPoint
10
30
20
-1.785
30
0
39
0
210
0
220
0
230
1
50
360
0
POINT
5
1A7
100
AcDbEntity
8
Defpoints
62
0
6
ByLayer
370
-1
48
1
60
0
100
AcDbPoint
10
30
20
-46.86199
30
0
39
0
210
0
220
0
230
1
50
360
0
ENDBLK
5
19E
100
AcDbEntity
8
0
100
AcDbBlockEnd
0
BLOCK
5
1AF
100
AcDbEntity
8
0
100
AcDbBlockBegin
2
_U4
70
0
10
0
20
0
30
0
3
_U4
0
MTEXT
5
1A9
100
AcDbEntity
8
SK2
62
256
6
ByLayer
370
18
48
1
60
0
100
AcDbMText
10
13.095034
20
-45.829356
30
0
210
0
220
0
230
1
1
\W0.6740;30
40
3.5
41
0
44
1.084337
50
0
71
7
72
5
7
iso_b_vert
0
LINE
5
1AA
100
AcDbEntity
8
SK2
62
256
6
ByLayer
370
13
48
1
60
0
100
AcDbLine
10
0
20
-4.5875
30
0
11
0
21
-48.86199
31
0
39
0
210
0
220
0
230
1
0
LINE
5
1AB
100
AcDbEntity
8
SK2
62
256
6
ByLayer
370
13
48
1
60
0
100
AcDbLine
10
30
20
-3.3725
30
0
11
30
21
-48.86199
31
0
39
0
210
0
220
0
230
1
0
LINE
5
1AC
100
AcDbEntity
8
SK2
62
256
6
ByLayer
370
13
48
1
60
0
100
AcDbLine
10
0
20
-46.86199
30
0
11
30
21
-46.86199
31
0
39
0
210
0
220
0
230
1
0
SOLID
5
1AD
100
AcDbEntity
8
SK2
62
256
6
ByLayer
370
18
48
1
60
0
100
AcDbTrace
10
0
20
-46.86199
30
0
11
3.499998
21
-46.401206
31
0
12
3.500002
22
-47.322773
32
0
13
3.500002
23
-47.322773
33
0
39
0
210
0
220
0
230
1
0
SOLID
5
1AE
100
AcDbEntity
8
SK2
62
256
6
ByLayer
370
18
48
1
60
0
100
AcDbTrace
10
30
20
-46.86199
30
0
11
26.500002
21
-47.322773
31
0
12
26.499998
22
-46.401206
32
0
13
26.499998
23
-46.401206
33
0
39
0
210
0
220
0
230
1
0
ENDBLK
5
1B0
100
AcDbEntity
8
0
100
AcDbBlockEnd
0
ENDSEC
0
SECTION
2
ENTITIES
0
ARC
5
C1
100
AcDbEntity
8
1
62
256
6
ByLayer
370
18
48
1
60
0
100
AcDbCircle
39
0
10
1.557225
20
2.567628
30
0
40
0.800000000000007
210
0
220
0
230
1
100
AcDbArc
50
193.64122
51
270.03581
0
ARC
5
C2
100
AcDbEntity
8
1
62
256
6
ByLayer
370
18
48
1
60
0
100
AcDbCircle
39
0
10
1.557225
20
-2.567628
30
0
40
0.800000000000007
210
0
220
0
230
1
100
AcDbArc
50
89.96419
51
166.35878
0
ARC
5
C3
100
AcDbEntity
8
1
62
256
6
ByLayer
370
18
48
1
60
0
100
AcDbCircle
39
0
10
0
20
2.2
30
0
40
0.799999999999993
210
0
220
0
230
1
100
AcDbArc
50
13.64122
51
90
0
ARC
5
C4
100
AcDbEntity
8
1
62
256
6
ByLayer
370
18
48
1
60
0
100
AcDbCircle
39
0
10
0
20
-2.2
30
0
40
0.799999999999993
210
0
220
0
230
1
100
AcDbArc
50
270
51
346.35878
0
ARC
5
C5
100
AcDbEntity
8
SK2
62
256
6
ByLayer
370
13
48
1
60
0
100
AcDbCircle
39
0
10
30
20
0
30
0
40
29.35
210
0
220
0
230
1
100
AcDbArc
50
6.357545
51
69.991125
0
ARC
5
C6
100
AcDbEntity
8
SK2
62
256
6
ByLayer
370
13
48
1
60
0
100
AcDbCircle
39
0
10
30
20
0
30
0
40
29.35
210
0
220
0
230
1
100
AcDbArc
50
290.008875
51
353.642455
0
ELLIPSE
5
C7
100
AcDbEntity
8
1
62
256
6
ByLayer
370
13
48
1
60
0
100
AcDbEllipse
10
3.6702
20
-1.739944
30
0
11
0.0606967420723527
21
-0.0794726714147844
31
0
210
0
220
0
230
1
40
0.311951
41
-2.88876071299884
42
-2.49978505635471
0
ELLIPSE
5
C8
100
AcDbEntity
8
1
62
256
6
ByLayer
370
18
48
1
60
0
100
AcDbEllipse
10
3.75
20
1.93032
30
0
11
0.25
21
0
31
0
210
0
220
0
230
1
40
1
41
-2.42571757738064
42
-1.56454040741871
0
ELLIPSE
5
C9
100
AcDbEntity
8
1
62
256
6
ByLayer
370
18
48
1
60
0
100
AcDbEllipse
10
3.75
20
-1.93032
30
0
11
0.25
21
0
31
0
210
0
220
0
230
1
40
1
41
1.57173315580859
42
2.42522468686456
0
POINT
5
70
100
AcDbEntity
8
81
62
256
6
ByLayer
370
18
48
1
60
0
100
AcDbPoint
10
30
20
0
30
0
39
0
210
0
220
0
230
1
50
360
0
POINT
5
72
100
AcDbEntity
8
80
62
256
6
ByLayer
370
18
48
1
60
0
100
AcDbPoint
10
0
20
0
30
0
39
0
210
0
220
0
230
1
50
360
0
POINT
5
74
100
AcDbEntity
8
1
62
256
6
ByLayer
370
18
48
1
60
0
100
AcDbPoint
10
-223
20
-200
30
0
39
0
210
0
220
0
230
1
50
360
0
POINT
5
76
100
AcDbEntity
8
1
62
256
6
ByLayer
370
13
48
1
60
1
100
AcDbPoint
10
-37.5
20
0
30
0
39
0
210
0
220
0
230
1
50
360
0
POINT
5
77
100
AcDbEntity
8
1
62
256
6
ByLayer
370
13
48
1
60
1
100
AcDbPoint
10
30.872766
20
0
30
0
39
0
210
0
220
0
230
1
50
360
0
POINT
5
78
100
AcDbEntity
8
1
62
256
6
ByLayer
370
18
48
1
60
1
100
AcDbPoint
10
-36
20
-3
30
0
39
0
210
0
220
0
230
1
50
360
0
POINT
5
79
100
AcDbEntity
8
1
62
256
6
ByLayer
370
18
48
1
60
1
100
AcDbPoint
10
30
20
-1.785
30
0
39
0
210
0
220
0
230
1
50
360
0
POINT
5
7A
100
AcDbEntity
8
1
62
256
6
ByLayer
370
18
48
1
60
1
100
AcDbPoint
10
30
20
-1.785
30
0
39
0
210
0
220
0
230
1
50
360
0
POINT
5
7B
100
AcDbEntity
8
1
62
256
6
ByLayer
370
18
48
1
60
1
100
AcDbPoint
10
2
20
-1.785
30
0
39
0
210
0
220
0
230
1
50
360
0
POINT
5
7C
100
AcDbEntity
8
1
62
256
6
ByLayer
370
18
48
1
60
1
100
AcDbPoint
10
30
20
-1.785
30
0
39
0
210
0
220
0
230
1
50
360
0
POINT
5
7D
100
AcDbEntity
8
1
62
256
6
ByLayer
370
18
48
1
60
1
100
AcDbPoint
10
11
20
-1.785
30
0
39
0
210
0
220
0
230
1
50
360
0
POINT
5
7E
100
AcDbEntity
8
1
62
256
6
ByLayer
370
18
48
1
60
1
100
AcDbPoint
10
-36
20
-3
30
0
39
0
210
0
220
0
230
1
50
360
0
POINT
5
7F
100
AcDbEntity
8
1
62
256
6
ByLayer
370
18
48
1
60
1
100
AcDbPoint
10
0
20
-3
30
0
39
0
210
0
220
0
230
1
50
360
0
POINT
5
80
100
AcDbEntity
8
1
62
256
6
ByLayer
370
18
48
1
60
1
100
AcDbPoint
10
0
20
-3
30
0
39
0
210
0
220
0
230
1
50
360
0
POINT
5
81
100
AcDbEntity
8
1
62
256
6
ByLayer
370
18
48
1
60
1
100
AcDbPoint
10
30
20
-1.785
30
0
39
0
210
0
220
0
230
1
50
360
0
SPLINE
5
CA
100
AcDbEntity
8
1
62
256
6
ByLayer
370
18
48
1
60
0
100
AcDbSpline
70
4
71
3
72
8
73
4
40
0
40
0
40
0
40
0
40
1
40
1
40
1
40
1
41
1
10
29.8351655024475
20
0.594138870062949
30
0
41
1
10
29.8906916909825
20
0.43885469038608
30
0
41
1
10
29.9447776331781
20
0.283050558301454
30
0
41
1
10
29.9974018735902
20
0.126718728043897
30
0
0
SPLINE
5
CB
100
AcDbEntity
8
1
62
256
6
ByLayer
370
18
48
1
60
0
100
AcDbSpline
70
4
71
3
72
8
73
4
40
0
40
0
40
0
40
0
40
1
40
1
40
1
40
1
41
1
10
3.57177834669892
20
1.69847055872222
30
0
41
1
10
3.56733205084561
20
1.70347167772135
30
0
41
1
10
3.56306984845125
20
1.70864481689884
30
0
41
1
10
3.55898514440867
20
1.71398325704777
30
0
0
SPLINE
5
CC
100
AcDbEntity
8
1
62
256
6
ByLayer
370
18
48
1
60
0
100
AcDbSpline
70
4
71
3
72
10
73
6
40
0
40
0
40
0
40
0
40
0.5
40
0.5
40
1
40
1
40
1
40
1
41
1
10
29.6384264612279
20
-0.267655201444029
30
0
41
1
10
29.6372950247091
20
-0.267565815945375
30
0
41
1
10
29.6364398141959
20
-0.267784642117306
30
0
41
1
10
29.6352915465837
20
-0.268849542581137
30
0
41
1
10
29.6350016399712
20
-0.269701548297832
30
0
41
1
10
29.6349966928791
20
-0.27084719272554
30
0
0
SPLINE
5
CD
100
AcDbEntity
8
1
62
256
6
ByLayer
370
18
48
1
60
0
100
AcDbSpline
70
4
71
3
72
16
73
12
40
0
40
0
40
0
40
0
40
0.24999999999994
40
0.24999999999994
40
0.37499999999991
40
0.37499999999991
40
0.49999999999988
40
0.49999999999988
40
0.74999999999994
40
0.74999999999994
40
1
40
1
40
1
40
1
41
1
10
29.6349966928793
20
-0.270847192725597
30
0
41
1
10
29.6349871493089
20
-0.273057286655671
30
0
41
1
10
29.6368373772462
20
-0.276408709820686
30
0
41
1
10
29.6415490446052
20
-0.282647949719575
30
0
41
1
10
29.6434565430909
20
-0.284940424484773
30
0
41
1
10
29.6477162158152
20
-0.289753419589943
30
0
41
1
10
29.6500786136109
20
-0.292288275412488
30
0
41
1
10
29.6577249660818
20
-0.300208631039993
30
0
41
1
10
29.6635733558487
20
-0.305917828937368
30
0
41
1
10
29.6762549474257
20
-0.317909011374184
30
0
41
1
10
29.6830017103642
20
-0.324109243597263
30
0
41
1
10
29.6900290846573
20
-0.330467352996521
30
0
0
SPLINE
5
CE
100
AcDbEntity
8
1
62
256
6
ByLayer
370
18
48
1
60
0
100
AcDbSpline
70
4
71
3
72
8
73
4
40
0
40
0
40
0
40
0
40
1
40
1
40
1
40
1
41
1
10
3.61700001428812
20
-1.65824716012844
30
0
41
1
10
3.60014658063179
20
-1.6699818883514
30
0
41
1
10
3.58513233318968
20
-1.68345026367277
30
0
41
1
10
3.57177861014262
20
-1.69847026240569
30
0
0
SPLINE
5
CF
100
AcDbEntity
8
1
62
256
6
ByLayer
370
18
48
1
60
0
100
AcDbSpline
70
4
71
3
72
32
73
28
40
0
40
0
40
0
40
0
40
0.125000000000052
40
0.125000000000052
40
0.187500000000067
40
0.187500000000067
40
0.250000000000082
40
0.250000000000082
40
0.375000000000112
40
0.375000000000112
40
0.437500000000126
40
0.437500000000126
40
0.500000000000141
40
0.500000000000141
40
0.625000000000171
40
0.625000000000171
40
0.656250000000157
40
0.656250000000157
40
0.687500000000142
40
0.750000000000114
40
0.750000000000114
40
0.812500000000085
40
0.812500000000085
40
0.875000000000057
40
0.937500000000029
40
0.937500000000029
40
1
40
1
40
1
40
1
41
1
10
29.9679242468876
20
0.0277072556214932
30
0
41
1
10
29.9598899425543
20
0.0009017643923244
30
0
41
1
10
29.9509317089457
20
-0.0254423153072025
30
0
41
1
10
29.9361178065708
20
-0.064250503518906
30
0
41
1
10
29.9309493348893
20
-0.0770680198784532
30
0
41
1
10
29.9201362120496
20
-0.102454523342885
30
0
41
1
10
29.9144594504037
20
-0.115086582586713
30
0
41
1
10
29.8970687178554
20
-0.151765556721642
30
0
41
1
10
29.8849273483541
20
-0.174805793660141
30
0
41
1
10
29.8659260842574
20
-0.207122128694635
30
0
41
1
10
29.8594595097586
20
-0.217517707741621
30
0
41
1
10
29.8462466737695
20
-0.237494527012302
30
0
41
1
10
29.8395905674766
20
-0.246933436486586
30
0
41
1
10
29.8197498065846
20
-0.273229936263022
30
0
41
1
10
29.8065816312957
20
-0.288263520325842
30
0
41
1
10
29.7901580500793
20
-0.303762421946715
30
0
41
1
10
29.7868696843403
20
-0.306698881915167
30
0
41
1
10
29.780389396719
20
-0.312151967409704
30
0
41
1
10
29.7707788115575
20
-0.319735936662454
30
0
41
1
10
29.7614781811091
20
-0.325579592415949
30
0
41
1
10
29.749322586391
20
-0.331859394179844
30
0
41
1
10
29.7433636390197
20
-0.334244316927141
30
0
41
1
10
29.7316796968834
20
-0.337487301098804
30
0
41
1
10
29.7204287873899
20
-0.339151341577519
30
0
41
1
10
29.7099211770059
20
-0.337882079247294
30
0
41
1
10
29.6997371520185
20
-0.335213530693608
30
0
41
1
10
29.694786986981
20
-0.333166932517941
30
0
41
1
10
29.6900290846556
20
-0.330467352993566
30
0
0
SPLINE
5
D0
100
AcDbEntity
8
1
62
256
6
ByLayer
370
18
48
1
60
0
100
AcDbSpline
70
4
71
3
72
94
73
90
40
0
40
0
40
0
40
0
40
0.0156250000000066
40
0.0156250000000066
40
0.0312500000000133
40
0.0468750000000199
40
0.0468750000000199
40
0.0625000000000266
40
0.0625000000000266
40
0.0937500000000391
40
0.0937500000000391
40
0.109375000000045
40
0.109375000000045
40
0.125000000000052
40
0.125000000000052
40
0.156250000000058
40
0.156250000000058
40
0.187500000000065
40
0.187500000000065
40
0.218750000000071
40
0.218750000000071
40
0.250000000000078
40
0.250000000000078
40
0.281250000000084
40
0.281250000000084
40
0.296875000000087
40
0.296875000000087
40
0.312500000000091
40
0.312500000000091
40
0.375000000000072
40
0.375000000000072
40
0.390625000000072
40
0.390625000000072
40
0.406250000000072
40
0.406250000000072
40
0.437500000000082
40
0.437500000000082
40
0.453125000000087
40
0.453125000000087
40
0.468750000000092
40
0.468750000000092
40
0.500000000000094
40
0.500000000000094
40
0.515625000000095
40
0.515625000000095
40
0.531250000000096
40
0.531250000000096
40
0.562500000000093
40
0.562500000000093
40
0.578125000000091
40
0.578125000000091
40
0.59375000000009
40
0.59375000000009
40
0.625000000000087
40
0.625000000000087
40
0.640625000000085
40
0.640625000000085
40
0.656250000000084
40
0.656250000000084
40
0.687500000000079
40
0.687500000000079
40
0.703125000000077
40
0.703125000000077
40
0.718750000000075
40
0.718750000000075
40
0.75000000000007
40
0.75000000000007
40
0.765625000000065
40
0.765625000000065
40
0.781250000000059
40
0.796875000000053
40
0.796875000000053
40
0.812500000000047
40
0.812500000000047
40
0.843750000000035
40
0.843750000000035
40
0.859375000000029
40
0.859375000000029
40
0.875000000000023
40
0.875000000000023
40
0.906250000000023
40
0.906250000000023
40
0.921875000000023
40
0.921875000000023
40
0.937500000000023
40
0.937500000000023
40
0.968750000000012
40
0.968750000000012
40
1
40
1
40
1
40
1
41
1
10
29.6900290846535
20
-0.330467352998028
30
0
41
1
10
29.6913319795687
20
-0.335220294543177
30
0
41
1
10
29.6924792907894
20
-0.34027046492065
30
0
41
1
10
29.6944002969303
20
-0.350783243063546
30
0
41
1
10
29.6959621798546
20
-0.361755567686146
30
0
41
1
10
29.6967800594241
20
-0.373684164356092
30
0
41
1
10
29.6972042425946
20
-0.386123450874095
30
0
41
1
10
29.6972171449502
20
-0.392643410497215
30
0
41
1
10
29.6966356238177
20
-0.412603141287519
30
0
41
1
10
29.6954390457984
20
-0.426465521469055
30
0
41
1
10
29.6924436586692
20
-0.44812406704969
30
0
41
1
10
29.6912407726743
20
-0.455506090506162
30
0
41
1
10
29.6884345174761
20
-0.470504702102403
30
0
41
1
10
29.6868550566199
20
-0.477998512745188
30
0
41
1
10
29.6816261914489
20
-0.500468230551263
30
0
41
1
10
29.6774762977174
20
-0.51547673156935
30
0
41
1
10
29.6680279419634
20
-0.545301825735862
30
0
41
1
10
29.6628713587357
20
-0.559687503174558
30
0
41
1
10
29.6518479350493
20
-0.587531055575141
30
0
41
1
10
29.6459447815674
20
-0.601041477710453
30
0
41
1
10
29.6339472452581
20
-0.626235656283313
30
0
41
1
10
29.6278041183699
20
-0.638052350657119
30
0
41
1
10
29.6152741681144
20
-0.660217753741136
30
0
41
1
10
29.6089942371516
20
-0.670370876880412
30
0
41
1
10
29.5996529608063
20
-0.684172372605872
30
0
41
1
10
29.5965468749661
20
-0.688542539412083
30
0
41
1
10
29.5903488747383
20
-0.696827945080543
30
0
41
1
10
29.5872465732725
20
-0.700754307127795
30
0
41
1
10
29.5720023648286
20
-0.718966245981278
30
0
41
1
10
29.5604669291031
20
-0.72936954991718
30
0
41
1
10
29.5466660641696
20
-0.737297327277957
30
0
41
1
10
29.5439483916182
20
-0.738614165738284
30
0
41
1
10
29.5386536973472
20
-0.74068780435212
30
0
41
1
10
29.5360670481152
20
-0.741450343707299
30
0
41
1
10
29.5284769660011
20
-0.742923912952222
30
0
41
1
10
29.5236425352952
20
-0.742826081211348
30
0
41
1
10
29.5166975340675
20
-0.741001645652091
30
0
41
1
10
29.5144254502541
20
-0.740107732226733
30
0
41
1
10
29.5100234216048
20
-0.737755593054573
30
0
41
1
10
29.5079003766986
20
-0.736303857395114
30
0
41
1
10
29.5017518753569
20
-0.731131251096599
30
0
41
1
10
29.4979453937339
20
-0.72659845264451
30
0
41
1
10
29.492652141471
20
-0.718115092074186
30
0
41
1
10
29.4909575429549
20
-0.715005305470839
30
0
41
1
10
29.4877096560235
20
-0.708193822521707
30
0
41
1
10
29.4861540184457
20
-0.704480692233318
30
0
41
1
10
29.4817907005295
20
-0.692643639731244
30
0
41
1
10
29.4792514921945
20
-0.68376901719364
30
0
41
1
10
29.4760003048271
20
-0.668938288236518
30
0
41
1
10
29.4750101795173
20
-0.663740240889354
30
0
41
1
10
29.4732268388466
20
-0.652809035137039
30
0
41
1
10
29.472430458399
20
-0.647047510275485
30
0
41
1
10
29.4703851442063
20
-0.629098651093045
30
0
41
1
10
29.469490225492
20
-0.616424022963969
30
0
41
1
10
29.4688925385853
20
-0.596328515688612
30
0
41
1
10
29.4688183806745
20
-0.589448313328717
30
0
41
1
10
29.4689405679447
20
-0.575305869180568
30
0
41
1
10
29.4691391219502
20
-0.567999232341862
30
0
41
1
10
29.4701718883597
20
-0.54578746152464
30
0
41
1
10
29.4714232880206
20
-0.530775248220465
30
0
41
1
10
29.4742119144397
20
-0.507956921111372
30
0
41
1
10
29.475294437253
20
-0.500300480625668
30
0
41
1
10
29.4777911959776
20
-0.484883797075639
30
0
41
1
10
29.479203233886
20
-0.477153004806098
30
0
41
1
10
29.4838417949953
20
-0.454425931338875
30
0
41
1
10
29.4874985766713
20
-0.439690960601013
30
0
41
1
10
29.4938754972882
20
-0.418215262639507
30
0
41
1
10
29.4961541727857
20
-0.411159746896118
30
0
41
1
10
29.5009046592876
20
-0.397586625034222
30
0
41
1
10
29.5058731468943
20
-0.384462567474174
30
0
41
1
10
29.5112681169954
20
-0.372195838657888
30
0
41
1
10
29.5168752995142
20
-0.360348205274306
30
0
41
1
10
29.5197898368747
20
-0.354629474739568
30
0
41
1
10
29.528677734578
20
-0.33839900896578
30
0
41
1
10
29.5348478774219
20
-0.328686732834228
30
0
41
1
10
29.5444361845644
20
-0.315616578355929
30
0
41
1
10
29.5477009053005
20
-0.311497066446861
30
0
41
1
10
29.5542592856769
20
-0.303840064944069
30
0
41
1
10
29.5575536733352
20
-0.300298340947649
30
0
41
1
10
29.5674758772086
20
-0.290478455302036
30
0
41
1
10
29.5741428104185
20
-0.285000225102522
30
0
41
1
10
29.584194825133
20
-0.278281925852809
30
0
41
1
10
29.5875603263962
20
-0.276292091404059
30
0
41
1
10
29.59421677557
20
-0.272852557068916
30
0
41
1
10
29.5975179629145
20
-0.271395039931463
30
0
41
1
10
29.6073360582035
20
-0.267777848156783
30
0
41
1
10
29.6137682315091
20
-0.266368537733939
30
0
41
1
10
29.6263660362847
20
-0.265517441199563
30
0
41
1
10
29.632557537339
20
-0.266094306466101
30
0
41
1
10
29.6384264612232
20
-0.267655201443091
30
0
0
SPLINE
5
D1
100
AcDbEntity
8
1
62
256
6
ByLayer
370
18
48
1
60
0
100
AcDbSpline
70
4
71
3
72
10
73
6
40
0
40
0
40
0
40
0
40
0.5
40
0.5
40
1
40
1
40
1
40
1
41
1
10
29.6384264612256
20
-0.267655201439169
30
0
41
1
10
29.5928694165351
20
-0.192243054804209
30
0
41
1
10
29.542860564622
20
-0.112766752858846
30
0
41
1
10
29.4333235610001
20
0.0548762347199272
30
0
41
1
10
29.3737937116649
20
0.143044470152006
30
0
41
1
10
29.3092695010423
20
0.235772170751346
30
0
0
SPLINE
5
D2
100
AcDbEntity
8
1
62
256
6
ByLayer
370
18
48
1
60
0
100
AcDbSpline
70
4
71
3
72
8
73
4
40
0
40
0
40
0
40
0
40
1
40
1
40
1
40
1
41
1
10
29.8351655024475
20
-0.594138870062949
30
0
41
1
10
29.8906916909847
20
-0.438854690379912
30
0
41
1
10
29.9447776331824
20
-0.283050558289062
30
0
41
1
10
29.9974018735965
20
-0.126718728025253
30
0
0
SPLINE
5
D3
100
AcDbEntity
8
1
62
256
6
ByLayer
370
18
48
1
60
0
100
AcDbSpline
70
4
71
3
72
8
73
4
40
0
40
0
40
0
40
0
40
1
40
1
40
1
40
1
41
1
10
29.9974018735902
20
0.126718728043897
30
0
41
1
10
30.0008811540132
20
0.0418710492592425
30
0
41
1
10
30.0008510609593
20
-0.0426049152973178
30
0
41
1
10
29.9974018735907
20
-0.126718728030284
30
0
0
SPLINE
5
D4
100
AcDbEntity
8
1
62
256
6
ByLayer
370
18
48
1
60
0
100
AcDbSpline
70
4
71
3
72
8
73
4
40
0
40
0
40
0
40
0
40
1
40
1
40
1
40
1
41
1
10
29.9974018735902
20
0.126718728043869
30
0
41
1
10
29.9876364469296
20
0.093695265261573
30
0
41
1
10
29.9778104761917
20
0.0606914720397072
30
0
41
1
10
29.9679242468876
20
0.0277072556214648
30
0
0
SPLINE
5
D5
100
AcDbEntity
8
1
62
256
6
ByLayer
370
18
48
1
60
0
100
AcDbSpline
70
4
71
3
72
22
73
18
40
0
40
0
40
0
40
0
40
0.500000000000005
40
0.500000000000005
40
0.750000000000008
40
0.750000000000008
40
0.875000000000007
40
0.875000000000007
40
0.937500000000007
40
0.937500000000007
40
0.968750000000005
40
0.968750000000005
40
0.984375000000005
40
0.984375000000005
40
0.992187500000002
40
0.992187500000002
40
1
40
1
40
1
40
1
41
1
10
29.3523579921735
20
-1.78489268584417
30
0
41
1
10
29.3596620745545
20
-1.76932296644719
30
0
41
1
10
29.3671177198068
20
-1.75374843822777
30
0
41
1
10
29.3785466097338
20
-1.73029330119411
30
0
41
1
10
29.3823983734695
20
-1.72245429623902
30
0
41
1
10
29.3882118026714
20
-1.71077344232072
30
0
41
1
10
29.390151291233
20
-1.70691036071989
30
0
41
1
10
29.393090649431
20
-1.70104854322591
30
0
41
1
10
29.3940767556724
20
-1.6990780415106
30
0
41
1
10
29.3955661491147
20
-1.69609442160066
30
0
41
1
10
29.3960625243742
20
-1.69510253618731
30
0
41
1
10
29.3967809246344
20
-1.69372451336454
30
0
41
1
10
29.3970238868557
20
-1.69325306678098
30
0
41
1
10
29.3974112960484
20
-1.6924438334641
30
0
41
1
10
29.3975436141679
20
-1.69216018293579
30
0
41
1
10
29.3977971219094
20
-1.69164310907703
30
0
41
1
10
29.397920207046
20
-1.69141933904621
30
0
41
1
10
29.3979730318184
20
-1.69139573428029
30
0
0
SPLINE
5
D6
100
AcDbEntity
8
1
62
256
6
ByLayer
370
18
48
1
60
0
100
AcDbSpline
70
4
71
3
72
22
73
18
40
0
40
0
40
0
40
0
40
0.499999999999949
40
0.499999999999949
40
0.749999999999924
40
0.749999999999924
40
0.874999999999911
40
0.874999999999911
40
0.937499999999854
40
0.937499999999854
40
0.968749999999877
40
0.968749999999877
40
0.984374999999938
40
0.984374999999938
40
0.992187499999969
40
0.992187499999969
40
1
40
1
40
1
40
1
41
1
10
29.3523579921737
20
1.78489268584403
30
0
41
1
10
29.3596620745532
20
1.76932296644986
30
0
41
1
10
29.3671177198041
20
1.75374843823326
30
0
41
1
10
29.378546609729
20
1.73029330120392
30
0
41
1
10
29.3823983734639
20
1.72245429625025
30
0
41
1
10
29.3882118026648
20
1.71077344233396
30
0
41
1
10
29.3901512912261
20
1.70691036073379
30
0
41
1
10
29.3930906494234
20
1.70104854324106
30
0
41
1
10
29.3940767556645
20
1.69907804152641
30
0
41
1
10
29.3955661491065
20
1.69609442161689
30
0
41
1
10
29.3960625243662
20
1.69510253620271
30
0
41
1
10
29.3967809246264
20
1.69372451337989
30
0
41
1
10
29.3970238868472
20
1.69325306679806
30
0
41
1
10
29.3974112960395
20
1.69244383348305
30
0
41
1
10
29.3975436141588
20
1.69216018295498
30
0
41
1
10
29.3977971219011
20
1.69164310909329
30
0
41
1
10
29.3979202070398
20
1.69141933905468
30
0
41
1
10
29.3979730318148
20
1.69139573428194
30
0
0
SPLINE
5
D7
100
AcDbEntity
8
1
62
256
6
ByLayer
370
18
48
1
60
0
100
AcDbSpline
70
4
71
3
72
12
73
8
40
0
40
0
40
0
40
0
40
0.500000000000028
40
0.500000000000028
40
0.750000000000014
40
0.750000000000014
40
1
40
1
40
1
40
1
41
1
10
29.3092695010421
20
0.235772170751204
30
0
41
1
10
29.2829677682449
20
0.224212839438735
30
0
41
1
10
29.2571710319828
20
0.209594508777201
30
0
41
1
10
29.2195596067529
20
0.182923676398389
30
0
41
1
10
29.2072045780481
20
0.173225951089108
30
0
41
1
10
29.1829273407542
20
0.152084284277265
30
0
41
1
10
29.171060991315
20
0.140677933599932
30
0
41
1
10
29.1595504540598
20
0.128515704598897
30
0
0
SPLINE
5
D8
100
AcDbEntity
8
1
62
256
6
ByLayer
370
18
48
1
60
0
100
AcDbSpline
70
4
71
3
72
26
73
22
40
0
40
0
40
0
40
0
40
0.126650601568508
40
0.126650601568508
40
0.253301203137016
40
0.253301203137016
40
0.506602406274032
40
0.506602406274032
40
0.569927707058308
40
0.569927707058308
40
0.633253007842586
40
0.633253007842586
40
0.759903609411182
40
0.759903609411182
40
0.82322891019548
40
0.82322891019548
40
0.886554210979778
40
0.886554210979778
40
0.949879511764076
40
0.949879511764076
40
1
40
1
40
1
40
1
41
1
10
29.3092695010424
20
0.235772170751119
30
0
41
1
10
29.2975180932017
20
0.246509485761152
30
0
41
1
10
29.2858605170407
20
0.257078953502088
30
0
41
1
10
29.2627479266025
20
0.277889260787361
30
0
41
1
10
29.2513633590066
20
0.288051840952818
30
0
41
1
10
29.21801113748
20
0.317407450853523
30
0
41
1
10
29.1967543899226
20
0.335596291351692
30
0
41
1
10
29.1720762213041
20
0.355658719758964
30
0
41
1
10
29.167222378336
20
0.359547804145819
30
0
41
1
10
29.1577972384199
20
0.366979314066953
30
0
41
1
10
29.1532220235838
20
0.370525212604889
30
0
41
1
10
29.1399009241325
20
0.380662638733469
30
0
41
1
10
29.1315543266339
20
0.386760398925873
30
0
41
1
10
29.1199679896435
20
0.394752578911096
30
0
41
1
10
29.116270422986
20
0.39721315803925
30
0
41
1
10
29.1092236204045
20
0.401703562702721
30
0
41
1
10
29.1058612405208
20
0.403749642353148
30
0
41
1
10
29.0992270489357
20
0.407729803009886
30
0
41
1
10
29.095965548525
20
0.409651132842953
30
0
41
1
10
29.0905397119863
20
0.412577398378261
30
0
41
1
10
29.0882918457883
20
0.413680521255884
30
0
41
1
10
29.0862511677776
20
0.41455051807398
30
0
0
SPLINE
5
D9
100
AcDbEntity
8
1
62
256
6
ByLayer
370
18
48
1
60
0
100
AcDbSpline
70
4
71
3
72
24
73
20
40
0
40
0
40
0
40
0
40
0.14096193948878
40
0.14096193948878
40
0.248341697052682
40
0.248341697052682
40
0.355721454616585
40
0.355721454616585
40
0.463101212180487
40
0.463101212180487
40
0.57048096974439
40
0.57048096974439
40
0.677860727308292
40
0.677860727308292
40
0.785240484872195
40
0.785240484872195
40
0.892620242436097
40
0.892620242436097
40
1
40
1
40
1
40
1
41
1
10
29.1896836444451
20
0.335288784992286
30
0
41
1
10
29.2002370377533
20
0.341616770606862
30
0
41
1
10
29.2116996772103
20
0.348662155724412
30
0
41
1
10
29.2335252083204
20
0.362222759584768
30
0
41
1
10
29.2435205682409
20
0.368470130589429
30
0
41
1
10
29.2646882199345
20
0.381566331519878
30
0
41
1
10
29.2756889233863
20
0.388307097587386
30
0
41
1
10
29.2986095917708
20
0.4019535257315
30
0
41
1
10
29.3105337889335
20
0.408851607733197
30
0
41
1
10
29.3353016931124
20
0.42278135422896
30
0
41
1
10
29.3481352857354
20
0.429831256899831
30
0
41
1
10
29.3748614976971
20
0.443850042694066
30
0
41
1
10
29.3885730869494
20
0.450698446880722
30
0
41
1
10
29.4165881863577
20
0.46365390915139
30
0
41
1
10
29.4309247062922
20
0.469776412450841
30
0
41
1
10
29.4603562356895
20
0.480993435417076
30
0
41
1
10
29.4754563860926
20
0.486074654462641
30
0
41
1
10
29.5064644709466
20
0.495025621928107
30
0
41
1
10
29.5222725011051
20
0.498873630935094
30
0
41
1
10
29.5382031494396
20
0.50204478255165
30
0
0
SPLINE
5
DA
100
AcDbEntity
8
1
62
256
6
ByLayer
370
18
48
1
60
0
100
AcDbSpline
70
4
71
3
72
12
73
8
40
0
40
0
40
0
40
0
40
0.5
40
0.5
40
0.75
40
0.75
40
1
40
1
40
1
40
1
41
1
10
29.5382031494392
20
0.502044782552645
30
0
41
1
10
29.589071747224
20
0.512170675279066
30
0
41
1
10
29.639523416728
20
0.523988613087766
30
0
41
1
10
29.7141150918176
20
0.546122205521726
30
0
41
1
10
29.7387922188212
20
0.554258028037168
30
0
41
1
10
29.7876396684603
20
0.572586467672664
30
0
41
1
10
29.8117355648634
20
0.582750288928395
30
0
41
1
10
29.8351655024487
20
0.594138870061244
30
0
0
SPLINE
5
DB
100
AcDbEntity
8
1
62
256
6
ByLayer
370
18
48
1
60
0
100
AcDbSpline
70
4
71
3
72
28
73
24
40
0
40
0
40
0
40
0
40
0.249999999999991
40
0.249999999999991
40
0.37499999999998
40
0.37499999999998
40
0.49999999999997
40
0.49999999999997
40
0.56249999999997
40
0.56249999999997
40
0.593749999999977
40
0.593749999999977
40
0.624999999999983
40
0.624999999999983
40
0.687499999999983
40
0.687499999999983
40
0.749999999999984
40
0.749999999999984
40
0.874999999999984
40
0.874999999999984
40
0.937499999999992
40
0.937499999999992
40
1
40
1
40
1
40
1
41
1
10
29.3979730318171
20
1.69139573428049
30
0
41
1
10
29.4316114559488
20
1.59904736222384
30
0
41
1
10
29.4650694623195
20
1.50585948626792
30
0
41
1
10
29.5158270732756
20
1.36529873745434
30
0
41
1
10
29.5328232780028
20
1.31835731006544
30
0
41
1
10
29.5670054766817
20
1.22450269989059
30
0
41
1
10
29.5842063369255
20
1.17756728414943
30
0
41
1
10
29.6101840431992
20
1.10717640642346
30
0
41
1
10
29.6188701153702
20
1.08371529621357
30
0
41
1
10
29.6319316882621
20
1.04854034534051
30
0
41
1
10
29.6362856096344
20
1.03681539714827
30
0
41
1
10
29.6450999186899
20
1.01340619821229
30
0
41
1
10
29.6495458361325
20
1.00171641326756
30
0
41
1
10
29.6630133948553
20
0.966696605367503
30
0
41
1
10
29.6721609254125
20
0.943434460705873
30
0
41
1
10
29.6907250752865
20
0.897457612373813
30
0
41
1
10
29.7001592329032
20
0.87469667952854
30
0
41
1
10
29.7289983902512
20
0.807136526245927
30
0
41
1
10
29.7489472690011
20
0.763069700464058
30
0
41
1
10
29.7802317426389
20
0.698541709833364
30
0
41
1
10
29.7908847322353
20
0.677291662314133
30
0
41
1
10
29.8126687349194
20
0.635308649057038
30
0
41
1
10
29.8238321623317
20
0.614515183559121
30
0
41
1
10
29.8351655024475
20
0.594138870062949
30
0
0
SPLINE
5
DC
100
AcDbEntity
8
1
62
256
6
ByLayer
370
18
48
1
60
0
100
AcDbSpline
70
4
71
3
72
26
73
22
40
0
40
0
40
0
40
0
40
0.114705190857232
40
0.114705190857232
40
0.229410381714463
40
0.229410381714463
40
0.344115572571695
40
0.344115572571695
40
0.458820763428926
40
0.458820763428926
40
0.573525954286157
40
0.573525954286157
40
0.688231145143389
40
0.688231145143389
40
0.80293633600062
40
0.80293633600062
40
0.860288931429243
40
0.860288931429243
40
0.917641526857865
40
0.917641526857865
40
1
40
1
40
1
40
1
41
1
10
29.3979730318092
20
1.69139573428126
30
0
41
1
10
29.3086541235864
20
1.6948273770403
30
0
41
1
10
29.2192120587345
20
1.69582790224919
30
0
41
1
10
29.0397819805021
20
1.69287768782203
30
0
41
1
10
28.9497915141031
20
1.68892802056905
30
0
41
1
10
28.769083121918
20
1.67601775827939
30
0
41
1
10
28.6786299088429
20
1.66707064281059
30
0
41
1
10
28.4980007765376
20
1.64409089520046
30
0
41
1
10
28.4076486857547
20
1.63012480833163
30
0
41
1
10
28.2272074207932
20
1.59748278251604
30
0
41
1
10
28.1371536379536
20
1.5787970709024
30
0
41
1
10
27.9570853332528
20
1.53681858850541
30
0
41
1
10
27.8670731744818
20
1.51348199384299
30
0
41
1
10
27.6868894265857
20
1.46231053782731
30
0
41
1
10
27.5967193897736
20
1.43452752772467
30
0
41
1
10
27.4613184790595
20
1.38955757681578
30
0
41
1
10
27.4161629510689
20
1.37403048664936
30
0
41
1
10
27.3260979683604
20
1.34206476447798
30
0
41
1
10
27.2811418301745
20
1.32561526260366
30
0
41
1
10
27.1717900255235
20
1.28444415802588
30
0
41
1
10
27.1074772400537
20
1.25922503268839
30
0
41
1
10
27.0432594531524
20
1.23312826700726
30
0
0
SPLINE
5
DD
100
AcDbEntity
8
1
62
256
6
ByLayer
370
18
48
1
60
0
100
AcDbSpline
70
4
71
3
72
56
73
52
40
0
40
0
40
0
40
0
40
0.0006661495753093
40
0.0006661495753093
40
0.0482534757860087
40
0.0482534757860087
40
0.0958408019967082
40
0.0958408019967082
40
0.143428128207407
40
0.143428128207407
40
0.191015454418107
40
0.191015454418107
40
0.238602780628806
40
0.238602780628806
40
0.286190106839506
40
0.286190106839506
40
0.333777433050205
40
0.333777433050205
40
0.357571096155554
40
0.357571096155554
40
0.381364759260904
40
0.381364759260904
40
0.428952085471606
40
0.428952085471606
40
0.476539411682308
40
0.476539411682308
40
0.52412673789301
40
0.52412673789301
40
0.571714064103712
40
0.571714064103712
40
0.595507727209062
40
0.595507727209062
40
0.619301390314411
40
0.619301390314411
40
0.666888716525111
40
0.666888716525111
40
0.71447604273581
40
0.71447604273581
40
0.762063368946509
40
0.762063368946509
40
0.809650695157209
40
0.809650695157209
40
0.857238021367908
40
0.857238021367908
40
0.904825347578607
40
0.904825347578607
40
0.928619010683955
40
0.928619010683955
40
0.952412673789304
40
0.952412673789304
40
1
40
1
40
1
40
1
41
1
10
17.8114664411416
20
-1.13472182832956
30
0
41
1
10
17.8102034744484
20
-1.13416811319377
30
0
41
1
10
17.8089404882762
20
-1.13361405020808
30
0
41
1
10
17.7174528995426
20
-1.09345452992429
30
0
41
1
10
17.6270615336641
20
-1.05188293430373
30
0
41
1
10
17.4471263839417
20
-0.966117319945965
30
0
41
1
10
17.357435057223
20
-0.921892012678796
30
0
41
1
10
17.1784351738157
20
-0.831059488738049
30
0
41
1
10
17.0891090552781
20
-0.784476608888212
30
0
41
1
10
16.9105442386486
20
-0.689383759825603
30
0
41
1
10
16.8213040167955
20
-0.640880025774322
30
0
41
1
10
16.6427943659188
20
-0.54216147974023
30
0
41
1
10
16.5535861195192
20
-0.491832740636909
30
0
41
1
10
16.3749607229933
20
-0.389712389886057
30
0
41
1
10
16.285523683382
20
-0.337959671228106
30
0
41
1
10
16.1062491612923
20
-0.233289198755045
30
0
41
1
10
16.0163987722138
20
-0.180392213299427
30
0
41
1
10
15.8810841694669
20
-0.100564452158864
30
0
41
1
10
15.8358826502634
20
-0.0738677155380856
30
0
41
1
10
15.7455206776143
20
-0.0204922111417716
30
0
41
1
10
15.7003318889516
20
0.0061999913811235
30
0
41
1
10
15.5647683364702
20
0.0862458107512794
30
0
41
1
10
15.4744482834222
20
0.139668267691263
30
0
41
1
10
15.2938958841889
20
0.245970715320567
30
0
41
1
10
15.2035647087982
20
0.298840200511563
30
0
41
1
10
15.0232761717968
20
0.403373548728297
30
0
41
1
10
14.9332526178773
20
0.455056254352002
30
0
41
1
10
14.7531567590109
20
0.556783590833703
30
0
41
1
10
14.6630874330752
20
0.606834530694272
30
0
41
1
10
14.5278475647379
20
0.680509042815572
30
0
41
1
10
14.4827508415629
20
0.704840622065205
30
0
41
1
10
14.3925290559259
20
0.753046711703263
30
0
41
1
10
14.3473547219517
20
0.776936584457161
30
0
41
1
10
14.2120945767275
20
0.847567164197102
30
0
41
1
10
14.1222387983564
20
0.893274284705882
30
0
41
1
10
13.9429781349281
20
0.981753750758656
30
0
41
1
10
13.8535696274795
20
1.0245243657248
30
0
41
1
10
13.6749156562771
20
1.10675180597917
30
0
41
1
10
13.5856718213025
20
1.14621436328633
30
0
41
1
10
13.4071890258844
20
1.22172126829605
30
0
41
1
10
13.318001322316
20
1.25781412938622
30
0
41
1
10
13.1395600959377
20
1.32633614462895
30
0
41
1
10
13.0502637099422
20
1.35873395466885
30
0
41
1
10
12.8713282207609
20
1.41959134619344
30
0
41
1
10
12.7816975416965
20
1.44805842166275
30
0
41
1
10
12.6467766952416
20
1.48756509259701
30
0
41
1
10
12.6017248617327
20
1.50020206364914
30
0
41
1
10
12.5114408868528
20
1.52438233719309
30
0
41
1
10
12.4662256307001
20
1.53592051546329
30
0
41
1
10
12.330649353656
20
1.56876655471297
30
0
41
1
10
12.2402852813295
20
1.58833753473138
30
0
41
1
10
12.1499999999979
20
1.60549291960271
30
0
0
SPLINE
5
DE
100
AcDbEntity
8
1
62
256
6
ByLayer
370
18
48
1
60
0
100
AcDbSpline
70
4
71
3
72
8
73
4
40
0
40
0
40
0
40
0
40
1
40
1
40
1
40
1
41
1
10
12.1499999999997
20
1.67020050919874
30
0
41
1
10
12.1499999999997
20
1.64909979776974
30
0
41
1
10
12.15
20
1.62752617996858
30
0
41
1
10
12.15
20
1.60549291959063
30
0
0
SPLINE
5
DF
100
AcDbEntity
8
1
62
256
6
ByLayer
370
18
48
1
60
0
100
AcDbSpline
70
4
71
3
72
24
73
20
40
0
40
0
40
0
40
0
40
0.124999999999998
40
0.124999999999998
40
0.249999999999996
40
0.249999999999996
40
0.312499999999996
40
0.312499999999996
40
0.374999999999996
40
0.374999999999996
40
0.499999999999997
40
0.499999999999997
40
0.624999999999997
40
0.624999999999997
40
0.749999999999998
40
0.749999999999998
40
0.874999999999999
40
0.874999999999999
40
1
40
1
40
1
40
1
41
1
10
3.55952711811892
20
-0.776181683172013
30
0
41
1
10
3.56525741972513
20
-0.770139298964097
30
0
41
1
10
3.57154303069478
20
-0.764577758579009
30
0
41
1
10
3.58480692801044
20
-0.754928242019787
30
0
41
1
10
3.59183671173332
20
-0.750777301646878
30
0
41
1
10
3.60301890903429
20
-0.745598104236223
30
0
41
1
10
3.60685280360977
20
-0.744046676430855
30
0
41
1
10
3.61474378958272
20
-0.741305892083034
30
0
41
1
10
3.6188118908083
20
-0.740116300916071
30
0
41
1
10
3.63109184871431
20
-0.737168478649494
30
0
41
1
10
3.6394606177374
20
-0.735995261031661
30
0
41
1
10
3.65654701377383
20
-0.735124142725823
30
0
41
1
10
3.66533639713919
20
-0.735438285570694
30
0
41
1
10
3.68284393284716
20
-0.737445433000943
30
0
41
1
10
3.69155497776873
20
-0.739122222051833
30
0
41
1
10
3.70889818340643
20
-0.743669536449715
30
0
41
1
10
3.7175679801357
20
-0.746557724872844
30
0
41
1
10
3.73460148592631
20
-0.753347160775576
30
0
41
1
10
3.74296731604119
20
-0.757242383700543
30
0
41
1
10
3.75119424334361
20
-0.761585426411472
30
0
0
SPLINE
5
E0
100
AcDbEntity
8
1
62
256
6
ByLayer
370
18
48
1
60
0
100
AcDbSpline
70
4
71
3
72
28
73
24
40
0
40
0
40
0
40
0
40
0.250000000000024
40
0.250000000000024
40
0.375000000000035
40
0.375000000000035
40
0.500000000000047
40
0.500000000000047
40
0.562500000000052
40
0.562500000000052
40
0.593750000000049
40
0.593750000000049
40
0.625000000000046
40
0.625000000000046
40
0.687500000000041
40
0.687500000000041
40
0.750000000000035
40
0.750000000000035
40
0.87500000000001
40
0.87500000000001
40
0.937500000000005
40
0.937500000000005
40
1
40
1
40
1
40
1
41
1
10
29.3979730318182
20
-1.69139573427731
30
0
41
1
10
29.4316114559499
20
-1.59904736222091
30
0
41
1
10
29.4650694623204
20
-1.50585948626522
30
0
41
1
10
29.5158270732764
20
-1.36529873745204
30
0
41
1
10
29.5328232780036
20
-1.31835731006328
30
0
41
1
10
29.5670054766824
20
-1.22450269988869
30
0
41
1
10
29.5842063369262
20
-1.17756728414767
30
0
41
1
10
29.6101840431998
20
-1.1071764064219
30
0
41
1
10
29.6188701153707
20
-1.08371529621206
30
0
41
1
10
29.6319316882625
20
-1.04854034533909
30
0
41
1
10
29.6362856096349
20
-1.03681539714694
30
0
41
1
10
29.6450999186904
20
-1.01340619821101
30
0
41
1
10
29.649545836133
20
-1.00171641326631
30
0
41
1
10
29.6630133948557
20
-0.966696605366366
30
0
41
1
10
29.672160925413
20
-0.943434460704822
30
0
41
1
10
29.6907250752868
20
-0.897457612372904
30
0
41
1
10
29.7001592329035
20
-0.874696679527688
30
0
41
1
10
29.7289983902515
20
-0.807136526245273
30
0
41
1
10
29.7489472690012
20
-0.763069700463518
30
0
41
1
10
29.780231742639
20
-0.698541709833023
30
0
41
1
10
29.7908847322354
20
-0.677291662313905
30
0
41
1
10
29.8126687349194
20
-0.635308649056924
30
0
41
1
10
29.8238321623317
20
-0.614515183559064
30
0
41
1
10
29.8351655024475
20
-0.594138870062977
30
0
0
SPLINE
5
E1
100
AcDbEntity
8
1
62
256
6
ByLayer
370
18
48
1
60
0
100
AcDbSpline
70
4
71
3
72
78
73
74
40
0
40
0
40
0
40
0
40
0.0160963572626557
40
0.0160963572626557
40
0.0477199118385777
40
0.0477199118385777
40
0.110967020990422
40
0.110967020990422
40
0.126778798278382
40
0.126778798278382
40
0.142590575566343
40
0.142590575566343
40
0.174214130142264
40
0.174214130142264
40
0.205837684718185
40
0.205837684718185
40
0.237461239294106
40
0.237461239294106
40
0.269084793870027
40
0.269084793870027
40
0.284896571157988
40
0.284896571157988
40
0.300708348445948
40
0.300708348445948
40
0.363955457597787
40
0.363955457597787
40
0.395579012173706
40
0.395579012173706
40
0.427202566749625
40
0.427202566749625
40
0.458826121325545
40
0.458826121325545
40
0.474637898613505
40
0.474637898613505
40
0.490449675901466
40
0.490449675901466
40
0.522073230477387
40
0.522073230477387
40
0.553696785053308
40
0.553696785053308
40
0.569508562341269
40
0.569508562341269
40
0.585320339629229
40
0.585320339629229
40
0.616943894205148
40
0.616943894205148
40
0.648567448781068
40
0.648567448781068
40
0.664379226069028
40
0.664379226069028
40
0.680191003356989
40
0.680191003356989
40
0.743438112508826
40
0.743438112508826
40
0.775061667084744
40
0.775061667084744
40
0.806685221660663
40
0.806685221660663
40
0.838308776236581
40
0.838308776236581
40
0.869932330812499
40
0.869932330812499
40
0.885744108100459
40
0.885744108100459
40
0.901555885388418
40
0.901555885388418
40
0.933179439964338
40
0.933179439964338
40
0.964802994540258
40
0.964802994540258
40
0.996426549116179
40
0.996426549116179
40
1
40
1
40
1
40
1
41
1
10
26.5686123395681
20
-1.02460878633769
30
0
41
1
10
26.5232551587015
20
-1.00324235706808
30
0
41
1
10
26.4779120766919
20
-0.981468573103768
30
0
41
1
10
26.3435292589791
20
-0.915682624649406
30
0
41
1
10
26.2544711388938
20
-0.870612246450776
30
0
41
1
10
25.9868224807908
20
-0.731787331991569
30
0
41
1
10
25.8078884991371
20
-0.634186759964251
30
0
41
1
10
25.5823413423124
20
-0.507640903176593
30
0
41
1
10
25.5371235896796
20
-0.482099115994458
30
0
41
1
10
25.4467376707109
20
-0.430715877621708
30
0
41
1
10
25.4015500572852
20
-0.404849754199404
30
0
41
1
10
25.2660416521487
20
-0.326733563554541
30
0
41
1
10
25.1757612093539
20
-0.274036333210972
30
0
41
1
10
24.9951439769689
20
-0.167996622455064
30
0
41
1
10
24.9049776231051
20
-0.114660649788618
30
0
41
1
10
24.724821755983
20
-0.0079774310880794
30
0
41
1
10
24.6347897039037
20
0.045367471100036
30
0
41
1
10
24.4546006358814
20
0.151697533662201
30
0
41
1
10
24.3644279473343
20
0.204657457121641
30
0
41
1
10
24.2290655168279
20
0.283813640265208
30
0
41
1
10
24.1838845496214
20
0.310165704595221
30
0
41
1
10
24.0937120852216
20
0.362507541263739
30
0
41
1
10
24.0487033912618
20
0.388511504410246
30
0
41
1
10
23.8239590948599
20
0.517553188817374
30
0
41
1
10
23.6452537485119
20
0.617849070806585
30
0
41
1
10
23.3773539695698
20
0.761437891596756
30
0
41
1
10
23.2880677659447
20
0.808163639348265
30
0
41
1
10
23.1095316481736
20
0.899357905792641
30
0
41
1
10
23.0202669172525
20
0.943802285526829
30
0
41
1
10
22.8413962510702
20
1.02990195057657
30
0
41
1
10
22.7518186238625
20
1.07159499331382
30
0
41
1
10
22.6170795170053
20
1.13185689115056
30
0
41
1
10
22.5721008702899
20
1.15155933245384
30
0
41
1
10
22.4819774111196
20
1.19014263092089
30
0
41
1
10
22.4368048075834
20
1.20903526170818
30
0
41
1
10
22.3012693679583
20
1.2643298240356
30
0
41
1
10
22.2108587356217
20
1.29935504928596
30
0
41
1
10
22.030162170488
20
1.36557365345709
30
0
41
1
10
21.939895449717
20
1.39673477718478
30
0
41
1
10
21.8044707130449
20
1.4402592565402
30
0
41
1
10
21.7593085796544
20
1.45423760022118
30
0
41
1
10
21.6691123657725
20
1.48105864220293
30
0
41
1
10
21.6240605935901
20
1.49390661744658
30
0
41
1
10
21.488979487976
20
1.53071648528007
30
0
41
1
10
21.3990155251642
20
1.55294513495284
30
0
41
1
10
21.2190172874747
20
1.59266822126625
30
0
41
1
10
21.1289709791185
20
1.61016876290085
30
0
41
1
10
20.9938129813107
20
1.63287962408455
30
0
41
1
10
20.9487517768901
20
1.63985705677453
30
0
41
1
10
20.8585561854737
20
1.65260438076072
30
0
41
1
10
20.8133924007932
20
1.65837712117627
30
0
41
1
10
20.588157960739
20
1.6840892142387
30
0
41
1
10
20.4093198580904
20
1.69469194902965
30
0
41
1
10
20.1416349439526
20
1.6957213243505
30
0
41
1
10
20.0524885015341
20
1.69361617315636
30
0
41
1
10
19.8743192464159
20
1.6845335210989
30
0
41
1
10
19.7853342525497
20
1.67750487406732
30
0
41
1
10
19.6071929734217
20
1.65862894054303
30
0
41
1
10
19.5180422744824
20
1.64677811584258
30
0
41
1
10
19.3394254060295
20
1.61824943368589
30
0
41
1
10
19.2499361788999
20
1.60158514480307
30
0
41
1
10
19.1152398056876
20
1.5729705348075
30
0
41
1
10
19.0702654929467
20
1.56282772132909
30
0
41
1
10
18.9801434731826
20
1.54135084360709
30
0
41
1
10
18.9349625077713
20
1.53001239862948
30
0
41
1
10
18.7994407740963
20
1.49428966608181
30
0
41
1
10
18.709172101097
20
1.46816369399445
30
0
41
1
10
18.5286168647872
20
1.41168411924437
30
0
41
1
10
18.4383663693837
20
1.3813450017916
30
0
41
1
10
18.258179648035
20
1.31679011307116
30
0
41
1
10
18.1681631039796
20
1.28256869744917
30
0
41
1
10
18.0679171885553
20
1.24245968824698
30
0
41
1
10
18.0577387893553
20
1.23836463621825
30
0
41
1
10
18.0475596078269
20
1.23424671137738
30
0
0
SPLINE
5
E2
100
AcDbEntity
8
1
62
256
6
ByLayer
370
18
48
1
60
0
100
AcDbSpline
70
4
71
3
72
58
73
54
40
0
40
0
40
0
40
0
40
0.0382233775518682
40
0.0382233775518682
40
0.0764467551037364
40
0.0764467551037364
40
0.114670132655605
40
0.114670132655605
40
0.152893510207473
40
0.152893510207473
40
0.229340265311209
40
0.229340265311209
40
0.267563642863078
40
0.267563642863078
40
0.305787020414946
40
0.305787020414946
40
0.32489870919088
40
0.32489870919088
40
0.344010397966814
40
0.344010397966814
40
0.382233775518682
40
0.382233775518682
40
0.458680530622419
40
0.458680530622419
40
0.496903908174285
40
0.496903908174285
40
0.535127285726152
40
0.535127285726152
40
0.573350663278019
40
0.573350663278019
40
0.611574040829886
40
0.611574040829886
40
0.649797418381752
40
0.649797418381752
40
0.668909107157687
40
0.668909107157687
40
0.688020795933622
40
0.688020795933622
40
0.726244173485492
40
0.726244173485492
40
0.764467551037362
40
0.764467551037362
40
0.840914306141101
40
0.840914306141101
40
0.879137683692971
40
0.879137683692971
40
0.91736106124484
40
0.91736106124484
40
0.95558443879671
40
0.95558443879671
40
0.99380781634858
40
0.99380781634858
40
1
40
1
40
1
40
1
41
1
10
3.75119424334426
20
-0.761585426411813
30
0
41
1
10
3.81769335737579
20
-0.796690694982146
30
0
41
1
10
3.88396379548317
20
-0.831191621991394
30
0
41
1
10
4.01618525371708
20
-0.898697607906939
30
0
41
1
10
4.08214504306207
20
-0.93168935462009
30
0
41
1
10
4.21402010816183
20
-0.995819169147296
30
0
41
1
10
4.2799269804124
20
-1.02696984047992
30
0
41
1
10
4.41189736480973
20
-1.08721020195276
30
0
41
1
10
4.47796258123256
20
-1.11630094519535
30
0
41
1
10
4.67614677239453
20
-1.20091639431195
30
0
41
1
10
4.8084075092037
20
-1.25359077333576
30
0
41
1
10
5.00698906027276
20
-1.32732524088368
30
0
41
1
10
5.07317875425076
20
-1.35108275907427
30
0
41
1
10
5.20572205961855
20
-1.3965860122901
30
0
41
1
10
5.27211320620208
20
-1.41824999369118
30
0
41
1
10
5.37202446849187
20
-1.44888871129882
30
0
41
1
10
5.40540425758769
20
-1.45880379335543
30
0
41
1
10
5.47221677663629
20
-1.47797123996742
30
0
41
1
10
5.5056027028983
20
-1.48720871508013
30
0
41
1
10
5.60565482694028
20
-1.51397081887003
30
0
41
1
10
5.67219015876077
20
-1.53058010266807
30
0
41
1
10
5.87138531030519
20
-1.57678165438486
30
0
41
1
10
6.00368879229211
20
-1.6026280493241
30
0
41
1
10
6.20179627165803
20
-1.63323508474221
30
0
41
1
10
6.26776898944107
20
-1.6421059183572
30
0
41
1
10
6.39965230530447
20
-1.65728090184695
30
0
41
1
10
6.46553104957758
20
-1.66360274983214
30
0
41
1
10
6.59743785938602
20
-1.67371193756196
30
0
41
1
10
6.66348648379523
20
-1.67748300854225
30
0
41
1
10
6.79570658203181
20
-1.68230139758802
30
0
41
1
10
6.86191381126514
20
-1.6833265318335
30
0
41
1
10
6.99468064536313
20
-1.68246631035481
30
0
41
1
10
7.06122810098969
20
-1.68061557433188
30
0
41
1
10
7.16120791865862
20
-1.67587431794999
30
0
41
1
10
7.19456051768913
20
-1.67396622071294
30
0
41
1
10
7.26129927858602
20
-1.6695191970943
30
0
41
1
10
7.29470478738057
20
-1.6669850559222
30
0
41
1
10
7.3946675643129
20
-1.65843700379236
30
0
41
1
10
7.46106557946004
20
-1.65142518992317
30
0
41
1
10
7.59365889974521
20
-1.63442676102983
30
0
41
1
10
7.65989520992306
20
-1.62452580315218
30
0
41
1
10
7.8585045053822
20
-1.59109684182937
30
0
41
1
10
7.99056925248601
20
-1.56376019447813
30
0
41
1
10
8.18810709393316
20
-1.51609906790432
30
0
41
1
10
8.25388154245789
20
-1.49901815811677
30
0
41
1
10
8.38557411345778
20
-1.46214846203111
30
0
41
1
10
8.45146960622537
20
-1.44241559315307
30
0
41
1
10
8.58334595855825
20
-1.40062950080906
30
0
41
1
10
8.64930640480287
20
-1.37853990361469
30
0
41
1
10
8.78149198173432
20
-1.33234778161076
30
0
41
1
10
8.84771959951684
20
-1.30827359608011
30
0
41
1
10
8.92470680116037
20
-1.27906476907486
30
0
41
1
10
8.93544241597897
20
-1.27496451581106
30
0
41
1
10
8.94618143902494
20
-1.27083594490944
30
0
0
SPLINE
5
E3
100
AcDbEntity
8
1
62
256
6
ByLayer
370
18
48
1
60
0
100
AcDbSpline
70
4
71
3
72
118
73
114
40
0
40
0
40
0
40
0
40
0.0132301426855608
40
0.0132301426855608
40
0.0310605403485402
40
0.0310605403485402
40
0.0488909380115197
40
0.0488909380115197
40
0.0667213356744992
40
0.0667213356744992
40
0.0845517333374786
40
0.0845517333374786
40
0.0934669321689681
40
0.0934669321689681
40
0.102382131000458
40
0.102382131000458
40
0.120212528663437
40
0.120212528663437
40
0.138042926326417
40
0.138042926326417
40
0.155873323989396
40
0.155873323989396
40
0.173703721652376
40
0.173703721652376
40
0.191534119315355
40
0.191534119315355
40
0.209364516978335
40
0.209364516978335
40
0.227194914641314
40
0.227194914641314
40
0.245025312304294
40
0.245025312304294
40
0.253940511135782
40
0.253940511135782
40
0.262855709967271
40
0.262855709967271
40
0.280686107630249
40
0.280686107630249
40
0.298516505293227
40
0.298516505293227
40
0.316346902956205
40
0.316346902956205
40
0.334177300619183
40
0.334177300619183
40
0.352007698282161
40
0.352007698282161
40
0.369838095945139
40
0.369838095945139
40
0.405498891271096
40
0.405498891271096
40
0.423329288934075
40
0.423329288934075
40
0.432244487765564
40
0.432244487765564
40
0.441159686597052
40
0.441159686597052
40
0.47682048192301
40
0.47682048192301
40
0.494650879585988
40
0.494650879585988
40
0.512481277248967
40
0.512481277248967
40
0.530311674911946
40
0.530311674911946
40
0.548142072574924
40
0.548142072574924
40
0.565972470237903
40
0.565972470237903
40
0.583802867900882
40
0.583802867900882
40
0.60163326556386
40
0.60163326556386
40
0.61054846439535
40
0.61054846439535
40
0.619463663226839
40
0.619463663226839
40
0.637294060889819
40
0.637294060889819
40
0.655124458552799
40
0.655124458552799
40
0.690785253878761
40
0.690785253878761
40
0.708615651541741
40
0.708615651541741
40
0.726446049204722
40
0.726446049204722
40
0.744276446867703
40
0.744276446867703
40
0.762106844530683
40
0.762106844530683
40
0.771022043362174
40
0.771022043362174
40
0.779937242193664
40
0.779937242193664
40
0.797767639856644
40
0.797767639856644
40
0.833428435182602
40
0.833428435182602
40
0.869089230508561
40
0.869089230508561
40
0.904750025834519
40
0.904750025834519
40
0.922580423497499
40
0.922580423497499
40
0.940410821160479
40
0.940410821160479
40
0.94932601999197
40
0.94932601999197
40
0.958241218823459
40
0.958241218823459
40
0.976071616486442
40
0.976071616486442
40
1
40
1
40
1
40
1
41
1
10
15.9161455821111
20
1.68804848409312
30
0
41
1
10
15.9649987780951
20
1.6878895195091
30
0
41
1
10
16.0138095492384
20
1.68704009022554
30
0
41
1
10
16.1284103354076
20
1.68324538847006
30
0
41
1
10
16.1942056182569
20
1.67967754068388
30
0
41
1
10
16.3260530730508
20
1.66956612447669
30
0
41
1
10
16.3921571752272
20
1.66305160784296
30
0
41
1
10
16.5246864621895
20
1.64746735422844
30
0
41
1
10
16.5910535567375
20
1.63837492725887
30
0
41
1
10
16.7239471321743
20
1.61775851075143
30
0
41
1
10
16.7904818708431
20
1.60622141813926
30
0
41
1
10
16.8905862315012
20
1.58685308583159
30
0
41
1
10
16.923962050095
20
1.58006122936695
30
0
41
1
10
16.9905667758106
20
1.56583116590645
30
0
41
1
10
17.0238216931667
20
1.55838735045791
30
0
41
1
10
17.1234631578513
20
1.53506549297521
30
0
41
1
10
17.1897294768035
20
1.51821307616268
30
0
41
1
10
17.3219708537891
20
1.48218862624617
30
0
41
1
10
17.3879197061743
20
1.46298828014463
30
0
41
1
10
17.5197279564437
20
1.4225782355187
30
0
41
1
10
17.5855944593738
20
1.40136548176099
30
0
41
1
10
17.7172322010405
20
1.35668252633044
30
0
41
1
10
17.7830310322466
20
1.33324161784194
30
0
41
1
10
17.9147453150308
20
1.28422670731243
30
0
41
1
10
17.9806577910925
20
1.25866383128684
30
0
41
1
10
18.1125119472371
20
1.20552248122684
30
0
41
1
10
18.1784432967912
20
1.17793839862145
30
0
41
1
10
18.3102098165334
20
1.12084836606474
30
0
41
1
10
18.3760629445546
20
1.09132813108954
30
0
41
1
10
18.508120380266
20
1.03036926650862
30
0
41
1
10
18.5743681588069
20
0.999017053175947
30
0
41
1
10
18.6741284552656
20
0.950842627975504
30
0
41
1
10
18.7074337766036
20
0.934574745396219
30
0
41
1
10
18.7741426108466
20
0.901619699750199
30
0
41
1
10
18.8075814709118
20
0.88491935812695
30
0
41
1
10
18.9077737032831
20
0.834370388992483
30
0
41
1
10
18.9743880948481
20
0.800083242900513
30
0
41
1
10
19.1071790526731
20
0.730298419593652
30
0
41
1
10
19.1733604689426
20
0.694793968777105
30
0
41
1
10
19.3055260819775
20
0.622786713833165
30
0
41
1
10
19.371507584211
20
0.586289585068045
30
0
41
1
10
19.5033578186467
20
0.512491180918289
30
0
41
1
10
19.5692012913973
20
0.475147256679747
30
0
41
1
10
19.7009910776976
20
0.400051275126657
30
0
41
1
10
19.7669389086622
20
0.362308123201473
30
0
41
1
10
19.8986226014542
20
0.28597992358371
30
0
41
1
10
19.9644033451664
20
0.247456690392568
30
0
41
1
10
20.1621411845338
20
0.131567706622803
30
0
41
1
10
20.2944322061039
20
0.0538176597144968
30
0
41
1
10
20.4934227274024
20
-0.0636194780328196
30
0
41
1
10
20.5598497208438
20
-0.102889604394988
30
0
41
1
10
20.6595432966478
20
-0.162090497999145
30
0
41
1
10
20.6928187025511
20
-0.181872527922138
30
0
41
1
10
20.759398253699
20
-0.221267697207196
30
0
41
1
10
20.7926613797471
20
-0.240850089375783
30
0
41
1
10
20.9588529041887
20
-0.338076255577192
30
0
41
1
10
21.0913390267702
20
-0.413861657344938
30
0
41
1
10
21.2895017882481
20
-0.525070553142115
30
0
41
1
10
21.3554441742374
20
-0.561762212202865
30
0
41
1
10
21.4869323320093
20
-0.634846454981357
30
0
41
1
10
21.5524889389902
20
-0.671199274034024
30
0
41
1
10
21.6837090295746
20
-0.742349227486272
30
0
41
1
10
21.7493432404927
20
-0.77720561316417
30
0
41
1
10
21.8808835042955
20
-0.845276907658928
30
0
41
1
10
21.9468008820285
20
-0.878478954643015
30
0
41
1
10
22.0786483054488
20
-0.943779007898684
30
0
41
1
10
22.1446066260525
20
-0.975831748400367
30
0
41
1
10
22.2765709689955
20
-1.03882508233002
30
0
41
1
10
22.3425715838016
20
-1.06977305162144
30
0
41
1
10
22.4750045999094
20
-1.12967350264526
30
0
41
1
10
22.5414389289589
20
-1.15862185196897
30
0
41
1
10
22.6414115791057
20
-1.2006175729523
30
0
41
1
10
22.6748072061437
20
-1.2143834078858
30
0
41
1
10
22.7414394169292
20
-1.24134961557525
30
0
41
1
10
22.774706512236
20
-1.25456525230766
30
0
41
1
10
22.8743729906154
20
-1.29345078183675
30
0
41
1
10
22.9406863428621
20
-1.31830096765586
30
0
41
1
10
23.0730643428558
20
-1.366173163231
30
0
41
1
10
23.1390567742686
20
-1.38927441868208
30
0
41
1
10
23.3369963461207
20
-1.45437411136237
30
0
41
1
10
23.4690233604184
20
-1.49205332850613
30
0
41
1
10
23.6666914799176
20
-1.54217742954495
30
0
41
1
10
23.7325112439939
20
-1.55782123413675
30
0
41
1
10
23.863968675385
20
-1.5872113310896
30
0
41
1
10
23.9295669180481
20
-1.60098557805475
30
0
41
1
10
24.0612029711637
20
-1.62550159296754
30
0
41
1
10
24.1272686908069
20
-1.63623055756571
30
0
41
1
10
24.2597149208364
20
-1.65486393939338
30
0
41
1
10
24.3261234495094
20
-1.6627532237689
30
0
41
1
10
24.4260287331962
20
-1.6725359678409
30
0
41
1
10
24.4593794133854
20
-1.67545468504113
30
0
41
1
10
24.526178847375
20
-1.68060955089723
30
0
41
1
10
24.5596390656466
20
-1.68284568530166
30
0
41
1
10
24.6597732042455
20
-1.68851436788924
30
0
41
1
10
24.7263217597091
20
-1.69091921784033
30
0
41
1
10
24.9254341678537
20
-1.69414309404013
30
0
41
1
10
25.0574213494049
20
-1.6909448420501
30
0
41
1
10
25.3211315971124
20
-1.6748212167241
30
0
41
1
10
25.4525575408709
20
-1.66181967742995
30
0
41
1
10
25.7158406714065
20
-1.62458724388412
30
0
41
1
10
25.8476168191861
20
-1.600398022306
30
0
41
1
10
26.0456965443535
20
-1.55635333230444
30
0
41
1
10
26.1117788487101
20
-1.54035589932539
30
0
41
1
10
26.2443812549753
20
-1.50590919803193
30
0
41
1
10
26.3109204476736
20
-1.48748284864098
30
0
41
1
10
26.4110029940761
20
-1.45793191580637
30
0
41
1
10
26.4444473849613
20
-1.44775779169999
30
0
41
1
10
26.5112644964539
20
-1.42685558263304
30
0
41
1
10
26.5446276361982
20
-1.41613048255357
30
0
41
1
10
26.6445885108436
20
-1.38315986202096
30
0
41
1
10
26.7110615088484
20
-1.3601248391605
30
0
41
1
10
26.8663206242748
20
-1.30376956574238
30
0
41
1
10
26.9549385355732
20
-1.2695821415698
30
0
41
1
10
27.0433826035455
20
-1.23360997704125
30
0
0
SPLINE
5
E4
100
AcDbEntity
8
1
62
256
6
ByLayer
370
13
48
1
60
0
100
AcDbSpline
70
4
71
3
72
38
73
34
40
0
40
0
40
0
40
0
40
0.0810405062094044
40
0.0810405062094044
40
0.162081012418809
40
0.162081012418809
40
0.243121518628213
40
0.243121518628213
40
0.283641771732915
40
0.283641771732915
40
0.324162024837618
40
0.324162024837618
40
0.405202531047023
40
0.405202531047023
40
0.445722784151726
40
0.445722784151726
40
0.486243037256429
40
0.486243037256429
40
0.567283543465835
40
0.567283543465835
40
0.607803796570538
40
0.607803796570538
40
0.648324049675241
40
0.648324049675241
40
0.810405062094053
40
0.810405062094053
40
0.891445568303459
40
0.891445568303459
40
0.931965821408162
40
0.931965821408162
40
0.972486074512866
40
0.972486074512866
40
1
40
1
40
1
40
1
41
1
10
3.75119424333732
20
-0.761585426420254
30
0
41
1
10
3.75118414253268
20
-0.804707847686302
30
0
41
1
10
3.75117293358929
20
-0.846963083966017
30
0
41
1
10
3.75114876099454
20
-0.929700372758589
30
0
41
1
10
3.75113576237658
20
-0.970264608077429
30
0
41
1
10
3.7511087996748
20
-1.04844249984566
30
0
41
1
10
3.75109480041073
20
-1.08619258959089
30
0
41
1
10
3.75107330317519
20
-1.14080494145628
30
0
41
1
10
3.75106604464119
20
-1.15869413349316
30
0
41
1
10
3.75105144919212
20
-1.19367040961009
30
0
41
1
10
3.75104411313762
20
-1.2107571137372
30
0
41
1
10
3.7510220391508
20
-1.26082058980703
30
0
41
1
10
3.75100723856841
20
-1.29260299884112
30
0
41
1
10
3.7509850480316
20
-1.33787619181012
30
0
41
1
10
3.75097764378208
20
-1.35258209685691
30
0
41
1
10
3.75096291895721
20
-1.38105388426652
30
0
41
1
10
3.75095559269366
20
-1.39483228215425
30
0
41
1
10
3.75093373120677
20
-1.43480419783788
30
0
41
1
10
3.75091931641896
20
-1.45963702055479
30
0
41
1
10
3.75089791225551
20
-1.49415350435251
30
0
41
1
10
3.750890802204
20
-1.50521903759244
30
0
41
1
10
3.75087669202037
20
-1.52635113731199
30
0
41
1
10
3.75086970633532
20
-1.53639746211161
30
0
41
1
10
3.75083506849336
20
-1.58407736450238
30
0
41
1
10
3.75080833926424
20
-1.61411274997056
30
0
41
1
10
3.75076803092946
20
-1.64719198863486
30
0
41
1
10
3.75075454923095
20
-1.65621166689624
30
0
41
1
10
3.75073394384006
20
-1.66665151478367
30
0
41
1
10
3.75072699818603
20
-1.66961913490403
30
0
41
1
10
3.75071300266313
20
-1.67447360283131
30
0
41
1
10
3.75070594823612
20
-1.67636494432867
30
0
41
1
10
3.75069395589179
20
-1.67864582929644
30
0
41
1
10
3.75068906571974
20
-1.67932291074581
30
0
41
1
10
3.75068412436238
20
-1.67975416070894
30
0
0
SPLINE
5
E5
100
AcDbEntity
8
1
62
256
6
ByLayer
370
18
48
1
60
0
100
AcDbSpline
70
4
71
3
72
120
73
116
40
0
40
0
40
0
40
0
40
0.0023514728240342
40
0.0023514728240342
40
0.0201659877738865
40
0.0201659877738865
40
0.029073245248812
40
0.029073245248812
40
0.0379805027237375
40
0.0379805027237375
40
0.0557950176735871
40
0.0557950176735871
40
0.0736095326234367
40
0.0736095326234367
40
0.109238562523137
40
0.109238562523137
40
0.127053077472987
40
0.127053077472987
40
0.144867592422836
40
0.144867592422836
40
0.162682107372686
40
0.162682107372686
40
0.180496622322535
40
0.180496622322535
40
0.198311137272385
40
0.198311137272385
40
0.216125652222235
40
0.216125652222235
40
0.251754682121935
40
0.251754682121935
40
0.26066193959686
40
0.26066193959686
40
0.269569197071785
40
0.269569197071785
40
0.287383712021636
40
0.287383712021636
40
0.323012741921336
40
0.323012741921336
40
0.340827256871186
40
0.340827256871186
40
0.358641771821035
40
0.358641771821035
40
0.376456286770885
40
0.376456286770885
40
0.394270801720734
40
0.394270801720734
40
0.412085316670584
40
0.412085316670584
40
0.429899831620434
40
0.429899831620434
40
0.465528861520133
40
0.465528861520133
40
0.483343376469982
40
0.483343376469982
40
0.501157891419832
40
0.501157891419832
40
0.518972406369682
40
0.518972406369682
40
0.536786921319531
40
0.536786921319531
40
0.545694178794456
40
0.545694178794456
40
0.554601436269381
40
0.554601436269381
40
0.572415951219232
40
0.572415951219232
40
0.608044981118932
40
0.608044981118932
40
0.625859496068782
40
0.625859496068782
40
0.643674011018633
40
0.643674011018633
40
0.661488525968483
40
0.661488525968483
40
0.679303040918333
40
0.679303040918333
40
0.697117555868183
40
0.697117555868183
40
0.714932070818033
40
0.714932070818033
40
0.732746585767884
40
0.732746585767884
40
0.750561100717734
40
0.750561100717734
40
0.768375615667584
40
0.768375615667584
40
0.786190130617434
40
0.786190130617434
40
0.804004645567285
40
0.804004645567285
40
0.821819160517135
40
0.821819160517135
40
0.839633675466985
40
0.839633675466985
40
0.857448190416835
40
0.857448190416835
40
0.875262705366685
40
0.875262705366685
40
0.893077220316536
40
0.893077220316536
40
0.901984477791461
40
0.901984477791461
40
0.910891735266386
40
0.910891735266386
40
0.928706250216237
40
0.928706250216237
40
0.946520765166089
40
0.946520765166089
40
0.96433528011594
40
0.96433528011594
40
0.982149795065792
40
0.982149795065792
40
0.999964310015644
40
0.999964310015644
40
1
40
1
40
1
40
1
41
1
10
6.9020189051808
20
1.68299083976083
30
0
41
1
10
6.91077539757848
20
1.68298461298764
30
0
41
1
10
6.91953477805481
20
1.68295319466992
30
0
41
1
10
6.99468064536393
20
1.68246631035478
30
0
41
1
10
7.06122810099049
20
1.68061557433188
30
0
41
1
10
7.16120791865941
20
1.67587431794993
30
0
41
1
10
7.19456051768992
20
1.67396622071291
30
0
41
1
10
7.26129927858688
20
1.66951919709425
30
0
41
1
10
7.29470478738136
20
1.66698505592214
30
0
41
1
10
7.39466756431369
20
1.65843700379227
30
0
41
1
10
7.46106557946084
20
1.65142518992306
30
0
41
1
10
7.593658899746
20
1.63442676102974
30
0
41
1
10
7.65989520992386
20
1.62452580315207
30
0
41
1
10
7.85850450538297
20
1.5910968418292
30
0
41
1
10
7.99056925248678
20
1.56376019447797
30
0
41
1
10
8.18810709393395
20
1.51609906790412
30
0
41
1
10
8.25388154245866
20
1.49901815811657
30
0
41
1
10
8.38557411345852
20
1.46214846203091
30
0
41
1
10
8.45146960622617
20
1.44241559315285
30
0
41
1
10
8.58334595855899
20
1.4006295008088
30
0
41
1
10
8.64930640480361
20
1.37853990361444
30
0
41
1
10
8.78149198173506
20
1.33234778161048
30
0
41
1
10
8.84771959951755
20
1.30827359607983
30
0
41
1
10
8.98022770232478
20
1.25800022376518
30
0
41
1
10
9.04657566401187
20
1.23179234237185
30
0
41
1
10
9.17990331907708
20
1.17713764861261
30
0
41
1
10
9.24693163810963
20
1.14868587652214
30
0
41
1
10
9.44705935259887
20
1.06091085930032
30
0
41
1
10
9.57965141684906
20
0.998919107197224
30
0
41
1
10
9.74457894409025
20
0.917689607413024
30
0
41
1
10
9.77753534110062
20
0.90126429231637
30
0
41
1
10
9.84347557001269
20
0.868145116194199
30
0
41
1
10
9.87646371753863
20
0.8514540686636
30
0
41
1
10
9.97546097754019
20
0.800947838537098
30
0
41
1
10
10.041470238736
20
0.766668974020064
30
0
41
1
10
10.2394636522852
20
0.662153583634932
30
0
41
1
10
10.3714699057755
20
0.590315729280718
30
0
41
1
10
10.5692284430814
20
0.479112405484756
30
0
41
1
10
10.6351522588285
20
0.44149665482297
30
0
41
1
10
10.7674240111616
20
0.365618864012077
30
0
41
1
10
10.8337061704622
20
0.32728375746575
30
0
41
1
10
10.9666967669603
20
0.250221064652862
30
0
41
1
10
11.033423899242
20
0.211519274935284
30
0
41
1
10
11.1671298064811
20
0.133444179318133
30
0
41
1
10
11.2338670369524
20
0.0942563338336129
30
0
41
1
10
11.3668557557624
20
0.0158627680139602
30
0
41
1
10
11.4331809557314
20
-0.0233059074921869
30
0
41
1
10
11.5656910771421
20
-0.101121463191475
30
0
41
1
10
11.6318432987142
20
-0.139851100449675
30
0
41
1
10
11.829922775779
20
-0.255781750535846
30
0
41
1
10
11.9614482910837
20
-0.332742469197711
30
0
41
1
10
12.1588310833854
20
-0.4463026066596
30
0
41
1
10
12.2246143217077
20
-0.483856845955444
30
0
41
1
10
12.3566049617533
20
-0.557456088484344
30
0
41
1
10
12.4227654474955
20
-0.593611750997013
30
0
41
1
10
12.5551522852705
20
-0.665236891841062
30
0
41
1
10
12.6213930640569
20
-0.700670942798354
30
0
41
1
10
12.7539150684596
20
-0.770881926017751
30
0
41
1
10
12.8201926672318
20
-0.805667938585458
30
0
41
1
10
12.9196885778431
20
-0.85727241922055
30
0
41
1
10
12.9528728964733
20
-0.874365203996859
30
0
41
1
10
13.0193669619904
20
-0.908166051535119
30
0
41
1
10
13.0527233030666
20
-0.924877148599336
30
0
41
1
10
13.1527401995797
20
-0.973942725740272
30
0
41
1
10
13.2193775157546
20
-1.00535661727847
30
0
41
1
10
13.4187799819213
20
-1.09712687255052
30
0
41
1
10
13.5512119583186
20
-1.15468790183331
30
0
41
1
10
13.7488882408514
20
-1.23675388971995
30
0
41
1
10
13.8146173329175
20
-1.26333013463767
30
0
41
1
10
13.946182086767
20
-1.31374555004862
30
0
41
1
10
14.0120022768345
20
-1.33766310538221
30
0
41
1
10
14.1436334842992
20
-1.38344183470937
30
0
41
1
10
14.2095035127382
20
-1.40523022897221
30
0
41
1
10
14.3413551103117
20
-1.44678964569084
30
0
41
1
10
14.4072814476089
20
-1.4665979639193
30
0
41
1
10
14.5393224142157
20
-1.50388804212034
30
0
41
1
10
14.605441216596
20
-1.52136576643477
30
0
41
1
10
14.7380834514729
20
-1.55357997129005
30
0
41
1
10
14.8045966260716
20
-1.56833981227859
30
0
41
1
10
14.9379102826441
20
-1.59541084493213
30
0
41
1
10
15.0048066810036
20
-1.607734983055
30
0
41
1
10
15.1379221795445
20
-1.63010738753587
30
0
41
1
10
15.2042078014443
20
-1.64015343528996
30
0
41
1
10
15.3366831992602
20
-1.65736437184035
30
0
41
1
10
15.4028737635285
20
-1.66454733585067
30
0
41
1
10
15.5351271473947
20
-1.67592521464937
30
0
41
1
10
15.6012167013915
20
-1.68012948676565
30
0
41
1
10
15.7332929183338
20
-1.68594093992289
30
0
41
1
10
15.7992808984733
20
-1.68754665613892
30
0
41
1
10
15.9310551493974
20
-1.68838750837475
30
0
41
1
10
15.9968364756518
20
-1.68760210863994
30
0
41
1
10
16.128410335408
20
-1.68324538847006
30
0
41
1
10
16.1942056182573
20
-1.67967754068386
30
0
41
1
10
16.3260530730513
20
-1.66956612447663
30
0
41
1
10
16.3921571752277
20
-1.6630516078429
30
0
41
1
10
16.52468646219
20
-1.64746735422838
30
0
41
1
10
16.5910535567379
20
-1.63837492725881
30
0
41
1
10
16.7239471321748
20
-1.61775851075134
30
0
41
1
10
16.7904818708436
20
-1.60622141813917
30
0
41
1
10
16.8905862315017
20
-1.58685308583151
30
0
41
1
10
16.9239620500955
20
-1.58006122936683
30
0
41
1
10
16.990566775811
20
-1.56583116590636
30
0
41
1
10
17.0238216931672
20
-1.55838735045782
30
0
41
1
10
17.1234631578517
20
-1.53506549297509
30
0
41
1
10
17.1897294768039
20
-1.51821307616257
30
0
41
1
10
17.3219708537896
20
-1.48218862624606
30
0
41
1
10
17.3879197061747
20
-1.46298828014452
30
0
41
1
10
17.5197279564442
20
-1.42257823551856
30
0
41
1
10
17.5855944593742
20
-1.40136548176085
30
0
41
1
10
17.7172322010409
20
-1.3566825263303
30
0
41
1
10
17.7830310322469
20
-1.33324161784179
30
0
41
1
10
17.9147453150312
20
-1.28422670731229
30
0
41
1
10
17.9806577910929
20
-1.25866383128667
30
0
41
1
10
18.0467169488986
20
-1.23203992399192
30
0
41
1
10
18.0468490286491
20
-1.23198668765966
30
0
41
1
10
18.0469811084164
20
-1.23193344726033
30
0
0
SPLINE
5
E6
100
AcDbEntity
8
1
62
256
6
ByLayer
370
18
48
1
60
0
100
AcDbSpline
70
4
71
3
72
42
73
38
40
0
40
0
40
0
40
0
40
0.0711498959394309
40
0.0711498959394309
40
0.164034906345506
40
0.164034906345506
40
0.256919916751582
40
0.256919916751582
40
0.30336242195462
40
0.30336242195462
40
0.349804927157658
40
0.349804927157658
40
0.373026179759177
40
0.373026179759177
40
0.396247432360693
40
0.396247432360693
40
0.442689937563723
40
0.442689937563723
40
0.535574947969778
40
0.535574947969778
40
0.582017453172806
40
0.582017453172806
40
0.628459958375833
40
0.628459958375833
40
0.72134496878188
40
0.72134496878188
40
0.7677874739849
40
0.7677874739849
40
0.81422997918792
40
0.81422997918792
40
0.86067248439094
40
0.86067248439094
40
0.907114989593961
40
0.907114989593961
40
0.95355749479698
40
0.95355749479698
40
1
40
1
40
1
40
1
41
1
10
24.8857613102811
20
1.69263039418482
30
0
41
1
10
24.9871970004666
20
1.69238000092355
30
0
41
1
10
25.0882754796619
20
1.68905837597475
30
0
41
1
10
25.3211315971125
20
1.67482121672407
30
0
41
1
10
25.4525575408711
20
1.66181967742995
30
0
41
1
10
25.7158406714066
20
1.62458724388409
30
0
41
1
10
25.8476168191863
20
1.60039802230597
30
0
41
1
10
26.0456965443536
20
1.55635333230441
30
0
41
1
10
26.1117788487103
20
1.54035589932536
30
0
41
1
10
26.2443812549755
20
1.5059091980319
30
0
41
1
10
26.3109204476738
20
1.48748284864095
30
0
41
1
10
26.4110029940762
20
1.45793191580634
30
0
41
1
10
26.4444473849614
20
1.44775779169996
30
0
41
1
10
26.511264496454
20
1.42685558263301
30
0
41
1
10
26.5446276361983
20
1.41613048255354
30
0
41
1
10
26.6445885108436
20
1.38315986202093
30
0
41
1
10
26.7110615088485
20
1.36012483916048
30
0
41
1
10
26.9099417221253
20
1.28793617077935
30
0
41
1
10
27.0417560557963
20
1.23560144193502
30
0
41
1
10
27.2391825468824
20
1.15133356888524
30
0
41
1
10
27.3049971787137
20
1.12235605870851
30
0
41
1
10
27.4367552778901
20
1.06285591197437
30
0
41
1
10
27.5026361989342
20
1.03225184156011
30
0
41
1
10
27.7003438547904
20
0.938031635586952
30
0
41
1
10
27.8322564915803
20
0.872057306430349
30
0
41
1
10
28.0307089561533
20
0.768549913215509
30
0
41
1
10
28.0969679400508
20
0.733294781406443
30
0
41
1
10
28.2297907370778
20
0.661445354725515
30
0
41
1
10
28.2963276089789
20
0.624807229925608
30
0
41
1
10
28.4298945961179
20
0.550561571908219
30
0
41
1
10
28.4966567940356
20
0.513142524252686
30
0
41
1
10
28.6297620851417
20
0.437599168325164
30
0
41
1
10
28.6961721035411
20
0.399502220777862
30
0
41
1
10
28.8288102536549
20
0.322817824406712
30
0
41
1
10
28.8950380994129
20
0.28423028801609
30
0
41
1
10
29.0273601675624
20
0.206636298065092
30
0
41
1
10
29.0934486562842
20
0.167620125477129
30
0
41
1
10
29.1595504540598
20
0.128515704598868
30
0
0
SPLINE
5
E7
100
AcDbEntity
8
1
62
256
6
ByLayer
370
18
48
1
60
0
100
AcDbSpline
70
4
71
3
72
35
73
31
40
0
40
0
40
0
40
0
40
0.125
40
0.125
40
0.15625
40
0.15625
40
0.1875
40
0.1875
40
0.250000000000002
40
0.250000000000002
40
0.375000000000004
40
0.375000000000004
40
0.406250000000005
40
0.406250000000005
40
0.437500000000006
40
0.500000000000005
40
0.500000000000005
40
0.625000000000004
40
0.625000000000004
40
0.687500000000004
40
0.687500000000004
40
0.718750000000003
40
0.718750000000003
40
0.750000000000003
40
0.750000000000003
40
0.812500000000002
40
0.812500000000002
40
0.875000000000001
40
0.875000000000001
40
1
40
1
40
1
40
1
41
1
10
29.1595504540599
20
0.128515704598726
30
0
41
1
10
29.1564215950239
20
0.0261738194407712
30
0
41
1
10
29.158680711668
20
-0.0759956182776591
30
0
41
1
10
29.1658801216568
20
-0.203518943604365
30
0
41
1
10
29.1675410006589
20
-0.229014104978461
30
0
41
1
10
29.1712535249074
20
-0.279985785080072
30
0
41
1
10
29.1733087767126
20
-0.305493377415161
30
0
41
1
10
29.179914031804
20
-0.381210689285581
30
0
41
1
10
29.1849167946805
20
-0.430867603312805
30
0
41
1
10
29.2010616008181
20
-0.577509751344735
30
0
41
1
10
29.2133125917855
20
-0.672188897328994
30
0
41
1
10
29.2288331923321
20
-0.78676897298277
30
0
41
1
10
29.2319510025956
20
-0.809501623959392
30
0
41
1
10
29.2381345676108
20
-0.85426141406964
30
0
41
1
10
29.2473495086773
20
-0.92046561937758
30
0
41
1
10
29.2562507603702
20
-0.983893801240413
30
0
41
1
10
29.2733767354513
20
-1.1070271817803
30
0
41
1
10
29.2835942981409
20
-1.18231917420019
30
0
41
1
10
29.296930814635
20
-1.28542157621999
30
0
41
1
10
29.3010532681748
20
-1.31813955134609
30
0
41
1
10
29.3068056828988
20
-1.36469176574147
30
0
41
1
10
29.308651817224
20
-1.3797877129546
30
0
41
1
10
29.3122172300752
20
-1.40911988686244
30
0
41
1
10
29.3139379880317
20
-1.42336851245474
30
0
41
1
10
29.318904824043
20
-1.4644876067471
30
0
41
1
10
29.321966548017
20
-1.48984165223808
30
0
41
1
10
29.3278399952023
20
-1.5364327760758
30
0
41
1
10
29.3306587203239
20
-1.55771070464138
30
0
41
1
10
29.3391236123486
20
-1.61463335361483
30
0
41
1
10
29.3447746094951
20
-1.64364606676659
30
0
41
1
10
29.3520408538446
20
-1.66364954431367
30
0
0
SPLINE
5
E8
100
AcDbEntity
8
1
62
256
6
ByLayer
370
13
48
1
60
0
100
AcDbSpline
70
4
71
3
72
8
73
4
40
0
40
0
40
0
40
0
40
1
40
1
40
1
40
1
41
1
10
13.4688645926535
20
1.4429165528428
30
0
41
1
10
13.5129432358539
20
1.42952043925916
30
0
41
1
10
13.5570211922791
20
1.41560528916852
30
0
41
1
10
13.6011118471221
20
1.40118151131787
30
0
0
SPLINE
5
E9
100
AcDbEntity
8
1
62
256
6
ByLayer
370
13
48
1
60
0
100
AcDbSpline
70
4
71
3
72
48
73
44
40
0
40
0
40
0
40
0
40
0.0358827052128731
40
0.0358827052128731
40
0.0727232624024121
40
0.0727232624024121
40
0.109563819591952
40
0.109563819591952
40
0.18324493397103
40
0.18324493397103
40
0.220085491160569
40
0.220085491160569
40
0.256926048350108
40
0.256926048350108
40
0.330607162729189
40
0.330607162729189
40
0.40428827710827
40
0.40428827710827
40
0.477969391487351
40
0.477969391487351
40
0.551650505866432
40
0.551650505866432
40
0.570070784461204
40
0.570070784461204
40
0.588491063055975
40
0.588491063055975
40
0.625331620245519
40
0.625331620245519
40
0.699012734624605
40
0.699012734624605
40
0.772693849003692
40
0.772693849003692
40
0.846374963382779
40
0.846374963382779
40
0.864795241977551
40
0.864795241977551
40
0.883215520572324
40
0.883215520572324
40
0.920056077761872
40
0.920056077761872
40
0.993737192140964
40
0.993737192140964
40
1
40
1
40
1
40
1
41
1
10
13.9678124649241
20
1.27003220799037
30
0
41
1
10
14.0327322967113
20
1.24492003718308
30
0
41
1
10
14.0977543041059
20
1.21879776164019
30
0
41
1
10
14.2298241270945
20
1.16385331424081
30
0
41
1
10
14.2968966468654
20
1.13497088438021
30
0
41
1
10
14.4313742901719
20
1.07523116899156
30
0
41
1
10
14.4985202535275
20
1.04448655678817
30
0
41
1
10
14.6997985449935
20
0.949817131750109
30
0
41
1
10
14.8337502926747
20
0.883434239982392
30
0
41
1
10
15.0348748790878
20
0.779726125565617
30
0
41
1
10
15.1019570914086
20
0.744487472630084
30
0
41
1
10
15.2362856601993
20
0.67278213389946
30
0
41
1
10
15.3035867742051
20
0.636272862665891
30
0
41
1
10
15.504718696618
20
0.525636339312626
30
0
41
1
10
15.6380913796464
20
0.450196569621795
30
0
41
1
10
15.9042005958851
20
0.297330166935296
30
0
41
1
10
16.0369404617988
20
0.219901844788069
30
0
41
1
10
16.3023947761024
20
0.0640965576583596
30
0
41
1
10
16.4350994193683
20
-0.0142910381635488
30
0
41
1
10
16.7011479612526
20
-0.170863994830256
30
0
41
1
10
16.8345078951873
20
-0.249026671416175
30
0
41
1
10
17.0020249047999
20
-0.345889732944187
30
0
41
1
10
17.0355690486667
20
-0.365220334509729
30
0
41
1
10
17.1027475855784
20
-0.403782157980686
30
0
41
1
10
17.1363589875669
20
-0.422999460687947
30
0
41
1
10
17.2369953265531
20
-0.48027107897002
30
0
41
1
10
17.3039298016918
20
-0.518008086897709
30
0
41
1
10
17.504392000389
20
-0.62967216747316
30
0
41
1
10
17.6375850602919
20
-0.702021245425243
30
0
41
1
10
17.9037202426211
20
-0.841608940277439
30
0
41
1
10
18.0366513268539
20
-0.908897539534934
30
0
41
1
10
18.3029480023551
20
-1.03739092166123
30
0
41
1
10
18.4363575507813
20
-1.09850632670526
30
0
41
1
10
18.6037452204573
20
-1.17051172605611
30
0
41
1
10
18.6372549467137
20
-1.18469307437658
30
0
41
1
10
18.7043493355057
20
-1.21260199677923
30
0
41
1
10
18.7379640081286
20
-1.22634149343617
30
0
41
1
10
18.8386832589955
20
-1.26675587011798
30
0
41
1
10
18.905633052707
20
-1.29262426469702
30
0
41
1
10
19.1060792278067
20
-1.36683871878969
30
0
41
1
10
19.2392209311372
20
-1.41171864542593
30
0
41
1
10
19.3833619089051
20
-1.45526797066637
30
0
41
1
10
19.3946518699593
20
-1.45864563282041
30
0
41
1
10
19.4059400211085
20
-1.46198914775061
30
0
0
SPLINE
5
EA
100
AcDbEntity
8
1
62
256
6
ByLayer
370
18
48
1
60
0
100
AcDbSpline
70
4
71
3
72
16
73
12
40
0
40
0
40
0
40
0
40
0.243805334236278
40
0.243805334236278
40
0.510258908143264
40
0.510258908143264
40
0.776712482050251
40
0.776712482050251
40
0.909939269003751
40
0.909939269003751
40
1
40
1
40
1
40
1
41
1
10
19.4059400211274
20
-1.46198914775619
30
0
41
1
10
19.5274554901167
20
-1.4979816481617
30
0
41
1
10
19.6487612229528
20
-1.5300170861191
30
0
41
1
10
19.9028160057164
20
-1.58837828371398
30
0
41
1
10
20.0356528562928
20
-1.61380931942358
30
0
41
1
10
20.3020610120259
20
-1.65417522252221
30
0
41
1
10
20.4356345866933
20
-1.6691590682322
30
0
41
1
10
20.6371422896105
20
-1.68346530298851
30
0
41
1
10
20.7042084774439
20
-1.68683740222883
30
0
41
1
10
20.8163054703863
20
-1.69013718570653
30
0
41
1
10
20.8614467602251
20
-1.69082632746643
30
0
41
1
10
20.9065282296839
20
-1.69088414568034
30
0
0
SPLINE
5
EB
100
AcDbEntity
8
1
62
256
6
ByLayer
370
18
48
1
60
0
100
AcDbSpline
70
4
71
3
72
75
73
71
40
0
40
0
40
0
40
0
40
0.0216229662401627
40
0.0216229662401627
40
0.0318224688626324
40
0.0318224688626324
40
0.0420219714851021
40
0.0624209767300399
40
0.0624209767300399
40
0.103218987219916
40
0.103218987219916
40
0.144016997709791
40
0.144016997709791
40
0.184815008199667
40
0.184815008199667
40
0.205214013444605
40
0.205214013444605
40
0.215413516067074
40
0.215413516067074
40
0.225613018689544
40
0.225613018689544
40
0.266411029179421
40
0.266411029179421
40
0.307209039669299
40
0.307209039669299
40
0.348007050159176
40
0.348007050159176
40
0.388805060649053
40
0.388805060649053
40
0.399004563271522
40
0.399004563271522
40
0.409204065893992
40
0.409204065893992
40
0.429603071138929
40
0.429603071138929
40
0.511199092118675
40
0.511199092118675
40
0.551997102608549
40
0.551997102608549
40
0.572396107853485
40
0.582595610475954
40
0.582595610475954
40
0.592795113098424
40
0.592795113098424
40
0.6335931235883
40
0.6335931235883
40
0.674391134078177
40
0.674391134078177
40
0.755987155057928
40
0.755987155057928
40
0.776386160302865
40
0.776386160302865
40
0.786585662925333
40
0.786585662925333
40
0.796785165547801
40
0.796785165547801
40
0.837583176037675
40
0.837583176037675
40
0.878381186527548
40
0.878381186527548
40
0.919179197017422
40
0.919179197017422
40
0.939578202262358
40
0.939578202262358
40
0.959977207507294
40
0.959977207507294
40
0.970176710129763
40
0.970176710129763
40
0.980376212752232
40
1
40
1
40
1
40
1
41
1
10
21.5391023881997
20
-1.70834817112365
30
0
41
1
10
21.4681903997098
20
-1.72068347132887
30
0
41
1
10
21.3971099569187
20
-1.73148025706857
30
0
41
1
10
21.2921965345127
20
-1.74504519703595
30
0
41
1
10
21.258529219296
20
-1.74903797224229
30
0
41
1
10
21.1913577040598
20
-1.75627884445319
30
0
41
1
10
21.0907397110264
20
-1.76603690127757
30
0
41
1
10
20.9904851452296
20
-1.77250174947903
30
0
41
1
10
20.7903230698056
20
-1.78108262702156
30
0
41
1
10
20.6573280321362
20
-1.78101295588485
30
0
41
1
10
20.3917591709143
20
-1.76943335263965
30
0
41
1
10
20.2591155577857
20
-1.7579183063807
30
0
41
1
10
19.9933035032847
20
-1.72362467661935
30
0
41
1
10
19.8601314825223
20
-1.70086067617146
30
0
41
1
10
19.6596192609498
20
-1.65828107628812
30
0
41
1
10
19.5926433506463
20
-1.64268625060666
30
0
41
1
10
19.491876726911
20
-1.61721890044396
30
0
41
1
10
19.4582060309452
20
-1.60837457328324
30
0
41
1
10
19.3909185662505
20
-1.59004139351018
30
0
41
1
10
19.3573239399631
20
-1.58055934292597
30
0
41
1
10
19.1895659887099
20
-1.53160847497796
30
0
41
1
10
19.0560310410134
20
-1.48753970189111
30
0
41
1
10
18.789819573222
20
-1.3902050092554
30
0
41
1
10
18.6570689289202
20
-1.33700169062874
30
0
41
1
10
18.3914763912447
20
-1.22245562071973
30
0
41
1
10
18.2586349685498
20
-1.1611193421497
30
0
41
1
10
17.9923187117508
20
-1.03091980450699
30
0
41
1
10
17.8588206067036
20
-0.962081535823302
30
0
41
1
10
17.6910459828055
20
-0.871890018673753
30
0
41
1
10
17.6574457060723
20
-0.85364488913882
30
0
41
1
10
17.5901418769646
20
-0.816755179603234
30
0
41
1
10
17.5564668332003
20
-0.798125907975134
30
0
41
1
10
17.4556751570553
20
-0.741889837609676
30
0
41
1
10
17.3886687605094
20
-0.703868278624327
30
0
41
1
10
17.0543547172396
20
-0.511469362074308
30
0
41
1
10
16.7892139166337
20
-0.350199410465109
30
0
41
1
10
16.3906170034696
20
-0.10432991742897
30
0
41
1
10
16.2576205262749
20
-0.0216851403546912
30
0
41
1
10
16.057386894626
20
0.102437945179617
30
0
41
1
10
15.9570816181319
20
0.164532263330756
30
0
41
1
10
15.8563908769711
20
0.226509800597483
30
0
41
1
10
15.7891674934239
20
0.267785277835316
30
0
41
1
10
15.7554728705349
20
0.288422722802437
30
0
41
1
10
15.5872320707799
20
0.391154111047172
30
0
41
1
10
15.4534608554505
20
0.471837037869904
30
0
41
1
10
15.186710188673
20
0.62896687161313
30
0
41
1
10
15.0537667391452
20
0.70547396190733
30
0
41
1
10
14.6552632085519
20
0.927422767513775
30
0
41
1
10
14.389877968745
20
1.06507095451136
30
0
41
1
10
14.0549917912408
20
1.21912106334582
30
0
41
1
10
13.987854075432
20
1.24902664335667
30
0
41
1
10
13.8868554744298
20
1.2924467520013
30
0
41
1
10
13.8531860035887
20
1.30666150636691
30
0
41
1
10
13.786000524557
20
1.33449057120575
30
0
41
1
10
13.7524578259715
20
1.34811502835569
30
0
41
1
10
13.5849454778558
20
1.41474523890139
30
0
41
1
10
13.4515511688765
20
1.46324739147914
30
0
41
1
10
13.1852837825413
20
1.55023740313823
30
0
41
1
10
13.0524290976281
20
1.5887482950356
30
0
41
1
10
12.7867995129686
20
1.65544652006625
30
0
41
1
10
12.6538922606911
20
1.6835373346828
30
0
41
1
10
12.4538533532619
20
1.71744138882153
30
0
41
1
10
12.3870568205392
20
1.72736995846955
30
0
41
1
10
12.2531998161796
20
1.7444395268665
30
0
41
1
10
12.1861556458911
20
1.75158432609902
30
0
41
1
10
12.0853111556424
20
1.76014413222347
30
0
41
1
10
12.051612911975
20
1.76263929426983
30
0
41
1
10
11.9843179234414
20
1.76688683159802
30
0
41
1
10
11.8860686795487
20
1.77201541654588
30
0
41
1
10
11.7881713943146
20
1.77400871855906
30
0
41
1
10
11.7238691301873
20
1.77398206307709
30
0
0
SPLINE
5
EC
100
AcDbEntity
8
1
62
256
6
ByLayer
370
18
48
1
60
0
100
AcDbSpline
70
4
71
3
72
27
73
23
40
0
40
0
40
0
40
0
40
0.0063927992191576
40
0.0063927992191576
40
0.0828241223561455
40
0.0828241223561455
40
0.235686768630121
40
0.235686768630121
40
0.273902430198615
40
0.273902430198615
40
0.312118091767109
40
0.388549414904097
40
0.388549414904097
40
0.541412061178072
40
0.541412061178072
40
0.61784338431506
40
0.61784338431506
40
0.694274707452048
40
0.694274707452048
40
0.847137353726024
40
0.847137353726024
40
1
40
1
40
1
40
1
41
1
10
3.55911506876018
20
-1.76887888177782
30
0
41
1
10
3.55911605297897
20
-1.7688806173837
30
0
41
1
10
3.55911703083919
20
-1.76886709201324
30
0
41
1
10
3.55912961646635
20
-1.76849398434231
30
0
41
1
10
3.55914036129303
20
-1.76598169659871
30
0
41
1
10
3.55917091603953
20
-1.75206829310011
30
0
41
1
10
3.55918907140762
20
-1.73433750679575
30
0
41
1
10
3.55921157855022
20
-1.7013220376119
30
0
41
1
10
3.55921605437416
20
-1.69419169119925
30
0
41
1
10
3.5592249653418
20
-1.67896398406339
30
0
41
1
10
3.55923829062797
20
-1.65463978432643
30
0
41
1
10
3.55925172858508
20
-1.62593976028512
30
0
41
1
10
3.55927925221366
20
-1.56277568431148
30
0
41
1
10
3.55929850251283
20
-1.51302460599743
30
0
41
1
10
3.55932997914513
20
-1.42644867483477
30
0
41
1
10
3.55934076017812
20
-1.39595886469186
30
0
41
1
10
3.55936286764154
20
-1.33196375049764
30
0
41
1
10
3.55937420245837
20
-1.29843463982792
30
0
41
1
10
3.55940893894007
20
-1.19330286834
30
0
41
1
10
3.55943313638201
20
-1.11715040043802
30
0
41
1
10
3.55948178828589
20
-0.952419886491072
30
0
41
1
10
3.55950553395834
20
-0.866165235073737
30
0
41
1
10
3.55952711811824
20
-0.776181683172013
30
0
0
SPLINE
5
ED
100
AcDbEntity
8
1
62
256
6
ByLayer
370
18
48
1
60
0
100
AcDbSpline
70
4
71
3
72
8
73
4
40
0
40
0
40
0
40
0
40
1
40
1
40
1
40
1
41
1
10
3.55952711811901
20
-0.776181683171956
30
0
41
1
10
3.41840704219527
20
-0.697700067823973
30
0
41
1
10
3.27708467994549
20
-0.616836488539832
30
0
41
1
10
3.13510127401042
20
-0.534357213151452
30
0
0
SPLINE
5
EE
100
AcDbEntity
8
1
62
256
6
ByLayer
370
18
48
1
60
0
100
AcDbSpline
70
4
71
3
72
55
73
51
40
0
40
0
40
0
40
0
40
0.0717141477140059
40
0.0717141477140059
40
0.107571221571008
40
0.107571221571008
40
0.14342829542801
40
0.14342829542801
40
0.179285369285011
40
0.179285369285011
40
0.215142443142013
40
0.215142443142013
40
0.233070980070514
40
0.233070980070514
40
0.250999516999015
40
0.286856590856017
40
0.286856590856017
40
0.358570738570021
40
0.358570738570021
40
0.430284886284024
40
0.430284886284024
40
0.501999033998028
40
0.501999033998028
40
0.519927570926528
40
0.519927570926528
40
0.537856107855029
40
0.537856107855029
40
0.573713181712029
40
0.573713181712029
40
0.645427329426033
40
0.645427329426033
40
0.681284403283036
40
0.681284403283036
40
0.717141477140039
40
0.717141477140039
40
0.752998550997042
40
0.752998550997042
40
0.770927087925545
40
0.770927087925545
40
0.788855624854047
40
0.788855624854047
40
0.824712698711051
40
0.824712698711051
40
0.860569772568054
40
0.860569772568054
40
0.93228392028206
40
0.93228392028206
40
0.968140994139062
40
0.968140994139062
40
1
40
1
40
1
40
1
41
1
10
4.49932782386287
20
1.21466640144618
30
0
41
1
10
4.66032502732622
20
1.1426568226702
30
0
41
1
10
4.82031875474928
20
1.06534235243231
30
0
41
1
10
5.05951643904075
20
0.942431060377572
30
0
41
1
10
5.13911915310266
20
0.900304530652022
30
0
41
1
10
5.29830341613189
20
0.814073890864648
30
0
41
1
10
5.37790821261342
20
0.770004478197478
30
0
41
1
10
5.53725378843802
20
0.680122222572038
30
0
41
1
10
5.61698257814851
20
0.634290112458302
30
0
41
1
10
5.77678429924345
20
0.541189568729408
30
0
41
1
10
5.8568689086768
20
0.49394183533849
30
0
41
1
10
5.97728228489819
20
0.422024236251929
30
0
41
1
10
6.01751443740829
20
0.397853786238642
30
0
41
1
10
6.09785181532007
20
0.349340943864206
30
0
41
1
10
6.21812535558766
20
0.276339051859537
30
0
41
1
10
6.33779399959491
20
0.202792352496772
30
0
41
1
10
6.57666198660104
20
0.055528183646345
30
0
41
1
10
6.73521017917844
20
-0.042994010732059
30
0
41
1
10
7.05244253964037
20
-0.238231411813302
30
0
41
1
10
7.21095527868081
20
-0.335229744247982
30
0
41
1
10
7.52885233976923
20
-0.52620702315852
30
0
41
1
10
7.68831468664229
20
-0.620058881911262
30
0
41
1
10
7.88915354753595
20
-0.733907658029153
30
0
41
1
10
7.9293566968463
20
-0.756466980913984
30
0
41
1
10
8.00956070459878
20
-0.800986018210835
30
0
41
1
10
8.04960041101788
20
-0.822974671649348
30
0
41
1
10
8.16953631856268
20
-0.888132380146914
30
0
41
1
10
8.24925228239366
20
-0.930488559188547
30
0
41
1
10
8.48787688503171
20
-1.05406323048371
30
0
41
1
10
8.64630122217392
20
-1.1317272444075
30
0
41
1
10
8.88399779701325
20
-1.2398619455758
30
0
41
1
10
8.96323406258051
20
-1.27452045796474
30
0
41
1
10
9.12194687587768
20
-1.34080008291372
30
0
41
1
10
9.20139667853636
20
-1.37245369938799
30
0
41
1
10
9.36054305993724
20
-1.432697397472
30
0
41
1
10
9.44024390966774
20
-1.46128153191111
30
0
41
1
10
9.56011197154439
20
-1.50168939998616
30
0
41
1
10
9.60012184650185
20
-1.51474627185681
30
0
41
1
10
9.68027782368941
20
-1.54000228896067
30
0
41
1
10
9.72047441887051
20
-1.55221418710738
30
0
41
1
10
9.84089365157084
20
-1.58740763354155
30
0
41
1
10
9.9208802341231
20
-1.60894487327715
30
0
41
1
10
10.080465959949
20
-1.64810418183944
30
0
41
1
10
10.1600934296665
20
-1.66571016467492
30
0
41
1
10
10.398595104474
20
-1.71264400449343
30
0
41
1
10
10.5569930833391
20
-1.73612874165931
30
0
41
1
10
10.7946374155492
20
-1.75929539046152
30
0
41
1
10
10.873881711404
20
-1.76500309029095
30
0
41
1
10
11.023706415366
20
-1.77194110644987
30
0
41
1
10
11.0942682005893
20
-1.77359759874258
30
0
41
1
10
11.164985424276
20
-1.77363276837829
30
0
0
SPLINE
5
EF
100
AcDbEntity
8
1
62
256
6
ByLayer
370
18
48
1
60
0
100
AcDbSpline
70
4
71
3
72
52
73
48
40
0
40
0
40
0
40
0
40
0.0492601959115159
40
0.0492601959115159
40
0.108681433667059
40
0.108681433667059
40
0.168102671422602
40
0.168102671422602
40
0.182957980861486
40
0.182957980861486
40
0.197813290300371
40
0.197813290300371
40
0.227523909178138
40
0.286945146933675
40
0.286945146933675
40
0.346366384689211
40
0.346366384689211
40
0.376077003566978
40
0.376077003566978
40
0.390932313005862
40
0.390932313005862
40
0.405787622444745
40
0.405787622444745
40
0.524630097955811
40
0.524630097955811
40
0.584051335711343
40
0.584051335711343
40
0.598906645150226
40
0.598906645150226
40
0.613761954589108
40
0.643472573466872
40
0.643472573466872
40
0.702893811222399
40
0.702893811222399
40
0.762315048977928
40
0.762315048977928
40
0.792025667855693
40
0.792025667855693
40
0.806880977294573
40
0.806880977294573
40
0.821736286733453
40
0.821736286733453
40
0.881157524488969
40
0.881157524488969
40
0.940578762244485
40
0.940578762244485
40
1
40
1
40
1
40
1
41
1
10
20.3128339837033
20
1.77935041670963
30
0
41
1
10
20.461985904046
20
1.77948237326584
30
0
41
1
10
20.6103049933559
20
1.77238319058051
30
0
41
1
10
20.9368015990753
20
1.74125539842078
30
0
41
1
10
21.1148310083959
20
1.7140316627021
30
0
41
1
10
21.4717429949767
20
1.63996361133872
30
0
41
1
10
21.6506411746684
20
1.59313836143781
30
0
41
1
10
21.8758447473757
20
1.52278102038727
30
0
41
1
10
21.9209636357533
20
1.50811697646805
30
0
41
1
10
22.0113841926342
20
1.47761176284658
30
0
41
1
10
22.0565576007782
20
1.46181319589886
30
0
41
1
10
22.1917433087717
20
1.41292315693772
30
0
41
1
10
22.4611144874344
20
1.30905280766612
30
0
41
1
10
22.72848333239
20
1.18820435404717
30
0
41
1
10
23.0849341236782
20
1.01420051192829
30
0
41
1
10
23.2631445161338
20
0.920766326203847
30
0
41
1
10
23.5318171792623
20
0.772741661154924
30
0
41
1
10
23.6216025067388
20
0.722090921654484
30
0
41
1
10
23.7567825153662
20
0.644354749574575
30
0
41
1
10
23.8019683820968
20
0.61812211299528
30
0
41
1
10
23.8923310109581
20
0.565210116327592
30
0
41
1
10
23.9374178012231
20
0.538584018251214
30
0
41
1
10
24.3424646774452
20
0.297608981502293
30
0
41
1
10
24.6972396282729
20
0.073803380024998
30
0
41
1
10
25.2327908722479
20
-0.257841467687769
30
0
41
1
10
25.4118088407606
20
-0.367816528743816
30
0
41
1
10
25.6371975821361
20
-0.50295142745091
30
0
41
1
10
25.6824199656378
20
-0.529895160457869
30
0
41
1
10
25.7726516555881
20
-0.583249934499435
30
0
41
1
10
25.9077280599568
20
-0.662510616968945
30
0
41
1
10
26.0421259451883
20
-0.739279225868415
30
0
41
1
10
26.3103574131013
20
-0.88904753374274
30
0
41
1
10
26.4884317175846
20
-0.983859285416486
30
0
41
1
10
26.8448702369943
20
-1.16107988317756
30
0
41
1
10
27.0231881745796
20
-1.24355449991762
30
0
41
1
10
27.2920284816048
20
-1.35639219326217
30
0
41
1
10
27.3818732526556
20
-1.39218614447552
30
0
41
1
10
27.5171733828407
20
-1.44289822014008
30
0
41
1
10
27.5623778364358
20
-1.45930914446507
30
0
41
1
10
27.6524955564837
20
-1.49092469046292
30
0
41
1
10
27.697470857491
20
-1.50615318035668
30
0
41
1
10
27.9220127706579
20
-1.57936037991121
30
0
41
1
10
28.1006305429232
20
-1.62850177658726
30
0
41
1
10
28.4573528734356
20
-1.70740840590662
30
0
41
1
10
28.6354290290927
20
-1.73718217531888
30
0
41
1
10
28.9926448716624
20
-1.77648671478343
30
0
41
1
10
29.1717974281944
20
-1.78601395499467
30
0
41
1
10
29.3523579921714
20
-1.78489268583056
30
0
0
SPLINE
5
F0
100
AcDbEntity
8
1
62
256
6
ByLayer
370
18
48
1
60
0
100
AcDbSpline
70
4
71
3
72
8
73
4
40
0
40
0
40
0
40
0
40
1
40
1
40
1
40
1
41
1
10
29.3523579921787
20
-1.78489268583061
30
0
41
1
10
29.3429357624364
20
-1.78585678049785
30
0
41
1
10
29.3360535962076
20
-1.78026898213221
30
0
41
1
10
29.3305425289283
20
-1.76829795899749
30
0
0
SPLINE
5
F1
100
AcDbEntity
8
1
62
256
6
ByLayer
370
18
48
1
60
0
100
AcDbSpline
70
4
71
3
72
10
73
6
40
0
40
0
40
0
40
0
40
0.5
40
0.5
40
1
40
1
40
1
40
1
41
1
10
3.69804267783005
20
1.66741365857982
30
0
41
1
10
3.68220073674075
20
1.67066584296862
30
0
41
1
10
3.66643898198259
20
1.67388179084739
30
0
41
1
10
3.63564193961173
20
1.68047448465123
30
0
41
1
10
3.62060719326581
20
1.68385680234218
30
0
41
1
10
3.60673968918542
20
1.68762015731821
30
0
0
SPLINE
5
F2
100
AcDbEntity
8
1
62
256
6
ByLayer
370
18
48
1
60
0
100
AcDbSpline
70
4
71
3
72
16
73
12
40
0
40
0
40
0
40
0
40
0.249999999999988
40
0.249999999999988
40
0.499999999999976
40
0.499999999999976
40
0.749999999999962
40
0.749999999999962
40
0.874999999999981
40
0.874999999999981
40
1
40
1
40
1
40
1
41
1
10
3.60673968918559
20
1.68762015731818
30
0
41
1
10
3.59986717909843
20
1.68948521500155
30
0
41
1
10
3.59356984888376
20
1.69145842430331
30
0
41
1
10
3.58221061345108
20
1.69560992720469
30
0
41
1
10
3.5771122528856
20
1.69780559416253
30
0
41
1
10
3.56855531888044
20
1.70233622034547
30
0
41
1
10
3.56514152551111
20
1.70463773852649
30
0
41
1
10
3.56154037783674
20
1.70814478208837
30
0
41
1
10
3.56059478301043
20
1.70932873447344
30
0
41
1
10
3.55931992470295
20
1.71166984812351
30
0
41
1
10
3.55898341507628
20
1.71283109180246
30
0
41
1
10
3.55898514440844
20
1.71398325704774
30
0
0
SPLINE
5
F3
100
AcDbEntity
8
1
62
256
6
ByLayer
370
18
48
1
60
0
100
AcDbSpline
70
4
71
3
72
12
73
8
40
0
40
0
40
0
40
0
40
0.685732873552567
40
0.685732873552567
40
0.857166091940709
40
0.857166091940709
40
1
40
1
40
1
40
1
41
1
10
3.55898514440867
20
1.71398325704777
30
0
41
1
10
3.55902259755081
20
1.73893636274533
30
0
41
1
10
3.55905355867171
20
1.75538688449495
30
0
41
1
10
3.55908718656002
20
1.76534529139514
30
0
41
1
10
3.5590936568899
20
1.76680311093304
30
0
41
1
10
3.55910511532508
20
1.76848385903099
30
0
41
1
10
3.55911017495012
20
1.7688706668753
30
0
41
1
10
3.55911507683342
20
1.76887889567234
30
0
0
SPLINE
5
F4
100
AcDbEntity
8
1
62
256
6
ByLayer
370
18
48
1
60
0
100
AcDbSpline
70
4
71
3
72
34
73
30
40
0
40
0
40
0
40
0
40
0.0305742965062265
40
0.0305742965062265
40
0.105145504467291
40
0.105145504467291
40
0.179716712428355
40
0.179716712428355
40
0.217002316408885
40
0.217002316408885
40
0.254287920389414
40
0.254287920389414
40
0.328859128350474
40
0.328859128350474
40
0.403430336311534
40
0.403430336311534
40
0.552572752233658
40
0.552572752233658
40
0.627143960194717
40
0.627143960194717
40
0.701715168155776
40
0.701715168155776
40
0.776286376116835
40
0.776286376116835
40
0.813571980097363
40
0.813571980097363
40
0.850857584077891
40
0.850857584077891
40
1
40
1
40
1
40
1
41
1
10
8.94503435384138
20
1.26614139983897
30
0
41
1
10
8.97753819614906
20
1.28023023907872
30
0
41
1
10
9.01005423476431
20
1.29407290233215
30
0
41
1
10
9.12194687587768
20
1.34080008291372
30
0
41
1
10
9.20139667853636
20
1.37245369938799
30
0
41
1
10
9.36054305993724
20
1.432697397472
30
0
41
1
10
9.44024390966774
20
1.46128153191111
30
0
41
1
10
9.56011197154439
20
1.50168939998616
30
0
41
1
10
9.60012184650188
20
1.51474627185681
30
0
41
1
10
9.68027782368944
20
1.54000228896067
30
0
41
1
10
9.72047441887054
20
1.55221418710741
30
0
41
1
10
9.84089365157084
20
1.58740763354155
30
0
41
1
10
9.92088023412308
20
1.60894487327715
30
0
41
1
10
10.080465959949
20
1.64810418183944
30
0
41
1
10
10.1600934296666
20
1.66571016467492
30
0
41
1
10
10.398595104474
20
1.71264400449343
30
0
41
1
10
10.5569930833391
20
1.73612874165931
30
0
41
1
10
10.7946374155492
20
1.75929539046152
30
0
41
1
10
10.873881711404
20
1.76500309029095
30
0
41
1
10
11.0325523107047
20
1.77235073826077
30
0
41
1
10
11.1119792976796
20
1.77398803496752
30
0
41
1
10
11.2712534764339
20
1.77315072986661
30
0
41
1
10
11.3510967216399
20
1.77068106016944
30
0
41
1
10
11.4711917505692
20
1.76385461999521
30
0
41
1
10
11.5112810336824
20
1.76105846208577
30
0
41
1
10
11.5915925796273
20
1.75441514464461
30
0
41
1
10
11.6317714778714
20
1.75057012833292
30
0
41
1
10
11.8320928032285
20
1.72882323283741
30
0
41
1
10
11.9912507393198
20
1.70331271736106
30
0
41
1
10
12.1499999999889
20
1.67020050920098
30
0
0
SPLINE
5
F5
100
AcDbEntity
8
1
62
256
6
ByLayer
370
18
48
1
60
0
100
AcDbSpline
70
4
71
3
72
54
73
50
40
0
40
0
40
0
40
0
40
0.0655587277541319
40
0.0655587277541319
40
0.0819484096926639
40
0.0819484096926639
40
0.0983380916311959
40
0.13111745550826
40
0.13111745550826
40
0.196676183262386
40
0.196676183262386
40
0.262234911016513
40
0.262234911016513
40
0.295014274893577
40
0.295014274893577
40
0.327793638770641
40
0.327793638770641
40
0.393352366524769
40
0.393352366524769
40
0.458911094278897
40
0.458911094278897
40
0.491690458155963
40
0.491690458155963
40
0.508080140094495
40
0.508080140094495
40
0.524469822033028
40
0.524469822033028
40
0.590028549787156
40
0.590028549787156
40
0.655587277541284
40
0.655587277541284
40
0.721146005295412
40
0.721146005295412
40
0.737535687233944
40
0.737535687233944
40
0.753925369172475
40
0.753925369172475
40
0.786704733049537
40
0.786704733049537
40
0.852263460803662
40
0.852263460803662
40
0.917822188557786
40
0.917822188557786
40
0.950601552434849
40
0.966991234373379
40
0.966991234373379
40
0.983380916311909
40
0.983380916311909
40
1
40
1
40
1
40
1
41
1
10
12.15
20
1.69809062181037
30
0
41
1
10
12.3306991736653
20
1.66575919797518
30
0
41
1
10
12.511091131508
20
1.62337612842589
30
0
41
1
10
12.7372771010656
20
1.5584833186617
30
0
41
1
10
12.7825180647116
20
1.54491559816867
30
0
41
1
10
12.8727532204816
20
1.51671672561002
30
0
41
1
10
13.0078554158529
20
1.47278931679318
30
0
41
1
10
13.1423361521056
20
1.42413300533576
30
0
41
1
10
13.4108139710412
20
1.32093517981497
30
0
41
1
10
13.5891308386869
20
1.24427076998018
30
0
41
1
10
13.9460479231412
20
1.07713304414739
30
0
41
1
10
14.1246532456915
20
0.986658057845688
30
0
41
1
10
14.3941886199032
20
0.842257913623712
30
0
41
1
10
14.4843310365872
20
0.792668418362155
30
0
41
1
10
14.6653049781819
20
0.69094001585961
30
0
41
1
10
14.7554246456833
20
0.639190923663222
30
0
41
1
10
15.0249730850885
20
0.481768977200971
30
0
41
1
10
15.2035845142511
20
0.373910428887228
30
0
41
1
10
15.5603827163827
20
0.155227687398934
30
0
41
1
10
15.7385833127042
20
0.0444256317551037
30
0
41
1
10
16.0069308659572
20
-0.121773153127663
30
0
41
1
10
16.0965566197869
20
-0.177168462353535
30
0
41
1
10
16.2314275701701
20
-0.259981355187421
30
0
41
1
10
16.276455845011
20
-0.287540249944811
30
0
41
1
10
16.3666804266862
20
-0.34252589082601
30
0
41
1
10
16.4119354548602
20
-0.369988007187544
30
0
41
1
10
16.637936894642
20
-0.506401793688099
30
0
41
1
10
16.8172806822498
20
-0.612314282201311
30
0
41
1
10
17.1747307023028
20
-0.815358965469983
30
0
41
1
10
17.352822882271
20
-0.912505006368349
30
0
41
1
10
17.7096365659552
20
-1.09535301603793
30
0
41
1
10
17.8884133893486
20
-1.18098954030097
30
0
41
1
10
18.113319511872
20
-1.2794192101432
30
0
41
1
10
18.1583715818288
20
-1.29867502513704
30
0
41
1
10
18.2486434068671
20
-1.33628793653719
30
0
41
1
10
18.2939167819288
20
-1.35466527745652
30
0
41
1
10
18.4293459987909
20
-1.40812170889203
30
0
41
1
10
18.5192677335729
20
-1.44159561714747
30
0
41
1
10
18.7882894264744
20
-1.5353043643
30
0
41
1
10
18.9666472575132
20
-1.58881928657814
30
0
41
1
10
19.3233001334994
20
-1.67676952390323
30
0
41
1
10
19.5015678477616
20
-1.71123780934062
30
0
41
1
10
19.7700666777899
20
-1.74791577811712
30
0
41
1
10
19.9045939749809
20
-1.7624940549334
30
0
41
1
10
20.0397895807627
20
-1.77126055355109
30
0
41
1
10
20.1300981351914
20
-1.77579344483806
30
0
41
1
10
20.1753358125037
20
-1.77740152507573
30
0
41
1
10
20.2661459152147
20
-1.77929924909432
30
0
41
1
10
20.3117790122983
20
-1.77957426979936
30
0
41
1
10
20.3573388804074
20
-1.77917518985913
30
0
0
SPLINE
5
F6
100
AcDbEntity
8
1
62
256
6
ByLayer
370
18
48
1
60
0
100
AcDbSpline
70
4
71
3
72
8
73
4
40
0
40
0
40
0
40
0
40
1
40
1
40
1
40
1
41
1
10
29.1384612870537
20
1.78124771003817
30
0
41
1
10
29.209575134505
20
1.78411087970909
30
0
41
1
10
29.2808561647721
20
1.78533670745119
30
0
41
1
10
29.3523579921715
20
1.78489268583056
30
0
0
SPLINE
5
F7
100
AcDbEntity
8
1
62
256
6
ByLayer
370
18
48
1
60
0
100
AcDbSpline
70
4
71
3
72
18
73
14
40
0
40
0
40
0
40
0
40
0.250000000000002
40
0.250000000000002
40
0.500000000000004
40
0.500000000000004
40
0.625000000000003
40
0.625000000000003
40
0.750000000000002
40
0.750000000000002
40
0.875000000000001
40
0.875000000000001
40
1
40
1
40
1
40
1
41
1
10
29.3520408538446
20
-1.66364954431364
30
0
41
1
10
29.3529479634883
20
-1.6661467555989
30
0
41
1
10
29.3533290324243
20
-1.6701450733824
30
0
41
1
10
29.352711292818
20
-1.68189806039132
30
0
41
1
10
29.3516965158083
20
-1.68956181999326
30
0
41
1
10
29.3488742810449
20
-1.70384742965481
30
0
41
1
10
29.347742819171
20
-1.70894875747592
30
0
41
1
10
29.3450830930415
20
-1.7198751900726
30
0
41
1
10
29.3435260773205
20
-1.72579728864088
30
0
41
1
10
29.3401661722117
20
-1.73778326809636
30
0
41
1
10
29.3383581329869
20
-1.74388257989924
30
0
41
1
10
29.3345039380764
20
-1.75629774576149
30
0
41
1
10
29.332535350552
20
-1.76236474590868
30
0
41
1
10
29.3305425289282
20
-1.76829795899752
30
0
0
SPLINE
5
F8
100
AcDbEntity
8
1
62
256
6
ByLayer
370
13
48
1
60
0
100
AcDbSpline
70
4
71
3
72
51
73
47
40
0
40
0
40
0
40
0
40
0.0599412594934233
40
0.0599412594934233
40
0.0899118892401352
40
0.0899118892401352
40
0.119882518986847
40
0.119882518986847
40
0.179823778480273
40
0.179823778480273
40
0.239765037973698
40
0.239765037973698
40
0.299706297467124
40
0.299706297467124
40
0.329676927213836
40
0.344662242087192
40
0.344662242087192
40
0.359647556960548
40
0.359647556960548
40
0.479530075947391
40
0.479530075947391
40
0.494515390820746
40
0.494515390820746
40
0.509500705694102
40
0.509500705694102
40
0.53947133544081
40
0.53947133544081
40
0.599412594934227
40
0.599412594934227
40
0.659353854427644
40
0.659353854427644
40
0.719295113921061
40
0.719295113921061
40
0.749265743667771
40
0.749265743667771
40
0.764251058541126
40
0.764251058541126
40
0.779236373414482
40
0.779236373414482
40
0.839177632907908
40
0.839177632907908
40
0.899118892401334
40
0.899118892401334
40
0.95906015189476
40
0.95906015189476
40
1
40
1
40
1
40
1
41
1
10
3.75049564411074
20
1.6086137630129
30
0
41
1
10
3.88486815891548
20
1.58611386451449
30
0
41
1
10
4.01915292294592
20
1.55824739924429
30
0
41
1
10
4.22087572688153
20
1.5086913178323
30
0
41
1
10
4.28824294459025
20
1.49085781089576
30
0
41
1
10
4.42249774350887
20
1.45285748610223
30
0
41
1
10
4.48944641694004
20
1.43267863426681
30
0
41
1
10
4.68989131642735
20
1.36879294515364
30
0
41
1
10
4.82297454098284
20
1.32172528173425
30
0
41
1
10
5.0888260654832
20
1.21964690938557
30
0
41
1
10
5.22166809549606
20
1.164728533984
30
0
41
1
10
5.48760706304216
20
1.04750763320661
30
0
41
1
10
5.62071090532544
20
0.985229309387705
30
0
41
1
10
5.82105502768482
20
0.886907330122568
30
0
41
1
10
5.92139858063831
20
0.836520483378337
30
0
41
1
10
6.0220968376378
20
0.784413817536432
30
0
41
1
10
6.08931953407875
20
0.749307520883292
30
0
41
1
10
6.1229773868871
20
0.731569963235501
30
0
41
1
10
6.42550047403591
20
0.570815051473687
30
0
41
1
10
6.69313356500209
20
0.419241477834987
30
0
41
1
10
6.99569196987957
20
0.243622789900996
30
0
41
1
10
7.02933504667485
20
0.224037768489211
30
0
41
1
10
7.0964829935875
20
0.18486135652256
30
0
41
1
10
7.13001183164741
20
0.165256084129339
30
0
41
1
10
7.23048073066951
20
0.106419341140793
30
0
41
1
10
7.29730259245281
20
0.0671667578904191
30
0
41
1
10
7.49744653722445
20
-0.0504265627145912
30
0
41
1
10
7.63047232223167
20
-0.128577297078721
30
0
41
1
10
7.89622310662344
20
-0.28345539298607
30
0
41
1
10
8.0289425469318
20
-0.360194054750451
30
0
41
1
10
8.29476926430436
20
-0.511094559090111
30
0
41
1
10
8.42789907138047
20
-0.585246626382997
30
0
41
1
10
8.62837600633119
20
-0.693687951987187
30
0
41
1
10
8.6953297408316
20
-0.729375206025338
30
0
41
1
10
8.79601787432006
20
-0.782105050274708
30
0
41
1
10
8.82964938824989
20
-0.799561365190584
30
0
41
1
10
8.89688641044125
20
-0.834124453971214
30
0
41
1
10
8.93045747072918
20
-0.85121096382008
30
0
41
1
10
9.09810563455028
20
-0.93565950682455
30
0
41
1
10
9.23160495978107
20
-1.00007760734698
30
0
41
1
10
9.49790660896002
20
-1.12167974154741
30
0
41
1
10
9.63069869759815
20
-1.17888390746836
30
0
41
1
10
9.89627159165883
20
-1.28535480224403
30
0
41
1
10
10.0290877377549
20
-1.33469629533346
30
0
41
1
10
10.2531426659397
20
-1.41033408209736
30
0
41
1
10
10.3442097023548
20
-1.43898312365525
30
0
41
1
10
10.4355305602107
20
-1.46546874876628
30
0
0
SPLINE
5
F9
100
AcDbEntity
8
1
62
256
6
ByLayer
370
18
48
1
60
0
100
AcDbSpline
70
4
71
3
72
20
73
16
40
0
40
0
40
0
40
0
40
0.08635271025178
40
0.08635271025178
40
0.154454056533323
40
0.154454056533323
40
0.222555402814868
40
0.222555402814868
40
0.358758095377946
40
0.358758095377946
40
0.631163480504112
40
0.631163480504112
40
0.90356886563028
40
0.90356886563028
40
1
40
1
40
1
40
1
41
1
10
10.435530476048
20
-1.46546872435675
30
0
41
1
10
10.4779152530886
20
-1.47776150609053
30
0
41
1
10
10.5203547075585
20
-1.48958825129205
30
0
41
1
10
10.5963817572342
20
-1.50988757871215
30
0
41
1
10
10.6299451129637
20
-1.5185437935593
30
0
41
1
10
10.6971662508888
20
-1.5352648309285
30
0
41
1
10
10.7308050951007
20
-1.54332351501867
30
0
41
1
10
10.8315110184918
20
-1.56649059257944
30
0
41
1
10
10.8984772289145
20
-1.58061649855884
30
0
41
1
10
11.0989492871179
20
-1.61898152666291
30
0
41
1
10
11.2320300554118
20
-1.63919637214198
30
0
41
1
10
11.4977875088925
20
-1.66891154097405
30
0
41
1
10
11.630515575354
20
-1.67855998414572
30
0
41
1
10
11.8103700381232
20
-1.68418438274827
30
0
41
1
10
11.8574045231452
20
-1.68496425826902
30
0
41
1
10
11.9044671053878
20
-1.68505368980547
30
0
0
SPLINE
5
FA
100
AcDbEntity
8
1
62
256
6
ByLayer
370
13
48
1
60
0
100
AcDbSpline
70
4
71
3
72
43
73
39
40
0
40
0
40
0
40
0
40
0.0586574423927416
40
0.0586574423927416
40
0.117491352243192
40
0.117491352243192
40
0.176325262093643
40
0.176325262093643
40
0.235159171944094
40
0.235159171944094
40
0.264576126869319
40
0.264576126869319
40
0.293993081794545
40
0.293993081794545
40
0.411660901495446
40
0.411660901495446
40
0.470494811345897
40
0.470494811345897
40
0.499911766271122
40
0.514620243733735
40
0.514620243733735
40
0.529328721196348
40
0.529328721196348
40
0.646996540897252
40
0.646996540897252
40
0.705830450747706
40
0.705830450747706
40
0.76466436059816
40
0.76466436059816
40
0.794081315523387
40
0.794081315523387
40
0.808789792986001
40
0.808789792986001
40
0.823498270448615
40
0.823498270448615
40
0.882332180299078
40
0.882332180299078
40
1
40
1
40
1
40
1
41
1
10
22.5704003333124
20
1.41593613755987
30
0
41
1
10
22.7038430759935
20
1.37284300222231
30
0
41
1
10
22.8366137323924
20
1.32530116547099
30
0
41
1
10
23.1019548888669
20
1.22221588167469
30
0
41
1
10
23.2346059136607
20
1.1666976034308
30
0
41
1
10
23.4998433138163
20
1.04830143946873
30
0
41
1
10
23.6324355564373
20
0.985466289254248
30
0
41
1
10
23.8983358006088
20
0.853585172814547
30
0
41
1
10
24.0317427204527
20
0.784677244444879
30
0
41
1
10
24.2328806973919
20
0.677245941488081
30
0
41
1
10
24.3001749602821
20
0.640715758249115
30
0
41
1
10
24.4341669431872
20
0.566945987608193
30
0
41
1
10
24.5009794714296
20
0.529644754459298
30
0
41
1
10
24.8343328446985
20
0.341416267536573
30
0
41
1
10
25.0987655206521
20
0.185357638538477
30
0
41
1
10
25.4961068729358
20
-0.0499610235044941
30
0
41
1
10
25.6286830294361
20
-0.128582050473511
30
0
41
1
10
25.8283052317331
20
-0.245816467520427
30
0
41
1
10
25.9282993033851
20
-0.304270591009157
30
0
41
1
10
26.0286477795227
20
-0.362343239001262
30
0
41
1
10
26.0956352101609
20
-0.400956813182717
30
0
41
1
10
26.1291980329962
20
-0.42022649737703
30
0
41
1
10
26.4311992782257
20
-0.592806049461529
30
0
41
1
10
26.6966366321813
20
-0.738558103010064
30
0
41
1
10
27.0940242355477
20
-0.940238211822447
30
0
41
1
10
27.2263841876239
20
-1.00462317015828
30
0
41
1
10
27.4916094746193
20
-1.12668767230869
30
0
41
1
10
27.624452777144
20
-1.18438838597311
30
0
41
1
10
27.824487217814
20
-1.26530075508208
30
0
41
1
10
27.8912975653799
20
-1.29132766377089
30
0
41
1
10
27.9917800563861
20
-1.32885359943091
30
0
41
1
10
28.0253495435688
20
-1.34112078601225
30
0
41
1
10
28.0924344654925
20
-1.36507844166854
30
0
41
1
10
28.1259238313977
20
-1.37676039716584
30
0
41
1
10
28.2931380856851
20
-1.43367095253768
30
0
41
1
10
28.4261759516791
20
-1.47440188306314
30
0
41
1
10
28.8241486695105
20
-1.5816749591844
30
0
41
1
10
29.0878587555366
20
-1.63322112265851
30
0
41
1
10
29.3520408538456
20
-1.66364954431376
30
0
0
SPLINE
5
FB
100
AcDbEntity
8
1
62
256
6
ByLayer
370
18
48
1
60
0
100
AcDbSpline
70
4
71
3
72
67
73
63
40
0
40
0
40
0
40
0
40
0.023250406651288
40
0.023250406651288
40
0.046500813302576
40
0.046500813302576
40
0.069751219953864
40
0.069751219953864
40
0.081376423279508
40
0.081376423279508
40
0.093001626605152
40
0.093001626605152
40
0.18600325321029
40
0.18600325321029
40
0.232504066512859
40
0.232504066512859
40
0.279004879815428
40
0.279004879815428
40
0.302255286466713
40
0.302255286466713
40
0.325505693117998
40
0.325505693117998
40
0.372006506420567
40
0.372006506420567
40
0.418507319723136
40
0.418507319723136
40
0.465008133025705
40
0.465008133025705
40
0.48825853967699
40
0.48825853967699
40
0.499883743002631
40
0.499883743002631
40
0.511508946328272
40
0.511508946328272
40
0.558009759630838
40
0.558009759630838
40
0.604510572933404
40
0.604510572933404
40
0.651011386235969
40
0.651011386235969
40
0.697512199538535
40
0.697512199538535
40
0.709137402864176
40
0.709137402864176
40
0.720762606189818
40
0.720762606189818
40
0.744013012841099
40
0.744013012841099
40
0.790513826143661
40
0.790513826143661
40
0.837014639446223
40
0.837014639446223
40
0.883515452748786
40
0.883515452748786
40
0.930016266051348
40
0.930016266051348
40
0.941641469376989
40
0.941641469376989
40
0.953266672702629
40
0.97651707935391
40
0.97651707935391
40
1
40
1
40
1
40
1
41
1
10
29.3305425289282
20
-1.76829795899749
30
0
41
1
10
29.2633788767961
20
-1.7625181821345
30
0
41
1
10
29.1962957472044
20
-1.75526932198673
30
0
41
1
10
29.0621022845422
20
-1.73791023604591
30
0
41
1
10
28.9950079275194
20
-1.72779658123997
30
0
41
1
10
28.8607378550442
20
-1.70475079404349
30
0
41
1
10
28.7935604324645
20
-1.69181980213298
30
0
41
1
10
28.6926824536253
20
-1.67033506302417
30
0
41
1
10
28.6590159787862
20
-1.6628199127035
30
0
41
1
10
28.5918052824724
20
-1.64713628908936
30
0
41
1
10
28.558249026327
20
-1.63896572342307
30
0
41
1
10
28.2566437461587
20
-1.56252091418059
30
0
41
1
10
27.9914726538178
20
-1.47381627160578
30
0
41
1
10
27.5934377652255
20
-1.31446599057193
30
0
41
1
10
27.4606915506656
20
-1.25699765822307
30
0
41
1
10
27.1944651983513
20
-1.13397839792904
30
0
41
1
10
27.0610212167821
20
-1.06837805140609
30
0
41
1
10
26.8597552299855
20
-0.96444052685959
30
0
41
1
10
26.792383815913
20
-0.928825710926077
30
0
41
1
10
26.658211892538
20
-0.856483281331805
30
0
41
1
10
26.5913001961494
20
-0.819694822085694
30
0
41
1
10
26.3909802402831
20
-0.707654749002245
30
0
41
1
10
26.2580022364207
20
-0.630705460030782
30
0
41
1
10
25.9924604962028
20
-0.473442766767732
30
0
41
1
10
25.8598667667596
20
-0.393176654855438
30
0
41
1
10
25.5943847739402
20
-0.230405489924124
30
0
41
1
10
25.4615356672169
20
-0.147836083209142
30
0
41
1
10
25.261496502212
20
-0.0231556673394095
30
0
41
1
10
25.1946840705879
20
0.0185336266398508
30
0
41
1
10
25.0941798152933
20
0.0811221660651427
30
0
41
1
10
25.0606312602891
20
0.101994876254935
30
0
41
1
10
24.9934282438513
20
0.143741493163873
30
0
41
1
10
24.9597610378517
20
0.164623186774122
30
0
41
1
10
24.7918225416446
20
0.268559741759304
30
0
41
1
10
24.6582055248368
20
0.350530607311697
30
0
41
1
10
24.3916935392037
20
0.511031083178693
30
0
41
1
10
24.258782600183
20
0.589537507131098
30
0
41
1
10
23.9931112873233
20
0.742276991446715
30
0
41
1
10
23.8603739060634
20
0.816544100639987
30
0
41
1
10
23.5944979698056
20
0.959928557968624
30
0
41
1
10
23.461259983759
20
1.02890043966374
30
0
41
1
10
23.2938174713322
20
1.11094252103479
30
0
41
1
10
23.2602855221739
20
1.12714412035012
30
0
41
1
10
23.1931239460454
20
1.15911729023375
30
0
41
1
10
23.1594674088716
20
1.17490071337682
30
0
41
1
10
23.0585284252663
20
1.22150292858072
30
0
41
1
10
22.9914521704266
20
1.25150544659854
30
0
41
1
10
22.7907473554331
20
1.3382137834848
30
0
41
1
10
22.6575675982415
20
1.39153004554049
30
0
41
1
10
22.3916573804688
20
1.48857087430778
30
0
41
1
10
22.2589373462963
20
1.53231514696083
30
0
41
1
10
21.9934843710313
20
1.60984922366748
30
0
41
1
10
21.8606734672045
20
1.64356902398802
30
0
41
1
10
21.5940946343475
20
1.70029231598087
30
0
41
1
10
21.4603269098744
20
1.72330652531818
30
0
41
1
10
21.2921965345127
20
1.74504519703595
30
0
41
1
10
21.258529219296
20
1.74903797224229
30
0
41
1
10
21.1913577040597
20
1.75627884445319
30
0
41
1
10
21.0907397110264
20
1.76603690127757
30
0
41
1
10
20.9904851452296
20
1.77250174947903
30
0
41
1
10
20.8563765262047
20
1.77825093865391
30
0
41
1
10
20.7891024284591
20
1.7796631739875
30
0
41
1
10
20.7219117998948
20
1.77960777932509
30
0
0
SPLINE
5
FC
100
AcDbEntity
8
1
62
256
6
ByLayer
370
18
48
1
60
0
100
AcDbSpline
70
4
71
3
72
76
73
72
40
0
40
0
40
0
40
0
40
0.021971543131957
40
0.021971543131957
40
0.0447163909660981
40
0.0447163909660981
40
0.0560888148831679
40
0.0560888148831679
40
0.0674612388002376
40
0.0902060866343772
40
0.0902060866343772
40
0.112950934468517
40
0.112950934468517
40
0.135695782302656
40
0.135695782302656
40
0.181185477970935
40
0.181185477970935
40
0.203930325805075
40
0.203930325805075
40
0.226675173639215
40
0.226675173639215
40
0.249420021473356
40
0.249420021473356
40
0.272164869307496
40
0.272164869307496
40
0.294909717141637
40
0.294909717141637
40
0.317654564975777
40
0.317654564975777
40
0.363144260644056
40
0.363144260644056
40
0.385889108478196
40
0.385889108478196
40
0.408633956312337
40
0.408633956312337
40
0.454123651980616
40
0.454123651980616
40
0.465496075897686
40
0.465496075897686
40
0.476868499814756
40
0.476868499814756
40
0.499613347648897
40
0.499613347648897
40
0.545103043317181
40
0.545103043317181
40
0.567847891151322
40
0.567847891151322
40
0.590592738985463
40
0.590592738985463
40
0.636082434653747
40
0.636082434653747
40
0.681572130322031
40
0.681572130322031
40
0.704316978156173
40
0.704316978156173
40
0.727061825990315
40
0.727061825990315
40
0.772551521658597
40
0.772551521658597
40
0.818041217326879
40
0.818041217326879
40
0.863530912995162
40
0.863530912995162
40
0.886275760829303
40
0.886275760829303
40
0.897648184746373
40
0.897648184746373
40
0.909020608663442
40
0.954510304331721
40
0.954510304331721
40
1
40
1
40
1
40
1
41
1
10
12.5137314372396
20
-1.7072879839003
30
0
41
1
10
12.4493111546884
20
-1.71811490285629
30
0
41
1
10
12.3847813106821
20
-1.72766013358091
30
0
41
1
10
12.2531998161796
20
-1.7444395268665
30
0
41
1
10
12.1861556458911
20
-1.75158432609902
30
0
41
1
10
12.0853111556424
20
-1.76014413222347
30
0
41
1
10
12.051612911975
20
-1.76263929426983
30
0
41
1
10
11.9843179234414
20
-1.76688683159802
30
0
41
1
10
11.8835148170336
20
-1.77214872750417
30
0
41
1
10
11.7830822045174
20
-1.77411022676844
30
0
41
1
10
11.6494159439178
20
-1.77383505318335
30
0
41
1
10
11.5826990225966
20
-1.77225320755321
30
0
41
1
10
11.4494662336208
20
-1.76623060219353
30
0
41
1
10
11.3829656486535
20
-1.761786011857
30
0
41
1
10
11.1836091026366
20
-1.74419334007317
30
0
41
1
10
11.0508266159617
20
-1.72680733021335
30
0
41
1
10
10.8513096359106
20
-1.69246225666941
30
0
41
1
10
10.784743764567
20
-1.67963849818727
30
0
41
1
10
10.6514607475011
20
-1.65123788159548
30
0
41
1
10
10.5847578872811
20
-1.63565085611629
30
0
41
1
10
10.4510890097692
20
-1.60175006653267
30
0
41
1
10
10.3841106511775
20
-1.5834454127311
30
0
41
1
10
10.2497593491837
20
-1.5441729932258
30
0
41
1
10
10.1822648872447
20
-1.52315881620115
30
0
41
1
10
10.0477883344607
20
-1.47882929964169
30
0
41
1
10
9.98072518795922
20
-1.45550198519194
30
0
41
1
10
9.84691724055205
20
-1.40658073034669
30
0
41
1
10
9.78018509487495
20
-1.38097258767925
30
0
41
1
10
9.58027961315597
20
-1.30095821084271
30
0
41
1
10
9.44734881873765
20
-1.24341823058776
30
0
41
1
10
9.24794586809261
20
-1.15148712315923
30
0
41
1
10
9.18147386687539
20
-1.11991104985319
30
0
41
1
10
9.04849576174655
20
-1.0549223374241
30
0
41
1
10
8.98200083300975
20
-1.02149357681785
30
0
41
1
10
8.78226892194135
20
-0.918686681987111
30
0
41
1
10
8.64874551800602
20
-0.846846458842634
30
0
41
1
10
8.4809462211862
20
-0.75346394034716
30
0
41
1
10
8.44734116978651
20
-0.734608944550473
30
0
41
1
10
8.3800347931753
20
-0.696547271675712
30
0
41
1
10
8.34630022926666
20
-0.677320504098759
30
0
41
1
10
8.24529806169238
20
-0.619313379337768
30
0
41
1
10
8.17819247613033
20
-0.580166586781701
30
0
41
1
10
7.97732378512666
20
-0.461689422258161
30
0
41
1
10
7.84397702222572
20
-0.381373987765102
30
0
41
1
10
7.64428618149111
20
-0.259761514893711
30
0
41
1
10
7.57777477155202
20
-0.219038549481269
30
0
41
1
10
7.44482855413668
20
-0.137267618245261
30
0
41
1
10
7.37840136193708
20
-0.096207036391263
30
0
41
1
10
7.17905268603005
20
0.0271649319219591
30
0
41
1
10
7.0460430294732
20
0.109631598948823
30
0
41
1
10
6.77907563705637
20
0.273808827213287
30
0
41
1
10
6.64511906549188
20
0.355521253142683
30
0
41
1
10
6.44292586347743
20
0.47662543553642
30
0
41
1
10
6.37564993723248
20
0.516549813451007
30
0
41
1
10
6.2415083537681
20
0.595234301326002
30
0
41
1
10
6.17460089777924
20
0.634019428302679
30
0
41
1
10
5.97423664537234
20
0.748525590507796
30
0
41
1
10
5.84114172017684
20
0.82240203422981
30
0
41
1
10
5.57513331362557
20
0.96416359045412
30
0
41
1
10
5.44221608704149
20
1.0320458841876
30
0
41
1
10
5.17590522698458
20
1.16092664653362
30
0
41
1
10
5.04251885912322
20
1.2219379048189
30
0
41
1
10
4.84170379750748
20
1.30771295318229
30
0
41
1
10
4.77462436608036
20
1.33532439618563
30
0
41
1
10
4.67369835280479
20
1.37514431929537
30
0
41
1
10
4.63998030922985
20
1.38816178244514
30
0
41
1
10
4.57260688156077
20
1.41358306155979
30
0
41
1
10
4.40428729369415
20
1.47562195670073
30
0
41
1
10
4.23637894183452
20
1.5299769529276
30
0
41
1
10
3.96752065653254
20
1.60658598724984
30
0
41
1
10
3.83298371587898
20
1.63971167844556
30
0
41
1
10
3.69804267781598
20
1.66741365858272
30
0
0
SPLINE
5
FD
100
AcDbEntity
8
1
62
256
6
ByLayer
370
18
48
1
60
0
100
AcDbSpline
70
4
71
3
72
54
73
50
40
0
40
0
40
0
40
0
40
0.0273832216889467
40
0.0273832216889467
40
0.0642311918438002
40
0.0642311918438002
40
0.082655176921227
40
0.082655176921227
40
0.101079161998654
40
0.101079161998654
40
0.102230661065993
40
0.102806410599662
40
0.102806410599662
40
0.103382160133332
40
0.103382160133332
40
0.104533659200671
40
0.104533659200671
40
0.10568515826801
40
0.10568515826801
40
0.110291154537366
40
0.110291154537366
40
0.119503147076079
40
0.119503147076079
40
0.137927132153504
40
0.137927132153504
40
0.174775102308355
40
0.174775102308355
40
0.248471042618056
40
0.248471042618056
40
0.395862923237457
40
0.395862923237457
40
0.469558863547158
40
0.469558863547158
40
0.487982848624584
40
0.487982848624584
40
0.49258884489394
40
0.49258884489394
40
0.494891843028618
40
0.494891843028618
40
0.495467592562288
40
0.495467592562288
40
0.496043342095957
40
0.496043342095957
40
0.497194841163296
40
0.50640683370201
40
0.543254803856864
40
0.838038565095691
40
0.838038565095691
40
1
40
1
40
1
40
1
41
1
10
4.49932782379699
20
1.21466640732285
30
0
41
1
10
4.49963390096082
20
1.18735572312252
30
0
41
1
10
4.49384777557225
20
1.1592360289672
30
0
41
1
10
4.47142541415866
20
1.08912051184581
30
0
41
1
10
4.45311149803695
20
1.0451334641786
30
0
41
1
10
4.41639604544031
20
0.973805839767778
30
0
41
1
10
4.40308615872647
20
0.948885726637485
30
0
41
1
10
4.37229176262511
20
0.897713583154854
30
0
41
1
10
4.35452737355638
20
0.87157416270432
30
0
41
1
10
4.33392888913889
20
0.843333486558549
30
0
41
1
10
4.33210160500161
20
0.840838698892213
30
0
41
1
10
4.33025998148784
20
0.838339412582457
30
0
41
1
10
4.32902907570525
20
0.836672209129745
30
0
41
1
10
4.32825301221814
20
0.835829999689253
30
0
41
1
10
4.32898797284216
20
0.832425448428125
30
0
41
1
10
4.33129211625464
20
0.83029384993398
30
0
41
1
10
4.33525628061705
20
0.826317842496195
30
0
41
1
10
4.33737020014482
20
0.824405742054694
30
0
41
1
10
4.34807392517112
20
0.815012095446349
30
0
41
1
10
4.35712983604043
20
0.807880854802306
30
0
41
1
10
4.38433856390142
20
0.786579529806488
30
0
41
1
10
4.40279568755386
20
0.772687091350662
30
0
41
1
10
4.45836637444688
20
0.731197093978381
30
0
41
1
10
4.49576059031088
20
0.703870912213603
30
0
41
1
10
4.60818798231585
20
0.6221659529551
30
0
41
1
10
4.6835747066645
20
0.568134729894837
30
0
41
1
10
4.90982715182631
20
0.405991702360268
30
0
41
1
10
5.06076133518798
20
0.297794943775699
30
0
41
1
10
5.51305260747904
20
-0.0279716682358639
30
0
41
1
10
5.81404899439596
20
-0.246661789097487
30
0
41
1
10
6.26621665629531
20
-0.574927100294673
30
0
41
1
10
6.4175272816893
20
-0.683729218122778
30
0
41
1
10
6.60410706154113
20
-0.823503648839136
30
0
41
1
10
6.64140180624756
20
-0.851521830813226
30
0
41
1
10
6.6868675454437
20
-0.888094765950029
30
0
41
1
10
6.69592237044472
20
-0.895466623819686
30
0
41
1
10
6.70901044118216
20
-0.907110437135799
30
0
41
1
10
6.71369796360582
20
-0.910813780576802
30
0
41
1
10
6.71772943975679
20
-0.916879331057231
30
0
41
1
10
6.71814216116849
20
-0.918706406882109
30
0
41
1
10
6.71559625873627
20
-0.919483527680711
30
0
41
1
10
6.71415650795967
20
-0.919272768398599
30
0
41
1
10
6.71001051793451
20
-0.919015805427932
30
0
41
1
10
6.6851353141623
20
-0.917471606367201
30
0
41
1
10
6.57184534585221
20
-0.910337635248283
30
0
41
1
10
5.75492563000759
20
-0.855645701176712
30
0
41
1
10
4.96710111790159
20
-0.779792578733975
30
0
41
1
10
3.8921106272507
20
-0.646140210739702
30
0
41
1
10
3.51276058857877
20
-0.593071867885641
30
0
41
1
10
3.13510127400099
20
-0.534357213149946
30
0
0
SPLINE
5
FE
100
AcDbEntity
8
1
62
256
6
ByLayer
370
18
48
1
60
0
100
AcDbSpline
70
4
71
3
72
89
73
85
40
0
40
0
40
0
40
0
40
0.0624999999999788
40
0.0624999999999788
40
0.124999999999958
40
0.124999999999958
40
0.156249999999947
40
0.156249999999947
40
0.171874999999943
40
0.171874999999943
40
0.187499999999939
40
0.187499999999939
40
0.218749999999929
40
0.218749999999929
40
0.249999999999919
40
0.249999999999919
40
0.281249999999908
40
0.281249999999908
40
0.312499999999898
40
0.312499999999898
40
0.328124999999893
40
0.328124999999893
40
0.343749999999887
40
0.343749999999887
40
0.374999999999877
40
0.374999999999877
40
0.382812499999875
40
0.382812499999875
40
0.390624999999872
40
0.406249999999866
40
0.406249999999866
40
0.42187499999986
40
0.42187499999986
40
0.437499999999854
40
0.437499999999854
40
0.468749999999842
40
0.468749999999842
40
0.484374999999836
40
0.484374999999836
40
0.49999999999983
40
0.49999999999983
40
0.531249999999815
40
0.531249999999815
40
0.5624999999998
40
0.5624999999998
40
0.593749999999786
40
0.593749999999786
40
0.624999999999771
40
0.624999999999771
40
0.656249999999756
40
0.656249999999756
40
0.671874999999749
40
0.671874999999749
40
0.679687499999743
40
0.68359374999974
40
0.68359374999974
40
0.685546874999737
40
0.685546874999737
40
0.687499999999734
40
0.687499999999734
40
0.691406249999732
40
0.691406249999732
40
0.693359374999732
40
0.693359374999732
40
0.695312499999733
40
0.695312499999733
40
0.699218749999735
40
0.699218749999735
40
0.703124999999736
40
0.703124999999736
40
0.707031249999738
40
0.707031249999738
40
0.71093749999974
40
0.71093749999974
40
0.718749999999747
40
0.749999999999775
40
0.749999999999775
40
0.812499999999831
40
0.812499999999831
40
0.874999999999887
40
0.874999999999887
40
0.937499999999944
40
0.937499999999944
40
1
40
1
40
1
40
1
41
1
10
3.1351037157819
20
-0.534352381277245
30
0
41
1
10
3.04454901194134
20
-0.481506448170222
30
0
41
1
10
2.95564399399103
20
-0.426109537925157
30
0
41
1
10
2.78190233958489
20
-0.30900324734543
30
0
41
1
10
2.69705066629587
20
-0.247317228745175
30
0
41
1
10
2.57381968120484
20
-0.148495324759409
30
0
41
1
10
2.53342255742354
20
-0.114497403439742
30
0
41
1
10
2.47405801363422
20
-0.0615846984594555
30
0
41
1
10
2.45447579129049
20
-0.0436266321915468
30
0
41
1
10
2.41577075731567
20
-0.0069954631261453
30
0
41
1
10
2.39666632300987
20
0.0116634511417999
30
0
41
1
10
2.34062225221933
20
0.0683258511905933
30
0
41
1
10
2.30478523469827
20
0.107156893345518
30
0
41
1
10
2.23680577045522
20
0.187376646077382
30
0
41
1
10
2.20465626707139
20
0.228760442231788
30
0
41
1
10
2.14503347640945
20
0.314766722886986
30
0
41
1
10
2.11754343355901
20
0.359377533668521
30
0
41
1
10
2.06889208050376
20
0.452985974905175
30
0
41
1
10
2.04849599213671
20
0.500565702462012
30
0
41
1
10
2.02504526624926
20
0.573347728606649
30
0
41
1
10
2.01842396382577
20
0.597845350108457
30
0
41
1
10
2.00786741040528
20
0.64737576370004
30
0
41
1
10
2.00402092021318
20
0.67203383889111
30
0
41
1
10
1.99692757825955
20
0.745178475918607
30
0
41
1
10
1.99806795304977
20
0.793055616079357
30
0
41
1
10
2.00712903642756
20
0.851776684222784
30
0
41
1
10
2.00932610125284
20
0.863456658939128
30
0
41
1
10
2.0144115152205
20
0.886388569957376
30
0
41
1
10
2.0230939145344
20
0.920267669185108
30
0
41
1
10
2.03479575834587
20
0.952665153444286
30
0
41
1
10
2.05287222352871
20
0.99465473357327
30
0
41
1
10
2.06316036125705
20
1.01506748761921
30
0
41
1
10
2.08598893719685
20
1.05468623551954
30
0
41
1
10
2.09837652570678
20
1.07363825437435
30
0
41
1
10
2.13805760551497
20
1.12828714130259
30
0
41
1
10
2.16785014658885
20
1.16179430809831
30
0
41
1
10
2.21645393509195
20
1.20866079273233
30
0
41
1
10
2.23331338092888
20
1.22371208669492
30
0
41
1
10
2.26821938271905
20
1.25279064524921
30
0
41
1
10
2.28622485733712
20
1.26677871267765
30
0
41
1
10
2.34124629664217
20
1.30695300274004
30
0
41
1
10
2.37944121191407
20
1.33151710778577
30
0
41
1
10
2.4582067796801
20
1.3772045734932
30
0
41
1
10
2.49878181348956
20
1.39832122064331
30
0
41
1
10
2.58188689864292
20
1.43775635088335
30
0
41
1
10
2.62441910217163
20
1.45607153799909
30
0
41
1
10
2.71114174527139
20
1.49035686162679
30
0
41
1
10
2.75536871929592
20
1.50633392599101
30
0
41
1
10
2.84478924296093
20
1.53613161649926
30
0
41
1
10
2.89003935682746
20
1.54997545788601
30
0
41
1
10
2.95861563815632
20
1.56938912671805
30
0
41
1
10
2.98159115662577
20
1.57563404906517
30
0
41
1
10
3.01619718967015
20
1.58468021364513
30
0
41
1
10
3.03353733346211
20
1.58912334859849
30
0
41
1
10
3.0509314227026
20
1.5934507359753
30
0
41
1
10
3.05963732132875
20
1.59559546552171
30
0
41
1
10
3.06252869144169
20
1.59631742414518
30
0
41
1
10
3.06843551354945
20
1.59765739132393
30
0
41
1
10
3.07145622188668
20
1.59826995457135
30
0
41
1
10
3.0806868611856
20
1.59988909613259
30
0
41
1
10
3.08711603512097
20
1.60071809968409
30
0
41
1
10
3.09683800516075
20
1.60157230800189
30
0
41
1
10
3.10009989611876
20
1.60176498335451
30
0
41
1
10
3.10664881080913
20
1.60204182671418
30
0
41
1
10
3.10992974299378
20
1.60215223222124
30
0
41
1
10
3.11981389418273
20
1.60230515651793
30
0
41
1
10
3.1264859623426
20
1.60220794211145
30
0
41
1
10
3.13960687149895
20
1.60167886434425
30
0
41
1
10
3.14608466690089
20
1.60124775296418
30
0
41
1
10
3.15887066399915
20
1.60003999190124
30
0
41
1
10
3.16518664754449
20
1.59927892014298
30
0
41
1
10
3.17771151200162
20
1.59753249005709
30
0
41
1
10
3.18392098964665
20
1.59655268749165
30
0
41
1
10
3.20256944391238
20
1.59366429288113
30
0
41
1
10
3.26465248081806
20
1.58386632821564
30
0
41
1
10
3.3263434011655
20
1.57319815568255
30
0
41
1
10
3.47356231517742
20
1.5457982016969
30
0
41
1
10
3.57050387530859
20
1.5251393717854
30
0
41
1
10
3.76220598038648
20
1.47835544549423
30
0
41
1
10
3.85703808319357
20
1.45219037420867
30
0
41
1
10
4.04411105562698
20
1.39422155405009
30
0
41
1
10
4.1364392241681
20
1.36239785355687
30
0
41
1
10
4.31917415356318
20
1.29288499860485
30
0
41
1
10
4.40959601552092
20
1.25521179822826
30
0
41
1
10
4.49937466820197
20
1.21466418813125
30
0
0
SPLINE
5
FF
100
AcDbEntity
8
SK1
62
256
6
ByLayer
370
18
48
1
60
0
100
AcDbSpline
70
4
71
3
72
8
73
4
40
0
40
0
40
0
40
0
40
1
40
1
40
1
40
1
41
1
10
-35.75
20
0.954927180244738
30
0
41
1
10
-35.8336548712452
20
0.946516235467897
30
0
41
1
10
-35.9170296895496
20
0.938080873985683
30
0
41
1
10
-36
20
0.929610245067749
30
0
0
SPLINE
5
100
100
AcDbEntity
8
SK1
62
256
6
ByLayer
370
18
48
1
60
0
100
AcDbSpline
70
4
71
3
72
22
73
18
40
0
40
0
40
0
40
0
40
0.0624999999999997
40
0.0624999999999997
40
0.124999999999999
40
0.124999999999999
40
0.25
40
0.25
40
0.375000000000001
40
0.375000000000001
40
0.500000000000002
40
0.500000000000002
40
0.625000000000002
40
0.625000000000002
40
0.750000000000003
40
0.750000000000003
40
1
40
1
40
1
40
1
41
1
10
-35.65
20
0.86829217892253
30
0
41
1
10
-35.65
20
0.872392789400038
30
0
41
1
10
-35.6502718586019
20
0.876427231775324
30
0
41
1
10
-35.6512913504498
20
0.884175804924979
30
0
41
1
10
-35.652030658643
20
0.887865425790721
30
0
41
1
10
-35.6548298230237
20
0.898466042997569
30
0
41
1
10
-35.6575061245997
20
0.904970861005467
30
0
41
1
10
-35.6638376796887
20
0.916505915650333
30
0
41
1
10
-35.6674983282837
20
0.92159818263309
30
0
41
1
10
-35.675615181852
20
0.930704669890503
30
0
41
1
10
-35.6800682064547
20
0.934692295059989
30
0
41
1
10
-35.6893906957631
20
0.941511799393027
30
0
41
1
10
-35.6942952881823
20
0.94438151010408
30
0
41
1
10
-35.7045485857551
20
0.949152231177465
30
0
41
1
10
-35.7099306774386
20
0.951059596043393
30
0
41
1
10
-35.7265024515807
20
0.955276817498969
30
0
41
1
10
-35.7380004903212
20
0.956133651688248
30
0
41
1
10
-35.7500000000001
20
0.954927180244852
30
0
0
SPLINE
5
101
100
AcDbEntity
8
SK1
62
256
6
ByLayer
370
18
48
1
60
0
100
AcDbSpline
70
4
71
3
72
22
73
18
40
0
40
0
40
0
40
0
40
0.249999999999996
40
0.249999999999996
40
0.374999999999997
40
0.374999999999997
40
0.499999999999997
40
0.499999999999997
40
0.624999999999998
40
0.624999999999998
40
0.749999999999998
40
0.749999999999998
40
0.874999999999997
40
0.874999999999997
40
0.937499999999999
40
0.937499999999999
40
1
40
1
40
1
40
1
41
1
10
-35.75
20
-0.538271441878749
30
0
41
1
10
-35.7379956523281
20
-0.53706448400709
30
0
41
1
10
-35.7264866986603
20
-0.533758399527358
30
0
41
1
10
-35.7098921057742
20
-0.525812950450472
30
0
41
1
10
-35.7045257065493
20
-0.522672456852376
30
0
41
1
10
-35.6942964893127
20
-0.515489768815939
30
0
41
1
10
-35.6894060316865
20
-0.511435880885074
30
0
41
1
10
-35.6801144608566
20
-0.502302150073405
30
0
41
1
10
-35.6756964104891
20
-0.497204277263563
30
0
41
1
10
-35.6675285377629
20
-0.485820090031609
30
0
41
1
10
-35.6638529491705
20
-0.479646802702859
30
0
41
1
10
-35.6575076548177
20
-0.466107449380957
30
0
41
1
10
-35.6548318331324
20
-0.458677405285698
30
0
41
1
10
-35.6520304488211
20
-0.446891427248289
30
0
41
1
10
-35.65129058319
20
-0.442838934325721
30
0
41
1
10
-35.650270741394
20
-0.434440664958487
30
0
41
1
10
-35.65
20
-0.430132483745581
30
0
41
1
10
-35.65
20
-0.425813293584412
30
0
0
SPLINE
5
102
100
AcDbEntity
8
SK1
62
256
6
ByLayer
370
18
48
1
60
0
100
AcDbSpline
70
4
71
3
72
8
73
4
40
0
40
0
40
0
40
0
40
1
40
1
40
1
40
1
41
1
10
-36
20
-0.563588377055623
30
0
41
1
10
-35.9170409070112
20
-0.555118893354006
30
0
41
1
10
-35.8336648913447
20
-0.546683394110289
30
0
41
1
10
-35.7499999999999
20
-0.538271441878635
30
0
0
SPLINE
5
103
100
AcDbEntity
8
SK1
62
256
6
ByLayer
370
18
48
1
60
0
100
AcDbSpline
70
4
71
3
72
22
73
18
40
0
40
0
40
0
40
0
40
0.250000000000004
40
0.250000000000004
40
0.375000000000004
40
0.375000000000004
40
0.500000000000004
40
0.500000000000004
40
0.625000000000004
40
0.625000000000004
40
0.750000000000003
40
0.750000000000003
40
0.875000000000003
40
0.875000000000003
40
0.937500000000001
40
0.937500000000001
40
1
40
1
40
1
40
1
41
1
10
-35.75
20
0.538271441878749
30
0
41
1
10
-35.7379956523281
20
0.53706448400709
30
0
41
1
10
-35.7264866986603
20
0.533758399527358
30
0
41
1
10
-35.7098921057742
20
0.525812950450472
30
0
41
1
10
-35.7045257065493
20
0.522672456852376
30
0
41
1
10
-35.6942964893127
20
0.515489768815939
30
0
41
1
10
-35.6894060316865
20
0.511435880885074
30
0
41
1
10
-35.6801144608566
20
0.502302150073433
30
0
41
1
10
-35.6756964104891
20
0.497204277263563
30
0
41
1
10
-35.6675285377629
20
0.485820090031638
30
0
41
1
10
-35.6638529491705
20
0.479646802702859
30
0
41
1
10
-35.6575076548177
20
0.466107449380957
30
0
41
1
10
-35.6548318331324
20
0.458677405285698
30
0
41
1
10
-35.6520304488211
20
0.446891427248289
30
0
41
1
10
-35.65129058319
20
0.442838934325721
30
0
41
1
10
-35.650270741394
20
0.434440664958487
30
0
41
1
10
-35.65
20
0.430132483745609
30
0
41
1
10
-35.65
20
0.425813293584412
30
0
0
SPLINE
5
104
100
AcDbEntity
8
SK1
62
256
6
ByLayer
370
18
48
1
60
0
100
AcDbSpline
70
4
71
3
72
8
73
4
40
0
40
0
40
0
40
0
40
1
40
1
40
1
40
1
41
1
10
-36
20
0.563588377055623
30
0
41
1
10
-35.9170409070112
20
0.555118893354035
30
0
41
1
10
-35.8336648913447
20
0.546683394110289
30
0
41
1
10
-35.7499999999999
20
0.538271441878635
30
0
0
SPLINE
5
105
100
AcDbEntity
8
1
62
256
6
ByLayer
370
18
48
1
60
0
100
AcDbSpline
70
4
71
1
72
4
73
2
40
0
40
0
40
1
40
1
41
1
10
29.6472376556535
20
-0.26649573501436
30
0
41
1
10
29.6374765519039
20
-0.264367365823631
30
0
0
SPLINE
5
106
100
AcDbEntity
8
1
62
256
6
ByLayer
370
18
48
1
60
0
100
AcDbSpline
70
4
71
1
72
4
73
2
40
0
40
0
40
1
40
1
41
1
10
29.1237681871098
20
1.71440730773065
30
0
41
1
10
29.1329488609036
20
1.71443287591327
30
0
0
SPLINE
5
107
100
AcDbEntity
8
1
62
256
6
ByLayer
370
18
48
1
60
0
100
AcDbSpline
70
4
71
1
72
4
73
2
40
0
40
0
40
1
40
1
41
1
10
29.1329488609036
20
1.71443287591327
30
0
41
1
10
29.3869748059598
20
1.71514033833915
30
0
0
SPLINE
5
108
100
AcDbEntity
8
1
62
256
6
ByLayer
370
18
48
1
60
0
100
AcDbSpline
70
4
71
3
72
24
73
20
40
0
40
0
40
0
40
0
40
2.84484245577E-05
40
6.3922610146E-05
40
0.0001343826183514
40
0.0002027317574549
40
0.0004623499590761
40
0.0021486039081084
40
0.0035834027769149
40
0.0063941998343104
40
0.0122065357046185
40
0.0251150327679239
40
0.0562322701699413
40
0.124556701884457
40
0.559031521049768
40
0.642421380273484
40
0.753752239096145
40
0.90631771203142
40
1
40
1
40
1
40
1
41
1
10
21.3193772742323
20
-0.0273583800833137
30
0
41
1
10
21.319369842013
20
-0.0273558278674386
30
0
41
1
10
21.3193479507102
20
-0.0273482832203626
30
0
41
1
10
21.3192849711774
20
-0.0273268018089254
30
0
41
1
10
21.3191458532425
20
-0.0272790969239622
30
0
41
1
10
21.3188097680346
20
-0.027163643631269
30
0
41
1
10
21.3167382415492
20
-0.0264487467160848
30
0
41
1
10
21.313202452523
20
-0.0252251304464153
30
0
41
1
10
21.3070412816747
20
-0.0230985160401929
30
0
41
1
10
21.2965691798177
20
-0.0194859894253909
30
0
41
1
10
21.2741479405821
20
-0.0117603298934341
30
0
41
1
10
21.2221979644666
20
0.0061386014508855
30
0
41
1
10
21.1050288325701
20
0.0466360561418639
30
0
41
1
10
20.5486424659164
20
0.241135942935557
30
0
41
1
10
19.9413119357969
20
0.466251840871394
30
0
41
1
10
19.2940361259804
20
0.719642914988356
30
0
41
1
10
18.9377785287044
20
0.862056006568451
30
0
41
1
10
18.5720232247445
20
1.01142806264829
30
0
41
1
10
18.321511718291
20
1.11762348352391
30
0
41
1
10
18.2263672476785
20
1.15841938020267
30
0
0
SPLINE
5
109
100
AcDbEntity
8
1
62
256
6
ByLayer
370
18
48
1
60
0
100
AcDbSpline
70
4
71
2
72
6
73
3
40
0
40
0
40
0
40
1
40
1
40
1
41
1
10
12.4678823319161
20
1.55006302132628
30
0
41
1
10
12.6771262010482
20
1.4984552487964
30
0
41
1
10
12.887065739981
20
1.41357541851755
30
0
0
SPLINE
5
10A
100
AcDbEntity
8
1
62
256
6
ByLayer
370
18
48
1
60
0
100
AcDbSpline
70
4
71
3
72
14
73
10
40
0
40
0
40
0
40
0
40
0.114776826789419
40
0.233281251854616
40
0.29874059561176
40
0.398986028883591
40
0.586716363541942
40
0.836209254479272
40
1
40
1
40
1
40
1
41
1
10
29.0873788526354
20
0.414453613611073
30
0
41
1
10
29.0144417314801
20
0.441618451748525
30
0
41
1
10
28.8663648029967
20
0.49727840936805
30
0
41
1
10
28.6772202260356
20
0.56988659694332
30
0
41
1
10
28.4975252838811
20
0.639596094113784
30
0
41
1
10
28.2743794750309
20
0.727093638542499
30
0
41
1
10
27.9359099285497
20
0.86236568454126
30
0
41
1
10
27.5585964571845
20
1.01660618267746
30
0
41
1
10
27.3005515494818
20
1.12605065602352
30
0
41
1
10
27.198467767314
20
1.16987077213972
30
0
0
SPLINE
5
10B
100
AcDbEntity
8
1
62
256
6
ByLayer
370
18
48
1
60
0
100
AcDbSpline
70
4
71
3
72
23
73
19
40
0
40
0
40
0
40
0
40
6.98107676376E-05
40
0.0001314165651118
40
0.0002534898571782
40
0.0004843520567132
40
0.0016525563601863
40
0.0026231186766725
40
0.0044802296919265
40
0.0081918957364138
40
0.0765888157576951
40
0.169870570619957
40
0.299381131453686
40
0.429726423406623
40
0.551776170561822
40
0.676112791819182
40
0.853907477047717
40
1
40
1
40
1
40
1
41
1
10
12.3258742522415
20
-0.0303838359627946
30
0
41
1
10
12.3258714627404
20
-0.0303832726825988
30
0
41
1
10
12.3258507196815
20
-0.0303768611215958
30
0
41
1
10
12.3257132344476
20
-0.0303307804914255
30
0
41
1
10
12.3253410187413
20
-0.0302039793155586
30
0
41
1
10
12.3238146835422
20
-0.029680103390092
30
0
41
1
10
12.3212714601444
20
-0.0288010626288724
30
0
41
1
10
12.3171013271994
20
-0.0273645630271915
30
0
41
1
10
12.3102273726428
20
-0.0249958550481324
30
0
41
1
10
12.2326115411582
20
0.0017284216246196
30
0
41
1
10
12.0586279427862
20
0.0618454215048132
30
0
41
1
10
11.7531964734997
20
0.169520886290798
30
0
41
1
10
11.3835990901223
20
0.303194713972346
30
0
41
1
10
10.9850340386421
20
0.451701185905307
30
0
41
1
10
10.5932082794463
20
0.601743866816179
30
0
41
1
10
10.1536043064991
20
0.774660550188884
30
0
41
1
10
9.69073618714324
20
0.961729519198798
30
0
41
1
10
9.35834494479153
20
1.10205081003426
30
0
41
1
10
9.20878185072144
20
1.16626294944976
30
0
0
SPLINE
5
10C
100
AcDbEntity
8
1
62
256
6
ByLayer
370
18
48
1
60
0
100
AcDbSpline
70
4
71
3
72
16
73
12
40
0
40
0
40
0
40
0
40
0.170396536274932
40
0.299870546505743
40
0.389929356384788
40
0.457411109190754
40
0.543106401279073
40
0.655836734423488
40
0.749053556757169
40
0.861320142942543
40
1
40
1
40
1
40
1
41
1
10
20.8876913513213
20
-1.69087143635755
30
0
41
1
10
21.1173460033994
20
-1.69080102747964
30
0
41
1
10
21.5214929171734
20
-1.69095213776148
30
0
41
1
10
22.0472157138592
20
-1.6912445245984
30
0
41
1
10
22.4338992804683
20
-1.69246464971854
30
0
41
1
10
22.762281838011
20
-1.69207919336037
30
0
41
1
10
23.1211135837604
20
-1.6921110467311
30
0
41
1
10
23.5149957238144
20
-1.69236709016252
30
0
41
1
10
23.9417207674674
20
-1.69172068116825
30
0
41
1
10
24.4077724400791
20
-1.69272178391174
30
0
41
1
10
24.7440341186169
20
-1.69265777738181
30
0
41
1
10
24.9294910547989
20
-1.69259779537444
30
0
0
SPLINE
5
10D
100
AcDbEntity
8
1
62
256
6
ByLayer
370
18
48
1
60
0
100
AcDbSpline
70
4
71
3
72
19
73
15
40
0
40
0
40
0
40
0
40
0.181785880311656
40
0.311502117003653
40
0.388953593806377
40
0.430684332221433
40
0.482069669265954
40
0.545729111318761
40
0.61769990366361
40
0.679956475146209
40
0.754803898580562
40
0.830708979866331
40
0.936829414614187
40
1
40
1
40
1
40
1
41
1
10
15.9305042752978
20
1.68815557511107
30
0
41
1
10
15.7232430785749
20
1.68817307970127
30
0
41
1
10
15.3680059412377
20
1.68824486217721
30
0
41
1
10
14.9242644576731
20
1.68712090286502
30
0
41
1
10
14.6402367594717
20
1.68777138038055
30
0
41
1
10
14.445958406856
20
1.68720336924949
30
0
41
1
10
14.2671435143555
20
1.68670977892481
30
0
41
1
10
14.0538045763854
20
1.68699024132653
30
0
41
1
10
13.8280696210223
20
1.68711385224159
30
0
41
1
10
13.5894544297253
20
1.68593490049278
30
0
41
1
10
13.3470924627443
20
1.68599572966593
30
0
41
1
10
13.0528355349792
20
1.68662018753216
30
0
41
1
10
12.7794047870465
20
1.68498627075249
30
0
41
1
10
12.5862179068995
20
1.6843937763455
30
0
41
1
10
12.5140651277004
20
1.68425086326496
30
0
0
SPLINE
5
10E
100
AcDbEntity
8
1
62
256
6
ByLayer
370
18
48
1
60
0
100
AcDbSpline
70
4
71
3
72
14
73
10
40
0
40
0
40
0
40
0
40
0.153007721767725
40
0.307988941585674
40
0.420125840206087
40
0.501093074218764
40
0.626498365628004
40
0.794430220393691
40
1
40
1
40
1
40
1
41
1
10
3.7506782982698
20
-1.67945253527853
30
0
41
1
10
3.91252921138107
20
-1.68029235714687
30
0
41
1
10
4.23865865334122
20
-1.68154336746855
30
0
41
1
10
4.68504445417804
20
-1.68082734218149
30
0
41
1
10
5.05472831780409
20
-1.68110323958297
30
0
41
1
10
5.39259792925827
20
-1.68181933904458
30
0
41
1
10
5.78944200353425
20
-1.68201217349588
30
0
41
1
10
6.31647869565066
20
-1.68040542494808
30
0
41
1
10
6.71153296254855
20
-1.68183231277237
30
0
41
1
10
6.92889678508783
20
-1.68300026667552
30
0
0
SPLINE
5
10F
100
AcDbEntity
8
1
62
256
6
ByLayer
370
18
48
1
60
0
100
AcDbSpline
70
4
71
3
72
19
73
15
40
0
40
0
40
0
40
0
40
0.107473432831059
40
0.209184590917445
40
0.298765282796642
40
0.362839932649732
40
0.426021769329498
40
0.498322937748854
40
0.576307485594237
40
0.636441364440477
40
0.67166802393102
40
0.737048050836643
40
0.846546944790866
40
1
40
1
40
1
40
1
41
1
10
11.8875149060479
20
-1.68505250573551
30
0
41
1
10
12.0301505188285
20
-1.68439614852099
30
0
41
1
10
12.3084829208411
20
-1.68374503790557
30
0
41
1
10
12.715483685155
20
-1.68460341551543
30
0
41
1
10
13.0528372472547
20
-1.6866227242964
30
0
41
1
10
13.3470880708394
20
-1.6859892229844
30
0
41
1
10
13.6160893847393
20
-1.6859538679002
30
0
41
1
10
13.9047559685379
20
-1.68749469802393
30
0
41
1
10
14.1890768397392
20
-1.68656076131367
30
0
41
1
10
14.4233453558555
20
-1.68712939162182
30
0
41
1
10
14.6402376310594
20
-1.68777461604208
30
0
41
1
10
14.9242639521083
20
-1.68711902601598
30
0
41
1
10
15.3680061902098
20
-1.68824578645516
30
0
41
1
10
15.723243078575
20
-1.68817307970127
30
0
41
1
10
15.9305042752979
20
-1.68815557511107
30
0
0
SPLINE
5
110
100
AcDbEntity
8
1
62
256
6
ByLayer
370
18
48
1
60
0
100
AcDbSpline
70
4
71
3
72
16
73
12
40
0
40
0
40
0
40
0
40
0.165334931492813
40
0.299179807956893
40
0.410313445253302
40
0.544711203536857
40
0.646877628764765
40
0.727329766616151
40
0.834698403111942
40
0.989058070520366
40
1
40
1
40
1
40
1
41
1
10
24.929491054799
20
1.69259779537444
30
0
41
1
10
24.7440341186172
20
1.69265777738181
30
0
41
1
10
24.4077724400795
20
1.69272178391171
30
0
41
1
10
23.9417207674679
20
1.69172068116825
30
0
41
1
10
23.5149957238148
20
1.69236709016249
30
0
41
1
10
23.1211135837609
20
1.6921110467311
30
0
41
1
10
22.7622818380117
20
1.69207919336037
30
0
41
1
10
22.4338992804691
20
1.69246464971854
30
0
41
1
10
22.0472157138599
20
1.69124452459837
30
0
41
1
10
21.738856185961
20
1.69107302686697
30
0
41
1
10
21.5519514900672
20
1.6909848254524
30
0
41
1
10
21.5395797065703
20
1.69097907685114
30
0
0
SPLINE
5
111
100
AcDbEntity
8
1
62
256
6
ByLayer
370
18
48
1
60
0
100
AcDbSpline
70
4
71
3
72
8
73
4
40
0
40
0
40
0
40
0
40
1
40
1
40
1
40
1
41
1
10
21.1971953479167
20
1.69085915027986
30
0
41
1
10
21.0940250193962
20
1.69083971424425
30
0
41
1
10
20.9908586671336
20
1.69083980671331
30
0
41
1
10
20.8876913513213
20
1.69087143635755
30
0
0
SPLINE
5
112
100
AcDbEntity
8
1
62
256
6
ByLayer
370
18
48
1
60
0
100
AcDbSpline
70
4
71
3
72
14
73
10
40
0
40
0
40
0
40
0
40
0.205569779606287
40
0.373501634371975
40
0.498906925781221
40
0.579874159793904
40
0.692011058414318
40
0.84699227823227
40
1
40
1
40
1
40
1
41
1
10
6.92889678508783
20
1.68300026667552
30
0
41
1
10
6.71153296254863
20
1.68183231277237
30
0
41
1
10
6.31647869565072
20
1.68040542494808
30
0
41
1
10
5.7894420035343
20
1.68201217349588
30
0
41
1
10
5.39259792925836
20
1.68181933904458
30
0
41
1
10
5.05472831780412
20
1.68110323958297
30
0
41
1
10
4.68504445417807
20
1.68082734218146
30
0
41
1
10
4.23865865334125
20
1.68154336746855
30
0
41
1
10
3.9125292113811
20
1.68029235714687
30
0
41
1
10
3.7506782982698
20
1.67945253527853
30
0
0
LINE
5
82
100
AcDbEntity
8
81
62
256
6
ByLayer
370
18
48
1
60
0
100
AcDbLine
10
30
20
0
30
0
11
33
21
0
31
0
39
0
210
0
220
0
230
1
0
LINE
5
83
100
AcDbEntity
8
80
62
256
6
ByLayer
370
18
48
1
60
0
100
AcDbLine
10
0
20
0
30
0
11
-3
21
0
31
0
39
0
210
0
220
0
230
1
0
LINE
5
84
100
AcDbEntity
8
SK4
62
256
6
ByLayer
370
18
48
0.05
60
0
100
AcDbLine
10
-39
20
0
30
0
11
33
21
0
31
0
39
0
210
0
220
0
230
1
0
LINE
5
86
100
AcDbEntity
8
4
62
256
6
ByLayer
370
18
48
0.05
60
0
100
AcDbLine
10
0
20
0
30
0
11
30
21
0
31
0
39
0
210
0
220
0
230
1
0
LINE
5
88
100
AcDbEntity
8
1
62
256
6
ByLayer
370
13
48
1
60
0
100
AcDbLine
10
29.967924
20
0.027707
30
0
11
29.538203
21
0.502045
31
0
39
0
210
0
220
0
230
1
0
LINE
5
89
100
AcDbEntity
8
1
62
256
6
ByLayer
370
18
48
1
60
0
100
AcDbLine
10
3.750684
20
-1.679754
30
0
11
3.750671
21
-1.680321
31
0
39
0
210
0
220
0
230
1
0
LINE
5
8A
100
AcDbEntity
8
1
62
256
6
ByLayer
370
18
48
1
60
0
100
AcDbLine
10
3.750684
20
1.679754
30
0
11
3.750671
21
1.680321
31
0
39
0
210
0
220
0
230
1
0
LINE
5
8B
100
AcDbEntity
8
1
62
256
6
ByLayer
370
18
48
1
60
0
100
AcDbLine
10
12.15
20
1.698091
30
0
11
12.15
21
1.670201
31
0
39
0
210
0
220
0
230
1
0
LINE
5
8C
100
AcDbEntity
8
1
62
256
6
ByLayer
370
13
48
1
60
0
100
AcDbLine
10
1.557725
20
1.767628
30
0
11
1.557725
21
-1.767628
31
0
39
0
210
0
220
0
230
1
0
LINE
5
8D
100
AcDbEntity
8
1
62
256
6
ByLayer
370
13
48
1
60
0
100
AcDbLine
10
0.779792
20
2.378955
30
0
11
0.779792
21
-2.378955
31
0
39
0
210
0
220
0
230
1
0
LINE
5
8E
100
AcDbEntity
8
1
62
256
6
ByLayer
370
13
48
1
60
0
100
AcDbLine
10
0.777433
20
2.388673
30
0
11
0.777433
21
-2.388673
31
0
39
0
210
0
220
0
230
1
0
LINE
5
8F
100
AcDbEntity
8
1
62
256
6
ByLayer
370
18
48
1
60
0
100
AcDbLine
10
0
20
3
30
0
11
0
21
-3
31
0
39
0
210
0
220
0
230
1
0
LINE
5
90
100
AcDbEntity
8
SK1
62
256
6
ByLayer
370
18
48
1
60
0
100
AcDbLine
10
-36
20
0.92961
30
0
11
-36
21
0.563588
31
0
39
0
210
0
220
0
230
1
0
LINE
5
92
100
AcDbEntity
8
SK1
62
256
6
ByLayer
370
13
48
1
60
0
100
AcDbLine
10
-35.75
20
0.538271
30
0
11
-35.75
21
0.954927
31
0
39
0
210
0
220
0
230
1
0
LINE
5
93
100
AcDbEntity
8
SK1
62
256
6
ByLayer
370
18
48
1
60
0
100
AcDbLine
10
-35.65
20
-0.425813
30
0
11
-35.65
21
0.868292
31
0
39
0
210
0
220
0
230
1
0
LINE
5
94
100
AcDbEntity
8
SK1
62
256
6
ByLayer
370
18
48
1
60
0
100
AcDbLine
10
-36
20
-2.065
30
0
11
-36
21
-0.563588
31
0
39
0
210
0
220
0
230
1
0
LINE
5
95
100
AcDbEntity
8
SK1
62
256
6
ByLayer
370
18
48
1
60
0
100
AcDbLine
10
-36
20
0.92961
30
0
11
-36
21
2.065
31
0
39
0
210
0
220
0
230
1
0
LINE
5
96
100
AcDbEntity
8
SK1
62
256
6
ByLayer
370
18
48
1
60
0
100
AcDbLine
10
0
20
3
30
0
11
0
21
-3
31
0
39
0
210
0
220
0
230
1
0
LINE
5
97
100
AcDbEntity
8
SK1
62
256
6
ByLayer
370
18
48
1
60
0
100
AcDbLine
10
-35.065
20
-3
30
0
11
-35.065
21
3
31
0
39
0
210
0
220
0
230
1
0
LINE
5
98
100
AcDbEntity
8
1
62
256
6
ByLayer
370
18
48
1
60
0
100
AcDbLine
10
1.557725
20
-1.767628
30
0
11
3.559112
21
-1.768879
31
0
39
0
210
0
220
0
230
1
0
LINE
5
99
100
AcDbEntity
8
1
62
256
6
ByLayer
370
18
48
1
60
0
100
AcDbLine
10
11.164993
20
-1.773633
30
0
11
11.723289
21
-1.773982
31
0
39
0
210
0
220
0
230
1
0
LINE
5
9A
100
AcDbEntity
8
1
62
256
6
ByLayer
370
18
48
1
60
0
100
AcDbLine
10
20.313168
20
-1.77935
30
0
11
20.722337
21
-1.779606
31
0
39
0
210
0
220
0
230
1
0
LINE
5
9B
100
AcDbEntity
8
1
62
256
6
ByLayer
370
18
48
1
60
0
100
AcDbLine
10
29.372766
20
1.785013
30
0
11
29.321144
21
1.78498
31
0
39
0
210
0
220
0
230
1
0
LINE
5
9C
100
AcDbEntity
8
1
62
256
6
ByLayer
370
18
48
1
60
0
100
AcDbLine
10
20.722337
20
1.779606
30
0
11
20.313168
21
1.77935
31
0
39
0
210
0
220
0
230
1
0
LINE
5
9D
100
AcDbEntity
8
1
62
256
6
ByLayer
370
18
48
1
60
0
100
AcDbLine
10
11.723289
20
1.773982
30
0
11
11.164993
21
1.773633
31
0
39
0
210
0
220
0
230
1
0
LINE
5
9E
100
AcDbEntity
8
1
62
256
6
ByLayer
370
18
48
1
60
0
100
AcDbLine
10
3.559112
20
1.768879
30
0
11
1.557725
21
1.767628
31
0
39
0
210
0
220
0
230
1
0
LINE
5
9F
100
AcDbEntity
8
1
62
256
6
ByLayer
370
18
48
1
60
0
100
AcDbLine
10
0.779792
20
2.378955
30
0
11
0.777433
21
2.388673
31
0
39
0
210
0
220
0
230
1
0
LINE
5
A0
100
AcDbEntity
8
1
62
256
6
ByLayer
370
18
48
1
60
0
100
AcDbLine
10
0.777433
20
-2.388673
30
0
11
0.779792
21
-2.378955
31
0
39
0
210
0
220
0
230
1
0
LINE
5
A1
100
AcDbEntity
8
SK1
62
256
6
ByLayer
370
18
48
1
60
0
100
AcDbLine
10
-36
20
-2.065
30
0
11
-35.065
21
-3
31
0
39
0
210
0
220
0
230
1
0
LINE
5
A2
100
AcDbEntity
8
SK1
62
256
6
ByLayer
370
18
48
1
60
0
100
AcDbLine
10
-35.065
20
3
30
0
11
-36
21
2.065
31
0
39
0
210
0
220
0
230
1
0
LINE
5
A3
100
AcDbEntity
8
SK1
62
256
6
ByLayer
370
18
48
1
60
0
100
AcDbLine
10
-35.065
20
-3
30
0
11
0
21
-3
31
0
39
0
210
0
220
0
230
1
0
LINE
5
A4
100
AcDbEntity
8
SK1
62
256
6
ByLayer
370
18
48
1
60
0
100
AcDbLine
10
0
20
3
30
0
11
-35.065
21
3
31
0
39
0
210
0
220
0
230
1
0
LINE
5
A5
100
AcDbEntity
8
2
62
256
6
ByLayer
370
13
48
1
60
0
100
AcDbLine
10
43.75
20
20.749398
30
0
11
43.75
21
-10.535
31
0
39
0
210
0
220
0
230
1
0
LINE
5
A7
100
AcDbEntity
8
2
62
256
6
ByLayer
370
13
48
1
60
0
100
AcDbLine
10
31.5875
20
1.785
30
0
11
45.75
21
1.785
31
0
39
0
210
0
220
0
230
1
0
LINE
5
A8
100
AcDbEntity
8
2
62
256
6
ByLayer
370
13
48
1
60
0
100
AcDbLine
10
31.5875
20
-1.785
30
0
11
45.75
21
-1.785
31
0
39
0
210
0
220
0
230
1
0
LINE
5
A9
100
AcDbEntity
8
1
62
256
6
ByLayer
370
18
48
1
60
1
100
AcDbLine
10
43.75
20
1.785
30
0
11
43.289216
21
5.284998
31
0
39
0
210
0
220
0
230
1
0
LINE
5
AA
100
AcDbEntity
8
1
62
256
6
ByLayer
370
18
48
1
60
1
100
AcDbLine
10
43.289216
20
5.284998
30
0
11
44.210784
21
5.285002
31
0
39
0
210
0
220
0
230
1
0
LINE
5
AB
100
AcDbEntity
8
1
62
256
6
ByLayer
370
18
48
1
60
1
100
AcDbLine
10
44.210784
20
5.285002
30
0
11
43.75
21
1.785
31
0
39
0
210
0
220
0
230
1
0
LINE
5
AC
100
AcDbEntity
8
1
62
256
6
ByLayer
370
18
48
1
60
1
100
AcDbLine
10
43.75
20
-1.785
30
0
11
44.210784
21
-5.284998
31
0
39
0
210
0
220
0
230
1
0
LINE
5
AD
100
AcDbEntity
8
1
62
256
6
ByLayer
370
18
48
1
60
1
100
AcDbLine
10
44.210784
20
-5.284998
30
0
11
43.289216
21
-5.285002
31
0
39
0
210
0
220
0
230
1
0
LINE
5
AE
100
AcDbEntity
8
1
62
256
6
ByLayer
370
18
48
1
60
1
100
AcDbLine
10
43.289216
20
-5.285002
30
0
11
43.75
21
-1.785
31
0
39
0
210
0
220
0
230
1
0
LINE
5
AF
100
AcDbEntity
8
SK2
62
256
6
ByLayer
370
13
48
1
60
0
100
AcDbLine
10
-44.25
20
20.315466
30
0
11
-44.25
21
-11.75
31
0
39
0
210
0
220
0
230
1
0
LINE
5
B1
100
AcDbEntity
8
SK2
62
256
6
ByLayer
370
13
48
1
60
0
100
AcDbLine
10
-37.5875
20
3
30
0
11
-46.25
21
3
31
0
39
0
210
0
220
0
230
1
0
LINE
5
B2
100
AcDbEntity
8
SK2
62
256
6
ByLayer
370
13
48
1
60
0
100
AcDbLine
10
-37.5875
20
-3
30
0
11
-46.25
21
-3
31
0
39
0
210
0
220
0
230
1
0
LINE
5
B3
100
AcDbEntity
8
1
62
256
6
ByLayer
370
18
48
1
60
1
100
AcDbLine
10
-44.25
20
3
30
0
11
-44.710784
21
6.499998
31
0
39
0
210
0
220
0
230
1
0
LINE
5
B4
100
AcDbEntity
8
1
62
256
6
ByLayer
370
18
48
1
60
1
100
AcDbLine
10
-44.710784
20
6.499998
30
0
11
-43.789216
21
6.500002
31
0
39
0
210
0
220
0
230
1
0
LINE
5
B5
100
AcDbEntity
8
1
62
256
6
ByLayer
370
18
48
1
60
1
100
AcDbLine
10
-43.789216
20
6.500002
30
0
11
-44.25
21
3
31
0
39
0
210
0
220
0
230
1
0
LINE
5
B6
100
AcDbEntity
8
1
62
256
6
ByLayer
370
18
48
1
60
1
100
AcDbLine
10
-44.25
20
-3
30
0
11
-43.789216
21
-6.499998
31
0
39
0
210
0
220
0
230
1
0
LINE
5
B7
100
AcDbEntity
8
1
62
256
6
ByLayer
370
18
48
1
60
1
100
AcDbLine
10
-43.789216
20
-6.499998
30
0
11
-44.710784
21
-6.500002
31
0
39
0
210
0
220
0
230
1
0
LINE
5
B8
100
AcDbEntity
8
1
62
256
6
ByLayer
370
18
48
1
60
1
100
AcDbLine
10
-44.710784
20
-6.500002
30
0
11
-44.25
21
-3
31
0
39
0
210
0
220
0
230
1
0
LINE
5
B9
100
AcDbEntity
8
SK2
62
256
6
ByLayer
370
13
48
1
60
0
100
AcDbLine
10
30.543188
20
1.491678
30
0
11
40.726894
21
29.457702
31
0
39
0
210
0
220
0
230
1
0
LINE
5
BA
100
AcDbEntity
8
SK2
62
256
6
ByLayer
370
13
48
1
60
0
100
AcDbLine
10
30.543188
20
-1.491678
30
0
11
40.726894
21
-29.457702
31
0
39
0
210
0
220
0
230
1
0
LINE
5
BB
100
AcDbEntity
8
1
62
256
6
ByLayer
370
18
48
1
60
1
100
AcDbLine
10
40.042563
20
27.578423
30
0
11
43.464672
21
26.711544
31
0
39
0
210
0
220
0
230
1
0
LINE
5
BC
100
AcDbEntity
8
1
62
256
6
ByLayer
370
18
48
1
60
1
100
AcDbLine
10
43.464672
20
26.711544
30
0
11
43.123705
21
25.855374
31
0
39
0
210
0
220
0
230
1
0
LINE
5
BD
100
AcDbEntity
8
1
62
256
6
ByLayer
370
18
48
1
60
1
100
AcDbLine
10
43.123705
20
25.855374
30
0
11
40.042563
21
27.578423
31
0
39
0
210
0
220
0
230
1
0
LINE
5
BE
100
AcDbEntity
8
1
62
256
6
ByLayer
370
18
48
1
60
1
100
AcDbLine
10
40.042563
20
-27.578423
30
0
11
43.123701
21
-25.855375
31
0
39
0
210
0
220
0
230
1
0
LINE
5
BF
100
AcDbEntity
8
1
62
256
6
ByLayer
370
18
48
1
60
1
100
AcDbLine
10
43.123701
20
-25.855375
30
0
11
43.464675
21
-26.711543
31
0
39
0
210
0
220
0
230
1
0
LINE
5
C0
100
AcDbEntity
8
1
62
256
6
ByLayer
370
18
48
1
60
1
100
AcDbLine
10
43.464675
20
-26.711543
30
0
11
40.042563
21
-27.578423
31
0
39
0
210
0
220
0
230
1
0
LINE
5
113
100
AcDbEntity
8
1
62
256
6
ByLayer
370
13
48
0.05
60
0
100
AcDbLine
10
-42.5
20
0
30
0
11
35.872766
21
0
31
0
39
0
210
0
220
0
230
1
0
LINE
5
118
100
AcDbEntity
8
1
62
256
6
ByLayer
370
18
48
1
60
1
100
AcDbLine
10
43.75
20
1.785
30
0
11
43.289216
21
5.284998
31
0
39
0
210
0
220
0
230
1
0
LINE
5
119
100
AcDbEntity
8
1
62
256
6
ByLayer
370
18
48
1
60
1
100
AcDbLine
10
43.289216
20
5.284998
30
0
11
44.210784
21
5.285002
31
0
39
0
210
0
220
0
230
1
0
LINE
5
11A
100
AcDbEntity
8
1
62
256
6
ByLayer
370
18
48
1
60
1
100
AcDbLine
10
44.210784
20
5.285002
30
0
11
43.75
21
1.785
31
0
39
0
210
0
220
0
230
1
0
LINE
5
11C
100
AcDbEntity
8
1
62
256
6
ByLayer
370
18
48
1
60
1
100
AcDbLine
10
43.75
20
-1.785
30
0
11
44.210784
21
-5.284998
31
0
39
0
210
0
220
0
230
1
0
LINE
5
11D
100
AcDbEntity
8
1
62
256
6
ByLayer
370
18
48
1
60
1
100
AcDbLine
10
44.210784
20
-5.284998
30
0
11
43.289216
21
-5.285002
31
0
39
0
210
0
220
0
230
1
0
LINE
5
11E
100
AcDbEntity
8
1
62
256
6
ByLayer
370
18
48
1
60
1
100
AcDbLine
10
43.289216
20
-5.285002
30
0
11
43.75
21
-1.785
31
0
39
0
210
0
220
0
230
1
0
LINE
5
122
100
AcDbEntity
8
1
62
256
6
ByLayer
370
18
48
1
60
1
100
AcDbLine
10
-44.25
20
3
30
0
11
-44.710784
21
6.499998
31
0
39
0
210
0
220
0
230
1
0
LINE
5
123
100
AcDbEntity
8
1
62
256
6
ByLayer
370
18
48
1
60
1
100
AcDbLine
10
-44.710784
20
6.499998
30
0
11
-43.789216
21
6.500002
31
0
39
0
210
0
220
0
230
1
0
LINE
5
124
100
AcDbEntity
8
1
62
256
6
ByLayer
370
18
48
1
60
1
100
AcDbLine
10
-43.789216
20
6.500002
30
0
11
-44.25
21
3
31
0
39
0
210
0
220
0
230
1
0
LINE
5
126
100
AcDbEntity
8
1
62
256
6
ByLayer
370
18
48
1
60
1
100
AcDbLine
10
-44.25
20
-3
30
0
11
-43.789216
21
-6.499998
31
0
39
0
210
0
220
0
230
1
0
LINE
5
127
100
AcDbEntity
8
1
62
256
6
ByLayer
370
18
48
1
60
1
100
AcDbLine
10
-43.789216
20
-6.499998
30
0
11
-44.710784
21
-6.500002
31
0
39
0
210
0
220
0
230
1
0
LINE
5
128
100
AcDbEntity
8
1
62
256
6
ByLayer
370
18
48
1
60
1
100
AcDbLine
10
-44.710784
20
-6.500002
30
0
11
-44.25
21
-3
31
0
39
0
210
0
220
0
230
1
0
LINE
5
12B
100
AcDbEntity
8
1
62
256
6
ByLayer
370
18
48
1
60
1
100
AcDbLine
10
40.042563
20
27.578423
30
0
11
43.464672
21
26.711544
31
0
39
0
210
0
220
0
230
1
0
LINE
5
12C
100
AcDbEntity
8
1
62
256
6
ByLayer
370
18
48
1
60
1
100
AcDbLine
10
43.464672
20
26.711544
30
0
11
43.123705
21
25.855374
31
0
39
0
210
0
220
0
230
1
0
LINE
5
12D
100
AcDbEntity
8
1
62
256
6
ByLayer
370
18
48
1
60
1
100
AcDbLine
10
43.123705
20
25.855374
30
0
11
40.042563
21
27.578423
31
0
39
0
210
0
220
0
230
1
0
LINE
5
12F
100
AcDbEntity
8
1
62
256
6
ByLayer
370
18
48
1
60
1
100
AcDbLine
10
40.042563
20
-27.578423
30
0
11
43.123701
21
-25.855375
31
0
39
0
210
0
220
0
230
1
0
LINE
5
130
100
AcDbEntity
8
1
62
256
6
ByLayer
370
18
48
1
60
1
100
AcDbLine
10
43.123701
20
-25.855375
30
0
11
43.464675
21
-26.711543
31
0
39
0
210
0
220
0
230
1
0
LINE
5
131
100
AcDbEntity
8
1
62
256
6
ByLayer
370
18
48
1
60
1
100
AcDbLine
10
43.464675
20
-26.711543
30
0
11
40.042563
21
-27.578423
31
0
39
0
210
0
220
0
230
1
0
MTEXT
5
114
100
AcDbEntity
8
2
62
256
6
ByLayer
370
18
48
1
60
0
100
AcDbMText
10
42.185366
20
5.719844
30
0
210
0
220
0
230
1
1
%%c
40
3.5
41
0
44
1.084337
50
90
71
7
72
5
7
iso_b_vert
0
MTEXT
5
117
100
AcDbEntity
8
2
62
256
6
ByLayer
370
18
48
1
60
0
100
AcDbMText
10
42.185366
20
12.6925
30
0
210
0
220
0
230
1
1
\W0.7346;3.57
40
3.5
41
0
44
1.084337
50
90
71
7
72
5
7
iso_b_vert
0
MTEXT
5
120
100
AcDbEntity
8
SK2
62
256
6
ByLayer
370
18
48
1
60
0
100
AcDbMText
10
-45.814634
20
11.934844
30
0
210
0
220
0
230
1
1
%%c
40
3.5
41
0
44
1.084337
50
90
71
7
72
5
7
iso_b_vert
0
MTEXT
5
121
100
AcDbEntity
8
SK2
62
256
6
ByLayer
370
18
48
1
60
0
100
AcDbMText
10
-45.814634
20
18.9075
30
0
210
0
220
0
230
1
1
\W0.5404;6
40
3.5
41
0
44
1.084337
50
90
71
7
72
5
7
iso_b_vert
0
MTEXT
5
12A
100
AcDbEntity
8
SK2
62
256
6
ByLayer
370
18
48
1
60
0
100
AcDbMText
10
55.278351
20
-2.467366
30
0
210
0
220
0
230
1
1
\W0.7825;140%%d
40
3.5
41
0
44
1.084337
50
0
71
7
72
5
7
iso_b_vert
0
MTEXT
5
133
100
AcDbEntity
8
SK6
62
256
6
ByLayer
370
18
48
1
60
0
100
AcDbMText
10
-33.652662
20
-97.467366
30
0
210
0
220
0
230
1
1
\W0.7396;860.1-0357-019A1-MM M2BM
40
3.5
41
0
44
1.084337
50
0
71
7
72
5
7
iso_b_vert
0
HATCH
5
11B
100
AcDbEntity
8
2
62
256
6
ByLayer
370
13
48
1
60
0
100
AcDbHatch
10
0
20
0
30
0
210
0
220
0
230
1
2
ANSI31
70
0
71
0
91
1
92
5
93
3
72
1
10
43.75
20
1.785
11
43.2892162584472
21
5.28499830744681
72
1
10
43.2892162584472
20
5.28499830744681
11
44.2107837415528
21
5.28500169255318
72
1
10
44.2107837415528
20
5.28500169255318
11
43.75
21
1.785
97
0
75
0
76
1
52
0
41
0.0062
77
0
78
1
53
45
43
0
44
0
45
-0.0139193969876572
46
0.0139193969876572
79
0
47
0
98
1
10
0
20
0
0
HATCH
5
11F
100
AcDbEntity
8
2
62
256
6
ByLayer
370
13
48
1
60
0
100
AcDbHatch
10
0
20
0
30
0
210
0
220
0
230
1
2
ANSI31
70
0
71
0
91
1
92
5
93
3
72
1
10
43.75
20
-1.785
11
44.2107837415528
21
-5.28499830744681
72
1
10
44.2107837415528
20
-5.28499830744681
11
43.2892162584472
21
-5.28500169255318
72
1
10
43.2892162584472
20
-5.28500169255318
11
43.75
21
-1.785
97
0
75
0
76
1
52
0
41
0.0062
77
0
78
1
53
45
43
0
44
0
45
-0.0139193969876572
46
0.0139193969876572
79
0
47
0
98
1
10
0
20
0
0
HATCH
5
125
100
AcDbEntity
8
SK2
62
256
6
ByLayer
370
13
48
1
60
0
100
AcDbHatch
10
0
20
0
30
0
210
0
220
0
230
1
2
ANSI31
70
0
71
0
91
1
92
5
93
3
72
1
10
-44.25
20
3
11
-44.7107837415528
21
6.49999830744682
72
1
10
-44.7107837415528
20
6.49999830744682
11
-43.7892162584472
21
6.50000169255318
72
1
10
-43.7892162584472
20
6.50000169255318
11
-44.25
21
3
97
0
75
0
76
1
52
0
41
0.0062
77
0
78
1
53
45
43
0
44
0
45
-0.0139193969876572
46
0.0139193969876572
79
0
47
0
98
1
10
0
20
0
0
HATCH
5
129
100
AcDbEntity
8
SK2
62
256
6
ByLayer
370
13
48
1
60
0
100
AcDbHatch
10
0
20
0
30
0
210
0
220
0
230
1
2
ANSI31
70
0
71
0
91
1
92
5
93
3
72
1
10
-44.25
20
-3
11
-43.7892162584472
21
-6.49999830744682
72
1
10
-43.7892162584472
20
-6.49999830744682
11
-44.7107837415528
21
-6.50000169255318
72
1
10
-44.7107837415528
20
-6.50000169255318
11
-44.25
21
-3
97
0
75
0
76
1
52
0
41
0.0062
77
0
78
1
53
45
43
0
44
0
45
-0.0139193969876572
46
0.0139193969876572
79
0
47
0
98
1
10
0
20
0
0
HATCH
5
12E
100
AcDbEntity
8
SK2
62
256
6
ByLayer
370
13
48
1
60
0
100
AcDbHatch
10
0
20
0
30
0
210
0
220
0
230
1
2
ANSI31
70
0
71
0
91
1
92
5
93
3
72
1
10
40.0425630746108
20
27.5784232125853
11
43.4646720953847
21
26.7115439484734
72
1
10
43.4646720953847
20
26.7115439484734
11
43.1237046240253
21
25.8553735160222
72
1
10
43.1237046240253
20
25.8553735160222
11
40.0425630746108
21
27.5784232125853
97
0
75
0
76
1
52
0
41
0.0062
77
0
78
1
53
45
43
0
44
0
45
-0.0139193969876572
46
0.0139193969876572
79
0
47
0
98
1
10
0
20
0
0
HATCH
5
132
100
AcDbEntity
8
SK2
62
256
6
ByLayer
370
13
48
1
60
0
100
AcDbHatch
10
0
20
0
30
0
210
0
220
0
230
1
2
ANSI31
70
0
71
0
91
1
92
5
93
3
72
1
10
40.0425630746108
20
-27.5784232125853
11
43.1237014791403
21
-25.8553747684772
72
1
10
43.1237014791403
20
-25.8553747684772
11
43.4646752402697
21
-26.7115426960184
72
1
10
43.4646752402697
20
-26.7115426960184
11
40.0425630746108
21
-27.5784232125853
97
0
75
0
76
1
52
0
41
0.0062
77
0
78
1
53
45
43
0
44
0
45
-0.0139193969876572
46
0.0139193969876572
79
0
47
0
98
1
10
0
20
0
0
DIMENSION
5
136
100
AcDbEntity
8
2
62
256
6
ByLayer
370
18
48
1
60
0
100
AcDbDimension
2
_U0
10
30
20
-56.86199
30
0
11
-3
21
-56.86199
31
0
70
32
71
1
72
1
41
1
210
0
220
0
230
1
3
Standard
100
AcDbAlignedDimension
13
-36
23
-3
33
0
14
30
24
-1.785
34
0
50
0
100
AcDbRotatedDimension
1001
ACAD
1000
DSTYLE
1002
{
1070
   371
1070
    13
1070
   372
1070
    13
1070
     3
1000

1070
   170
1070
     0
1070
   144
1040
1.0
1070
   277
1070
     2
1070
   284
1070
     8
1070
   278
1070
    46
1070
   146
1040
1.0
1070
   345
1005
16
1070
   347
1005
16
1070
   346
1005
16
1070
   344
1005
0
1070
   343
1005
0
1070
   172
1070
     1
1070
    76
1070
     0
1070
    75
1070
     0
1070
   282
1070
     0
1070
   281
1070
     0
1070
    71
1070
     0
1070
    74
1070
     0
1070
   279
1070
     0
1070
   173
1070
     1
1070
   340
1005
115
1070
   271
1070
     2
1070
   272
1070
     2
1070
    77
1070
     1
1070
    73
1070
     1
1070
   171
1070
     3
1070
   274
1070
     4
1070
   177
1070
     2
1070
   176
1070
     2
1070
   178
1070
     2
1070
    78
1070
     8
1070
    48
1040
-0.1
1070
    41
1040
3.5
1070
   147
1040
1.75
1070
    42
1040
1.5875
1070
    44
1040
2.0
1070
   140
1040
3.5
1002
}
1001
ACAD_DSTYLE_DIM_LINETYPE
1070
   380
1005
16
1001
ACAD_DSTYLE_DIM_EXT1_LINETYPE
1070
   381
1005
16
1001
ACAD_DSTYLE_DIM_EXT2_LINETYPE
1070
   382
1005
16
0
DIMENSION
5
14F
100
AcDbEntity
8
SK2
62
256
6
ByLayer
370
18
48
1
60
0
100
AcDbDimension
2
_U1
10
2
20
-36.86199
30
0
11
16
21
-36.86199
31
0
70
32
71
1
72
1
41
1
210
0
220
0
230
1
3
Standard
100
AcDbAlignedDimension
13
30
23
-1.785
33
0
14
2
24
-1.785
34
0
50
0
100
AcDbRotatedDimension
1001
ACAD
1000
DSTYLE
1002
{
1070
   371
1070
    13
1070
   372
1070
    13
1070
     3
1000

1070
   170
1070
     0
1070
   144
1040
1.0
1070
   277
1070
     2
1070
   284
1070
     8
1070
   278
1070
    46
1070
   146
1040
1.0
1070
   345
1005
16
1070
   347
1005
16
1070
   346
1005
16
1070
   344
1005
0
1070
   343
1005
0
1070
   172
1070
     1
1070
    76
1070
     0
1070
    75
1070
     0
1070
   282
1070
     0
1070
   281
1070
     0
1070
    71
1070
     0
1070
    74
1070
     0
1070
   279
1070
     0
1070
   173
1070
     1
1070
   340
1005
115
1070
   271
1070
     2
1070
   272
1070
     2
1070
    77
1070
     1
1070
    73
1070
     1
1070
   171
1070
     3
1070
   274
1070
     4
1070
   177
1070
     2
1070
   176
1070
     2
1070
   178
1070
     2
1070
    78
1070
     8
1070
    48
1040
-0.1
1070
    41
1040
3.5
1070
   147
1040
1.75
1070
    42
1040
1.5875
1070
    44
1040
2.0
1070
   140
1040
3.5
1002
}
1001
ACAD_DSTYLE_DIM_LINETYPE
1070
   380
1005
16
1001
ACAD_DSTYLE_DIM_EXT1_LINETYPE
1070
   381
1005
16
1001
ACAD_DSTYLE_DIM_EXT2_LINETYPE
1070
   382
1005
16
0
DIMENSION
5
167
100
AcDbEntity
8
SK2
62
256
6
ByLayer
370
18
48
1
60
0
100
AcDbDimension
2
_U2
10
11
20
-26.86199
30
0
11
20.5
21
-26.86199
31
0
70
32
71
1
72
1
41
1
210
0
220
0
230
1
3
Standard
100
AcDbAlignedDimension
13
30
23
-1.785
33
0
14
11
24
-1.785
34
0
50
0
100
AcDbRotatedDimension
1001
ACAD
1000
DSTYLE
1002
{
1070
   371
1070
    13
1070
   372
1070
    13
1070
     3
1000

1070
   170
1070
     0
1070
   144
1040
1.0
1070
   277
1070
     2
1070
   284
1070
     8
1070
   278
1070
    46
1070
   146
1040
1.0
1070
   345
1005
16
1070
   347
1005
16
1070
   346
1005
16
1070
   344
1005
0
1070
   343
1005
0
1070
   172
1070
     1
1070
    76
1070
     0
1070
    75
1070
     0
1070
   282
1070
     0
1070
   281
1070
     0
1070
    71
1070
     0
1070
    74
1070
     0
1070
   279
1070
     0
1070
   173
1070
     1
1070
   340
1005
115
1070
   271
1070
     2
1070
   272
1070
     2
1070
    77
1070
     1
1070
    73
1070
     1
1070
   171
1070
     3
1070
   274
1070
     4
1070
   177
1070
     2
1070
   176
1070
     2
1070
   178
1070
     2
1070
    78
1070
     8
1070
    48
1040
-0.1
1070
    41
1040
3.5
1070
   147
1040
1.75
1070
    42
1040
1.5875
1070
    44
1040
2.0
1070
   140
1040
3.5
1002
}
1001
ACAD_DSTYLE_DIM_LINETYPE
1070
   380
1005
16
1001
ACAD_DSTYLE_DIM_EXT1_LINETYPE
1070
   381
1005
16
1001
ACAD_DSTYLE_DIM_EXT2_LINETYPE
1070
   382
1005
16
0
DIMENSION
5
181
100
AcDbEntity
8
SK2
62
256
6
ByLayer
370
18
48
1
60
0
100
AcDbDimension
2
_U3
10
0
20
-36.86199
30
0
11
-18
21
-36.86199
31
0
70
32
71
1
72
1
41
1
210
0
220
0
230
1
3
Standard
100
AcDbAlignedDimension
13
-36
23
-3
33
0
14
0
24
-3
34
0
50
0
100
AcDbRotatedDimension
1001
ACAD
1000
DSTYLE
1002
{
1070
   371
1070
    13
1070
   372
1070
    13
1070
     3
1000

1070
   170
1070
     0
1070
   144
1040
1.0
1070
   277
1070
     2
1070
   284
1070
     8
1070
   278
1070
    46
1070
   146
1040
1.0
1070
   345
1005
16
1070
   347
1005
16
1070
   346
1005
16
1070
   344
1005
0
1070
   343
1005
0
1070
   172
1070
     1
1070
    76
1070
     0
1070
    75
1070
     0
1070
   282
1070
     0
1070
   281
1070
     0
1070
    71
1070
     0
1070
    74
1070
     0
1070
   279
1070
     0
1070
   173
1070
     1
1070
   340
1005
115
1070
   271
1070
     2
1070
   272
1070
     2
1070
    77
1070
     1
1070
    73
1070
     1
1070
   171
1070
     3
1070
   274
1070
     4
1070
   177
1070
     2
1070
   176
1070
     2
1070
   178
1070
     2
1070
    78
1070
     8
1070
    48
1040
-0.1
1070
    41
1040
3.5
1070
   147
1040
1.75
1070
    42
1040
1.5875
1070
    44
1040
2.0
1070
   140
1040
3.5
1002
}
1001
ACAD_DSTYLE_DIM_LINETYPE
1070
   380
1005
16
1001
ACAD_DSTYLE_DIM_EXT1_LINETYPE
1070
   381
1005
16
1001
ACAD_DSTYLE_DIM_EXT2_LINETYPE
1070
   382
1005
16
0
DIMENSION
5
199
100
AcDbEntity
8
SK2
62
256
6
ByLayer
370
18
48
1
60
0
100
AcDbDimension
2
_U4
10
30
20
-46.86199
30
0
11
15
21
-46.86199
31
0
70
32
71
1
72
1
41
1
210
0
220
0
230
1
3
Standard
100
AcDbAlignedDimension
13
0
23
-3
33
0
14
30
24
-1.785
34
0
50
0
100
AcDbRotatedDimension
1001
ACAD
1000
DSTYLE
1002
{
1070
   371
1070
    13
1070
   372
1070
    13
1070
     3
1000

1070
   170
1070
     0
1070
   144
1040
1.0
1070
   277
1070
     2
1070
   284
1070
     8
1070
   278
1070
    46
1070
   146
1040
1.0
1070
   345
1005
16
1070
   347
1005
16
1070
   346
1005
16
1070
   344
1005
0
1070
   343
1005
0
1070
   172
1070
     1
1070
    76
1070
     0
1070
    75
1070
     0
1070
   282
1070
     0
1070
   281
1070
     0
1070
    71
1070
     0
1070
    74
1070
     0
1070
   279
1070
     0
1070
   173
1070
     1
1070
   340
1005
115
1070
   271
1070
     2
1070
   272
1070
     2
1070
    77
1070
     1
1070
    73
1070
     1
1070
   171
1070
     3
1070
   274
1070
     4
1070
   177
1070
     2
1070
   176
1070
     2
1070
   178
1070
     2
1070
    78
1070
     8
1070
    48
1040
-0.1
1070
    41
1040
3.5
1070
   147
1040
1.75
1070
    42
1040
1.5875
1070
    44
1040
2.0
1070
   140
1040
3.5
1002
}
1001
ACAD_DSTYLE_DIM_LINETYPE
1070
   380
1005
16
1001
ACAD_DSTYLE_DIM_EXT1_LINETYPE
1070
   381
1005
16
1001
ACAD_DSTYLE_DIM_EXT2_LINETYPE
1070
   382
1005
16
0
ENDSEC
0
SECTION
2
OBJECTS
0
DICTIONARY
5
221
330
0
100
AcDbDictionary
280
0
281
1
3
ACAD_GROUP
350
222
3
ACAD_MLINESTYLE
350
223
0
DICTIONARY
5
222
330
0
100
AcDbDictionary
280
0
281
1
0
DICTIONARY
5
223
330
0
100
AcDbDictionary
280
0
281
1
3
Standard
350
18
0
MLINESTYLE
5
18
330
223
100
AcDbMlineStyle
2
Standard
70
0
3

62
256
51
90
52
90
71
2
49
-0.5
62
256
6
ByLayer
49
0.5
62
256
6
ByLayer
0
RASTERVARIABLES
5
20f
330

100
AcDbRasterVariables
90
0
70
1
71
1
72
1
0
ENDSEC
0
EOF
