0
SECTION
2
HEADER
9
$ACADVER
1
AC1015
9
$DWGCODEPAGE
3
ANSI_1252
9
$HANDSEED
5
22a
9
$ANGBASE
50
0
9
$ANGDIR
70
0
9
$ATTMODE
70
1
9
$AUNITS
70
0
9
$AUPREC
70
0
9
$CECOLOR
62
256
9
$CELTSCALE
40
1
9
$CELTYPE
6
ByLayer
9
$CELWEIGHT
370
18
9
$CLAYER
8
0
9
$CMLJUST
70
0
9
$CMLSCALE
40
1
9
$CMLSTYLE
2
Standard
9
$DIMSTYLE
2
Standard
9
$TEXTSIZE
40
0.2
9
$TEXTSTYLE
7
Standard
9
$LUNITS
70
2
9
$LUPREC
70
4
9
$EXTNAMES
290
1
9
$INSUNITS
70
4
9
$LTSCALE
40
1
9
$LWDISPLAY
290
1
9
$PDMODE
70
0
9
$PDSIZE
40
0
9
$PLINEGEN
70
0
0
ENDSEC
0
SECTION
2
CLASSES
0
CLASS
1
RASTERVARIABLES
2
AcDbRasterVariables
3
ISM
90
0
280
0
281
0
0
ENDSEC
0
SECTION
2
TABLES
0
TABLE
2
VPORT
5
220
100
AcDbSymbolTable
0
VPORT
5
1
100
AcDbSymbolTableRecord
100
AcDbViewportTableRecord
2
*Active
70
0
10
0
20
0
11
1
21
1
12
-1
22
1
13
0
23
0
14
0.5
24
0.5
15
10
25
10
16
0
26
0
36
1
17
0
27
0
37
0
0
ENDTAB
0
TABLE
2
LTYPE
5
221
100
AcDbSymbolTable
0
LTYPE
5
14
100
AcDbSymbolTableRecord
100
AcDbLinetypeTableRecord
70
0
2
ByBlock
3

72
65
73
0
40
0
0
LTYPE
5
15
100
AcDbSymbolTableRecord
100
AcDbLinetypeTableRecord
70
0
2
ByLayer
3

72
65
73
0
40
0
0
LTYPE
5
16
100
AcDbSymbolTableRecord
100
AcDbLinetypeTableRecord
70
0
2
Continuous
3
Solid line
72
65
73
0
40
0
0
LTYPE
5
6E
100
AcDbSymbolTableRecord
100
AcDbLinetypeTableRecord
70
0
2
CENTER
3
____ _ ____ _ ____ _ ____
72
65
73
4
40
47.5
49
22
74
0
49
-8.5
74
0
49
8.5
74
0
49
-8.5
74
0
0
LTYPE
5
6F
100
AcDbSymbolTableRecord
100
AcDbLinetypeTableRecord
70
0
2
DASHED
3
__ __ __ __ __ __ __ __ __
72
65
73
2
40
25.72
49
12.86
74
0
49
-12.86
74
0
0
ENDTAB
0
TABLE
2
LAYER
5
222
100
AcDbSymbolTable
0
LAYER
5
10
100
AcDbSymbolTableRecord
100
AcDbLayerTableRecord
2
0
70
0
62
7
6
Continuous
290
1
370
-3
390
0
0
LAYER
5
71
100
AcDbSymbolTableRecord
100
AcDbLayerTableRecord
2
80
70
0
62
-6
6
Continuous
290
1
370
-3
390
0
0
LAYER
5
73
100
AcDbSymbolTableRecord
100
AcDbLayerTableRecord
2
81
70
0
62
-3
6
Continuous
290
1
370
-3
390
0
0
LAYER
5
75
100
AcDbSymbolTableRecord
100
AcDbLayerTableRecord
2
1
70
0
62
4
6
Continuous
290
1
370
-3
390
0
0
LAYER
5
85
100
AcDbSymbolTableRecord
100
AcDbLayerTableRecord
2
4
70
0
62
-2
6
CENTER
290
1
370
-3
390
0
0
LAYER
5
A6
100
AcDbSymbolTableRecord
100
AcDbLayerTableRecord
2
2
70
0
62
7
6
Continuous
290
1
370
-3
390
0
0
LAYER
5
135
100
AcDbSymbolTableRecord
100
AcDbLayerTableRecord
2
Defpoints
70
0
62
7
6
Continuous
290
0
370
-3
390
0
0
LAYER
5
20c
100
AcDbSymbolTableRecord
100
AcDbLayerTableRecord
2
SK4
70
0
62
2
6
CENTER
290
1
370
-3
390
0
0
LAYER
5
20d
100
AcDbSymbolTableRecord
100
AcDbLayerTableRecord
2
SK1
70
0
62
4
6
Continuous
290
1
370
-3
390
0
0
LAYER
5
20e
100
AcDbSymbolTableRecord
100
AcDbLayerTableRecord
2
SK2
70
0
62
7
6
Continuous
290
1
370
-3
390
0
0
LAYER
5
20f
100
AcDbSymbolTableRecord
100
AcDbLayerTableRecord
2
SK6
70
0
62
5
6
Continuous
290
1
370
-3
390
0
0
ENDTAB
0
TABLE
2
STYLE
5
223
100
AcDbSymbolTable
0
STYLE
5
11
100
AcDbSymbolTableRecord
100
AcDbTextStyleTableRecord
2
Standard
3
txt
70
0
71
0
40
0
41
1
42
0
50
0
0
STYLE
5
111
100
AcDbSymbolTableRecord
100
AcDbTextStyleTableRecord
2
iso_b_vert
3
simplex.shx
70
0
71
0
40
0
41
1
42
0
50
0
0
STYLE
5
112
100
AcDbSymbolTableRecord
100
AcDbTextStyleTableRecord
2
DWGDirectTextStyle
3
simplex
70
0
71
0
40
0
41
1
42
0
50
0
0
ENDTAB
0
TABLE
2
DIMSTYLE
5
224
100
AcDbSymbolTable
100
AcDbDimStyleTable
0
DIMSTYLE
105
27
100
AcDbSymbolTableRecord
100
AcDbDimStyleTableRecord
2
Standard
70
0
3
<>
41
0.18
42
0.0625
44
0.18
140
0.18
147
0.09
73
0
74
0
77
1
271
2
275
0
278
52
280
0
340
11
0
ENDTAB
0
TABLE
2
VIEW
5
225
100
AcDbSymbolTable
0
ENDTAB
0
TABLE
2
UCS
5
226
100
AcDbSymbolTable
0
ENDTAB
0
TABLE
2
APPID
5
227
100
AcDbSymbolTable
0
APPID
5
12
100
AcDbSymbolTableRecord
100
AcDbRegAppTableRecord
2
ACAD
70
0
0
APPID
5
131
100
AcDbSymbolTableRecord
100
AcDbRegAppTableRecord
2
ACAD_DSTYLE_DIMBREAK
70
0
0
APPID
5
1CB
100
AcDbSymbolTableRecord
100
AcDbRegAppTableRecord
2
ACAD_DSTYLE_DIM_LINETYPE
70
0
0
APPID
5
1CC
100
AcDbSymbolTableRecord
100
AcDbRegAppTableRecord
2
ACAD_DSTYLE_DIM_EXT1_LINETYPE
70
0
0
APPID
5
1CD
100
AcDbSymbolTableRecord
100
AcDbRegAppTableRecord
2
ACAD_DSTYLE_DIM_EXT2_LINETYPE
70
0
0
APPID
5
208
100
AcDbSymbolTableRecord
100
AcDbRegAppTableRecord
2
ACAD_MLEADERVER
70
0
0
ENDTAB
0
TABLE
2
BLOCK_RECORD
5
228
100
AcDbSymbolTable
0
BLOCK_RECORD
5
1F
100
AcDbSymbolTableRecord
100
AcDbBlockTableRecord
2
*Model_Space
340
0
70
0
0
BLOCK_RECORD
5
1B
100
AcDbSymbolTableRecord
100
AcDbBlockTableRecord
2
*Paper_Space
340
0
70
0
0
BLOCK_RECORD
5
23
100
AcDbSymbolTableRecord
100
AcDbBlockTableRecord
2
*Paper_Space0
340
0
70
0
0
BLOCK_RECORD
5
136
100
AcDbSymbolTableRecord
100
AcDbBlockTableRecord
2
*D1
340
0
70
0
0
BLOCK_RECORD
5
142
100
AcDbSymbolTableRecord
100
AcDbBlockTableRecord
2
_U0
340
0
70
0
0
BLOCK_RECORD
5
14E
100
AcDbSymbolTableRecord
100
AcDbBlockTableRecord
2
*D3
340
0
70
0
0
BLOCK_RECORD
5
15A
100
AcDbSymbolTableRecord
100
AcDbBlockTableRecord
2
_U1
340
0
70
0
0
BLOCK_RECORD
5
166
100
AcDbSymbolTableRecord
100
AcDbBlockTableRecord
2
*D5
340
0
70
0
0
BLOCK_RECORD
5
172
100
AcDbSymbolTableRecord
100
AcDbBlockTableRecord
2
_U2
340
0
70
0
0
BLOCK_RECORD
5
180
100
AcDbSymbolTableRecord
100
AcDbBlockTableRecord
2
*D7
340
0
70
0
0
BLOCK_RECORD
5
18C
100
AcDbSymbolTableRecord
100
AcDbBlockTableRecord
2
_U3
340
0
70
0
0
BLOCK_RECORD
5
198
100
AcDbSymbolTableRecord
100
AcDbBlockTableRecord
2
*D9
340
0
70
0
0
BLOCK_RECORD
5
1A4
100
AcDbSymbolTableRecord
100
AcDbBlockTableRecord
2
_U4
340
0
70
0
0
ENDTAB
0
ENDSEC
0
SECTION
2
BLOCKS
0
BLOCK
5
20
100
AcDbEntity
8
0
100
AcDbBlockBegin
2
*Model_Space
70
0
10
0
20
0
30
0
3
*Model_Space
0
ENDBLK
5
21
100
AcDbEntity
8
0
100
AcDbBlockEnd
0
BLOCK
5
1C
100
AcDbEntity
8
0
100
AcDbBlockBegin
2
*Paper_Space
70
0
10
0
20
0
30
0
3
*Paper_Space
0
ENDBLK
5
1D
100
AcDbEntity
8
0
100
AcDbBlockEnd
0
BLOCK
5
24
100
AcDbEntity
8
0
100
AcDbBlockBegin
2
*Paper_Space0
70
0
10
0
20
0
30
0
3
*Paper_Space0
0
ENDBLK
5
25
100
AcDbEntity
8
0
100
AcDbBlockEnd
0
BLOCK
5
137
100
AcDbEntity
8
0
100
AcDbBlockBegin
2
*D1
70
1
10
0
20
0
30
0
3
*D1
0
LINE
5
139
100
AcDbEntity
8
0
62
256
6
ByLayer
370
-2
48
1
60
0
100
AcDbLine
10
-36
20
-4.5875
30
0
11
-36
21
-58.767949
31
0
39
0
210
0
220
0
230
1
0
LINE
5
13A
100
AcDbEntity
8
0
62
256
6
ByLayer
370
-2
48
1
60
0
100
AcDbLine
10
30
20
-3.1375
30
0
11
30
21
-58.767949
31
0
39
0
210
0
220
0
230
1
0
LINE
5
13B
100
AcDbEntity
8
0
62
256
6
ByLayer
370
-2
48
1
60
0
100
AcDbLine
10
-32.5
20
-56.767949
30
0
11
26.5
21
-56.767949
31
0
39
0
210
0
220
0
230
1
0
SOLID
5
13C
100
AcDbEntity
8
0
62
256
6
ByLayer
370
-1
48
1
60
0
100
AcDbTrace
10
-32.5
20
-56.184616
30
0
11
-32.5
21
-57.351282
31
0
12
-36
22
-56.767949
32
0
13
-36
23
-56.767949
33
0
39
0
210
0
220
0
230
1
0
SOLID
5
13D
100
AcDbEntity
8
0
62
256
6
ByLayer
370
-1
48
1
60
0
100
AcDbTrace
10
26.5
20
-57.351282
30
0
11
26.5
21
-56.184616
31
0
12
30
22
-56.767949
32
0
13
30
23
-56.767949
33
0
39
0
210
0
220
0
230
1
0
MTEXT
5
13E
100
AcDbEntity
8
0
62
256
6
ByLayer
370
18
48
1
60
0
100
AcDbMText
10
-3
20
-49.767949
30
0
210
0
220
0
230
1
1
\A1;66
40
3.5
41
0
44
1
50
0
71
5
72
5
7
iso_b_vert
0
POINT
5
13F
100
AcDbEntity
8
Defpoints
62
0
6
ByLayer
370
-1
48
1
60
0
100
AcDbPoint
10
-36
20
-3
30
0
39
0
210
0
220
0
230
1
50
360
0
POINT
5
140
100
AcDbEntity
8
Defpoints
62
0
6
ByLayer
370
-1
48
1
60
0
100
AcDbPoint
10
30
20
-1.55
30
0
39
0
210
0
220
0
230
1
50
360
0
POINT
5
141
100
AcDbEntity
8
Defpoints
62
0
6
ByLayer
370
-1
48
1
60
0
100
AcDbPoint
10
30
20
-56.767949
30
0
39
0
210
0
220
0
230
1
50
360
0
ENDBLK
5
138
100
AcDbEntity
8
0
100
AcDbBlockEnd
0
BLOCK
5
149
100
AcDbEntity
8
0
100
AcDbBlockBegin
2
_U0
70
0
10
0
20
0
30
0
3
_U0
0
MTEXT
5
143
100
AcDbEntity
8
2
62
256
6
ByLayer
370
18
48
1
60
0
100
AcDbMText
10
-4.904966
20
-55.735316
30
0
210
0
220
0
230
1
1
\W0.6740;66
40
3.5
41
0
44
1.084337
50
0
71
7
72
5
7
iso_b_vert
0
LINE
5
144
100
AcDbEntity
8
2
62
256
6
ByLayer
370
13
48
1
60
0
100
AcDbLine
10
-36
20
-4.5875
30
0
11
-36
21
-58.767949
31
0
39
0
210
0
220
0
230
1
0
LINE
5
145
100
AcDbEntity
8
2
62
256
6
ByLayer
370
13
48
1
60
0
100
AcDbLine
10
30
20
-3.1375
30
0
11
30
21
-58.767949
31
0
39
0
210
0
220
0
230
1
0
LINE
5
146
100
AcDbEntity
8
2
62
256
6
ByLayer
370
13
48
1
60
0
100
AcDbLine
10
-36
20
-56.767949
30
0
11
30
21
-56.767949
31
0
39
0
210
0
220
0
230
1
0
SOLID
5
147
100
AcDbEntity
8
2
62
256
6
ByLayer
370
18
48
1
60
0
100
AcDbTrace
10
-36
20
-56.767949
30
0
11
-32.500002
21
-56.307165
31
0
12
-32.499998
22
-57.228733
32
0
13
-32.499998
23
-57.228733
33
0
39
0
210
0
220
0
230
1
0
SOLID
5
148
100
AcDbEntity
8
2
62
256
6
ByLayer
370
18
48
1
60
0
100
AcDbTrace
10
30
20
-56.767949
30
0
11
26.500002
21
-57.228733
31
0
12
26.499998
22
-56.307165
32
0
13
26.499998
23
-56.307165
33
0
39
0
210
0
220
0
230
1
0
ENDBLK
5
14A
100
AcDbEntity
8
0
100
AcDbBlockEnd
0
BLOCK
5
14F
100
AcDbEntity
8
0
100
AcDbBlockBegin
2
*D3
70
1
10
0
20
0
30
0
3
*D3
0
LINE
5
151
100
AcDbEntity
8
0
62
256
6
ByLayer
370
-2
48
1
60
0
100
AcDbLine
10
30
20
-3.1375
30
0
11
30
21
-38.767949
31
0
39
0
210
0
220
0
230
1
0
LINE
5
152
100
AcDbEntity
8
0
62
256
6
ByLayer
370
-2
48
1
60
0
100
AcDbLine
10
2
20
-3.1375
30
0
11
2
21
-38.767949
31
0
39
0
210
0
220
0
230
1
0
LINE
5
153
100
AcDbEntity
8
0
62
256
6
ByLayer
370
-2
48
1
60
0
100
AcDbLine
10
26.5
20
-36.767949
30
0
11
5.5
21
-36.767949
31
0
39
0
210
0
220
0
230
1
0
SOLID
5
154
100
AcDbEntity
8
0
62
256
6
ByLayer
370
-1
48
1
60
0
100
AcDbTrace
10
26.5
20
-37.351282
30
0
11
26.5
21
-36.184616
31
0
12
30
22
-36.767949
32
0
13
30
23
-36.767949
33
0
39
0
210
0
220
0
230
1
0
SOLID
5
155
100
AcDbEntity
8
0
62
256
6
ByLayer
370
-1
48
1
60
0
100
AcDbTrace
10
5.5
20
-36.184616
30
0
11
5.5
21
-37.351282
31
0
12
2
22
-36.767949
32
0
13
2
23
-36.767949
33
0
39
0
210
0
220
0
230
1
0
MTEXT
5
156
100
AcDbEntity
8
0
62
256
6
ByLayer
370
18
48
1
60
0
100
AcDbMText
10
16
20
-29.767949
30
0
210
0
220
0
230
1
1
\A1;28
40
3.5
41
0
44
1
50
0
71
5
72
5
7
iso_b_vert
0
POINT
5
157
100
AcDbEntity
8
Defpoints
62
0
6
ByLayer
370
-1
48
1
60
0
100
AcDbPoint
10
30
20
-1.55
30
0
39
0
210
0
220
0
230
1
50
360
0
POINT
5
158
100
AcDbEntity
8
Defpoints
62
0
6
ByLayer
370
-1
48
1
60
0
100
AcDbPoint
10
2
20
-1.55
30
0
39
0
210
0
220
0
230
1
50
360
0
POINT
5
159
100
AcDbEntity
8
Defpoints
62
0
6
ByLayer
370
-1
48
1
60
0
100
AcDbPoint
10
2
20
-36.767949
30
0
39
0
210
0
220
0
230
1
50
360
0
ENDBLK
5
150
100
AcDbEntity
8
0
100
AcDbBlockEnd
0
BLOCK
5
161
100
AcDbEntity
8
0
100
AcDbBlockBegin
2
_U1
70
0
10
0
20
0
30
0
3
_U1
0
MTEXT
5
15B
100
AcDbEntity
8
SK2
62
256
6
ByLayer
370
18
48
1
60
0
100
AcDbMText
10
14.095034
20
-35.735316
30
0
210
0
220
0
230
1
1
\W0.6740;28
40
3.5
41
0
44
1.084337
50
0
71
7
72
5
7
iso_b_vert
0
LINE
5
15C
100
AcDbEntity
8
SK2
62
256
6
ByLayer
370
13
48
1
60
0
100
AcDbLine
10
30
20
-3.1375
30
0
11
30
21
-38.767949
31
0
39
0
210
0
220
0
230
1
0
LINE
5
15D
100
AcDbEntity
8
SK2
62
256
6
ByLayer
370
13
48
1
60
0
100
AcDbLine
10
2
20
-3.1375
30
0
11
2
21
-38.767949
31
0
39
0
210
0
220
0
230
1
0
LINE
5
15E
100
AcDbEntity
8
SK2
62
256
6
ByLayer
370
13
48
1
60
0
100
AcDbLine
10
30
20
-36.767949
30
0
11
2
21
-36.767949
31
0
39
0
210
0
220
0
230
1
0
SOLID
5
15F
100
AcDbEntity
8
SK2
62
256
6
ByLayer
370
18
48
1
60
0
100
AcDbTrace
10
30
20
-36.767949
30
0
11
26.500002
21
-37.228733
31
0
12
26.499998
22
-36.307165
32
0
13
26.499998
23
-36.307165
33
0
39
0
210
0
220
0
230
1
0
SOLID
5
160
100
AcDbEntity
8
SK2
62
256
6
ByLayer
370
18
48
1
60
0
100
AcDbTrace
10
2
20
-36.767949
30
0
11
5.499998
21
-36.307165
31
0
12
5.500002
22
-37.228733
32
0
13
5.500002
23
-37.228733
33
0
39
0
210
0
220
0
230
1
0
ENDBLK
5
162
100
AcDbEntity
8
0
100
AcDbBlockEnd
0
BLOCK
5
167
100
AcDbEntity
8
0
100
AcDbBlockBegin
2
*D5
70
1
10
0
20
0
30
0
3
*D5
0
LINE
5
169
100
AcDbEntity
8
0
62
256
6
ByLayer
370
-2
48
1
60
0
100
AcDbLine
10
30
20
-3.1375
30
0
11
30
21
-28.767949
31
0
39
0
210
0
220
0
230
1
0
LINE
5
16A
100
AcDbEntity
8
0
62
256
6
ByLayer
370
-2
48
1
60
0
100
AcDbLine
10
11
20
-3.1375
30
0
11
11
21
-28.767949
31
0
39
0
210
0
220
0
230
1
0
LINE
5
16B
100
AcDbEntity
8
0
62
256
6
ByLayer
370
-2
48
1
60
0
100
AcDbLine
10
26.5
20
-26.767949
30
0
11
14.5
21
-26.767949
31
0
39
0
210
0
220
0
230
1
0
SOLID
5
16C
100
AcDbEntity
8
0
62
256
6
ByLayer
370
-1
48
1
60
0
100
AcDbTrace
10
26.5
20
-27.351282
30
0
11
26.5
21
-26.184616
31
0
12
30
22
-26.767949
32
0
13
30
23
-26.767949
33
0
39
0
210
0
220
0
230
1
0
SOLID
5
16D
100
AcDbEntity
8
0
62
256
6
ByLayer
370
-1
48
1
60
0
100
AcDbTrace
10
14.5
20
-26.184616
30
0
11
14.5
21
-27.351282
31
0
12
11
22
-26.767949
32
0
13
11
23
-26.767949
33
0
39
0
210
0
220
0
230
1
0
MTEXT
5
16E
100
AcDbEntity
8
0
62
256
6
ByLayer
370
18
48
1
60
0
100
AcDbMText
10
20.5
20
-19.767949
30
0
210
0
220
0
230
1
1
\A1;19
40
3.5
41
0
44
1
50
0
71
5
72
5
7
iso_b_vert
0
POINT
5
16F
100
AcDbEntity
8
Defpoints
62
0
6
ByLayer
370
-1
48
1
60
0
100
AcDbPoint
10
30
20
-1.55
30
0
39
0
210
0
220
0
230
1
50
360
0
POINT
5
170
100
AcDbEntity
8
Defpoints
62
0
6
ByLayer
370
-1
48
1
60
0
100
AcDbPoint
10
11
20
-1.55
30
0
39
0
210
0
220
0
230
1
50
360
0
POINT
5
171
100
AcDbEntity
8
Defpoints
62
0
6
ByLayer
370
-1
48
1
60
0
100
AcDbPoint
10
11
20
-26.767949
30
0
39
0
210
0
220
0
230
1
50
360
0
ENDBLK
5
168
100
AcDbEntity
8
0
100
AcDbBlockEnd
0
BLOCK
5
17B
100
AcDbEntity
8
0
100
AcDbBlockBegin
2
_U2
70
0
10
0
20
0
30
0
3
_U2
0
MTEXT
5
173
100
AcDbEntity
8
SK2
62
256
6
ByLayer
370
18
48
1
60
0
100
AcDbMText
10
19.032467
20
-25.735316
30
0
210
0
220
0
230
1
1
\W0.5469;19
40
3.5
41
0
44
1.084337
50
0
71
7
72
5
7
iso_b_vert
0
MTEXT
5
174
100
AcDbEntity
8
SK2
62
256
6
ByLayer
370
18
48
1
60
0
100
AcDbMText
10
15.164468
20
-25.735316
30
0
210
0
220
0
230
1
1
\W0.1790;(
40
3.5
41
0
44
1.084337
50
0
71
7
72
5
7
iso_b_vert
0
MTEXT
5
175
100
AcDbEntity
8
SK2
62
256
6
ByLayer
370
18
48
1
60
0
100
AcDbMText
10
25.838533
20
-25.735316
30
0
210
0
220
0
230
1
1
\W0.1969;)
40
3.5
41
0
44
1.084337
50
0
71
7
72
5
7
iso_b_vert
0
LINE
5
176
100
AcDbEntity
8
SK2
62
256
6
ByLayer
370
13
48
1
60
0
100
AcDbLine
10
30
20
-3.1375
30
0
11
30
21
-28.767949
31
0
39
0
210
0
220
0
230
1
0
LINE
5
177
100
AcDbEntity
8
SK2
62
256
6
ByLayer
370
13
48
1
60
0
100
AcDbLine
10
11
20
-3.1375
30
0
11
11
21
-28.767949
31
0
39
0
210
0
220
0
230
1
0
LINE
5
178
100
AcDbEntity
8
SK2
62
256
6
ByLayer
370
13
48
1
60
0
100
AcDbLine
10
30
20
-26.767949
30
0
11
11
21
-26.767949
31
0
39
0
210
0
220
0
230
1
0
SOLID
5
179
100
AcDbEntity
8
SK2
62
256
6
ByLayer
370
18
48
1
60
0
100
AcDbTrace
10
30
20
-26.767949
30
0
11
26.500002
21
-27.228733
31
0
12
26.499998
22
-26.307165
32
0
13
26.499998
23
-26.307165
33
0
39
0
210
0
220
0
230
1
0
SOLID
5
17A
100
AcDbEntity
8
SK2
62
256
6
ByLayer
370
18
48
1
60
0
100
AcDbTrace
10
11
20
-26.767949
30
0
11
14.499998
21
-26.307165
31
0
12
14.500002
22
-27.228733
32
0
13
14.500002
23
-27.228733
33
0
39
0
210
0
220
0
230
1
0
ENDBLK
5
17C
100
AcDbEntity
8
0
100
AcDbBlockEnd
0
BLOCK
5
181
100
AcDbEntity
8
0
100
AcDbBlockBegin
2
*D7
70
1
10
0
20
0
30
0
3
*D7
0
LINE
5
183
100
AcDbEntity
8
0
62
256
6
ByLayer
370
-2
48
1
60
0
100
AcDbLine
10
-36
20
-4.5875
30
0
11
-36
21
-38.767949
31
0
39
0
210
0
220
0
230
1
0
LINE
5
184
100
AcDbEntity
8
0
62
256
6
ByLayer
370
-2
48
1
60
0
100
AcDbLine
10
0
20
-4.5875
30
0
11
0
21
-38.767949
31
0
39
0
210
0
220
0
230
1
0
LINE
5
185
100
AcDbEntity
8
0
62
256
6
ByLayer
370
-2
48
1
60
0
100
AcDbLine
10
-32.5
20
-36.767949
30
0
11
-3.5
21
-36.767949
31
0
39
0
210
0
220
0
230
1
0
SOLID
5
186
100
AcDbEntity
8
0
62
256
6
ByLayer
370
-1
48
1
60
0
100
AcDbTrace
10
-32.5
20
-36.184616
30
0
11
-32.5
21
-37.351282
31
0
12
-36
22
-36.767949
32
0
13
-36
23
-36.767949
33
0
39
0
210
0
220
0
230
1
0
SOLID
5
187
100
AcDbEntity
8
0
62
256
6
ByLayer
370
-1
48
1
60
0
100
AcDbTrace
10
-3.5
20
-37.351282
30
0
11
-3.5
21
-36.184616
31
0
12
0
22
-36.767949
32
0
13
0
23
-36.767949
33
0
39
0
210
0
220
0
230
1
0
MTEXT
5
188
100
AcDbEntity
8
0
62
256
6
ByLayer
370
18
48
1
60
0
100
AcDbMText
10
-18
20
-29.767949
30
0
210
0
220
0
230
1
1
\A1;36
40
3.5
41
0
44
1
50
0
71
5
72
5
7
iso_b_vert
0
POINT
5
189
100
AcDbEntity
8
Defpoints
62
0
6
ByLayer
370
-1
48
1
60
0
100
AcDbPoint
10
-36
20
-3
30
0
39
0
210
0
220
0
230
1
50
360
0
POINT
5
18A
100
AcDbEntity
8
Defpoints
62
0
6
ByLayer
370
-1
48
1
60
0
100
AcDbPoint
10
0
20
-3
30
0
39
0
210
0
220
0
230
1
50
360
0
POINT
5
18B
100
AcDbEntity
8
Defpoints
62
0
6
ByLayer
370
-1
48
1
60
0
100
AcDbPoint
10
0
20
-36.767949
30
0
39
0
210
0
220
0
230
1
50
360
0
ENDBLK
5
182
100
AcDbEntity
8
0
100
AcDbBlockEnd
0
BLOCK
5
193
100
AcDbEntity
8
0
100
AcDbBlockBegin
2
_U3
70
0
10
0
20
0
30
0
3
_U3
0
MTEXT
5
18D
100
AcDbEntity
8
SK2
62
256
6
ByLayer
370
18
48
1
60
0
100
AcDbMText
10
-19.904966
20
-35.735316
30
0
210
0
220
0
230
1
1
\W0.6740;36
40
3.5
41
0
44
1.084337
50
0
71
7
72
5
7
iso_b_vert
0
LINE
5
18E
100
AcDbEntity
8
SK2
62
256
6
ByLayer
370
13
48
1
60
0
100
AcDbLine
10
-36
20
-4.5875
30
0
11
-36
21
-38.767949
31
0
39
0
210
0
220
0
230
1
0
LINE
5
18F
100
AcDbEntity
8
SK2
62
256
6
ByLayer
370
13
48
1
60
0
100
AcDbLine
10
0
20
-4.5875
30
0
11
0
21
-38.767949
31
0
39
0
210
0
220
0
230
1
0
LINE
5
190
100
AcDbEntity
8
SK2
62
256
6
ByLayer
370
13
48
1
60
0
100
AcDbLine
10
-36
20
-36.767949
30
0
11
0
21
-36.767949
31
0
39
0
210
0
220
0
230
1
0
SOLID
5
191
100
AcDbEntity
8
SK2
62
256
6
ByLayer
370
18
48
1
60
0
100
AcDbTrace
10
-36
20
-36.767949
30
0
11
-32.500002
21
-36.307165
31
0
12
-32.499998
22
-37.228733
32
0
13
-32.499998
23
-37.228733
33
0
39
0
210
0
220
0
230
1
0
SOLID
5
192
100
AcDbEntity
8
SK2
62
256
6
ByLayer
370
18
48
1
60
0
100
AcDbTrace
10
0
20
-36.767949
30
0
11
-3.499998
21
-37.228733
31
0
12
-3.500002
22
-36.307165
32
0
13
-3.500002
23
-36.307165
33
0
39
0
210
0
220
0
230
1
0
ENDBLK
5
194
100
AcDbEntity
8
0
100
AcDbBlockEnd
0
BLOCK
5
199
100
AcDbEntity
8
0
100
AcDbBlockBegin
2
*D9
70
1
10
0
20
0
30
0
3
*D9
0
LINE
5
19B
100
AcDbEntity
8
0
62
256
6
ByLayer
370
-2
48
1
60
0
100
AcDbLine
10
0
20
-4.5875
30
0
11
0
21
-48.767949
31
0
39
0
210
0
220
0
230
1
0
LINE
5
19C
100
AcDbEntity
8
0
62
256
6
ByLayer
370
-2
48
1
60
0
100
AcDbLine
10
30
20
-3.1375
30
0
11
30
21
-48.767949
31
0
39
0
210
0
220
0
230
1
0
LINE
5
19D
100
AcDbEntity
8
0
62
256
6
ByLayer
370
-2
48
1
60
0
100
AcDbLine
10
3.5
20
-46.767949
30
0
11
26.5
21
-46.767949
31
0
39
0
210
0
220
0
230
1
0
SOLID
5
19E
100
AcDbEntity
8
0
62
256
6
ByLayer
370
-1
48
1
60
0
100
AcDbTrace
10
3.5
20
-46.184616
30
0
11
3.5
21
-47.351282
31
0
12
0
22
-46.767949
32
0
13
0
23
-46.767949
33
0
39
0
210
0
220
0
230
1
0
SOLID
5
19F
100
AcDbEntity
8
0
62
256
6
ByLayer
370
-1
48
1
60
0
100
AcDbTrace
10
26.5
20
-47.351282
30
0
11
26.5
21
-46.184616
31
0
12
30
22
-46.767949
32
0
13
30
23
-46.767949
33
0
39
0
210
0
220
0
230
1
0
MTEXT
5
1A0
100
AcDbEntity
8
0
62
256
6
ByLayer
370
18
48
1
60
0
100
AcDbMText
10
15
20
-39.767949
30
0
210
0
220
0
230
1
1
\A1;30
40
3.5
41
0
44
1
50
0
71
5
72
5
7
iso_b_vert
0
POINT
5
1A1
100
AcDbEntity
8
Defpoints
62
0
6
ByLayer
370
-1
48
1
60
0
100
AcDbPoint
10
0
20
-3
30
0
39
0
210
0
220
0
230
1
50
360
0
POINT
5
1A2
100
AcDbEntity
8
Defpoints
62
0
6
ByLayer
370
-1
48
1
60
0
100
AcDbPoint
10
30
20
-1.55
30
0
39
0
210
0
220
0
230
1
50
360
0
POINT
5
1A3
100
AcDbEntity
8
Defpoints
62
0
6
ByLayer
370
-1
48
1
60
0
100
AcDbPoint
10
30
20
-46.767949
30
0
39
0
210
0
220
0
230
1
50
360
0
ENDBLK
5
19A
100
AcDbEntity
8
0
100
AcDbBlockEnd
0
BLOCK
5
1AB
100
AcDbEntity
8
0
100
AcDbBlockBegin
2
_U4
70
0
10
0
20
0
30
0
3
_U4
0
MTEXT
5
1A5
100
AcDbEntity
8
SK2
62
256
6
ByLayer
370
18
48
1
60
0
100
AcDbMText
10
13.095034
20
-45.735316
30
0
210
0
220
0
230
1
1
\W0.6740;30
40
3.5
41
0
44
1.084337
50
0
71
7
72
5
7
iso_b_vert
0
LINE
5
1A6
100
AcDbEntity
8
SK2
62
256
6
ByLayer
370
13
48
1
60
0
100
AcDbLine
10
0
20
-4.5875
30
0
11
0
21
-48.767949
31
0
39
0
210
0
220
0
230
1
0
LINE
5
1A7
100
AcDbEntity
8
SK2
62
256
6
ByLayer
370
13
48
1
60
0
100
AcDbLine
10
30
20
-3.1375
30
0
11
30
21
-48.767949
31
0
39
0
210
0
220
0
230
1
0
LINE
5
1A8
100
AcDbEntity
8
SK2
62
256
6
ByLayer
370
13
48
1
60
0
100
AcDbLine
10
0
20
-46.767949
30
0
11
30
21
-46.767949
31
0
39
0
210
0
220
0
230
1
0
SOLID
5
1A9
100
AcDbEntity
8
SK2
62
256
6
ByLayer
370
18
48
1
60
0
100
AcDbTrace
10
0
20
-46.767949
30
0
11
3.499998
21
-46.307165
31
0
12
3.500002
22
-47.228733
32
0
13
3.500002
23
-47.228733
33
0
39
0
210
0
220
0
230
1
0
SOLID
5
1AA
100
AcDbEntity
8
SK2
62
256
6
ByLayer
370
18
48
1
60
0
100
AcDbTrace
10
30
20
-46.767949
30
0
11
26.500002
21
-47.228733
31
0
12
26.499998
22
-46.307165
32
0
13
26.499998
23
-46.307165
33
0
39
0
210
0
220
0
230
1
0
ENDBLK
5
1AC
100
AcDbEntity
8
0
100
AcDbBlockEnd
0
ENDSEC
0
SECTION
2
ENTITIES
0
ARC
5
C1
100
AcDbEntity
8
1
62
256
6
ByLayer
370
18
48
1
60
0
100
AcDbCircle
39
0
10
1.594527
20
2.332598
30
0
40
0.800000000000006
210
0
220
0
230
1
100
AcDbArc
50
185.11177
51
270.03581
0
ARC
5
C2
100
AcDbEntity
8
1
62
256
6
ByLayer
370
18
48
1
60
0
100
AcDbCircle
39
0
10
1.594527
20
-2.332598
30
0
40
0.800000000000006
210
0
220
0
230
1
100
AcDbArc
50
89.96419
51
174.88823
0
ARC
5
C3
100
AcDbEntity
8
1
62
256
6
ByLayer
370
18
48
1
60
0
100
AcDbCircle
39
0
10
0
20
2.2
30
0
40
0.800000000000006
210
0
220
0
230
1
100
AcDbArc
50
5.11177
51
90
0
ARC
5
C4
100
AcDbEntity
8
1
62
256
6
ByLayer
370
18
48
1
60
0
100
AcDbCircle
39
0
10
0
20
-2.2
30
0
40
0.800000000000006
210
0
220
0
230
1
100
AcDbArc
50
270
51
354.88823
0
ARC
5
C5
100
AcDbEntity
8
SK2
62
256
6
ByLayer
370
13
48
1
60
0
100
AcDbCircle
39
0
10
30
20
0
30
0
40
29.35
210
0
220
0
230
1
100
AcDbArc
50
6.357545
51
70.005022
0
ARC
5
C6
100
AcDbEntity
8
SK2
62
256
6
ByLayer
370
13
48
1
60
0
100
AcDbCircle
39
0
10
30
20
0
30
0
40
29.35
210
0
220
0
230
1
100
AcDbArc
50
289.994978
51
353.642455
0
ELLIPSE
5
C7
100
AcDbEntity
8
1
62
256
6
ByLayer
370
13
48
1
60
0
100
AcDbEllipse
10
3.677815
20
-1.532785
30
0
11
0.0547623579982271
21
-0.0836724814169749
31
0
210
0
220
0
230
1
40
0.301384
41
2.926638140003
42
-2.89691416117051
0
ELLIPSE
5
C8
100
AcDbEntity
8
1
62
256
6
ByLayer
370
18
48
1
60
0
100
AcDbEllipse
10
3.75
20
1.707233
30
0
11
-0.25
21
3.06151588455594E-17
31
0
210
0
220
0
230
1
40
1
41
0.801468169512173
42
1.58806451588372
0
ELLIPSE
5
C9
100
AcDbEntity
8
1
62
256
6
ByLayer
370
18
48
1
60
0
100
AcDbEllipse
10
3.75
20
-1.707233
30
0
11
-0.25
21
3.06151588455594E-17
31
0
210
0
220
0
230
1
40
1
41
-1.56015758899886
42
-0.790974614120977
0
POINT
5
70
100
AcDbEntity
8
80
62
256
6
ByLayer
370
18
48
1
60
0
100
AcDbPoint
10
0
20
0
30
0
39
0
210
0
220
0
230
1
50
360
0
POINT
5
72
100
AcDbEntity
8
81
62
256
6
ByLayer
370
18
48
1
60
0
100
AcDbPoint
10
30
20
0
30
0
39
0
210
0
220
0
230
1
50
360
0
POINT
5
74
100
AcDbEntity
8
1
62
256
6
ByLayer
370
18
48
1
60
0
100
AcDbPoint
10
-223
20
-200
30
0
39
0
210
0
220
0
230
1
50
360
0
POINT
5
76
100
AcDbEntity
8
1
62
256
6
ByLayer
370
13
48
1
60
1
100
AcDbPoint
10
-37.5
20
0
30
0
39
0
210
0
220
0
230
1
50
360
0
POINT
5
77
100
AcDbEntity
8
1
62
256
6
ByLayer
370
13
48
1
60
1
100
AcDbPoint
10
30.955755
20
0
30
0
39
0
210
0
220
0
230
1
50
360
0
POINT
5
78
100
AcDbEntity
8
1
62
256
6
ByLayer
370
18
48
1
60
1
100
AcDbPoint
10
-36
20
-3
30
0
39
0
210
0
220
0
230
1
50
360
0
POINT
5
79
100
AcDbEntity
8
1
62
256
6
ByLayer
370
18
48
1
60
1
100
AcDbPoint
10
30
20
-1.55
30
0
39
0
210
0
220
0
230
1
50
360
0
POINT
5
7A
100
AcDbEntity
8
1
62
256
6
ByLayer
370
18
48
1
60
1
100
AcDbPoint
10
30
20
-1.55
30
0
39
0
210
0
220
0
230
1
50
360
0
POINT
5
7B
100
AcDbEntity
8
1
62
256
6
ByLayer
370
18
48
1
60
1
100
AcDbPoint
10
2
20
-1.55
30
0
39
0
210
0
220
0
230
1
50
360
0
POINT
5
7C
100
AcDbEntity
8
1
62
256
6
ByLayer
370
18
48
1
60
1
100
AcDbPoint
10
30
20
-1.55
30
0
39
0
210
0
220
0
230
1
50
360
0
POINT
5
7D
100
AcDbEntity
8
1
62
256
6
ByLayer
370
18
48
1
60
1
100
AcDbPoint
10
11
20
-1.55
30
0
39
0
210
0
220
0
230
1
50
360
0
POINT
5
7E
100
AcDbEntity
8
1
62
256
6
ByLayer
370
18
48
1
60
1
100
AcDbPoint
10
-36
20
-3
30
0
39
0
210
0
220
0
230
1
50
360
0
POINT
5
7F
100
AcDbEntity
8
1
62
256
6
ByLayer
370
18
48
1
60
1
100
AcDbPoint
10
0
20
-3
30
0
39
0
210
0
220
0
230
1
50
360
0
POINT
5
80
100
AcDbEntity
8
1
62
256
6
ByLayer
370
18
48
1
60
1
100
AcDbPoint
10
0
20
-3
30
0
39
0
210
0
220
0
230
1
50
360
0
POINT
5
81
100
AcDbEntity
8
1
62
256
6
ByLayer
370
18
48
1
60
1
100
AcDbPoint
10
30
20
-1.55
30
0
39
0
210
0
220
0
230
1
50
360
0
SPLINE
5
CA
100
AcDbEntity
8
1
62
256
6
ByLayer
370
18
48
1
60
0
100
AcDbSpline
70
4
71
3
72
8
73
4
40
0
40
0
40
0
40
0
40
1
40
1
40
1
40
1
41
1
10
29.8490567754928
20
0.537724830244287
30
0
41
1
10
29.9000144902269
20
0.395665432451807
30
0
41
1
10
29.9495841358416
20
0.25310506701743
30
0
41
1
10
29.9977439238575
20
0.11003587026704
30
0
0
SPLINE
5
CB
100
AcDbEntity
8
1
62
256
6
ByLayer
370
18
48
1
60
0
100
AcDbSpline
70
2053
71
3
72
88
73
84
40
0
40
0
40
0
40
0
40
0.0312499999999865
40
0.0312499999999865
40
0.0624999999999731
40
0.0624999999999731
40
0.0937499999999596
40
0.0937499999999596
40
0.124999999999946
40
0.124999999999946
40
0.156249999999933
40
0.156249999999933
40
0.187499999999919
40
0.187499999999919
40
0.218749999999906
40
0.218749999999906
40
0.249999999999892
40
0.249999999999892
40
0.281249999999879
40
0.281249999999879
40
0.296874999999871
40
0.296874999999871
40
0.312499999999864
40
0.312499999999864
40
0.343749999999849
40
0.343749999999849
40
0.35937499999984
40
0.35937499999984
40
0.374999999999831
40
0.390624999999822
40
0.390624999999822
40
0.406249999999813
40
0.406249999999813
40
0.437499999999802
40
0.437499999999802
40
0.453124999999797
40
0.453124999999797
40
0.468749999999791
40
0.484374999999785
40
0.484374999999785
40
0.49999999999978
40
0.49999999999978
40
0.531249999999769
40
0.531249999999769
40
0.546874999999768
40
0.546874999999768
40
0.562499999999768
40
0.562499999999768
40
0.593749999999777
40
0.593749999999777
40
0.609374999999782
40
0.609374999999782
40
0.624999999999787
40
0.624999999999787
40
0.656249999999805
40
0.656249999999805
40
0.687499999999824
40
0.687499999999824
40
0.718749999999843
40
0.718749999999843
40
0.734374999999852
40
0.734374999999852
40
0.749999999999862
40
0.765624999999871
40
0.765624999999871
40
0.781249999999881
40
0.781249999999881
40
0.812499999999899
40
0.812499999999899
40
0.82812499999991
40
0.82812499999991
40
0.843749999999921
40
0.859374999999932
40
0.859374999999932
40
0.874999999999943
40
0.874999999999943
40
0.906249999999957
40
0.906249999999957
40
0.937499999999971
40
0.937499999999971
40
0.968749999999986
40
0.968749999999986
40
1
40
1
40
1
40
1
41
1
10
29.6038046687604
20
-0.720974216413258
30
0
41
1
10
29.5972793524024
20
-0.730378447821181
30
0
41
1
10
29.5909669351262
20
-0.738440217851149
30
0
41
1
10
29.5787004654976
20
-0.752065295870551
30
0
41
1
10
29.5727468483042
20
-0.757627164722834
30
0
41
1
10
29.5611429418125
20
-0.766160732425305
30
0
41
1
10
29.5556491315409
20
-0.769015375965949
30
0
41
1
10
29.5451864469277
20
-0.771981241716986
30
0
41
1
10
29.540215256971
20
-0.772094764136114
30
0
41
1
10
29.5307261420301
20
-0.769406436004971
30
0
41
1
10
29.5263375038473
20
-0.766638322429969
30
0
41
1
10
29.5181902038368
20
-0.758304688078027
30
0
41
1
10
29.5144274669423
20
-0.752739764352071
30
0
41
1
10
29.5074938758613
20
-0.738571186492806
30
0
41
1
10
29.5044161732875
20
-0.730146199094236
30
0
41
1
10
29.4990446974286
20
-0.71075441291444
30
0
41
1
10
29.4967397376414
20
-0.69977023391138
30
0
41
1
10
29.492967244654
20
-0.674926290184459
30
0
41
1
10
29.4915698783614
20
-0.661524393147999
30
0
41
1
10
29.4902467848539
20
-0.639949904413982
30
0
41
1
10
29.4899357740883
20
-0.632510492010397
30
0
41
1
10
29.4895985724514
20
-0.617107666173865
30
0
41
1
10
29.4895742221307
20
-0.609084845897314
30
0
41
1
10
29.4899743180343
20
-0.58475958674623
30
0
41
1
10
29.4908541121607
20
-0.568145745509639
30
0
41
1
10
29.4932232150991
20
-0.54261882275199
30
0
41
1
10
29.49419671589
20
-0.533955204007356
30
0
41
1
10
29.4965074402622
20
-0.516661579647973
30
0
41
1
10
29.4991573960026
20
-0.499551705329139
30
0
41
1
10
29.5025013984508
20
-0.482804614240592
30
0
41
1
10
29.5062105744095
20
-0.466242456518302
30
0
41
1
10
29.5082638863518
20
-0.457998455820615
30
0
41
1
10
29.5148772901248
20
-0.434038874804656
30
0
41
1
10
29.5198684592959
20
-0.41910143482653
30
0
41
1
10
29.528222940267
20
-0.398143885636102
30
0
41
1
10
29.5311621319886
20
-0.391388805527356
30
0
41
1
10
29.5371965066619
20
-0.378644398913082
30
0
41
1
10
29.5434162413996
20
-0.366584464559281
30
0
41
1
10
29.5499886602745
20
-0.355808755677003
30
0
41
1
10
29.5567311282489
20
-0.345651826627318
30
0
41
1
10
29.5601829727302
20
-0.340894032789976
30
0
41
1
10
29.5705937589645
20
-0.327750039224526
30
0
41
1
10
29.5776693257288
20
-0.320387551978797
30
0
41
1
10
29.5884383541335
20
-0.311245601412793
30
0
41
1
10
29.5920663162607
20
-0.308511099429779
30
0
41
1
10
29.5992672445306
20
-0.303734539638327
30
0
41
1
10
29.6028484149415
20
-0.301683211305118
30
0
41
1
10
29.61352522319
20
-0.296489421053622
30
0
41
1
10
29.6205550970782
20
-0.294299174243207
30
0
41
1
10
29.6309173946709
20
-0.29287924548359
30
0
41
1
10
29.6343464186368
20
-0.292721609750316
30
0
41
1
10
29.6410310718883
20
-0.293035902358071
30
0
41
1
10
29.6442994095913
20
-0.293504868075786
30
0
41
1
10
29.6538708361063
20
-0.29583491930336
30
0
41
1
10
29.6599427051149
20
-0.298610290082962
30
0
41
1
10
29.6713565406734
20
-0.306743426729838
30
0
41
1
10
29.6767162860843
20
-0.312155132871482
30
0
41
1
10
29.686181223367
20
-0.325449386420217
30
0
41
1
10
29.6903386059008
20
-0.333348673819899
30
0
41
1
10
29.6955611071849
20
-0.347327754081135
30
0
41
1
10
29.6971377603323
20
-0.352375078216483
30
0
41
1
10
29.699858270757
20
-0.363045633517714
30
0
41
1
10
29.7021594713419
20
-0.374312190278516
30
0
41
1
10
29.7035874814956
20
-0.386820122706496
30
0
41
1
10
29.7045490074661
20
-0.399996137974796
30
0
41
1
10
29.704794833668
20
-0.406970385216738
30
0
41
1
10
29.7047751593129
20
-0.428456580792897
30
0
41
1
10
29.7037789111926
20
-0.44358350141772
30
0
41
1
10
29.7008026740143
20
-0.467550479015415
30
0
41
1
10
29.6995488672803
20
-0.47582120099861
30
0
41
1
10
29.696601983388
20
-0.492405360153754
30
0
41
1
10
29.6932233310206
20
-0.509044755724432
30
0
41
1
10
29.6890414282858
20
-0.525798959877676
30
0
41
1
10
29.6844748285966
20
-0.542614837037604
30
0
41
1
10
29.6819955631925
20
-0.551055472775744
30
0
41
1
10
29.6742138156758
20
-0.575816225663971
30
0
41
1
10
29.6685129104192
20
-0.591810609687286
30
0
41
1
10
29.656258783969
20
-0.622869520766869
30
0
41
1
10
29.6499058632479
20
-0.637428627100547
30
0
41
1
10
29.6368792505906
20
-0.664833584124864
30
0
41
1
10
29.6301659314358
20
-0.677727758090441
30
0
41
1
10
29.6169274196124
20
-0.701021266363028
30
0
41
1
10
29.6103299851185
20
-0.711569985005326
30
0
41
1
10
29.6038046687604
20
-0.720974216413258
30
0
0
SPLINE
5
CC
100
AcDbEntity
8
1
62
256
6
ByLayer
370
18
48
1
60
0
100
AcDbSpline
70
4
71
3
72
8
73
4
40
0
40
0
40
0
40
0
40
1
40
1
40
1
40
1
41
1
10
29.8490567754928
20
-0.537724830244287
30
0
41
1
10
29.9000144902267
20
-0.395665432452432
30
0
41
1
10
29.9495841358412
20
-0.253105067018652
30
0
41
1
10
29.9977439238569
20
-0.110035870268888
30
0
0
SPLINE
5
CD
100
AcDbEntity
8
1
62
256
6
ByLayer
370
18
48
1
60
0
100
AcDbSpline
70
4
71
3
72
10
73
6
40
0
40
0
40
0
40
0
40
0.5
40
0.5
40
1
40
1
40
1
40
1
41
1
10
29.9977439238504
20
0.110035870273123
30
0
41
1
10
29.9992424506642
20
0.0734919570764703
30
0
41
1
10
29.9999985887667
20
0.0368481916067935
30
0
41
1
10
30.0000014072898
20
-0.0366423634063153
30
0
41
1
10
29.999245288571
20
-0.0734227502934459
30
0
41
1
10
29.9977439238503
20
-0.110035870274402
30
0
0
SPLINE
5
CE
100
AcDbEntity
8
1
62
256
6
ByLayer
370
18
48
1
60
0
100
AcDbSpline
70
4
71
3
72
8
73
4
40
0
40
0
40
0
40
0
40
1
40
1
40
1
40
1
41
1
10
29.997743923844
20
0.110035870271389
30
0
41
1
10
29.9892641429526
20
0.0813600388507325
30
0
41
1
10
29.9807317874262
20
0.0527012828242732
30
0
41
1
10
29.9721471051434
20
0.0240595216849613
30
0
0
SPLINE
5
CF
100
AcDbEntity
8
1
62
256
6
ByLayer
370
18
48
1
60
0
100
AcDbSpline
70
4
71
3
72
27
73
23
40
0
40
0
40
0
40
0
40
0.161593404579692
40
0.161593404579692
40
0.201991755724623
40
0.201991755724623
40
0.242390106869555
40
0.242390106869555
40
0.323186809159418
40
0.403983511449281
40
0.403983511449281
40
0.484780213739143
40
0.484780213739143
40
0.646373618318869
40
0.646373618318869
40
0.807967022898595
40
0.807967022898595
40
0.888763725188458
40
0.888763725188458
40
0.969560427478321
40
0.969560427478321
40
1
40
1
40
1
40
1
41
1
10
29.9721471051434
20
0.0240595216849613
30
0
41
1
10
29.9651115688538
20
0.0005863000495197
30
0
41
1
10
29.9570654193605
20
-0.0223835315890142
30
0
41
1
10
29.9456953428651
20
-0.0504228043681394
30
0
41
1
10
29.9433549399876
20
-0.0559966111161714
30
0
41
1
10
29.9385365181301
20
-0.0670731561878881
30
0
41
1
10
29.9360494537855
20
-0.0725944391147095
30
0
41
1
10
29.9284790356932
20
-0.0888202789762147
30
0
41
1
10
29.9180567408918
20
-0.109654801520776
30
0
41
1
10
29.9069957874572
20
-0.128854182537481
30
0
41
1
10
29.8956044649019
20
-0.147177672345805
30
0
41
1
10
29.8896857261282
20
-0.155973731113221
30
0
41
1
10
29.8720069457044
20
-0.180057783659208
30
0
41
1
10
29.8602377987499
20
-0.193286007269393
30
0
41
1
10
29.8366652469051
20
-0.213773496429212
30
0
41
1
10
29.8255162037536
20
-0.220459478239064
30
0
41
1
10
29.8095298257554
20
-0.225541826184184
30
0
41
1
10
29.8043790599597
20
-0.22637445983807
30
0
41
1
10
29.7945562391408
20
-0.226422470393828
30
0
41
1
10
29.7898536946323
20
-0.225647491016957
30
0
41
1
10
29.7836271779601
20
-0.223545290914359
30
0
41
1
10
29.7819484824797
20
-0.222861181597608
30
0
41
1
10
29.7802992382214
20
-0.222075059846162
30
0
0
SPLINE
5
D0
100
AcDbEntity
8
1
62
256
6
ByLayer
370
18
48
1
60
0
100
AcDbSpline
70
4
71
3
72
11
73
7
40
0
40
0
40
0
40
0
40
0.0133141075896964
40
0.506657053794847
40
0.506657053794847
40
1
40
1
40
1
40
1
41
1
10
29.7610531305392
20
-0.20702653385186
30
0
41
1
10
29.7609537988172
20
-0.206915002917071
30
0
41
1
10
29.7571791369709
20
-0.202654521421806
30
0
41
1
10
29.7536060067089
20
-0.197776765305775
30
0
41
1
10
29.7469807699106
20
-0.187181714083607
30
0
41
1
10
29.7438302109963
20
-0.181322604853079
30
0
41
1
10
29.7408590448631
20
-0.175008989480773
30
0
0
SPLINE
5
D1
100
AcDbEntity
8
1
62
256
6
ByLayer
370
18
48
1
60
0
100
AcDbSpline
70
4
71
3
72
8
73
4
40
0
40
0
40
0
40
0
40
1
40
1
40
1
40
1
41
1
10
29.7408590448631
20
-0.175008989480801
30
0
41
1
10
29.6986549815536
20
-0.0853269552418396
30
0
41
1
10
29.65028009586
20
0.0092527445969779
30
0
41
1
10
29.5954882045436
20
0.108925501039153
30
0
0
SPLINE
5
D2
100
AcDbEntity
8
1
62
256
6
ByLayer
370
18
48
1
60
0
100
AcDbSpline
70
4
71
3
72
18
73
14
40
0
40
0
40
0
40
0
40
0.500000000000118
40
0.750000000000177
40
0.750000000000177
40
0.875000000000146
40
0.875000000000146
40
0.937500000000133
40
0.968750000000124
40
0.98437500000006
40
0.99218750000003
40
0.99218750000003
40
1
40
1
40
1
40
1
41
1
10
29.4379254292027
20
-1.54987307477211
30
0
41
1
10
29.4441869023013
20
-1.53641339843577
30
0
41
1
10
29.4537654771871
20
-1.51621723220015
30
0
41
1
10
29.4636217322112
20
-1.49600157757717
30
0
41
1
10
29.4685959808527
20
-1.48588971461965
30
0
41
1
10
29.4702614802127
20
-1.48251958718848
30
0
41
1
10
29.4727727020806
20
-1.47745690357419
30
0
41
1
10
29.4740316250206
20
-1.4749234112833
30
0
41
1
10
29.475506772895
20
-1.47196128909465
30
0
41
1
10
29.4762460124432
20
-1.47047833354634
30
0
41
1
10
29.4765631938352
20
-1.46984234213014
30
0
41
1
10
29.4767747298316
20
-1.46941824680681
30
0
41
1
10
29.4768924091565
20
-1.46917494596409
30
0
41
1
10
29.4769576626878
20
-1.46909728450575
30
0
0
SPLINE
5
D3
100
AcDbEntity
8
1
62
256
6
ByLayer
370
18
48
1
60
0
100
AcDbSpline
70
4
71
3
72
18
73
14
40
0
40
0
40
0
40
0
40
0.500000000000004
40
0.750000000000064
40
0.750000000000064
40
0.875000000000094
40
0.875000000000094
40
0.937500000000108
40
0.968750000000114
40
0.984375000000055
40
0.992187500000028
40
0.992187500000028
40
1
40
1
40
1
40
1
41
1
10
29.4379254292028
20
1.549873074772
30
0
41
1
10
29.4441869023013
20
1.53641339843574
30
0
41
1
10
29.453765477187
20
1.51621723220018
30
0
41
1
10
29.4636217322111
20
1.49600157757735
30
0
41
1
10
29.4685959808527
20
1.48588971461984
30
0
41
1
10
29.4702614802126
20
1.4825195871887
30
0
41
1
10
29.4727727020805
20
1.47745690357445
30
0
41
1
10
29.4740316250205
20
1.47492341128358
30
0
41
1
10
29.4755067728949
20
1.47196128909493
30
0
41
1
10
29.476246012443
20
1.47047833354662
30
0
41
1
10
29.476563193835
20
1.46984234213042
30
0
41
1
10
29.4767747298314
20
1.46941824680712
30
0
41
1
10
29.4768924091564
20
1.4691749459644
30
0
41
1
10
29.4769576626877
20
1.46909728450586
30
0
0
SPLINE
5
D4
100
AcDbEntity
8
1
62
256
6
ByLayer
370
18
48
1
60
0
100
AcDbSpline
70
4
71
3
72
38
73
34
40
0
40
0
40
0
40
0
40
0.124999999999917
40
0.124999999999917
40
0.187499999999876
40
0.187499999999876
40
0.195312499999877
40
0.195312499999877
40
0.203124999999877
40
0.203124999999877
40
0.218749999999879
40
0.218749999999879
40
0.249999999999881
40
0.249999999999881
40
0.281249999999884
40
0.281249999999884
40
0.312499999999887
40
0.312499999999887
40
0.374999999999892
40
0.374999999999892
40
0.437499999999897
40
0.437499999999897
40
0.499999999999903
40
0.499999999999903
40
0.562499999999908
40
0.562499999999908
40
0.624999999999913
40
0.624999999999913
40
0.687499999999919
40
0.687499999999919
40
0.749999999999924
40
0.749999999999924
40
1
40
1
40
1
40
1
41
1
10
29.5954882045449
20
0.108925501042478
30
0
41
1
10
29.582561578218
20
0.115327069813048
30
0
41
1
10
29.569866572284
20
0.123117985381697
30
0
41
1
10
29.5510674609643
20
0.136834850579731
30
0
41
1
10
29.5448369903596
20
0.141737125631295
30
0
41
1
10
29.5378831190338
20
0.147617338259437
30
0
41
1
10
29.5370920461941
20
0.148209666129134
30
0
41
1
10
29.5356590489774
20
0.149916644705797
30
0
41
1
10
29.5349228699139
20
0.150704585068269
30
0
41
1
10
29.5326662200804
20
0.152908265209959
30
0
41
1
10
29.5310955682752
20
0.154172733321644
30
0
41
1
10
29.526292434073
20
0.157544855866774
30
0
41
1
10
29.5229851150261
20
0.159271578851332
30
0
41
1
10
29.5162822697741
20
0.162301732364682
30
0
41
1
10
29.5128681887347
20
0.163503296162503
30
0
41
1
10
29.5060272913035
20
0.16588321886789
30
0
41
1
10
29.5026216216697
20
0.167194630749236
30
0
41
1
10
29.4923590032047
20
0.170880498103571
30
0
41
1
10
29.4854541843596
20
0.172785481624032
30
0
41
1
10
29.4715641508487
20
0.175797872464187
30
0
41
1
10
29.4645754518165
20
0.176865007650463
30
0
41
1
10
29.4505240032292
20
0.177997198587036
30
0
41
1
10
29.4434612240917
20
0.178056386007341
30
0
41
1
10
29.4292924413675
20
0.177311751307798
30
0
41
1
10
29.4221875357673
20
0.176527930143209
30
0
41
1
10
29.4079605807432
20
0.174254644351009
30
0
41
1
10
29.400837106012
20
0.17272732338219
30
0
41
1
10
29.3866041979829
20
0.169360145363839
30
0
41
1
10
29.3794955957254
20
0.167566286925165
30
0
41
1
10
29.365375178538
20
0.163442499377879
30
0
41
1
10
29.3583599872536
20
0.161092756193057
30
0
41
1
10
29.3235243655586
20
0.148047166915603
30
0
41
1
10
29.2964079160767
20
0.13356389559209
30
0
41
1
10
29.2704982270578
20
0.114362168182509
30
0
0
SPLINE
5
D5
100
AcDbEntity
8
1
62
256
6
ByLayer
370
18
48
1
60
0
100
AcDbSpline
70
4
71
3
72
34
73
30
40
0
40
0
40
0
40
0
40
0.0020304953753937
40
0.0020304953753937
40
0.0733140314199945
40
0.0733140314199945
40
0.144597567464595
40
0.144597567464595
40
0.287164639553797
40
0.287164639553797
40
0.358448175598398
40
0.358448175598398
40
0.429731711642999
40
0.429731711642999
40
0.5010152476876
40
0.5010152476876
40
0.572298783732201
40
0.572298783732201
40
0.643582319776802
40
0.643582319776802
40
0.679224087799129
40
0.679224087799129
40
0.714865855821456
40
0.714865855821456
40
0.857432927910765
40
0.857432927910765
40
0.928716463955382
40
0.928716463955382
40
1
40
1
40
1
40
1
41
1
10
29.3851573585232
20
0.207893707715527
30
0
41
1
10
29.385042209812
20
0.208019736834558
30
0
41
1
10
29.3849275341237
20
0.20814593611118
30
0
41
1
10
29.3808040805187
20
0.212708736783185
30
0
41
1
10
29.3773774039096
20
0.21735983984982
30
0
41
1
10
29.3717312683048
20
0.227217125597349
30
0
41
1
10
29.369553917077
20
0.232359197935921
30
0
41
1
10
29.3649669174391
20
0.24838011014802
30
0
41
1
10
29.3644318237253
20
0.259912009817299
30
0
41
1
10
29.367646743018
20
0.278853967017142
30
0
41
1
10
29.369398223691
20
0.285395441617226
30
0
41
1
10
29.3742099387659
20
0.298650192297089
30
0
41
1
10
29.3772818135998
20
0.305397406136308
30
0
41
1
10
29.3847739625367
20
0.319151860739169
30
0
41
1
10
29.3891920971549
20
0.326160518774316
30
0
41
1
10
29.3994465085347
20
0.340474613519348
30
0
41
1
10
29.4051980622689
20
0.347664679941772
30
0
41
1
10
29.4178341482384
20
0.361889796321435
30
0
41
1
10
29.4247385172739
20
0.368951259430617
30
0
41
1
10
29.4360408288979
20
0.379399865090875
30
0
41
1
10
29.4399665080335
20
0.382858524218648
30
0
41
1
10
29.4481536439413
20
0.389712224509481
30
0
41
1
10
29.4524257792392
20
0.393113778855025
30
0
41
1
10
29.4742802578298
20
0.409622058801261
30
0
41
1
10
29.4935813182991
20
0.421498010364388
30
0
41
1
10
29.5255977955429
20
0.436478249399329
30
0
41
1
10
29.5366643470301
20
0.440924880106507
30
0
41
1
10
29.5591812042588
20
0.448512068023462
30
0
41
1
10
29.5706918711568
20
0.451681313247491
30
0
41
1
10
29.582451613913
20
0.454215724543133
30
0
0
SPLINE
5
D6
100
AcDbEntity
8
1
62
256
6
ByLayer
370
18
48
1
60
0
100
AcDbSpline
70
4
71
3
72
14
73
10
40
0
40
0
40
0
40
0
40
0.25
40
0.25
40
0.5
40
0.5
40
0.75
40
0.75
40
1
40
1
40
1
40
1
41
1
10
29.582451613913
20
0.454215724543104
30
0
41
1
10
29.6052692852713
20
0.459133295040175
30
0
41
1
10
29.6280064577825
20
0.464397436522773
30
0
41
1
10
29.6732934382314
20
0.475732378552493
30
0
41
1
10
29.6958393279193
20
0.481820048306332
30
0
41
1
10
29.7406207057566
20
0.495331756854284
30
0
41
1
10
29.7628333541816
20
0.502763378050247
30
0
41
1
10
29.80648842765
20
0.519070520868468
30
0
41
1
10
29.8279677911051
20
0.527976095043812
30
0
41
1
10
29.8490567754928
20
0.537724830244315
30
0
0
SPLINE
5
D7
100
AcDbEntity
8
1
62
256
6
ByLayer
370
18
48
1
60
0
100
AcDbSpline
70
4
71
3
72
23
73
19
40
0
40
0
40
0
40
0
40
0.249999999999988
40
0.249999999999988
40
0.374999999999983
40
0.43749999999998
40
0.43749999999998
40
0.499999999999977
40
0.499999999999977
40
0.562499999999974
40
0.562499999999974
40
0.624999999999971
40
0.624999999999971
40
0.749999999999981
40
0.749999999999981
40
0.874999999999991
40
0.874999999999991
40
1
40
1
40
1
40
1
41
1
10
29.4769576627001
20
1.46909728449762
30
0
41
1
10
29.5057487672071
20
1.39039180106198
30
0
41
1
10
29.5342763835064
20
1.31107317768888
30
0
41
1
10
29.5770597834393
20
1.1916714096968
30
0
41
1
10
29.5984381985074
20
1.13189497786138
30
0
41
1
10
29.6198454668584
20
1.07204167709807
30
0
41
1
10
29.6341247713277
20
1.03212548713401
30
0
41
1
10
29.6413417693673
20
1.01216109776252
30
0
41
1
10
29.6560078072505
20
0.97223421180027
30
0
41
1
10
29.6634679135447
20
0.952233333811705
30
0
41
1
10
29.6785635338426
20
0.912535818980075
30
0
41
1
10
29.6862047535267
20
0.892820765765919
30
0
41
1
10
29.7094672957941
20
0.834100777195601
30
0
41
1
10
29.725426706796
20
0.795518961997232
30
0
41
1
10
29.7585334960969
20
0.719596040970657
30
0
41
1
10
29.7756829223647
20
0.682256905085126
30
0
41
1
10
29.8113807514274
20
0.608863921004854
30
0
41
1
10
29.8300049766044
20
0.572654578251104
30
0
41
1
10
29.8490567754928
20
0.537724830244287
30
0
0
SPLINE
5
D8
100
AcDbEntity
8
1
62
256
6
ByLayer
370
18
48
1
60
0
100
AcDbSpline
70
4
71
3
72
28
73
24
40
0
40
0
40
0
40
0
40
0.0998302784217208
40
0.0998302784217208
40
0.199660556843442
40
0.199660556843442
40
0.299490835265162
40
0.299490835265162
40
0.399321113686883
40
0.399321113686883
40
0.499151392108604
40
0.499151392108604
40
0.598981670530325
40
0.598981670530325
40
0.698811948952045
40
0.698811948952045
40
0.798642227373766
40
0.798642227373766
40
0.898472505795487
40
0.898472505795487
40
0.998302784217208
40
0.998302784217208
40
1
40
1
40
1
40
1
41
1
10
29.4769576626689
20
1.46909728447702
30
0
41
1
10
29.3985749808682
20
1.47169832981885
30
0
41
1
10
29.320328708164
20
1.47273000105523
30
0
41
1
10
29.164251677479
20
1.47150623015111
30
0
41
1
10
29.0864475534977
20
1.46916925477871
30
0
41
1
10
28.9309672177442
20
1.46134595241205
30
0
41
1
10
28.8532963016474
20
1.45581489877779
30
0
41
1
10
28.6980763698972
20
1.4415259430844
30
0
41
1
10
28.6205103487547
20
1.43278852067817
30
0
41
1
10
28.4652891268505
20
1.41204380986062
30
0
41
1
10
28.3876353463417
20
1.40002991361965
30
0
41
1
10
28.2321359476196
20
1.37306715080601
30
0
41
1
10
28.1542917932765
20
1.35819272444076
30
0
41
1
10
27.998531527766
20
1.32527195204528
30
0
41
1
10
27.9205637934421
20
1.30727862882571
30
0
41
1
10
27.764224814781
20
1.26842951579152
30
0
41
1
10
27.6858840584723
20
1.24753096736572
30
0
41
1
10
27.5287627199219
20
1.2028605043129
30
0
41
1
10
27.4499892254803
20
1.17910489915704
30
0
41
1
10
27.2925333639549
20
1.12898395811223
30
0
41
1
10
27.2137664238676
20
1.10259927242336
30
0
41
1
10
27.1337112294071
20
1.074564180967
30
0
41
1
10
27.1323729905346
20
1.07409516728703
30
0
41
1
10
27.1310347798107
20
1.07362579768804
30
0
0
SPLINE
5
D9
100
AcDbEntity
8
1
62
256
6
ByLayer
370
18
48
1
60
0
100
AcDbSpline
70
4
71
3
72
32
73
28
40
0
40
0
40
0
40
0
40
0.0293436886992734
40
0.0293436886992734
40
0.104009558799331
40
0.104009558799331
40
0.178675428899388
40
0.178675428899388
40
0.253341298999446
40
0.253341298999446
40
0.402673039199561
40
0.402673039199561
40
0.477338909299616
40
0.477338909299616
40
0.552004779399671
40
0.552004779399671
40
0.626670649499726
40
0.626670649499726
40
0.70133651959978
40
0.70133651959978
40
0.776002389699835
40
0.776002389699835
40
0.85066825979989
40
0.85066825979989
40
0.925334129899945
40
0.925334129899945
40
1
40
1
40
1
40
1
41
1
10
17.6339800243913
20
-0.883003708936855
30
0
41
1
10
17.6033927533777
20
-0.870435022440006
30
0
41
1
10
17.5728215437597
20
-0.857724343706082
30
0
41
1
10
17.4645026643913
20
-0.812187967129915
30
0
41
1
10
17.3868189976572
20
-0.778624531509422
30
0
41
1
10
17.2315203458576
20
-0.709978339942666
30
0
41
1
10
17.1539622311418
20
-0.674787559047957
30
0
41
1
10
16.9989295398017
20
-0.602792862415242
30
0
41
1
10
16.921407495357
20
-0.566095929240532
30
0
41
1
10
16.6886228834971
20
-0.454254313625484
30
0
41
1
10
16.5332610487142
20
-0.377180476407346
30
0
41
1
10
16.2989865235614
20
-0.259386859402667
30
0
41
1
10
16.2206865291063
20
-0.219787697851501
30
0
41
1
10
16.063721502999
20
-0.139878371642112
30
0
41
1
10
15.9850033279406
20
-0.0994061011521978
30
0
41
1
10
15.8281030323732
20
-0.018676463924777
30
0
41
1
10
15.749794387227
20
0.0216245645002004
30
0
41
1
10
15.5934223330515
20
0.102043176593298
30
0
41
1
10
15.5153526577534
20
0.142149304241514
30
0
41
1
10
15.3592769513738
20
0.221782676970264
30
0
41
1
10
15.2812707592721
20
0.261307468344228
30
0
41
1
10
15.125212144014
20
0.339599694411078
30
0
41
1
10
15.047147715737
20
0.378356617153173
30
0
41
1
10
14.891093158593
20
0.455326302023281
30
0
41
1
10
14.8130590500872
20
0.493455537070929
30
0
41
1
10
14.6567165528637
20
0.568524741595496
30
0
41
1
10
14.5784322001658
20
0.605506892776788
30
0
41
1
10
14.5000000000017
20
0.641871131916986
30
0
0
SPLINE
5
DA
100
AcDbEntity
8
1
62
256
6
ByLayer
370
18
48
1
60
0
100
AcDbSpline
70
4
71
3
72
8
73
4
40
0
40
0
40
0
40
0
40
1
40
1
40
1
40
1
41
1
10
14.4999999999999
20
0.651824556505375
30
0
41
1
10
14.4999999999999
20
0.648960068827449
30
0
41
1
10
14.5
20
0.645642587117919
30
0
41
1
10
14.5
20
0.641871131917213
30
0
0
SPLINE
5
DB
100
AcDbEntity
8
1
62
256
6
ByLayer
370
18
48
1
60
0
100
AcDbSpline
70
4
71
3
72
19
73
15
40
0
40
0
40
0
40
0
40
0.124999999999988
40
0.124999999999988
40
0.249999999999977
40
0.374999999999965
40
0.374999999999965
40
0.499999999999954
40
0.499999999999954
40
0.624999999999942
40
0.624999999999942
40
0.749999999999931
40
0.749999999999931
40
1
40
1
40
1
40
1
41
1
10
3.57083286708436
20
-0.607854506345603
30
0
41
1
10
3.57672180907085
20
-0.603894992934755
30
0
41
1
10
3.58302838940477
20
-0.600401509000932
30
0
41
1
10
3.59637998804231
20
-0.594476665312044
30
0
41
1
10
3.610219240129
20
-0.589713038309554
30
0
41
1
10
3.62501308340069
20
-0.587117546882837
30
0
41
1
10
3.64028737128331
20
-0.585572960424742
30
0
41
1
10
3.64815751203128
20
-0.585336500488239
30
0
41
1
10
3.66391774794289
20
-0.585865105464762
30
0
41
1
10
3.67186457850036
20
-0.586622731516627
30
0
41
1
10
3.68788504629148
20
-0.589053066650251
30
0
41
1
10
3.69600050810618
20
-0.59073858518471
30
0
41
1
10
3.72013934669161
20
-0.59701445055893
30
0
41
1
10
3.73597975048679
20
-0.602788901552429
30
0
41
1
10
3.75157563877048
20
-0.609967691004641
30
0
0
SPLINE
5
DC
100
AcDbEntity
8
1
62
256
6
ByLayer
370
18
48
1
60
0
100
AcDbSpline
70
4
71
3
72
23
73
19
40
0
40
0
40
0
40
0
40
0.249999999999999
40
0.249999999999999
40
0.374999999999998
40
0.437499999999998
40
0.437499999999998
40
0.499999999999998
40
0.499999999999998
40
0.562499999999998
40
0.562499999999998
40
0.624999999999998
40
0.624999999999998
40
0.749999999999999
40
0.749999999999999
40
0.875
40
0.875
40
1
40
1
40
1
40
1
41
1
10
29.4769576626936
20
-1.4690972845155
30
0
41
1
10
29.5057487672011
20
-1.39039180107838
30
0
41
1
10
29.534276383501
20
-1.31107317770375
30
0
41
1
10
29.5770597834348
20
-1.19167140970936
30
0
41
1
10
29.5984381985033
20
-1.13189497787275
30
0
41
1
10
29.6198454668547
20
-1.07204167710825
30
0
41
1
10
29.6341247713243
20
-1.03212548714342
30
0
41
1
10
29.6413417693641
20
-1.0121610977715
30
0
41
1
10
29.6560078072475
20
-0.972234211808427
30
0
41
1
10
29.6634679135418
20
-0.952233333819464
30
0
41
1
10
29.6785635338398
20
-0.912535818987351
30
0
41
1
10
29.6862047535241
20
-0.892820765772939
30
0
41
1
10
29.7094672957916
20
-0.834100777201712
30
0
41
1
10
29.7254267067937
20
-0.79551896200266
30
0
41
1
10
29.7585334960951
20
-0.719596040974551
30
0
41
1
10
29.7756829223632
20
-0.682256905088195
30
0
41
1
10
29.8113807514267
20
-0.608863921006105
30
0
41
1
10
29.8300049766041
20
-0.572654578251587
30
0
41
1
10
29.8490567754928
20
-0.537724830244287
30
0
0
SPLINE
5
DD
100
AcDbEntity
8
1
62
256
6
ByLayer
370
18
48
1
60
0
100
AcDbSpline
70
4
71
3
72
84
73
80
40
0
40
0
40
0
40
0
40
0.0140402328039543
40
0.0140402328039543
40
0.0404317239203776
40
0.0404317239203776
40
0.0668232150368009
40
0.0668232150368009
40
0.0932147061532261
40
0.0932147061532261
40
0.119606197269651
40
0.119606197269651
40
0.145997688386076
40
0.145997688386076
40
0.172389179502501
40
0.172389179502501
40
0.198780670618927
40
0.198780670618927
40
0.225172161735352
40
0.225172161735352
40
0.251563652851777
40
0.251563652851777
40
0.277955143968202
40
0.277955143968202
40
0.304346635084627
40
0.304346635084627
40
0.330738126201052
40
0.330738126201052
40
0.357129617317478
40
0.357129617317478
40
0.409912599550328
40
0.409912599550328
40
0.436304090666752
40
0.436304090666752
40
0.462695581783176
40
0.462695581783176
40
0.489087072899601
40
0.489087072899601
40
0.515478564016025
40
0.515478564016025
40
0.541870055132449
40
0.541870055132449
40
0.568261546248873
40
0.568261546248873
40
0.594653037365298
40
0.594653037365298
40
0.621044528481722
40
0.621044528481722
40
0.647436019598146
40
0.647436019598146
40
0.67382751071457
40
0.67382751071457
40
0.700219001830994
40
0.700219001830994
40
0.726610492947419
40
0.726610492947419
40
0.753001984063843
40
0.753001984063843
40
0.766197729622054
40
0.766197729622054
40
0.779393475180265
40
0.779393475180265
40
0.80578496629669
40
0.80578496629669
40
0.832176457413114
40
0.832176457413114
40
0.858567948529538
40
0.858567948529538
40
0.884959439645962
40
0.884959439645962
40
0.911350930762387
40
0.911350930762387
40
0.937742421878811
40
0.937742421878811
40
0.964133912995235
40
0.964133912995235
40
0.990525404111659
40
0.990525404111659
40
1
40
1
40
1
40
1
41
1
10
27.0245868104211
20
-1.03552917327735
30
0
41
1
10
26.9827488515934
20
-1.02026117744515
30
0
41
1
10
26.9409276248073
20
-1.00465705357519
30
0
41
1
10
26.8205062349869
20
-0.958795915429022
30
0
41
1
10
26.7418725473858
20
-0.927716212773277
30
0
41
1
10
26.5845381572234
20
-0.863442018284758
30
0
41
1
10
26.5061292301634
20
-0.830371855910471
30
0
41
1
10
26.3496660982409
20
-0.762602102977183
30
0
41
1
10
26.2716096675591
20
-0.727899501938936
30
0
41
1
10
26.1157052284087
20
-0.657169132872866
30
0
41
1
10
26.0378255081723
20
-0.621222135349797
30
0
41
1
10
25.8823114521085
20
-0.548015008247575
30
0
41
1
10
25.8047125859551
20
-0.51064936954117
30
0
41
1
10
25.6495359319799
20
-0.434946732518824
30
0
41
1
10
25.5719539503087
20
-0.396618184953894
30
0
41
1
10
25.4167852559821
20
-0.31903348013455
30
0
41
1
10
25.3391802451227
20
-0.279819917474896
30
0
41
1
10
25.1837387194586
20
-0.200901328099775
30
0
41
1
10
25.1059047886482
20
-0.161188075184214
30
0
41
1
10
24.9499239612352
20
-0.0814834256025279
30
0
41
1
10
24.8717832307534
20
-0.041495450685801
30
0
41
1
10
24.7152918552231
20
0.0390560382045919
30
0
41
1
10
24.6368893623458
20
0.0794928237939132
30
0
41
1
10
24.4795453149045
20
0.160214336504225
30
0
41
1
10
24.4011148574603
20
0.200322076157733
30
0
41
1
10
24.2446392745015
20
0.279833516778467
30
0
41
1
10
24.1665815947045
20
0.319198976097056
30
0
41
1
10
24.0106955356148
20
0.396840302769675
30
0
41
1
10
23.9328629736471
20
0.4351159414054
30
0
41
1
10
23.6995583347433
20
0.548257964831635
30
0
41
1
10
23.5445334899697
20
0.621904508571902
30
0
41
1
10
23.3117071819912
20
0.727636150973524
30
0
41
1
10
23.2340922467878
20
0.762184896347208
30
0
41
1
10
23.0786671415379
20
0.829521116342107
30
0
41
1
10
23.0008505485876
20
0.862285213824862
30
0
41
1
10
22.844899426574
20
0.925859283461165
30
0
41
1
10
22.766749402062
20
0.95667120359542
30
0
41
1
10
22.6101897713099
20
1.01644152649388
30
0
41
1
10
22.5318034325638
20
1.04538281989949
30
0
41
1
10
22.3745178882214
20
1.1009699393706
30
0
41
1
10
22.2960505954883
20
1.1274373465501
30
0
41
1
10
22.1396067966825
20
1.1776915130192
30
0
41
1
10
22.0615844701882
20
1.20148431254594
30
0
41
1
10
21.9057736240977
20
1.24608875408961
30
0
41
1
10
21.8279877399138
20
1.26689495656603
30
0
41
1
10
21.6725284314239
20
1.30564905879052
30
0
41
1
10
21.5948484718941
20
1.32365604470866
30
0
41
1
10
21.4397374146769
20
1.35677737145403
30
0
41
1
10
21.362252282683
20
1.37186996802672
30
0
41
1
10
21.2071835927047
20
1.39897041600653
30
0
41
1
10
21.1296298116554
20
1.4109835159052
30
0
41
1
10
20.9743897867666
20
1.43195168476959
30
0
41
1
10
20.896685758683
20
1.44087351579199
30
0
41
1
10
20.7409549195309
20
1.45536717747848
30
0
41
1
10
20.6629287505827
20
1.46095107835527
30
0
41
1
10
20.5065001215295
20
1.46900164262604
30
0
41
1
10
20.4281543855912
20
1.47148258123079
30
0
41
1
10
20.310337731924
20
1.47271877342192
30
0
41
1
10
20.2709952297049
20
1.47272127230082
30
0
41
1
10
20.1924950482296
20
1.47189800770269
30
0
41
1
10
20.1532965805391
20
1.47106966400671
30
0
41
1
10
20.0358557384628
20
1.46735663696978
30
0
41
1
10
19.9577793257135
20
1.46326543481328
30
0
41
1
10
19.8018927225598
20
1.45181247017081
30
0
41
1
10
19.7240801375135
20
1.444420703021
30
0
41
1
10
19.5685868350096
20
1.42647141681849
30
0
41
1
10
19.4908847215201
20
1.41596821318115
30
0
41
1
10
19.3356340294426
20
1.39198737267526
30
0
41
1
10
19.2581318263878
20
1.37838475283209
30
0
41
1
10
19.103070646516
20
1.34822653325969
30
0
41
1
10
19.0255048589273
20
1.33166372639823
30
0
41
1
10
18.8702827333987
20
1.29559517424121
30
0
41
1
10
18.792617276429
20
1.2761100018617
30
0
41
1
10
18.636988869964
20
1.23421563564901
30
0
41
1
10
18.5590253149544
20
1.2117944652191
30
0
41
1
10
18.4027061735213
20
1.16424684153611
30
0
41
1
10
18.3243462937252
20
1.13917645535753
30
0
41
1
10
18.2176598487614
20
1.10322222873302
30
0
41
1
10
18.1894332855472
20
1.09354133641196
30
0
41
1
10
18.1612165350702
20
1.08370783637128
30
0
0
SPLINE
5
DE
100
AcDbEntity
8
1
62
256
6
ByLayer
370
18
48
1
60
0
100
AcDbSpline
70
4
71
3
72
56
73
52
40
0
40
0
40
0
40
0
40
0.075448924012549
40
0.075448924012549
40
0.150897848025098
40
0.150897848025098
40
0.188622310031373
40
0.188622310031373
40
0.226346772037647
40
0.226346772037647
40
0.264071234043922
40
0.264071234043922
40
0.301795696050196
40
0.301795696050196
40
0.339520158056471
40
0.339520158056471
40
0.377244620062745
40
0.377244620062745
40
0.41496908206902
40
0.41496908206902
40
0.452693544075294
40
0.452693544075294
40
0.490418006081569
40
0.490418006081569
40
0.528142468087844
40
0.528142468087844
40
0.565866930094118
40
0.565866930094118
40
0.603591392100393
40
0.603591392100393
40
0.62245362310353
40
0.62245362310353
40
0.641315854106667
40
0.641315854106667
40
0.679040316112942
40
0.679040316112942
40
0.716764778119216
40
0.716764778119216
40
0.754489240125491
40
0.754489240125491
40
0.792213702131765
40
0.792213702131765
40
0.82993816413804
40
0.82993816413804
40
0.905387088150592
40
0.905387088150592
40
0.943111550156867
40
0.943111550156867
40
0.980836012163141
40
0.980836012163141
40
1
40
1
40
1
40
1
41
1
10
3.75157563876837
20
-0.609967691003675
30
0
41
1
10
3.88571074071049
20
-0.671710096280151
30
0
41
1
10
4.01906274811171
20
-0.731884184155149
30
0
41
1
10
4.28510375372127
20
-0.847310419574825
30
0
41
1
10
4.4178801682705
20
-0.902419582931458
30
0
41
1
10
4.61809344414075
20
-0.979280715199224
30
0
41
1
10
4.68498328523856
20
-1.00398159764376
30
0
41
1
10
4.81884782151968
20
-1.05193162470763
30
0
41
1
10
4.88586666780901
20
-1.0751124273005
30
0
41
1
10
5.02004758683685
20
-1.12001405837592
30
0
41
1
10
5.08702299693044
20
-1.14174343177282
30
0
41
1
10
5.22051804807094
20
-1.18326773554915
30
0
41
1
10
5.28708139713132
20
-1.202996889297
30
0
41
1
10
5.41994678950374
20
-1.24026950559386
30
0
41
1
10
5.48624165368034
20
-1.25784221693485
30
0
41
1
10
5.61866039657838
20
-1.29092935123589
30
0
41
1
10
5.68486315057635
20
-1.30638925929614
30
0
41
1
10
5.81727052445441
20
-1.33518739964848
30
0
41
1
10
5.88341806613775
20
-1.34855968142693
30
0
41
1
10
6.01574209603979
20
-1.3730272766137
30
0
41
1
10
6.08192137409591
20
-1.38410396859683
30
0
41
1
10
6.21432242477408
20
-1.40395073520892
30
0
41
1
10
6.28053472922122
20
-1.4127420350861
30
0
41
1
10
6.41293065358769
20
-1.42819920777512
30
0
41
1
10
6.4791175759388
20
-1.43487964538954
30
0
41
1
10
6.61155057607746
20
-1.44608488833364
30
0
41
1
10
6.67777092069514
20
-1.45059191940291
30
0
41
1
10
6.81070570106715
20
-1.45712013637606
30
0
41
1
10
6.87739253676247
20
-1.45913850748309
30
0
41
1
10
6.9776693112826
20
-1.46026780132701
30
0
41
1
10
7.01114233198456
20
-1.46033282799618
30
0
41
1
10
7.07818491793458
20
-1.45986045111835
30
0
41
1
10
7.11177434639313
20
-1.45932222210712
30
0
41
1
10
7.2123513453347
20
-1.45684530939241
30
0
41
1
10
7.27923364192526
20
-1.45406542390131
30
0
41
1
10
7.41261511067546
20
-1.44630707038292
30
0
41
1
10
7.47910793701857
20
-1.4413006942344
30
0
41
1
10
7.61182056065508
20
-1.42888567249599
30
0
41
1
10
7.67803701775412
20
-1.42145591952826
30
0
41
1
10
7.81038123249442
20
-1.40417929175229
30
0
41
1
10
7.87659262212912
20
-1.3944045275756
30
0
41
1
10
8.00902550305659
20
-1.372774734302
30
0
41
1
10
8.07519474763518
20
-1.36089883485556
30
0
41
1
10
8.27367252605438
20
-1.3222790409024
30
0
41
1
10
8.4059532849331
20
-1.29244097592206
30
0
41
1
10
8.6046249153859
20
-1.24077541826301
30
0
41
1
10
8.67089274261429
20
-1.22244947448797
30
0
41
1
10
8.80352208229357
20
-1.18379935736743
30
0
41
1
10
8.86984052866146
20
-1.16345363973392
30
0
41
1
10
8.97015339145861
20
-1.13160971938905
30
0
41
1
10
9.00399418307302
20
-1.1206561254036
30
0
41
1
10
9.03788657463983
20
-1.10945664320323
30
0
0
SPLINE
5
DF
100
AcDbEntity
8
1
62
256
6
ByLayer
370
18
48
1
60
0
100
AcDbSpline
70
4
71
3
72
122
73
118
40
0
40
0
40
0
40
0
40
0.0093581891783658
40
0.0093581891783658
40
0.0272857615034619
40
0.0272857615034619
40
0.0452133338285579
40
0.0452133338285579
40
0.063140906153654
40
0.063140906153654
40
0.0810684784787498
40
0.0810684784787498
40
0.0989960508038458
40
0.0989960508038458
40
0.116923623128942
40
0.116923623128942
40
0.134851195454038
40
0.134851195454038
40
0.152778767779134
40
0.152778767779134
40
0.17070634010423
40
0.17070634010423
40
0.188633912429326
40
0.188633912429326
40
0.206561484754422
40
0.206561484754422
40
0.224489057079518
40
0.224489057079518
40
0.242416629404614
40
0.242416629404614
40
0.251380415567162
40
0.251380415567162
40
0.260344201729711
40
0.260344201729711
40
0.278271774054809
40
0.278271774054809
40
0.296199346379906
40
0.296199346379906
40
0.332054491030101
40
0.332054491030101
40
0.349982063355199
40
0.349982063355199
40
0.367909635680296
40
0.367909635680296
40
0.403764780330491
40
0.403764780330491
40
0.42169235265559
40
0.42169235265559
40
0.439619924980688
40
0.439619924980688
40
0.457547497305786
40
0.457547497305786
40
0.475475069630884
40
0.475475069630884
40
0.493402641955983
40
0.493402641955983
40
0.511330214281081
40
0.511330214281081
40
0.529257786606179
40
0.529257786606179
40
0.538221572768728
40
0.538221572768728
40
0.547185358931277
40
0.547185358931277
40
0.565112931256374
40
0.565112931256374
40
0.583040503581471
40
0.583040503581471
40
0.618895648231663
40
0.618895648231663
40
0.627859434394211
40
0.627859434394211
40
0.636823220556759
40
0.636823220556759
40
0.654750792881854
40
0.654750792881854
40
0.67267836520695
40
0.67267836520695
40
0.690605937532045
40
0.690605937532045
40
0.70853350985714
40
0.70853350985714
40
0.726461082182235
40
0.726461082182235
40
0.735424868344783
40
0.735424868344783
40
0.744388654507332
40
0.744388654507332
40
0.76231622683243
40
0.76231622683243
40
0.798171371482627
40
0.798171371482627
40
0.816098943807726
40
0.816098943807726
40
0.834026516132825
40
0.834026516132825
40
0.851954088457924
40
0.851954088457924
40
0.869881660783023
40
0.869881660783023
40
0.905736805433221
40
0.905736805433221
40
0.91470059159577
40
0.91470059159577
40
0.92366437775832
40
0.92366437775832
40
0.932628163920869
40
0.932628163920869
40
0.941591950083419
40
0.941591950083419
40
0.959519522408518
40
0.959519522408518
40
0.977447094733617
40
0.977447094733617
40
0.995374667058716
40
0.995374667058716
40
1
40
1
40
1
40
1
41
1
10
16.0102626899836
20
1.46501138711412
30
0
41
1
10
16.0447991043016
20
1.4650576443062
30
0
41
1
10
16.0793379758483
20
1.46479680220438
30
0
41
1
10
16.1800679714716
20
1.46306570033025
30
0
41
1
10
16.2462771835118
20
1.46070581186345
30
0
41
1
10
16.3789602992745
20
1.45331763193957
30
0
41
1
10
16.4454019724704
20
1.44830850643748
30
0
41
1
10
16.5786242475359
20
1.43600393172406
30
0
41
1
10
16.6454823344662
20
1.42874462444868
30
0
41
1
10
16.7794138143309
20
1.41209999146707
30
0
41
1
10
16.8462536266942
20
1.40271952669892
30
0
41
1
10
16.9796161579052
20
1.3817039568344
30
0
41
1
10
17.0461659799032
20
1.37006875699487
30
0
41
1
10
17.1790323163193
20
1.34446210389601
30
0
41
1
10
17.2453391577403
20
1.33050423252087
30
0
41
1
10
17.3776866037736
20
1.30048768606136
30
0
41
1
10
17.4437394921667
20
1.2844352739362
30
0
41
1
10
17.5756397371805
20
1.25036527163252
30
0
41
1
10
17.6415115660133
20
1.2323496069132
30
0
41
1
10
17.7734912906755
20
1.19459321083832
30
0
41
1
10
17.8395064773185
20
1.17475944457402
30
0
41
1
10
17.9716397340643
20
1.13316327250155
30
0
41
1
10
18.0377756221454
20
1.11143564554882
30
0
41
1
10
18.170138523678
20
1.06624009894625
30
0
41
1
10
18.2363586764994
20
1.04277261297796
30
0
41
1
10
18.3687277192967
20
0.994111642777767
30
0
41
1
10
18.434883421109
20
0.968887367707197
30
0
41
1
10
18.5674668109176
20
0.916634564917246
30
0
41
1
10
18.6338595572288
20
0.889575081073673
30
0
41
1
10
18.733785346222
20
0.847945647197236
30
0
41
1
10
18.7671634962282
20
0.833919928974638
30
0
41
1
10
18.8340476571382
20
0.805568441565981
30
0
41
1
10
18.8675701234901
20
0.791223062444772
30
0
41
1
10
18.9680660300953
20
0.747722692742997
30
0
41
1
10
19.0349875527016
20
0.71814821036179
30
0
41
1
10
19.1686598832967
20
0.657946224056644
30
0
41
1
10
19.2354148094658
20
0.627305712756822
30
0
41
1
10
19.4356548068413
20
0.53380882473482
30
0
41
1
10
19.5690353224136
20
0.469290410034006
30
0
41
1
10
19.7692553990691
20
0.370083928090992
30
0
41
1
10
19.8360518351562
20
0.336676557598565
30
0
41
1
10
19.9698959328273
20
0.269581204735175
30
0
41
1
10
20.0367093188118
20
0.235797098123953
30
0
41
1
10
20.2367004742412
20
0.134478530769286
30
0
41
1
10
20.3696407975812
20
0.0670211566912826
30
0
41
1
10
20.5683033393779
20
-0.0345571687202835
30
0
41
1
10
20.6343920460902
20
-0.0684984383858307
30
0
41
1
10
20.7663140832518
20
-0.136570176086337
30
0
41
1
10
20.8321222058896
20
-0.170741301963545
30
0
41
1
10
20.9639588600742
20
-0.238197603908929
30
0
41
1
10
21.0300323215274
20
-0.271402678181744
30
0
41
1
10
21.162227387543
20
-0.337322533359014
30
0
41
1
10
21.2283811476555
20
-0.369973503890037
30
0
41
1
10
21.3607992496127
20
-0.434697435679738
30
0
41
1
10
21.4270603297559
20
-0.466777818283475
30
0
41
1
10
21.5595280774762
20
-0.530726261686283
30
0
41
1
10
21.6257293965602
20
-0.562599298584217
30
0
41
1
10
21.7584138882465
20
-0.625348326109446
30
0
41
1
10
21.824905902252
20
-0.656211186016463
30
0
41
1
10
21.9248853203529
20
-0.701730210878964
30
0
41
1
10
21.9582544685373
20
-0.71676941568424
30
0
41
1
10
22.0251255344499
20
-0.746497869194201
30
0
41
1
10
22.0586223452048
20
-0.761170274396306
30
0
41
1
10
22.1590281686726
20
-0.804643043155892
30
0
41
1
10
22.2258948439116
20
-0.832999177854305
30
0
41
1
10
22.3594454118139
20
-0.888707961520282
30
0
41
1
10
22.4261367785934
20
-0.916039410445478
30
0
41
1
10
22.6263193082414
20
-0.995104045616586
30
0
41
1
10
22.7598695816551
20
-1.04401172520511
30
0
41
1
10
22.9268465832809
20
-1.10133756161986
30
0
41
1
10
22.9602441629947
20
-1.1126117501251
30
0
41
1
10
23.027050355568
20
-1.13477816960429
30
0
41
1
10
23.0604826238286
20
-1.14567139720086
30
0
41
1
10
23.1607125845211
20
-1.17762709327786
30
0
41
1
10
23.2274490119685
20
-1.19795900761397
30
0
41
1
10
23.36064685824
20
-1.23627051593246
30
0
41
1
10
23.4271512350134
20
-1.25419865088415
30
0
41
1
10
23.5599978691447
20
-1.28788755916872
30
0
41
1
10
23.6263383601089
20
-1.303652965015
30
0
41
1
10
23.758754817325
20
-1.33341991592076
30
0
41
1
10
23.824821163041
20
-1.34742682060326
30
0
41
1
10
23.9566712920686
20
-1.3737470338599
30
0
41
1
10
24.0224548677522
20
-1.38605845400986
30
0
41
1
10
24.1211574605001
20
-1.40252505860946
30
0
41
1
10
24.1540700440637
20
-1.40767553095361
30
0
41
1
10
24.2199792885759
20
-1.41729006297959
30
0
41
1
10
24.2529789398731
20
-1.42175354455841
30
0
41
1
10
24.3520528982745
20
-1.43418591796825
30
0
41
1
10
24.4181755838065
20
-1.4412076370684
30
0
41
1
10
24.6168240982913
20
-1.45870156773913
30
0
41
1
10
24.7496634203472
20
-1.46560486800573
30
0
41
1
10
24.9493364499151
20
-1.46914776917029
30
0
41
1
10
25.015964586147
20
-1.46918835073984
30
0
41
1
10
25.1494200649701
20
-1.4670260335734
30
0
41
1
10
25.2162669678821
20
-1.46481072456268
30
0
41
1
10
25.3497875994303
20
-1.45827554445714
30
0
41
1
10
25.4165543136998
20
-1.4539680989273
30
0
41
1
10
25.5499316548761
20
-1.44299820134566
30
0
41
1
10
25.6165852190502
20
-1.43634162817307
30
0
41
1
10
25.8166743610226
20
-1.41253107169064
30
0
41
1
10
25.9501875111307
20
-1.39159236429711
30
0
41
1
10
26.1171189490684
20
-1.35965321389233
30
0
41
1
10
26.150512479164
20
-1.35297760100025
30
0
41
1
10
26.2173276252085
20
-1.33905083414658
30
0
41
1
10
26.2507615486476
20
-1.33179351197663
30
0
41
1
10
26.3175082793276
20
-1.3167540822518
30
0
41
1
10
26.3508436361193
20
-1.30897175944148
30
0
41
1
10
26.4175006395872
20
-1.29294534537081
30
0
41
1
10
26.4508207134353
20
-1.28470034508331
30
0
41
1
10
26.5507045314161
20
-1.25922599897734
30
0
41
1
10
26.6171706983984
20
-1.24123698194725
30
0
41
1
10
26.7499372568668
20
-1.20343556190662
30
0
41
1
10
26.8162364246801
20
-1.18362397449897
30
0
41
1
10
26.9486362335931
20
-1.14223074182075
30
0
41
1
10
27.0147317916201
20
-1.12063827850869
30
0
41
1
10
27.0977544218165
20
-1.09229563077372
30
0
41
1
10
27.1147753275021
20
-1.08642114134858
30
0
41
1
10
27.1317914107814
20
-1.08048569919765
30
0
0
SPLINE
5
E0
100
AcDbEntity
8
1
62
256
6
ByLayer
370
13
48
1
60
0
100
AcDbSpline
70
4
71
3
72
33
73
29
40
0
40
0
40
0
40
0
40
0.159015215685144
40
0.159015215685144
40
0.19876901960643
40
0.19876901960643
40
0.238522823527716
40
0.238522823527716
40
0.318030431370289
40
0.397538039212861
40
0.397538039212861
40
0.437291843134147
40
0.437291843134147
40
0.477045647055434
40
0.477045647055434
40
0.636060862740579
40
0.636060862740579
40
0.715568470583151
40
0.715568470583151
40
0.795076078425723
40
0.795076078425723
40
0.874583686268296
40
0.874583686268296
40
0.914337490189582
40
0.914337490189582
40
0.954091294110868
40
0.954091294110868
40
1
40
1
40
1
40
1
41
1
10
3.7515756387775
20
-0.609967690992562
30
0
41
1
10
3.75156506872696
20
-0.686596914691251
30
0
41
1
10
3.75154832266904
20
-0.759926585039523
30
0
41
1
10
3.75152098265124
20
-0.847359130600466
30
0
41
1
10
3.75151517755833
20
-0.864667138514704
30
0
41
1
10
3.75150299973132
20
-0.898670891631724
30
0
41
1
10
3.75149663695459
20
-0.91534432297442
30
0
41
1
10
3.75147677612188
20
-0.964391842164417
30
0
41
1
10
3.75144824202113
20
-1.02719813900839
30
0
41
1
10
3.75141594746577
20
-1.08486631253334
30
0
41
1
10
3.75139036207253
20
-1.12616212932974
30
0
41
1
10
3.75138158452671
20
-1.13963047347161
30
0
41
1
10
3.75136369160546
20
-1.1657301613329
30
0
41
1
10
3.75135457880936
20
-1.17836174013394
30
0
41
1
10
3.75130819844446
20
-1.23946786354603
30
0
41
1
10
3.75126854269604
20
-1.28183331636586
30
0
41
1
10
3.7512047758853
20
-1.33578261761733
30
0
41
1
10
3.75118279458687
20
-1.35215690000848
30
0
41
1
10
3.75113715250885
20
-1.38160690742242
30
0
41
1
10
3.75111341900458
20
-1.39470345241202
30
0
41
1
10
3.75106467576271
20
-1.41714261835924
30
0
41
1
10
3.75103959971418
20
-1.42654033337823
30
0
41
1
10
3.75100069410141
20
-1.43789946425008
30
0
41
1
10
3.75098748640326
20
-1.44123357547332
30
0
41
1
10
3.75096071077738
20
-1.44695504765443
30
0
41
1
10
3.750947158879
20
-1.44934107332671
30
0
41
1
10
3.75091756113446
20
-1.45347780972369
30
0
41
1
10
3.75090145692681
20
-1.45507734890612
30
0
41
1
10
3.75088507430783
20
-1.45606191376976
30
0
0
SPLINE
5
E1
100
AcDbEntity
8
1
62
256
6
ByLayer
370
18
48
1
60
0
100
AcDbSpline
70
4
71
3
72
128
73
124
40
0
40
0
40
0
40
0
40
0.0032279914787479
40
0.0032279914787479
40
0.0121946716217852
40
0.0121946716217852
40
0.0301280319078597
40
0.0301280319078597
40
0.0480613921939343
40
0.0480613921939343
40
0.0659947524800087
40
0.0659947524800087
40
0.0839281127660833
40
0.0839281127660833
40
0.101861473052158
40
0.101861473052158
40
0.137728193624308
40
0.137728193624308
40
0.155661553910383
40
0.155661553910383
40
0.173594914196458
40
0.173594914196458
40
0.191528274482532
40
0.191528274482532
40
0.209461634768607
40
0.209461634768607
40
0.227394995054681
40
0.227394995054681
40
0.245328355340756
40
0.245328355340756
40
0.26326171562683
40
0.26326171562683
40
0.281195075912905
40
0.281195075912905
40
0.29912843619898
40
0.29912843619898
40
0.317061796485054
40
0.317061796485054
40
0.334995156771129
40
0.334995156771129
40
0.352928517057203
40
0.352928517057203
40
0.370861877343278
40
0.370861877343278
40
0.379828557486315
40
0.379828557486315
40
0.388795237629352
40
0.388795237629352
40
0.39776191777239
40
0.39776191777239
40
0.406728597915427
40
0.406728597915427
40
0.424661958201502
40
0.424661958201502
40
0.442595318487576
40
0.442595318487576
40
0.460528678773651
40
0.460528678773651
40
0.469495358916689
40
0.469495358916689
40
0.478462039059727
40
0.478462039059727
40
0.496395399345805
40
0.496395399345805
40
0.514328759631882
40
0.514328759631882
40
0.53226211991796
40
0.53226211991796
40
0.550195480204037
40
0.550195480204037
40
0.568128840490115
40
0.568128840490115
40
0.586062200776192
40
0.586062200776192
40
0.59502888091923
40
0.59502888091923
40
0.603995561062268
40
0.603995561062268
40
0.621928921348343
40
0.621928921348343
40
0.639862281634418
40
0.639862281634418
40
0.657795641920492
40
0.657795641920492
40
0.675729002206567
40
0.675729002206567
40
0.693662362492641
40
0.693662362492641
40
0.711595722778716
40
0.711595722778716
40
0.72952908306479
40
0.72952908306479
40
0.747462443350865
40
0.747462443350865
40
0.76539580363694
40
0.76539580363694
40
0.783329163923014
40
0.783329163923014
40
0.801262524209089
40
0.801262524209089
40
0.819195884495164
40
0.819195884495164
40
0.837129244781238
40
0.837129244781238
40
0.855062605067313
40
0.855062605067313
40
0.872995965353388
40
0.872995965353388
40
0.890929325639462
40
0.890929325639462
40
0.908862685925537
40
0.908862685925537
40
0.926796046211611
40
0.926796046211611
40
0.944729406497686
40
0.944729406497686
40
0.962662766783761
40
0.962662766783761
40
0.980596127069835
40
0.980596127069835
40
0.99852948735591
40
0.99852948735591
40
1
40
1
40
1
40
1
41
1
10
7.00847950729587
20
1.46023413515525
30
0
41
1
10
7.02053465003843
20
1.46022765737422
30
0
41
1
10
7.03259600948164
20
1.460181667043
30
0
41
1
10
7.07818491793461
20
1.45986045111835
30
0
41
1
10
7.11177434639319
20
1.45932222210712
30
0
41
1
10
7.21235134533475
20
1.45684530939241
30
0
41
1
10
7.27923364192529
20
1.45406542390131
30
0
41
1
10
7.41261511067552
20
1.44630707038292
30
0
41
1
10
7.47910793701863
20
1.4413006942344
30
0
41
1
10
7.61182056065513
20
1.42888567249599
30
0
41
1
10
7.67803701775415
20
1.42145591952826
30
0
41
1
10
7.81038123249448
20
1.40417929175229
30
0
41
1
10
7.87659262212918
20
1.3944045275756
30
0
41
1
10
8.00902550305665
20
1.372774734302
30
0
41
1
10
8.07519474763524
20
1.36089883485556
30
0
41
1
10
8.27367252605444
20
1.32227904090237
30
0
41
1
10
8.40595328493316
20
1.29244097592206
30
0
41
1
10
8.60462491538595
20
1.24077541826301
30
0
41
1
10
8.67089274261434
20
1.22244947448797
30
0
41
1
10
8.8035220822936
20
1.18379935736741
30
0
41
1
10
8.86984052866151
20
1.16345363973389
30
0
41
1
10
9.00288155163778
20
1.12122029477573
30
0
41
1
10
9.06958977044593
20
1.0992265257714
30
0
41
1
10
9.20342982636851
20
1.05318665994383
30
0
41
1
10
9.27066583263741
20
1.02918756819187
30
0
41
1
10
9.40464714963699
20
0.979761403278104
30
0
41
1
10
9.47148226623375
20
0.954298464762815
30
0
41
1
10
9.60478616741469
20
0.901863924057068
30
0
41
1
10
9.67123844051991
20
0.874879925558929
30
0
41
1
10
9.80383266960698
20
0.819480857068385
30
0
41
1
10
9.86998202705701
20
0.791034282425471
30
0
41
1
10
10.0022721938569
20
0.733000698366823
30
0
41
1
10
10.0684867349266
20
0.703576762438274
30
0
41
1
10
10.200919401039
20
0.643811446670128
30
0
41
1
10
10.267108479096
20
0.613411203552459
30
0
41
1
10
10.3994828448955
20
0.551738592951779
30
0
41
1
10
10.4656504907276
20
0.520449429868592
30
0
41
1
10
10.597938662248
20
0.45691372523217
30
0
41
1
10
10.6640845949056
20
0.424671378012505
30
0
41
1
10
10.7965482330815
20
0.359387993349259
30
0
41
1
10
10.8628515199576
20
0.326355690884924
30
0
41
1
10
10.9955979788875
20
0.259611488092133
30
0
41
1
10
11.0620280856772
20
0.225862321346682
30
0
41
1
10
11.1620136264167
20
0.175244488756761
30
0
41
1
10
11.1953887338216
20
0.158353059908535
30
0
41
1
10
11.2621842642498
20
0.124441880691336
30
0
41
1
10
11.2956000376383
20
0.107415439323063
30
0
41
1
10
11.3625093666131
20
0.0732797568554986
30
0
41
1
10
11.3960383628692
20
0.0561573951888192
30
0
41
1
10
11.4630367628415
20
0.0219930440045744
30
0
41
1
10
11.4965007721677
20
0.0049609329615521
30
0
41
1
10
11.596794198051
20
-0.0459882762323787
30
0
41
1
10
11.6635192170595
20
-0.0797826796273569
30
0
41
1
10
11.7966284422989
20
-0.147296589158344
30
0
41
1
10
11.8630086996172
20
-0.181014538543792
30
0
41
1
10
11.9954802998575
20
-0.248291831502854
30
0
41
1
10
12.0615452871435
20
-0.281915380061037
30
0
41
1
10
12.1605389286477
20
-0.331997434286166
30
0
41
1
10
12.1935366198421
20
-0.34859308869045
30
0
41
1
10
12.2595890056185
20
-0.381444036076829
30
0
41
1
10
12.2926395947152
20
-0.397703119985977
30
0
41
1
10
12.3918106089654
20
-0.446098604639388
30
0
41
1
10
12.457949101762
20
-0.477869907717519
30
0
41
1
10
12.5902482004282
20
-0.540646162149642
30
0
41
1
10
12.656411925222
20
-0.571634257758689
30
0
41
1
10
12.7886990392649
20
-0.632981447372572
30
0
41
1
10
12.8548057327465
20
-0.663380251858513
30
0
41
1
10
12.9869400622754
20
-0.723608350876873
30
0
41
1
10
13.0530160006076
20
-0.753312595845102
30
0
41
1
10
13.1855772679106
20
-0.81095718725345
30
0
41
1
10
13.2520120199818
20
-0.839027011471643
30
0
41
1
10
13.3853571642833
20
-0.893588982316885
30
0
41
1
10
13.4522075924582
20
-0.920171582320393
30
0
41
1
10
13.5526582243021
20
-0.959175307444866
30
0
41
1
10
13.586195731811
20
-0.97202586319608
30
0
41
1
10
13.6531964401902
20
-0.997370232563355
30
0
41
1
10
13.6866695429361
20
-1.0098763539946
30
0
41
1
10
13.7870162466635
20
-1.04684734034902
30
0
41
1
10
13.8538220853177
20
-1.07071666579509
30
0
41
1
10
13.9874207052671
20
-1.11615806260389
30
0
41
1
10
14.0541893928629
20
-1.137835532113
30
0
41
1
10
14.187651686574
20
-1.17948359793499
30
0
41
1
10
14.2543260420866
20
-1.19946142471824
30
0
41
1
10
14.3877333772304
20
-1.2376376944575
30
0
41
1
10
14.4545629290585
20
-1.25571847596171
30
0
41
1
10
14.5883663760874
20
-1.28983366864873
30
0
41
1
10
14.655425539308
20
-1.30586740750647
30
0
41
1
10
14.7891914692881
20
-1.33533749171056
30
0
41
1
10
14.8559477590628
20
-1.34883166392424
30
0
41
1
10
14.9891730616354
20
-1.37362122201273
30
0
41
1
10
15.0556324967988
20
-1.38493986661996
30
0
41
1
10
15.188199566897
20
-1.40572173863129
30
0
41
1
10
15.2543245605291
20
-1.41513174270594
30
0
41
1
10
15.386403291123
20
-1.43159419025414
30
0
41
1
10
15.4523713610465
20
-1.43863107934675
30
0
41
1
10
15.5845891714259
20
-1.44997290158813
30
0
41
1
10
15.650742823243
20
-1.4543532211238
30
0
41
1
10
15.7830494270268
20
-1.46087231025609
30
0
41
1
10
15.8492255201955
20
-1.46300691235552
30
0
41
1
10
15.9815510528264
20
-1.46525623320915
30
0
41
1
10
16.0477026510744
20
-1.46534047313048
30
0
41
1
10
16.1800679714717
20
-1.46306570033025
30
0
41
1
10
16.2462771835119
20
-1.46070581186342
30
0
41
1
10
16.3789602992746
20
-1.45331763193957
30
0
41
1
10
16.4454019724706
20
-1.44830850643748
30
0
41
1
10
16.578624247536
20
-1.43600393172403
30
0
41
1
10
16.6454823344664
20
-1.42874462444868
30
0
41
1
10
16.779413814331
20
-1.41209999146707
30
0
41
1
10
16.8462536266943
20
-1.40271952669892
30
0
41
1
10
16.9796161579053
20
-1.38170395683437
30
0
41
1
10
17.0461659799033
20
-1.37006875699484
30
0
41
1
10
17.1790323163194
20
-1.34446210389598
30
0
41
1
10
17.2453391577404
20
-1.33050423252084
30
0
41
1
10
17.3776866037737
20
-1.30048768606133
30
0
41
1
10
17.4437394921668
20
-1.28443527393617
30
0
41
1
10
17.5756397371806
20
-1.25036527163249
30
0
41
1
10
17.6415115660134
20
-1.2323496069132
30
0
41
1
10
17.7734912906756
20
-1.19459321083829
30
0
41
1
10
17.8395064773187
20
-1.17475944457399
30
0
41
1
10
17.9716397340644
20
-1.13316327250152
30
0
41
1
10
18.0377756221455
20
-1.1114356455488
30
0
41
1
10
18.1093838673666
20
-1.08698488369222
30
0
41
1
10
18.1148109220459
20
-1.08512604737109
30
0
41
1
10
18.1202381959665
20
-1.0832613669856
30
0
0
SPLINE
5
E2
100
AcDbEntity
8
1
62
256
6
ByLayer
370
18
48
1
60
0
100
AcDbSpline
70
4
71
3
72
50
73
46
40
0
40
0
40
0
40
0
40
0.0185999222230694
40
0.0185999222230694
40
0.0653332592600719
40
0.0653332592600719
40
0.112066596297074
40
0.112066596297074
40
0.158799933334077
40
0.158799933334077
40
0.252266607408077
40
0.252266607408077
40
0.275633275926577
40
0.275633275926577
40
0.298999944445078
40
0.298999944445078
40
0.322366612963578
40
0.322366612963578
40
0.345733281482078
40
0.345733281482078
40
0.392466618519075
40
0.392466618519075
40
0.439199955556071
40
0.439199955556071
40
0.485933292593068
40
0.485933292593068
40
0.532666629630064
40
0.532666629630064
40
0.579399966667061
40
0.579399966667061
40
0.626133303704057
40
0.626133303704057
40
0.719599977778051
40
0.719599977778051
40
0.766333314815047
40
0.766333314815047
40
0.813066651852044
40
0.813066651852044
40
0.836433320370538
40
0.836433320370538
40
0.859799988889032
40
0.859799988889032
40
0.906533325926022
40
0.906533325926022
40
1
40
1
40
1
40
1
41
1
10
25.0030646685798
20
1.46886385627573
30
0
41
1
10
25.029592668179
20
1.46879010773074
30
0
41
1
10
25.0561346080519
20
1.4685374945239
30
0
41
1
10
25.1494200649702
20
1.4670260335734
30
0
41
1
10
25.2162669678822
20
1.46481072456268
30
0
41
1
10
25.3497875994304
20
1.45827554445714
30
0
41
1
10
25.4165543136999
20
1.4539680989273
30
0
41
1
10
25.5499316548761
20
1.44299820134566
30
0
41
1
10
25.6165852190503
20
1.43634162817307
30
0
41
1
10
25.8166743610227
20
1.41253107169064
30
0
41
1
10
25.9501875111308
20
1.39159236429708
30
0
41
1
10
26.1171189490685
20
1.3596532138923
30
0
41
1
10
26.1505124791641
20
1.35297760100022
30
0
41
1
10
26.2173276252085
20
1.33905083414658
30
0
41
1
10
26.2507615486477
20
1.33179351197663
30
0
41
1
10
26.3175082793277
20
1.3167540822518
30
0
41
1
10
26.3508436361194
20
1.30897175944148
30
0
41
1
10
26.4175006395873
20
1.29294534537081
30
0
41
1
10
26.4508207134354
20
1.28470034508331
30
0
41
1
10
26.5507045314161
20
1.25922599897731
30
0
41
1
10
26.6171706983985
20
1.24123698194723
30
0
41
1
10
26.7499372568669
20
1.20343556190662
30
0
41
1
10
26.8162364246801
20
1.18362397449897
30
0
41
1
10
26.9486362335932
20
1.14223074182075
30
0
41
1
10
27.0147317916202
20
1.12063827850867
30
0
41
1
10
27.1467231417265
20
1.07557846371745
30
0
41
1
10
27.2126279357159
20
1.0521208991658
30
0
41
1
10
27.3443986602291
20
1.00344319741012
30
0
41
1
10
27.4102314979906
20
0.978171823847077
30
0
41
1
10
27.5421830404663
20
0.92639281102268
30
0
41
1
10
27.6082908374669
20
0.899877985056747
30
0
41
1
10
27.8067079480088
20
0.818067073460952
30
0
41
1
10
27.9392935580812
20
0.76081513861817
30
0
41
1
10
28.138844565543
20
0.670874781578448
30
0
41
1
10
28.2054650575327
20
0.640188820556318
30
0
41
1
10
28.3389792803131
20
0.577534627981464
30
0
41
1
10
28.405930339088
20
0.545535152478521
30
0
41
1
10
28.5059973369522
20
0.49702875290555
30
0
41
1
10
28.5393247980032
20
0.480777158053712
30
0
41
1
10
28.6059846698487
20
0.448221295143526
30
0
41
1
10
28.6393144325184
20
0.431912233285402
30
0
41
1
10
28.7392438619466
20
0.382784946044836
30
0
41
1
10
28.8057625052892
20
0.349727802815636
30
0
41
1
10
29.0051756060217
20
0.24993093019151
30
0
41
1
10
29.1378979475999
20
0.1825213669498
30
0
41
1
10
29.2704982270575
20
0.114362168182709
30
0
0
SPLINE
5
E3
100
AcDbEntity
8
1
62
256
6
ByLayer
370
18
48
1
60
0
100
AcDbSpline
70
4
71
3
72
35
73
31
40
0
40
0
40
0
40
0
40
0.125
40
0.125
40
0.15625
40
0.15625
40
0.1875
40
0.1875
40
0.25
40
0.25
40
0.375000000000001
40
0.375000000000001
40
0.437500000000002
40
0.437500000000002
40
0.500000000000003
40
0.500000000000003
40
0.531250000000003
40
0.531250000000003
40
0.562500000000002
40
0.625000000000002
40
0.625000000000002
40
0.75
40
0.75
40
0.8125
40
0.8125
40
0.843749999999999
40
0.843749999999999
40
0.874999999999999
40
0.874999999999999
40
1
40
1
40
1
40
1
41
1
10
29.2704982270578
20
0.114362168182737
30
0
41
1
10
29.2676726325578
20
0.0255354259406317
30
0
41
1
10
29.2695395268905
20
-0.062966093814623
30
0
41
1
10
29.2756470848383
20
-0.173230957690151
30
0
41
1
10
29.2770594049824
20
-0.195265672575118
30
0
41
1
10
29.280220760763
20
-0.239299090312471
30
0
41
1
10
29.2819726716147
20
-0.261330629625007
30
0
41
1
10
29.2876503795647
20
-0.327153874069211
30
0
41
1
10
29.2919589138337
20
-0.37028197959981
30
0
41
1
10
29.3058721534385
20
-0.497539473336928
30
0
41
1
10
29.3164395696652
20
-0.57956223598913
30
0
41
1
10
29.332502294177
20
-0.698508761854697
30
0
41
1
10
29.3379088494815
20
-0.737541864267513
30
0
41
1
10
29.3484436269536
20
-0.813141330689859
30
0
41
1
10
29.3535894037149
20
-0.849839582064845
30
0
41
1
10
29.3610142044657
20
-0.903235251038552
30
0
41
1
10
29.3634443807079
20
-0.920785705058194
30
0
41
1
10
29.3681623025117
20
-0.955094170261049
30
0
41
1
10
29.3750357094177
20
-1.00543275262757
30
0
41
1
10
29.3812693253584
20
-1.05246083444703
30
0
41
1
10
29.3928875436387
20
-1.14215762801427
30
0
41
1
10
29.3994698611804
20
-1.19618439790514
30
0
41
1
10
29.4081504882302
20
-1.26809167706551
30
0
41
1
10
29.4108205059074
20
-1.29025244086193
30
0
41
1
10
29.4146506136838
20
-1.32080049914862
30
0
41
1
10
29.415898570523
20
-1.33053365059379
30
0
41
1
10
29.4183689833899
20
-1.34909594866215
30
0
41
1
10
29.419593171591
20
-1.35793643932004
30
0
41
1
10
29.4257120531203
20
-1.3996669033894
30
0
41
1
10
29.4305778168209
20
-1.42526403001466
30
0
41
1
10
29.4367908984531
20
-1.44306513625744
30
0
0
SPLINE
5
E4
100
AcDbEntity
8
1
62
256
6
ByLayer
370
18
48
1
60
0
100
AcDbSpline
70
4
71
3
72
53
73
49
40
0
40
0
40
0
40
0
40
0.0379450929578381
40
0.0379450929578381
40
0.0590903616513036
40
0.0590903616513036
40
0.0696629959980364
40
0.0696629959980364
40
0.0749493131714028
40
0.0749493131714028
40
0.0762708924647444
40
0.0762708924647444
40
0.0775924717580862
40
0.0775924717580862
40
0.0802356303447694
40
0.0802356303447694
40
0.0908082646915024
40
0.0908082646915024
40
0.101380899038235
40
0.101380899038235
40
0.122526167731701
40
0.122526167731701
40
0.164816705118633
40
0.164816705118633
40
0.249397779892497
40
0.249397779892497
40
0.418559929440225
40
0.418559929440225
40
0.503141004214089
40
0.503141004214089
40
0.524286272907555
40
0.524286272907555
40
0.529572590080922
40
0.529572590080922
40
0.530894169374263
40
0.530894169374263
40
0.531554959020934
40
0.531554959020934
40
0.532215748667605
40
0.532215748667605
40
0.534858907254288
40
0.534858907254288
40
0.545431541601021
40
0.587722078987951
40
0.587722078987951
40
0.926046378083392
40
0.926046378083392
40
1
40
1
40
1
40
1
41
1
10
3.95363904474519
20
1.27210774745834
30
0
41
1
10
3.94769388428682
20
1.22139214732741
30
0
41
1
10
3.93611519828613
20
1.16818189639798
30
0
41
1
10
3.90845791116311
20
1.08096483725052
30
0
41
1
10
3.89719412387836
20
1.0488231919054
30
0
41
1
10
3.87609212234992
20
1.00050941711677
30
0
41
1
10
3.8684561352145
20
0.984352604751763
30
0
41
1
10
3.85622079624147
20
0.960005256047339
30
0
41
1
10
3.85201218849988
20
0.951871105491648
30
0
41
1
10
3.84660102392891
20
0.941677509244101
30
0
41
1
10
3.84486824038939
20
0.939887495587328
30
0
41
1
10
3.84432666065564
20
0.935132997148685
30
0
41
1
10
3.84684937932644
20
0.932618996103912
30
0
41
1
10
3.85283514051247
20
0.926197376137509
30
0
41
1
10
3.85736926339209
20
0.922280450037022
30
0
41
1
10
3.87995140139731
20
0.90290629557947
30
0
41
1
10
3.89893925944671
20
0.888305797908032
30
0
41
1
10
3.9368332022915
20
0.859115091791807
30
0
41
1
10
3.95591773776636
20
0.844677007737175
30
0
41
1
10
4.01333869445926
20
0.801551588265994
30
0
41
1
10
4.0518508130445
20
0.773062128118909
30
0
41
1
10
4.16761532862097
20
0.687889227772246
30
0
41
1
10
4.24514282060579
20
0.631531751933295
30
0
41
1
10
4.47779050646349
20
0.462471108905248
30
0
41
1
10
4.63296685009885
20
0.349744715000895
30
0
41
1
10
5.0980464401762
20
0.010810327962389
30
0
41
1
10
5.40764551964111
20
-0.216038671410899
30
0
41
1
10
5.87263258664663
20
-0.555809997492503
30
0
41
1
10
6.02815689131086
20
-0.668352990315583
30
0
41
1
10
6.21986482858802
20
-0.812708831611502
30
0
41
1
10
6.25822709589622
20
-0.841601947206527
30
0
41
1
10
6.30479031106154
20
-0.879392165559466
30
0
41
1
10
6.31409996713319
20
-0.886957036866306
30
0
41
1
10
6.32502418372596
20
-0.897196818817548
30
0
41
1
10
6.32719104414849
20
-0.899259363148644
30
0
41
1
10
6.33002892107868
20
-0.902688287670003
30
0
41
1
10
6.33125614482771
20
-0.903986820587846
30
0
41
1
10
6.33096323016801
20
-0.906619521400273
30
0
41
1
10
6.32891197905445
20
-0.906405052373543
30
0
41
1
10
6.32179811201422
20
-0.905844558405221
30
0
41
1
10
6.31609005375714
20
-0.905184965145651
30
0
41
1
10
6.28759316996826
20
-0.902386044760135
30
0
41
1
10
6.17363357293016
20
-0.8910919916392
30
0
41
1
10
6.05981571657264
20
-0.8793052965718
30
0
41
1
10
5.2411535291202
20
-0.791583708220372
30
0
41
1
10
4.51952774604754
20
-0.693270495962196
30
0
41
1
10
3.64760988843443
20
-0.547673443019079
30
0
41
1
10
3.49153239269387
20
-0.520555148379998
30
0
41
1
10
3.33576955139978
20
-0.492441180389903
30
0
0
SPLINE
5
E5
100
AcDbEntity
8
1
62
256
6
ByLayer
370
18
48
1
60
0
100
AcDbSpline
70
4
71
3
72
20
73
16
40
0
40
0
40
0
40
0
40
0.250000000000004
40
0.250000000000004
40
0.375000000000003
40
0.375000000000003
40
0.500000000000003
40
0.500000000000003
40
0.625000000000002
40
0.625000000000002
40
0.750000000000001
40
0.750000000000001
40
0.875000000000001
40
0.875000000000001
40
1
40
1
40
1
40
1
41
1
10
29.4367908984531
20
-1.44306513625739
30
0
41
1
10
29.4375985967155
20
-1.44537927333664
30
0
41
1
10
29.4379401659234
20
-1.4490224138541
30
0
41
1
10
29.4375725957427
20
-1.45687242753459
30
0
41
1
10
29.4372979543322
20
-1.45989315278359
30
0
41
1
10
29.4364298505582
20
-1.46662488846647
30
0
41
1
10
29.4358362864395
20
-1.47035576451216
30
0
41
1
10
29.434285156635
20
-1.47865314161805
30
0
41
1
10
29.4333410879022
20
-1.48313835671937
30
0
41
1
10
29.4311508648553
20
-1.4926120436746
30
0
41
1
10
29.4298970688686
20
-1.49763798072621
30
0
41
1
10
29.4270677231848
20
-1.5082635243167
30
0
41
1
10
29.4255450116602
20
-1.51366640848121
30
0
41
1
10
29.4223077266903
20
-1.52464614682415
30
0
41
1
10
29.4205729434782
20
-1.53028392088947
30
0
41
1
10
29.4188170009116
20
-1.53579535018451
30
0
0
SPLINE
5
E6
100
AcDbEntity
8
1
62
256
6
ByLayer
370
13
48
1
60
0
100
AcDbSpline
70
4
71
3
72
50
73
46
40
0
40
0
40
0
40
0
40
0.0293203529222597
40
0.0293203529222597
40
0.0586407058445198
40
0.0586407058445198
40
0.11728141168904
40
0.11728141168904
40
0.17592211753356
40
0.17592211753356
40
0.23456282337808
40
0.23456282337808
40
0.2932035292226
40
0.2932035292226
40
0.32252388214486
40
0.32252388214486
40
0.351844235067118
40
0.351844235067118
40
0.469125646756156
40
0.469125646756156
40
0.586407058445194
40
0.586407058445194
40
0.615727411367453
40
0.615727411367453
40
0.630387587828583
40
0.630387587828583
40
0.645047764289712
40
0.645047764289712
40
0.70368847013423
40
0.70368847013423
40
0.762329175978748
40
0.762329175978748
40
0.820969881823265
40
0.820969881823265
40
0.879610587667783
40
0.879610587667783
40
0.908930940590042
40
0.908930940590042
40
0.92359111705117
40
0.92359111705117
40
0.938251293512299
40
0.938251293512299
40
0.996891999356809
40
0.996891999356809
40
1
40
1
40
1
40
1
41
1
10
3.7505568487978
20
1.40875269040086
30
0
41
1
10
3.81802859617707
20
1.40012616351115
30
0
41
1
10
3.88557686452788
20
1.39029041838819
30
0
41
1
10
4.02044082809448
20
1.36831638277104
30
0
41
1
10
4.08770420870724
20
1.35618930519413
30
0
41
1
10
4.28909038494768
20
1.31652118080703
30
0
41
1
10
4.42280823938557
20
1.28568524949321
30
0
41
1
10
4.68972182547896
20
1.21597618747981
30
0
41
1
10
4.82290625283446
20
1.17710681165133
30
0
41
1
10
5.08934442422412
20
1.09211960720469
30
0
41
1
10
5.22264850321147
20
1.04604690494568
30
0
41
1
10
5.48977344047171
20
0.94707986314765
30
0
41
1
10
5.62360883712398
20
0.894220140215566
30
0
41
1
10
5.8251648815465
20
0.810390593963717
30
0
41
1
10
5.89250968824936
20
0.78167928369848
30
0
41
1
10
6.02743046004883
20
0.722882749026695
30
0
41
1
10
6.094717267627
20
0.692922636798187
30
0
41
1
10
6.43048362835483
20
0.540701629564097
30
0
41
1
10
6.69696181670719
20
0.411203145939595
30
0
41
1
10
7.22980678516672
20
0.144844606893656
30
0
41
1
10
7.496204550393
20
0.0080698194715296
30
0
41
1
10
7.83178055608707
20
-0.162247161950262
30
0
41
1
10
7.89902758627653
20
-0.19627167607328
30
0
41
1
10
8.00014701597337
20
-0.247146390364861
30
0
41
1
10
8.03389055360165
20
-0.264075230494313
30
0
41
1
10
8.10124259235118
20
-0.29774848928551
30
0
41
1
10
8.13487922097519
20
-0.314507351324693
30
0
41
1
10
8.30288381152275
20
-0.397879239416284
30
0
41
1
10
8.43671071584785
20
-0.463233874245077
30
0
41
1
10
8.70373868861083
20
-0.590264906003711
30
0
41
1
10
8.83694865787285
20
-0.651927499094114
30
0
41
1
10
9.10333281679414
20
-0.770601130462467
30
0
41
1
10
9.23653167727755
20
-0.827618698474936
30
0
41
1
10
9.50336237994054
20
-0.93609058386707
30
0
41
1
10
9.63699279101024
20
-0.987553976085024
30
0
41
1
10
9.83818004085518
20
-1.0599342571665
30
0
41
1
10
9.90536782630969
20
-1.08326894795169
30
0
41
1
10
10.0063980916541
20
-1.11697623230498
30
0
41
1
10
10.0401437107257
20
-1.12800489888633
30
0
41
1
10
10.1075361139907
20
-1.14955364633465
30
0
41
1
10
10.1411902327206
20
-1.16007693305113
30
0
41
1
10
10.3092687940219
20
-1.21142696062094
30
0
41
1
10
10.4431164149553
20
-1.24843249082667
30
0
41
1
10
10.5837204665924
20
-1.28293444477188
30
0
41
1
10
10.5907967204428
20
-1.28465933923871
30
0
41
1
10
10.5978722278594
20
-1.28637248981872
30
0
0
SPLINE
5
E7
100
AcDbEntity
8
1
62
256
6
ByLayer
370
18
48
1
60
0
100
AcDbSpline
70
4
71
3
72
16
73
12
40
0
40
0
40
0
40
0
40
0.268804983363347
40
0.268804983363347
40
0.552653919785946
40
0.552653919785946
40
0.836502856208546
40
0.836502856208546
40
0.978427324419845
40
0.978427324419845
40
1
40
1
40
1
40
1
41
1
10
10.597871875347
20
-1.28637240446699
30
0
41
1
10
10.7242947687768
20
-1.31698243552265
30
0
41
1
10
10.8504793601082
20
-1.34384318468133
30
0
41
1
10
11.109775739617
20
-1.3907751782472
30
0
41
1
10
11.2428774116784
20
-1.41039210787696
30
0
41
1
10
11.5094909710855
20
-1.440423642475
30
0
41
1
10
11.643033423183
20
-1.45095866523511
30
0
41
1
10
11.8440447655683
20
-1.45951996868266
30
0
41
1
10
11.9111642792355
20
-1.46117387972723
30
0
41
1
10
11.9886602698411
20
-1.4616689271536
30
0
41
1
10
11.9988909821184
20
-1.46170557235885
30
0
41
1
10
12.0091255127013
20
-1.46171370524522
30
0
0
SPLINE
5
E8
100
AcDbEntity
8
1
62
256
6
ByLayer
370
18
48
1
60
0
100
AcDbSpline
70
4
71
3
72
10
73
6
40
0
40
0
40
0
40
0
40
0.53540740265794
40
0.53540740265794
40
1
40
1
40
1
40
1
41
1
10
21.0083738997108
20
1.46758640468212
30
0
41
1
10
21.0753230188939
20
1.46764510561971
30
0
41
1
10
21.1424015353498
20
1.46649960880728
30
0
41
1
10
21.2679891662034
20
1.46211087704364
30
0
41
1
10
21.3262797088242
20
1.45917310466592
30
0
41
1
10
21.3845242164186
20
1.45534151647945
30
0
0
SPLINE
5
E9
100
AcDbEntity
8
1
62
256
6
ByLayer
370
13
48
1
60
0
100
AcDbSpline
70
4
71
3
72
50
73
46
40
0
40
0
40
0
40
0
40
0.0188722906744155
40
0.0188722906744155
40
0.0765856853406345
40
0.0765856853406345
40
0.134299080006853
40
0.134299080006853
40
0.192012474673072
40
0.192012474673072
40
0.249725869339292
40
0.249725869339292
40
0.264154218005845
40
0.264154218005845
40
0.278582566672399
40
0.278582566672399
40
0.307439264005503
40
0.307439264005503
40
0.42286605333793
40
0.42286605333793
40
0.480579448004143
40
0.480579448004143
40
0.538292842670356
40
0.538292842670356
40
0.567149540003462
40
0.567149540003462
40
0.596006237336567
40
0.596006237336567
40
0.653719632002782
40
0.653719632002782
40
0.68257632933589
40
0.68257632933589
40
0.697004678002444
40
0.697004678002444
40
0.711433026668998
40
0.711433026668998
40
0.769146421335199
40
0.769146421335199
40
0.884573210667597
40
0.884573210667597
40
0.942286605333796
40
0.942286605333796
40
0.971143302666898
40
0.971143302666898
40
1
40
1
40
1
40
1
41
1
10
22.4894739579205
20
1.27731754757465
30
0
41
1
10
22.5332833749935
20
1.26626759505964
30
0
41
1
10
22.5770390093788
20
1.25477820429987
30
0
41
1
10
22.7544108515769
20
1.20640210533017
30
0
41
1
10
22.8876432811335
20
1.16596536889091
30
0
41
1
10
23.1538179322821
20
1.07797587563232
30
0
41
1
10
23.2868165739224
20
1.03047014717319
30
0
41
1
10
23.5530033561439
20
0.928850618524109
30
0
41
1
10
23.6861950392526
20
0.874780485708214
30
0
41
1
10
23.9533402576016
20
0.760995913265162
30
0
41
1
10
24.0873640220459
20
0.701376196763903
30
0
41
1
10
24.2557432151094
20
0.623833045936095
30
0
41
1
10
24.289442003099
20
0.608182154892035
30
0
41
1
10
24.3567091868038
20
0.576694289081644
30
0
41
1
10
24.3903034985551
20
0.560845416079275
30
0
41
1
10
24.4909790565082
20
0.513004541578766
30
0
41
1
10
24.5579520763353
20
0.480716513367213
30
0
41
1
10
24.8922555252513
20
0.317620058171229
30
0
41
1
10
25.1579270544793
20
0.181896823698224
30
0
41
1
10
25.557019877732
20
-0.023157811328872
30
0
41
1
10
25.690149016867
20
-0.0917535700172891
30
0
41
1
10
25.9572395087243
20
-0.228173987723267
30
0
41
1
10
26.0911889966495
20
-0.296022071605279
30
0
41
1
10
26.29308750558
20
-0.396514347636014
30
0
41
1
10
26.3604235378849
20
-0.429731327359178
30
0
41
1
10
26.4948693901938
20
-0.495289706435671
30
0
41
1
10
26.5620366330579
20
-0.527659675349724
30
0
41
1
10
26.7634750381408
20
-0.623350923446395
30
0
41
1
10
26.8976805945463
20
-0.685254775151719
30
0
41
1
10
27.0992374576645
20
-0.774581629920505
30
0
41
1
10
27.1664657404763
20
-0.803767866659626
30
0
41
1
10
27.2674255882912
20
-0.84656792661761
30
0
41
1
10
27.3011145439155
20
-0.860677936570227
30
0
41
1
10
27.3683743667895
20
-0.888486528395362
30
0
41
1
10
27.4019622277733
20
-0.902192614954799
30
0
41
1
10
27.5697132919613
20
-0.969705950494927
30
0
41
1
10
27.7033131693557
20
-1.02045993610849
30
0
41
1
10
28.1030969105987
20
-1.16202955791837
30
0
41
1
10
28.368300020164
20
-1.24203473769873
30
0
41
1
10
28.7673880585621
20
-1.33708366940735
30
0
41
1
10
28.9006215460716
20
-1.36460309628953
30
0
41
1
10
29.1011320992346
20
-1.3991453471192
30
0
41
1
10
29.1680780908554
20
-1.40954027327101
30
0
41
1
10
29.3022436972535
20
-1.42803819201637
30
0
41
1
10
29.3695270224533
20
-1.43614702759339
30
0
41
1
10
29.4367908984539
20
-1.44306513625747
30
0
0
SPLINE
5
EA
100
AcDbEntity
8
1
62
256
6
ByLayer
370
18
48
1
60
0
100
AcDbSpline
70
4
71
3
72
34
73
30
40
0
40
0
40
0
40
0
40
0.0353998247044854
40
0.0353998247044854
40
0.0724998314466205
40
0.0724998314466205
40
0.109599838188756
40
0.109599838188756
40
0.257999865157296
40
0.257999865157296
40
0.332199878641567
40
0.332199878641567
40
0.369299885383702
40
0.369299885383702
40
0.406399892125837
40
0.406399892125837
40
0.554799919094378
40
0.554799919094378
40
0.628999932578648
40
0.628999932578648
40
0.703199946062918
40
0.703199946062918
40
0.851599973031459
40
0.851599973031459
40
0.888699979773594
40
0.888699979773594
40
0.925799986515729
40
0.925799986515729
40
1
40
1
40
1
40
1
41
1
10
3.5699107284056
20
-1.53383311555481
30
0
41
1
10
3.5699279435029
20
-1.5338270219323
30
0
41
1
10
3.56994489967926
20
-1.5333868474506
30
0
41
1
10
3.56997914375947
20
-1.53158524495211
30
0
41
1
10
3.56999643928293
20
-1.53017462400027
30
0
41
1
10
3.57003026001303
20
-1.52640624977133
30
0
41
1
10
3.5700468172935
20
-1.52404868707472
30
0
41
1
10
3.57012801383681
20
-1.50993169930018
30
0
41
1
10
3.57018794049111
20
-1.49123606471738
30
0
41
1
10
3.57027290305109
20
-1.45217785056977
30
0
41
1
10
3.57030039142452
20
-1.43731267537831
30
0
41
1
10
3.57034061187056
20
-1.41216290163555
30
0
41
1
10
3.57035381888093
20
-1.40331997384982
30
0
41
1
10
3.57037968803314
20
-1.38485169767966
30
0
41
1
10
3.57039237848261
20
-1.37520898474952
30
0
41
1
10
3.57045471361408
20
-1.32498228382343
30
0
41
1
10
3.57050107951034
20
-1.27840318312397
30
0
41
1
10
3.57056645233101
20
-1.19896328741572
30
0
41
1
10
3.57058753312438
20
-1.17087951437114
30
0
41
1
10
3.57062828155327
20
-1.11139872137824
30
0
41
1
10
3.57064766520455
20
-1.08041395047212
30
0
41
1
10
3.57070280788491
20
-0.983965079149812
30
0
41
1
10
3.57073565844237
20
-0.914978912253758
30
0
41
1
10
3.57077100922993
20
-0.822880030580421
30
0
41
1
10
3.57077778866389
20
-0.80416491456802
30
0
41
1
10
3.57079072423511
20
-0.766135488202593
30
0
41
1
10
3.57079689011329
20
-0.746787997113842
30
0
41
1
10
3.57081430892586
20
-0.688055450174318
30
0
41
1
10
3.57082440877611
20
-0.648263632295055
30
0
41
1
10
3.57083286709937
20
-0.607854506341511
30
0
0
SPLINE
5
EB
100
AcDbEntity
8
1
62
256
6
ByLayer
370
18
48
1
60
0
100
AcDbSpline
70
4
71
3
72
8
73
4
40
0
40
0
40
0
40
0
40
1
40
1
40
1
40
1
41
1
10
3.57083286708996
20
-0.607854506332188
30
0
41
1
10
3.49285330263709
20
-0.569876057170859
30
0
41
1
10
3.41457075798647
20
-0.53139250650716
30
0
41
1
10
3.33591657934343
20
-0.492558000521427
30
0
0
SPLINE
5
EC
100
AcDbEntity
8
1
62
256
6
ByLayer
370
18
48
1
60
0
100
AcDbSpline
70
4
71
3
72
84
73
80
40
0
40
0
40
0
40
0
40
0.0624999999999998
40
0.0624999999999998
40
0.125
40
0.125
40
0.187499999999999
40
0.187499999999999
40
0.218749999999999
40
0.218749999999999
40
0.249999999999999
40
0.249999999999999
40
0.281249999999999
40
0.281249999999999
40
0.296874999999997
40
0.296874999999997
40
0.312499999999996
40
0.312499999999996
40
0.343749999999995
40
0.343749999999995
40
0.359374999999996
40
0.359374999999996
40
0.374999999999997
40
0.374999999999997
40
0.406250000000001
40
0.406250000000001
40
0.414062500000002
40
0.414062500000002
40
0.421875000000003
40
0.437500000000005
40
0.453125000000007
40
0.453125000000007
40
0.460937500000008
40
0.460937500000008
40
0.468750000000009
40
0.468750000000009
40
0.500000000000015
40
0.500000000000015
40
0.53125000000002
40
0.53125000000002
40
0.562500000000025
40
0.562500000000025
40
0.578125000000028
40
0.578125000000028
40
0.593750000000031
40
0.593750000000031
40
0.625000000000036
40
0.625000000000036
40
0.687500000000047
40
0.687500000000047
40
0.718750000000052
40
0.718750000000052
40
0.750000000000057
40
0.750000000000057
40
0.757812500000057
40
0.757812500000057
40
0.759765625000057
40
0.759765625000057
40
0.761718750000057
40
0.761718750000057
40
0.765625000000056
40
0.765625000000056
40
0.769531250000056
40
0.769531250000056
40
0.773437500000056
40
0.773437500000056
40
0.781250000000055
40
0.781250000000055
40
0.789062500000055
40
0.789062500000055
40
0.796875000000054
40
0.796875000000054
40
0.812500000000053
40
0.812500000000053
40
0.875000000000035
40
0.875000000000035
40
0.937500000000018
40
0.937500000000018
40
1
40
1
40
1
40
1
41
1
10
3.33562898924362
20
-0.4924131585922
30
0
41
1
10
3.25175772869255
20
-0.450169604813738
30
0
41
1
10
3.16884980065706
20
-0.406135050445187
30
0
41
1
10
3.0052942345713
20
-0.313843067944958
30
0
41
1
10
2.92464235620906
20
-0.265593631106299
30
0
41
1
10
2.76612626148963
20
-0.163865617560191
30
0
41
1
10
2.68825144278995
20
-0.110407005316631
30
0
41
1
10
2.57422444908838
20
-0.0249790476947851
30
0
41
1
10
2.53660647406042
20
0.0044448307339451
30
0
41
1
10
2.46310203843399
20
0.0649187678400835
30
0
41
1
10
2.42717241200955
20
0.0959932062612268
30
0
41
1
10
2.35729082633108
20
0.160154900302189
30
0
41
1
10
2.3233356486574
20
0.193238874307184
30
0
41
1
10
2.27425775340842
20
0.244752462652229
30
0
41
1
10
2.25823791150674
20
0.262213172094562
30
0
41
1
10
2.22716441478519
20
0.297543285786645
30
0
41
1
10
2.21208107108259
20
0.315443188182201
30
0
41
1
10
2.16834373744268
20
0.369926704926428
30
0
41
1
10
2.14118339069171
20
0.407284109618928
30
0
41
1
10
2.10431381990028
20
0.465328772940268
30
0
41
1
10
2.09267313092101
20
0.485013861128891
30
0
41
1
10
2.07090800170184
20
0.525171758395942
30
0
41
1
10
2.06077891639012
20
0.545682671626651
30
0
41
1
10
2.0336406138384
20
0.607240808974751
30
0
41
1
10
2.01961929989048
20
0.648706218831933
30
0
41
1
10
2.00833285174349
20
0.701207517449291
30
0
41
1
10
2.00638497945732
20
0.711779316617793
30
0
41
1
10
2.00318915694578
20
0.732757899062733
30
0
41
1
10
1.99943397113447
20
0.763991940127426
30
0
41
1
10
1.99835291540694
20
0.814887490324082
30
0
41
1
10
2.00301663341688
20
0.85437469398309
30
0
41
1
10
2.00860498536565
20
0.883529651089248
30
0
41
1
10
2.01082585026086
20
0.893201699074609
30
0
41
1
10
2.0159039654697
20
0.91216697398994
30
0
41
1
10
2.01876167864737
20
0.921476274449731
30
0
41
1
10
2.03456222950462
20
0.967202544266399
30
0
41
1
10
2.05202338694232
20
1.00118933649466
30
0
41
1
10
2.09495303398933
20
1.06478860246273
30
0
41
1
10
2.11978055697696
20
1.09350920806156
30
0
41
1
10
2.17444473833805
20
1.14641283999842
30
0
41
1
10
2.20429748848488
20
1.17058069971861
30
0
41
1
10
2.25208060647856
20
1.2041410618863
30
0
41
1
10
2.26850307078018
20
1.21486426581066
30
0
41
1
10
2.30189589813395
20
1.23529236392142
30
0
41
1
10
2.31891132629363
20
1.24502953088825
30
0
41
1
10
2.37079836494587
20
1.27299179842626
30
0
41
1
10
2.40650546932704
20
1.28997588053235
30
0
41
1
10
2.51630745643263
20
1.33699503496106
30
0
41
1
10
2.5930493645418
20
1.36314947304862
30
0
41
1
10
2.71193420913869
20
1.39699050691843
30
0
41
1
10
2.75213128717303
20
1.40733349379255
30
0
41
1
10
2.83327295062946
20
1.42637186910287
30
0
41
1
10
2.87425842504166
20
1.43507763174114
30
0
41
1
10
2.92593488383636
20
1.44508136918716
30
0
41
1
10
2.93629182816494
20
1.44703728957836
30
0
41
1
10
2.94926067271652
20
1.44942978914892
30
0
41
1
10
2.95185740244807
20
1.44990514150578
30
0
41
1
10
2.95715592212562
20
1.45078749491995
30
0
41
1
10
2.95986368018853
20
1.45118404421797
30
0
41
1
10
2.96810543453094
20
1.45227149643773
30
0
41
1
10
2.97383794985603
20
1.45282515112015
30
0
41
1
10
2.98533575918722
20
1.45366406865469
30
0
41
1
10
2.99117485191687
20
1.45385986569551
30
0
41
1
10
3.00291255250403
20
1.45410568125854
30
0
41
1
10
3.00886886345873
20
1.4541025982457
30
0
41
1
10
3.02656326714362
20
1.45377843464763
30
0
41
1
10
3.03809470059883
20
1.45313541335886
30
0
41
1
10
3.06072062810159
20
1.45111925519171
30
0
41
1
10
3.07180947186393
20
1.44974871752436
30
0
41
1
10
3.09402369122895
20
1.44709356381492
30
0
41
1
10
3.10511868888187
20
1.44573981769153
30
0
41
1
10
3.13836465810425
20
1.44159619703871
30
0
41
1
10
3.1604789077744
20
1.43872749940704
30
0
41
1
10
3.27079081635282
20
1.42381482399779
30
0
41
1
10
3.35817363221148
20
1.41007969965756
30
0
41
1
10
3.531131666222
20
1.37839270929825
30
0
41
1
10
3.61678259974792
20
1.36042358854584
30
0
41
1
10
3.7864499135805
20
1.31980154522486
30
0
41
1
10
3.87039975581848
20
1.29718114887186
30
0
41
1
10
3.9536502489432
20
1.27210033055604
30
0
0
SPLINE
5
ED
100
AcDbEntity
8
1
62
256
6
ByLayer
370
18
48
1
60
0
100
AcDbSpline
70
4
71
3
72
64
73
60
40
0
40
0
40
0
40
0
40
0.0451589580096655
40
0.0451589580096655
40
0.0903179160193309
40
0.0903179160193309
40
0.112897395024164
40
0.112897395024164
40
0.135476874028996
40
0.135476874028996
40
0.18063583203866
40
0.18063583203866
40
0.225794790048323
40
0.225794790048323
40
0.270953748057986
40
0.270953748057986
40
0.293533227062818
40
0.293533227062818
40
0.316112706067649
40
0.316112706067649
40
0.361271664077315
40
0.361271664077315
40
0.40643062208698
40
0.40643062208698
40
0.451589580096646
40
0.451589580096646
40
0.474169059101478
40
0.474169059101478
40
0.496748538106311
40
0.496748538106311
40
0.541907496115976
40
0.541907496115976
40
0.564486975120808
40
0.564486975120808
40
0.58706645412564
40
0.58706645412564
40
0.609645933130471
40
0.609645933130471
40
0.632225412135303
40
0.632225412135303
40
0.677384370144968
40
0.677384370144968
40
0.722543328154634
40
0.722543328154634
40
0.767702286164299
40
0.767702286164299
40
0.812861244173964
40
0.812861244173964
40
0.835440723178797
40
0.835440723178797
40
0.85802020218363
40
0.85802020218363
40
0.903179160193295
40
0.903179160193295
40
0.948338118202961
40
0.948338118202961
40
0.993497076212626
40
0.993497076212626
40
1
40
1
40
1
40
1
41
1
10
3.95363904451637
20
1.27210774550653
30
0
41
1
10
4.06473793395412
20
1.23913611337599
30
0
41
1
10
4.175318657118
20
1.2034602584703
30
0
41
1
10
4.39561425672974
20
1.12695154375803
30
0
41
1
10
4.5053163684604
20
1.08609632914343
30
0
41
1
10
4.66952555821797
20
1.02134400306198
30
0
41
1
10
4.72421218617069
20
0.999192329794141
30
0
41
1
10
4.83358972256303
20
0.953911570810789
30
0
41
1
10
4.888275580185
20
0.930776445294782
30
0
41
1
10
5.05228064912365
20
0.859825787538568
30
0
41
1
10
5.16159787491861
20
0.810534714101038
30
0
41
1
10
5.38073812013687
20
0.708874926748052
30
0
41
1
10
5.49043437728318
20
0.656302820531351
30
0
41
1
10
5.71026886108876
20
0.547920715838842
30
0
41
1
10
5.82042424405856
20
0.492134124693052
30
0
41
1
10
5.98641022976665
20
0.40672785060039
30
0
41
1
10
6.04190694668591
20
0.377910774569415
30
0
41
1
10
6.1525329203894
20
0.320068779222964
30
0
41
1
10
6.20772825639602
20
0.291007058643345
30
0
41
1
10
6.3731265006223
20
0.203717868952197
30
0
41
1
10
6.48311856557154
20
0.145339379931698
30
0
41
1
10
6.70247651474057
20
0.0280460950182544
30
0
41
1
10
6.81185916561583
20
-0.0308342885284389
30
0
41
1
10
7.03052127846459
20
-0.148125650209891
30
0
41
1
10
7.13980638137207
20
-0.20652664928673
30
0
41
1
10
7.30387526769198
20
-0.293362973421296
30
0
41
1
10
7.35860388121779
20
-0.322151720840054
30
0
41
1
10
7.4682177263843
20
-0.379269141232129
30
0
41
1
10
7.52308502607576
20
-0.407631555450877
30
0
41
1
10
7.68783185940083
20
-0.492195888792963
30
0
41
1
10
7.79786350834763
20
-0.547860971366674
30
0
41
1
10
7.96347655180838
20
-0.629787073238532
30
0
41
1
10
8.01879737116786
20
-0.656831096025115
30
0
41
1
10
8.12964620430773
20
-0.710202785057191
30
0
41
1
10
8.18494693052446
20
-0.736439429113375
30
0
41
1
10
8.29532170512175
20
-0.787992731215411
30
0
41
1
10
8.35039934485721
20
-0.813302178197034
30
0
41
1
10
8.46042442669105
20
-0.862853297127486
30
0
41
1
10
8.51538835541646
20
-0.88706936444413
30
0
41
1
10
8.68011109408047
20
-0.958107832183174
30
0
41
1
10
8.78964785168455
20
-1.00340243189314
30
0
41
1
10
9.00837867357626
20
-1.08954714700789
30
0
41
1
10
9.11759584670438
20
-1.13035778209226
30
0
41
1
10
9.33621970762547
20
-1.20681232597292
30
0
41
1
10
9.44553677991297
20
-1.24256281874636
30
0
41
1
10
9.66482888431358
20
-1.30834883608839
30
0
41
1
10
9.77478146575518
20
-1.33842768881928
30
0
41
1
10
9.94013583130217
20
-1.37929380071762
30
0
41
1
10
9.99533245165324
20
-1.39219756808072
30
0
41
1
10
10.1059337178844
20
-1.41650168543313
30
0
41
1
10
10.1614039403158
20
-1.42791053703385
30
0
41
1
10
10.327293524619
20
-1.45958779563674
30
0
41
1
10
10.4374254652175
20
-1.47738602399295
30
0
41
1
10
10.6570961193541
20
-1.5063014843407
30
0
41
1
10
10.7667664918472
20
-1.51737033980083
30
0
41
1
10
10.9857296189575
20
-1.53288578034389
30
0
41
1
10
11.0950093456382
20
-1.53732030839862
30
0
41
1
10
11.2199990686309
20
-1.53853677795448
30
0
41
1
10
11.2357327925981
20
-1.53862003662795
30
0
41
1
10
11.251467580115
20
-1.53863340527423
30
0
0
SPLINE
5
EE
100
AcDbEntity
8
1
62
256
6
ByLayer
370
18
48
1
60
0
100
AcDbSpline
70
4
71
3
72
56
73
52
40
0
40
0
40
0
40
0
40
0.0719497060395679
40
0.0719497060395679
40
0.0848392934556855
40
0.0848392934556855
40
0.0977288808718031
40
0.0977288808718031
40
0.12350805570404
40
0.12350805570404
40
0.175066405368514
40
0.175066405368514
40
0.226624755032988
40
0.226624755032988
40
0.278183104697462
40
0.278183104697462
40
0.3039622795297
40
0.316851866945818
40
0.316851866945818
40
0.329741454361937
40
0.329741454361937
40
0.381299804026405
40
0.381299804026405
40
0.432858153690874
40
0.432858153690874
40
0.484416503355343
40
0.484416503355343
40
0.535974853019812
40
0.535974853019812
40
0.561754027852045
40
0.561754027852045
40
0.587533202684278
40
0.587533202684278
40
0.639091552348744
40
0.639091552348744
40
0.690649902013209
40
0.690649902013209
40
0.742208251677674
40
0.742208251677674
40
0.767987426509909
40
0.767987426509909
40
0.780877013926024
40
0.780877013926024
40
0.793766601342139
40
0.845324951006604
40
0.845324951006604
40
0.89688330067107
40
0.89688330067107
40
0.948441650335535
40
0.948441650335535
40
1
40
1
40
1
40
1
41
1
10
20.3911070398382
20
1.54434013378346
30
0
41
1
10
20.6071857256819
20
1.54452984701862
30
0
41
1
10
20.8235774177779
20
1.5315565049703
30
0
41
1
10
21.080587792188
20
1.50060046117682
30
0
41
1
10
21.1196862627767
20
1.49547191797632
30
0
41
1
10
21.1980003535787
20
1.48436400860854
30
0
41
1
10
21.2372562021047
20
1.47837792170989
30
0
41
1
10
21.3549051635551
20
1.45919625275076
30
0
41
1
10
21.4330917035108
20
1.44479527363254
30
0
41
1
10
21.6670801714746
20
1.39693671025347
30
0
41
1
10
21.8223088204914
20
1.35881812938231
30
0
41
1
10
22.1322121242619
20
1.27122595450842
30
0
41
1
10
22.2868970954496
20
1.22176309129955
30
0
41
1
10
22.5966813127741
20
1.11264761404081
30
0
41
1
10
22.7517509965421
20
1.05296476594921
30
0
41
1
10
22.9852173900256
20
0.956437778713564
30
0
41
1
10
23.1021682903667
20
0.906425590439881
30
0
41
1
10
23.2195748483341
20
0.853939963400762
30
0
41
1
10
23.2979624386948
20
0.818418090794523
30
0
41
1
10
23.3372340407852
20
0.800381857928556
30
0
41
1
10
23.533086011107
20
0.709310120505023
30
0
41
1
10
23.6887754616159
20
0.633311600446035
30
0
41
1
10
23.9991795482754
20
0.476877541946806
30
0
41
1
10
24.1539056964772
20
0.396462611283852
30
0
41
1
10
24.4634021915597
20
0.233089903572022
30
0
41
1
10
24.6181351280515
20
0.150064817499867
30
0
41
1
10
24.9283568289079
20
-0.017206659386801
30
0
41
1
10
25.0838479709409
20
-0.101450374565019
30
0
41
1
10
25.3184065432
20
-0.227324875966389
30
0
41
1
10
25.3969654542254
20
-0.269277126983297
30
0
41
1
10
25.5534524548762
20
-0.352112113885426
30
0
41
1
10
25.6314793968585
20
-0.393040994724458
30
0
41
1
10
25.8650655150556
20
-0.514112099142523
30
0
41
1
10
26.0201176941111
20
-0.592562036156863
30
0
41
1
10
26.3297288476174
20
-0.743515863873938
30
0
41
1
10
26.4842892220749
20
-0.816013189426059
30
0
41
1
10
26.7939222584877
20
-0.953404395394983
30
0
41
1
10
26.9490208629057
20
-1.01826128826724
30
0
41
1
10
27.1827467655026
20
-1.10875548723797
30
0
41
1
10
27.2608318863676
20
-1.13779286665309
30
0
41
1
10
27.3783045542402
20
-1.17952871827646
30
0
41
1
10
27.4175587835108
20
-1.19315029098468
30
0
41
1
10
27.4959957623897
20
-1.21969622038321
30
0
41
1
10
27.6917769919416
20
-1.28427574831838
30
0
41
1
10
27.8861761708826
20
-1.33981471363504
30
0
41
1
10
28.1962880720071
20
-1.416497761719
30
0
41
1
10
28.3508818291573
20
-1.44873915939607
30
0
41
1
10
28.6601638371544
20
-1.5003236243636
30
0
41
1
10
28.8148715099696
20
-1.5196562397285
30
0
41
1
10
29.1254206657307
20
-1.54491065765436
30
0
41
1
10
29.2812149477214
20
-1.55085823590147
30
0
41
1
10
29.4379254292006
20
-1.54987307475676
30
0
0
SPLINE
5
EF
100
AcDbEntity
8
1
62
256
6
ByLayer
370
18
48
1
60
0
100
AcDbSpline
70
4
71
3
72
8
73
4
40
0
40
0
40
0
40
0
40
1
40
1
40
1
40
1
41
1
10
29.4379254292084
20
-1.5498730747569
30
0
41
1
10
29.4296986263307
20
-1.55085007748761
30
0
41
1
10
29.4236573179509
20
-1.54615047548055
30
0
41
1
10
29.4188170009116
20
-1.53579535018451
30
0
0
SPLINE
5
F0
100
AcDbEntity
8
1
62
256
6
ByLayer
370
18
48
1
60
0
100
AcDbSpline
70
4
71
3
72
61
73
57
40
0
40
0
40
0
40
0
40
0.0233089372035304
40
0.0233089372035304
40
0.0466178744070609
40
0.0466178744070609
40
0.0699268116105913
40
0.0699268116105913
40
0.0932357488141217
40
0.0932357488141217
40
0.186471497628243
40
0.186471497628243
40
0.279707246442365
40
0.279707246442365
40
0.303016183645896
40
0.303016183645896
40
0.314670652247662
40
0.314670652247662
40
0.326325120849428
40
0.326325120849428
40
0.372942995256492
40
0.372942995256492
40
0.419560869663557
40
0.419560869663557
40
0.466178744070621
40
0.466178744070621
40
0.512796618477686
40
0.512796618477686
40
0.536105555681218
40
0.547760024282984
40
0.547760024282984
40
0.559414492884751
40
0.559414492884751
40
0.60603236729181
40
0.60603236729181
40
0.652650241698869
40
0.652650241698869
40
0.699268116105928
40
0.699268116105928
40
0.745885990512987
40
0.745885990512987
40
0.792503864920046
40
0.792503864920046
40
0.804158333521811
40
0.804158333521811
40
0.815812802123577
40
0.815812802123577
40
0.83912173932711
40
0.83912173932711
40
0.885739613734179
40
0.885739613734179
40
0.932357488141247
40
0.932357488141247
40
0.978975362548315
40
0.978975362548315
40
1
40
1
40
1
40
1
41
1
10
29.4188170009116
20
-1.53579535018451
30
0
41
1
10
29.351377130261
20
-1.53080857432104
30
0
41
1
10
29.2840382873683
20
-1.52452792096582
30
0
41
1
10
29.1493213283069
20
-1.5094689461668
30
0
41
1
10
29.0819696493381
20
-1.50068423643776
30
0
41
1
10
28.9472099978879
20
-1.48065055159495
30
0
41
1
10
28.8798011967591
20
-1.46940227183069
30
0
41
1
10
28.7448693520447
20
-1.44447737886841
30
0
41
1
10
28.6773021841558
20
-1.43078788005747
30
0
41
1
10
28.3406823708912
20
-1.35673430020211
30
0
41
1
10
28.0740852894298
20
-1.27930562772062
30
0
41
1
10
27.5414916286948
20
-1.09388269068296
30
0
41
1
10
27.275462984799
20
-0.985938524534106
30
0
41
1
10
26.9403985113971
20
-0.835687388255337
30
0
41
1
10
26.8732554825813
20
-0.804877314223262
30
0
41
1
10
26.7722878113881
20
-0.75760189626655
30
0
41
1
10
26.7385901386631
20
-0.741666040145731
30
0
41
1
10
26.6711033630896
20
-0.709449541670523
30
0
41
1
10
26.6373342593959
20
-0.69317815781082
30
0
41
1
10
26.4688551507904
20
-0.611289362495768
30
0
41
1
10
26.3347918081332
20
-0.543836979403096
30
0
41
1
10
26.0674680986142
20
-0.406234299072736
30
0
41
1
10
25.9341863534308
20
-0.336123795053425
30
0
41
1
10
25.6678706912659
20
-0.19424572211085
30
0
41
1
10
25.5348655534374
20
-0.122423595100543
30
0
41
1
10
25.2684837070604
20
0.0217194501359756
30
0
41
1
10
25.1350828270143
20
0.0939941418218382
30
0
41
1
10
24.9342120918879
20
0.201850168288559
30
0
41
1
10
24.8335865195712
20
0.255643246197337
30
0
41
1
10
24.7325925765124
20
0.309076376891227
30
0
41
1
10
24.6651718960356
20
0.344600379985707
30
0
41
1
10
24.6313858150612
20
0.362329032728155
30
0
41
1
10
24.4626025649886
20
0.450473317649852
30
0
41
1
10
24.3282605317063
20
0.519250329905788
30
0
41
1
10
24.0604887507558
20
0.652636549226202
30
0
41
1
10
23.9270837382678
20
0.717286250538592
30
0
41
1
10
23.6606596863896
20
0.841539390139019
30
0
41
1
10
23.5275778083664
20
0.901038942473463
30
0
41
1
10
23.2610653843019
20
1.01384920651844
30
0
41
1
10
23.1276410530214
20
1.06717353347497
30
0
41
1
10
22.8600132425813
20
1.16694930572453
30
0
41
1
10
22.7257541699963
20
1.21332193474964
30
0
41
1
10
22.5569825029646
20
1.26631347599911
30
0
41
1
10
22.5232034261369
20
1.27665611751533
30
0
41
1
10
22.4557878310937
20
1.29676163531712
30
0
41
1
10
22.4221227602362
20
1.30653351123368
30
0
41
1
10
22.3212465410804
20
1.33500372694269
30
0
41
1
10
22.2541586676564
20
1.35286090163501
30
0
41
1
10
22.0532721967212
20
1.40299194126473
30
0
41
1
10
21.9198128423262
20
1.43178916186031
30
0
41
1
10
21.6532052771138
20
1.4798278975444
30
0
41
1
10
21.520058179317
20
1.49907666667303
30
0
41
1
10
21.2536213603906
20
1.527805183146
30
0
41
1
10
21.1202923071111
20
1.53726322220666
30
0
41
1
10
20.9262243133035
20
1.54368805382393
30
0
41
1
10
20.8658187123344
20
1.54466331655934
30
0
41
1
10
20.8053058662281
20
1.54460521423607
30
0
0
SPLINE
5
F1
100
AcDbEntity
8
1
62
256
6
ByLayer
370
18
48
1
60
0
100
AcDbSpline
70
4
71
3
72
59
73
55
40
0
40
0
40
0
40
0
40
0.0037133806565227
40
0.0037133806565227
40
0.0263562583688757
40
0.0263562583688757
40
0.0489991360812287
40
0.0489991360812287
40
0.0942848915059324
40
0.0942848915059324
40
0.139570646930637
40
0.139570646930637
40
0.18485640235534
40
0.18485640235534
40
0.230142157780044
40
0.230142157780044
40
0.252785035492396
40
0.252785035492396
40
0.264106474348572
40
0.264106474348572
40
0.275427913204748
40
0.275427913204748
40
0.320713668629452
40
0.320713668629452
40
0.365999424054156
40
0.365999424054156
40
0.41128517947886
40
0.41128517947886
40
0.456570934903564
40
0.456570934903564
40
0.501856690328267
40
0.501856690328267
40
0.547142445752972
40
0.547142445752972
40
0.637713956602381
40
0.637713956602381
40
0.72828546745179
40
0.72828546745179
40
0.739606906307965
40
0.739606906307965
40
0.75092834516414
40
0.77357122287649
40
0.77357122287649
40
0.818856978301192
40
0.818856978301192
40
0.864142733725894
40
0.864142733725894
40
0.909428489150596
40
0.909428489150596
40
0.954714244575298
40
0.954714244575298
40
0.977357122287649
40
0.977357122287649
40
1
40
1
40
1
40
1
41
1
10
12.5847388067745
20
-1.48309441561045
30
0
41
1
10
12.5737331222786
20
-1.48467244835743
30
0
41
1
10
12.5627237089068
20
-1.48621801703399
30
0
41
1
10
12.4845551581766
20
-1.49695656887784
30
0
41
1
10
12.4172536153194
20
-1.5049707735775
30
0
41
1
10
12.2823283791892
20
-1.51853293740194
30
0
41
1
10
12.2146495610883
20
-1.52408471138531
30
0
41
1
10
12.0124877757827
20
-1.53685484946547
30
0
41
1
10
11.8783498357558
20
-1.54022581627197
30
0
41
1
10
11.6107262160162
20
-1.53692483356596
30
0
41
1
10
11.4772558549564
20
-1.53026382373599
30
0
41
1
10
11.2106662146532
20
-1.50702894340839
30
0
41
1
10
11.0774245926247
20
-1.49048086947121
30
0
41
1
10
10.8104504982706
20
-1.44781364393711
30
0
41
1
10
10.6767332915732
20
-1.42169728878207
30
0
41
1
10
10.4755481794122
20
-1.3753799008914
30
0
41
1
10
10.408360180139
20
-1.35876786288065
30
0
41
1
10
10.3073147394719
20
-1.33213820543847
30
0
41
1
10
10.2735900805836
20
-1.32297551488779
30
0
41
1
10
10.2060465311309
20
-1.30408253254765
30
0
41
1
10
10.1722110413313
20
-1.29434686632578
30
0
41
1
10
10.0033881358162
20
-1.24444725312353
30
0
41
1
10
9.86901701471399
20
-1.20049645288449
30
0
41
1
10
9.60125669269451
20
-1.10513214309915
30
0
41
1
10
9.46775727718645
20
-1.05385456919365
30
0
41
1
10
9.20093034446305
20
-0.945021420026137
30
0
41
1
10
9.06761819820676
20
-0.887449361071219
30
0
41
1
10
8.80083310792634
20
-0.76651533375707
30
0
41
1
10
8.66726728442998
20
-0.703296920161648
30
0
41
1
10
8.39919780421269
20
-0.572285451381248
30
0
41
1
10
8.26470004630352
20
-0.504479904513857
30
0
41
1
10
7.99417875605192
20
-0.365237774696254
30
0
41
1
10
7.85965667643228
20
-0.294584520229307
30
0
41
1
10
7.45745820112381
20
-0.0811433499132477
30
0
41
1
10
7.1911320299881
20
0.0630904855376855
30
0
41
1
10
6.65745133659607
20
0.346609236437871
30
0
41
1
10
6.39013459629413
20
0.485965509513051
30
0
41
1
10
6.08620013316525
20
0.634982401513355
30
0
41
1
10
6.05235674968893
20
0.651446345411131
30
0
41
1
10
5.98479185240456
20
0.684036692623124
30
0
41
1
10
5.88357987357921
20
0.7324389111958
30
0
41
1
10
5.78272647918072
20
0.779321976878606
30
0
41
1
10
5.58137541100339
20
0.870890843026928
30
0
41
1
10
5.44760868123532
20
0.928996960822019
30
0
41
1
10
5.18047368079007
20
1.0386196008383
30
0
41
1
10
5.04710533466812
20
1.09013905180399
30
0
41
1
10
4.78033829633802
20
1.18598881623305
30
0
41
1
10
4.64689133318589
20
1.23024958355262
30
0
41
1
10
4.37919593246542
20
1.31057868812542
30
0
41
1
10
4.24495435970249
20
1.34665750405728
30
0
41
1
10
4.04255748226171
20
1.39410379726635
30
0
41
1
10
3.97485348694036
20
1.40881956116516
30
0
41
1
10
3.8395275352338
20
1.43584690636894
30
0
41
1
10
3.77187209935252
20
1.44816923911674
30
0
41
1
10
3.70419488227131
20
1.45928030039639
30
0
0
SPLINE
5
F2
100
AcDbEntity
8
1
62
256
6
ByLayer
370
18
48
1
60
0
100
AcDbSpline
70
4
71
3
72
10
73
6
40
0
40
0
40
0
40
0
40
0.5
40
0.5
40
1
40
1
40
1
40
1
41
1
10
3.70419488227202
20
1.45928030039394
30
0
41
1
10
3.68924838883535
20
1.46173417500128
30
0
41
1
10
3.67449822078191
20
1.46422480558755
30
0
41
1
10
3.64576811538069
20
1.46941446810447
30
0
41
1
10
3.63178488614648
20
1.47211639356954
30
0
41
1
10
3.61875137975917
20
1.47512024816305
30
0
0
SPLINE
5
F3
100
AcDbEntity
8
1
62
256
6
ByLayer
370
18
48
1
60
0
100
AcDbSpline
70
4
71
3
72
16
73
12
40
0
40
0
40
0
40
0
40
0.25
40
0.25
40
0.499999999999999
40
0.499999999999999
40
0.749999999999999
40
0.749999999999999
40
0.874999999999999
40
0.874999999999999
40
1
40
1
40
1
40
1
41
1
10
3.61875137975906
20
1.47512024816308
30
0
41
1
10
3.611781737976
20
1.47672655347057
30
0
41
1
10
3.60537026425536
20
1.47843231429411
30
0
41
1
10
3.5937530248215
20
1.4820274477199
30
0
41
1
10
3.58851300747753
20
1.48392984676502
30
0
41
1
10
3.57964011313317
20
1.48786938587588
30
0
41
1
10
3.57607654744405
20
1.48986823457491
30
0
41
1
10
3.57229769004323
20
1.49290765121722
30
0
41
1
10
3.57130320940442
20
1.49393128362132
30
0
41
1
10
3.56996297451209
20
1.49594577423994
30
0
41
1
10
3.56960779922525
20
1.49694206094443
30
0
41
1
10
3.56961228647674
20
1.49792753661879
30
0
0
SPLINE
5
F4
100
AcDbEntity
8
1
62
256
6
ByLayer
370
18
48
1
60
0
100
AcDbSpline
70
4
71
3
72
10
73
6
40
0
40
0
40
0
40
0
40
0.791930600286871
40
0.791930600286871
40
1
40
1
40
1
40
1
41
1
10
3.56961228647768
20
1.49792753661885
30
0
41
1
10
3.56969886025598
20
1.51694058995397
30
0
41
1
10
3.56977849437288
20
1.5283596843359
30
0
41
1
10
3.5698727755159
20
1.53333003427201
30
0
41
1
10
3.5698920475057
20
1.53384482335932
30
0
41
1
10
3.56991100554171
20
1.53383297994341
30
0
0
SPLINE
5
F5
100
AcDbEntity
8
1
62
256
6
ByLayer
370
18
48
1
60
0
100
AcDbSpline
70
4
71
3
72
46
73
42
40
0
40
0
40
0
40
0
40
0.0348364255540289
40
0.0348364255540289
40
0.0951591489569015
40
0.0951591489569015
40
0.155481872359775
40
0.155481872359775
40
0.185643234061212
40
0.185643234061212
40
0.21580459576265
40
0.21580459576265
40
0.276127319165523
40
0.276127319165523
40
0.336450042568396
40
0.336450042568396
40
0.396772765971269
40
0.396772765971269
40
0.457095489374142
40
0.457095489374142
40
0.487256851075578
40
0.487256851075578
40
0.517418212777015
40
0.517418212777015
40
0.577740936179887
40
0.577740936179887
40
0.63806365958276
40
0.63806365958276
40
0.698386382985633
40
0.698386382985633
40
0.758709106388506
40
0.758709106388506
40
0.819031829791379
40
0.819031829791379
40
0.879354553194251
40
0.879354553194251
40
0.939677276597124
40
0.939677276597124
40
0.969838638298562
40
0.969838638298562
40
1
40
1
40
1
40
1
41
1
10
9.03757257639339
20
1.09983344216951
30
0
41
1
10
9.10068390842176
20
1.12357091766978
30
0
41
1
10
9.16378004166407
20
1.14650877103398
30
0
41
1
10
9.33621970762528
20
1.20681232597286
30
0
41
1
10
9.44553677991277
20
1.24256281874628
30
0
41
1
10
9.66482888431335
20
1.30834883608833
30
0
41
1
10
9.77478146575496
20
1.3384276888192
30
0
41
1
10
9.94013583130192
20
1.37929380071756
30
0
41
1
10
9.99533245165298
20
1.39219756808066
30
0
41
1
10
10.1059337178841
20
1.4165016854331
30
0
41
1
10
10.1614039403155
20
1.4279105370338
30
0
41
1
10
10.3272935246188
20
1.45958779563671
30
0
41
1
10
10.4374254652173
20
1.47738602399292
30
0
41
1
10
10.6570961193538
20
1.50630148434067
30
0
41
1
10
10.766766491847
20
1.51737033980081
30
0
41
1
10
10.9857296189572
20
1.53288578034386
30
0
41
1
10
11.0950093456379
20
1.53732030839862
30
0
41
1
10
11.3135227042664
20
1.53944700203354
30
0
41
1
10
11.4228121903725
20
1.53714116781612
30
0
41
1
10
11.5869881566603
20
1.52861560309151
30
0
41
1
10
11.6417536923315
20
1.52492780891995
30
0
41
1
10
11.7514571552132
20
1.51587852504059
30
0
41
1
10
11.8064102655015
20
1.51052386110652
30
0
41
1
10
11.9715301035965
20
1.49195369465568
30
0
41
1
10
12.081917255243
20
1.47621342066702
30
0
41
1
10
12.3035594667151
20
1.43791276218315
30
0
41
1
10
12.4138918053578
20
1.4155273730947
30
0
41
1
10
12.6338652754931
20
1.36479470630883
30
0
41
1
10
12.7434524621708
20
1.33636447482127
30
0
41
1
10
12.962516205836
20
1.27412945145957
30
0
41
1
10
13.0719340299149
20
1.24028435391375
30
0
41
1
10
13.2905369970964
20
1.16714954428861
30
0
41
1
10
13.3997331158551
20
1.12785818226777
30
0
41
1
10
13.6184358766443
20
1.04444221259109
30
0
41
1
10
13.7279205733369
20
1.00029291288897
30
0
41
1
10
13.9475014644651
20
0.907550088705904
30
0
41
1
10
14.0577226383172
20
0.859159648768042
30
0
41
1
10
14.2236527171838
20
0.783415283618524
30
0
41
1
10
14.2791408187877
20
0.757606709042108
30
0
41
1
10
14.3897557245133
20
0.705262706596045
30
0
41
1
10
14.444928296502
20
0.678705471369625
30
0
41
1
10
14.4999999999908
20
0.651824556509865
30
0
0
SPLINE
5
F6
100
AcDbEntity
8
1
62
256
6
ByLayer
370
18
48
1
60
0
100
AcDbSpline
70
4
71
3
72
37
73
33
40
0
40
0
40
0
40
0
40
0.0786782089424035
40
0.0786782089424035
40
0.118017313413607
40
0.118017313413607
40
0.137686865649208
40
0.137686865649208
40
0.15735641788481
40
0.314712835769622
40
0.314712835769622
40
0.393391044712027
40
0.393391044712027
40
0.432730149183231
40
0.432730149183231
40
0.452399701418833
40
0.452399701418833
40
0.472069253654435
40
0.472069253654435
40
0.550747462596845
40
0.550747462596845
40
0.629425671539255
40
0.629425671539255
40
0.708103880481666
40
0.708103880481666
40
0.786782089424076
40
0.786782089424076
40
0.865460298366486
40
0.865460298366486
40
0.944138507308897
40
0.944138507308897
40
1
40
1
40
1
40
1
41
1
10
14.5
20
0.717632701959189
30
0
41
1
10
14.6568727207264
20
0.643084352537045
30
0
41
1
10
14.8133971715686
20
0.565410825536077
30
0
41
1
10
15.0484155976862
20
0.445515952593922
30
0
41
1
10
15.126795159683
20
0.404989794699844
30
0
41
1
10
15.2445218416095
20
0.343530583069196
30
0
41
1
10
15.2838172245616
20
0.32291705958113
30
0
41
1
10
15.3622802337866
20
0.281588813015617
30
0
41
1
10
15.7148843381744
20
0.095115162449332
30
0
41
1
10
16.0636604671945
20
-0.0949060309962704
30
0
41
1
10
16.5296629490609
20
-0.342087779465714
30
0
41
1
10
16.6851615581535
20
-0.423446511519643
30
0
41
1
10
16.9193381987652
20
-0.542650661942446
30
0
41
1
10
16.9975526085188
20
-0.58191167575734
30
0
41
1
10
17.1152036672634
20
-0.639912996814132
30
0
41
1
10
17.1544888326755
20
-0.659104193954619
30
0
41
1
10
17.2328665432308
20
-0.6970057395379
30
0
41
1
10
17.2719980502717
20
-0.715735452419523
30
0
41
1
10
17.4674107580206
20
-0.808219819217868
30
0
41
1
10
17.6229699789659
20
-0.878465891213182
30
0
41
1
10
17.9333065171938
20
-1.01047748170799
30
0
41
1
10
18.0880821261571
20
-1.07223924657635
30
0
41
1
10
18.3977526048994
20
-1.18601756710467
30
0
41
1
10
18.5526506385257
20
-1.23802685620044
30
0
41
1
10
18.8635706952229
20
-1.33098521540632
30
0
41
1
10
19.0196004860847
20
-1.37193291821555
30
0
41
1
10
19.3336430092961
20
-1.44166992999294
30
0
41
1
10
19.4897221784209
20
-1.47001681110342
30
0
41
1
10
19.800656514084
20
-1.51337867396285
30
0
41
1
10
19.9555652782308
20
-1.52840103939175
30
0
41
1
10
20.2202978646853
20
-1.54258064796443
30
0
41
1
10
20.3301559697663
20
-1.54507383088116
30
0
41
1
10
20.4401197208994
20
-1.54415741456523
30
0
0
SPLINE
5
F7
100
AcDbEntity
8
1
62
256
6
ByLayer
370
18
48
1
60
0
100
AcDbSpline
70
4
71
3
72
8
73
4
40
0
40
0
40
0
40
0
40
1
40
1
40
1
40
1
41
1
10
21.2842368437741
20
-1.47071272581411
30
0
41
1
10
21.3178774189388
20
-1.46518113334264
30
0
41
1
10
21.3514730400577
20
-1.45935301993052
30
0
41
1
10
21.3850281061579
20
-1.45323322732796
30
0
0
SPLINE
5
F8
100
AcDbEntity
8
1
62
256
6
ByLayer
370
18
48
1
60
0
100
AcDbSpline
70
4
71
3
72
8
73
4
40
0
40
0
40
0
40
0
40
1
40
1
40
1
40
1
41
1
10
29.4015066495168
20
1.54997732328974
30
0
41
1
10
29.4136408628874
20
1.54998413480982
30
0
41
1
10
29.4257803945951
20
1.54994942457128
30
0
41
1
10
29.4379254292007
20
1.54987307475676
30
0
0
SPLINE
5
F9
100
AcDbEntity
8
1
62
256
6
ByLayer
370
13
48
1
60
0
100
AcDbSpline
70
4
71
3
72
44
73
40
40
0
40
0
40
0
40
0
40
0.0561930165971813
40
0.0561930165971813
40
0.0887875386239433
40
0.0887875386239433
40
0.105084799637326
40
0.105084799637326
40
0.121382060650708
40
0.121382060650708
40
0.251760148757762
40
0.251760148757762
40
0.382138236864816
40
0.382138236864816
40
0.414732758891579
40
0.414732758891579
40
0.431030019904959
40
0.431030019904959
40
0.44732728091834
40
0.44732728091834
40
0.512516324971858
40
0.512516324971858
40
0.577705369025377
40
0.577705369025377
40
0.610299891052136
40
0.610299891052136
40
0.642894413078896
40
0.642894413078896
40
0.773272501185928
40
0.773272501185928
40
0.838461545239443
40
0.838461545239443
40
0.903650589292958
40
0.903650589292958
40
0.936245111319715
40
0.936245111319715
40
0.968839633346472
40
0.968839633346472
40
1
40
1
40
1
40
1
41
1
10
13.4374524226433
20
1.28523184186767
30
0
41
1
10
13.5524010006488
20
1.25729468993612
30
0
41
1
10
13.6675040826506
20
1.22615854115068
30
0
41
1
10
13.8499000371893
20
1.17216424300054
30
0
41
1
10
13.9169690459601
20
1.15134560617923
30
0
41
1
10
14.0177946294835
20
1.1186798786629
30
0
41
1
10
14.0514402950812
20
1.10754957467228
30
0
41
1
10
14.1188145039434
20
1.08480507181309
30
0
41
1
10
14.1525387849165
20
1.07319233183688
30
0
41
1
10
14.4554470637536
20
0.96689541683989
30
0
41
1
10
14.7221862554359
20
0.859114463668021
30
0
41
1
10
15.2549198357881
20
0.624708379422003
30
0
41
1
10
15.5209364819973
20
0.497933020235791
30
0
41
1
10
15.855603310185
20
0.332354759599497
30
0
41
1
10
15.9226483493867
20
0.298883983407194
30
0
41
1
10
16.0234369192384
20
0.248236196737878
30
0
41
1
10
16.0570694212867
20
0.231279323587557
30
0
41
1
10
16.1244150289476
20
0.197231429732312
30
0
41
1
10
16.1581393897254
20
0.180136341565401
30
0
41
1
10
16.3265676399037
20
0.0945838423694454
30
0
41
1
10
16.461002171522
20
0.0257333094564842
30
0
41
1
10
16.7298193605756
20
-0.111673695928118
30
0
41
1
10
16.8642076681972
20
-0.180216558147606
30
0
41
1
10
17.0661567926838
20
-0.282011085231574
30
0
41
1
10
17.1336187247782
20
-0.315816823517679
30
0
41
1
10
17.2682088997485
20
-0.382697393916999
30
0
41
1
10
17.3353440001227
20
-0.415775048761873
30
0
41
1
10
17.670383304761
20
-0.579027091907676
30
0
41
1
10
17.9363783248371
20
-0.702670672341924
30
0
41
1
10
18.3355318566918
20
-0.872565137470929
30
0
41
1
10
18.4686433428572
20
-0.926502931005956
30
0
41
1
10
18.7353901878705
20
-1.02829923547108
30
0
41
1
10
18.8690260537568
20
-1.07617730434046
30
0
41
1
10
19.0703071728499
20
-1.14279901973529
30
0
41
1
10
19.137585911173
20
-1.16413203605674
30
0
41
1
10
19.2723650326862
20
-1.20485814553498
30
0
41
1
10
19.3395845639644
20
-1.22417679946824
30
0
41
1
10
19.4707911228095
20
-1.25990247829563
30
0
41
1
10
19.5347908544892
20
-1.27640456835599
30
0
41
1
10
19.5986952144247
20
-1.29192926241339
30
0
0
SPLINE
5
FA
100
AcDbEntity
8
1
62
256
6
ByLayer
370
18
48
1
60
0
100
AcDbSpline
70
4
71
3
72
16
73
12
40
0
40
0
40
0
40
0
40
0.148169125228629
40
0.148169125228629
40
0.432018054023141
40
0.432018054023141
40
0.715866982817653
40
0.715866982817653
40
0.999715911612164
40
0.999715911612164
40
1
40
1
40
1
40
1
41
1
10
19.5986952143463
20
-1.29192926239432
30
0
41
1
10
19.6684819685811
20
-1.30888300404669
30
0
41
1
10
19.7381549850362
20
-1.32467112948561
30
0
41
1
10
19.9410927896602
20
-1.36723598272644
30
0
41
1
10
20.0742204296684
20
-1.39075036374649
30
0
41
1
10
20.3404145001566
20
-1.4286082494597
30
0
41
1
10
20.4734864067306
20
-1.4429963233616
30
0
41
1
10
20.7401505390157
20
-1.46245643604379
30
0
41
1
10
20.8738053014206
20
-1.46745871914368
30
0
41
1
10
21.0081053393536
20
-1.46758616436378
30
0
41
1
10
21.008239618817
20
-1.46758628694465
30
0
41
1
10
21.008373898801
20
-1.46758640468124
30
0
0
SPLINE
5
FB
100
AcDbEntity
8
1
62
256
6
ByLayer
370
18
48
1
60
0
100
AcDbSpline
70
4
71
3
72
67
73
63
40
0
40
0
40
0
40
0
40
0.0282442382656591
40
0.0282442382656591
40
0.0690006760761244
40
0.0690006760761244
40
0.10975711388659
40
0.10975711388659
40
0.119946223339207
40
0.119946223339207
40
0.130135332791824
40
0.150513551697058
40
0.150513551697058
40
0.191269989507525
40
0.191269989507525
40
0.232026427317992
40
0.232026427317992
40
0.272782865128459
40
0.272782865128459
40
0.313539302938926
40
0.313539302938926
40
0.323728412391543
40
0.323728412391543
40
0.333917521844161
40
0.333917521844161
40
0.354295740749396
40
0.354295740749396
40
0.435808616370333
40
0.435808616370333
40
0.51732149199127
40
0.51732149199127
40
0.527510601443888
40
0.527510601443888
40
0.537699710896506
40
0.537699710896506
40
0.558077929801742
40
0.558077929801742
40
0.598834367612215
40
0.598834367612215
40
0.680347243233158
40
0.680347243233158
40
0.72110368104363
40
0.72110368104363
40
0.741481899948866
40
0.741481899948866
40
0.751671009401483
40
0.751671009401483
40
0.7618601188541
40
0.7618601188541
40
0.802616556664567
40
0.802616556664567
40
0.843372994475034
40
0.843372994475034
40
0.884129432285501
40
0.884129432285501
40
0.924885870095968
40
0.924885870095968
40
0.945264089001201
40
0.945264089001201
40
0.965642307906434
40
0.965642307906434
40
1
40
1
40
1
40
1
41
1
10
21.6637742445867
20
-1.47657815734388
30
0
41
1
10
21.5714464135596
20
-1.49118625812486
30
0
41
1
10
21.4791602154176
20
-1.503486484484
30
0
41
1
10
21.2536213603906
20
-1.52780518314597
30
0
41
1
10
21.1202923071112
20
-1.53726322220666
30
0
41
1
10
20.8527967007786
20
-1.54611895465035
30
0
41
1
10
20.718628985606
20
-1.54552371388914
30
0
41
1
10
20.550096921283
20
-1.53834186243048
30
0
41
1
10
20.5163190543057
20
-1.53658157324941
30
0
41
1
10
20.4488121635749
20
-1.53242348488757
30
0
41
1
10
20.3476873570493
20
-1.525236086516
30
0
41
1
10
20.2469254177208
20
-1.51523202620643
30
0
41
1
10
20.0457699478512
20
-1.49156105213797
30
0
41
1
10
19.9121484966661
20
-1.47090544197121
30
0
41
1
10
19.6454174718053
20
-1.42023161554536
30
0
41
1
10
19.5122695099171
20
-1.39023193281756
30
0
41
1
10
19.2457852082448
20
-1.3214444402488
30
0
41
1
10
19.1124458480783
20
-1.28266676464295
30
0
41
1
10
18.8451330117545
20
-1.1966971331253
30
0
41
1
10
18.7111187691819
20
-1.14954404912072
30
0
41
1
10
18.5427499784566
20
-1.08578429808208
30
0
41
1
10
18.5090339379699
20
-1.0727912302284
30
0
41
1
10
18.4415076074317
20
-1.04633257095571
30
0
41
1
10
18.4077086406166
20
-1.03287098130113
30
0
41
1
10
18.3065326700939
20
-0.99194343288201
30
0
41
1
10
18.2392554455086
20
-0.963885647731672
30
0
41
1
10
17.9035684403629
20
-0.820025184350214
30
0
41
1
10
17.6372606446541
20
-0.693486297827462
30
0
41
1
10
17.1042383712893
20
-0.42601731386145
30
0
41
1
10
16.8376422878946
20
-0.284879337565968
30
0
41
1
10
16.5348896436866
20
-0.122645629394896
30
0
41
1
10
16.5012116856398
20
-0.104570777859465
30
0
41
1
10
16.4337698733919
20
-0.0683380566932783
30
0
41
1
10
16.3999797234334
20
-0.0501659544224253
30
0
41
1
10
16.2986589322136
20
0.004348712293222
30
0
41
1
10
16.2313009918445
20
0.0406265244803592
30
0
41
1
10
16.0296695998448
20
0.149031737611182
30
0
41
1
10
15.895824515954
20
0.220703094240548
30
0
41
1
10
15.495118758926
20
0.432298098492311
30
0
41
1
10
15.2292074096941
20
0.569017435532231
30
0
41
1
10
14.8285321696596
20
0.761037745344055
30
0
41
1
10
14.694700108554
20
0.822918445374739
30
0
41
1
10
14.4931029451334
20
0.911767846555563
30
0
41
1
10
14.4257585685043
20
0.940716168714005
30
0
41
1
10
14.3244618853979
20
0.983028402981859
30
0
41
1
10
14.2906481438644
20
0.996947746197606
30
0
41
1
10
14.2231692238209
20
1.02430006833367
30
0
41
1
10
14.1894726981601
20
1.03774641656039
30
0
41
1
10
14.0211838081439
20
1.10380946251084
30
0
41
1
10
13.8871839492614
20
1.15293924266712
30
0
41
1
10
13.6199453696732
20
1.24324382962183
30
0
41
1
10
13.4866173701704
20
1.28430725482553
30
0
41
1
10
13.2199666911456
20
1.35775529015493
30
0
41
1
10
13.0866567084637
20
1.39016222921799
30
0
41
1
10
12.8197521831637
20
1.44598101565089
30
0
41
1
10
12.6860208871542
20
1.46927983501013
30
0
41
1
10
12.4845551581766
20
1.49695656887784
30
0
41
1
10
12.4172536153194
20
1.5049707735775
30
0
41
1
10
12.2823283791893
20
1.51853293740194
30
0
41
1
10
12.2146495610883
20
1.52408471138531
30
0
41
1
10
12.0336473263117
20
1.53551824481704
30
0
41
1
10
11.9204847411426
20
1.53904057931257
30
0
41
1
10
11.8075885580575
20
1.53898091624191
30
0
0
SPLINE
5
FC
100
AcDbEntity
8
1
62
256
6
ByLayer
370
18
48
1
60
0
100
AcDbSpline
70
4
71
3
72
8
73
4
40
0
40
0
40
0
40
0
40
1
40
1
40
1
40
1
41
1
10
3.82518447686331
20
-1.43812720283822
30
0
41
1
10
3.7848582106578
20
-1.44560568335868
30
0
41
1
10
3.74453041496289
20
-1.4526581224344
30
0
41
1
10
3.70419488227128
20
-1.45928030039639
30
0
0
SPLINE
5
FD
100
AcDbEntity
8
1
62
256
6
ByLayer
370
18
48
1
60
0
100
AcDbSpline
70
4
71
3
72
10
73
6
40
0
40
0
40
0
40
0
40
0.5
40
0.5
40
1
40
1
40
1
40
1
41
1
10
0.84610352680204
20
1.27289401311907
30
0
41
1
10
0.849837831483285
20
1.21115251819762
30
0
41
1
10
0.851955787993802
20
1.14989928314569
30
0
41
1
10
0.851976775968723
20
1.02858855869422
30
0
41
1
10
0.849875160576914
20
0.968532708196705
30
0
41
1
10
0.846103526802324
20
0.909003387640325
30
0
0
SPLINE
5
FE
100
AcDbEntity
8
SK1
62
256
6
ByLayer
370
18
48
1
60
0
100
AcDbSpline
70
4
71
3
72
8
73
4
40
0
40
0
40
0
40
0
40
1
40
1
40
1
40
1
41
1
10
-35.75
20
0.866783553703954
30
0
41
1
10
-35.8336559546949
20
0.862024636023506
30
0
41
1
10
-35.9170309027431
20
0.857251956725293
30
0
41
1
10
-36
20
0.852459401870618
30
0
0
SPLINE
5
FF
100
AcDbEntity
8
SK1
62
256
6
ByLayer
370
18
48
1
60
0
100
AcDbSpline
70
4
71
3
72
22
73
18
40
0
40
0
40
0
40
0
40
0.0625
40
0.0625
40
0.125
40
0.125
40
0.25
40
0.25
40
0.375
40
0.375
40
0.5
40
0.5
40
0.625
40
0.625
40
0.75
40
0.75
40
1
40
1
40
1
40
1
41
1
10
-35.65
20
0.774233762576358
30
0
41
1
10
-35.65
20
0.778396280744801
30
0
41
1
10
-35.6502718586019
20
0.782504237074278
30
0
41
1
10
-35.6512913504498
20
0.790417145323119
30
0
41
1
10
-35.652030658643
20
0.794196830027715
30
0
41
1
10
-35.6548298230237
20
0.805087674237512
30
0
41
1
10
-35.6575061245997
20
0.811815277961642
30
0
41
1
10
-35.6638376796887
20
0.823819223596814
30
0
41
1
10
-35.6674983282837
20
0.829158774449752
30
0
41
1
10
-35.6756151818521
20
0.838780191187254
30
0
41
1
10
-35.6800682064548
20
0.843034904353772
30
0
41
1
10
-35.6893906957632
20
0.850389676613474
30
0
41
1
10
-35.6942952881823
20
0.85352977424472
30
0
41
1
10
-35.7045485857552
20
0.8588459728266
30
0
41
1
10
-35.7099306774388
20
0.861030058084538
30
0
41
1
10
-35.7265024515808
20
0.866071755266375
30
0
41
1
10
-35.7380004903212
20
0.867466167141174
30
0
41
1
10
-35.7500000000001
20
0.866783553704067
30
0
0
SPLINE
5
100
100
AcDbEntity
8
SK1
62
256
6
ByLayer
370
18
48
1
60
0
100
AcDbSpline
70
4
71
3
72
22
73
18
40
0
40
0
40
0
40
0
40
0.25
40
0.25
40
0.375000000000001
40
0.375000000000001
40
0.500000000000001
40
0.500000000000001
40
0.625000000000002
40
0.625000000000002
40
0.750000000000002
40
0.750000000000002
40
0.875000000000002
40
0.875000000000002
40
0.937500000000001
40
0.937500000000001
40
1
40
1
40
1
40
1
41
1
10
-35.75
20
-0.631042536205058
30
0
41
1
10
-35.7379956523281
20
-0.630359647550137
30
0
41
1
10
-35.7264866986603
20
-0.62757874419114
30
0
41
1
10
-35.7098921057742
20
-0.620421276970404
30
0
41
1
10
-35.7045257065493
20
-0.617541117868484
30
0
41
1
10
-35.6942964893128
20
-0.610865638707565
30
0
41
1
10
-35.6894060316865
20
-0.607059926776429
30
0
41
1
10
-35.6801144608566
20
-0.598410239467995
30
0
41
1
10
-35.6756964104891
20
-0.593549131500055
30
0
41
1
10
-35.6675285377629
20
-0.582619207075368
30
0
41
1
10
-35.6638529491705
20
-0.576659203911419
30
0
41
1
10
-35.6575076548177
20
-0.563511906914641
30
0
41
1
10
-35.6548318331324
20
-0.556261426040379
30
0
41
1
10
-35.6520304488211
20
-0.544696490176591
30
0
41
1
10
-35.65129058319
20
-0.540710129706781
30
0
41
1
10
-35.650270741394
20
-0.532426261547499
30
0
41
1
10
-35.65
20
-0.528165630873559
30
0
41
1
10
-35.65
20
-0.523882182011363
30
0
0
SPLINE
5
101
100
AcDbEntity
8
SK1
62
256
6
ByLayer
370
18
48
1
60
0
100
AcDbSpline
70
4
71
3
72
8
73
4
40
0
40
0
40
0
40
0
40
1
40
1
40
1
40
1
41
1
10
-36
20
-0.64536668803828
30
0
41
1
10
-35.9170299088983
20
-0.640574075776016
30
0
41
1
10
-35.8336550671315
20
-0.635801403394765
30
0
41
1
10
-35.7499999999999
20
-0.631042536204944
30
0
0
SPLINE
5
102
100
AcDbEntity
8
SK1
62
256
6
ByLayer
370
18
48
1
60
0
100
AcDbSpline
70
4
71
3
72
22
73
18
40
0
40
0
40
0
40
0
40
0.249999999999997
40
0.249999999999997
40
0.374999999999998
40
0.374999999999998
40
0.499999999999998
40
0.499999999999998
40
0.624999999999999
40
0.624999999999999
40
0.75
40
0.75
40
0.875000000000001
40
0.875000000000001
40
0.9375
40
0.9375
40
1
40
1
40
1
40
1
41
1
10
-35.75
20
0.631042536205058
30
0
41
1
10
-35.7379956523281
20
0.630359647550137
30
0
41
1
10
-35.7264866986603
20
0.62757874419114
30
0
41
1
10
-35.7098921057742
20
0.620421276970433
30
0
41
1
10
-35.7045257065493
20
0.617541117868484
30
0
41
1
10
-35.6942964893128
20
0.610865638707565
30
0
41
1
10
-35.6894060316865
20
0.607059926776429
30
0
41
1
10
-35.6801144608566
20
0.598410239467995
30
0
41
1
10
-35.6756964104891
20
0.593549131500083
30
0
41
1
10
-35.6675285377629
20
0.582619207075368
30
0
41
1
10
-35.6638529491705
20
0.576659203911419
30
0
41
1
10
-35.6575076548177
20
0.56351190691467
30
0
41
1
10
-35.6548318331324
20
0.556261426040408
30
0
41
1
10
-35.6520304488211
20
0.544696490176591
30
0
41
1
10
-35.65129058319
20
0.540710129706781
30
0
41
1
10
-35.650270741394
20
0.532426261547499
30
0
41
1
10
-35.65
20
0.528165630873588
30
0
41
1
10
-35.65
20
0.523882182011363
30
0
0
SPLINE
5
103
100
AcDbEntity
8
SK1
62
256
6
ByLayer
370
18
48
1
60
0
100
AcDbSpline
70
4
71
3
72
8
73
4
40
0
40
0
40
0
40
0
40
1
40
1
40
1
40
1
41
1
10
-36
20
0.64536668803828
30
0
41
1
10
-35.9170299088983
20
0.640574075776044
30
0
41
1
10
-35.8336550671315
20
0.635801403394765
30
0
41
1
10
-35.7499999999999
20
0.631042536204973
30
0
0
SPLINE
5
104
100
AcDbEntity
8
1
62
256
6
ByLayer
370
18
48
1
60
0
100
AcDbSpline
70
4
71
1
72
4
73
2
40
0
40
0
40
1
40
1
41
1
10
29.3501180401443
20
1.49056796663683
30
0
41
1
10
29.4665966380437
20
1.49118967012808
30
0
0
SPLINE
5
105
100
AcDbEntity
8
1
62
256
6
ByLayer
370
18
48
1
60
0
100
AcDbSpline
70
4
71
3
72
12
73
8
40
0
40
0
40
0
40
0
40
0.0342954836861453
40
0.264128604774957
40
0.469864278411532
40
0.755719528846467
40
1
40
1
40
1
40
1
41
1
10
29.5060253600604
20
0.166229858494148
30
0
41
1
10
29.4852455960073
20
0.173617496864154
30
0
41
1
10
29.3252756084958
20
0.230697384143127
30
0
41
1
10
29.0420416106753
20
0.336057976188187
30
0
41
1
10
28.6082286226264
20
0.500398499497265
30
0
41
1
10
28.167192460904
20
0.672386111516033
30
0
41
1
10
27.851333465259
20
0.801098365081828
30
0
41
1
10
27.706132090532
20
0.861322610091122
30
0
0
SPLINE
5
106
100
AcDbEntity
8
1
62
256
6
ByLayer
370
18
48
1
60
0
100
AcDbSpline
70
4
71
3
72
24
73
20
40
0
40
0
40
0
40
0
40
3.3234283631E-06
40
7.8527459732E-05
40
0.0001464565314046
40
0.0002106011353324
40
0.0002738624443171
40
0.000404287391023
40
0.0015746081158969
40
0.0024571121288943
40
0.0040723376053078
40
0.0070835317992687
40
0.113675381692406
40
0.241041658923042
40
0.348337010176716
40
0.444444810429565
40
0.616803152902165
40
0.846660257992839
40
1
40
1
40
1
40
1
41
1
10
12.1611970339941
20
-0.0639994804375805
30
0
41
1
10
12.1611974713254
20
-0.0639985810421835
30
0
41
1
10
12.1611979977558
20
-0.0639974962747017
30
0
41
1
10
12.1611880757799
20
-0.0639906017960357
30
0
41
1
10
12.1611382557346
20
-0.0639684333886237
30
0
41
1
10
12.1610578360209
20
-0.0639364809770768
30
0
41
1
10
12.1609157551583
20
-0.0638827330331821
30
0
41
1
10
12.1599409506332
20
-0.0635294359341003
30
0
41
1
10
12.1580418266257
20
-0.0628750221702887
30
0
41
1
10
12.1550783360797
20
-0.0618391063832746
30
0
41
1
10
12.1505391691218
20
-0.060261276637732
30
0
41
1
10
12.0595696308816
20
-0.0285786843703875
30
0
41
1
10
11.8649830427863
20
0.0390069094901548
30
0
41
1
10
11.5858537905985
20
0.138318116846762
30
0
41
1
10
11.3158352450979
20
0.236354187410484
30
0
41
1
10
11.00963812088
20
0.349513672567696
30
0
41
1
10
10.6048053717755
20
0.502815512587745
30
0
41
1
10
10.1551020226
20
0.67801023999246
30
0
41
1
10
9.8468931531776
20
0.8037191315222
30
0
41
1
10
9.72382240746492
20
0.854678994727834
30
0
0
SPLINE
5
107
100
AcDbEntity
8
1
62
256
6
ByLayer
370
18
48
1
60
0
100
AcDbSpline
70
4
71
3
72
25
73
21
40
0
40
0
40
0
40
0
40
0.0001053839611086
40
0.0002065546159756
40
0.0003016064942232
40
0.0003981281319374
40
0.0006042654796655
40
0.0019092662139027
40
0.0029142961769705
40
0.0047497891406252
40
0.0081589396895655
40
0.0146640615919958
40
0.0276107031804657
40
0.05497039259717
40
0.114446847822638
40
0.288592043045591
40
0.461978400069872
40
0.614123383201998
40
0.821888425471219
40
1
40
1
40
1
40
1
41
1
10
21.1143114784443
20
-0.0476365594997503
30
0
41
1
10
21.1143186176498
20
-0.0476350162675203
30
0
41
1
10
21.1143164615397
20
-0.0476264072574963
30
0
41
1
10
21.1142390907501
20
-0.0475889623090211
30
0
41
1
10
21.114092423746
20
-0.0475299157882603
30
0
41
1
10
21.1138295124329
20
-0.0474309271923801
30
0
41
1
10
21.1125620541808
20
-0.0469779681952218
30
0
41
1
10
21.1104695273611
20
-0.0462589811966438
30
0
41
1
10
21.1070796925763
20
-0.0450823679526877
30
0
41
1
10
21.1019414146239
20
-0.0433064935944572
30
0
41
1
10
21.0923102325571
20
-0.0399679791711947
30
0
41
1
10
21.0735465291996
20
-0.0334710982687056
30
0
41
1
10
21.0351277318495
20
-0.0201558403612978
30
0
41
1
10
20.9531874277002
20
0.0083143491548867
30
0
41
1
10
20.7389894790088
20
0.0833314774158396
30
0
41
1
10
20.4057701555166
20
0.202607335367759
30
0
41
1
10
19.9981811022709
20
0.35309832876473
30
0
41
1
10
19.5648455286973
20
0.517823068749664
30
0
41
1
10
19.1291562818781
20
0.687851337459307
30
0
41
1
10
18.8186339902672
20
0.814507071534479
30
0
41
1
10
18.6756608498065
20
0.873840936482878
30
0
0
SPLINE
5
108
100
AcDbEntity
8
1
62
256
6
ByLayer
370
18
48
1
60
0
100
AcDbSpline
70
4
71
3
72
17
73
13
40
0
40
0
40
0
40
0
40
0.136928764231092
40
0.250586535430925
40
0.340172225841023
40
0.403415651017153
40
0.460068023075412
40
0.530914549165366
40
0.61699045366744
40
0.719944997389385
40
0.845084400592274
40
1
40
1
40
1
40
1
41
1
10
20.987876303683
20
-1.46757352776615
30
0
41
1
10
21.1709161435712
20
-1.46742376728929
30
0
41
1
10
21.5058515755321
20
-1.46729826924215
30
0
41
1
10
21.9627010362046
20
-1.46817822415591
30
0
41
1
10
22.3173614160411
20
-1.46814778933296
30
0
41
1
10
22.5985442590973
20
-1.46904283312023
30
0
41
1
10
22.85382577436
20
-1.46869377334119
30
0
41
1
10
23.1400967988103
20
-1.4684364076773
30
0
41
1
10
23.4885001117862
20
-1.46920404724881
30
0
41
1
10
23.9083787801747
20
-1.46808858334998
30
0
41
1
10
24.4218463679742
20
-1.4699709937795
30
0
41
1
10
24.7958307356081
20
-1.46934736430785
30
0
41
1
10
25.0025300577596
20
-1.46885448821217
30
0
0
SPLINE
5
109
100
AcDbEntity
8
1
62
256
6
ByLayer
370
18
48
1
60
0
100
AcDbSpline
70
4
71
3
72
15
73
11
40
0
40
0
40
0
40
0
40
0.186624089025762
40
0.378310454951274
40
0.534827511491286
40
0.641807814639923
40
0.758895275426339
40
0.851566904133444
40
0.982385295850676
40
1
40
1
40
1
40
1
41
1
10
16.0489526764156
20
1.46511897467607
30
0
41
1
10
15.8346196419321
20
1.46383916167824
30
0
41
1
10
15.3995545461312
20
1.4619088144072
30
0
41
1
10
14.7843600336065
20
1.46542498232063
30
0
41
1
10
14.257074346906
20
1.46319492462197
30
0
41
1
10
13.8168649720208
20
1.46397707215959
30
0
41
1
10
13.4500774889631
20
1.46265579282013
30
0
41
1
10
13.0564012565629
20
1.46316275824782
30
0
41
1
10
12.7772221675554
20
1.46243838951403
30
0
41
1
10
12.6054149216969
20
1.46216934455188
30
0
41
1
10
12.5850272114517
20
1.46213967374638
30
0
0
SPLINE
5
10A
100
AcDbEntity
8
1
62
256
6
ByLayer
370
18
48
1
60
0
100
AcDbSpline
70
4
71
3
72
17
73
13
40
0
40
0
40
0
40
0
40
0.130076232504281
40
0.261834862749873
40
0.34901091001961
40
0.415306479542536
40
0.451362487072888
40
0.494352322304837
40
0.570799739711473
40
0.680903591656925
40
0.824141373180728
40
1
40
1
40
1
40
1
41
1
10
3.75072505617249
20
-1.45571015270249
30
0
41
1
10
3.89301383971599
20
-1.45684758997865
30
0
41
1
10
4.17977328783547
20
-1.45850403804653
30
0
41
1
10
4.56314037751648
20
-1.45821468610353
30
0
41
1
10
4.87678014290699
20
-1.45790170571516
30
0
41
1
10
5.08513204963032
20
-1.4583275273161
30
0
41
1
10
5.24492161717433
20
-1.45886989781522
30
0
41
1
10
5.41587217989508
20
-1.45905148024062
30
0
41
1
10
5.66822295600269
20
-1.45892041665434
30
0
41
1
10
6.03077963955414
20
-1.45973008336677
30
0
41
1
10
6.50265925089272
20
-1.45926045255265
30
0
41
1
10
6.85344287605312
20
-1.45983586584313
30
0
41
1
10
7.04675868869299
20
-1.4602125649414
30
0
0
SPLINE
5
10B
100
AcDbEntity
8
1
62
256
6
ByLayer
370
18
48
1
60
0
100
AcDbSpline
70
4
71
3
72
15
73
11
40
0
40
0
40
0
40
0
40
0.162117534249786
40
0.27369334577757
40
0.352733548327592
40
0.452598164345909
40
0.543842323401925
40
0.677336684341184
40
0.840827165734528
40
1
40
1
40
1
40
1
41
1
10
11.9863360556923
20
-1.46169737454213
30
0
41
1
10
12.2062638877159
20
-1.4617829618405
30
0
41
1
10
12.577525684743
20
-1.46192024938793
30
0
41
1
10
13.0564012565628
20
-1.46316275824782
30
0
41
1
10
13.4500774889631
20
-1.46265579282013
30
0
41
1
10
13.8168649720208
20
-1.46397707215959
30
0
41
1
10
14.257074346906
20
-1.46319492462197
30
0
41
1
10
14.7843600336065
20
-1.46542498232063
30
0
41
1
10
15.3995545461311
20
-1.4619088144072
30
0
41
1
10
15.8346196419321
20
-1.46383916167824
30
0
41
1
10
16.0489526764155
20
-1.46511897467607
30
0
0
SPLINE
5
10C
100
AcDbEntity
8
1
62
256
6
ByLayer
370
18
48
1
60
0
100
AcDbSpline
70
4
71
3
72
16
73
12
40
0
40
0
40
0
40
0
40
0.18630157710344
40
0.336794285801696
40
0.460607471424679
40
0.564122397104525
40
0.649322464711137
40
0.717452635600678
40
0.793509210256702
40
0.901245006219865
40
1
40
1
40
1
40
1
41
1
10
25.0025300577596
20
1.46885448821217
30
0
41
1
10
24.7958307356081
20
1.46934736430785
30
0
41
1
10
24.4218463679742
20
1.4699709937795
30
0
41
1
10
23.9083787801747
20
1.46808858334998
30
0
41
1
10
23.4885001117862
20
1.46920404724881
30
0
41
1
10
23.1400967988103
20
1.4684364076773
30
0
41
1
10
22.85382577436
20
1.46869377334119
30
0
41
1
10
22.5985442590973
20
1.46904283312023
30
0
41
1
10
22.3173614160412
20
1.46814778933296
30
0
41
1
10
22.0046766575066
20
1.46817462206027
30
0
41
1
10
21.7744026688851
20
1.46780242995047
30
0
41
1
10
21.6642858874058
20
1.46765959088276
30
0
0
SPLINE
5
10D
100
AcDbEntity
8
1
62
256
6
ByLayer
370
18
48
1
60
0
100
AcDbSpline
70
4
71
3
72
8
73
4
40
0
40
0
40
0
40
0
40
1
40
1
40
1
40
1
41
1
10
21.2838812603208
20
1.46742558866501
30
0
41
1
10
21.1851667861804
20
1.46743568363985
30
0
41
1
10
21.0865244569506
20
1.46749281531314
30
0
41
1
10
20.987876303683
20
1.46757352776615
30
0
0
SPLINE
5
10E
100
AcDbEntity
8
1
62
256
6
ByLayer
370
18
48
1
60
0
100
AcDbSpline
70
4
71
3
72
17
73
13
40
0
40
0
40
0
40
0
40
0.164440845347509
40
0.288856103556175
40
0.372658716392053
40
0.417721325593016
40
0.458653681230486
40
0.50702983947022
40
0.594093070726018
40
0.710122231360184
40
0.861688190536786
40
1
40
1
40
1
40
1
41
1
10
7.04675868869288
20
1.4602125649414
30
0
41
1
10
6.86604555883332
20
1.45983974435268
30
0
41
1
10
6.54856626772727
20
1.45932635298368
30
0
41
1
10
6.13886261437929
20
1.45962226101761
30
0
41
1
10
5.86039287508092
20
1.45925528129612
30
0
41
1
10
5.67379541417347
20
1.45902442390482
30
0
41
1
10
5.52613880036532
20
1.45899813717909
30
0
41
1
10
5.3322710544943
20
1.45907152666689
30
0
41
1
10
5.05581212242356
20
1.4581239939906
30
0
41
1
10
4.66592951073943
20
1.45800083794902
30
0
41
1
10
4.21996954079083
20
1.45856560298506
30
0
41
1
10
3.9022337270743
20
1.45678934793011
30
0
41
1
10
3.75075705706052
20
1.45565866554074
30
0
0
LINE
5
82
100
AcDbEntity
8
SK4
62
256
6
ByLayer
370
18
48
0.05
60
0
100
AcDbLine
10
-39
20
0
30
0
11
33
21
0
31
0
39
0
210
0
220
0
230
1
0
LINE
5
84
100
AcDbEntity
8
4
62
256
6
ByLayer
370
18
48
0.05
60
0
100
AcDbLine
10
0
20
0
30
0
11
30
21
0
31
0
39
0
210
0
220
0
230
1
0
LINE
5
86
100
AcDbEntity
8
81
62
256
6
ByLayer
370
18
48
1
60
0
100
AcDbLine
10
30
20
0
30
0
11
33
21
0
31
0
39
0
210
0
220
0
230
1
0
LINE
5
87
100
AcDbEntity
8
80
62
256
6
ByLayer
370
18
48
1
60
0
100
AcDbLine
10
0
20
0
30
0
11
-3
21
0
31
0
39
0
210
0
220
0
230
1
0
LINE
5
88
100
AcDbEntity
8
1
62
256
6
ByLayer
370
13
48
1
60
0
100
AcDbLine
10
29.972147
20
0.02406
30
0
11
29.582452
21
0.454216
31
0
39
0
210
0
220
0
230
1
0
LINE
5
89
100
AcDbEntity
8
1
62
256
6
ByLayer
370
18
48
1
60
0
100
AcDbLine
10
3.750885
20
-1.456062
30
0
11
3.750846
21
-1.457245
31
0
39
0
210
0
220
0
230
1
0
LINE
5
8A
100
AcDbEntity
8
1
62
256
6
ByLayer
370
18
48
1
60
0
100
AcDbLine
10
14.5
20
0.717633
30
0
11
14.5
21
0.651825
31
0
39
0
210
0
220
0
230
1
0
LINE
5
8B
100
AcDbEntity
8
1
62
256
6
ByLayer
370
18
48
1
60
0
100
AcDbLine
10
0.846104
20
1.272894
30
0
11
0.846104
21
0.909003
31
0
39
0
210
0
220
0
230
1
0
LINE
5
8C
100
AcDbEntity
8
1
62
256
6
ByLayer
370
13
48
1
60
0
100
AcDbLine
10
1.595027
20
1.532598
30
0
11
1.595027
21
-1.532598
31
0
39
0
210
0
220
0
230
1
0
LINE
5
8D
100
AcDbEntity
8
1
62
256
6
ByLayer
370
13
48
1
60
0
100
AcDbLine
10
0.797709
20
2.261319
30
0
11
0.797709
21
-2.261319
31
0
39
0
210
0
220
0
230
1
0
LINE
5
8E
100
AcDbEntity
8
1
62
256
6
ByLayer
370
18
48
1
60
0
100
AcDbLine
10
0
20
3
30
0
11
0
21
-3
31
0
39
0
210
0
220
0
230
1
0
LINE
5
8F
100
AcDbEntity
8
1
62
256
6
ByLayer
370
13
48
1
60
0
100
AcDbLine
10
0.796818
20
2.271279
30
0
11
0.796818
21
-2.271279
31
0
39
0
210
0
220
0
230
1
0
LINE
5
90
100
AcDbEntity
8
SK1
62
256
6
ByLayer
370
18
48
1
60
0
100
AcDbLine
10
-36
20
0.852459
30
0
11
-36
21
0.645367
31
0
39
0
210
0
220
0
230
1
0
LINE
5
92
100
AcDbEntity
8
SK1
62
256
6
ByLayer
370
13
48
1
60
0
100
AcDbLine
10
-35.75
20
0.631043
30
0
11
-35.75
21
0.866784
31
0
39
0
210
0
220
0
230
1
0
LINE
5
93
100
AcDbEntity
8
SK1
62
256
6
ByLayer
370
18
48
1
60
0
100
AcDbLine
10
-35.65
20
-0.523882
30
0
11
-35.65
21
0.774234
31
0
39
0
210
0
220
0
230
1
0
LINE
5
94
100
AcDbEntity
8
SK1
62
256
6
ByLayer
370
18
48
1
60
0
100
AcDbLine
10
-36
20
-2.065
30
0
11
-36
21
-0.645367
31
0
39
0
210
0
220
0
230
1
0
LINE
5
95
100
AcDbEntity
8
SK1
62
256
6
ByLayer
370
18
48
1
60
0
100
AcDbLine
10
-36
20
0.852459
30
0
11
-36
21
2.065
31
0
39
0
210
0
220
0
230
1
0
LINE
5
96
100
AcDbEntity
8
SK1
62
256
6
ByLayer
370
18
48
1
60
0
100
AcDbLine
10
-35.065
20
-3
30
0
11
-35.065
21
3
31
0
39
0
210
0
220
0
230
1
0
LINE
5
97
100
AcDbEntity
8
SK1
62
256
6
ByLayer
370
18
48
1
60
0
100
AcDbLine
10
0
20
3
30
0
11
0
21
-3
31
0
39
0
210
0
220
0
230
1
0
LINE
5
98
100
AcDbEntity
8
1
62
256
6
ByLayer
370
18
48
1
60
0
100
AcDbLine
10
1.595027
20
-1.532598
30
0
11
3.569896
21
-1.533832
31
0
39
0
210
0
220
0
230
1
0
LINE
5
99
100
AcDbEntity
8
1
62
256
6
ByLayer
370
18
48
1
60
0
100
AcDbLine
10
11.251946
20
-1.538634
30
0
11
11.807043
21
-1.538981
31
0
39
0
210
0
220
0
230
1
0
LINE
5
9A
100
AcDbEntity
8
1
62
256
6
ByLayer
370
18
48
1
60
0
100
AcDbLine
10
20.391352
20
-1.544346
30
0
11
20.805987
21
-1.544605
31
0
39
0
210
0
220
0
230
1
0
LINE
5
9B
100
AcDbEntity
8
1
62
256
6
ByLayer
370
18
48
1
60
0
100
AcDbLine
10
29.455755
20
1.550011
30
0
11
29.401544
21
1.549977
31
0
39
0
210
0
220
0
230
1
0
LINE
5
9C
100
AcDbEntity
8
1
62
256
6
ByLayer
370
18
48
1
60
0
100
AcDbLine
10
20.805987
20
1.544605
30
0
11
20.391352
21
1.544346
31
0
39
0
210
0
220
0
230
1
0
LINE
5
9D
100
AcDbEntity
8
1
62
256
6
ByLayer
370
18
48
1
60
0
100
AcDbLine
10
11.807043
20
1.538981
30
0
11
11.251946
21
1.538634
31
0
39
0
210
0
220
0
230
1
0
LINE
5
9E
100
AcDbEntity
8
1
62
256
6
ByLayer
370
18
48
1
60
0
100
AcDbLine
10
3.569896
20
1.533832
30
0
11
1.595027
21
1.532598
31
0
39
0
210
0
220
0
230
1
0
LINE
5
9F
100
AcDbEntity
8
1
62
256
6
ByLayer
370
18
48
1
60
0
100
AcDbLine
10
0.797709
20
2.261319
30
0
11
0.796818
21
2.271279
31
0
39
0
210
0
220
0
230
1
0
LINE
5
A0
100
AcDbEntity
8
1
62
256
6
ByLayer
370
18
48
1
60
0
100
AcDbLine
10
0.796818
20
-2.271279
30
0
11
0.797709
21
-2.261319
31
0
39
0
210
0
220
0
230
1
0
LINE
5
A1
100
AcDbEntity
8
SK1
62
256
6
ByLayer
370
18
48
1
60
0
100
AcDbLine
10
-36
20
-2.065
30
0
11
-35.065
21
-3
31
0
39
0
210
0
220
0
230
1
0
LINE
5
A2
100
AcDbEntity
8
SK1
62
256
6
ByLayer
370
18
48
1
60
0
100
AcDbLine
10
-35.065
20
3
30
0
11
-36
21
2.065
31
0
39
0
210
0
220
0
230
1
0
LINE
5
A3
100
AcDbEntity
8
SK1
62
256
6
ByLayer
370
18
48
1
60
0
100
AcDbLine
10
-35.065
20
-3
30
0
11
0
21
-3
31
0
39
0
210
0
220
0
230
1
0
LINE
5
A4
100
AcDbEntity
8
SK1
62
256
6
ByLayer
370
18
48
1
60
0
100
AcDbLine
10
0
20
3
30
0
11
-35.065
21
3
31
0
39
0
210
0
220
0
230
1
0
LINE
5
A5
100
AcDbEntity
8
2
62
256
6
ByLayer
370
13
48
1
60
0
100
AcDbLine
10
43.75
20
17.024065
30
0
11
43.75
21
-10.3
31
0
39
0
210
0
220
0
230
1
0
LINE
5
A7
100
AcDbEntity
8
2
62
256
6
ByLayer
370
13
48
1
60
0
100
AcDbLine
10
31.5875
20
1.55
30
0
11
45.75
21
1.55
31
0
39
0
210
0
220
0
230
1
0
LINE
5
A8
100
AcDbEntity
8
2
62
256
6
ByLayer
370
13
48
1
60
0
100
AcDbLine
10
31.5875
20
-1.55
30
0
11
45.75
21
-1.55
31
0
39
0
210
0
220
0
230
1
0
LINE
5
A9
100
AcDbEntity
8
1
62
256
6
ByLayer
370
18
48
1
60
1
100
AcDbLine
10
43.75
20
1.55
30
0
11
43.289216
21
5.049998
31
0
39
0
210
0
220
0
230
1
0
LINE
5
AA
100
AcDbEntity
8
1
62
256
6
ByLayer
370
18
48
1
60
1
100
AcDbLine
10
43.289216
20
5.049998
30
0
11
44.210784
21
5.050002
31
0
39
0
210
0
220
0
230
1
0
LINE
5
AB
100
AcDbEntity
8
1
62
256
6
ByLayer
370
18
48
1
60
1
100
AcDbLine
10
44.210784
20
5.050002
30
0
11
43.75
21
1.55
31
0
39
0
210
0
220
0
230
1
0
LINE
5
AC
100
AcDbEntity
8
1
62
256
6
ByLayer
370
18
48
1
60
1
100
AcDbLine
10
43.75
20
-1.55
30
0
11
44.210784
21
-5.049998
31
0
39
0
210
0
220
0
230
1
0
LINE
5
AD
100
AcDbEntity
8
1
62
256
6
ByLayer
370
18
48
1
60
1
100
AcDbLine
10
44.210784
20
-5.049998
30
0
11
43.289216
21
-5.050002
31
0
39
0
210
0
220
0
230
1
0
LINE
5
AE
100
AcDbEntity
8
1
62
256
6
ByLayer
370
18
48
1
60
1
100
AcDbLine
10
43.289216
20
-5.050002
30
0
11
43.75
21
-1.55
31
0
39
0
210
0
220
0
230
1
0
LINE
5
AF
100
AcDbEntity
8
SK2
62
256
6
ByLayer
370
13
48
1
60
0
100
AcDbLine
10
-44.25
20
20.315466
30
0
11
-44.25
21
-11.75
31
0
39
0
210
0
220
0
230
1
0
LINE
5
B1
100
AcDbEntity
8
SK2
62
256
6
ByLayer
370
13
48
1
60
0
100
AcDbLine
10
-37.5875
20
3
30
0
11
-46.25
21
3
31
0
39
0
210
0
220
0
230
1
0
LINE
5
B2
100
AcDbEntity
8
SK2
62
256
6
ByLayer
370
13
48
1
60
0
100
AcDbLine
10
-37.5875
20
-3
30
0
11
-46.25
21
-3
31
0
39
0
210
0
220
0
230
1
0
LINE
5
B3
100
AcDbEntity
8
1
62
256
6
ByLayer
370
18
48
1
60
1
100
AcDbLine
10
-44.25
20
3
30
0
11
-44.710784
21
6.499998
31
0
39
0
210
0
220
0
230
1
0
LINE
5
B4
100
AcDbEntity
8
1
62
256
6
ByLayer
370
18
48
1
60
1
100
AcDbLine
10
-44.710784
20
6.499998
30
0
11
-43.789216
21
6.500002
31
0
39
0
210
0
220
0
230
1
0
LINE
5
B5
100
AcDbEntity
8
1
62
256
6
ByLayer
370
18
48
1
60
1
100
AcDbLine
10
-43.789216
20
6.500002
30
0
11
-44.25
21
3
31
0
39
0
210
0
220
0
230
1
0
LINE
5
B6
100
AcDbEntity
8
1
62
256
6
ByLayer
370
18
48
1
60
1
100
AcDbLine
10
-44.25
20
-3
30
0
11
-43.789216
21
-6.499998
31
0
39
0
210
0
220
0
230
1
0
LINE
5
B7
100
AcDbEntity
8
1
62
256
6
ByLayer
370
18
48
1
60
1
100
AcDbLine
10
-43.789216
20
-6.499998
30
0
11
-44.710784
21
-6.500002
31
0
39
0
210
0
220
0
230
1
0
LINE
5
B8
100
AcDbEntity
8
1
62
256
6
ByLayer
370
18
48
1
60
1
100
AcDbLine
10
-44.710784
20
-6.500002
30
0
11
-44.25
21
-3
31
0
39
0
210
0
220
0
230
1
0
LINE
5
B9
100
AcDbEntity
8
SK2
62
256
6
ByLayer
370
13
48
1
60
0
100
AcDbLine
10
30.542826
20
1.49181
30
0
11
40.719749
21
29.460303
31
0
39
0
210
0
220
0
230
1
0
LINE
5
BA
100
AcDbEntity
8
SK2
62
256
6
ByLayer
370
13
48
1
60
0
100
AcDbLine
10
30.542826
20
-1.49181
30
0
11
40.719749
21
-29.460303
31
0
39
0
210
0
220
0
230
1
0
LINE
5
BB
100
AcDbEntity
8
1
62
256
6
ByLayer
370
18
48
1
60
1
100
AcDbLine
10
40.035874
20
27.580858
30
0
11
43.458193
21
26.714809
31
0
39
0
210
0
220
0
230
1
0
LINE
5
BC
100
AcDbEntity
8
1
62
256
6
ByLayer
370
18
48
1
60
1
100
AcDbLine
10
43.458193
20
26.714809
30
0
11
43.117433
21
25.858556
31
0
39
0
210
0
220
0
230
1
0
LINE
5
BD
100
AcDbEntity
8
1
62
256
6
ByLayer
370
18
48
1
60
1
100
AcDbLine
10
43.117433
20
25.858556
30
0
11
40.035874
21
27.580858
31
0
39
0
210
0
220
0
230
1
0
LINE
5
BE
100
AcDbEntity
8
1
62
256
6
ByLayer
370
18
48
1
60
1
100
AcDbLine
10
40.035874
20
-27.580858
30
0
11
43.11743
21
-25.858557
31
0
39
0
210
0
220
0
230
1
0
LINE
5
BF
100
AcDbEntity
8
1
62
256
6
ByLayer
370
18
48
1
60
1
100
AcDbLine
10
43.11743
20
-25.858557
30
0
11
43.458196
21
-26.714808
31
0
39
0
210
0
220
0
230
1
0
LINE
5
C0
100
AcDbEntity
8
1
62
256
6
ByLayer
370
18
48
1
60
1
100
AcDbLine
10
43.458196
20
-26.714808
30
0
11
40.035874
21
-27.580858
31
0
39
0
210
0
220
0
230
1
0
LINE
5
10F
100
AcDbEntity
8
1
62
256
6
ByLayer
370
13
48
0.05
60
0
100
AcDbLine
10
-42.5
20
0
30
0
11
35.955755
21
0
31
0
39
0
210
0
220
0
230
1
0
LINE
5
114
100
AcDbEntity
8
1
62
256
6
ByLayer
370
18
48
1
60
1
100
AcDbLine
10
43.75
20
1.55
30
0
11
43.289216
21
5.049998
31
0
39
0
210
0
220
0
230
1
0
LINE
5
115
100
AcDbEntity
8
1
62
256
6
ByLayer
370
18
48
1
60
1
100
AcDbLine
10
43.289216
20
5.049998
30
0
11
44.210784
21
5.050002
31
0
39
0
210
0
220
0
230
1
0
LINE
5
116
100
AcDbEntity
8
1
62
256
6
ByLayer
370
18
48
1
60
1
100
AcDbLine
10
44.210784
20
5.050002
30
0
11
43.75
21
1.55
31
0
39
0
210
0
220
0
230
1
0
LINE
5
118
100
AcDbEntity
8
1
62
256
6
ByLayer
370
18
48
1
60
1
100
AcDbLine
10
43.75
20
-1.55
30
0
11
44.210784
21
-5.049998
31
0
39
0
210
0
220
0
230
1
0
LINE
5
119
100
AcDbEntity
8
1
62
256
6
ByLayer
370
18
48
1
60
1
100
AcDbLine
10
44.210784
20
-5.049998
30
0
11
43.289216
21
-5.050002
31
0
39
0
210
0
220
0
230
1
0
LINE
5
11A
100
AcDbEntity
8
1
62
256
6
ByLayer
370
18
48
1
60
1
100
AcDbLine
10
43.289216
20
-5.050002
30
0
11
43.75
21
-1.55
31
0
39
0
210
0
220
0
230
1
0
LINE
5
11E
100
AcDbEntity
8
1
62
256
6
ByLayer
370
18
48
1
60
1
100
AcDbLine
10
-44.25
20
3
30
0
11
-44.710784
21
6.499998
31
0
39
0
210
0
220
0
230
1
0
LINE
5
11F
100
AcDbEntity
8
1
62
256
6
ByLayer
370
18
48
1
60
1
100
AcDbLine
10
-44.710784
20
6.499998
30
0
11
-43.789216
21
6.500002
31
0
39
0
210
0
220
0
230
1
0
LINE
5
120
100
AcDbEntity
8
1
62
256
6
ByLayer
370
18
48
1
60
1
100
AcDbLine
10
-43.789216
20
6.500002
30
0
11
-44.25
21
3
31
0
39
0
210
0
220
0
230
1
0
LINE
5
122
100
AcDbEntity
8
1
62
256
6
ByLayer
370
18
48
1
60
1
100
AcDbLine
10
-44.25
20
-3
30
0
11
-43.789216
21
-6.499998
31
0
39
0
210
0
220
0
230
1
0
LINE
5
123
100
AcDbEntity
8
1
62
256
6
ByLayer
370
18
48
1
60
1
100
AcDbLine
10
-43.789216
20
-6.499998
30
0
11
-44.710784
21
-6.500002
31
0
39
0
210
0
220
0
230
1
0
LINE
5
124
100
AcDbEntity
8
1
62
256
6
ByLayer
370
18
48
1
60
1
100
AcDbLine
10
-44.710784
20
-6.500002
30
0
11
-44.25
21
-3
31
0
39
0
210
0
220
0
230
1
0
LINE
5
127
100
AcDbEntity
8
1
62
256
6
ByLayer
370
18
48
1
60
1
100
AcDbLine
10
40.035874
20
27.580858
30
0
11
43.458193
21
26.714809
31
0
39
0
210
0
220
0
230
1
0
LINE
5
128
100
AcDbEntity
8
1
62
256
6
ByLayer
370
18
48
1
60
1
100
AcDbLine
10
43.458193
20
26.714809
30
0
11
43.117433
21
25.858556
31
0
39
0
210
0
220
0
230
1
0
LINE
5
129
100
AcDbEntity
8
1
62
256
6
ByLayer
370
18
48
1
60
1
100
AcDbLine
10
43.117433
20
25.858556
30
0
11
40.035874
21
27.580858
31
0
39
0
210
0
220
0
230
1
0
LINE
5
12B
100
AcDbEntity
8
1
62
256
6
ByLayer
370
18
48
1
60
1
100
AcDbLine
10
40.035874
20
-27.580858
30
0
11
43.11743
21
-25.858557
31
0
39
0
210
0
220
0
230
1
0
LINE
5
12C
100
AcDbEntity
8
1
62
256
6
ByLayer
370
18
48
1
60
1
100
AcDbLine
10
43.11743
20
-25.858557
30
0
11
43.458196
21
-26.714808
31
0
39
0
210
0
220
0
230
1
0
LINE
5
12D
100
AcDbEntity
8
1
62
256
6
ByLayer
370
18
48
1
60
1
100
AcDbLine
10
43.458196
20
-26.714808
30
0
11
40.035874
21
-27.580858
31
0
39
0
210
0
220
0
230
1
0
MTEXT
5
110
100
AcDbEntity
8
2
62
256
6
ByLayer
370
18
48
1
60
0
100
AcDbMText
10
42.185366
20
5.484844
30
0
210
0
220
0
230
1
1
%%c
40
3.5
41
0
44
1.084337
50
90
71
7
72
5
7
iso_b_vert
0
MTEXT
5
113
100
AcDbEntity
8
2
62
256
6
ByLayer
370
18
48
1
60
0
100
AcDbMText
10
42.185366
20
12.4575
30
0
210
0
220
0
230
1
1
\W0.6883;3.1
40
3.5
41
0
44
1.084337
50
90
71
7
72
5
7
iso_b_vert
0
MTEXT
5
11C
100
AcDbEntity
8
SK2
62
256
6
ByLayer
370
18
48
1
60
0
100
AcDbMText
10
-45.814634
20
11.934844
30
0
210
0
220
0
230
1
1
%%c
40
3.5
41
0
44
1.084337
50
90
71
7
72
5
7
iso_b_vert
0
MTEXT
5
11D
100
AcDbEntity
8
SK2
62
256
6
ByLayer
370
18
48
1
60
0
100
AcDbMText
10
-45.814634
20
18.9075
30
0
210
0
220
0
230
1
1
\W0.5404;6
40
3.5
41
0
44
1.084337
50
90
71
7
72
5
7
iso_b_vert
0
MTEXT
5
126
100
AcDbEntity
8
SK2
62
256
6
ByLayer
370
18
48
1
60
0
100
AcDbMText
10
55.278351
20
-2.467366
30
0
210
0
220
0
230
1
1
\W0.7825;140%%d
40
3.5
41
0
44
1.084337
50
0
71
7
72
5
7
iso_b_vert
0
MTEXT
5
12F
100
AcDbEntity
8
SK6
62
256
6
ByLayer
370
18
48
1
60
0
100
AcDbMText
10
-33.215229
20
-97.467366
30
0
210
0
220
0
230
1
1
\W0.7291;860.1-0310-019A1-MM M2BM
40
3.5
41
0
44
1.084337
50
0
71
7
72
5
7
iso_b_vert
0
HATCH
5
117
100
AcDbEntity
8
2
62
256
6
ByLayer
370
13
48
1
60
0
100
AcDbHatch
10
0
20
0
30
0
210
0
220
0
230
1
2
ANSI31
70
0
71
0
91
1
92
5
93
3
72
1
10
43.75
20
1.54999999999998
11
43.2892162584472
21
5.0499983074468
72
1
10
43.2892162584472
20
5.0499983074468
11
44.2107837415528
21
5.05000169255317
72
1
10
44.2107837415528
20
5.05000169255317
11
43.75
21
1.54999999999998
97
0
75
0
76
1
52
0
41
0.0062
77
0
78
1
53
45
43
0
44
0
45
-0.0139193969876572
46
0.0139193969876572
79
0
47
0
98
1
10
0
20
0
0
HATCH
5
11B
100
AcDbEntity
8
2
62
256
6
ByLayer
370
13
48
1
60
0
100
AcDbHatch
10
0
20
0
30
0
210
0
220
0
230
1
2
ANSI31
70
0
71
0
91
1
92
5
93
3
72
1
10
43.75
20
-1.55000000000001
11
44.2107837415528
21
-5.04999830744683
72
1
10
44.2107837415528
20
-5.04999830744683
11
43.2892162584472
21
-5.0500016925532
72
1
10
43.2892162584472
20
-5.0500016925532
11
43.75
21
-1.55000000000001
97
0
75
0
76
1
52
0
41
0.0062
77
0
78
1
53
45
43
0
44
0
45
-0.0139193969876572
46
0.0139193969876572
79
0
47
0
98
1
10
0
20
0
0
HATCH
5
121
100
AcDbEntity
8
SK2
62
256
6
ByLayer
370
13
48
1
60
0
100
AcDbHatch
10
0
20
0
30
0
210
0
220
0
230
1
2
ANSI31
70
0
71
0
91
1
92
5
93
3
72
1
10
-44.25
20
3
11
-44.7107837415528
21
6.49999830744682
72
1
10
-44.7107837415528
20
6.49999830744682
11
-43.7892162584472
21
6.50000169255318
72
1
10
-43.7892162584472
20
6.50000169255318
11
-44.25
21
3
97
0
75
0
76
1
52
0
41
0.0062
77
0
78
1
53
45
43
0
44
0
45
-0.0139193969876572
46
0.0139193969876572
79
0
47
0
98
1
10
0
20
0
0
HATCH
5
125
100
AcDbEntity
8
SK2
62
256
6
ByLayer
370
13
48
1
60
0
100
AcDbHatch
10
0
20
0
30
0
210
0
220
0
230
1
2
ANSI31
70
0
71
0
91
1
92
5
93
3
72
1
10
-44.25
20
-3
11
-43.7892162584472
21
-6.49999830744682
72
1
10
-43.7892162584472
20
-6.49999830744682
11
-44.7107837415528
21
-6.50000169255318
72
1
10
-44.7107837415528
20
-6.50000169255318
11
-44.25
21
-3
97
0
75
0
76
1
52
0
41
0.0062
77
0
78
1
53
45
43
0
44
0
45
-0.0139193969876572
46
0.0139193969876572
79
0
47
0
98
1
10
0
20
0
0
HATCH
5
12A
100
AcDbEntity
8
SK2
62
256
6
ByLayer
370
13
48
1
60
0
100
AcDbHatch
10
0
20
0
30
0
210
0
220
0
230
1
2
ANSI31
70
0
71
0
91
1
92
5
93
3
72
1
10
40.0358735804133
20
27.5808582440424
11
43.4581927637311
21
26.7148090444555
72
1
10
43.4581927637311
20
26.7148090444555
11
43.1174329681614
21
25.8585559348831
72
1
10
43.1174329681614
20
25.8585559348831
11
40.0358735804133
21
27.5808582440424
97
0
75
0
76
1
52
0
41
0.0062
77
0
78
1
53
45
43
0
44
0
45
-0.0139193969876572
46
0.0139193969876572
79
0
47
0
98
1
10
0
20
0
0
HATCH
5
12E
100
AcDbEntity
8
SK2
62
256
6
ByLayer
370
13
48
1
60
0
100
AcDbHatch
10
0
20
0
30
0
210
0
220
0
230
1
2
ANSI31
70
0
71
0
91
1
92
5
93
3
72
1
10
40.0358735804133
20
-27.5808582440424
11
43.1174298229728
21
-25.8585571865752
72
1
10
43.1174298229728
20
-25.8585571865752
11
43.4581959089197
21
-26.7148077927632
72
1
10
43.4581959089197
20
-26.7148077927632
11
40.0358735804133
21
-27.5808582440424
97
0
75
0
76
1
52
0
41
0.0062
77
0
78
1
53
45
43
0
44
0
45
-0.0139193969876572
46
0.0139193969876572
79
0
47
0
98
1
10
0
20
0
0
DIMENSION
5
132
100
AcDbEntity
8
2
62
256
6
ByLayer
370
18
48
1
60
0
100
AcDbDimension
2
_U0
10
30
20
-56.767949
30
0
11
-3
21
-56.767949
31
0
70
32
71
1
72
1
41
1
210
0
220
0
230
1
3
Standard
100
AcDbAlignedDimension
13
-36
23
-3
33
0
14
30
24
-1.55
34
0
50
0
100
AcDbRotatedDimension
1001
ACAD
1000
DSTYLE
1002
{
1070
   371
1070
    13
1070
   372
1070
    13
1070
     3
1000

1070
   170
1070
     0
1070
   144
1040
1.0
1070
   277
1070
     2
1070
   284
1070
     8
1070
   278
1070
    46
1070
   146
1040
1.0
1070
   345
1005
16
1070
   347
1005
16
1070
   346
1005
16
1070
   344
1005
0
1070
   343
1005
0
1070
   172
1070
     1
1070
    76
1070
     0
1070
    75
1070
     0
1070
   282
1070
     0
1070
   281
1070
     0
1070
    71
1070
     0
1070
    74
1070
     0
1070
   279
1070
     0
1070
   173
1070
     1
1070
   340
1005
111
1070
   271
1070
     2
1070
   272
1070
     2
1070
    77
1070
     1
1070
    73
1070
     1
1070
   171
1070
     3
1070
   274
1070
     4
1070
   177
1070
     2
1070
   176
1070
     2
1070
   178
1070
     2
1070
    78
1070
     8
1070
    48
1040
-0.1
1070
    41
1040
3.5
1070
   147
1040
1.75
1070
    42
1040
1.5875
1070
    44
1040
2.0
1070
   140
1040
3.5
1002
}
1001
ACAD_DSTYLE_DIM_LINETYPE
1070
   380
1005
16
1001
ACAD_DSTYLE_DIM_EXT1_LINETYPE
1070
   381
1005
16
1001
ACAD_DSTYLE_DIM_EXT2_LINETYPE
1070
   382
1005
16
0
DIMENSION
5
14B
100
AcDbEntity
8
SK2
62
256
6
ByLayer
370
18
48
1
60
0
100
AcDbDimension
2
_U1
10
2
20
-36.767949
30
0
11
16
21
-36.767949
31
0
70
32
71
1
72
1
41
1
210
0
220
0
230
1
3
Standard
100
AcDbAlignedDimension
13
30
23
-1.55
33
0
14
2
24
-1.55
34
0
50
0
100
AcDbRotatedDimension
1001
ACAD
1000
DSTYLE
1002
{
1070
   371
1070
    13
1070
   372
1070
    13
1070
     3
1000

1070
   170
1070
     0
1070
   144
1040
1.0
1070
   277
1070
     2
1070
   284
1070
     8
1070
   278
1070
    46
1070
   146
1040
1.0
1070
   345
1005
16
1070
   347
1005
16
1070
   346
1005
16
1070
   344
1005
0
1070
   343
1005
0
1070
   172
1070
     1
1070
    76
1070
     0
1070
    75
1070
     0
1070
   282
1070
     0
1070
   281
1070
     0
1070
    71
1070
     0
1070
    74
1070
     0
1070
   279
1070
     0
1070
   173
1070
     1
1070
   340
1005
111
1070
   271
1070
     2
1070
   272
1070
     2
1070
    77
1070
     1
1070
    73
1070
     1
1070
   171
1070
     3
1070
   274
1070
     4
1070
   177
1070
     2
1070
   176
1070
     2
1070
   178
1070
     2
1070
    78
1070
     8
1070
    48
1040
-0.1
1070
    41
1040
3.5
1070
   147
1040
1.75
1070
    42
1040
1.5875
1070
    44
1040
2.0
1070
   140
1040
3.5
1002
}
1001
ACAD_DSTYLE_DIM_LINETYPE
1070
   380
1005
16
1001
ACAD_DSTYLE_DIM_EXT1_LINETYPE
1070
   381
1005
16
1001
ACAD_DSTYLE_DIM_EXT2_LINETYPE
1070
   382
1005
16
0
DIMENSION
5
163
100
AcDbEntity
8
SK2
62
256
6
ByLayer
370
18
48
1
60
0
100
AcDbDimension
2
_U2
10
11
20
-26.767949
30
0
11
20.5
21
-26.767949
31
0
70
32
71
1
72
1
41
1
210
0
220
0
230
1
3
Standard
100
AcDbAlignedDimension
13
30
23
-1.55
33
0
14
11
24
-1.55
34
0
50
0
100
AcDbRotatedDimension
1001
ACAD
1000
DSTYLE
1002
{
1070
   371
1070
    13
1070
   372
1070
    13
1070
     3
1000

1070
   170
1070
     0
1070
   144
1040
1.0
1070
   277
1070
     2
1070
   284
1070
     8
1070
   278
1070
    46
1070
   146
1040
1.0
1070
   345
1005
16
1070
   347
1005
16
1070
   346
1005
16
1070
   344
1005
0
1070
   343
1005
0
1070
   172
1070
     1
1070
    76
1070
     0
1070
    75
1070
     0
1070
   282
1070
     0
1070
   281
1070
     0
1070
    71
1070
     0
1070
    74
1070
     0
1070
   279
1070
     0
1070
   173
1070
     1
1070
   340
1005
111
1070
   271
1070
     2
1070
   272
1070
     2
1070
    77
1070
     1
1070
    73
1070
     1
1070
   171
1070
     3
1070
   274
1070
     4
1070
   177
1070
     2
1070
   176
1070
     2
1070
   178
1070
     2
1070
    78
1070
     8
1070
    48
1040
-0.1
1070
    41
1040
3.5
1070
   147
1040
1.75
1070
    42
1040
1.5875
1070
    44
1040
2.0
1070
   140
1040
3.5
1002
}
1001
ACAD_DSTYLE_DIM_LINETYPE
1070
   380
1005
16
1001
ACAD_DSTYLE_DIM_EXT1_LINETYPE
1070
   381
1005
16
1001
ACAD_DSTYLE_DIM_EXT2_LINETYPE
1070
   382
1005
16
0
DIMENSION
5
17D
100
AcDbEntity
8
SK2
62
256
6
ByLayer
370
18
48
1
60
0
100
AcDbDimension
2
_U3
10
0
20
-36.767949
30
0
11
-18
21
-36.767949
31
0
70
32
71
1
72
1
41
1
210
0
220
0
230
1
3
Standard
100
AcDbAlignedDimension
13
-36
23
-3
33
0
14
0
24
-3
34
0
50
0
100
AcDbRotatedDimension
1001
ACAD
1000
DSTYLE
1002
{
1070
   371
1070
    13
1070
   372
1070
    13
1070
     3
1000

1070
   170
1070
     0
1070
   144
1040
1.0
1070
   277
1070
     2
1070
   284
1070
     8
1070
   278
1070
    46
1070
   146
1040
1.0
1070
   345
1005
16
1070
   347
1005
16
1070
   346
1005
16
1070
   344
1005
0
1070
   343
1005
0
1070
   172
1070
     1
1070
    76
1070
     0
1070
    75
1070
     0
1070
   282
1070
     0
1070
   281
1070
     0
1070
    71
1070
     0
1070
    74
1070
     0
1070
   279
1070
     0
1070
   173
1070
     1
1070
   340
1005
111
1070
   271
1070
     2
1070
   272
1070
     2
1070
    77
1070
     1
1070
    73
1070
     1
1070
   171
1070
     3
1070
   274
1070
     4
1070
   177
1070
     2
1070
   176
1070
     2
1070
   178
1070
     2
1070
    78
1070
     8
1070
    48
1040
-0.1
1070
    41
1040
3.5
1070
   147
1040
1.75
1070
    42
1040
1.5875
1070
    44
1040
2.0
1070
   140
1040
3.5
1002
}
1001
ACAD_DSTYLE_DIM_LINETYPE
1070
   380
1005
16
1001
ACAD_DSTYLE_DIM_EXT1_LINETYPE
1070
   381
1005
16
1001
ACAD_DSTYLE_DIM_EXT2_LINETYPE
1070
   382
1005
16
0
DIMENSION
5
195
100
AcDbEntity
8
SK2
62
256
6
ByLayer
370
18
48
1
60
0
100
AcDbDimension
2
_U4
10
30
20
-46.767949
30
0
11
15
21
-46.767949
31
0
70
32
71
1
72
1
41
1
210
0
220
0
230
1
3
Standard
100
AcDbAlignedDimension
13
0
23
-3
33
0
14
30
24
-1.55
34
0
50
0
100
AcDbRotatedDimension
1001
ACAD
1000
DSTYLE
1002
{
1070
   371
1070
    13
1070
   372
1070
    13
1070
     3
1000

1070
   170
1070
     0
1070
   144
1040
1.0
1070
   277
1070
     2
1070
   284
1070
     8
1070
   278
1070
    46
1070
   146
1040
1.0
1070
   345
1005
16
1070
   347
1005
16
1070
   346
1005
16
1070
   344
1005
0
1070
   343
1005
0
1070
   172
1070
     1
1070
    76
1070
     0
1070
    75
1070
     0
1070
   282
1070
     0
1070
   281
1070
     0
1070
    71
1070
     0
1070
    74
1070
     0
1070
   279
1070
     0
1070
   173
1070
     1
1070
   340
1005
111
1070
   271
1070
     2
1070
   272
1070
     2
1070
    77
1070
     1
1070
    73
1070
     1
1070
   171
1070
     3
1070
   274
1070
     4
1070
   177
1070
     2
1070
   176
1070
     2
1070
   178
1070
     2
1070
    78
1070
     8
1070
    48
1040
-0.1
1070
    41
1040
3.5
1070
   147
1040
1.75
1070
    42
1040
1.5875
1070
    44
1040
2.0
1070
   140
1040
3.5
1002
}
1001
ACAD_DSTYLE_DIM_LINETYPE
1070
   380
1005
16
1001
ACAD_DSTYLE_DIM_EXT1_LINETYPE
1070
   381
1005
16
1001
ACAD_DSTYLE_DIM_EXT2_LINETYPE
1070
   382
1005
16
0
ENDSEC
0
SECTION
2
OBJECTS
0
DICTIONARY
5
21d
330
0
100
AcDbDictionary
280
0
281
1
3
ACAD_GROUP
350
21e
3
ACAD_MLINESTYLE
350
21f
0
DICTIONARY
5
21e
330
0
100
AcDbDictionary
280
0
281
1
0
DICTIONARY
5
21f
330
0
100
AcDbDictionary
280
0
281
1
3
Standard
350
18
0
MLINESTYLE
5
18
330
21f
100
AcDbMlineStyle
2
Standard
70
0
3

62
256
51
90
52
90
71
2
49
-0.5
62
256
6
ByLayer
49
0.5
62
256
6
ByLayer
0
RASTERVARIABLES
5
20b
330

100
AcDbRasterVariables
90
0
70
1
71
1
72
1
0
ENDSEC
0
EOF
