0
SECTION
2
HEADER
9
$ACADVER
1
AC1015
9
$DWGCODEPAGE
3
ANSI_1252
9
$HANDSEED
5
21e
9
$ANGBASE
50
0
9
$ANGDIR
70
0
9
$ATTMODE
70
1
9
$AUNITS
70
0
9
$AUPREC
70
0
9
$CECOLOR
62
256
9
$CELTSCALE
40
1
9
$CELTYPE
6
ByLayer
9
$CELWEIGHT
370
18
9
$CLAYER
8
0
9
$CMLJUST
70
0
9
$CMLSCALE
40
1
9
$CMLSTYLE
2
Standard
9
$DIMSTYLE
2
Standard
9
$TEXTSIZE
40
0.2
9
$TEXTSTYLE
7
Standard
9
$LUNITS
70
2
9
$LUPREC
70
4
9
$EXTNAMES
290
1
9
$INSUNITS
70
4
9
$LTSCALE
40
1
9
$LWDISPLAY
290
1
9
$PDMODE
70
0
9
$PDSIZE
40
0
9
$PLINEGEN
70
0
0
ENDSEC
0
SECTION
2
CLASSES
0
CLASS
1
RASTERVARIABLES
2
AcDbRasterVariables
3
ISM
90
0
280
0
281
0
0
ENDSEC
0
SECTION
2
TABLES
0
TABLE
2
VPORT
5
214
100
AcDbSymbolTable
0
VPORT
5
1
100
AcDbSymbolTableRecord
100
AcDbViewportTableRecord
2
*Active
70
0
10
0
20
0
11
1
21
1
12
-1
22
1
13
0
23
0
14
0.5
24
0.5
15
10
25
10
16
0
26
0
36
1
17
0
27
0
37
0
0
ENDTAB
0
TABLE
2
LTYPE
5
215
100
AcDbSymbolTable
0
LTYPE
5
14
100
AcDbSymbolTableRecord
100
AcDbLinetypeTableRecord
70
0
2
ByBlock
3

72
65
73
0
40
0
0
LTYPE
5
15
100
AcDbSymbolTableRecord
100
AcDbLinetypeTableRecord
70
0
2
ByLayer
3

72
65
73
0
40
0
0
LTYPE
5
16
100
AcDbSymbolTableRecord
100
AcDbLinetypeTableRecord
70
0
2
Continuous
3
Solid line
72
65
73
0
40
0
0
LTYPE
5
6E
100
AcDbSymbolTableRecord
100
AcDbLinetypeTableRecord
70
0
2
CENTER
3
____ _ ____ _ ____ _ ____
72
65
73
4
40
47.5
49
22
74
0
49
-8.5
74
0
49
8.5
74
0
49
-8.5
74
0
0
LTYPE
5
6F
100
AcDbSymbolTableRecord
100
AcDbLinetypeTableRecord
70
0
2
DASHED
3
__ __ __ __ __ __ __ __ __
72
65
73
2
40
25.72
49
12.86
74
0
49
-12.86
74
0
0
ENDTAB
0
TABLE
2
LAYER
5
216
100
AcDbSymbolTable
0
LAYER
5
10
100
AcDbSymbolTableRecord
100
AcDbLayerTableRecord
2
0
70
0
62
7
6
Continuous
290
1
370
-3
390
0
0
LAYER
5
71
100
AcDbSymbolTableRecord
100
AcDbLayerTableRecord
2
80
70
0
62
-6
6
Continuous
290
1
370
-3
390
0
0
LAYER
5
73
100
AcDbSymbolTableRecord
100
AcDbLayerTableRecord
2
81
70
0
62
-3
6
Continuous
290
1
370
-3
390
0
0
LAYER
5
75
100
AcDbSymbolTableRecord
100
AcDbLayerTableRecord
2
1
70
0
62
4
6
Continuous
290
1
370
-3
390
0
0
LAYER
5
87
100
AcDbSymbolTableRecord
100
AcDbLayerTableRecord
2
4
70
0
62
-2
6
CENTER
290
1
370
-3
390
0
0
LAYER
5
A1
100
AcDbSymbolTableRecord
100
AcDbLayerTableRecord
2
2
70
0
62
7
6
Continuous
290
1
370
-3
390
0
0
LAYER
5
129
100
AcDbSymbolTableRecord
100
AcDbLayerTableRecord
2
Defpoints
70
0
62
7
6
Continuous
290
0
370
-3
390
0
0
LAYER
5
200
100
AcDbSymbolTableRecord
100
AcDbLayerTableRecord
2
SK4
70
0
62
2
6
CENTER
290
1
370
-3
390
0
0
LAYER
5
201
100
AcDbSymbolTableRecord
100
AcDbLayerTableRecord
2
SK1
70
0
62
4
6
Continuous
290
1
370
-3
390
0
0
LAYER
5
202
100
AcDbSymbolTableRecord
100
AcDbLayerTableRecord
2
SK2
70
0
62
7
6
Continuous
290
1
370
-3
390
0
0
LAYER
5
203
100
AcDbSymbolTableRecord
100
AcDbLayerTableRecord
2
SK6
70
0
62
5
6
Continuous
290
1
370
-3
390
0
0
ENDTAB
0
TABLE
2
STYLE
5
217
100
AcDbSymbolTable
0
STYLE
5
11
100
AcDbSymbolTableRecord
100
AcDbTextStyleTableRecord
2
Standard
3
txt
70
0
71
0
40
0
41
1
42
0
50
0
0
STYLE
5
105
100
AcDbSymbolTableRecord
100
AcDbTextStyleTableRecord
2
iso_b_vert
3
simplex.shx
70
0
71
0
40
0
41
1
42
0
50
0
0
STYLE
5
106
100
AcDbSymbolTableRecord
100
AcDbTextStyleTableRecord
2
DWGDirectTextStyle
3
simplex
70
0
71
0
40
0
41
1
42
0
50
0
0
ENDTAB
0
TABLE
2
DIMSTYLE
5
218
100
AcDbSymbolTable
100
AcDbDimStyleTable
0
DIMSTYLE
105
27
100
AcDbSymbolTableRecord
100
AcDbDimStyleTableRecord
2
Standard
70
0
3
<>
41
0.18
42
0.0625
44
0.18
140
0.18
147
0.09
73
0
74
0
77
1
271
2
275
0
278
52
280
0
340
11
0
ENDTAB
0
TABLE
2
VIEW
5
219
100
AcDbSymbolTable
0
ENDTAB
0
TABLE
2
UCS
5
21a
100
AcDbSymbolTable
0
ENDTAB
0
TABLE
2
APPID
5
21b
100
AcDbSymbolTable
0
APPID
5
12
100
AcDbSymbolTableRecord
100
AcDbRegAppTableRecord
2
ACAD
70
0
0
APPID
5
125
100
AcDbSymbolTableRecord
100
AcDbRegAppTableRecord
2
ACAD_DSTYLE_DIMBREAK
70
0
0
APPID
5
1BF
100
AcDbSymbolTableRecord
100
AcDbRegAppTableRecord
2
ACAD_DSTYLE_DIM_LINETYPE
70
0
0
APPID
5
1C0
100
AcDbSymbolTableRecord
100
AcDbRegAppTableRecord
2
ACAD_DSTYLE_DIM_EXT1_LINETYPE
70
0
0
APPID
5
1C1
100
AcDbSymbolTableRecord
100
AcDbRegAppTableRecord
2
ACAD_DSTYLE_DIM_EXT2_LINETYPE
70
0
0
APPID
5
1FC
100
AcDbSymbolTableRecord
100
AcDbRegAppTableRecord
2
ACAD_MLEADERVER
70
0
0
ENDTAB
0
TABLE
2
BLOCK_RECORD
5
21c
100
AcDbSymbolTable
0
BLOCK_RECORD
5
1F
100
AcDbSymbolTableRecord
100
AcDbBlockTableRecord
2
*Model_Space
340
0
70
0
0
BLOCK_RECORD
5
1B
100
AcDbSymbolTableRecord
100
AcDbBlockTableRecord
2
*Paper_Space
340
0
70
0
0
BLOCK_RECORD
5
23
100
AcDbSymbolTableRecord
100
AcDbBlockTableRecord
2
*Paper_Space0
340
0
70
0
0
BLOCK_RECORD
5
12A
100
AcDbSymbolTableRecord
100
AcDbBlockTableRecord
2
*D1
340
0
70
0
0
BLOCK_RECORD
5
136
100
AcDbSymbolTableRecord
100
AcDbBlockTableRecord
2
_U0
340
0
70
0
0
BLOCK_RECORD
5
142
100
AcDbSymbolTableRecord
100
AcDbBlockTableRecord
2
*D3
340
0
70
0
0
BLOCK_RECORD
5
14E
100
AcDbSymbolTableRecord
100
AcDbBlockTableRecord
2
_U1
340
0
70
0
0
BLOCK_RECORD
5
15A
100
AcDbSymbolTableRecord
100
AcDbBlockTableRecord
2
*D5
340
0
70
0
0
BLOCK_RECORD
5
166
100
AcDbSymbolTableRecord
100
AcDbBlockTableRecord
2
_U2
340
0
70
0
0
BLOCK_RECORD
5
174
100
AcDbSymbolTableRecord
100
AcDbBlockTableRecord
2
*D7
340
0
70
0
0
BLOCK_RECORD
5
180
100
AcDbSymbolTableRecord
100
AcDbBlockTableRecord
2
_U3
340
0
70
0
0
BLOCK_RECORD
5
18C
100
AcDbSymbolTableRecord
100
AcDbBlockTableRecord
2
*D9
340
0
70
0
0
BLOCK_RECORD
5
198
100
AcDbSymbolTableRecord
100
AcDbBlockTableRecord
2
_U4
340
0
70
0
0
ENDTAB
0
ENDSEC
0
SECTION
2
BLOCKS
0
BLOCK
5
20
100
AcDbEntity
8
0
100
AcDbBlockBegin
2
*Model_Space
70
0
10
0
20
0
30
0
3
*Model_Space
0
ENDBLK
5
21
100
AcDbEntity
8
0
100
AcDbBlockEnd
0
BLOCK
5
1C
100
AcDbEntity
8
0
100
AcDbBlockBegin
2
*Paper_Space
70
0
10
0
20
0
30
0
3
*Paper_Space
0
ENDBLK
5
1D
100
AcDbEntity
8
0
100
AcDbBlockEnd
0
BLOCK
5
24
100
AcDbEntity
8
0
100
AcDbBlockBegin
2
*Paper_Space0
70
0
10
0
20
0
30
0
3
*Paper_Space0
0
ENDBLK
5
25
100
AcDbEntity
8
0
100
AcDbBlockEnd
0
BLOCK
5
12B
100
AcDbEntity
8
0
100
AcDbBlockBegin
2
*D1
70
1
10
0
20
0
30
0
3
*D1
0
LINE
5
12D
100
AcDbEntity
8
0
62
256
6
ByLayer
370
-2
48
1
60
0
100
AcDbLine
10
-48
20
-9.5875
30
0
11
-48
21
-69.789102
31
0
39
0
210
0
220
0
230
1
0
LINE
5
12E
100
AcDbEntity
8
0
62
256
6
ByLayer
370
-2
48
1
60
0
100
AcDbLine
10
67
20
-9.5875
30
0
11
67
21
-69.789102
31
0
39
0
210
0
220
0
230
1
0
LINE
5
12F
100
AcDbEntity
8
0
62
256
6
ByLayer
370
-2
48
1
60
0
100
AcDbLine
10
-44.5
20
-67.789102
30
0
11
63.5
21
-67.789102
31
0
39
0
210
0
220
0
230
1
0
SOLID
5
130
100
AcDbEntity
8
0
62
256
6
ByLayer
370
-1
48
1
60
0
100
AcDbTrace
10
-44.5
20
-67.205769
30
0
11
-44.5
21
-68.372435
31
0
12
-48
22
-67.789102
32
0
13
-48
23
-67.789102
33
0
39
0
210
0
220
0
230
1
0
SOLID
5
131
100
AcDbEntity
8
0
62
256
6
ByLayer
370
-1
48
1
60
0
100
AcDbTrace
10
63.5
20
-68.372435
30
0
11
63.5
21
-67.205769
31
0
12
67
22
-67.789102
32
0
13
67
23
-67.789102
33
0
39
0
210
0
220
0
230
1
0
MTEXT
5
132
100
AcDbEntity
8
0
62
256
6
ByLayer
370
18
48
1
60
0
100
AcDbMText
10
9.5
20
-60.789102
30
0
210
0
220
0
230
1
1
\A1;115
40
3.5
41
0
44
1
50
0
71
5
72
5
7
iso_b_vert
0
POINT
5
133
100
AcDbEntity
8
Defpoints
62
0
6
ByLayer
370
-1
48
1
60
0
100
AcDbPoint
10
-48
20
-8
30
0
39
0
210
0
220
0
230
1
50
360
0
POINT
5
134
100
AcDbEntity
8
Defpoints
62
0
6
ByLayer
370
-1
48
1
60
0
100
AcDbPoint
10
67
20
-8
30
0
39
0
210
0
220
0
230
1
50
360
0
POINT
5
135
100
AcDbEntity
8
Defpoints
62
0
6
ByLayer
370
-1
48
1
60
0
100
AcDbPoint
10
67
20
-67.789102
30
0
39
0
210
0
220
0
230
1
50
360
0
ENDBLK
5
12C
100
AcDbEntity
8
0
100
AcDbBlockEnd
0
BLOCK
5
13D
100
AcDbEntity
8
0
100
AcDbBlockBegin
2
_U0
70
0
10
0
20
0
30
0
3
_U0
0
MTEXT
5
137
100
AcDbEntity
8
2
62
256
6
ByLayer
370
18
48
1
60
0
100
AcDbMText
10
7.162167
20
-66.756469
30
0
210
0
220
0
230
1
1
\W0.5296;115
40
3.5
41
0
44
1.084337
50
0
71
7
72
5
7
iso_b_vert
0
LINE
5
138
100
AcDbEntity
8
2
62
256
6
ByLayer
370
13
48
1
60
0
100
AcDbLine
10
-48
20
-9.5875
30
0
11
-48
21
-69.789102
31
0
39
0
210
0
220
0
230
1
0
LINE
5
139
100
AcDbEntity
8
2
62
256
6
ByLayer
370
13
48
1
60
0
100
AcDbLine
10
67
20
-9.5875
30
0
11
67
21
-69.789102
31
0
39
0
210
0
220
0
230
1
0
LINE
5
13A
100
AcDbEntity
8
2
62
256
6
ByLayer
370
13
48
1
60
0
100
AcDbLine
10
-48
20
-67.789102
30
0
11
67
21
-67.789102
31
0
39
0
210
0
220
0
230
1
0
SOLID
5
13B
100
AcDbEntity
8
2
62
256
6
ByLayer
370
18
48
1
60
0
100
AcDbTrace
10
-48
20
-67.789102
30
0
11
-44.500002
21
-67.328318
31
0
12
-44.499998
22
-68.249886
32
0
13
-44.499998
23
-68.249886
33
0
39
0
210
0
220
0
230
1
0
SOLID
5
13C
100
AcDbEntity
8
2
62
256
6
ByLayer
370
18
48
1
60
0
100
AcDbTrace
10
67
20
-67.789102
30
0
11
63.500002
21
-68.249886
31
0
12
63.499998
22
-67.328318
32
0
13
63.499998
23
-67.328318
33
0
39
0
210
0
220
0
230
1
0
ENDBLK
5
13E
100
AcDbEntity
8
0
100
AcDbBlockEnd
0
BLOCK
5
143
100
AcDbEntity
8
0
100
AcDbBlockBegin
2
*D3
70
1
10
0
20
0
30
0
3
*D3
0
LINE
5
145
100
AcDbEntity
8
0
62
256
6
ByLayer
370
-2
48
1
60
0
100
AcDbLine
10
67
20
-9.5875
30
0
11
67
21
-49.789102
31
0
39
0
210
0
220
0
230
1
0
LINE
5
146
100
AcDbEntity
8
0
62
256
6
ByLayer
370
-2
48
1
60
0
100
AcDbLine
10
2
20
-9.5875
30
0
11
2
21
-49.789102
31
0
39
0
210
0
220
0
230
1
0
LINE
5
147
100
AcDbEntity
8
0
62
256
6
ByLayer
370
-2
48
1
60
0
100
AcDbLine
10
63.5
20
-47.789102
30
0
11
5.5
21
-47.789102
31
0
39
0
210
0
220
0
230
1
0
SOLID
5
148
100
AcDbEntity
8
0
62
256
6
ByLayer
370
-1
48
1
60
0
100
AcDbTrace
10
63.5
20
-48.372435
30
0
11
63.5
21
-47.205769
31
0
12
67
22
-47.789102
32
0
13
67
23
-47.789102
33
0
39
0
210
0
220
0
230
1
0
SOLID
5
149
100
AcDbEntity
8
0
62
256
6
ByLayer
370
-1
48
1
60
0
100
AcDbTrace
10
5.5
20
-47.205769
30
0
11
5.5
21
-48.372435
31
0
12
2
22
-47.789102
32
0
13
2
23
-47.789102
33
0
39
0
210
0
220
0
230
1
0
MTEXT
5
14A
100
AcDbEntity
8
0
62
256
6
ByLayer
370
18
48
1
60
0
100
AcDbMText
10
34.5
20
-40.789102
30
0
210
0
220
0
230
1
1
\A1;65
40
3.5
41
0
44
1
50
0
71
5
72
5
7
iso_b_vert
0
POINT
5
14B
100
AcDbEntity
8
Defpoints
62
0
6
ByLayer
370
-1
48
1
60
0
100
AcDbPoint
10
67
20
-8
30
0
39
0
210
0
220
0
230
1
50
360
0
POINT
5
14C
100
AcDbEntity
8
Defpoints
62
0
6
ByLayer
370
-1
48
1
60
0
100
AcDbPoint
10
2
20
-8
30
0
39
0
210
0
220
0
230
1
50
360
0
POINT
5
14D
100
AcDbEntity
8
Defpoints
62
0
6
ByLayer
370
-1
48
1
60
0
100
AcDbPoint
10
2
20
-47.789102
30
0
39
0
210
0
220
0
230
1
50
360
0
ENDBLK
5
144
100
AcDbEntity
8
0
100
AcDbBlockEnd
0
BLOCK
5
155
100
AcDbEntity
8
0
100
AcDbBlockBegin
2
_U1
70
0
10
0
20
0
30
0
3
_U1
0
MTEXT
5
14F
100
AcDbEntity
8
SK2
62
256
6
ByLayer
370
18
48
1
60
0
100
AcDbMText
10
32.595034
20
-46.756469
30
0
210
0
220
0
230
1
1
\W0.6740;65
40
3.5
41
0
44
1.084337
50
0
71
7
72
5
7
iso_b_vert
0
LINE
5
150
100
AcDbEntity
8
SK2
62
256
6
ByLayer
370
13
48
1
60
0
100
AcDbLine
10
67
20
-9.5875
30
0
11
67
21
-49.789102
31
0
39
0
210
0
220
0
230
1
0
LINE
5
151
100
AcDbEntity
8
SK2
62
256
6
ByLayer
370
13
48
1
60
0
100
AcDbLine
10
2
20
-9.5875
30
0
11
2
21
-49.789102
31
0
39
0
210
0
220
0
230
1
0
LINE
5
152
100
AcDbEntity
8
SK2
62
256
6
ByLayer
370
13
48
1
60
0
100
AcDbLine
10
67
20
-47.789102
30
0
11
2
21
-47.789102
31
0
39
0
210
0
220
0
230
1
0
SOLID
5
153
100
AcDbEntity
8
SK2
62
256
6
ByLayer
370
18
48
1
60
0
100
AcDbTrace
10
67
20
-47.789102
30
0
11
63.500002
21
-48.249886
31
0
12
63.499998
22
-47.328318
32
0
13
63.499998
23
-47.328318
33
0
39
0
210
0
220
0
230
1
0
SOLID
5
154
100
AcDbEntity
8
SK2
62
256
6
ByLayer
370
18
48
1
60
0
100
AcDbTrace
10
2
20
-47.789102
30
0
11
5.499998
21
-47.328318
31
0
12
5.500002
22
-48.249886
32
0
13
5.500002
23
-48.249886
33
0
39
0
210
0
220
0
230
1
0
ENDBLK
5
156
100
AcDbEntity
8
0
100
AcDbBlockEnd
0
BLOCK
5
15B
100
AcDbEntity
8
0
100
AcDbBlockBegin
2
*D5
70
1
10
0
20
0
30
0
3
*D5
0
LINE
5
15D
100
AcDbEntity
8
0
62
256
6
ByLayer
370
-2
48
1
60
0
100
AcDbLine
10
67
20
-9.5875
30
0
11
67
21
-39.789102
31
0
39
0
210
0
220
0
230
1
0
LINE
5
15E
100
AcDbEntity
8
0
62
256
6
ByLayer
370
-2
48
1
60
0
100
AcDbLine
10
22
20
-9.5875
30
0
11
22
21
-39.789102
31
0
39
0
210
0
220
0
230
1
0
LINE
5
15F
100
AcDbEntity
8
0
62
256
6
ByLayer
370
-2
48
1
60
0
100
AcDbLine
10
63.5
20
-37.789102
30
0
11
25.5
21
-37.789102
31
0
39
0
210
0
220
0
230
1
0
SOLID
5
160
100
AcDbEntity
8
0
62
256
6
ByLayer
370
-1
48
1
60
0
100
AcDbTrace
10
63.5
20
-38.372435
30
0
11
63.5
21
-37.205769
31
0
12
67
22
-37.789102
32
0
13
67
23
-37.789102
33
0
39
0
210
0
220
0
230
1
0
SOLID
5
161
100
AcDbEntity
8
0
62
256
6
ByLayer
370
-1
48
1
60
0
100
AcDbTrace
10
25.5
20
-37.205769
30
0
11
25.5
21
-38.372435
31
0
12
22
22
-37.789102
32
0
13
22
23
-37.789102
33
0
39
0
210
0
220
0
230
1
0
MTEXT
5
162
100
AcDbEntity
8
0
62
256
6
ByLayer
370
18
48
1
60
0
100
AcDbMText
10
44.5
20
-30.789102
30
0
210
0
220
0
230
1
1
\A1;45
40
3.5
41
0
44
1
50
0
71
5
72
5
7
iso_b_vert
0
POINT
5
163
100
AcDbEntity
8
Defpoints
62
0
6
ByLayer
370
-1
48
1
60
0
100
AcDbPoint
10
67
20
-8
30
0
39
0
210
0
220
0
230
1
50
360
0
POINT
5
164
100
AcDbEntity
8
Defpoints
62
0
6
ByLayer
370
-1
48
1
60
0
100
AcDbPoint
10
22
20
-8
30
0
39
0
210
0
220
0
230
1
50
360
0
POINT
5
165
100
AcDbEntity
8
Defpoints
62
0
6
ByLayer
370
-1
48
1
60
0
100
AcDbPoint
10
22
20
-37.789102
30
0
39
0
210
0
220
0
230
1
50
360
0
ENDBLK
5
15C
100
AcDbEntity
8
0
100
AcDbBlockEnd
0
BLOCK
5
16F
100
AcDbEntity
8
0
100
AcDbBlockBegin
2
_U2
70
0
10
0
20
0
30
0
3
_U2
0
MTEXT
5
167
100
AcDbEntity
8
SK2
62
256
6
ByLayer
370
18
48
1
60
0
100
AcDbMText
10
42.410767
20
-36.756469
30
0
210
0
220
0
230
1
1
\W0.7361;45
40
3.5
41
0
44
1.084337
50
0
71
7
72
5
7
iso_b_vert
0
MTEXT
5
168
100
AcDbEntity
8
SK2
62
256
6
ByLayer
370
18
48
1
60
0
100
AcDbMText
10
38.542768
20
-36.756469
30
0
210
0
220
0
230
1
1
\W0.1790;(
40
3.5
41
0
44
1.084337
50
0
71
7
72
5
7
iso_b_vert
0
MTEXT
5
169
100
AcDbEntity
8
SK2
62
256
6
ByLayer
370
18
48
1
60
0
100
AcDbMText
10
50.460233
20
-36.756469
30
0
210
0
220
0
230
1
1
\W0.1969;)
40
3.5
41
0
44
1.084337
50
0
71
7
72
5
7
iso_b_vert
0
LINE
5
16A
100
AcDbEntity
8
SK2
62
256
6
ByLayer
370
13
48
1
60
0
100
AcDbLine
10
67
20
-9.5875
30
0
11
67
21
-39.789102
31
0
39
0
210
0
220
0
230
1
0
LINE
5
16B
100
AcDbEntity
8
SK2
62
256
6
ByLayer
370
13
48
1
60
0
100
AcDbLine
10
22
20
-9.5875
30
0
11
22
21
-39.789102
31
0
39
0
210
0
220
0
230
1
0
LINE
5
16C
100
AcDbEntity
8
SK2
62
256
6
ByLayer
370
13
48
1
60
0
100
AcDbLine
10
67
20
-37.789102
30
0
11
22
21
-37.789102
31
0
39
0
210
0
220
0
230
1
0
SOLID
5
16D
100
AcDbEntity
8
SK2
62
256
6
ByLayer
370
18
48
1
60
0
100
AcDbTrace
10
67
20
-37.789102
30
0
11
63.500002
21
-38.249886
31
0
12
63.499998
22
-37.328318
32
0
13
63.499998
23
-37.328318
33
0
39
0
210
0
220
0
230
1
0
SOLID
5
16E
100
AcDbEntity
8
SK2
62
256
6
ByLayer
370
18
48
1
60
0
100
AcDbTrace
10
22
20
-37.789102
30
0
11
25.499998
21
-37.328318
31
0
12
25.500002
22
-38.249886
32
0
13
25.500002
23
-38.249886
33
0
39
0
210
0
220
0
230
1
0
ENDBLK
5
170
100
AcDbEntity
8
0
100
AcDbBlockEnd
0
BLOCK
5
175
100
AcDbEntity
8
0
100
AcDbBlockBegin
2
*D7
70
1
10
0
20
0
30
0
3
*D7
0
LINE
5
177
100
AcDbEntity
8
0
62
256
6
ByLayer
370
-2
48
1
60
0
100
AcDbLine
10
-48
20
-9.5875
30
0
11
-48
21
-49.789102
31
0
39
0
210
0
220
0
230
1
0
LINE
5
178
100
AcDbEntity
8
0
62
256
6
ByLayer
370
-2
48
1
60
0
100
AcDbLine
10
0
20
-9.5875
30
0
11
0
21
-49.789102
31
0
39
0
210
0
220
0
230
1
0
LINE
5
179
100
AcDbEntity
8
0
62
256
6
ByLayer
370
-2
48
1
60
0
100
AcDbLine
10
-44.5
20
-47.789102
30
0
11
-3.5
21
-47.789102
31
0
39
0
210
0
220
0
230
1
0
SOLID
5
17A
100
AcDbEntity
8
0
62
256
6
ByLayer
370
-1
48
1
60
0
100
AcDbTrace
10
-44.5
20
-47.205769
30
0
11
-44.5
21
-48.372435
31
0
12
-48
22
-47.789102
32
0
13
-48
23
-47.789102
33
0
39
0
210
0
220
0
230
1
0
SOLID
5
17B
100
AcDbEntity
8
0
62
256
6
ByLayer
370
-1
48
1
60
0
100
AcDbTrace
10
-3.5
20
-48.372435
30
0
11
-3.5
21
-47.205769
31
0
12
0
22
-47.789102
32
0
13
0
23
-47.789102
33
0
39
0
210
0
220
0
230
1
0
MTEXT
5
17C
100
AcDbEntity
8
0
62
256
6
ByLayer
370
18
48
1
60
0
100
AcDbMText
10
-24
20
-40.789102
30
0
210
0
220
0
230
1
1
\A1;48
40
3.5
41
0
44
1
50
0
71
5
72
5
7
iso_b_vert
0
POINT
5
17D
100
AcDbEntity
8
Defpoints
62
0
6
ByLayer
370
-1
48
1
60
0
100
AcDbPoint
10
-48
20
-8
30
0
39
0
210
0
220
0
230
1
50
360
0
POINT
5
17E
100
AcDbEntity
8
Defpoints
62
0
6
ByLayer
370
-1
48
1
60
0
100
AcDbPoint
10
0
20
-8
30
0
39
0
210
0
220
0
230
1
50
360
0
POINT
5
17F
100
AcDbEntity
8
Defpoints
62
0
6
ByLayer
370
-1
48
1
60
0
100
AcDbPoint
10
0
20
-47.789102
30
0
39
0
210
0
220
0
230
1
50
360
0
ENDBLK
5
176
100
AcDbEntity
8
0
100
AcDbBlockEnd
0
BLOCK
5
187
100
AcDbEntity
8
0
100
AcDbBlockBegin
2
_U3
70
0
10
0
20
0
30
0
3
_U3
0
MTEXT
5
181
100
AcDbEntity
8
SK2
62
256
6
ByLayer
370
18
48
1
60
0
100
AcDbMText
10
-26.089233
20
-46.756469
30
0
210
0
220
0
230
1
1
\W0.7361;48
40
3.5
41
0
44
1.084337
50
0
71
7
72
5
7
iso_b_vert
0
LINE
5
182
100
AcDbEntity
8
SK2
62
256
6
ByLayer
370
13
48
1
60
0
100
AcDbLine
10
-48
20
-9.5875
30
0
11
-48
21
-49.789102
31
0
39
0
210
0
220
0
230
1
0
LINE
5
183
100
AcDbEntity
8
SK2
62
256
6
ByLayer
370
13
48
1
60
0
100
AcDbLine
10
0
20
-9.5875
30
0
11
0
21
-49.789102
31
0
39
0
210
0
220
0
230
1
0
LINE
5
184
100
AcDbEntity
8
SK2
62
256
6
ByLayer
370
13
48
1
60
0
100
AcDbLine
10
-48
20
-47.789102
30
0
11
0
21
-47.789102
31
0
39
0
210
0
220
0
230
1
0
SOLID
5
185
100
AcDbEntity
8
SK2
62
256
6
ByLayer
370
18
48
1
60
0
100
AcDbTrace
10
-48
20
-47.789102
30
0
11
-44.500002
21
-47.328318
31
0
12
-44.499998
22
-48.249886
32
0
13
-44.499998
23
-48.249886
33
0
39
0
210
0
220
0
230
1
0
SOLID
5
186
100
AcDbEntity
8
SK2
62
256
6
ByLayer
370
18
48
1
60
0
100
AcDbTrace
10
0
20
-47.789102
30
0
11
-3.499998
21
-48.249886
31
0
12
-3.500002
22
-47.328318
32
0
13
-3.500002
23
-47.328318
33
0
39
0
210
0
220
0
230
1
0
ENDBLK
5
188
100
AcDbEntity
8
0
100
AcDbBlockEnd
0
BLOCK
5
18D
100
AcDbEntity
8
0
100
AcDbBlockBegin
2
*D9
70
1
10
0
20
0
30
0
3
*D9
0
LINE
5
18F
100
AcDbEntity
8
0
62
256
6
ByLayer
370
-2
48
1
60
0
100
AcDbLine
10
0
20
-9.5875
30
0
11
0
21
-59.789102
31
0
39
0
210
0
220
0
230
1
0
LINE
5
190
100
AcDbEntity
8
0
62
256
6
ByLayer
370
-2
48
1
60
0
100
AcDbLine
10
67
20
-9.5875
30
0
11
67
21
-59.789102
31
0
39
0
210
0
220
0
230
1
0
LINE
5
191
100
AcDbEntity
8
0
62
256
6
ByLayer
370
-2
48
1
60
0
100
AcDbLine
10
3.5
20
-57.789102
30
0
11
63.5
21
-57.789102
31
0
39
0
210
0
220
0
230
1
0
SOLID
5
192
100
AcDbEntity
8
0
62
256
6
ByLayer
370
-1
48
1
60
0
100
AcDbTrace
10
3.5
20
-57.205769
30
0
11
3.5
21
-58.372435
31
0
12
0
22
-57.789102
32
0
13
0
23
-57.789102
33
0
39
0
210
0
220
0
230
1
0
SOLID
5
193
100
AcDbEntity
8
0
62
256
6
ByLayer
370
-1
48
1
60
0
100
AcDbTrace
10
63.5
20
-58.372435
30
0
11
63.5
21
-57.205769
31
0
12
67
22
-57.789102
32
0
13
67
23
-57.789102
33
0
39
0
210
0
220
0
230
1
0
MTEXT
5
194
100
AcDbEntity
8
0
62
256
6
ByLayer
370
18
48
1
60
0
100
AcDbMText
10
33.5
20
-50.789102
30
0
210
0
220
0
230
1
1
\A1;67
40
3.5
41
0
44
1
50
0
71
5
72
5
7
iso_b_vert
0
POINT
5
195
100
AcDbEntity
8
Defpoints
62
0
6
ByLayer
370
-1
48
1
60
0
100
AcDbPoint
10
0
20
-8
30
0
39
0
210
0
220
0
230
1
50
360
0
POINT
5
196
100
AcDbEntity
8
Defpoints
62
0
6
ByLayer
370
-1
48
1
60
0
100
AcDbPoint
10
67
20
-8
30
0
39
0
210
0
220
0
230
1
50
360
0
POINT
5
197
100
AcDbEntity
8
Defpoints
62
0
6
ByLayer
370
-1
48
1
60
0
100
AcDbPoint
10
67
20
-57.789102
30
0
39
0
210
0
220
0
230
1
50
360
0
ENDBLK
5
18E
100
AcDbEntity
8
0
100
AcDbBlockEnd
0
BLOCK
5
19F
100
AcDbEntity
8
0
100
AcDbBlockBegin
2
_U4
70
0
10
0
20
0
30
0
3
_U4
0
MTEXT
5
199
100
AcDbEntity
8
SK2
62
256
6
ByLayer
370
18
48
1
60
0
100
AcDbMText
10
31.595034
20
-56.756469
30
0
210
0
220
0
230
1
1
\W0.6740;67
40
3.5
41
0
44
1.084337
50
0
71
7
72
5
7
iso_b_vert
0
LINE
5
19A
100
AcDbEntity
8
SK2
62
256
6
ByLayer
370
13
48
1
60
0
100
AcDbLine
10
0
20
-9.5875
30
0
11
0
21
-59.789102
31
0
39
0
210
0
220
0
230
1
0
LINE
5
19B
100
AcDbEntity
8
SK2
62
256
6
ByLayer
370
13
48
1
60
0
100
AcDbLine
10
67
20
-9.5875
30
0
11
67
21
-59.789102
31
0
39
0
210
0
220
0
230
1
0
LINE
5
19C
100
AcDbEntity
8
SK2
62
256
6
ByLayer
370
13
48
1
60
0
100
AcDbLine
10
0
20
-57.789102
30
0
11
67
21
-57.789102
31
0
39
0
210
0
220
0
230
1
0
SOLID
5
19D
100
AcDbEntity
8
SK2
62
256
6
ByLayer
370
18
48
1
60
0
100
AcDbTrace
10
0
20
-57.789102
30
0
11
3.499998
21
-57.328318
31
0
12
3.500002
22
-58.249886
32
0
13
3.500002
23
-58.249886
33
0
39
0
210
0
220
0
230
1
0
SOLID
5
19E
100
AcDbEntity
8
SK2
62
256
6
ByLayer
370
18
48
1
60
0
100
AcDbTrace
10
67
20
-57.789102
30
0
11
63.500002
21
-58.249886
31
0
12
63.499998
22
-57.328318
32
0
13
63.499998
23
-57.328318
33
0
39
0
210
0
220
0
230
1
0
ENDBLK
5
1A0
100
AcDbEntity
8
0
100
AcDbBlockEnd
0
ENDSEC
0
SECTION
2
ENTITIES
0
ARC
5
BC
100
AcDbEntity
8
SK2
62
256
6
ByLayer
370
13
48
1
60
0
100
AcDbCircle
39
0
10
67
20
0
30
0
40
36.1176871808346
210
0
220
0
230
1
100
AcDbArc
50
5.162664
51
69.998494
0
ARC
5
BD
100
AcDbEntity
8
SK2
62
256
6
ByLayer
370
13
48
1
60
0
100
AcDbCircle
39
0
10
67
20
0
30
0
40
36.1176871808346
210
0
220
0
230
1
100
AcDbArc
50
290.001506
51
354.837336
0
ELLIPSE
5
BE
100
AcDbEntity
8
1
62
256
6
ByLayer
370
13
48
1
60
0
100
AcDbEllipse
10
3.677321
20
-1.540067
30
0
11
-0.0391445694060402
21
-0.0920201210932463
31
0
210
0
220
0
230
1
40
0.514735
41
-1.5425485412677
42
-0.217746509816397
0
ELLIPSE
5
BF
100
AcDbEntity
8
1
62
256
6
ByLayer
370
13
48
1
60
0
100
AcDbEllipse
10
3.750137
20
-1.575486
30
0
11
-0.0475791907306736
21
-0.0879557878107756
31
0
210
0
220
0
230
1
40
0.09868
41
-1.75311561298338
42
-0.191960355685036
0
POINT
5
70
100
AcDbEntity
8
80
62
256
6
ByLayer
370
18
48
1
60
0
100
AcDbPoint
10
0
20
0
30
0
39
0
210
0
220
0
230
1
50
360
0
POINT
5
72
100
AcDbEntity
8
81
62
256
6
ByLayer
370
18
48
1
60
0
100
AcDbPoint
10
67
20
0
30
0
39
0
210
0
220
0
230
1
50
360
0
POINT
5
74
100
AcDbEntity
8
1
62
256
6
ByLayer
370
18
48
1
60
0
100
AcDbPoint
10
-207.116156
20
-200
30
0
39
0
210
0
220
0
230
1
50
360
0
POINT
5
76
100
AcDbEntity
8
1
62
256
6
ByLayer
370
13
48
1
60
1
100
AcDbPoint
10
-49.5
20
0
30
0
39
0
210
0
220
0
230
1
50
360
0
POINT
5
77
100
AcDbEntity
8
1
62
256
6
ByLayer
370
13
48
1
60
1
100
AcDbPoint
10
65.620842
20
0
30
0
39
0
210
0
220
0
230
1
50
360
0
POINT
5
78
100
AcDbEntity
8
1
62
256
6
ByLayer
370
18
48
1
60
1
100
AcDbPoint
10
-48
20
-8
30
0
39
0
210
0
220
0
230
1
50
360
0
POINT
5
79
100
AcDbEntity
8
1
62
256
6
ByLayer
370
18
48
1
60
1
100
AcDbPoint
10
67
20
-8
30
0
39
0
210
0
220
0
230
1
50
360
0
POINT
5
7A
100
AcDbEntity
8
1
62
256
6
ByLayer
370
18
48
1
60
1
100
AcDbPoint
10
67
20
-8
30
0
39
0
210
0
220
0
230
1
50
360
0
POINT
5
7B
100
AcDbEntity
8
1
62
256
6
ByLayer
370
18
48
1
60
1
100
AcDbPoint
10
2
20
-8
30
0
39
0
210
0
220
0
230
1
50
360
0
POINT
5
7C
100
AcDbEntity
8
1
62
256
6
ByLayer
370
18
48
1
60
1
100
AcDbPoint
10
67
20
-8
30
0
39
0
210
0
220
0
230
1
50
360
0
POINT
5
7D
100
AcDbEntity
8
1
62
256
6
ByLayer
370
18
48
1
60
1
100
AcDbPoint
10
22
20
-8
30
0
39
0
210
0
220
0
230
1
50
360
0
POINT
5
7E
100
AcDbEntity
8
1
62
256
6
ByLayer
370
18
48
1
60
1
100
AcDbPoint
10
-48
20
-8
30
0
39
0
210
0
220
0
230
1
50
360
0
POINT
5
7F
100
AcDbEntity
8
1
62
256
6
ByLayer
370
18
48
1
60
1
100
AcDbPoint
10
0
20
-8
30
0
39
0
210
0
220
0
230
1
50
360
0
POINT
5
80
100
AcDbEntity
8
1
62
256
6
ByLayer
370
18
48
1
60
1
100
AcDbPoint
10
0
20
-8
30
0
39
0
210
0
220
0
230
1
50
360
0
POINT
5
81
100
AcDbEntity
8
1
62
256
6
ByLayer
370
18
48
1
60
1
100
AcDbPoint
10
67
20
-8
30
0
39
0
210
0
220
0
230
1
50
360
0
SPLINE
5
C0
100
AcDbEntity
8
1
62
256
6
ByLayer
370
18
48
1
60
0
100
AcDbSpline
70
4
71
3
72
23
73
19
40
0
40
0
40
0
40
0
40
0.0124867945872614
40
0.127915345904463
40
0.25435688691213
40
0.328599617127062
40
0.387991358706596
40
0.44386491376364
40
0.508923312784301
40
0.581310046371878
40
0.645921056514107
40
0.68319252235635
40
0.717726541138921
40
0.756273351842567
40
0.799276406193332
40
0.85339867956279
40
0.928690846581577
40
1
40
1
40
1
40
1
41
1
10
64.0208259722881
20
1.75865529096657
30
0
41
1
10
63.9872289657581
20
1.76880176520959
30
0
41
1
10
63.6431649039876
20
1.87308550102415
30
0
41
1
10
62.9622604319232
20
2.09058443047593
30
0
41
1
10
62.1181805341681
20
2.36909115080934
30
0
41
1
10
61.4265127703643
20
2.60663477737981
30
0
41
1
10
60.9238042932552
20
2.78328151743631
30
0
41
1
10
60.4467199730584
20
2.95432389099486
30
0
41
1
10
59.9367101307966
20
3.14095246809094
30
0
41
1
10
59.4053143960982
20
3.33990126482516
30
0
41
1
10
58.9483262776367
20
3.51484737162639
30
0
41
1
10
58.5914112536638
20
3.65372489851467
30
0
41
1
10
58.303151523322
20
3.76716502243676
30
0
41
1
10
58.0003126686741
20
3.88771205901898
30
0
41
1
10
57.6469059992698
20
4.03015922560786
30
0
41
1
10
57.1988388818639
20
4.21351462903996
30
0
41
1
10
56.6788482185653
20
4.43015995083761
30
0
41
1
10
56.3007091174901
20
4.59197295774652
30
0
41
1
10
56.1171419980882
20
4.67145316439229
30
0
0
SPLINE
5
C1
100
AcDbEntity
8
1
62
256
6
ByLayer
370
18
48
1
60
0
100
AcDbSpline
70
4
71
3
72
37
73
33
40
0
40
0
40
0
40
0
40
1.20709172223E-05
40
0.0001311983573108
40
0.0002638428751467
40
0.0005930148146279
40
0.0030816491839489
40
0.0120288217731104
40
0.0263577487884942
40
0.0482421538185432
40
0.0801112589398316
40
0.100754553407242
40
0.117781182816767
40
0.189464346222089
40
0.239513272321691
40
0.286796243307192
40
0.329108061764495
40
0.37396111753016
40
0.415412537714721
40
0.464521967354858
40
0.527795389713374
40
0.584478910304438
40
0.628798195904605
40
0.674954532685136
40
0.729231662800469
40
0.776355420215901
40
0.81379375166639
40
0.835376052897033
40
0.866276822377763
40
0.90732512706884
40
0.958526591058782
40
1
40
1
40
1
40
1
41
1
10
24.6508817673715
20
0.602933604750782
30
0
41
1
10
24.6508811576181
20
0.602934403587732
30
0
41
1
10
24.650867335877
20
0.602942950173656
30
0
41
1
10
24.6506484027948
20
0.603006338492634
30
0
41
1
10
24.6495774697544
20
0.603286101559149
30
0
41
1
10
24.6408678223924
20
0.605476909652765
30
0
41
1
10
24.592809041002
20
0.617283208275239
30
0
41
1
10
24.4891983722149
20
0.642826909545505
30
0
41
1
10
24.3019243131026
20
0.689360844005847
30
0
41
1
10
24.0220847754445
20
0.759847468402029
30
0
41
1
10
23.7158193488624
20
0.838487361020356
30
0
41
1
10
23.4301612295484
20
0.913215216245106
30
0
41
1
10
22.9813520065349
20
1.03217126457943
30
0
41
1
10
22.4130626396567
20
1.18742481012674
30
0
41
1
10
21.7228863229245
20
1.38368507856086
30
0
41
1
10
21.1540240487576
20
1.55053846843259
30
0
41
1
10
20.6076016689175
20
1.7153183491626
30
0
41
1
10
20.0861353154241
20
1.8767535514958
30
0
41
1
10
19.5381735025333
20
2.05074374248855
30
0
41
1
10
18.917321320478
20
2.25305999188743
30
0
41
1
10
18.2372605807692
20
2.48172603848889
30
0
41
1
10
17.5787545478817
20
2.71045636066924
30
0
41
1
10
16.9908187530366
20
2.92015957342943
30
0
41
1
10
16.4140992285906
20
3.13069512731238
30
0
41
1
10
15.8280161900331
20
3.35011022688667
30
0
41
1
10
15.278347077523
20
3.56107223514041
30
0
41
1
10
14.8592987582698
20
3.72519788566183
30
0
41
1
10
14.5050619348653
20
3.86588923892629
30
0
41
1
10
14.1372652077277
20
4.01375069947525
30
0
41
1
10
13.6542052534587
20
4.21128349706262
30
0
41
1
10
13.1311635923292
20
4.42926256730405
30
0
41
1
10
12.7702012701946
20
4.58378374233862
30
0
41
1
10
12.6089356738878
20
4.65355293927476
30
0
0
SPLINE
5
C2
100
AcDbEntity
8
1
62
256
6
ByLayer
370
18
48
1
60
0
100
AcDbSpline
70
4
71
3
72
36
73
32
40
0
40
0
40
0
40
0
40
0.0367363840579309
40
0.0725691943307678
40
0.101278363812238
40
0.122888241992255
40
0.154854905398277
40
0.183807010049496
40
0.21320154912141
40
0.244343835334551
40
0.277657487420566
40
0.313671827246798
40
0.355487761068277
40
0.427395135944142
40
0.496619999285219
40
0.530042996908193
40
0.558827402567398
40
0.582672791971868
40
0.607023589921376
40
0.632959316840882
40
0.660679100772907
40
0.688586590881906
40
0.718851950929023
40
0.751872353082638
40
0.78488138523202
40
0.818013857851238
40
0.850914593524843
40
0.89233920378488
40
0.934035059787751
40
0.978672984917442
40
1
40
1
40
1
40
1
41
1
10
22.6524129124562
20
-7.57421635657721
30
0
41
1
10
22.9081957495447
20
-7.57433186458283
30
0
41
1
10
23.413480979146
20
-7.57455996737494
30
0
41
1
10
24.1187062756314
20
-7.57491388875727
30
0
41
1
10
24.7186035174716
20
-7.57515998178846
30
0
41
1
10
25.2918232356636
20
-7.57560929501875
30
0
41
1
10
25.8618003276523
20
-7.57598054955201
30
0
41
1
10
26.4920428233933
20
-7.57634900841751
30
0
41
1
10
27.1135782655221
20
-7.57639025457539
30
0
41
1
10
27.7675682465008
20
-7.5762496128302
30
0
41
1
10
28.4671019482455
20
-7.57618902233452
30
0
41
1
10
29.2411212439576
20
-7.57768125268109
30
0
41
1
10
30.2838715379399
20
-7.57894783602936
30
0
41
1
10
31.5577988344762
20
-7.57670133326747
30
0
41
1
10
32.7734226640526
20
-7.57964511246433
30
0
41
1
10
33.6886118476503
20
-7.58104562898353
30
0
41
1
10
34.2879534035228
20
-7.58027133178223
30
0
41
1
10
34.8237759558832
20
-7.57972175016204
30
0
41
1
10
35.3409741489751
20
-7.5793273200745
30
0
41
1
10
35.8613618237415
20
-7.57793891336937
30
0
41
1
10
36.3670839709685
20
-7.56625041399931
30
0
41
1
10
36.9744886010486
20
-7.56198670368897
30
0
41
1
10
37.6069142675034
20
-7.57033492904043
30
0
41
1
10
38.2294169158765
20
-7.58153254709316
30
0
41
1
10
38.9086016042289
20
-7.58398337218463
30
0
41
1
10
39.5977971628231
20
-7.58306064555629
30
0
41
1
10
40.3461932507522
20
-7.58194509937613
30
0
41
1
10
41.1544385279649
20
-7.58112750120048
30
0
41
1
10
42.0426997326206
20
-7.58340452371041
30
0
41
1
10
42.7966735324414
20
-7.58647086737048
30
0
41
1
10
43.2466040249167
20
-7.58517553116329
30
0
41
1
10
43.3927323156087
20
-7.58466650009751
30
0
0
SPLINE
5
C3
100
AcDbEntity
8
1
62
256
6
ByLayer
370
18
48
1
60
0
100
AcDbSpline
70
4
71
3
72
9
73
5
40
0
40
0
40
0
40
0
40
0.251655960899868
40
1
40
1
40
1
40
1
41
1
10
43.4347716899473
20
-7.58451785292215
30
0
41
1
10
43.4693931647086
20
-7.58439380061748
30
0
41
1
10
43.6071561397714
20
-7.58388592223929
30
0
41
1
10
43.7460696140974
20
-7.58336927422553
30
0
41
1
10
43.8501675870133
20
-7.58291466248002
30
0
0
SPLINE
5
C4
100
AcDbEntity
8
1
62
256
6
ByLayer
370
18
48
1
60
0
100
AcDbSpline
70
4
71
3
72
30
73
26
40
0
40
0
40
0
40
0
40
0.0269590034961344
40
0.0635812420507179
40
0.0980253423702596
40
0.130867082880626
40
0.180551015382868
40
0.232377827255632
40
0.286071244391115
40
0.326114744316247
40
0.366271326279275
40
0.402591750623472
40
0.435966598227533
40
0.470588576894748
40
0.503081728339637
40
0.533503653021188
40
0.570263067101959
40
0.616233407963363
40
0.668743658806447
40
0.724196276335223
40
0.783804622333328
40
0.84031068556476
40
0.888524586362685
40
0.960537360839253
40
1
40
1
40
1
40
1
41
1
10
43.8551207927258
20
7.58277828291949
30
0
41
1
10
43.7021780038522
20
7.58362161278703
30
0
41
1
10
43.3411040388637
20
7.58514416582864
30
0
41
1
10
42.7874689673326
20
7.58617047616912
30
0
41
1
10
42.1900163728819
20
7.58447822733891
30
0
41
1
10
41.5191907270108
20
7.58132972121268
30
0
41
1
10
40.7479144015144
20
7.58155516014043
30
0
41
1
10
39.8577396839322
20
7.58255459996394
30
0
41
1
10
39.0205620081811
20
7.58417119596422
30
0
41
1
10
38.2633142274024
20
7.58187147409424
30
0
41
1
10
37.6421273244859
20
7.57104015642426
30
0
41
1
10
37.0172682893823
20
7.56230433881203
30
0
41
1
10
36.4074339004679
20
7.56541076981463
30
0
41
1
10
35.8905600858847
20
7.57766187147033
30
0
41
1
10
35.357229096601
20
7.5793470117685
30
0
41
1
10
34.783721738073
20
7.57974581775028
30
0
41
1
10
34.1348315084622
20
7.58041499622598
30
0
41
1
10
33.3585388078501
20
7.58143119781565
30
0
41
1
10
32.4751817062896
20
7.57785231138101
30
0
41
1
10
31.5134928831389
20
7.57762475315965
30
0
41
1
10
30.5289563309218
20
7.5780891327351
30
0
41
1
10
29.5858469337758
20
7.57888270743351
30
0
41
1
10
28.5716617832192
20
7.57584121970379
30
0
41
1
10
27.6548651435855
20
7.57630948815213
30
0
41
1
10
27.0157081016393
20
7.57638608701529
30
0
41
1
10
26.7894627497541
20
7.57635408704184
30
0
0
SPLINE
5
C5
100
AcDbEntity
8
SK1
62
256
6
ByLayer
370
18
48
1
60
0
100
AcDbSpline
70
4
71
4
72
10
73
5
40
0
40
0
40
0
40
0
40
0
40
1
40
1
40
1
40
1
40
1
41
0.994813952963123
10
-47.9999996495779
20
4.70530799071313
30
0
41
0.994900108460124
10
-47.9999998764673
20
4.66911344042739
30
0
41
0.995953824716157
10
-48.000000070642
20
4.62632505157467
30
0
41
0.997963626207971
10
-48.0000002278477
20
4.57771068113451
30
0
41
1.00053132252338
10
-48.0000003476046
20
4.52467499071454
30
0
0
SPLINE
5
C6
100
AcDbEntity
8
SK1
62
256
6
ByLayer
370
18
48
1
60
0
100
AcDbSpline
70
4
71
3
72
8
73
4
40
0
40
0
40
0
40
0
40
1
40
1
40
1
40
1
41
1
10
-47.8096984324573
20
4.63970417440981
30
0
41
1
10
-47.8719553866658
20
4.66382680393318
30
0
41
1
10
-47.935502466025
20
4.68547785391274
30
0
41
1
10
-48.0000000000013
20
4.70530805404078
30
0
0
SPLINE
5
C7
100
AcDbEntity
8
SK1
62
256
6
ByLayer
370
18
48
1
60
0
100
AcDbSpline
70
4
71
3
72
8
73
4
40
0
40
0
40
0
40
0
40
1
40
1
40
1
40
1
41
1
10
-46.5
20
6.86115209153033
30
0
41
1
10
-47.0011305397793
20
6.39420191112222
30
0
41
1
10
-47.5014431584514
20
5.92652143151449
30
0
41
1
10
-48
20
5.45727326693481
30
0
0
SPLINE
5
C8
100
AcDbEntity
8
SK1
62
256
6
ByLayer
370
18
48
1
60
0
100
AcDbSpline
70
4
71
3
72
20
73
16
40
0
40
0
40
0
40
0
40
0.0624999999999998
40
0.0624999999999998
40
0.125
40
0.125
40
0.25
40
0.25
40
0.375
40
0.375
40
0.5
40
0.5
40
0.75
40
0.75
40
1
40
1
40
1
40
1
41
1
10
-46.4
20
6.9300410771263
30
0
41
1
10
-46.4
20
6.93107227520167
30
0
41
1
10
-46.400255320285
20
6.93184535833299
30
0
41
1
10
-46.401238720026
20
6.93291333119163
30
0
41
1
10
-46.4019736794312
20
6.93320425846622
30
0
41
1
10
-46.4047525178022
20
6.93339865374713
30
0
41
1
10
-46.4073868202019
20
6.9326521867977
30
0
41
1
10
-46.4138324199078
20
6.92978219295998
30
0
41
1
10
-46.4175513092506
20
6.92770415812376
30
0
41
1
10
-46.4257576562686
20
6.92255639618617
30
0
41
1
10
-46.4302902765821
20
6.91945033889337
30
0
41
1
10
-46.444519757331
20
6.90910230183249
30
0
41
1
10
-46.4548628465276
20
6.90085627083013
30
0
41
1
10
-46.4769795344451
20
6.88214036819519
30
0
41
1
10
-46.4883400853171
20
6.87201672426079
30
0
41
1
10
-46.5
20
6.86115209153033
30
0
0
SPLINE
5
C9
100
AcDbEntity
8
SK1
62
256
6
ByLayer
370
18
48
1
60
0
100
AcDbSpline
70
4
71
3
72
20
73
16
40
0
40
0
40
0
40
0
40
0.249999999999994
40
0.249999999999994
40
0.374999999999996
40
0.374999999999996
40
0.499999999999998
40
0.499999999999998
40
0.625
40
0.625
40
0.750000000000002
40
0.750000000000002
40
0.875000000000001
40
0.875000000000001
40
1
40
1
40
1
40
1
41
1
10
-46.5
20
5.86410724631764
30
0
41
1
10
-46.4883382808638
20
5.87497356042596
30
0
41
1
10
-46.4769899849393
20
5.88666355764545
30
0
41
1
10
-46.4604389640724
20
5.90545116206121
30
0
41
1
10
-46.4550533753258
20
5.9118730935196
30
0
41
1
10
-46.4447632897779
20
5.92479694496825
30
0
41
1
10
-46.4398264111653
20
5.93133452093426
30
0
41
1
10
-46.4304188308979
20
5.9445779916
30
0
41
1
10
-46.4259311640916
20
5.95130796939958
30
0
41
1
10
-46.4176087338257
20
5.96487540136457
30
0
41
1
10
-46.4138727961238
20
5.97154743740253
30
0
41
1
10
-46.4074449634846
20
5.98461453212531
30
0
41
1
10
-46.4047607228177
20
5.99102569502557
30
0
41
1
10
-46.40105390221
20
6.00276390071829
30
0
41
1
10
-46.4
20
6.00823627787631
30
0
41
1
10
-46.4
20
6.01275981953063
30
0
0
SPLINE
5
CA
100
AcDbEntity
8
SK1
62
256
6
ByLayer
370
18
48
1
60
0
100
AcDbSpline
70
4
71
3
72
8
73
4
40
0
40
0
40
0
40
0
40
1
40
1
40
1
40
1
41
1
10
-48
20
4.46022842172209
30
0
41
1
10
-47.5014338298905
20
4.92948536646426
30
0
41
1
10
-47.0011215650629
20
5.39716542849192
30
0
41
1
10
-46.5
20
5.86410724631764
30
0
0
SPLINE
5
CB
100
AcDbEntity
8
1
62
256
6
ByLayer
370
18
48
1
60
0
100
AcDbSpline
70
4
71
3
72
12
73
8
40
0
40
0
40
0
40
0
40
0.586628110788147
40
0.586628110788147
40
0.879942166182221
40
0.879942166182221
40
1
40
1
40
1
40
1
41
1
10
64.0899074926138
20
7.99997543339487
30
0
41
1
10
64.1190321649882
20
7.93370385576347
30
0
41
1
10
64.1487328172975
20
7.86745048202474
30
0
41
1
10
64.194189297158
20
7.76787094606215
30
0
41
1
10
64.209485595256
20
7.73467084661272
30
0
41
1
10
64.231177583891
20
7.68813797295599
30
0
41
1
10
64.2374864442027
20
7.67468277535667
30
0
41
1
10
64.2438371626785
20
7.6611550179376
30
0
0
SPLINE
5
CC
100
AcDbEntity
8
1
62
256
6
ByLayer
370
18
48
1
60
0
100
AcDbSpline
70
4
71
3
72
8
73
4
40
0
40
0
40
0
40
0
40
1
40
1
40
1
40
1
41
1
10
66.2924249281247
20
2.48304274508067
30
0
41
1
10
66.5322829813485
20
1.80490856010482
30
0
41
1
10
66.7657146634217
20
1.12446425085054
30
0
41
1
10
66.9926226720382
20
0.441674839503264
30
0
0
SPLINE
5
CD
100
AcDbEntity
8
1
62
256
6
ByLayer
370
18
48
1
60
0
100
AcDbSpline
70
4
71
3
72
25
73
21
40
0
40
0
40
0
40
0
40
0.0593865943359695
40
0.0593865943359695
40
0.144896903941778
40
0.144896903941778
40
0.315917523153417
40
0.315917523153417
40
0.401427832759227
40
0.401427832759227
40
0.44418298756213
40
0.44418298756213
40
0.486938142365034
40
0.486938142365034
40
0.572448451970862
40
0.572448451970862
40
0.657958761576691
40
0.828979380788345
40
0.828979380788345
40
1
40
1
40
1
40
1
41
1
10
64.0189493410529
20
1.75871610713173
30
0
41
1
10
64.0296372861439
20
1.75541680238686
30
0
41
1
10
64.0404787387765
20
1.75191616235188
30
0
41
1
10
64.0672086916408
20
1.742922325932
30
0
41
1
10
64.0832041527282
20
1.73724210036184
30
0
41
1
10
64.1317865394971
20
1.71919621099417
30
0
41
1
10
64.1649663038164
20
1.70583067237172
30
0
41
1
10
64.2157345891561
20
1.68409807162567
30
0
41
1
10
64.2328539812189
20
1.67652223700438
30
0
41
1
10
64.2586174541132
20
1.66501616263932
30
0
41
1
10
64.2672125792849
20
1.66116849094831
30
0
41
1
10
64.2843784288598
20
1.65351430162164
30
0
41
1
10
64.2929563382632
20
1.64969566584733
30
0
41
1
10
64.3187605155489
20
1.63812093992419
30
0
41
1
10
64.336089179816
20
1.63019214921104
30
0
41
1
10
64.3711114832764
20
1.61371900527348
30
0
41
1
10
64.4241384442081
20
1.58817694826249
30
0
41
1
10
64.4785802126175
20
1.56024869323849
30
0
41
1
10
64.5523317527296
20
1.5210503344951
30
0
41
1
10
64.5898029497931
20
1.50044691478376
30
0
41
1
10
64.6277677390214
20
1.47901100820658
30
0
0
SPLINE
5
CE
100
AcDbEntity
8
1
62
256
6
ByLayer
370
18
48
1
60
0
100
AcDbSpline
70
4
71
3
72
22
73
18
40
0
40
0
40
0
40
0
40
0.307727785818191
40
0.307727785818191
40
0.384659732272747
40
0.384659732272747
40
0.461591678727303
40
0.461591678727303
40
0.615455571636385
40
0.615455571636385
40
0.769319464545467
40
0.769319464545467
40
0.846251410999995
40
0.846251410999995
40
0.923183357454524
40
0.923183357454524
40
1
40
1
40
1
40
1
41
1
10
64.9948305209439
20
2.18652235974417
30
0
41
1
10
64.8680584226128
20
2.16636082569244
30
0
41
1
10
64.7454258040716
20
2.13609268901604
30
0
41
1
10
64.5971125933941
20
2.08795295567632
30
0
41
1
10
64.5677034755645
20
2.07779550802133
30
0
41
1
10
64.5093785580115
20
2.05652526390816
30
0
41
1
10
64.4803700513153
20
2.04538374133162
30
0
41
1
10
64.3951030189928
20
2.01121946419397
30
0
41
1
10
64.3403724764721
20
1.98737352595475
30
0
41
1
10
64.2347203297378
20
1.93859148087913
30
0
41
1
10
64.1837978994887
20
1.91365502256124
30
0
41
1
10
64.1100576705937
20
1.87611805781725
30
0
41
1
10
64.0859193554396
20
1.86358255710331
30
0
41
1
10
64.0385058152346
20
1.83856870896105
30
0
41
1
10
64.0153637417094
20
1.82616002231089
30
0
41
1
10
63.9704865884595
20
1.80181881943261
30
0
41
1
10
63.9486983941447
20
1.78985888549772
30
0
41
1
10
63.9275129777573
20
1.77814603405585
30
0
0
SPLINE
5
CF
100
AcDbEntity
8
1
62
256
6
ByLayer
370
18
48
1
60
0
100
AcDbSpline
70
4
71
3
72
14
73
10
40
0
40
0
40
0
40
0
40
0.250000000000007
40
0.250000000000007
40
0.374999999999996
40
0.374999999999996
40
0.499999999999985
40
0.499999999999985
40
1
40
1
40
1
40
1
41
1
10
66.2924249281247
20
2.48304274508067
30
0
41
1
10
66.1871244810125
20
2.44854164318704
30
0
41
1
10
66.0805200134259
20
2.41733837793021
30
0
41
1
10
65.9191311605098
20
2.37428180588262
30
0
41
1
10
65.8651311381953
20
2.36056624789057
30
0
41
1
10
65.7570379034129
20
2.33429953953316
30
0
41
1
10
65.7029036848645
20
2.32173534015749
30
0
41
1
10
65.4318417104678
20
2.26145394638948
30
0
41
1
10
65.2137440362448
20
2.2213378463633
30
0
41
1
10
64.9948305209439
20
2.18652235974417
30
0
0
SPLINE
5
D0
100
AcDbEntity
8
1
62
256
6
ByLayer
370
18
48
1
60
0
100
AcDbSpline
70
4
71
3
72
37
73
33
40
0
40
0
40
0
40
0
40
0.031249999999996
40
0.031249999999996
40
0.062499999999992
40
0.062499999999992
40
0.124999999999987
40
0.124999999999987
40
0.249999999999981
40
0.249999999999981
40
0.281249999999982
40
0.296874999999982
40
0.296874999999982
40
0.312499999999982
40
0.312499999999982
40
0.343749999999985
40
0.343749999999985
40
0.351562499999986
40
0.351562499999986
40
0.359374999999986
40
0.374999999999987
40
0.499999999999989
40
0.499999999999989
40
0.624999999999991
40
0.624999999999991
40
0.749999999999993
40
0.749999999999993
40
0.812499999999994
40
0.812499999999994
40
0.874999999999995
40
0.874999999999995
40
1
40
1
40
1
40
1
41
1
10
66.2924249281247
20
2.4830427450807
30
0
41
1
10
66.2655809532173
20
2.5283141158184
30
0
41
1
10
66.2389117503514
20
2.57439028309093
30
0
41
1
10
66.1859796733141
20
2.66807393271583
30
0
41
1
10
66.1598899352478
20
2.71537366994861
30
0
41
1
10
66.082701298215
20
2.85862387580681
30
0
41
1
10
66.0326818712564
20
2.9559220104675
30
0
41
1
10
65.8865824196976
20
3.25311684445578
30
0
41
1
10
65.7944828262883
20
3.45833145962055
30
0
41
1
10
65.6844718394281
20
3.72317461948094
30
0
41
1
10
65.6518513913103
20
3.80325344352249
30
0
41
1
10
65.6197576706296
20
3.8842551928752
30
0
41
1
10
65.598473054601
20
3.93845891291008
30
0
41
1
10
65.5878771818059
20
3.9656860340308
30
0
41
1
10
65.5563308828995
20
4.04745027648315
30
0
41
1
10
65.5356221758144
20
4.10207271120427
30
0
41
1
10
65.5100919750445
20
4.17047490744454
30
0
41
1
10
65.5050091090572
20
4.1841634324299
30
0
41
1
10
65.4948384119785
20
4.21153875835716
30
0
41
1
10
65.4795910695023
20
4.25260479352011
30
0
41
1
10
65.3831882273298
20
4.51274688690626
30
0
41
1
10
65.2927720251225
20
4.75951578072238
30
0
41
1
10
65.1331700051478
20
5.19860156378078
30
0
41
1
10
65.0539261938495
20
5.41837318950786
30
0
41
1
10
64.8963751199975
20
5.85750659905935
30
0
41
1
10
64.8180526514031
20
6.07693666991034
30
0
41
1
10
64.7008181935999
20
6.40566533659202
30
0
41
1
10
64.66176587325
20
6.51520474951778
30
0
41
1
10
64.5837213861211
20
6.73392546562104
30
0
41
1
10
64.5447307298374
20
6.84309709753921
30
0
41
1
10
64.427739973696
20
7.16996341462061
30
0
41
1
10
64.349719550867
20
7.38701288124176
30
0
41
1
10
64.2713058785763
20
7.60298259442791
30
0
0
SPLINE
5
D1
100
AcDbEntity
8
1
62
256
6
ByLayer
370
18
48
1
60
0
100
AcDbSpline
70
4
71
3
72
32
73
28
40
0
40
0
40
0
40
0
40
0.0880126721550888
40
0.0880126721550888
40
0.176025344310178
40
0.176025344310178
40
0.220031680387722
40
0.220031680387722
40
0.264038016465266
40
0.264038016465266
40
0.352050688620356
40
0.352050688620356
40
0.440063360775445
40
0.440063360775445
40
0.528076032930534
40
0.528076032930534
40
0.704101377240712
40
0.704101377240712
40
0.792114049395801
40
0.792114049395801
40
0.836120385473347
40
0.836120385473347
40
0.880126721550893
40
0.880126721550893
40
0.968139393705988
40
0.968139393705988
40
1
40
1
40
1
40
1
41
1
10
64.2713058785907
20
7.60298259441055
30
0
41
1
10
63.9558968276028
20
7.61138445755145
30
0
41
1
10
63.6406965651591
20
7.61384941741397
30
0
41
1
10
63.0103090789083
20
7.60705646859358
30
0
41
1
10
62.6951306805811
20
7.59778871820856
30
0
41
1
10
62.2221600683241
20
7.57507042009118
30
0
41
1
10
62.0644723789429
20
7.56602300356812
30
0
41
1
10
61.7489883594102
20
7.54498496641122
30
0
41
1
10
61.59114972781
20
7.53299347893531
30
0
41
1
10
61.1178881817196
20
7.49265313930218
30
0
41
1
10
60.8026109969926
20
7.45994611088875
30
0
41
1
10
60.1721821811546
20
7.38299224328165
30
0
41
1
10
59.8570297072562
20
7.33873389718704
30
0
41
1
10
59.2265479530717
20
7.23878111191513
30
0
41
1
10
58.9112105837115
20
7.18308409450384
30
0
41
1
10
57.9643998159385
20
6.99937391637408
30
0
41
1
10
57.334185343509
20
6.8551920771433
30
0
41
1
10
56.3885254903514
20
6.60766979079759
30
0
41
1
10
56.0732403992822
20
6.5199614986264
30
0
41
1
10
55.5999431035275
20
6.38081000762404
30
0
41
1
10
55.4421067056481
20
6.33315560233444
30
0
41
1
10
55.1264970683485
20
6.23540969197092
30
0
41
1
10
54.9686958938772
20
6.18531135609732
30
0
41
1
10
54.4952505245577
20
6.03136940081123
30
0
41
1
10
54.1796467632143
20
5.92386025112279
30
0
41
1
10
53.7498056938815
20
5.77124078201595
30
0
41
1
10
53.6355546707244
20
5.73008441514756
30
0
41
1
10
53.5213141406186
20
5.68835689251796
30
0
0
SPLINE
5
D2
100
AcDbEntity
8
1
62
256
6
ByLayer
370
18
48
1
60
0
100
AcDbSpline
70
4
71
3
72
21
73
17
40
0
40
0
40
0
40
0
40
0.249999999999966
40
0.249999999999966
40
0.374999999999969
40
0.374999999999969
40
0.499999999999972
40
0.624999999999975
40
0.624999999999975
40
0.749999999999979
40
0.749999999999979
40
0.874999999999982
40
0.874999999999982
40
0.937499999999991
40
0.937499999999991
40
1
40
1
40
1
40
1
41
1
10
3.62886821801405
20
-1.62556171724753
30
0
41
1
10
3.60787895354997
20
-1.61565979290381
30
0
41
1
10
3.58951085783281
20
-1.60370504217559
30
0
41
1
10
3.56532007329713
20
-1.58312825852215
30
0
41
1
10
3.55779545666184
20
-1.57577175268517
30
0
41
1
10
3.54427607508953
20
-1.56062450777588
30
0
41
1
10
3.53216889810292
20
-1.54496234893691
30
0
41
1
10
3.52268699172686
20
-1.52833964264497
30
0
41
1
10
3.51449350000828
20
-1.51124416590986
30
0
41
1
10
3.51103259147086
20
-1.50241982421994
30
0
41
1
10
3.50552253999496
20
-1.48460649246468
30
0
41
1
10
3.50345413839955
20
-1.47558480211205
30
0
41
1
10
3.50138068110164
20
-1.46192323305718
30
0
41
1
10
3.50086260021811
20
-1.45735678517093
30
0
41
1
10
3.50017162279522
20
-1.44819940073279
30
0
41
1
10
3.50000000000006
20
-1.44358394782793
30
0
41
1
10
3.50000000000003
20
-1.43905629573692
30
0
0
SPLINE
5
D3
100
AcDbEntity
8
1
62
256
6
ByLayer
370
18
48
1
60
0
100
AcDbSpline
70
2053
71
3
72
130
73
126
40
0
40
0
40
0
40
0
40
0.0312499999999908
40
0.0312499999999908
40
0.0624999999999817
40
0.0624999999999817
40
0.078124999999977
40
0.078124999999977
40
0.0937499999999723
40
0.0937499999999723
40
0.124999999999965
40
0.124999999999965
40
0.132812499999963
40
0.132812499999963
40
0.140624999999962
40
0.156249999999959
40
0.156249999999959
40
0.187499999999955
40
0.187499999999955
40
0.195312499999954
40
0.195312499999954
40
0.203124999999952
40
0.21874999999995
40
0.21874999999995
40
0.249999999999946
40
0.249999999999946
40
0.257812499999945
40
0.257812499999945
40
0.265624999999944
40
0.281249999999942
40
0.296874999999941
40
0.296874999999941
40
0.30468749999994
40
0.30468749999994
40
0.312499999999939
40
0.312499999999939
40
0.343749999999937
40
0.343749999999937
40
0.351562499999936
40
0.351562499999936
40
0.359374999999935
40
0.359374999999935
40
0.374999999999934
40
0.390624999999933
40
0.390624999999933
40
0.398437499999932
40
0.398437499999932
40
0.406249999999931
40
0.406249999999931
40
0.437499999999927
40
0.437499999999927
40
0.445312499999926
40
0.445312499999926
40
0.453124999999925
40
0.468749999999922
40
0.484374999999918
40
0.484374999999918
40
0.492187499999918
40
0.492187499999918
40
0.499999999999917
40
0.499999999999917
40
0.531249999999915
40
0.531249999999915
40
0.539062499999915
40
0.539062499999915
40
0.546874999999915
40
0.546874999999915
40
0.562499999999918
40
0.562499999999918
40
0.593749999999924
40
0.593749999999924
40
0.601562499999924
40
0.601562499999924
40
0.609374999999924
40
0.609374999999924
40
0.624999999999924
40
0.624999999999924
40
0.656249999999925
40
0.656249999999925
40
0.671874999999926
40
0.671874999999926
40
0.679687499999927
40
0.679687499999927
40
0.687499999999929
40
0.687499999999929
40
0.718749999999938
40
0.718749999999938
40
0.726562499999939
40
0.726562499999939
40
0.734374999999941
40
0.734374999999941
40
0.749999999999946
40
0.76562499999995
40
0.76562499999995
40
0.773437499999952
40
0.773437499999952
40
0.781249999999955
40
0.781249999999955
40
0.812499999999964
40
0.812499999999964
40
0.820312499999966
40
0.820312499999966
40
0.828124999999969
40
0.828124999999969
40
0.843749999999973
40
0.859374999999976
40
0.859374999999976
40
0.867187499999977
40
0.867187499999977
40
0.874999999999978
40
0.874999999999978
40
0.906249999999982
40
0.906249999999982
40
0.921874999999985
40
0.921874999999985
40
0.937499999999988
40
0.953124999999991
40
0.953124999999991
40
0.968749999999994
40
0.968749999999994
40
0.984374999999997
40
0.984374999999997
40
0.992187499999999
40
0.992187499999999
40
1
40
1
40
1
40
1
41
1
10
64.9497498413702
20
-3.05306796144897
30
0
41
1
10
64.9237715370615
20
-3.08243793928676
30
0
41
1
10
64.8986276159158
20
-3.10610407346553
30
0
41
1
10
64.8496954832853
20
-3.14284146052867
30
0
41
1
10
64.8259091645624
20
-3.15590662433652
30
0
41
1
10
64.7910774678873
20
-3.16731251016611
30
0
41
1
10
64.7797441656454
20
-3.16969326620159
30
0
41
1
10
64.7576553295864
20
-3.17167495657012
30
0
41
1
10
64.7468869688078
20
-3.17127993692125
30
0
41
1
10
64.7153475432051
20
-3.16596776651613
30
0
41
1
10
64.6953364402708
20
-3.15695845390599
30
0
41
1
10
64.6714738966844
20
-3.13846368701175
30
0
41
1
10
64.6667747485395
20
-3.13441054559101
30
0
41
1
10
64.6575719947818
20
-3.12564806230563
30
0
41
1
10
64.6440368450438
20
-3.11149781457112
30
0
41
1
10
64.6312800521586
20
-3.09436183862061
30
0
41
1
10
64.6067621708768
20
-3.05609560910469
30
0
41
1
10
64.591732804002
20
-3.02529873820774
30
0
41
1
10
64.5746149240738
20
-2.97962059505866
30
0
41
1
10
64.5712741882863
20
-2.97011392680167
30
0
41
1
10
64.5648350969898
20
-2.95057436988222
30
0
41
1
10
64.5555129577444
20
-2.92040032940193
30
0
41
1
10
64.5471839382533
20
-2.88765461386717
30
0
41
1
10
64.5318595661761
20
-2.81869148111724
30
0
41
1
10
64.5233993146965
20
-2.76813110440557
30
0
41
1
10
64.5153362113191
20
-2.69849737892861
30
0
41
1
10
64.5138547250679
20
-2.68426640808241
30
0
41
1
10
64.5111915084256
20
-2.65551502455784
30
0
41
1
10
64.5076323611059
20
-2.61182194652668
30
0
41
1
10
64.5038916787337
20
-2.53618508141895
30
0
41
1
10
64.5033527965757
20
-2.47261214577804
30
0
41
1
10
64.503955027938
20
-2.42371849998003
30
0
41
1
10
64.5043239646893
20
-2.40721783834277
30
0
41
1
10
64.5054190751264
20
-2.37379375649769
30
0
41
1
10
64.5061478974063
20
-2.35684869886097
30
0
41
1
10
64.5106651045743
20
-2.27232496842049
30
0
41
1
10
64.5170626130893
20
-2.20436686101428
30
0
41
1
10
64.5289033944795
20
-2.11902070950953
30
0
41
1
10
64.5314658532929
20
-2.10193134304777
30
0
41
1
10
64.5369975760041
20
-2.06771211215431
30
0
41
1
10
64.5399793583065
20
-2.05051875427787
30
0
41
1
10
64.5494422688992
20
-1.99953563699648
30
0
41
1
10
64.5634524765402
20
-1.93296313884232
30
0
41
1
10
64.580247689771
20
-1.86911627305111
30
0
41
1
10
64.5939167444944
20
-1.82225429067583
30
0
41
1
10
64.5986521620582
20
-1.80680448722268
30
0
41
1
10
64.6084894601399
20
-1.77625076558684
30
0
41
1
10
64.6135705273211
20
-1.76121544190667
30
0
41
1
10
64.6395704259037
20
-1.68780692399443
30
0
41
1
10
64.6624513144938
20
-1.63408457014322
30
0
41
1
10
64.6935308846402
20
-1.57268154451478
30
0
41
1
10
64.6998884877415
20
-1.56066205838175
30
0
41
1
10
64.7127349876315
20
-1.53741027393667
30
0
41
1
10
64.7322197596277
20
-1.50367345400684
30
0
41
1
10
64.7657232907248
20
-1.45287987356824
30
0
41
1
10
64.7935496818137
20
-1.41768408580941
30
0
41
1
10
64.8147823293729
20
-1.39325545636015
30
0
41
1
10
64.8219314035227
20
-1.38543113195843
30
0
41
1
10
64.83622855936
20
-1.37055337137446
30
0
41
1
10
64.8433891221079
20
-1.36348437289598
30
0
41
1
10
64.879244086181
20
-1.32991727500647
30
0
41
1
10
64.9080955198224
20
-1.30870270585848
30
0
41
1
10
64.9442412062489
20
-1.28864471472039
30
0
41
1
10
64.9514743675504
20
-1.28495912028521
30
0
41
1
10
64.9659452921314
20
-1.27823662783726
30
0
41
1
10
64.973180096384
20
-1.27520264771476
30
0
41
1
10
64.9947218429884
20
-1.26712588585914
30
0
41
1
10
65.0089219051976
20
-1.26307879349582
30
0
41
1
10
65.0510158623654
20
-1.25477391939887
30
0
41
1
10
65.0784084522163
20
-1.25432055042037
30
0
41
1
10
65.1116647791793
20
-1.26004508967364
30
0
41
1
10
65.1182664308055
20
-1.26150714976922
30
0
41
1
10
65.1313651328596
20
-1.26507459799566
30
0
41
1
10
65.1378629138442
20
-1.26718204807028
30
0
41
1
10
65.1570357732778
20
-1.2744208259858
30
0
41
1
10
65.1694445309887
20
-1.28047917484969
30
0
41
1
10
65.2055180239008
20
-1.30231151212439
30
0
41
1
10
65.2280404490067
20
-1.32170802700787
30
0
41
1
10
65.2592309298685
20
-1.35850329413856
30
0
41
1
10
65.2691931836902
20
-1.37205993108606
30
0
41
1
10
65.283418937403
20
-1.39447713496358
30
0
41
1
10
65.2880411879611
20
-1.40230130865555
30
0
41
1
10
65.2969468225685
20
-1.41850993317675
30
0
41
1
10
65.3012419937427
20
-1.42691199468396
30
0
41
1
10
65.3219160701517
20
-1.4704269524569
30
0
41
1
10
65.3359127499762
20
-1.51000290529933
30
0
41
1
10
65.3498008665168
20
-1.56615513060024
30
0
41
1
10
65.3523965575189
20
-1.57772307596017
30
0
41
1
10
65.3572062391609
20
-1.60156759347697
30
0
41
1
10
65.3594204561374
20
-1.61385637240818
30
0
41
1
10
65.3653961082021
20
-1.65139125335608
30
0
41
1
10
65.3716446300143
20
-1.70348492612371
30
0
41
1
10
65.3743759064906
20
-1.75980257636991
30
0
41
1
10
65.3750384496416
20
-1.80372915089058
30
0
41
1
10
65.3750279116867
20
-1.81865333104696
30
0
41
1
10
65.3745273215043
20
-1.84909144358869
30
0
41
1
10
65.3740351244938
20
-1.86460013929144
30
0
41
1
10
65.370400936848
20
-1.94252696140001
30
0
41
1
10
65.3637652911627
20
-2.00694597698816
30
0
41
1
10
65.3509030591366
20
-2.09018737199708
30
0
41
1
10
65.3481001862702
20
-2.10697294292112
30
0
41
1
10
65.3420272876557
20
-2.14082776993308
30
0
41
1
10
65.3387594324101
20
-2.15787434751104
30
0
41
1
10
65.3284143554713
20
-2.20867109314079
30
0
41
1
10
65.3130937014709
20
-2.27599444329044
30
0
41
1
10
65.2949357198548
20
-2.34256222477944
30
0
41
1
10
65.2802961651764
20
-2.39221539652664
30
0
41
1
10
65.2752285465748
20
-2.40877403540881
30
0
41
1
10
65.2648539576045
20
-2.44149226089647
30
0
41
1
10
65.2595499680802
20
-2.45764748072131
30
0
41
1
10
65.2324827312323
20
-2.53744587395511
30
0
41
1
10
65.209101379827
20
-2.5981912043361
30
0
41
1
10
65.1718140028214
20
-2.68500462561318
30
0
41
1
10
65.1591733308197
20
-2.71283654012845
30
0
41
1
10
65.1336417336832
20
-2.76618365140232
30
0
41
1
10
65.1078197921752
20
-2.81730718745271
30
0
41
1
10
65.0814712570558
20
-2.86417007356764
30
0
41
1
10
65.0548691422967
20
-2.90892510154157
30
0
41
1
10
65.0416111569759
20
-2.92996232490424
30
0
41
1
10
65.0152066746881
20
-2.96945755205513
30
0
41
1
10
65.0020547383361
20
-2.98792407063303
30
0
41
1
10
64.9823934565876
20
-3.01375524015148
30
0
41
1
10
64.9758507671243
20
-3.02205358590919
30
0
41
1
10
64.962785650197
20
-3.03802806943489
30
0
41
1
10
64.9562444174473
20
-3.04572546698952
30
0
41
1
10
64.9497498413702
20
-3.05306796144897
30
0
0
SPLINE
5
D4
100
AcDbEntity
8
1
62
256
6
ByLayer
370
18
48
1
60
0
100
AcDbSpline
70
4
71
3
72
8
73
4
40
0
40
0
40
0
40
0
40
1
40
1
40
1
40
1
41
1
10
66.2924249281247
20
-2.48304274508067
30
0
41
1
10
66.5322829813469
20
-1.80490856010951
30
0
41
1
10
66.7657146634184
20
-1.12446425086
30
0
41
1
10
66.9926226720334
20
-0.441674839517532
30
0
0
SPLINE
5
D5
100
AcDbEntity
8
1
62
256
6
ByLayer
370
18
48
1
60
0
100
AcDbSpline
70
4
71
3
72
8
73
4
40
0
40
0
40
0
40
0
40
1
40
1
40
1
40
1
41
1
10
66.9926226720337
20
0.441674839507527
30
0
41
1
10
67.0024551045546
20
0.14734482685904
30
0
41
1
10
67.0024631173007
20
-0.14710496845521
30
0
41
1
10
66.9926226720334
20
-0.441674839517532
30
0
0
SPLINE
5
D6
100
AcDbEntity
8
1
62
256
6
ByLayer
370
18
48
1
60
0
100
AcDbSpline
70
4
71
3
72
8
73
4
40
0
40
0
40
0
40
0
40
1
40
1
40
1
40
1
41
1
10
66.9926226720299
20
0.441674839505822
30
0
41
1
10
66.958067486226
20
0.326499728814724
30
0
41
1
10
66.9233395415697
20
0.211377064704806
30
0
41
1
10
66.888439471555
20
0.0963066548582958
30
0
0
SPLINE
5
D7
100
AcDbEntity
8
1
62
256
6
ByLayer
370
18
48
1
60
0
100
AcDbSpline
70
4
71
3
72
58
73
54
40
0
40
0
40
0
40
0
40
0.0624999999999843
40
0.0624999999999843
40
0.124999999999969
40
0.124999999999969
40
0.156249999999961
40
0.156249999999961
40
0.171874999999957
40
0.171874999999957
40
0.187499999999953
40
0.187499999999953
40
0.249999999999948
40
0.249999999999948
40
0.312499999999943
40
0.312499999999943
40
0.32812499999994
40
0.32812499999994
40
0.343749999999937
40
0.343749999999937
40
0.374999999999932
40
0.374999999999932
40
0.437499999999914
40
0.437499999999914
40
0.468749999999902
40
0.468749999999902
40
0.4843749999999
40
0.4843749999999
40
0.499999999999897
40
0.499999999999897
40
0.562499999999891
40
0.562499999999891
40
0.593749999999888
40
0.593749999999888
40
0.60937499999989
40
0.60937499999989
40
0.624999999999891
40
0.624999999999891
40
0.687499999999902
40
0.687499999999902
40
0.71874999999991
40
0.71874999999991
40
0.749999999999918
40
0.749999999999918
40
0.812499999999938
40
0.812499999999938
40
0.874999999999959
40
0.874999999999959
40
0.906249999999969
40
0.906249999999969
40
0.937499999999979
40
0.937499999999979
40
1
40
1
40
1
40
1
41
1
10
66.888439471555
20
0.0963066548582958
30
0
41
1
10
66.869076920545
20
0.03246561730586
30
0
41
1
10
66.8482500800347
20
-0.0306378385020025
30
0
41
1
10
66.8036724634013
20
-0.15534801764835
30
0
41
1
10
66.7799229339421
20
-0.216955431504744
30
0
41
1
10
66.7420194229533
20
-0.308180978118799
30
0
41
1
10
66.7290040023891
20
-0.33839134707614
30
0
41
1
10
66.7088867082411
20
-0.383395444899662
30
0
41
1
10
66.7020701670591
20
-0.398369223539305
30
0
41
1
10
66.6883386407991
20
-0.427986636570864
30
0
41
1
10
66.6814146200428
20
-0.442651395452088
30
0
41
1
10
66.646507737761
20
-0.515255505033707
30
0
41
1
10
66.6176692084582
20
-0.571045116134059
30
0
41
1
10
66.5582083206759
20
-0.677894489639556
30
0
41
1
10
66.52758718685
20
-0.728957357358553
30
0
41
1
10
66.4881386722754
20
-0.78956803189925
30
0
41
1
10
66.4801899699968
20
-0.801528428825549
30
0
41
1
10
66.4641713647651
20
-0.825115372229021
30
0
41
1
10
66.456129774435
20
-0.83669913980998
30
0
41
1
10
66.4320579487585
20
-0.870609545119294
30
0
41
1
10
66.4160205471124
20
-0.892185296409934
30
0
41
1
10
66.3679400964585
20
-0.953854916110373
30
0
41
1
10
66.3359306918148
20
-0.990906181315921
30
0
41
1
10
66.2879509780733
20
-1.04026395948853
30
0
41
1
10
66.2719630145941
20
-1.05567634804257
30
0
41
1
10
66.2479804024367
20
-1.07718290312133
30
0
41
1
10
66.2399848391432
20
-1.08408207534339
30
0
41
1
10
66.224149154798
20
-1.09720689229624
30
0
41
1
10
66.2162890416954
20
-1.10345093970812
30
0
41
1
10
66.177266358456
20
-1.13310926927039
30
0
41
1
10
66.1469350645015
20
-1.1518597859085
30
0
41
1
10
66.1025939200406
20
-1.17281361857417
30
0
41
1
10
66.0880066458405
20
-1.17859854685639
30
0
41
1
10
66.0663970087794
20
-1.18547672371912
30
0
41
1
10
66.0592257853152
20
-1.18747187724969
30
0
41
1
10
66.0450691061298
20
-1.19083833731352
30
0
41
1
10
66.0380767605355
20
-1.19221301329947
30
0
41
1
10
66.0035245486772
20
-1.19758673713054
30
0
41
1
10
65.9771871639911
20
-1.19710702094781
30
0
41
1
10
65.9393266124689
20
-1.18977840543869
30
0
41
1
10
65.9269818937333
20
-1.18623000013716
30
0
41
1
10
65.9028035641917
20
-1.17697410881638
30
0
41
1
10
65.8909427249846
20
-1.17124439019304
30
0
41
1
10
65.8565104320287
20
-1.1511519272386
30
0
41
1
10
65.834946102691
20
-1.13386969446563
30
0
41
1
10
65.7941048952521
20
-1.0923864063765
30
0
41
1
10
65.7748303856969
20
-1.06818042150428
30
0
41
1
10
65.747384850045
20
-1.02706824311846
30
0
41
1
10
65.7384817053687
20
-1.01256153310561
30
0
41
1
10
65.7211342536659
20
-0.981986381305063
30
0
41
1
10
65.7126902166132
20
-0.965912844385514
30
0
41
1
10
65.6881757799359
20
-0.91577567512698
30
0
41
1
10
65.6728549572487
20
-0.879692781496658
30
0
41
1
10
65.6584199935579
20
-0.841160293363203
30
0
0
SPLINE
5
D8
100
AcDbEntity
8
1
62
256
6
ByLayer
370
18
48
1
60
0
100
AcDbSpline
70
4
71
3
72
10
73
6
40
0
40
0
40
0
40
0
40
0.5
40
0.5
40
1
40
1
40
1
40
1
41
1
10
65.6584199935581
20
-0.841160293362918
30
0
41
1
10
65.5222466242811
20
-0.477661025324096
30
0
41
1
10
65.3681751354045
20
-0.102500508144885
30
0
41
1
10
65.0244732497056
20
0.670988394905294
30
0
41
1
10
64.8348437716568
20
1.06931618216325
30
0
41
1
10
64.627767739017
20
1.47901100820943
30
0
0
SPLINE
5
D9
100
AcDbEntity
8
1
62
256
6
ByLayer
370
18
48
1
60
0
100
AcDbSpline
70
4
71
3
72
26
73
22
40
0
40
0
40
0
40
0
40
0.250000000000003
40
0.250000000000003
40
0.312500000000003
40
0.312500000000003
40
0.375000000000003
40
0.375000000000003
40
0.437500000000004
40
0.437500000000004
40
0.500000000000004
40
0.500000000000004
40
0.625000000000005
40
0.625000000000005
40
0.750000000000006
40
0.750000000000006
40
0.875000000000007
40
0.875000000000007
40
0.937500000000003
40
0.937500000000003
40
1
40
1
40
1
40
1
41
1
10
63.246241952681
20
1.12046350214808
30
0
41
1
10
63.3554374635806
20
1.17980799739101
30
0
41
1
10
63.4670600791759
20
1.2315560621673
30
0
41
1
10
63.6089688738278
20
1.28672714696023
30
0
41
1
10
63.6374733087629
20
1.29725020428029
30
0
41
1
10
63.6946771003255
20
1.31759862933023
30
0
41
1
10
63.7233680136468
20
1.32750925960565
30
0
41
1
10
63.780951904798
20
1.34645348370174
30
0
41
1
10
63.8098476003064
20
1.35547209808686
30
0
41
1
10
63.867726899566
20
1.37255704049423
30
0
41
1
10
63.8967230284821
20
1.38062769463792
30
0
41
1
10
63.9838558952194
20
1.40339336682911
30
0
41
1
10
64.0421374248104
20
1.41662315352471
30
0
41
1
10
64.158946842251
20
1.43905362370359
30
0
41
1
10
64.2174739562882
20
1.44832326836473
30
0
41
1
10
64.334647972472
20
1.46340644834683
30
0
41
1
10
64.3932947194973
20
1.46913919138973
30
0
41
1
10
64.4812535883781
20
1.47490428306392
30
0
41
1
10
64.5105714499296
20
1.47636198033911
30
0
41
1
10
64.5691887475808
20
1.478388724604
30
0
41
1
10
64.5984885145121
20
1.47896150848285
30
0
41
1
10
64.6277677390163
20
1.47901100820891
30
0
0
SPLINE
5
DA
100
AcDbEntity
8
1
62
256
6
ByLayer
370
18
48
1
60
0
100
AcDbSpline
70
4
71
3
72
37
73
33
40
0
40
0
40
0
40
0
40
0.0312499999999983
40
0.0312499999999983
40
0.0624999999999965
40
0.0624999999999965
40
0.124999999999993
40
0.124999999999993
40
0.249999999999982
40
0.249999999999982
40
0.281249999999982
40
0.296874999999982
40
0.296874999999982
40
0.312499999999982
40
0.312499999999982
40
0.34374999999998
40
0.34374999999998
40
0.351562499999979
40
0.351562499999979
40
0.359374999999979
40
0.37499999999998
40
0.499999999999984
40
0.499999999999984
40
0.624999999999988
40
0.624999999999988
40
0.749999999999992
40
0.749999999999992
40
0.812499999999994
40
0.812499999999994
40
0.874999999999996
40
0.874999999999996
40
1
40
1
40
1
40
1
41
1
10
66.2924249281247
20
-2.4830427450807
30
0
41
1
10
66.2655809532173
20
-2.52831411581835
30
0
41
1
10
66.2389117503515
20
-2.57439028309082
30
0
41
1
10
66.1859796733142
20
-2.66807393271554
30
0
41
1
10
66.1598899352481
20
-2.71537366994818
30
0
41
1
10
66.0827012982153
20
-2.85862387580613
30
0
41
1
10
66.0326818712567
20
-2.95592201046671
30
0
41
1
10
65.8865824196982
20
-3.25311684445444
30
0
41
1
10
65.794482826289
20
-3.45833145961885
30
0
41
1
10
65.6844718394289
20
-3.72317461947873
30
0
41
1
10
65.6518513913113
20
-3.80325344352013
30
0
41
1
10
65.6197576706306
20
-3.8842551928727
30
0
41
1
10
65.5984730546021
20
-3.93845891290746
30
0
41
1
10
65.587877181807
20
-3.9656860340281
30
0
41
1
10
65.5563308829006
20
-4.0474502764803
30
0
41
1
10
65.5356221758155
20
-4.10207271120132
30
0
41
1
10
65.5100919750457
20
-4.1704749074415
30
0
41
1
10
65.5050091090584
20
-4.18416343242683
30
0
41
1
10
65.4948384119796
20
-4.21153875835404
30
0
41
1
10
65.4795910695036
20
-4.25260479351698
30
0
41
1
10
65.3831882273311
20
-4.51274688690265
30
0
41
1
10
65.292772025124
20
-4.75951578071834
30
0
41
1
10
65.1331700051496
20
-5.19860156377601
30
0
41
1
10
65.0539261938514
20
-5.41837318950272
30
0
41
1
10
64.8963751199997
20
-5.85750659905347
30
0
41
1
10
64.8180526514053
20
-6.07693666990403
30
0
41
1
10
64.7008181936022
20
-6.40566533658517
30
0
41
1
10
64.6617658732525
20
-6.51520474951073
30
0
41
1
10
64.5837213861237
20
-6.73392546561368
30
0
41
1
10
64.54473072984
20
-6.84309709753168
30
0
41
1
10
64.4277399736989
20
-7.16996341461254
30
0
41
1
10
64.3497195508699
20
-7.38701288123335
30
0
41
1
10
64.2713058785795
20
-7.60298259441916
30
0
0
SPLINE
5
DB
100
AcDbEntity
8
1
62
256
6
ByLayer
370
18
48
1
60
0
100
AcDbSpline
70
4
71
3
72
8
73
4
40
0
40
0
40
0
40
0
40
1
40
1
40
1
40
1
41
1
10
34
20
4.15388225114384
30
0
41
1
10
34
20
4.12925135060104
30
0
41
1
10
34
20
4.10153654187968
30
0
41
1
10
34
20
4.07079973832614
30
0
0
SPLINE
5
DC
100
AcDbEntity
8
1
62
256
6
ByLayer
370
18
48
1
60
0
100
AcDbSpline
70
4
71
3
72
18
73
14
40
0
40
0
40
0
40
0
40
0.0699467314925545
40
0.0699467314925545
40
0.239282423658801
40
0.239282423658801
40
0.577953807991294
40
0.577953807991294
40
0.747289500157541
40
0.747289500157541
40
0.916625192323787
40
0.916625192323787
40
1
40
1
40
1
40
1
41
1
10
13.7845116393562
20
7.22482788314591
30
0
41
1
10
13.7643780996746
20
7.16190978554945
30
0
41
1
10
13.7442122880956
20
7.09898434502622
30
0
41
1
10
13.6750779608911
20
6.88370995700444
30
0
41
1
10
13.6262886887029
20
6.73120422442332
30
0
41
1
10
13.4714496004144
20
6.27640241555264
30
0
41
1
10
13.359703787932
20
5.97582570559283
30
0
41
1
10
13.1831345782831
20
5.52750531725917
30
0
41
1
10
13.122610351113
20
5.37815097366953
30
0
41
1
10
12.9998517852002
20
5.08244561181283
30
0
41
1
10
12.9381069405876
20
4.93585292588097
30
0
41
1
10
12.8426616554215
20
4.71982636691789
30
0
41
1
10
12.8106385063249
20
4.64895375775126
30
0
41
1
10
12.7781262900158
20
4.57850839280425
30
0
0
SPLINE
5
DD
100
AcDbEntity
8
1
62
256
6
ByLayer
370
18
48
1
60
0
100
AcDbSpline
70
4
71
3
72
41
73
37
40
0
40
0
40
0
40
0
40
0.0119151541133986
40
0.0119151541133986
40
0.0700377921067262
40
0.0700377921067262
40
0.09909911110339
40
0.09909911110339
40
0.128160430100054
40
0.128160430100054
40
0.186283068093381
40
0.186283068093381
40
0.302528344080038
40
0.302528344080038
40
0.360650982073367
40
0.360650982073367
40
0.389712301070033
40
0.389712301070033
40
0.418773620066699
40
0.418773620066699
40
0.535018896053359
40
0.535018896053359
40
0.593141534046689
40
0.622202853043355
40
0.622202853043355
40
0.65126417204002
40
0.65126417204002
40
0.70938681003335
40
0.70938681003335
40
0.767509448026681
40
0.767509448026681
40
0.883754724013341
40
0.883754724013341
40
0.94187736200667
40
0.94187736200667
40
1
40
1
40
1
40
1
41
1
10
50.2743633660208
20
-4.35894672790812
30
0
41
1
10
50.2096794986957
20
-4.3298389088323
30
0
41
1
10
50.1449851034075
20
-4.30058445357434
30
0
41
1
10
49.7646407737436
20
-4.12777624256378
30
0
41
1
10
49.449048668089
20
-3.98107744487007
30
0
41
1
10
48.9756188234702
20
-3.75642830062407
30
0
41
1
10
48.8178121881122
20
-3.68078629821025
30
0
41
1
10
48.5022001817489
20
-3.52809530786391
30
0
41
1
10
48.3443703019659
20
-3.45103791059401
30
0
41
1
10
47.8712094407422
20
-3.2180619106712
30
0
41
1
10
47.556103540073
20
-3.06029422972844
30
0
41
1
10
46.6112904758778
20
-2.58055293450525
30
0
41
1
10
45.9821274789008
20
-2.25206697436457
30
0
41
1
10
45.0372959477006
20
-1.75016546903484
30
0
41
1
10
44.7221740106948
20
-1.58132947508312
30
0
41
1
10
44.2490113372126
20
-1.32610106553693
30
0
41
1
10
44.0911536534323
20
-1.24066166555181
30
0
41
1
10
43.7756959297087
20
-1.06943949426645
30
0
41
1
10
43.6180602196175
20
-0.983638707908256
30
0
41
1
10
42.8302126120667
20
-0.553932473959833
30
0
41
1
10
42.2009542967838
20
-0.207992852245582
30
0
41
1
10
41.2566274260477
20
0.310571552976796
30
0
41
1
10
40.7843431226045
20
0.569747377997487
30
0
41
1
10
40.3114739771895
20
0.828024966056773
30
0
41
1
10
39.9960586887743
20
0.999938724169056
30
0
41
1
10
39.8382275241786
20
1.08577924834037
30
0
41
1
10
39.3648178299354
20
1.34257368458495
30
0
41
1
10
39.0492648986906
20
1.51285438888797
30
0
41
1
10
38.418057330725
20
1.85094381955096
30
0
41
1
10
38.1024572981724
20
2.01868575113491
30
0
41
1
10
37.1556617561529
20
2.51672125332055
30
0
41
1
10
36.5244991253228
20
2.84187973814235
30
0
41
1
10
35.5777122506537
20
3.31491392654607
30
0
41
1
10
35.2622057539537
20
3.470076588398
30
0
41
1
10
34.6311985791559
20
3.77476611372956
30
0
41
1
10
34.315622185738
20
3.92432971524747
30
0
41
1
10
34
20
4.07079973832614
30
0
0
SPLINE
5
DE
100
AcDbEntity
8
1
62
256
6
ByLayer
370
18
48
1
60
0
100
AcDbSpline
70
4
71
3
72
26
73
22
40
0
40
0
40
0
40
0
40
0.499999999999967
40
0.499999999999967
40
0.749999999999952
40
0.749999999999952
40
0.874999999999957
40
0.874999999999957
40
0.937499999999961
40
0.937499999999961
40
0.968749999999952
40
0.968749999999952
40
0.984374999999959
40
0.984374999999959
40
0.992187499999976
40
0.992187499999976
40
0.996093749999986
40
0.996093749999986
40
0.998046874999993
40
0.998046874999993
40
1
40
1
40
1
40
1
41
1
10
64.0899074926138
20
-7.99997543339487
30
0
41
1
10
64.1190321649858
20
-7.93370385576858
30
0
41
1
10
64.1487328172929
20
-7.86745048203494
30
0
41
1
10
64.1941892971498
20
-7.76787094608
30
0
41
1
10
64.2094855952466
20
-7.73467084663312
30
0
41
1
10
64.2325733958022
20
-7.68514372745815
30
0
41
1
10
64.2402823691624
20
-7.66872361731942
30
0
41
1
10
64.2519559437687
20
-7.64386550596925
30
0
41
1
10
64.2558663339927
20
-7.63553805297144
30
0
41
1
10
64.2617720469763
20
-7.62293895908394
30
0
41
1
10
64.2637521314451
20
-7.61870196027417
30
0
41
1
10
64.2666847517562
20
-7.6125093905529
30
0
41
1
10
64.2676543235345
20
-7.61047922754383
30
0
41
1
10
64.2690923426058
20
-7.60750262438333
30
0
41
1
10
64.2695770117381
20
-7.60649075273446
30
0
41
1
10
64.2703351181014
20
-7.60483957017084
30
0
41
1
10
64.2705956379907
20
-7.6042555182386
30
0
41
1
10
64.2709736333581
20
-7.60343538998956
30
0
41
1
10
64.2711022573604
20
-7.60315889360896
30
0
41
1
10
64.2713090491143
20
-7.60277665040334
30
0
41
1
10
64.2713421176644
20
-7.60280224535654
30
0
41
1
10
64.2713058788521
20
-7.60298259418309
30
0
0
SPLINE
5
DF
100
AcDbEntity
8
1
62
256
6
ByLayer
370
18
48
1
60
0
100
AcDbSpline
70
4
71
3
72
38
73
34
40
0
40
0
40
0
40
0
40
0.0625000000000101
40
0.0625000000000101
40
0.12500000000002
40
0.12500000000002
40
0.156250000000025
40
0.156250000000025
40
0.187500000000029
40
0.187500000000029
40
0.218750000000033
40
0.218750000000033
40
0.250000000000038
40
0.250000000000038
40
0.281250000000042
40
0.281250000000042
40
0.312500000000046
40
0.312500000000046
40
0.375000000000033
40
0.375000000000033
40
0.406250000000026
40
0.406250000000026
40
0.437500000000018
40
0.437500000000018
40
0.500000000000018
40
0.500000000000018
40
0.562500000000017
40
0.562500000000017
40
0.625000000000016
40
0.625000000000016
40
0.750000000000011
40
0.750000000000011
40
1
40
1
40
1
40
1
41
1
10
3.75068206657531
20
7.5047391941076
30
0
41
1
10
3.74284175030155
20
7.50601325612183
30
0
41
1
10
3.73463117848445
20
7.50757975734984
30
0
41
1
10
3.71712314892008
20
7.51156719226705
30
0
41
1
10
3.70775276960131
20
7.51400698354811
30
0
41
1
10
3.69280666011829
20
7.51858458432878
30
0
41
1
10
3.6876692632535
20
7.52026539292464
30
0
41
1
10
3.67698694182388
20
7.52403286120978
30
0
41
1
10
3.67139227651677
20
7.52614076527976
30
0
41
1
10
3.66005224924794
20
7.53074483206004
30
0
41
1
10
3.6542825073353
20
7.53324713569296
30
0
41
1
10
3.64249618542155
20
7.53874714608958
30
0
41
1
10
3.63663532750482
20
7.54167607271893
30
0
41
1
10
3.62523371801913
20
7.54777085799586
30
0
41
1
10
3.61958434164759
20
7.55099859405362
30
0
41
1
10
3.60893244091036
20
7.55747668318938
30
0
41
1
10
3.60392132776264
20
7.56072431560528
30
0
41
1
10
3.58966536023357
20
7.5704891497289
30
0
41
1
10
3.58160285458322
20
7.57673257262314
30
0
41
1
10
3.57087654647469
20
7.58578247390514
30
0
41
1
10
3.56752444412351
20
7.58875702793983
30
0
41
1
10
3.56129767091193
20
7.59452782176945
30
0
41
1
10
3.55840530922202
20
7.59733871411055
30
0
41
1
10
3.55025428421234
20
7.60559471799729
30
0
41
1
10
3.54551462381076
20
7.61086556652975
30
0
41
1
10
3.53700826090363
20
7.62108324523297
30
0
41
1
10
3.53323915129184
20
7.62604170081397
30
0
41
1
10
3.52655012213427
20
7.63557115736347
30
0
41
1
10
3.52361500526359
20
7.640160216369
30
0
41
1
10
3.5157668649633
20
7.65351922873879
30
0
41
1
10
3.51179725507779
20
7.66188706689331
30
0
41
1
10
3.50258592325537
20
7.68585423016251
30
0
41
1
10
3.50000000000008
20
7.7003354778532
30
0
41
1
10
3.50000000000006
20
7.71374550795684
30
0
0
SPLINE
5
E0
100
AcDbEntity
8
1
62
256
6
ByLayer
370
13
48
1
60
0
100
AcDbSpline
70
4
71
3
72
21
73
17
40
0
40
0
40
0
40
0
40
0.250000000000028
40
0.250000000000028
40
0.375000000000022
40
0.375000000000022
40
0.500000000000016
40
0.62500000000001
40
0.62500000000001
40
0.750000000000004
40
0.750000000000004
40
0.874999999999998
40
0.874999999999998
40
0.937499999999999
40
0.937499999999999
40
1
40
1
40
1
40
1
41
1
10
3.62886821801402
20
-1.52252526075975
30
0
41
1
10
3.6078817842178
20
-1.51817813168549
30
0
41
1
10
3.58950903299385
20
-1.51291487776055
30
0
41
1
10
3.56531042079015
20
-1.5038091008586
30
0
41
1
10
3.55778290349076
20
-1.50054664536125
30
0
41
1
10
3.54426009966752
20
-1.49381316339108
30
0
41
1
10
3.5321506380678
20
-1.48683544982913
30
0
41
1
10
3.52267061194155
20
-1.47939432375267
30
0
41
1
10
3.51447957222777
20
-1.47172226895287
30
0
41
1
10
3.5110204863511
20
-1.46775250378656
30
0
41
1
10
3.50551490309809
20
-1.4597192335161
30
0
41
1
10
3.50344902522528
20
-1.45564110260102
30
0
41
1
10
3.50137836025201
20
-1.44944972033619
30
0
41
1
10
3.50086110076336
20
-1.44737775725557
30
0
41
1
10
3.5001712765293
20
-1.44321754242847
30
0
41
1
10
3.50000000000003
20
-1.44111773088076
30
0
41
1
10
3.50000000000003
20
-1.43905629573692
30
0
0
SPLINE
5
E1
100
AcDbEntity
8
1
62
256
6
ByLayer
370
13
48
1
60
0
100
AcDbSpline
70
4
71
3
72
10
73
6
40
0
40
0
40
0
40
0
40
0.5
40
0.5
40
1
40
1
40
1
40
1
41
1
10
3.75022759737632
20
-1.55492175515602
30
0
41
1
10
3.72902603059228
20
-1.54812863151003
30
0
41
1
10
3.70827511485967
20
-1.54204140563527
30
0
41
1
10
3.667656928405
20
-1.53119565926514
30
0
41
1
10
3.6476443385462
20
-1.52641454563093
30
0
41
1
10
3.62886821801402
20
-1.52252526075975
30
0
0
SPLINE
5
E2
100
AcDbEntity
8
1
62
256
6
ByLayer
370
18
48
1
60
0
100
AcDbSpline
70
4
71
3
72
159
73
155
40
0
40
0
40
0
40
0
40
0.0088441564554721
40
0.0088441564554721
40
0.0279048457544077
40
0.0279048457544077
40
0.0374351904038755
40
0.0374351904038755
40
0.0469655350533433
40
0.0469655350533433
40
0.0660262243522788
40
0.0660262243522788
40
0.0755565690017463
40
0.0755565690017463
40
0.0850869136512137
40
0.0850869136512137
40
0.104147602950148
40
0.104147602950148
40
0.113677947599614
40
0.113677947599614
40
0.123208292249081
40
0.123208292249081
40
0.142268981548015
40
0.142268981548015
40
0.151799326197481
40
0.151799326197481
40
0.161329670846947
40
0.161329670846947
40
0.170860015496414
40
0.170860015496414
40
0.18039036014588
40
0.18039036014588
40
0.199451049444813
40
0.199451049444813
40
0.218511738743747
40
0.218511738743747
40
0.228042083393213
40
0.228042083393213
40
0.23757242804268
40
0.23757242804268
40
0.247102772692147
40
0.247102772692147
40
0.256633117341613
40
0.256633117341613
40
0.26616346199108
40
0.26616346199108
40
0.275693806640547
40
0.275693806640547
40
0.294754495939481
40
0.294754495939481
40
0.313815185238415
40
0.313815185238415
40
0.323345529887882
40
0.323345529887882
40
0.332875874537349
40
0.332875874537349
40
0.342406219186816
40
0.342406219186816
40
0.351936563836284
40
0.351936563836284
40
0.361466908485751
40
0.361466908485751
40
0.370997253135218
40
0.370997253135218
40
0.380527597784685
40
0.380527597784685
40
0.390057942434152
40
0.390057942434152
40
0.409118631733085
40
0.409118631733085
40
0.428179321032019
40
0.428179321032019
40
0.437709665681485
40
0.437709665681485
40
0.447240010330952
40
0.447240010330952
40
0.466300699629885
40
0.466300699629885
40
0.485361388928817
40
0.485361388928817
40
0.494891733578284
40
0.494891733578284
40
0.50442207822775
40
0.50442207822775
40
0.523482767526683
40
0.523482767526683
40
0.533013112176149
40
0.533013112176149
40
0.542543456825616
40
0.542543456825616
40
0.561604146124549
40
0.561604146124549
40
0.580664835423481
40
0.580664835423481
40
0.599725524722414
40
0.599725524722414
40
0.60925586937188
40
0.60925586937188
40
0.618786214021347
40
0.618786214021347
40
0.628316558670813
40
0.628316558670813
40
0.637846903320279
40
0.637846903320279
40
0.647377247969746
40
0.647377247969746
40
0.656907592619212
40
0.656907592619212
40
0.675968281918145
40
0.675968281918145
40
0.695028971217079
40
0.695028971217079
40
0.714089660516012
40
0.714089660516012
40
0.723620005165478
40
0.723620005165478
40
0.733150349814945
40
0.742680694464411
40
0.742680694464411
40
0.752211039113877
40
0.752211039113877
40
0.77127172841281
40
0.77127172841281
40
0.790332417711742
40
0.790332417711742
40
0.809393107010675
40
0.809393107010675
40
0.828453796309608
40
0.828453796309608
40
0.837984140959074
40
0.837984140959074
40
0.847514485608541
40
0.847514485608541
40
0.857044830258008
40
0.857044830258008
40
0.866575174907475
40
0.866575174907475
40
0.885635864206407
40
0.885635864206407
40
0.904696553505339
40
0.904696553505339
40
0.923757242804271
40
0.923757242804271
40
0.933287587453738
40
0.933287587453738
40
0.942817932103204
40
0.942817932103204
40
0.95234827675267
40
0.95234827675267
40
0.961878621402136
40
0.961878621402136
40
0.980939310701068
40
0.980939310701068
40
1
40
1
40
1
40
1
41
1
10
53.3967410065348
20
-5.74740665816765
30
0
41
1
10
53.2645543975689
20
-5.79463440535994
30
0
41
1
10
53.1323008401509
20
-5.8410862035357
30
0
41
1
10
52.7147769563023
20
-5.98514490492903
30
0
41
1
10
52.4297703791737
20
-6.07969073810381
30
0
41
1
10
52.0024110381932
20
-6.21570931676288
30
0
41
1
10
51.8599725486424
20
-6.26005687696835
30
0
41
1
10
51.5752515903579
20
-6.34686029869519
30
0
41
1
10
51.433009530642
20
-6.3893544209308
30
0
41
1
10
51.0062598667237
20
-6.51366819552661
30
0
41
1
10
50.7218140949014
20
-6.59242687685631
30
0
41
1
10
50.295134218714
20
-6.70401648151469
30
0
41
1
10
50.1529057493951
20
-6.74011555242751
30
0
41
1
10
49.8684677809326
20
-6.81005796477174
30
0
41
1
10
49.7262678541442
20
-6.84388806180297
30
0
41
1
10
49.2996330384154
20
-6.94203107588979
30
0
41
1
10
49.0150983537275
20
-7.00304585480123
30
0
41
1
10
48.5876212013584
20
-7.08854643919915
30
0
41
1
10
48.4450352881819
20
-7.11601589416463
30
0
41
1
10
48.1596827524131
20
-7.1687693828969
30
0
41
1
10
48.0169686057758
20
-7.19403979873968
30
0
41
1
10
47.5891922852342
20
-7.26627081271252
30
0
41
1
10
47.3042843795022
20
-7.30971752868771
30
0
41
1
10
46.8771447721036
20
-7.36791378557314
30
0
41
1
10
46.7347800743927
20
-7.38614353278953
30
0
41
1
10
46.4503031256646
20
-7.42017832814992
30
0
41
1
10
46.3081892195432
20
-7.43597887110482
30
0
41
1
10
46.0240191445993
20
-7.4648979816601
30
0
41
1
10
45.8820028267779
20
-7.47798159623781
30
0
41
1
10
45.5979081845132
20
-7.50180123786606
30
0
41
1
10
45.4558120281415
20
-7.51258928372434
30
0
41
1
10
45.029282323885
20
-7.54176310277324
30
0
41
1
10
44.7446447056278
20
-7.55691301457162
30
0
41
1
10
44.175002799979
20
-7.57808434831625
30
0
41
1
10
43.8899626969757
20
-7.58408730073234
30
0
41
1
10
43.461981866075
20
-7.58574053919412
30
0
41
1
10
43.3192217027671
20
-7.58506598764754
30
0
41
1
10
43.03400979509
20
-7.5811976097275
30
0
41
1
10
42.8915059815971
20
-7.57799894273484
30
0
41
1
10
42.6067033648253
20
-7.56890640638395
30
0
41
1
10
42.4644057742509
20
-7.56301259758203
30
0
41
1
10
42.1800388796935
20
-7.54836474039305
30
0
41
1
10
42.0379789884218
20
-7.53957533567524
30
0
41
1
10
41.7537831234319
20
-7.5199385931563
30
0
41
1
10
41.6116082068359
20
-7.5091671557376
30
0
41
1
10
41.3273589439986
20
-7.48552862614926
30
0
41
1
10
41.1852443879625
20
-7.47264215552309
30
0
41
1
10
40.7587351230384
20
-7.43072103978145
30
0
41
1
10
40.4742416487541
20
-7.39843547750598
30
0
41
1
10
39.9048578960274
20
-7.32486662234425
30
0
41
1
10
39.619999688886
20
-7.28354880097712
30
0
41
1
10
39.1925432594424
20
-7.21419661355819
30
0
41
1
10
39.0500218583075
20
-7.18985132787372
30
0
41
1
10
38.7648808882945
20
-7.1386086203768
30
0
41
1
10
38.6222042386718
20
-7.11169697921622
30
0
41
1
10
38.3371948349322
20
-7.05531641405361
30
0
41
1
10
38.1948216159538
20
-7.02586375217851
30
0
41
1
10
37.9100949079051
20
-6.9650520909864
30
0
41
1
10
37.7677375829228
20
-6.93370656797444
30
0
41
1
10
37.4830794231039
20
-6.86890383283873
30
0
41
1
10
37.3407827768061
20
-6.83543854204672
30
0
41
1
10
37.056277804185
20
-6.76625036552878
30
0
41
1
10
36.9140751563552
20
-6.73050713689813
30
0
41
1
10
36.6297055387798
20
-6.65686545432334
30
0
41
1
10
36.4875343995801
20
-6.61897298063718
30
0
41
1
10
36.2033191313899
20
-6.54110414811402
30
0
41
1
10
36.0611982404176
20
-6.50121132900608
30
0
41
1
10
35.6346177704096
20
-6.37890867756886
30
0
41
1
10
35.3499982344048
20
-6.29379711051791
30
0
41
1
10
34.7802699878637
20
-6.11597127090076
30
0
41
1
10
34.4951977316361
20
-6.02321123496904
30
0
41
1
10
34.0673130791795
20
-5.8778279923267
30
0
41
1
10
33.9245691811414
20
-5.8283137456379
30
0
41
1
10
33.6392973853021
20
-5.72731742733589
30
0
41
1
10
33.4967775085382
20
-5.6758349280332
30
0
41
1
10
33.0696426216898
20
-5.51810880883716
30
0
41
1
10
32.7854624507399
20
-5.40853335919493
30
0
41
1
10
32.2167994331737
20
-5.18420728465921
30
0
41
1
10
31.9323119181645
20
-5.06954132124017
30
0
41
1
10
31.5054523180876
20
-4.89335051145446
30
0
41
1
10
31.3631654309748
20
-4.83389161130049
30
0
41
1
10
31.0786937364736
20
-4.71331474912128
30
0
41
1
10
30.9364375638639
20
-4.65229772723106
30
0
41
1
10
30.5095511954483
20
-4.46707564876135
30
0
41
1
10
30.2248179807375
20
-4.34068485875542
30
0
41
1
10
29.7974256858286
20
-4.14656463773588
30
0
41
1
10
29.654926031779
20
-4.08106250102287
30
0
41
1
10
29.3699393291232
20
-3.94808702191625
30
0
41
1
10
29.2273866205306
20
-3.88063658412028
30
0
41
1
10
28.7998047892203
20
-3.67697744281188
30
0
41
1
10
28.5148513848161
20
-3.53948163608928
30
0
41
1
10
27.9451274069307
20
-3.26096769369968
30
0
41
1
10
27.6603584813416
20
-3.11994858937044
30
0
41
1
10
27.0908262860904
20
-2.83452293888195
30
0
41
1
10
26.8060809360814
20
-2.6900867335861
30
0
41
1
10
26.3789667650539
20
-2.47077249342686
30
0
41
1
10
26.236642286772
20
-2.39714857926856
30
0
41
1
10
25.9520828427833
20
-2.24881369529029
30
0
41
1
10
25.8098088197072
20
-2.17415430562906
30
0
41
1
10
25.5252584369237
20
-2.02382647407464
30
0
41
1
10
25.3829563398296
20
-1.94823312107212
30
0
41
1
10
25.0980965574168
20
-1.79676356211831
30
0
41
1
10
24.9555517729423
20
-1.72084731724274
30
0
41
1
10
24.6702695820498
20
-1.5685304830896
30
0
41
1
10
24.5274771402608
20
-1.4920949060313
30
0
41
1
10
24.242071558793
20
-1.33877161414347
30
0
41
1
10
24.0994699930178
20
-1.2618918299284
30
0
41
1
10
23.6718518418474
20
-1.03081588375616
30
0
41
1
10
23.3869893426567
20
-0.876244137068767
30
0
41
1
10
22.817428979059
20
-0.566555123920296
30
0
41
1
10
22.5327686710156
20
-0.411365911630042
30
0
41
1
10
21.96345112621
20
-0.100721298435389
30
0
41
1
10
21.6787763523278
20
0.0546998428139887
30
0
41
1
10
21.2516139805343
20
0.28774543466838
30
0
41
1
10
21.1092806900916
20
0.365559069608537
30
0
41
1
10
20.8245744641236
20
0.521180381608616
30
0
41
1
10
20.539790946256
20
0.676726371775914
30
0
41
1
10
20.2548202279444
20
0.832066238829412
30
0
41
1
10
19.969728897184
20
0.987255307588725
30
0
41
1
10
19.8270646766069
20
1.06478587327476
30
0
41
1
10
19.3990620570044
20
1.2964330152825
30
0
41
1
10
19.1137564805262
20
1.44965051238214
30
0
41
1
10
18.5434425782709
20
1.75382003115195
30
0
41
1
10
18.2584109525425
20
1.90472416153571
30
0
41
1
10
17.6885817015148
20
2.2039820084733
30
0
41
1
10
17.403760649326
20
2.35230124383111
30
0
41
1
10
16.8341547021231
20
2.64582111061367
30
0
41
1
10
16.5494000441991
20
2.79103087034252
30
0
41
1
10
16.1221400914235
20
3.00630438466877
30
0
41
1
10
15.9797705352318
20
3.07776854590745
30
0
41
1
10
15.6948154042851
20
3.21963505346477
30
0
41
1
10
15.5522442738101
20
3.29005793932655
30
0
41
1
10
15.2669134239309
20
3.42985069593863
30
0
41
1
10
15.1241051766492
20
3.49924379799816
30
0
41
1
10
14.8385605784627
20
3.63679786754614
30
0
41
1
10
14.6958357184298
20
3.70494871507554
30
0
41
1
10
14.2677430392303
20
3.90752528334031
30
0
41
1
10
13.9824666561923
20
4.04012522509925
30
0
41
1
10
13.4117978184462
20
4.30011180335467
30
0
41
1
10
13.1264287293715
20
4.42747394982936
30
0
41
1
10
12.5555738507571
20
4.67656657732016
30
0
41
1
10
12.2700588089164
20
4.79825947359839
30
0
41
1
10
11.841470755796
20
4.97607076182501
30
0
41
1
10
11.6985686586542
20
5.03455513578294
30
0
41
1
10
11.4130053676798
20
5.14975962060541
30
0
41
1
10
11.2702828565101
20
5.20647109804861
30
0
41
1
10
10.9850988881451
20
5.31824775934277
30
0
41
1
10
10.8426812681721
20
5.37334147565852
30
0
41
1
10
10.5577543836072
20
5.48175124894004
30
0
41
1
10
10.4152507564459
20
5.53511398378734
30
0
41
1
10
9.98761805538874
20
5.69255934718902
30
0
41
1
10
9.70235402324883
20
5.79397060443091
30
0
41
1
10
9.13134909754854
20
5.98931248264907
30
0
41
1
10
8.84562759545449
20
6.083273806059
30
0
41
1
10
8.55969524365986
20
6.17337200623598
30
0
0
SPLINE
5
E3
100
AcDbEntity
8
1
62
256
6
ByLayer
370
18
48
1
60
0
100
AcDbSpline
70
4
71
3
72
28
73
24
40
0
40
0
40
0
40
0
40
0.249999999999997
40
0.249999999999997
40
0.312499999999997
40
0.312499999999997
40
0.374999999999997
40
0.374999999999997
40
0.499999999999997
40
0.499999999999997
40
0.624999999999997
40
0.624999999999997
40
0.687499999999997
40
0.687499999999997
40
0.718749999999998
40
0.718749999999998
40
0.749999999999999
40
0.749999999999999
40
0.875
40
0.875
40
0.9375
40
0.9375
40
1
40
1
40
1
40
1
41
1
10
8.55970210192646
20
6.17337139034234
30
0
41
1
10
8.10956670803787
20
6.31513609389489
30
0
41
1
10
7.66756586758325
20
6.45312014092846
30
0
41
1
10
7.1277613205402
20
6.61783871014964
30
0
41
1
10
7.02042225743401
20
6.65040967027721
30
0
41
1
10
6.80696893304787
20
6.71482612950896
30
0
41
1
10
6.70084943203599
20
6.74667751524089
30
0
41
1
10
6.3844847060746
20
6.84096840095106
30
0
41
1
10
6.17624596416579
20
6.90212877679204
30
0
41
1
10
5.76601905599318
20
7.02006327541321
30
0
41
1
10
5.56401601090039
20
7.07685300572226
30
0
41
1
10
5.26657992472232
20
7.15783028179746
30
0
41
1
10
5.16836643213261
20
7.18411780824559
30
0
41
1
10
5.0225995731233
20
7.22233328414097
30
0
41
1
10
4.97422460939785
20
7.23488026854517
30
0
41
1
10
4.87836761020927
20
7.25945029049458
30
0
41
1
10
4.83086154443842
20
7.27147990062525
30
0
41
1
10
4.59553355369536
20
7.330280645324
30
0
41
1
10
4.41427532112715
20
7.3730393508458
30
0
41
1
10
4.1550890264175
20
7.42908912955158
30
0
41
1
10
4.07081858427887
20
7.44641879442261
30
0
41
1
10
3.90702919935785
20
7.47800106704415
30
0
41
1
10
3.82750863057748
20
7.49225477341733
30
0
41
1
10
3.75068206466253
20
7.50473919441842
30
0
0
SPLINE
5
E4
100
AcDbEntity
8
1
62
256
6
ByLayer
370
13
48
1
60
0
100
AcDbSpline
70
4
71
3
72
57
73
53
40
0
40
0
40
0
40
0
40
0.0312499999999998
40
0.0468749999999997
40
0.0468749999999997
40
0.0624999999999997
40
0.0624999999999997
40
0.124999999999999
40
0.124999999999999
40
0.187499999999999
40
0.187499999999999
40
0.249999999999999
40
0.257812499999999
40
0.257812499999999
40
0.265624999999999
40
0.265624999999999
40
0.281249999999999
40
0.281249999999999
40
0.312499999999999
40
0.312499999999999
40
0.374999999999999
40
0.437499999999998
40
0.437499999999998
40
0.453124999999998
40
0.453124999999998
40
0.468749999999998
40
0.468749999999998
40
0.499999999999998
40
0.499999999999998
40
0.562499999999999
40
0.562499999999999
40
0.624999999999999
40
0.624999999999999
40
0.640624999999999
40
0.640624999999999
40
0.656249999999999
40
0.656249999999999
40
0.687499999999999
40
0.687499999999999
40
0.749999999999999
40
0.749999999999999
40
0.812499999999999
40
0.812499999999999
40
0.828124999999999
40
0.828124999999999
40
0.84375
40
0.84375
40
0.875
40
0.875
40
0.9375
40
0.9375
40
1
40
1
40
1
40
1
41
1
10
3.75068206657528
20
7.50473919410982
30
0
41
1
10
3.75067592480204
20
7.48848096440031
30
0
41
1
10
3.75066612090436
20
7.45903598099082
30
0
41
1
10
3.75065556399744
20
7.42202614869476
30
0
41
1
10
3.75064837274252
20
7.39566783568003
30
0
41
1
10
3.75064469694996
20
7.381631860178
30
0
41
1
10
3.7506260282388
20
7.30746364158762
30
0
41
1
10
3.75061016063157
20
7.23537480214239
30
0
41
1
10
3.75057747084745
20
7.06652654937091
30
0
41
1
10
3.75056064693035
20
6.96976483305235
30
0
41
1
10
3.75052680933774
20
6.75159777101155
30
0
41
1
10
3.7505076677227
20
6.6150189502325
30
0
41
1
10
3.75048882716268
20
6.46236019323811
30
0
41
1
10
3.75048464882244
20
6.42803447248176
30
0
41
1
10
3.75048256344229
20
6.41066684926207
30
0
41
1
10
3.75047634013407
20
6.35811526133074
30
0
41
1
10
3.75047222904885
20
6.32243394742576
30
0
41
1
10
3.75046002060463
20
6.21347162388858
30
0
41
1
10
3.75045204833677
20
6.13827356234401
30
0
41
1
10
3.75042871245586
20
5.90513890759306
30
0
41
1
10
3.75039915498979
20
5.5742232925698
30
0
41
1
10
3.7503733722308
20
5.20356417837783
30
0
41
1
10
3.75035857178605
20
4.9592058181226
30
0
41
1
10
3.75035567711384
20
4.90969771220358
30
0
41
1
10
3.75035002086796
20
4.8093950573639
30
0
41
1
10
3.75034725607429
20
4.75853821502128
30
0
41
1
10
3.75033918841578
20
4.60448305690949
30
0
41
1
10
3.75033412240586
20
4.5000125049946
30
0
41
1
10
3.7503198339781
20
4.18138729378461
30
0
41
1
10
3.75031152448645
20
3.96203273953086
30
0
41
1
10
3.7502971113824
20
3.50957334685444
30
0
41
1
10
3.75029100836062
20
3.27646902822195
30
0
41
1
10
3.75028454618516
20
2.97629451268361
30
0
41
1
10
3.75028331074483
20
2.91575893130172
30
0
41
1
10
3.7502809607679
20
2.7944163799331
30
0
41
1
10
3.75027984476239
20
2.73354728198552
30
0
41
1
10
3.75027665922426
20
2.55035310705532
30
0
41
1
10
3.75027475228043
20
2.42744155349101
30
0
41
1
10
3.75026956236806
20
2.05639808567378
30
0
41
1
10
3.75026681284049
20
1.805963358898
30
0
41
1
10
3.75026204800241
20
1.29899894100339
30
0
41
1
10
3.75026003406862
20
1.04246950340846
30
0
41
1
10
3.75025748721185
20
0.717907187878836
30
0
41
1
10
3.7502569760691
20
0.652799201045184
30
0
41
1
10
3.75025593667684
20
0.522187835440775
30
0
41
1
10
3.75025540774877
20
0.456604708407838
30
0
41
1
10
3.75025378172276
20
0.260171588959849
30
0
41
1
10
3.75025264410587
20
0.129463526964258
30
0
41
1
10
3.75024890552174
20
-0.261929848087959
30
0
41
1
10
3.75024598054077
20
-0.521886267711608
30
0
41
1
10
3.75023835981537
20
-1.03986623637328
30
0
41
1
10
3.7502336658325
20
-1.29788988847429
30
0
41
1
10
3.75022759737632
20
-1.55492175515602
30
0
0
SPLINE
5
E5
100
AcDbEntity
8
1
62
256
6
ByLayer
370
18
48
1
60
0
100
AcDbSpline
70
4
71
3
72
74
73
70
40
0
40
0
40
0
40
0
40
0.0220186721203086
40
0.0220186721203086
40
0.0440373442406173
40
0.0440373442406173
40
0.0660560163609259
40
0.0660560163609259
40
0.0880746884812345
40
0.0880746884812345
40
0.132112032721852
40
0.132112032721852
40
0.176149376962469
40
0.176149376962469
40
0.220186721203086
40
0.220186721203086
40
0.242205393323394
40
0.242205393323394
40
0.264224065443702
40
0.264224065443702
40
0.28624273756401
40
0.28624273756401
40
0.308261409684317
40
0.308261409684317
40
0.330280081804625
40
0.330280081804625
40
0.352298753924933
40
0.352298753924933
40
0.396336098165548
40
0.396336098165548
40
0.440373442406164
40
0.440373442406164
40
0.48441078664678
40
0.48441078664678
40
0.506429458767087
40
0.506429458767087
40
0.528448130887395
40
0.528448130887395
40
0.572485475128011
40
0.572485475128011
40
0.594504147248319
40
0.594504147248319
40
0.616522819368628
40
0.616522819368628
40
0.660560163609245
40
0.660560163609245
40
0.682578835729554
40
0.682578835729554
40
0.704597507849864
40
0.704597507849864
40
0.748634852090483
40
0.748634852090483
40
0.770653524210791
40
0.770653524210791
40
0.792672196331099
40
0.792672196331099
40
0.836709540571718
40
0.836709540571718
40
0.858728212692028
40
0.858728212692028
40
0.880746884812339
40
0.880746884812339
40
0.902765556932649
40
0.902765556932649
40
0.924784229052959
40
0.924784229052959
40
0.968821573293579
40
0.968821573293579
40
1
40
1
40
1
40
1
41
1
10
63.2462419526809
20
1.12046350214811
30
0
41
1
10
63.1039245674313
20
1.19799845512554
30
0
41
1
10
62.9615359931706
20
1.27527782163421
30
0
41
1
10
62.6765945896332
20
1.42928725290591
30
0
41
1
10
62.5340509301517
20
1.50601616687374
30
0
41
1
10
62.2491033198681
20
1.65874442648865
30
0
41
1
10
62.1066543422134
20
1.73475440583283
30
0
41
1
10
61.8218347101288
20
1.8861129283834
30
0
41
1
10
61.6795340389933
20
1.96158520871606
30
0
41
1
10
61.2527255764942
20
2.18693158351508
30
0
41
1
10
60.968260445381
20
2.33564678997703
30
0
41
1
10
60.3993840026672
20
2.62975914799134
30
0
41
1
10
60.1149524149336
20
2.77512523178765
30
0
41
1
10
59.5462172879671
20
3.06252359320638
30
0
41
1
10
59.2618827492737
20
3.20452222414468
30
0
41
1
10
58.8353400834818
20
3.41455353384828
30
0
41
1
10
58.6931808332485
20
3.4840822387757
30
0
41
1
10
58.4087737549955
20
3.62206406381728
30
0
41
1
10
58.2665005624191
20
3.69050694183937
30
0
41
1
10
57.9816803451945
20
3.8261968898797
30
0
41
1
10
57.8390912331544
20
3.8934687131879
30
0
41
1
10
57.5539378729415
20
4.02666079564088
30
0
41
1
10
57.4113969240092
20
4.09257276015964
30
0
41
1
10
57.1263911380961
20
4.22300934747247
30
0
41
1
10
56.9839154375447
20
4.28751757965435
30
0
41
1
10
56.6990931066687
20
4.41519930239878
30
0
41
1
10
56.556810505813
20
4.47846765940557
30
0
41
1
10
56.1300065970666
20
4.66599263292372
30
0
41
1
10
55.8455672485518
20
4.78802950745728
30
0
41
1
10
55.2768232764849
20
5.02565761661975
30
0
41
1
10
54.9925154928074
20
5.14121423935953
30
0
41
1
10
54.423778931931
20
5.36590380952177
30
0
41
1
10
54.1393053086485
20
5.47502979935064
30
0
41
1
10
53.7123107687145
20
5.63345068043557
30
0
41
1
10
53.5699389255205
20
5.68537830933337
30
0
41
1
10
53.2850761504157
20
5.78742155066868
30
0
41
1
10
53.1425678727061
20
5.83754375857802
30
0
41
1
10
52.7147769563022
20
5.98514490492906
30
0
41
1
10
52.4297703791737
20
6.07969073810384
30
0
41
1
10
52.0024110381932
20
6.21570931676291
30
0
41
1
10
51.8599725486424
20
6.26005687696838
30
0
41
1
10
51.5752515903578
20
6.34686029869519
30
0
41
1
10
51.4330095306419
20
6.3893544209308
30
0
41
1
10
51.0062598667236
20
6.51366819552661
30
0
41
1
10
50.7218140949014
20
6.59242687685631
30
0
41
1
10
50.295134218714
20
6.70401648151471
30
0
41
1
10
50.1529057493952
20
6.74011555242751
30
0
41
1
10
49.8684677809327
20
6.81005796477177
30
0
41
1
10
49.7262678541441
20
6.843888061803
30
0
41
1
10
49.2996330384154
20
6.94203107588979
30
0
41
1
10
49.0150983537274
20
7.00304585480123
30
0
41
1
10
48.5876212013584
20
7.08854643919918
30
0
41
1
10
48.4450352881819
20
7.11601589416463
30
0
41
1
10
48.1596827524131
20
7.1687693828969
30
0
41
1
10
48.0169686057757
20
7.19403979873971
30
0
41
1
10
47.5891922852342
20
7.26627081271252
30
0
41
1
10
47.3042843795021
20
7.30971752868771
30
0
41
1
10
46.8771447721036
20
7.36791378557317
30
0
41
1
10
46.7347800743926
20
7.38614353278956
30
0
41
1
10
46.4503031256646
20
7.42017832814992
30
0
41
1
10
46.3081892195432
20
7.43597887110482
30
0
41
1
10
46.0240191445992
20
7.4648979816601
30
0
41
1
10
45.8820028267778
20
7.47798159623781
30
0
41
1
10
45.5979081845132
20
7.50180123786606
30
0
41
1
10
45.4558120281415
20
7.51258928372434
30
0
41
1
10
45.029282323885
20
7.54176310277324
30
0
41
1
10
44.7446447056278
20
7.55691301457162
30
0
41
1
10
44.258170602387
20
7.57499333046079
30
0
41
1
10
44.0564075999671
20
7.58019083161639
30
0
41
1
10
43.8545129902461
20
7.58297830043867
30
0
0
SPLINE
5
E6
100
AcDbEntity
8
1
62
256
6
ByLayer
370
18
48
1
60
0
100
AcDbSpline
70
4
71
3
72
8
73
4
40
0
40
0
40
0
40
0
40
1
40
1
40
1
40
1
41
1
10
9.13670366723133
20
-5.9862613703113
30
0
41
1
10
8.94446469021639
20
-6.05035010793546
30
0
41
1
10
8.75212771691034
20
-6.11273591736159
30
0
41
1
10
8.55969524365977
20
-6.17337200623601
30
0
0
SPLINE
5
E7
100
AcDbEntity
8
1
62
256
6
ByLayer
370
18
48
1
60
0
100
AcDbSpline
70
4
71
3
72
56
73
52
40
0
40
0
40
0
40
0
40
0.0625000000000001
40
0.0625000000000001
40
0.125
40
0.125
40
0.15625
40
0.15625
40
0.171875
40
0.171875
40
0.1875
40
0.1875
40
0.250000000000001
40
0.250000000000001
40
0.312500000000002
40
0.312500000000002
40
0.343750000000002
40
0.343750000000002
40
0.359375000000002
40
0.359375000000002
40
0.375000000000003
40
0.375000000000003
40
0.437500000000003
40
0.437500000000003
40
0.500000000000003
40
0.500000000000003
40
0.562500000000004
40
0.562500000000004
40
0.578125000000004
40
0.578125000000004
40
0.593750000000004
40
0.625000000000004
40
0.656250000000004
40
0.656250000000004
40
0.671875000000004
40
0.671875000000004
40
0.687500000000004
40
0.687500000000004
40
0.750000000000003
40
0.750000000000003
40
0.812500000000002
40
0.812500000000002
40
0.875000000000001
40
0.875000000000001
40
0.890625000000001
40
0.890625000000001
40
0.906250000000001
40
0.906250000000001
40
0.9375
40
0.9375
40
1
40
1
40
1
40
1
41
1
10
63.246241952681
20
1.12046350214811
30
0
41
1
10
63.2317007871064
20
0.874177082074226
30
0
41
1
10
63.2253353270998
20
0.62729033479917
30
0
41
1
10
63.2260042889005
20
0.132338983433243
30
0
41
1
10
63.2330430735738
20
-0.115725625715982
30
0
41
1
10
63.2516930450431
20
-0.488714201762861
30
0
41
1
10
63.2592605129891
20
-0.613192599399667
30
0
41
1
10
63.2724088119965
20
-0.800137020729551
30
0
41
1
10
63.2770955674572
20
-0.862534947836451
30
0
41
1
10
63.2869722389014
20
-0.986705124918018
30
0
41
1
10
63.2921675066741
20
-1.04856025302087
30
0
41
1
10
63.3193076770246
20
-1.35671159565973
30
0
41
1
10
63.3447219302629
20
-1.59964591030129
30
0
41
1
10
63.4002469170797
20
-2.07880920454878
30
0
41
1
10
63.4303631236475
20
-2.31503708541774
30
0
41
1
10
63.4773856783741
20
-2.66450570363
30
0
41
1
10
63.4933710074357
20
-2.78018113920257
30
0
41
1
10
63.5176300015197
20
-2.95247570020482
30
0
41
1
10
63.5257633193097
20
-3.00970400276228
30
0
41
1
10
63.5420947125016
20
-3.12375314167312
30
0
41
1
10
63.5502651255096
20
-3.1803809512279
30
0
41
1
10
63.5910375860676
20
-3.46134087005262
30
0
41
1
10
63.6234159814407
20
-3.6793925744569
30
0
41
1
10
63.6862053076784
20
-4.1025582158918
30
0
41
1
10
63.7166189169988
20
-4.30767065994232
30
0
41
1
10
63.774425798954
20
-4.70499310594278
30
0
41
1
10
63.8018195608355
20
-4.89720384108375
30
0
41
1
10
63.8337528442221
20
-5.12914979864533
30
0
41
1
10
63.8400313811299
20
-5.17516960813069
30
0
41
1
10
63.8523148960108
20
-5.26608337730357
30
0
41
1
10
63.8703300692815
20
-5.40075978110389
30
0
41
1
10
63.8982965136935
20
-5.61678619622919
30
0
41
1
10
63.9185061300018
20
-5.78062457934422
30
0
41
1
10
63.9328846836496
20
-5.90011410277555
30
0
41
1
10
63.9375479749723
20
-5.93937880018589
30
0
41
1
10
63.9466235174344
20
-6.01677121160188
30
0
41
1
10
63.951038169183
20
-6.05492087512519
30
0
41
1
10
63.9724228377917
20
-6.24204498355491
30
0
41
1
10
63.9873842957359
20
-6.3807633793642
30
0
41
1
10
64.0141838003015
20
-6.63683776139422
30
0
41
1
10
64.026020341119
20
-6.75419201153301
30
0
41
1
10
64.0480973019675
20
-6.96751482063823
30
0
41
1
10
64.0583344671284
20
-7.06348452497937
30
0
41
1
10
64.0713555637396
20
-7.16968804401156
30
0
41
1
10
64.0739722202755
20
-7.19023925640425
30
0
41
1
10
64.0792661898762
20
-7.22994639431971
30
0
41
1
10
64.081937670081
20
-7.24905727222028
30
0
41
1
10
64.0900688263547
20
-7.30408913032977
30
0
41
1
10
64.0956495285248
20
-7.33774706804721
30
0
41
1
10
64.1133244659614
20
-7.42969541779271
30
0
41
1
10
64.1263408860433
20
-7.47897805589517
30
0
41
1
10
64.141921136728
20
-7.51615498186257
30
0
0
SPLINE
5
E8
100
AcDbEntity
8
1
62
256
6
ByLayer
370
18
48
1
60
0
100
AcDbSpline
70
4
71
3
72
17
73
13
40
0
40
0
40
0
40
0
40
0.249999999999959
40
0.249999999999959
40
0.374999999999966
40
0.374999999999966
40
0.499999999999973
40
0.624999999999979
40
0.624999999999979
40
0.749999999999986
40
0.749999999999986
40
1
40
1
40
1
40
1
41
1
10
3.62548544302538
20
-1.6832774049648
30
0
41
1
10
3.60632751737879
20
-1.67251990876775
30
0
41
1
10
3.58902814182815
20
-1.65955719828801
30
0
41
1
10
3.56578534123293
20
-1.6368916132065
30
0
41
1
10
3.55845253840613
20
-1.62872948429074
30
0
41
1
10
3.54509802764156
20
-1.61171365726608
30
0
41
1
10
3.53297949467566
20
-1.5939612449944
30
0
41
1
10
3.52328770267189
20
-1.57475940128967
30
0
41
1
10
3.51485044568693
20
-1.55480682329022
30
0
41
1
10
3.51131723288759
20
-1.54457193450568
30
0
41
1
10
3.50287591177511
20
-1.5136232263595
30
0
41
1
10
3.50000000000003
20
-1.4924633550396
30
0
41
1
10
3.50000000000003
20
-1.47075048770947
30
0
0
SPLINE
5
E9
100
AcDbEntity
8
1
62
256
6
ByLayer
370
18
48
1
60
0
100
AcDbSpline
70
4
71
3
72
16
73
12
40
0
40
0
40
0
40
0
40
0.228310501695578
40
0.228310501695578
40
0.456621003391155
40
0.456621003391155
40
0.684931505086732
40
0.684931505086732
40
0.91324200678231
40
0.91324200678231
40
1
40
1
40
1
40
1
41
1
10
13.784511424445
20
7.22482776087696
30
0
41
1
10
13.4423493781474
20
7.14150665144771
30
0
41
1
10
13.0984515878642
20
7.0531934562257
30
0
41
1
10
12.4056291601052
20
6.86955830364388
30
0
41
1
10
12.0567038922034
20
6.77424004743435
30
0
41
1
10
11.3524329469528
20
6.5798373792787
30
0
41
1
10
10.9968833004113
20
6.480698645725
30
0
41
1
10
10.2801584475147
20
6.28264807367887
30
0
41
1
10
9.9187874166914
20
6.18369038888983
30
0
41
1
10
9.415265983637
20
6.04961286080552
30
0
41
1
10
9.27607922669856
20
6.01294510987094
30
0
41
1
10
9.13641641835409
20
5.97664105786689
30
0
0
SPLINE
5
EA
100
AcDbEntity
8
1
62
256
6
ByLayer
370
18
48
1
60
0
100
AcDbSpline
70
4
71
3
72
18
73
14
40
0
40
0
40
0
40
0
40
0.0699116340141008
40
0.0699116340141008
40
0.379941089342738
40
0.379941089342738
40
0.534955817007057
40
0.534955817007057
40
0.612463180839212
40
0.612463180839212
40
0.689970544671368
40
0.689970544671368
40
1
40
1
40
1
40
1
41
1
10
2.40842538219374
20
7.96144695504464
30
0
41
1
10
2.42774727188714
20
7.96142613009854
30
0
41
1
10
2.44759311118
20
7.96109581401703
30
0
41
1
10
2.55816512722856
20
7.95769847181654
30
0
41
1
10
2.65819260990176
20
7.94914822030049
30
0
41
1
10
2.82063027381466
20
7.92910602882333
30
0
41
1
10
2.87685177890398
20
7.92121695938391
30
0
41
1
10
2.96407932691969
20
7.9077114447141
30
0
41
1
10
2.99363812907748
20
7.90293071979772
30
0
41
1
10
3.05368968161744
20
7.89283237427657
30
0
41
1
10
3.08420701132593
20
7.88750994434219
30
0
41
1
10
3.23831547556091
20
7.85974107340573
30
0
41
1
10
3.36694934090815
20
7.83376602583192
30
0
41
1
10
3.50000000000003
20
7.80476257976716
30
0
0
SPLINE
5
EB
100
AcDbEntity
8
1
62
256
6
ByLayer
370
18
48
1
60
0
100
AcDbSpline
70
4
71
3
72
55
73
51
40
0
40
0
40
0
40
0
40
0.0312500000000002
40
0.0312500000000002
40
0.0468750000000003
40
0.0468750000000003
40
0.0625000000000004
40
0.125000000000002
40
0.125000000000002
40
0.187500000000004
40
0.187500000000004
40
0.203125000000005
40
0.203125000000005
40
0.218750000000005
40
0.218750000000005
40
0.250000000000005
40
0.250000000000005
40
0.312500000000002
40
0.312500000000002
40
0.374999999999999
40
0.374999999999999
40
0.390624999999999
40
0.390624999999999
40
0.406249999999998
40
0.437499999999998
40
0.437499999999998
40
0.499999999999999
40
0.499999999999999
40
0.531249999999998
40
0.546874999999998
40
0.546874999999998
40
0.562499999999999
40
0.562499999999999
40
0.625000000000001
40
0.625000000000001
40
0.687500000000003
40
0.687500000000003
40
0.718750000000004
40
0.718750000000004
40
0.734375000000004
40
0.734375000000004
40
0.750000000000005
40
0.750000000000005
40
0.812500000000003
40
0.812500000000003
40
0.875000000000002
40
0.875000000000002
40
0.937500000000001
40
0.937500000000001
40
1
40
1
40
1
40
1
41
1
10
34.0000000000001
20
4.15388225114381
30
0
41
1
10
33.7893968690319
20
4.25740254123292
30
0
41
1
10
33.57872370968
20
4.35952597562715
30
0
41
1
10
33.2625077111336
20
4.51046142336207
30
0
41
1
10
33.1570437082246
20
4.5604099053372
30
0
41
1
10
32.9461668037867
20
4.65947378909939
30
0
41
1
10
32.419143910358
20
4.90503274933863
30
0
41
1
10
31.8928060268499
20
5.13988750514807
30
0
41
1
10
31.0507715008098
20
5.50096018410423
30
0
41
1
10
30.6297782295639
20
5.67410847333201
30
0
41
1
10
30.1029842199136
20
5.88056398248852
30
0
41
1
10
29.997598289003
20
5.92135675126698
30
0
41
1
10
29.786759431682
20
6.00192925222021
30
0
41
1
10
29.6812819462428
20
6.04171806706356
30
0
41
1
10
29.364936035762
20
6.15946696956004
30
0
41
1
10
29.1541830467777
20
6.23580192950806
30
0
41
1
10
28.5222051155821
20
6.45816650474063
30
0
41
1
10
28.1012448850825
20
6.59753590844906
30
0
41
1
10
27.2590770909011
20
6.85760605996728
30
0
41
1
10
26.837885329091
20
6.9783259886546
30
0
41
1
10
26.3107809152345
20
7.11711225744531
30
0
41
1
10
26.2053034040825
20
7.14426884664528
30
0
41
1
10
25.9944070720278
20
7.19731873496295
30
0
41
1
10
25.6781676052722
20
7.27499564570491
30
0
41
1
10
25.3621731381653
20
7.34693805488553
30
0
41
1
10
24.7303464264283
20
7.48308613293784
30
0
41
1
10
24.3093421982833
20
7.56353683430291
30
0
41
1
10
23.6775872101624
20
7.66841385716518
30
0
41
1
10
23.3616456744869
20
7.71690016520182
30
0
41
1
10
23.0454571686136
20
7.75937490945222
30
0
41
1
10
22.8345957784545
20
7.78634811365035
30
0
41
1
10
22.729105818661
20
7.79916581502428
30
0
41
1
10
22.2018047711067
20
7.85983849323506
30
0
41
1
10
21.7805058682252
20
7.89744623131301
30
0
41
1
10
20.9382273548873
20
7.95069753719824
30
0
41
1
10
20.5172210561756
20
7.96633127384644
30
0
41
1
10
19.8852077897939
20
7.97320214164444
30
0
41
1
10
19.6744541695433
20
7.97272980419743
30
0
41
1
10
19.3581266269013
20
7.96786662836939
30
0
41
1
10
19.2526196589162
20
7.96555205408845
30
0
41
1
10
19.0417132383751
20
7.95954140641646
30
0
41
1
10
18.9363177116152
20
7.95584597690976
30
0
41
1
10
18.409595390527
20
7.9339313130269
30
0
41
1
10
17.9890245755638
20
7.90539802907097
30
0
41
1
10
17.1485240555873
20
7.82671643986984
30
0
41
1
10
16.7286080340579
20
7.77656983212924
30
0
41
1
10
15.8886959521355
20
7.65497628731285
30
0
41
1
10
15.4686727027621
20
7.58353677457569
30
0
41
1
10
14.6275677631082
20
7.41977297498445
30
0
41
1
10
14.2064861498786
20
7.32745413340811
30
0
41
1
10
13.7845116393562
20
7.22482788314576
30
0
0
SPLINE
5
EC
100
AcDbEntity
8
1
62
256
6
ByLayer
370
18
48
1
60
0
100
AcDbSpline
70
4
71
3
72
60
73
56
40
0
40
0
40
0
40
0
40
0.031249999999999
40
0.031249999999999
40
0.062499999999998
40
0.062499999999998
40
0.124999999999997
40
0.124999999999997
40
0.140624999999997
40
0.140624999999997
40
0.156249999999998
40
0.187499999999997
40
0.187499999999997
40
0.249999999999996
40
0.249999999999996
40
0.265624999999996
40
0.265624999999996
40
0.281249999999996
40
0.312499999999995
40
0.312499999999995
40
0.374999999999994
40
0.374999999999994
40
0.406249999999994
40
0.406249999999994
40
0.421874999999994
40
0.421874999999994
40
0.437499999999993
40
0.437499999999993
40
0.499999999999993
40
0.499999999999993
40
0.624999999999993
40
0.624999999999993
40
0.656249999999993
40
0.656249999999993
40
0.671874999999993
40
0.671874999999993
40
0.679687499999994
40
0.679687499999994
40
0.687499999999994
40
0.749999999999993
40
0.749999999999993
40
0.781249999999993
40
0.781249999999993
40
0.796874999999993
40
0.796874999999993
40
0.812499999999994
40
0.874999999999998
40
0.874999999999998
40
0.890624999999999
40
0.890624999999999
40
0.906249999999999
40
0.906249999999999
40
0.9375
40
0.9375
40
1
40
1
40
1
40
1
41
1
10
34
20
4.47905564507306
30
0
41
1
10
34.314224668255
20
4.32957719085351
30
0
41
1
10
34.6285464522357
20
4.17656694659632
30
0
41
1
10
35.2564843665107
20
3.86463151329829
30
0
41
1
10
35.5701731099296
20
3.70567500844516
30
0
41
1
10
36.5109602591594
20
3.22072254715221
30
0
41
1
10
37.1377789953262
20
2.88663980295925
30
0
41
1
10
37.9227566600697
20
2.45861385211069
30
0
41
1
10
38.079879187962
20
2.37245960441007
30
0
41
1
10
38.3940339116935
20
2.19933015421444
30
0
41
1
10
38.8650332997579
20
1.93845677707378
30
0
41
1
10
39.3355069030928
20
1.67434286511695
30
0
41
1
10
40.2762513591482
20
1.14264855414609
30
0
41
1
10
40.9031335702511
20
0.783544946975638
30
0
41
1
10
41.688229726094
20
0.332023503938643
30
0
41
1
10
41.8453348362284
20
0.241582551922534
30
0
41
1
10
42.1592893475645
20
0.0607861264688268
30
0
41
1
10
42.630007214307
20
-0.210377868825589
30
0
41
1
10
43.1003050658613
20
-0.481065029804313
30
0
41
1
10
44.0409314636062
20
-1.02077996534646
30
0
41
1
10
44.6680689359273
20
-1.37840336261971
30
0
41
1
10
45.6106535193857
20
-1.90823004651563
30
0
41
1
10
45.9246627846042
20
-2.08344633117187
30
0
41
1
10
46.3956677961584
20
-2.34372964561672
30
0
41
1
10
46.552668173958
20
-2.43006691173403
30
0
41
1
10
46.866713313853
20
-2.60181505858154
30
0
41
1
10
47.023821704056
20
-2.68726024201186
30
0
41
1
10
47.8087979890118
20
-3.11153898368158
30
0
41
1
10
48.434125654689
20
-3.44101575826627
30
0
41
1
10
50.3065315909064
20
-4.39327262760716
30
0
41
1
10
51.5499022507782
20
-4.98010166790996
30
0
41
1
10
53.1117616351372
20
-5.63366903796015
30
0
41
1
10
53.4245209947991
20
-5.76037607642596
30
0
41
1
10
53.8945309397441
20
-5.94401400870581
30
0
41
1
10
54.0513462390105
20
-6.00415606186868
30
0
41
1
10
54.2868246894156
20
-6.09271063571032
30
0
41
1
10
54.3653678521927
20
-6.12195508758296
30
0
41
1
10
54.5223762616712
20
-6.17982058377615
30
0
41
1
10
55.2287516970283
20
-6.43747521353276
30
0
41
1
10
55.933844940606
20
-6.67033625142503
30
0
41
1
10
56.8743964754313
20
-6.94960149413623
30
0
41
1
10
57.1879876923007
20
-7.0374825049166
30
0
41
1
10
57.6587537682741
20
-7.16123292327924
30
0
41
1
10
57.8157826549996
20
-7.20114829721297
30
0
41
1
10
58.1298065540278
20
-7.27819318592333
30
0
41
1
10
58.9144850329149
20
-7.46377390554622
30
0
41
1
10
59.697848285511
20
-7.61383115875663
30
0
41
1
10
60.4820784186968
20
-7.73440527294332
30
0
41
1
10
60.6389664347143
20
-7.75704706390363
30
0
41
1
10
60.9528675406436
20
-7.79936165719869
30
0
41
1
10
61.1099324175274
20
-7.8190401324085
30
0
41
1
10
61.5809235844196
20
-7.87353485480986
30
0
41
1
10
61.8946303111917
20
-7.90381395475774
30
0
41
1
10
62.8354149918049
20
-7.97640891600818
30
0
41
1
10
63.4621536721684
20
-8.00048021317031
30
0
41
1
10
64.0899074926138
20
-7.99997543339489
30
0
0
SPLINE
5
ED
100
AcDbEntity
8
1
62
256
6
ByLayer
370
18
48
1
60
0
100
AcDbSpline
70
4
71
3
72
13
73
9
40
0
40
0
40
0
40
0
40
0.250000000000001
40
0.375000000000001
40
0.375000000000001
40
0.5
40
0.5
40
1
40
1
40
1
40
1
41
1
10
64.0899074926138
20
-7.99997543339489
30
0
41
1
10
64.0817483479364
20
-8.00020922477063
30
0
41
1
10
64.0704354592749
20
-7.99794861919085
30
0
41
1
10
64.0603597193413
20
-7.99170106576958
30
0
41
1
10
64.0539005079873
20
-7.98664074372365
30
0
41
1
10
64.0508024422244
20
-7.98366377442227
30
0
41
1
10
64.0359713414962
20
-7.96660370290718
30
0
41
1
10
64.0261591360599
20
-7.94596662804767
30
0
41
1
10
64.0177460634765
20
-7.9184947507479
30
0
0
SPLINE
5
EE
100
AcDbEntity
8
1
62
256
6
ByLayer
370
18
48
1
60
0
100
AcDbSpline
70
4
71
3
72
20
73
16
40
0
40
0
40
0
40
0
40
0.0587251027433952
40
0.0587251027433952
40
0.111018152590987
40
0.111018152590987
40
0.163311202438578
40
0.163311202438578
40
0.372483401828934
40
0.372483401828934
40
0.581655601219289
40
0.581655601219289
40
0.790827800609644
40
0.790827800609644
40
1
40
1
40
1
40
1
41
1
10
19.818689379138
20
-7.97233051258121
30
0
41
1
10
19.7003516286757
20
-7.97225532246736
30
0
41
1
10
19.5819811002339
20
-7.97130813603772
30
0
41
1
10
19.3581266269013
20
-7.96786662836939
30
0
41
1
10
19.2526196589162
20
-7.96555205408845
30
0
41
1
10
19.041713238375
20
-7.95954140641646
30
0
41
1
10
18.9363177116152
20
-7.95584597690976
30
0
41
1
10
18.409595390527
20
-7.9339313130269
30
0
41
1
10
17.9890245755638
20
-7.90539802907097
30
0
41
1
10
17.1485240555872
20
-7.82671643986984
30
0
41
1
10
16.7286080340579
20
-7.77656983212924
30
0
41
1
10
15.8886959521355
20
-7.65497628731285
30
0
41
1
10
15.4686727027621
20
-7.58353677457569
30
0
41
1
10
14.6275677631081
20
-7.41977297498443
30
0
41
1
10
14.2064861498786
20
-7.32745413340808
30
0
41
1
10
13.7845116393561
20
-7.22482788314576
30
0
0
SPLINE
5
EF
100
AcDbEntity
8
1
62
256
6
ByLayer
370
18
48
1
60
0
100
AcDbSpline
70
4
71
3
72
30
73
26
40
0
40
0
40
0
40
0
40
0.0319031844346465
40
0.0319031844346465
40
0.0759075851421594
40
0.0759075851421594
40
0.0979097854959161
40
0.0979097854959161
40
0.119911985849673
40
0.29592958867974
40
0.29592958867974
40
0.383938390094773
40
0.383938390094773
40
0.427942790802289
40
0.427942790802289
40
0.471947191509804
40
0.647964794339863
40
0.647964794339863
40
0.691969195047379
40
0.691969195047379
40
0.735973595754895
40
0.735973595754895
40
0.82398239716993
40
0.82398239716993
40
1
40
1
40
1
40
1
41
1
10
53.3973234984238
20
5.74798905802112
30
0
41
1
10
53.5107658229044
20
5.79348039905454
30
0
41
1
10
53.6242752430414
20
5.83842220610012
30
0
41
1
10
53.8945309397441
20
5.94401400870581
30
0
41
1
10
54.0513462390105
20
6.00415606186868
30
0
41
1
10
54.2868246894156
20
6.09271063571032
30
0
41
1
10
54.3653678521927
20
6.12195508758293
30
0
41
1
10
54.5223762616712
20
6.17982058377615
30
0
41
1
10
55.2287516970283
20
6.43747521353274
30
0
41
1
10
55.9338449406061
20
6.67033625142503
30
0
41
1
10
56.8743964754313
20
6.94960149413623
30
0
41
1
10
57.1879876923006
20
7.0374825049166
30
0
41
1
10
57.6587537682741
20
7.16123292327924
30
0
41
1
10
57.8157826549997
20
7.20114829721297
30
0
41
1
10
58.1298065540278
20
7.2781931859233
30
0
41
1
10
58.9144850329148
20
7.46377390554622
30
0
41
1
10
59.697848285511
20
7.6138311587566
30
0
41
1
10
60.4820784186968
20
7.73440527294332
30
0
41
1
10
60.6389664347143
20
7.75704706390363
30
0
41
1
10
60.9528675406436
20
7.79936165719869
30
0
41
1
10
61.1099324175275
20
7.8190401324085
30
0
41
1
10
61.5809235844195
20
7.87353485480986
30
0
41
1
10
61.8946303111917
20
7.90381395475774
30
0
41
1
10
62.8354149918049
20
7.97640891600818
30
0
41
1
10
63.4621536721684
20
8.00048021317031
30
0
41
1
10
64.0899074926138
20
7.99997543339489
30
0
0
SPLINE
5
F0
100
AcDbEntity
8
1
62
256
6
ByLayer
370
13
48
1
60
0
100
AcDbSpline
70
4
71
3
72
10
73
6
40
0
40
0
40
0
40
0
40
0.5
40
0.5
40
1
40
1
40
1
40
1
41
1
10
3.70177540144729
20
-1.66093085573414
30
0
41
1
10
3.68912206700711
20
-1.65410356746921
30
0
41
1
10
3.67669698867846
20
-1.64773925435151
30
0
41
1
10
3.65230510669534
20
-1.63590029739143
30
0
41
1
10
3.64025929231678
20
-1.63039559222941
30
0
41
1
10
3.62886821801405
20
-1.62556171724753
30
0
0
SPLINE
5
F1
100
AcDbEntity
8
1
62
256
6
ByLayer
370
13
48
1
60
0
100
AcDbSpline
70
4
71
3
72
10
73
6
40
0
40
0
40
0
40
0
40
0.191840274736605
40
0.191840274736605
40
1
40
1
40
1
40
1
41
1
10
3.62548544302538
20
-1.68327740496477
30
0
41
1
10
3.62569893017249
20
-1.67958940876099
30
0
41
1
10
3.62591295889882
20
-1.67590089793026
30
0
41
1
10
3.62703144740243
20
-1.65667119665721
30
0
41
1
10
3.62794499187925
20
-1.64112129227763
30
0
41
1
10
3.62886821801408
20
-1.62556171724753
30
0
0
SPLINE
5
F2
100
AcDbEntity
8
1
62
256
6
ByLayer
370
18
48
1
60
0
100
AcDbSpline
70
4
71
3
72
54
73
50
40
0
40
0
40
0
40
0
40
0.0219650531976285
40
0.0219650531976285
40
0.0627165093143979
40
0.0627165093143979
40
0.103467965431168
40
0.103467965431168
40
0.123843693489552
40
0.123843693489552
40
0.144219421547936
40
0.184970877664704
40
0.184970877664704
40
0.266473789898239
40
0.266473789898239
40
0.286849517956623
40
0.286849517956623
40
0.307225246015007
40
0.307225246015007
40
0.347976702131773
40
0.347976702131773
40
0.429479614365305
40
0.429479614365305
40
0.470231070482071
40
0.470231070482071
40
0.490606798540454
40
0.490606798540454
40
0.510982526598836
40
0.510982526598836
40
0.592485438832365
40
0.592485438832365
40
0.633236894949129
40
0.653612623007511
40
0.653612623007511
40
0.673988351065893
40
0.673988351065893
40
0.755491263299421
40
0.755491263299421
40
0.796242719416185
40
0.796242719416185
40
0.816618447474567
40
0.816618447474567
40
0.836994175532948
40
0.836994175532948
40
0.877745631649711
40
0.877745631649711
40
0.918497087766474
40
0.918497087766474
40
1
40
1
40
1
40
1
41
1
10
26.7891295488359
20
-7.58873306279193
30
0
41
1
10
26.6197096685661
20
-7.61865417659939
30
0
41
1
10
26.450306809049
20
-7.64687004049935
30
0
41
1
10
25.9665850243075
20
-7.72253037833164
30
0
41
1
10
25.6522659049055
20
-7.7657912832363
30
0
41
1
10
25.0232832815725
20
-7.84033114145467
30
0
41
1
10
24.708591257863
20
-7.87159796438445
30
0
41
1
10
24.2359374406159
20
-7.90935086719196
30
0
41
1
10
24.078353457812
20
-7.92040404836402
30
0
41
1
10
23.7634566736471
20
-7.93942126113899
30
0
41
1
10
23.2913519575749
20
-7.96332717809506
30
0
41
1
10
22.8197896616619
20
-7.97338469083672
30
0
41
1
10
21.8768401137313
20
-7.97505263106257
30
0
41
1
10
21.2484378907564
20
-7.95156714419514
30
0
41
1
10
20.4613970047955
20
-7.89154416735127
30
0
41
1
10
20.3039119190005
20
-7.87800649474539
30
0
41
1
10
19.9887556024376
20
-7.84786259255281
30
0
41
1
10
19.8311758923194
20
-7.83126385888428
30
0
41
1
10
19.3588390829144
20
-7.77696958190279
30
0
41
1
10
19.044290981171
20
-7.7347563629236
30
0
41
1
10
18.1010222436396
20
-7.59041520320474
30
0
41
1
10
17.4726656307443
20
-7.47060447705522
30
0
41
1
10
16.5288632843099
20
-7.25666934181368
30
0
41
1
10
16.2140614239995
20
-7.17964593055373
30
0
41
1
10
15.7413006230425
20
-7.05567429261873
30
0
41
1
10
15.5837328195626
20
-7.01297494402434
30
0
41
1
10
15.2688372039101
20
-6.92494783582433
30
0
41
1
10
15.1114693257507
20
-6.87960963859047
30
0
41
1
10
14.3248906406303
20
-6.64643704598433
30
0
41
1
10
13.6964967676447
20
-6.4391330698985
30
0
41
1
10
12.7531745826265
20
-6.09914422584276
30
0
41
1
10
12.2813164252667
20
-5.92190487927192
30
0
41
1
10
11.8087418873548
20
-5.73423822031674
30
0
41
1
10
11.4934897234635
20
-5.60685498158145
30
0
41
1
10
11.3358971754761
20
-5.54208132169012
30
0
41
1
10
10.5484559829668
20
-5.21313985725575
30
0
41
1
10
9.91980648891513
20
-4.93342353817462
30
0
41
1
10
8.97639391812268
20
-4.49231785398027
30
0
41
1
10
8.6618371324677
20
-4.34171474031876
30
0
41
1
10
8.18963595827097
20
-4.11079210513537
30
0
41
1
10
8.0321748401602
20
-4.03298101768746
30
0
41
1
10
7.71708421320255
20
-3.87575105566842
30
0
41
1
10
7.55939376704194
20
-3.79630094860724
30
0
41
1
10
7.08666692786903
20
-3.5559794504286
30
0
41
1
10
6.77186050259732
20
-3.39308790703652
30
0
41
1
10
6.14263369877847
20
-3.0624502395595
30
0
41
1
10
5.82821812615515
20
-2.89469546654649
30
0
41
1
10
4.88490281992989
20
-2.38520514027897
30
0
41
1
10
4.25591791898219
20
-2.03727580164451
30
0
41
1
10
3.62548544302538
20
-1.6832774049648
30
0
0
SPLINE
5
F3
100
AcDbEntity
8
1
62
256
6
ByLayer
370
13
48
1
60
0
100
AcDbSpline
70
4
71
3
72
24
73
20
40
0
40
0
40
0
40
0
40
0.177983448388473
40
0.177983448388473
40
0.266975172582708
40
0.266975172582708
40
0.355966896776945
40
0.355966896776945
40
0.533950345165417
40
0.533950345165417
40
0.622942069359653
40
0.622942069359653
40
0.71193379355389
40
0.71193379355389
40
0.889917241942362
40
0.889917241942362
40
0.978908966136598
40
0.978908966136598
40
1
40
1
40
1
40
1
41
1
10
3.75022759737632
20
-1.55492175515602
30
0
41
1
10
4.38410824894456
20
-1.89334606144286
30
0
41
1
10
5.01431787203796
20
-2.22499700849104
30
0
41
1
10
5.9561259219665
20
-2.70916814444305
30
0
41
1
10
6.26948870448322
20
-2.86833062724617
30
0
41
1
10
6.89548563342197
20
-3.18156716658919
30
0
41
1
10
7.20810877604893
20
-3.33563779550874
30
0
41
1
10
8.1452126797991
20
-3.78962298320118
30
0
41
1
10
8.76896479367451
20
-4.08126482120562
30
0
41
1
10
9.70498128708599
20
-4.49923278480321
30
0
41
1
10
10.0170531663774
20
-4.63530961001388
30
0
41
1
10
10.6417359733955
20
-4.90037475642254
30
0
41
1
10
10.9543458589192
20
-5.02935221555651
30
0
41
1
10
11.8933938511773
20
-5.40493618176572
30
0
41
1
10
12.5209824439426
20
-5.64025811425157
30
0
41
1
10
13.4667262822124
20
-5.96762837136455
30
0
41
1
10
13.7827054795635
20
-6.0724788288087
30
0
41
1
10
14.1747051833827
20
-6.1965504997967
30
0
41
1
10
14.2498820389314
20
-6.22007214563058
30
0
41
1
10
14.3250648640305
20
-6.2433207785754
30
0
0
SPLINE
5
F4
100
AcDbEntity
8
1
62
256
6
ByLayer
370
18
48
1
60
0
100
AcDbSpline
70
4
71
3
72
23
73
19
40
0
40
0
40
0
40
0
40
0.029832162856881
40
0.029832162856881
40
0.0865472242896448
40
0.0865472242896448
40
0.199977347155173
40
0.199977347155173
40
0.3134074700207
40
0.3134074700207
40
0.540267715751756
40
0.540267715751756
40
0.653697838617282
40
0.653697838617282
40
0.76712796148281
40
0.76712796148281
40
0.993988207213862
40
1
40
1
40
1
40
1
41
1
10
14.3250645748889
20
-6.24332068916476
30
0
41
1
10
14.4084954370918
20
-6.26911984672321
30
0
41
1
10
14.4919336505924
20
-6.29458280306184
30
0
41
1
10
14.7337564345521
20
-6.36738600668795
30
0
41
1
10
14.8920399796973
20
-6.41380234435104
30
0
41
1
10
15.3663887914665
20
-6.54913682522675
30
0
41
1
10
15.6819584034413
20
-6.63414276243219
30
0
41
1
10
16.3122099634433
20
-6.79349813662989
30
0
41
1
10
16.6268994268
20
-6.86785696167962
30
0
41
1
10
17.570036998841
20
-7.0746558235482
30
0
41
1
10
18.1975394416913
20
-7.19084438908152
30
0
41
1
10
19.1388581887898
20
-7.33166951842011
30
0
41
1
10
19.452646928327
20
-7.37303210032266
30
0
41
1
10
20.0806650879238
20
-7.44440128016231
30
0
41
1
10
20.3948951360809
20
-7.4744383578863
30
0
41
1
10
21.3386077001432
20
-7.54717051709702
30
0
41
1
10
21.9858335203971
20
-7.57314841725889
30
0
41
1
10
22.6359750274209
20
-7.57421061352662
30
0
41
1
10
22.6527609623676
20
-7.57422141735171
30
0
0
SPLINE
5
F5
100
AcDbEntity
8
1
62
256
6
ByLayer
370
13
48
1
60
0
100
AcDbSpline
70
4
71
3
72
35
73
31
40
0
40
0
40
0
40
0
40
0.0713639624504554
40
0.0713639624504554
40
0.109042936389201
40
0.109042936389201
40
0.127882423358573
40
0.127882423358573
40
0.146721910327946
40
0.146721910327946
40
0.29743780608293
40
0.29743780608293
40
0.372795753960421
40
0.372795753960421
40
0.448153701837911
40
0.448153701837911
40
0.598869597592895
40
0.598869597592895
40
0.674227545470385
40
0.674227545470385
40
0.749585493347876
40
0.749585493347876
40
0.787264467286621
40
0.806103954255993
40
0.806103954255993
40
0.824943441225364
40
0.824943441225364
40
0.900301389102849
40
0.900301389102849
40
1
40
1
40
1
40
1
41
1
10
24.4321314239466
20
-7.59640099632242
30
0
41
1
10
24.1335920032571
20
-7.61980144954694
30
0
41
1
10
23.8345688586061
20
-7.63792784800143
30
0
41
1
10
23.376735045044
20
-7.65747777754831
30
0
41
1
10
23.2183646736375
20
-7.66274697679873
30
0
41
1
10
22.9805222200472
20
-7.66840592941799
30
0
41
1
10
22.9011809116847
20
-7.66991791776704
30
0
41
1
10
22.7426553675124
20
-7.67218813919737
30
0
41
1
10
22.6634399654916
20
-7.67294726652676
30
0
41
1
10
21.9509021532093
20
-7.67640606631076
30
0
41
1
10
21.3203800032014
20
-7.65550051330416
30
0
41
1
10
20.3767351195921
20
-7.58888593701187
30
0
41
1
10
20.0625461993314
20
-7.56080051185967
30
0
41
1
10
19.4346319184295
20
-7.49313979667104
30
0
41
1
10
19.1208991080124
20
-7.45353829560491
30
0
41
1
10
18.1797599456736
20
-7.31771508916805
30
0
41
1
10
17.5523899137285
20
-7.20448939033224
30
0
41
1
10
16.6094632989908
20
-7.00157981442186
30
0
41
1
10
16.2948486530073
20
-6.92841920887435
30
0
41
1
10
15.6647406059767
20
-6.77124473308845
30
0
41
1
10
15.3492374108548
20
-6.68722560965551
30
0
41
1
10
14.8749778589541
20
-6.55321367019533
30
0
41
1
10
14.6375944892898
20
-6.48421115162807
30
0
41
1
10
14.3997896365121
20
-6.41223864951232
30
0
41
1
10
14.2411553549672
20
-6.36360021928033
30
0
41
1
10
14.161826113818
20
-6.33896361104843
30
0
41
1
10
13.7655844124076
20
-6.21435864738291
30
0
41
1
10
13.4494383501447
20
-6.10998684086687
30
0
41
1
10
12.7165629370066
20
-5.85727491423262
30
0
41
1
10
12.3003196323485
20
-5.70563138316132
30
0
41
1
10
11.8848251771242
20
-5.54683342023367
30
0
0
SPLINE
5
F6
100
AcDbEntity
8
1
62
256
6
ByLayer
370
18
48
1
60
0
100
AcDbSpline
70
4
71
3
72
25
73
21
40
0
40
0
40
0
40
0
40
0.0780223986365016
40
0.0780223986365016
40
0.193269598806939
40
0.193269598806939
40
0.308516798977377
40
0.308516798977377
40
0.539011199318252
40
0.539011199318252
40
0.654258399488689
40
0.654258399488689
40
0.769505599659126
40
0.769505599659126
40
0.884752799829563
40
0.884752799829563
40
0.913564599872172
40
0.913564599872172
40
0.942376399914781
40
1
40
1
40
1
40
1
41
1
10
11.8848261111271
20
-5.5468337772005
30
0
41
1
10
11.6722110116275
20
-5.46557434787988
30
0
41
1
10
11.4597920007609
20
-5.38244150819804
30
0
41
1
10
10.9339620630783
20
-5.17205939326001
30
0
41
1
10
10.6207408435357
20
-5.04266178243728
30
0
41
1
10
9.99465851479678
20
-4.77644367980722
30
0
41
1
10
9.68180403711642
20
-4.63962624960189
30
0
41
1
10
8.74316658012592
20
-4.21895317360142
30
0
41
1
10
8.11729955068586
20
-3.92486770506113
30
0
41
1
10
7.176443156304
20
-3.46615665366386
30
0
41
1
10
6.86247167759532
20
-3.31033437878895
30
0
41
1
10
6.23355688885306
20
-2.99324965628142
30
0
41
1
10
5.91863080664879
20
-2.8319808744568
30
0
41
1
10
5.28739840838222
20
-2.50464623513713
30
0
41
1
10
4.97108186462452
20
-2.33858814335585
30
0
41
1
10
4.57459137840968
20
-2.12835559385457
30
0
41
1
10
4.49522396763101
20
-2.08616814188545
30
0
41
1
10
4.33652814763096
20
-2.0016171164624
30
0
41
1
10
4.09849553469942
20
-1.87450136128956
30
0
41
1
10
3.86047302096512
20
-1.74655843481438
30
0
41
1
10
3.70177540144726
20
-1.66093085573411
30
0
0
SPLINE
5
F7
100
AcDbEntity
8
1
62
256
6
ByLayer
370
18
48
1
60
0
100
AcDbSpline
70
4
71
3
72
8
73
4
40
0
40
0
40
0
40
0
40
1
40
1
40
1
40
1
41
1
10
64.116143766034
20
-7.62882779187896
30
0
41
1
10
64.0829069506608
20
-7.7253958580489
30
0
41
1
10
64.0501015032825
20
-7.82194523102922
30
0
41
1
10
64.0177460634765
20
-7.91849475074793
30
0
0
SPLINE
5
F8
100
AcDbEntity
8
1
62
256
6
ByLayer
370
18
48
1
60
0
100
AcDbSpline
70
4
71
3
72
91
73
87
40
0
40
0
40
0
40
0
40
0.0226958081731739
40
0.0226958081731739
40
0.0340437122597609
40
0.0340437122597609
40
0.0453916163463478
40
0.0453916163463478
40
0.0907832326926949
40
0.0907832326926949
40
0.136174849039042
40
0.136174849039042
40
0.147522753125629
40
0.147522753125629
40
0.158870657212216
40
0.181566465385391
40
0.181566465385391
40
0.226958081731741
40
0.226958081731741
40
0.238305985818328
40
0.238305985818328
40
0.249653889904915
40
0.249653889904915
40
0.27234969807809
40
0.27234969807809
40
0.31774131442444
40
0.31774131442444
40
0.340437122597615
40
0.340437122597615
40
0.351785026684203
40
0.351785026684203
40
0.36313293077079
40
0.36313293077079
40
0.408524547117141
40
0.408524547117141
40
0.431220355290317
40
0.431220355290317
40
0.442568259376904
40
0.442568259376904
40
0.453916163463491
40
0.453916163463491
40
0.499307779809843
40
0.499307779809843
40
0.544699396156195
40
0.544699396156195
40
0.556047300242782
40
0.556047300242782
40
0.567395204329371
40
0.590091012502546
40
0.590091012502546
40
0.635482628848898
40
0.635482628848898
40
0.646830532935486
40
0.646830532935486
40
0.658178437022073
40
0.658178437022073
40
0.680874245195249
40
0.680874245195249
40
0.726265861541601
40
0.726265861541601
40
0.748961669714776
40
0.748961669714776
40
0.760309573801363
40
0.760309573801363
40
0.77165747788795
40
0.77165747788795
40
0.817049094234301
40
0.817049094234301
40
0.839744902407476
40
0.839744902407476
40
0.851092806494063
40
0.851092806494063
40
0.86244071058065
40
0.86244071058065
40
0.907832326927001
40
0.907832326927001
40
0.930528135100177
40
0.930528135100177
40
0.953223943273352
40
0.953223943273352
40
0.96457184735994
40
0.96457184735994
40
0.975919751446528
40
0.998615559619704
40
0.998615559619704
40
1
40
1
40
1
40
1
41
1
10
64.0177460634764
20
-7.9184947507479
30
0
41
1
10
63.7030609337969
20
-7.89241434998888
30
0
41
1
10
63.3884380578716
20
-7.86022116570157
30
0
41
1
10
62.9163584677327
20
-7.80286149593377
30
0
41
1
10
62.758974277103
20
-7.78222981353022
30
0
41
1
10
62.4441160596615
20
-7.73795808493443
30
0
41
1
10
62.2866026007203
20
-7.71431104378013
30
0
41
1
10
61.4996534698349
20
-7.58874983659894
30
0
41
1
10
60.8714890931528
20
-7.46478969256498
30
0
41
1
10
59.6152400923224
20
-7.17176874343986
30
0
41
1
10
58.9870829789849
20
-7.00275686037159
30
0
41
1
10
58.2001180019809
20
-6.76456515347655
30
0
41
1
10
58.0425851972755
20
-6.71557075220548
30
0
41
1
10
57.7278056809219
20
-6.61510060591721
30
0
41
1
10
57.2558978856847
20
-6.46062469352114
30
0
41
1
10
56.7845801641835
20
-6.2950637044228
30
0
41
1
10
55.8422052054562
20
-5.94976826578693
30
0
41
1
10
55.2142975973283
20
-5.70067775741896
30
0
41
1
10
54.4280270865049
20
-5.36778265517719
30
0
41
1
10
54.2707043587381
20
-5.3001261679093
30
0
41
1
10
53.955873403402
20
-5.16271418198158
30
0
41
1
10
53.7983292450562
20
-5.09294179291348
30
0
41
1
10
53.3261394128449
20
-4.88092312627023
30
0
41
1
10
53.0116906816852
20
-4.73587213857834
30
0
41
1
10
52.0688433771524
20
-4.29040438018578
30
0
41
1
10
51.4409488862579
20
-3.97966695067009
30
0
41
1
10
50.4980167013424
20
-3.49604033716418
30
0
41
1
10
50.1835246440562
20
-3.33190988776485
30
0
41
1
10
49.7112132993476
20
-3.08178378925223
30
0
41
1
10
49.5536550991291
20
-2.99773974357785
30
0
41
1
10
49.2388386837881
20
-2.82870036121113
30
0
41
1
10
49.081515594115
20
-2.7436709050844
30
0
41
1
10
48.2952158346846
20
-2.31616134325753
30
0
41
1
10
47.6672049645486
20
-1.96656438676405
30
0
41
1
10
46.7246433601657
20
-1.43431518992995
30
0
41
1
10
46.4103625652987
20
-1.25559398512419
30
0
41
1
10
45.9384917987646
20
-0.986079779136531
30
0
41
1
10
45.7811260043839
20
-0.896004119491352
30
0
41
1
10
45.4662082228265
20
-0.715436707427273
30
0
41
1
10
45.3086435384451
20
-0.62493637379626
30
0
41
1
10
44.5215817152078
20
-0.17238625338129
30
0
41
1
10
43.8932900858713
20
0.190413508380516
30
0
41
1
10
42.6366277909314
20
0.912674195184593
30
0
41
1
10
42.0082517168103
20
1.27212520190921
30
0
41
1
10
41.2208518576547
20
1.71608344424064
30
0
41
1
10
41.0632772741985
20
1.80460912135996
30
0
41
1
10
40.7484336552697
20
1.98074720359131
30
0
41
1
10
40.2764234306224
20
2.24369960374716
30
0
41
1
10
39.8049684082581
20
2.50254668067979
30
0
41
1
10
38.8622873632471
20
3.01393778217792
30
0
41
1
10
38.2341446749637
20
3.34646940900592
30
0
41
1
10
37.4475094449087
20
3.74863884082467
30
0
41
1
10
37.2901118265824
20
3.82840156429313
30
0
41
1
10
36.9751292616068
20
3.98650951250963
30
0
41
1
10
36.8175601084932
20
4.06484629477552
30
0
41
1
10
36.3453014521903
20
4.29720682993027
30
0
41
1
10
36.0307988231084
20
4.44872508842644
30
0
41
1
10
35.0877570788281
20
4.89237642339708
30
0
41
1
10
34.4596352931873
20
5.17353891171504
30
0
41
1
10
33.5162304811454
20
5.5705663202877
30
0
41
1
10
33.2015753741651
20
5.69881057302968
30
0
41
1
10
32.7290542426152
20
5.8846701940069
30
0
41
1
10
32.5714837606297
20
5.94551784133341
30
0
41
1
10
32.2566435592059
20
6.06477310947559
30
0
41
1
10
32.0993097822675
20
6.12320689794973
30
0
41
1
10
31.3129265634508
20
6.40926042691876
30
0
41
1
10
30.6847231921224
20
6.61852661027697
30
0
41
1
10
29.7416785814482
20
6.90108112983376
30
0
41
1
10
29.4272304292554
20
6.99006324808448
30
0
41
1
10
28.9551768118487
20
7.11549109359217
30
0
41
1
10
28.7977544979332
20
7.15595306156666
30
0
41
1
10
28.4827131101722
20
7.23413097106391
30
0
41
1
10
28.3251445308068
20
7.2718331091512
30
0
41
1
10
27.5379944948595
20
7.45307291524895
30
0
41
1
10
26.9095122040457
20
7.57504438282629
30
0
41
1
10
25.9665850243075
20
7.72253037833164
30
0
41
1
10
25.6522659049055
20
7.7657912832363
30
0
41
1
10
25.0232832815725
20
7.84033114145467
30
0
41
1
10
24.708591257863
20
7.87159796438445
30
0
41
1
10
24.2359374406159
20
7.90935086719196
30
0
41
1
10
24.078353457812
20
7.92040404836402
30
0
41
1
10
23.7634566736471
20
7.93942126113899
30
0
41
1
10
23.2913519575748
20
7.96332717809506
30
0
41
1
10
22.8197896616619
20
7.97338469083672
30
0
41
1
10
22.4862998924749
20
7.97397458560059
30
0
41
1
10
22.4671268539736
20
7.97398561864361
30
0
41
1
10
22.4479539887208
20
7.97397377187258
30
0
0
SPLINE
5
F9
100
AcDbEntity
8
1
62
256
6
ByLayer
370
13
48
1
60
0
100
AcDbSpline
70
4
71
3
72
43
73
39
40
0
40
0
40
0
40
0
40
0.0629902036532923
40
0.0629902036532923
40
0.111706527321132
40
0.111706527321132
40
0.160422850988973
40
0.160422850988973
40
0.184781012822893
40
0.184781012822893
40
0.209139174656813
40
0.209139174656813
40
0.257855498324653
40
0.257855498324653
40
0.306571821992493
40
0.306571821992493
40
0.355288145660333
40
0.355288145660333
40
0.452720792996015
40
0.452720792996015
40
0.550153440331697
40
0.550153440331697
40
0.647586087667379
40
0.647586087667379
40
0.69630241133522
40
0.70848149225218
40
0.70848149225218
40
0.72066057316914
40
0.72066057316914
40
0.74501873500306
40
0.74501873500306
40
0.84245138233874
40
0.84245138233874
40
0.939884029674421
40
0.939884029674421
40
0.98860035334226
40
0.98860035334226
40
1
40
1
40
1
40
1
41
1
10
40.3229896825969
20
2.21404566841582
30
0
41
1
10
40.7319332750823
20
2.00007291138161
30
0
41
1
10
41.1404752807755
20
1.78340206032618
30
0
41
1
10
41.8649619210376
20
1.39562192497567
30
0
41
1
10
42.1809160086478
20
1.22531722175557
30
0
41
1
10
42.8130774980738
20
0.882812295375828
30
0
41
1
10
43.1292892375677
20
0.710616372972083
30
0
41
1
10
43.604083499721
20
0.451393146573679
30
0
41
1
10
43.7624275153632
20
0.364831101928331
30
0
41
1
10
44.0793178928402
20
0.191479540568139
30
0
41
1
10
44.2379700492204
20
0.104632092263046
30
0
41
1
10
44.7131529907097
20
-0.155502947304115
30
0
41
1
10
45.0290938202311
20
-0.328484249247936
30
0
41
1
10
45.6596427786008
20
-0.672913533037047
30
0
41
1
10
45.974265677298
20
-0.844335575473821
30
0
41
1
10
46.6024369896121
20
-1.18520666635922
30
0
41
1
10
46.9159925710224
20
-1.35463824290224
30
0
41
1
10
47.8556443845475
20
-1.85885234591214
30
0
41
1
10
48.4807402104641
20
-2.18958772336896
30
0
41
1
10
49.7308422908166
20
-2.83563073548595
30
0
41
1
10
50.355777403347
20
-3.15107561893996
30
0
41
1
10
51.6080721469829
20
-3.76214798507826
30
0
41
1
10
52.2354545272919
20
-4.05773270665131
30
0
41
1
10
53.1803972608163
20
-4.48261981129141
30
0
41
1
10
53.5749264156026
20
-4.65581334752616
30
0
41
1
10
53.9707042664094
20
-4.82379593264901
30
0
41
1
10
54.1291220104714
20
-4.89056051375277
30
0
41
1
10
54.2084214609758
20
-4.92374441266412
30
0
41
1
10
54.4460993258294
20
-5.02247873545082
30
0
41
1
10
54.6043099263068
20
-5.08723432497234
30
0
41
1
10
55.3942681100773
20
-5.40556964650929
30
0
41
1
10
56.0227083502391
20
-5.64288994345486
30
0
41
1
10
57.2752039472797
20
-6.08009554364307
30
0
41
1
10
57.8992670156451
20
-6.27996114504913
30
0
41
1
10
58.8340296081364
20
-6.54986166721116
30
0
41
1
10
59.1454403277892
20
-6.63489799117957
30
0
41
1
10
59.5296112508582
20
-6.73358276159692
30
0
41
1
10
59.6024560558393
20
-6.75201863909283
30
0
41
1
10
59.6752987386161
20
-6.77017509696242
30
0
0
SPLINE
5
FA
100
AcDbEntity
8
1
62
256
6
ByLayer
370
18
48
1
60
0
100
AcDbSpline
70
4
71
3
72
16
73
12
40
0
40
0
40
0
40
0
40
0.160721864685234
40
0.160721864685234
40
0.580360932342621
40
0.790180466171314
40
0.895090233085656
40
0.947545116542828
40
0.973772558271414
40
0.973772558271414
40
1
40
1
40
1
40
1
41
1
10
59.675297769602
20
-6.77017485543004
30
0
41
1
10
59.9137481909341
20
-6.82961000325321
30
0
41
1
10
60.152175871046
20
-6.88605094823984
30
0
41
1
10
61.0133617054087
20
-7.07879927185851
30
0
41
1
10
61.9480417149382
20
-7.25656684158724
30
0
41
1
10
63.0428760736187
20
-7.40617183688377
30
0
41
1
10
63.5917989094603
20
-7.46615816241359
30
0
41
1
10
63.8666884332635
20
-7.49239761009864
30
0
41
1
10
63.9845955177209
20
-7.50283328853826
30
0
41
1
10
64.0632224780154
20
-7.50960983786672
30
0
41
1
10
64.1025618891442
20
-7.51287714818596
30
0
41
1
10
64.1419211367304
20
-7.51615498186257
30
0
0
SPLINE
5
FB
100
AcDbEntity
8
1
62
256
6
ByLayer
370
13
48
1
60
0
100
AcDbSpline
70
4
71
3
72
26
73
22
40
0
40
0
40
0
40
0
40
0.0119605778314015
40
0.0119605778314015
40
0.0239211556628024
40
0.0478423113256048
40
0.0956846226512088
40
0.0956846226512088
40
0.19136924530242
40
0.19136924530242
40
0.382738490604846
40
0.382738490604846
40
0.478423113256061
40
0.478423113256061
40
0.574107735907275
40
0.574107735907275
40
0.765476981209705
40
0.765476981209705
40
0.956846226512134
40
0.956846226512134
40
1
40
1
40
1
40
1
41
1
10
64.116143766034
20
-7.62882779187899
30
0
41
1
10
64.076836432275
20
-7.62574669960963
30
0
41
1
10
64.0375248498237
20
-7.62269490901966
30
0
41
1
10
63.9589255943584
20
-7.61639660499637
30
0
41
1
10
63.8410605957397
20
-7.60667377358834
30
0
41
1
10
63.5662728180928
20
-7.58206618646406
30
0
41
1
10
63.3311129368802
20
-7.55770341463719
30
0
41
1
10
62.8612294076719
20
-7.50467483365145
30
0
41
1
10
62.5485553608215
20
-7.46358591929803
30
0
41
1
10
61.6117959314743
20
-7.3235393942565
30
0
41
1
10
60.988973570329
20
-7.20780359077432
30
0
41
1
10
60.0553956095877
20
-7.00236277868623
30
0
41
1
10
59.7443158564722
20
-6.92857075212649
30
0
41
1
10
59.1219925585646
20
-6.77066472762635
30
0
41
1
10
58.810745037887
20
-6.68654802385606
30
0
41
1
10
57.8764840035007
20
-6.41906332466945
30
0
41
1
10
57.2527177394946
20
-6.22043248857415
30
0
41
1
10
56.0007252890159
20
-5.78485176684168
30
0
41
1
10
55.3725003566973
20
-5.54791387119474
30
0
41
1
10
54.5982158662702
20
-5.23570676577944
30
0
41
1
10
54.4555606362443
20
-5.17734953509481
30
0
41
1
10
54.3127070009665
20
-5.11809804852001
30
0
0
SPLINE
5
FC
100
AcDbEntity
8
1
62
256
6
ByLayer
370
18
48
1
60
0
100
AcDbSpline
70
4
71
3
72
28
73
24
40
0
40
0
40
0
40
0
40
0.0045751519804034
40
0.0045751519804034
40
0.0279178215358046
40
0.0279178215358046
40
0.0512604910912064
40
0.0512604910912064
40
0.144631169312811
40
0.144631169312811
40
0.331372525756021
40
0.331372525756021
40
0.518113882199231
40
0.518113882199231
40
0.704855238642441
40
0.704855238642441
40
0.798225916864046
40
0.798225916864046
40
0.891596595085651
40
0.891596595085651
40
0.984967273307256
40
0.984967273307256
40
1
40
1
40
1
40
1
41
1
10
54.3127069725723
20
-5.11809803674291
30
0
41
1
10
54.297186330649
20
-5.11166053092495
30
0
41
1
10
54.2816633467093
20
-5.1052124691266
30
0
41
1
10
54.1869268493183
20
-5.06580175475719
30
0
41
1
10
54.1076232781104
20
-5.03256229106319
30
0
41
1
10
53.9491826449558
20
-4.96566614832895
30
0
41
1
10
53.8700169125258
20
-4.93199773595597
30
0
41
1
10
53.4744464726878
20
-4.76257864501434
30
0
41
1
10
53.1588132533324
20
-4.62360335306329
30
0
41
1
10
52.2138856797447
20
-4.1971686560004
30
0
41
1
10
51.5865725820618
20
-3.90016876864581
30
0
41
1
10
50.334504258266
20
-3.28549926019374
30
0
41
1
10
49.709739042627
20
-2.96785173649445
30
0
41
1
10
48.4600093646431
20
-2.3166431009704
30
0
41
1
10
47.8351029152423
20
-1.98296084112931
30
0
41
1
10
46.8957351165245
20
-1.47375013142533
30
0
41
1
10
46.5822704107805
20
-1.3025640308247
30
0
41
1
10
45.9542849640263
20
-0.957969220748311
30
0
41
1
10
45.6397578838581
20
-0.784577103968161
30
0
41
1
10
45.0093673916522
20
-0.436046476878715
30
0
41
1
10
44.6934929305482
20
-0.2609265195604
30
0
41
1
10
44.3257624459051
20
-0.0569937912418368
30
0
41
1
10
44.2747377047005
20
-0.0286955165488507
30
0
41
1
10
44.2236991814988
20
-0.0003899561216372
30
0
0
SPLINE
5
FD
100
AcDbEntity
8
1
62
256
6
ByLayer
370
18
48
1
60
0
100
AcDbSpline
70
4
71
3
72
22
73
18
40
0
40
0
40
0
40
0
40
0.125
40
0.125
40
0.25
40
0.25
40
0.375
40
0.375
40
0.5
40
0.5
40
0.625
40
0.625
40
0.75
40
0.75
40
0.875
40
0.875
40
1
40
1
40
1
40
1
41
1
10
64.1419211367279
20
-7.51615498186234
30
0
41
1
10
64.142350407984
20
-7.51717929052285
30
0
41
1
10
64.1426131304166
20
-7.51869201631831
30
0
41
1
10
64.1427805865489
20
-7.52275909742477
30
0
41
1
10
64.1426845810949
20
-7.52532615520113
30
0
41
1
10
64.1420735319241
20
-7.53162788751337
30
0
41
1
10
64.1415667487485
20
-7.53528949217605
30
0
41
1
10
64.1401079536733
20
-7.54374024039555
30
0
41
1
10
64.1391389976502
20
-7.54859662543009
30
0
41
1
10
64.1367991611772
20
-7.55907583945927
30
0
41
1
10
64.135425149709
20
-7.56473338588023
30
0
41
1
10
64.1322298620758
20
-7.57697076304274
30
0
41
1
10
64.130459399882
20
-7.58335015692111
30
0
41
1
10
64.1266650995309
20
-7.59634058409316
30
0
41
1
10
64.1246101956803
20
-7.60305023582373
30
0
41
1
10
64.1204461022915
20
-7.61610007305035
30
0
41
1
10
64.1183020632003
20
-7.62255695692556
30
0
41
1
10
64.1161437660339
20
-7.62882779187873
30
0
0
SPLINE
5
FE
100
AcDbEntity
8
1
62
256
6
ByLayer
370
18
48
1
60
0
100
AcDbSpline
70
4
71
3
72
8
73
4
40
0
40
0
40
0
40
0
40
1
40
1
40
1
40
1
41
1
10
3.50000000000003
20
-7.71374550795687
30
0
41
1
10
3.50000000000003
20
-7.74374055535299
30
0
41
1
10
3.50000000000003
20
-7.77407958016695
30
0
41
1
10
3.50000000000003
20
-7.80476257976716
30
0
0
SPLINE
5
FF
100
AcDbEntity
8
1
62
256
6
ByLayer
370
18
48
1
60
0
100
AcDbSpline
70
4
71
3
72
38
73
34
40
0
40
0
40
0
40
0
40
0.0625000000000227
40
0.0625000000000227
40
0.125000000000045
40
0.125000000000045
40
0.156250000000043
40
0.156250000000043
40
0.187500000000041
40
0.187500000000041
40
0.218750000000039
40
0.218750000000039
40
0.250000000000037
40
0.250000000000037
40
0.281250000000035
40
0.281250000000035
40
0.312500000000033
40
0.312500000000033
40
0.375000000000028
40
0.375000000000028
40
0.406250000000026
40
0.406250000000026
40
0.437500000000024
40
0.437500000000024
40
0.500000000000021
40
0.500000000000021
40
0.562500000000019
40
0.562500000000019
40
0.625000000000015
40
0.625000000000015
40
0.75000000000001
40
0.75000000000001
40
1
40
1
40
1
40
1
41
1
10
3.75068206657738
20
-7.50473919410817
30
0
41
1
10
3.74284175030397
20
-7.50601325612237
30
0
41
1
10
3.7346311784851
20
-7.50757975734973
30
0
41
1
10
3.71712314892113
20
-7.5115671922668
30
0
41
1
10
3.70775276960237
20
-7.5140069835478
30
0
41
1
10
3.69280666011926
20
-7.51858458432847
30
0
41
1
10
3.68766926325443
20
-7.52026539292433
30
0
41
1
10
3.67698694182474
20
-7.52403286120946
30
0
41
1
10
3.67139227651768
20
-7.52614076527942
30
0
41
1
10
3.66005224924888
20
-7.53074483205967
30
0
41
1
10
3.65428250733623
20
-7.53324713569259
30
0
41
1
10
3.6424961854224
20
-7.53874714608926
30
0
41
1
10
3.6366353275057
20
-7.54167607271847
30
0
41
1
10
3.62523371801996
20
-7.5477708579954
30
0
41
1
10
3.61958434164836
20
-7.55099859405317
30
0
41
1
10
3.60893244091108
20
-7.55747668318895
30
0
41
1
10
3.60392132776326
20
-7.56072431560486
30
0
41
1
10
3.58966536023402
20
-7.57048914972856
30
0
41
1
10
3.58160285458365
20
-7.5767325726228
30
0
41
1
10
3.57087654647501
20
-7.58578247390483
30
0
41
1
10
3.56752444412376
20
-7.58875702793955
30
0
41
1
10
3.56129767091221
20
-7.59452782176919
30
0
41
1
10
3.55840530922225
20
-7.59733871411029
30
0
41
1
10
3.55025428421257
20
-7.60559471799706
30
0
41
1
10
3.54551462381087
20
-7.61086556652955
30
0
41
1
10
3.53700826090372
20
-7.62108324523285
30
0
41
1
10
3.53323915129187
20
-7.62604170081386
30
0
41
1
10
3.52655012213435
20
-7.63557115736339
30
0
41
1
10
3.52361500526374
20
-7.64016021636888
30
0
41
1
10
3.51576686496341
20
-7.6535192287387
30
0
41
1
10
3.51179725507779
20
-7.66188706689323
30
0
41
1
10
3.50258592325534
20
-7.68585423016245
30
0
41
1
10
3.5
20
-7.7003354778532
30
0
41
1
10
3.50000000000003
20
-7.71374550795687
30
0
0
SPLINE
5
100
100
AcDbEntity
8
1
62
256
6
ByLayer
370
18
48
1
60
0
100
AcDbSpline
70
4
71
3
72
28
73
24
40
0
40
0
40
0
40
0
40
0.250000000000001
40
0.250000000000001
40
0.312500000000003
40
0.312500000000003
40
0.375000000000005
40
0.375000000000005
40
0.500000000000008
40
0.500000000000008
40
0.625000000000012
40
0.625000000000012
40
0.687500000000013
40
0.687500000000013
40
0.718750000000013
40
0.718750000000013
40
0.750000000000013
40
0.750000000000013
40
0.875000000000006
40
0.875000000000006
40
0.937500000000003
40
0.937500000000003
40
1
40
1
40
1
40
1
41
1
10
8.55970210192643
20
-6.17337139034234
30
0
41
1
10
8.10956670803787
20
-6.31513609389489
30
0
41
1
10
7.66756586758325
20
-6.45312014092846
30
0
41
1
10
7.1277613205402
20
-6.61783871014964
30
0
41
1
10
7.02042225743403
20
-6.65040967027724
30
0
41
1
10
6.8069689330479
20
-6.71482612950896
30
0
41
1
10
6.70084943203599
20
-6.74667751524089
30
0
41
1
10
6.3844847060746
20
-6.84096840095106
30
0
41
1
10
6.17624596416582
20
-6.90212877679204
30
0
41
1
10
5.76601905599321
20
-7.02006327541321
30
0
41
1
10
5.56401601090039
20
-7.07685300572228
30
0
41
1
10
5.26657992472232
20
-7.15783028179746
30
0
41
1
10
5.16836643213264
20
-7.18411780824559
30
0
41
1
10
5.02259957312333
20
-7.22233328414097
30
0
41
1
10
4.97422460939785
20
-7.23488026854517
30
0
41
1
10
4.87836761020927
20
-7.25945029049458
30
0
41
1
10
4.83086154443845
20
-7.27147990062525
30
0
41
1
10
4.59553355369539
20
-7.33028064532402
30
0
41
1
10
4.41427532112718
20
-7.3730393508458
30
0
41
1
10
4.15508902641753
20
-7.42908912955158
30
0
41
1
10
4.07081858427887
20
-7.44641879442261
30
0
41
1
10
3.90702919935794
20
-7.47800106704415
30
0
41
1
10
3.82750863057751
20
-7.49225477341733
30
0
41
1
10
3.75068206466256
20
-7.50473919441842
30
0
0
SPLINE
5
101
100
AcDbEntity
8
1
62
256
6
ByLayer
370
18
48
1
60
0
100
AcDbSpline
70
4
71
3
72
8
73
4
40
0
40
0
40
0
40
0
40
1
40
1
40
1
40
1
41
1
10
9.04884772526759
20
-5.94855357758993
30
0
41
1
10
8.88561424535646
20
-6.02301291104189
30
0
41
1
10
8.72256387004569
20
-6.09795335983262
30
0
41
1
10
8.55969524365699
20
-6.17337200623729
30
0
0
SPLINE
5
102
100
AcDbEntity
8
1
62
256
6
ByLayer
370
18
48
1
60
0
100
AcDbSpline
70
4
71
3
72
104
73
100
40
0
40
0
40
0
40
0
40
0.0625000000000314
40
0.0625000000000314
40
0.125000000000063
40
0.125000000000063
40
0.187500000000094
40
0.187500000000094
40
0.250000000000126
40
0.250000000000126
40
0.281250000000141
40
0.281250000000141
40
0.312500000000157
40
0.312500000000157
40
0.343750000000173
40
0.343750000000173
40
0.375000000000189
40
0.375000000000189
40
0.43750000000022
40
0.43750000000022
40
0.453125000000228
40
0.453125000000228
40
0.45703125000023
40
0.45703125000023
40
0.458007812500231
40
0.458007812500231
40
0.458984375000231
40
0.458984375000231
40
0.460937500000234
40
0.460937500000234
40
0.461914062500234
40
0.461914062500234
40
0.462402343750234
40
0.462402343750234
40
0.462890625000234
40
0.462890625000234
40
0.463378906250234
40
0.463378906250234
40
0.463867187500233
40
0.463867187500233
40
0.464843750000233
40
0.464843750000233
40
0.468750000000231
40
0.500000000000219
40
0.500000000000219
40
0.531250000000207
40
0.531250000000207
40
0.546875000000202
40
0.546875000000202
40
0.562500000000196
40
0.562500000000196
40
0.593750000000183
40
0.593750000000183
40
0.625000000000171
40
0.625000000000171
40
0.656250000000159
40
0.656250000000159
40
0.687500000000146
40
0.687500000000146
40
0.695312500000143
40
0.695312500000143
40
0.70312500000014
40
0.718750000000133
40
0.718750000000133
40
0.75000000000012
40
0.75000000000012
40
0.757812500000117
40
0.757812500000117
40
0.765625000000113
40
0.781250000000106
40
0.781250000000106
40
0.812500000000092
40
0.812500000000092
40
0.820312500000089
40
0.820312500000089
40
0.824218750000087
40
0.824218750000087
40
0.828125000000085
40
0.843750000000078
40
0.843750000000078
40
0.875000000000063
40
0.875000000000063
40
0.878906250000061
40
0.878906250000061
40
0.882812500000058
40
0.882812500000058
40
0.890625000000055
40
0.890625000000055
40
0.906250000000047
40
0.906250000000047
40
0.937500000000032
40
0.937500000000032
40
0.953125000000025
40
0.953125000000025
40
0.96093750000002
40
0.96093750000002
40
0.968750000000016
40
0.968750000000016
40
1
40
1
40
1
40
1
41
1
10
13.7845114244449
20
-7.22482776087696
30
0
41
1
10
13.4423493781478
20
-7.1415066514478
30
0
41
1
10
13.098451587865
20
-7.0531934562259
30
0
41
1
10
12.4056291601069
20
-6.86955830364434
30
0
41
1
10
12.0567038922055
20
-6.77424004743494
30
0
41
1
10
11.3524329469559
20
-6.57983737927955
30
0
41
1
10
10.9968833004149
20
-6.48069864572597
30
0
41
1
10
10.2801584475192
20
-6.28264807368009
30
0
41
1
10
9.91878741669643
20
-6.18369038889117
30
0
41
1
10
9.37148151567345
20
-6.03795394651178
30
0
41
1
10
9.18811836814632
20
-5.98981167823314
30
0
41
1
10
8.81980916427131
20
-5.89490846172092
30
0
41
1
10
8.63491508747822
20
-5.84815700287828
30
0
41
1
10
8.26357640925244
20
-5.75643438347075
30
0
41
1
10
8.07713043278719
20
-5.71146596943413
30
0
41
1
10
7.70262052016551
20
-5.62367788163272
30
0
41
1
10
7.51451339662523
20
-5.58084909032235
30
0
41
1
10
6.94812229950193
20
-5.45616495644197
30
0
41
1
10
6.56761186689494
20
-5.37809121613469
30
0
41
1
10
6.08881912943215
20
-5.28837291490603
30
0
41
1
10
5.99290323595679
20
-5.2708214350078
30
0
41
1
10
5.87281944339574
20
-5.24939321892347
30
0
41
1
10
5.84879351735583
20
-5.24513276185561
30
0
41
1
10
5.81874942912128
20
-5.23984047372574
30
0
41
1
10
5.81275279395601
20
-5.23874223529421
30
0
41
1
10
5.80068967279283
20
-5.2367719601626
30
0
41
1
10
5.79461190988249
20
-5.23594708852707
30
0
41
1
10
5.77635956336437
20
-5.23418522300011
30
0
41
1
10
5.76412841890792
20
-5.23383518069198
30
0
41
1
10
5.74565192625087
20
-5.23501149344
30
0
41
1
10
5.73955608546262
20
-5.23568256711073
30
0
41
1
10
5.73057562588409
20
-5.23712535293924
30
0
41
1
10
5.72760744444005
20
-5.23768341539631
30
0
41
1
10
5.72172927987077
20
-5.23897682683904
30
0
41
1
10
5.7187992004304
20
-5.23965090892142
30
0
41
1
10
5.71304772098947
20
-5.2413300924128
30
0
41
1
10
5.71020874101092
20
-5.24230139439118
30
0
41
1
10
5.70461651300835
20
-5.24434651064928
30
0
41
1
10
5.70187427800633
20
-5.24545494289853
30
0
41
1
10
5.69387599625941
20
-5.24907164648207
30
0
41
1
10
5.68876833213639
20
-5.25175123096145
30
0
41
1
10
5.66291659730803
20
-5.26475577675936
30
0
41
1
10
5.47704751699709
20
-5.35846037191885
30
0
41
1
10
5.29350497771597
20
-5.45284794428977
30
0
41
1
10
4.97204399855718
20
-5.62132852323433
30
0
41
1
10
4.81369109160926
20
-5.70592745026988
30
0
41
1
10
4.58019176498695
20
-5.83330841983542
30
0
41
1
10
4.50303170587179
20
-5.87584922470626
30
0
41
1
10
4.35015273110855
20
-5.96108125884334
30
0
41
1
10
4.27437913160512
20
-6.00380462865297
30
0
41
1
10
4.05036422389304
20
-6.13161932912061
30
0
41
1
10
3.90513419434356
20
-6.21651332054768
30
0
41
1
10
3.6239908811952
20
-6.38537442198572
30
0
41
1
10
3.48807220320569
20
-6.46934267862136
30
0
41
1
10
3.22701363061805
20
-6.63597746705148
30
0
41
1
10
3.101864050643
20
-6.71864608235907
30
0
41
1
10
2.86440496164872
20
-6.88218211864242
30
0
41
1
10
2.7520762210961
20
-6.96305350761102
30
0
41
1
10
2.62160748308364
20
-7.06257292426977
30
0
41
1
10
2.59596679374917
20
-7.08243539383696
30
0
41
1
10
2.5460317604246
20
-7.12176446949528
30
0
41
1
10
2.47315158875813
20
-7.18015783119017
30
0
41
1
10
2.40651690366053
20
-7.23667758368609
30
0
41
1
10
2.28213951271826
20
-7.34699578328329
30
0
41
1
10
2.21102700121386
20
-7.41692918266813
30
0
41
1
10
2.13939407774578
20
-7.49888600324925
30
0
41
1
10
2.12592337603576
20
-7.51501675239248
30
0
41
1
10
2.10084080707705
20
-7.54664265904344
30
0
41
1
10
2.06621465928967
20
-7.59286106865557
30
0
41
1
10
2.04059952240371
20
-7.63539360278872
30
0
41
1
10
2.00149460815408
20
-7.71545945534476
30
0
41
1
10
1.99156591730971
20
-7.76217945007011
30
0
41
1
10
2.00006428896714
20
-7.81186036285231
30
0
41
1
10
2.0028114492151
20
-7.82135993741483
30
0
41
1
10
2.00852350381243
20
-7.83494486500246
30
0
41
1
10
2.01069619497912
20
-7.83936764385717
30
0
41
1
10
2.01555157114311
20
-7.84795057820094
30
0
41
1
10
2.02896830998898
20
-7.86876671918176
30
0
41
1
10
2.04865974113713
20
-7.8864330942223
30
0
41
1
10
2.10724164078434
20
-7.92314147333957
30
0
41
1
10
2.16136023712471
20
-7.94003997790156
30
0
41
1
10
2.23755685237987
20
-7.95136477323928
30
0
41
1
10
2.24623651031663
20
-7.95251603692742
30
0
41
1
10
2.26401799958526
20
-7.95460688674535
30
0
41
1
10
2.27312800097786
20
-7.95554704432269
30
0
41
1
10
2.30098096677182
20
-7.95804514639289
30
0
41
1
10
2.32026835003211
20
-7.95928434981914
30
0
41
1
10
2.38017188233931
20
-7.96179345238724
30
0
41
1
10
2.42282605938715
20
-7.96185678549276
30
0
41
1
10
2.5581651272262
20
-7.95769847181671
30
0
41
1
10
2.6581926098996
20
-7.94914822030071
30
0
41
1
10
2.8206302738121
20
-7.92910602882364
30
0
41
1
10
2.87685177890123
20
-7.92121695938431
30
0
41
1
10
2.96407932691653
20
-7.90771144471461
30
0
41
1
10
2.99363812907416
20
-7.90293071979829
30
0
41
1
10
3.05368968161369
20
-7.89283237427722
30
0
41
1
10
3.08420701132226
20
-7.88750994434284
30
0
41
1
10
3.23831547555892
20
-7.85974107340615
30
0
41
1
10
3.36694934090724
20
-7.83376602583212
30
0
41
1
10
3.50000000000003
20
-7.80476257976716
30
0
0
LINE
5
82
100
AcDbEntity
8
SK4
62
256
6
ByLayer
370
18
48
0.05
60
0
100
AcDbLine
10
-51
20
0
30
0
11
70
21
0
31
0
39
0
210
0
220
0
230
1
0
LINE
5
84
100
AcDbEntity
8
80
62
256
6
ByLayer
370
18
48
1
60
0
100
AcDbLine
10
0
20
0
30
0
11
-3
21
0
31
0
39
0
210
0
220
0
230
1
0
LINE
5
85
100
AcDbEntity
8
81
62
256
6
ByLayer
370
18
48
1
60
0
100
AcDbLine
10
67
20
0
30
0
11
70
21
0
31
0
39
0
210
0
220
0
230
1
0
LINE
5
86
100
AcDbEntity
8
4
62
256
6
ByLayer
370
18
48
0.05
60
0
100
AcDbLine
10
0
20
0
30
0
11
67
21
0
31
0
39
0
210
0
220
0
230
1
0
LINE
5
88
100
AcDbEntity
8
SK1
62
256
6
ByLayer
370
18
48
1
60
0
100
AcDbLine
10
-48
20
-5.55
30
0
11
-45.55
21
-8
31
0
39
0
210
0
220
0
230
1
0
LINE
5
8A
100
AcDbEntity
8
SK1
62
256
6
ByLayer
370
18
48
1
60
0
100
AcDbLine
10
-45.55
20
8
30
0
11
-48
21
5.55
31
0
39
0
210
0
220
0
230
1
0
LINE
5
8B
100
AcDbEntity
8
SK1
62
256
6
ByLayer
370
18
48
1
60
0
100
AcDbLine
10
-45.55
20
-8
30
0
11
0
21
-8
31
0
39
0
210
0
220
0
230
1
0
LINE
5
8C
100
AcDbEntity
8
SK1
62
256
6
ByLayer
370
18
48
1
60
0
100
AcDbLine
10
0
20
8
30
0
11
-45.55
21
8
31
0
39
0
210
0
220
0
230
1
0
LINE
5
8D
100
AcDbEntity
8
1
62
256
6
ByLayer
370
18
48
1
60
0
100
AcDbLine
10
1
20
7.960569
30
0
11
0
21
8
31
0
39
0
210
0
220
0
230
1
0
LINE
5
8E
100
AcDbEntity
8
1
62
256
6
ByLayer
370
18
48
1
60
0
100
AcDbLine
10
0
20
-8
30
0
11
1
21
-7.960569
31
0
39
0
210
0
220
0
230
1
0
LINE
5
8F
100
AcDbEntity
8
1
62
256
6
ByLayer
370
18
48
1
60
0
100
AcDbLine
10
1
20
-7.960569
30
0
11
2.422289
21
-7.961458
31
0
39
0
210
0
220
0
230
1
0
LINE
5
90
100
AcDbEntity
8
1
62
256
6
ByLayer
370
18
48
1
60
0
100
AcDbLine
10
19.818651
20
-7.97233
30
0
11
22.447411
21
-7.973973
31
0
39
0
210
0
220
0
230
1
0
LINE
5
91
100
AcDbEntity
8
1
62
256
6
ByLayer
370
18
48
1
60
0
100
AcDbLine
10
64.120842
20
8.000019
30
0
11
64.055556
21
7.999979
31
0
39
0
210
0
220
0
230
1
0
LINE
5
92
100
AcDbEntity
8
1
62
256
6
ByLayer
370
18
48
1
60
0
100
AcDbLine
10
22.447411
20
7.973973
30
0
11
19.818651
21
7.97233
31
0
39
0
210
0
220
0
230
1
0
LINE
5
93
100
AcDbEntity
8
1
62
256
6
ByLayer
370
18
48
1
60
0
100
AcDbLine
10
2.422289
20
7.961458
30
0
11
1
21
7.960569
31
0
39
0
210
0
220
0
230
1
0
LINE
5
94
100
AcDbEntity
8
SK1
62
256
6
ByLayer
370
18
48
1
60
0
100
AcDbLine
10
-48
20
5.457273
30
0
11
-48
21
4.705308
31
0
39
0
210
0
220
0
230
1
0
LINE
5
95
100
AcDbEntity
8
SK1
62
256
6
ByLayer
370
13
48
1
60
0
100
AcDbLine
10
-46.5
20
5.864009
30
0
11
-46.5
21
6.861152
31
0
39
0
210
0
220
0
230
1
0
LINE
5
96
100
AcDbEntity
8
SK1
62
256
6
ByLayer
370
18
48
1
60
0
100
AcDbLine
10
-48
20
5.457273
30
0
11
-48
21
5.55
31
0
39
0
210
0
220
0
230
1
0
LINE
5
97
100
AcDbEntity
8
SK1
62
256
6
ByLayer
370
18
48
1
60
0
100
AcDbLine
10
-46.4
20
6.01276
30
0
11
-46.4
21
6.930041
31
0
39
0
210
0
220
0
230
1
0
LINE
5
98
100
AcDbEntity
8
SK1
62
256
6
ByLayer
370
18
48
1
60
0
100
AcDbLine
10
-48
20
-5.55
30
0
11
-48
21
4.460228
31
0
39
0
210
0
220
0
230
1
0
LINE
5
99
100
AcDbEntity
8
SK1
62
256
6
ByLayer
370
18
48
1
60
0
100
AcDbLine
10
-45.55
20
-8
30
0
11
-45.55
21
8
31
0
39
0
210
0
220
0
230
1
0
LINE
5
9A
100
AcDbEntity
8
SK1
62
256
6
ByLayer
370
18
48
1
60
0
100
AcDbLine
10
0
20
8
30
0
11
0
21
-8
31
0
39
0
210
0
220
0
230
1
0
LINE
5
9B
100
AcDbEntity
8
1
62
256
6
ByLayer
370
18
48
1
60
0
100
AcDbLine
10
0
20
8
30
0
11
0
21
-8
31
0
39
0
210
0
220
0
230
1
0
LINE
5
9C
100
AcDbEntity
8
1
62
256
6
ByLayer
370
13
48
1
60
0
100
AcDbLine
10
66.888439
20
0.096307
30
0
11
64.994831
21
2.186522
31
0
39
0
210
0
220
0
230
1
0
LINE
5
9D
100
AcDbEntity
8
1
62
256
6
ByLayer
370
18
48
1
60
0
100
AcDbLine
10
1
20
-7.960569
30
0
11
1
21
7.960569
31
0
39
0
210
0
220
0
230
1
0
LINE
5
9E
100
AcDbEntity
8
1
62
256
6
ByLayer
370
18
48
1
60
0
100
AcDbLine
10
3.5
20
-1.47075
30
0
11
3.5
21
7.804763
31
0
39
0
210
0
220
0
230
1
0
LINE
5
9F
100
AcDbEntity
8
1
62
256
6
ByLayer
370
18
48
1
60
0
100
AcDbLine
10
34
20
4.479056
30
0
11
34
21
4.153882
31
0
39
0
210
0
220
0
230
1
0
LINE
5
A0
100
AcDbEntity
8
2
62
256
6
ByLayer
370
13
48
1
60
0
100
AcDbLine
10
80.75
20
-8
30
0
11
80.75
21
22.056066
31
0
39
0
210
0
220
0
230
1
0
LINE
5
A2
100
AcDbEntity
8
2
62
256
6
ByLayer
370
13
48
1
60
0
100
AcDbLine
10
68.5875
20
8
30
0
11
82.75
21
8
31
0
39
0
210
0
220
0
230
1
0
LINE
5
A3
100
AcDbEntity
8
2
62
256
6
ByLayer
370
13
48
1
60
0
100
AcDbLine
10
68.5875
20
-8
30
0
11
82.75
21
-8
31
0
39
0
210
0
220
0
230
1
0
LINE
5
A4
100
AcDbEntity
8
1
62
256
6
ByLayer
370
18
48
1
60
1
100
AcDbLine
10
80.75
20
8
30
0
11
81.210784
21
4.500002
31
0
39
0
210
0
220
0
230
1
0
LINE
5
A5
100
AcDbEntity
8
1
62
256
6
ByLayer
370
18
48
1
60
1
100
AcDbLine
10
81.210784
20
4.500002
30
0
11
80.289216
21
4.499998
31
0
39
0
210
0
220
0
230
1
0
LINE
5
A6
100
AcDbEntity
8
1
62
256
6
ByLayer
370
18
48
1
60
1
100
AcDbLine
10
80.289216
20
4.499998
30
0
11
80.75
21
8
31
0
39
0
210
0
220
0
230
1
0
LINE
5
A7
100
AcDbEntity
8
1
62
256
6
ByLayer
370
18
48
1
60
1
100
AcDbLine
10
80.75
20
-8
30
0
11
80.289216
21
-4.500002
31
0
39
0
210
0
220
0
230
1
0
LINE
5
A8
100
AcDbEntity
8
1
62
256
6
ByLayer
370
18
48
1
60
1
100
AcDbLine
10
80.289216
20
-4.500002
30
0
11
81.210784
21
-4.499998
31
0
39
0
210
0
220
0
230
1
0
LINE
5
A9
100
AcDbEntity
8
1
62
256
6
ByLayer
370
18
48
1
60
1
100
AcDbLine
10
81.210784
20
-4.499998
30
0
11
80.75
21
-8
31
0
39
0
210
0
220
0
230
1
0
LINE
5
AA
100
AcDbEntity
8
SK2
62
256
6
ByLayer
370
13
48
1
60
0
100
AcDbLine
10
-56.25
20
-8
30
0
11
-56.25
21
22.056066
31
0
39
0
210
0
220
0
230
1
0
LINE
5
AC
100
AcDbEntity
8
SK2
62
256
6
ByLayer
370
13
48
1
60
0
100
AcDbLine
10
-49.5875
20
8
30
0
11
-58.25
21
8
31
0
39
0
210
0
220
0
230
1
0
LINE
5
AD
100
AcDbEntity
8
SK2
62
256
6
ByLayer
370
13
48
1
60
0
100
AcDbLine
10
-49.5875
20
-8
30
0
11
-58.25
21
-8
31
0
39
0
210
0
220
0
230
1
0
LINE
5
AE
100
AcDbEntity
8
1
62
256
6
ByLayer
370
18
48
1
60
1
100
AcDbLine
10
-56.25
20
8
30
0
11
-55.789216
21
4.500002
31
0
39
0
210
0
220
0
230
1
0
LINE
5
AF
100
AcDbEntity
8
1
62
256
6
ByLayer
370
18
48
1
60
1
100
AcDbLine
10
-55.789216
20
4.500002
30
0
11
-56.710784
21
4.499998
31
0
39
0
210
0
220
0
230
1
0
LINE
5
B0
100
AcDbEntity
8
1
62
256
6
ByLayer
370
18
48
1
60
1
100
AcDbLine
10
-56.710784
20
4.499998
30
0
11
-56.25
21
8
31
0
39
0
210
0
220
0
230
1
0
LINE
5
B1
100
AcDbEntity
8
1
62
256
6
ByLayer
370
18
48
1
60
1
100
AcDbLine
10
-56.25
20
-8
30
0
11
-56.710784
21
-4.500002
31
0
39
0
210
0
220
0
230
1
0
LINE
5
B2
100
AcDbEntity
8
1
62
256
6
ByLayer
370
18
48
1
60
1
100
AcDbLine
10
-56.710784
20
-4.500002
30
0
11
-55.789216
21
-4.499998
31
0
39
0
210
0
220
0
230
1
0
LINE
5
B3
100
AcDbEntity
8
1
62
256
6
ByLayer
370
18
48
1
60
1
100
AcDbLine
10
-55.789216
20
-4.499998
30
0
11
-56.25
21
-8
31
0
39
0
210
0
220
0
230
1
0
LINE
5
B4
100
AcDbEntity
8
SK2
62
256
6
ByLayer
370
13
48
1
60
0
100
AcDbLine
10
67.542996
20
1.491748
30
0
11
80.037958
21
35.818567
31
0
39
0
210
0
220
0
230
1
0
LINE
5
B5
100
AcDbEntity
8
SK2
62
256
6
ByLayer
370
13
48
1
60
0
100
AcDbLine
10
67.542996
20
-1.491748
30
0
11
80.037958
21
-35.818567
31
0
39
0
210
0
220
0
230
1
0
LINE
5
B6
100
AcDbEntity
8
1
62
256
6
ByLayer
370
18
48
1
60
1
100
AcDbLine
10
79.353869
20
33.939199
30
0
11
82.780862
21
33.091835
31
0
39
0
210
0
220
0
230
1
0
LINE
5
B7
100
AcDbEntity
8
1
62
256
6
ByLayer
370
18
48
1
60
1
100
AcDbLine
10
82.780862
20
33.091835
30
0
11
82.444779
21
32.233736
31
0
39
0
210
0
220
0
230
1
0
LINE
5
B8
100
AcDbEntity
8
1
62
256
6
ByLayer
370
18
48
1
60
1
100
AcDbLine
10
82.444779
20
32.233736
30
0
11
79.353869
21
33.939199
31
0
39
0
210
0
220
0
230
1
0
LINE
5
B9
100
AcDbEntity
8
1
62
256
6
ByLayer
370
18
48
1
60
1
100
AcDbLine
10
79.353869
20
-33.939199
30
0
11
82.444776
21
-32.233737
31
0
39
0
210
0
220
0
230
1
0
LINE
5
BA
100
AcDbEntity
8
1
62
256
6
ByLayer
370
18
48
1
60
1
100
AcDbLine
10
82.444776
20
-32.233737
30
0
11
82.780865
21
-33.091834
31
0
39
0
210
0
220
0
230
1
0
LINE
5
BB
100
AcDbEntity
8
1
62
256
6
ByLayer
370
18
48
1
60
1
100
AcDbLine
10
82.780865
20
-33.091834
30
0
11
79.353869
21
-33.939199
31
0
39
0
210
0
220
0
230
1
0
LINE
5
103
100
AcDbEntity
8
1
62
256
6
ByLayer
370
13
48
0.05
60
0
100
AcDbLine
10
-54.5
20
0
30
0
11
70.620842
21
0
31
0
39
0
210
0
220
0
230
1
0
LINE
5
108
100
AcDbEntity
8
1
62
256
6
ByLayer
370
18
48
1
60
1
100
AcDbLine
10
80.75
20
8
30
0
11
81.210784
21
4.500002
31
0
39
0
210
0
220
0
230
1
0
LINE
5
109
100
AcDbEntity
8
1
62
256
6
ByLayer
370
18
48
1
60
1
100
AcDbLine
10
81.210784
20
4.500002
30
0
11
80.289216
21
4.499998
31
0
39
0
210
0
220
0
230
1
0
LINE
5
10A
100
AcDbEntity
8
1
62
256
6
ByLayer
370
18
48
1
60
1
100
AcDbLine
10
80.289216
20
4.499998
30
0
11
80.75
21
8
31
0
39
0
210
0
220
0
230
1
0
LINE
5
10C
100
AcDbEntity
8
1
62
256
6
ByLayer
370
18
48
1
60
1
100
AcDbLine
10
80.75
20
-8
30
0
11
80.289216
21
-4.500002
31
0
39
0
210
0
220
0
230
1
0
LINE
5
10D
100
AcDbEntity
8
1
62
256
6
ByLayer
370
18
48
1
60
1
100
AcDbLine
10
80.289216
20
-4.500002
30
0
11
81.210784
21
-4.499998
31
0
39
0
210
0
220
0
230
1
0
LINE
5
10E
100
AcDbEntity
8
1
62
256
6
ByLayer
370
18
48
1
60
1
100
AcDbLine
10
81.210784
20
-4.499998
30
0
11
80.75
21
-8
31
0
39
0
210
0
220
0
230
1
0
LINE
5
112
100
AcDbEntity
8
1
62
256
6
ByLayer
370
18
48
1
60
1
100
AcDbLine
10
-56.25
20
8
30
0
11
-55.789216
21
4.500002
31
0
39
0
210
0
220
0
230
1
0
LINE
5
113
100
AcDbEntity
8
1
62
256
6
ByLayer
370
18
48
1
60
1
100
AcDbLine
10
-55.789216
20
4.500002
30
0
11
-56.710784
21
4.499998
31
0
39
0
210
0
220
0
230
1
0
LINE
5
114
100
AcDbEntity
8
1
62
256
6
ByLayer
370
18
48
1
60
1
100
AcDbLine
10
-56.710784
20
4.499998
30
0
11
-56.25
21
8
31
0
39
0
210
0
220
0
230
1
0
LINE
5
116
100
AcDbEntity
8
1
62
256
6
ByLayer
370
18
48
1
60
1
100
AcDbLine
10
-56.25
20
-8
30
0
11
-56.710784
21
-4.500002
31
0
39
0
210
0
220
0
230
1
0
LINE
5
117
100
AcDbEntity
8
1
62
256
6
ByLayer
370
18
48
1
60
1
100
AcDbLine
10
-56.710784
20
-4.500002
30
0
11
-55.789216
21
-4.499998
31
0
39
0
210
0
220
0
230
1
0
LINE
5
118
100
AcDbEntity
8
1
62
256
6
ByLayer
370
18
48
1
60
1
100
AcDbLine
10
-55.789216
20
-4.499998
30
0
11
-56.25
21
-8
31
0
39
0
210
0
220
0
230
1
0
LINE
5
11B
100
AcDbEntity
8
1
62
256
6
ByLayer
370
18
48
1
60
1
100
AcDbLine
10
79.353869
20
33.939199
30
0
11
82.780862
21
33.091835
31
0
39
0
210
0
220
0
230
1
0
LINE
5
11C
100
AcDbEntity
8
1
62
256
6
ByLayer
370
18
48
1
60
1
100
AcDbLine
10
82.780862
20
33.091835
30
0
11
82.444779
21
32.233736
31
0
39
0
210
0
220
0
230
1
0
LINE
5
11D
100
AcDbEntity
8
1
62
256
6
ByLayer
370
18
48
1
60
1
100
AcDbLine
10
82.444779
20
32.233736
30
0
11
79.353869
21
33.939199
31
0
39
0
210
0
220
0
230
1
0
LINE
5
11F
100
AcDbEntity
8
1
62
256
6
ByLayer
370
18
48
1
60
1
100
AcDbLine
10
79.353869
20
-33.939199
30
0
11
82.444776
21
-32.233737
31
0
39
0
210
0
220
0
230
1
0
LINE
5
120
100
AcDbEntity
8
1
62
256
6
ByLayer
370
18
48
1
60
1
100
AcDbLine
10
82.444776
20
-32.233737
30
0
11
82.780865
21
-33.091834
31
0
39
0
210
0
220
0
230
1
0
LINE
5
121
100
AcDbEntity
8
1
62
256
6
ByLayer
370
18
48
1
60
1
100
AcDbLine
10
82.780865
20
-33.091834
30
0
11
79.353869
21
-33.939199
31
0
39
0
210
0
220
0
230
1
0
MTEXT
5
104
100
AcDbEntity
8
2
62
256
6
ByLayer
370
18
48
1
60
0
100
AcDbMText
10
79.185366
20
11.934844
30
0
210
0
220
0
230
1
1
%%c
40
3.5
41
0
44
1.084337
50
90
71
7
72
5
7
iso_b_vert
0
MTEXT
5
107
100
AcDbEntity
8
2
62
256
6
ByLayer
370
18
48
1
60
0
100
AcDbMText
10
79.185366
20
18.9075
30
0
210
0
220
0
230
1
1
\W0.5321;16
40
3.5
41
0
44
1.084337
50
90
71
7
72
5
7
iso_b_vert
0
MTEXT
5
110
100
AcDbEntity
8
SK2
62
256
6
ByLayer
370
18
48
1
60
0
100
AcDbMText
10
-57.814634
20
11.934844
30
0
210
0
220
0
230
1
1
%%c
40
3.5
41
0
44
1.084337
50
90
71
7
72
5
7
iso_b_vert
0
MTEXT
5
111
100
AcDbEntity
8
SK2
62
256
6
ByLayer
370
18
48
1
60
0
100
AcDbMText
10
-57.814634
20
18.9075
30
0
210
0
220
0
230
1
1
\W0.5321;16
40
3.5
41
0
44
1.084337
50
90
71
7
72
5
7
iso_b_vert
0
MTEXT
5
11A
100
AcDbEntity
8
SK2
62
256
6
ByLayer
370
18
48
1
60
0
100
AcDbMText
10
99.046038
20
-2.467366
30
0
210
0
220
0
230
1
1
\W0.7825;140%%d
40
3.5
41
0
44
1.084337
50
0
71
7
72
5
7
iso_b_vert
0
MTEXT
5
123
100
AcDbEntity
8
SK6
62
256
6
ByLayer
370
18
48
1
60
0
100
AcDbMText
10
-17.953085
20
-97.467366
30
0
210
0
220
0
230
1
1
\W0.7442;860.1-1600-045A1-MM M2BM
40
3.5
41
0
44
1.084337
50
0
71
7
72
5
7
iso_b_vert
0
HATCH
5
10B
100
AcDbEntity
8
2
62
256
6
ByLayer
370
13
48
1
60
0
100
AcDbHatch
10
0
20
0
30
0
210
0
220
0
230
1
2
ANSI31
70
0
71
0
91
1
92
5
93
3
72
1
10
80.75
20
8
11
81.2107837415528
21
4.50000169255318
72
1
10
81.2107837415528
20
4.50000169255318
11
80.2892162584472
21
4.49999830744682
72
1
10
80.2892162584472
20
4.49999830744682
11
80.75
21
8
97
0
75
0
76
1
52
0
41
0.0062
77
0
78
1
53
45
43
0
44
0
45
-0.0139193969876572
46
0.0139193969876572
79
0
47
0
98
1
10
0
20
0
0
HATCH
5
10F
100
AcDbEntity
8
2
62
256
6
ByLayer
370
13
48
1
60
0
100
AcDbHatch
10
0
20
0
30
0
210
0
220
0
230
1
2
ANSI31
70
0
71
0
91
1
92
5
93
3
72
1
10
80.75
20
-8
11
80.2892162584472
21
-4.50000169255318
72
1
10
80.2892162584472
20
-4.50000169255318
11
81.2107837415528
21
-4.49999830744682
72
1
10
81.2107837415528
20
-4.49999830744682
11
80.75
21
-8
97
0
75
0
76
1
52
0
41
0.0062
77
0
78
1
53
45
43
0
44
0
45
-0.0139193969876572
46
0.0139193969876572
79
0
47
0
98
1
10
0
20
0
0
HATCH
5
115
100
AcDbEntity
8
SK2
62
256
6
ByLayer
370
13
48
1
60
0
100
AcDbHatch
10
0
20
0
30
0
210
0
220
0
230
1
2
ANSI31
70
0
71
0
91
1
92
5
93
3
72
1
10
-56.25
20
8
11
-55.7892162584472
21
4.50000169255318
72
1
10
-55.7892162584472
20
4.50000169255318
11
-56.7107837415528
21
4.49999830744682
72
1
10
-56.7107837415528
20
4.49999830744682
11
-56.25
21
8
97
0
75
0
76
1
52
0
41
0.0062
77
0
78
1
53
45
43
0
44
0
45
-0.0139193969876572
46
0.0139193969876572
79
0
47
0
98
1
10
0
20
0
0
HATCH
5
119
100
AcDbEntity
8
SK2
62
256
6
ByLayer
370
13
48
1
60
0
100
AcDbHatch
10
0
20
0
30
0
210
0
220
0
230
1
2
ANSI31
70
0
71
0
91
1
92
5
93
3
72
1
10
-56.25
20
-8
11
-56.7107837415528
21
-4.50000169255318
72
1
10
-56.7107837415528
20
-4.50000169255318
11
-55.7892162584472
21
-4.49999830744682
72
1
10
-55.7892162584472
20
-4.49999830744682
11
-56.25
21
-8
97
0
75
0
76
1
52
0
41
0.0062
77
0
78
1
53
45
43
0
44
0
45
-0.0139193969876572
46
0.0139193969876572
79
0
47
0
98
1
10
0
20
0
0
HATCH
5
11E
100
AcDbEntity
8
SK2
62
256
6
ByLayer
370
13
48
1
60
0
100
AcDbHatch
10
0
20
0
30
0
210
0
220
0
230
1
2
ANSI31
70
0
71
0
91
1
92
5
93
3
72
1
10
79.3538685931945
20
33.9391994318473
11
82.78086196766
21
33.0918351536414
72
1
10
82.78086196766
20
33.0918351536414
11
82.4447789252889
21
32.2337356171309
72
1
10
82.4447789252889
20
32.2337356171309
11
79.3538685931945
21
33.9391994318473
97
0
75
0
76
1
52
0
41
0.0062
77
0
78
1
53
45
43
0
44
0
45
-0.0139193969876572
46
0.0139193969876572
79
0
47
0
98
1
10
0
20
0
0
HATCH
5
122
100
AcDbEntity
8
SK2
62
256
6
ByLayer
370
13
48
1
60
0
100
AcDbHatch
10
0
20
0
30
0
210
0
220
0
230
1
2
ANSI31
70
0
71
0
91
1
92
5
93
3
72
1
10
79.3538685931945
20
-33.9391994318473
11
82.4447757733178
21
-32.2337368516445
72
1
10
82.4447757733178
20
-32.2337368516445
11
82.7808651196311
21
-33.0918339191279
72
1
10
82.7808651196311
20
-33.0918339191279
11
79.3538685931945
21
-33.9391994318473
97
0
75
0
76
1
52
0
41
0.0062
77
0
78
1
53
45
43
0
44
0
45
-0.0139193969876572
46
0.0139193969876572
79
0
47
0
98
1
10
0
20
0
0
DIMENSION
5
126
100
AcDbEntity
8
2
62
256
6
ByLayer
370
18
48
1
60
0
100
AcDbDimension
2
_U0
10
67
20
-67.789102
30
0
11
9.5
21
-67.789102
31
0
70
32
71
1
72
1
41
1
210
0
220
0
230
1
3
Standard
100
AcDbAlignedDimension
13
-48
23
-8
33
0
14
67
24
-8
34
0
50
0
100
AcDbRotatedDimension
1001
ACAD
1000
DSTYLE
1002
{
1070
   371
1070
    13
1070
   372
1070
    13
1070
     3
1000

1070
   170
1070
     0
1070
   144
1040
1.0
1070
   277
1070
     2
1070
   284
1070
     8
1070
   278
1070
    46
1070
   146
1040
1.0
1070
   345
1005
16
1070
   347
1005
16
1070
   346
1005
16
1070
   344
1005
0
1070
   343
1005
0
1070
   172
1070
     1
1070
    76
1070
     0
1070
    75
1070
     0
1070
   282
1070
     0
1070
   281
1070
     0
1070
    71
1070
     0
1070
    74
1070
     0
1070
   279
1070
     0
1070
   173
1070
     1
1070
   340
1005
105
1070
   271
1070
     2
1070
   272
1070
     2
1070
    77
1070
     1
1070
    73
1070
     1
1070
   171
1070
     3
1070
   274
1070
     4
1070
   177
1070
     2
1070
   176
1070
     2
1070
   178
1070
     2
1070
    78
1070
     8
1070
    48
1040
-0.1
1070
    41
1040
3.5
1070
   147
1040
1.75
1070
    42
1040
1.5875
1070
    44
1040
2.0
1070
   140
1040
3.5
1002
}
1001
ACAD_DSTYLE_DIM_LINETYPE
1070
   380
1005
16
1001
ACAD_DSTYLE_DIM_EXT1_LINETYPE
1070
   381
1005
16
1001
ACAD_DSTYLE_DIM_EXT2_LINETYPE
1070
   382
1005
16
0
DIMENSION
5
13F
100
AcDbEntity
8
SK2
62
256
6
ByLayer
370
18
48
1
60
0
100
AcDbDimension
2
_U1
10
2
20
-47.789102
30
0
11
34.5
21
-47.789102
31
0
70
32
71
1
72
1
41
1
210
0
220
0
230
1
3
Standard
100
AcDbAlignedDimension
13
67
23
-8
33
0
14
2
24
-8
34
0
50
0
100
AcDbRotatedDimension
1001
ACAD
1000
DSTYLE
1002
{
1070
   371
1070
    13
1070
   372
1070
    13
1070
     3
1000

1070
   170
1070
     0
1070
   144
1040
1.0
1070
   277
1070
     2
1070
   284
1070
     8
1070
   278
1070
    46
1070
   146
1040
1.0
1070
   345
1005
16
1070
   347
1005
16
1070
   346
1005
16
1070
   344
1005
0
1070
   343
1005
0
1070
   172
1070
     1
1070
    76
1070
     0
1070
    75
1070
     0
1070
   282
1070
     0
1070
   281
1070
     0
1070
    71
1070
     0
1070
    74
1070
     0
1070
   279
1070
     0
1070
   173
1070
     1
1070
   340
1005
105
1070
   271
1070
     2
1070
   272
1070
     2
1070
    77
1070
     1
1070
    73
1070
     1
1070
   171
1070
     3
1070
   274
1070
     4
1070
   177
1070
     2
1070
   176
1070
     2
1070
   178
1070
     2
1070
    78
1070
     8
1070
    48
1040
-0.1
1070
    41
1040
3.5
1070
   147
1040
1.75
1070
    42
1040
1.5875
1070
    44
1040
2.0
1070
   140
1040
3.5
1002
}
1001
ACAD_DSTYLE_DIM_LINETYPE
1070
   380
1005
16
1001
ACAD_DSTYLE_DIM_EXT1_LINETYPE
1070
   381
1005
16
1001
ACAD_DSTYLE_DIM_EXT2_LINETYPE
1070
   382
1005
16
0
DIMENSION
5
157
100
AcDbEntity
8
SK2
62
256
6
ByLayer
370
18
48
1
60
0
100
AcDbDimension
2
_U2
10
22
20
-37.789102
30
0
11
44.5
21
-37.789102
31
0
70
32
71
1
72
1
41
1
210
0
220
0
230
1
3
Standard
100
AcDbAlignedDimension
13
67
23
-8
33
0
14
22
24
-8
34
0
50
0
100
AcDbRotatedDimension
1001
ACAD
1000
DSTYLE
1002
{
1070
   371
1070
    13
1070
   372
1070
    13
1070
     3
1000

1070
   170
1070
     0
1070
   144
1040
1.0
1070
   277
1070
     2
1070
   284
1070
     8
1070
   278
1070
    46
1070
   146
1040
1.0
1070
   345
1005
16
1070
   347
1005
16
1070
   346
1005
16
1070
   344
1005
0
1070
   343
1005
0
1070
   172
1070
     1
1070
    76
1070
     0
1070
    75
1070
     0
1070
   282
1070
     0
1070
   281
1070
     0
1070
    71
1070
     0
1070
    74
1070
     0
1070
   279
1070
     0
1070
   173
1070
     1
1070
   340
1005
105
1070
   271
1070
     2
1070
   272
1070
     2
1070
    77
1070
     1
1070
    73
1070
     1
1070
   171
1070
     3
1070
   274
1070
     4
1070
   177
1070
     2
1070
   176
1070
     2
1070
   178
1070
     2
1070
    78
1070
     8
1070
    48
1040
-0.1
1070
    41
1040
3.5
1070
   147
1040
1.75
1070
    42
1040
1.5875
1070
    44
1040
2.0
1070
   140
1040
3.5
1002
}
1001
ACAD_DSTYLE_DIM_LINETYPE
1070
   380
1005
16
1001
ACAD_DSTYLE_DIM_EXT1_LINETYPE
1070
   381
1005
16
1001
ACAD_DSTYLE_DIM_EXT2_LINETYPE
1070
   382
1005
16
0
DIMENSION
5
171
100
AcDbEntity
8
SK2
62
256
6
ByLayer
370
18
48
1
60
0
100
AcDbDimension
2
_U3
10
0
20
-47.789102
30
0
11
-24
21
-47.789102
31
0
70
32
71
1
72
1
41
1
210
0
220
0
230
1
3
Standard
100
AcDbAlignedDimension
13
-48
23
-8
33
0
14
0
24
-8
34
0
50
0
100
AcDbRotatedDimension
1001
ACAD
1000
DSTYLE
1002
{
1070
   371
1070
    13
1070
   372
1070
    13
1070
     3
1000

1070
   170
1070
     0
1070
   144
1040
1.0
1070
   277
1070
     2
1070
   284
1070
     8
1070
   278
1070
    46
1070
   146
1040
1.0
1070
   345
1005
16
1070
   347
1005
16
1070
   346
1005
16
1070
   344
1005
0
1070
   343
1005
0
1070
   172
1070
     1
1070
    76
1070
     0
1070
    75
1070
     0
1070
   282
1070
     0
1070
   281
1070
     0
1070
    71
1070
     0
1070
    74
1070
     0
1070
   279
1070
     0
1070
   173
1070
     1
1070
   340
1005
105
1070
   271
1070
     2
1070
   272
1070
     2
1070
    77
1070
     1
1070
    73
1070
     1
1070
   171
1070
     3
1070
   274
1070
     4
1070
   177
1070
     2
1070
   176
1070
     2
1070
   178
1070
     2
1070
    78
1070
     8
1070
    48
1040
-0.1
1070
    41
1040
3.5
1070
   147
1040
1.75
1070
    42
1040
1.5875
1070
    44
1040
2.0
1070
   140
1040
3.5
1002
}
1001
ACAD_DSTYLE_DIM_LINETYPE
1070
   380
1005
16
1001
ACAD_DSTYLE_DIM_EXT1_LINETYPE
1070
   381
1005
16
1001
ACAD_DSTYLE_DIM_EXT2_LINETYPE
1070
   382
1005
16
0
DIMENSION
5
189
100
AcDbEntity
8
SK2
62
256
6
ByLayer
370
18
48
1
60
0
100
AcDbDimension
2
_U4
10
67
20
-57.789102
30
0
11
33.5
21
-57.789102
31
0
70
32
71
1
72
1
41
1
210
0
220
0
230
1
3
Standard
100
AcDbAlignedDimension
13
0
23
-8
33
0
14
67
24
-8
34
0
50
0
100
AcDbRotatedDimension
1001
ACAD
1000
DSTYLE
1002
{
1070
   371
1070
    13
1070
   372
1070
    13
1070
     3
1000

1070
   170
1070
     0
1070
   144
1040
1.0
1070
   277
1070
     2
1070
   284
1070
     8
1070
   278
1070
    46
1070
   146
1040
1.0
1070
   345
1005
16
1070
   347
1005
16
1070
   346
1005
16
1070
   344
1005
0
1070
   343
1005
0
1070
   172
1070
     1
1070
    76
1070
     0
1070
    75
1070
     0
1070
   282
1070
     0
1070
   281
1070
     0
1070
    71
1070
     0
1070
    74
1070
     0
1070
   279
1070
     0
1070
   173
1070
     1
1070
   340
1005
105
1070
   271
1070
     2
1070
   272
1070
     2
1070
    77
1070
     1
1070
    73
1070
     1
1070
   171
1070
     3
1070
   274
1070
     4
1070
   177
1070
     2
1070
   176
1070
     2
1070
   178
1070
     2
1070
    78
1070
     8
1070
    48
1040
-0.1
1070
    41
1040
3.5
1070
   147
1040
1.75
1070
    42
1040
1.5875
1070
    44
1040
2.0
1070
   140
1040
3.5
1002
}
1001
ACAD_DSTYLE_DIM_LINETYPE
1070
   380
1005
16
1001
ACAD_DSTYLE_DIM_EXT1_LINETYPE
1070
   381
1005
16
1001
ACAD_DSTYLE_DIM_EXT2_LINETYPE
1070
   382
1005
16
0
ENDSEC
0
SECTION
2
OBJECTS
0
DICTIONARY
5
211
330
0
100
AcDbDictionary
280
0
281
1
3
ACAD_GROUP
350
212
3
ACAD_MLINESTYLE
350
213
0
DICTIONARY
5
212
330
0
100
AcDbDictionary
280
0
281
1
0
DICTIONARY
5
213
330
0
100
AcDbDictionary
280
0
281
1
3
Standard
350
18
0
MLINESTYLE
5
18
330
213
100
AcDbMlineStyle
2
Standard
70
0
3

62
256
51
90
52
90
71
2
49
-0.5
62
256
6
ByLayer
49
0.5
62
256
6
ByLayer
0
RASTERVARIABLES
5
1ff
330

100
AcDbRasterVariables
90
0
70
1
71
1
72
1
0
ENDSEC
0
EOF
