0
SECTION
2
HEADER
9
$ACADVER
1
AC1015
9
$DWGCODEPAGE
3
ANSI_1252
9
$HANDSEED
5
21d
9
$ANGBASE
50
0
9
$ANGDIR
70
0
9
$ATTMODE
70
1
9
$AUNITS
70
0
9
$AUPREC
70
0
9
$CECOLOR
62
256
9
$CELTSCALE
40
1
9
$CELTYPE
6
ByLayer
9
$CELWEIGHT
370
18
9
$CLAYER
8
0
9
$CMLJUST
70
0
9
$CMLSCALE
40
1
9
$CMLSTYLE
2
Standard
9
$DIMSTYLE
2
Standard
9
$TEXTSIZE
40
0.2
9
$TEXTSTYLE
7
Standard
9
$LUNITS
70
2
9
$LUPREC
70
4
9
$EXTNAMES
290
1
9
$INSUNITS
70
4
9
$LTSCALE
40
1
9
$LWDISPLAY
290
1
9
$PDMODE
70
0
9
$PDSIZE
40
0
9
$PLINEGEN
70
0
0
ENDSEC
0
SECTION
2
CLASSES
0
CLASS
1
RASTERVARIABLES
2
AcDbRasterVariables
3
ISM
90
0
280
0
281
0
0
ENDSEC
0
SECTION
2
TABLES
0
TABLE
2
VPORT
5
213
100
AcDbSymbolTable
0
VPORT
5
1
100
AcDbSymbolTableRecord
100
AcDbViewportTableRecord
2
*Active
70
0
10
0
20
0
11
1
21
1
12
-1
22
1
13
0
23
0
14
0.5
24
0.5
15
10
25
10
16
0
26
0
36
1
17
0
27
0
37
0
0
ENDTAB
0
TABLE
2
LTYPE
5
214
100
AcDbSymbolTable
0
LTYPE
5
14
100
AcDbSymbolTableRecord
100
AcDbLinetypeTableRecord
70
0
2
ByBlock
3

72
65
73
0
40
0
0
LTYPE
5
15
100
AcDbSymbolTableRecord
100
AcDbLinetypeTableRecord
70
0
2
ByLayer
3

72
65
73
0
40
0
0
LTYPE
5
16
100
AcDbSymbolTableRecord
100
AcDbLinetypeTableRecord
70
0
2
Continuous
3
Solid line
72
65
73
0
40
0
0
LTYPE
5
6E
100
AcDbSymbolTableRecord
100
AcDbLinetypeTableRecord
70
0
2
CENTER
3
____ _ ____ _ ____ _ ____
72
65
73
4
40
47.5
49
22
74
0
49
-8.5
74
0
49
8.5
74
0
49
-8.5
74
0
0
LTYPE
5
6F
100
AcDbSymbolTableRecord
100
AcDbLinetypeTableRecord
70
0
2
DASHED
3
__ __ __ __ __ __ __ __ __
72
65
73
2
40
25.72
49
12.86
74
0
49
-12.86
74
0
0
ENDTAB
0
TABLE
2
LAYER
5
215
100
AcDbSymbolTable
0
LAYER
5
10
100
AcDbSymbolTableRecord
100
AcDbLayerTableRecord
2
0
70
0
62
7
6
Continuous
290
1
370
-3
390
0
0
LAYER
5
71
100
AcDbSymbolTableRecord
100
AcDbLayerTableRecord
2
80
70
0
62
-6
6
Continuous
290
1
370
-3
390
0
0
LAYER
5
73
100
AcDbSymbolTableRecord
100
AcDbLayerTableRecord
2
81
70
0
62
-3
6
Continuous
290
1
370
-3
390
0
0
LAYER
5
75
100
AcDbSymbolTableRecord
100
AcDbLayerTableRecord
2
1
70
0
62
4
6
Continuous
290
1
370
-3
390
0
0
LAYER
5
87
100
AcDbSymbolTableRecord
100
AcDbLayerTableRecord
2
4
70
0
62
-2
6
CENTER
290
1
370
-3
390
0
0
LAYER
5
A5
100
AcDbSymbolTableRecord
100
AcDbLayerTableRecord
2
2
70
0
62
7
6
Continuous
290
1
370
-3
390
0
0
LAYER
5
128
100
AcDbSymbolTableRecord
100
AcDbLayerTableRecord
2
Defpoints
70
0
62
7
6
Continuous
290
0
370
-3
390
0
0
LAYER
5
1ff
100
AcDbSymbolTableRecord
100
AcDbLayerTableRecord
2
SK4
70
0
62
2
6
CENTER
290
1
370
-3
390
0
0
LAYER
5
200
100
AcDbSymbolTableRecord
100
AcDbLayerTableRecord
2
SK1
70
0
62
4
6
Continuous
290
1
370
-3
390
0
0
LAYER
5
201
100
AcDbSymbolTableRecord
100
AcDbLayerTableRecord
2
SK2
70
0
62
7
6
Continuous
290
1
370
-3
390
0
0
LAYER
5
202
100
AcDbSymbolTableRecord
100
AcDbLayerTableRecord
2
SK6
70
0
62
5
6
Continuous
290
1
370
-3
390
0
0
ENDTAB
0
TABLE
2
STYLE
5
216
100
AcDbSymbolTable
0
STYLE
5
11
100
AcDbSymbolTableRecord
100
AcDbTextStyleTableRecord
2
Standard
3
txt
70
0
71
0
40
0
41
1
42
0
50
0
0
STYLE
5
104
100
AcDbSymbolTableRecord
100
AcDbTextStyleTableRecord
2
iso_b_vert
3
simplex.shx
70
0
71
0
40
0
41
1
42
0
50
0
0
STYLE
5
105
100
AcDbSymbolTableRecord
100
AcDbTextStyleTableRecord
2
DWGDirectTextStyle
3
simplex
70
0
71
0
40
0
41
1
42
0
50
0
0
ENDTAB
0
TABLE
2
DIMSTYLE
5
217
100
AcDbSymbolTable
100
AcDbDimStyleTable
0
DIMSTYLE
105
27
100
AcDbSymbolTableRecord
100
AcDbDimStyleTableRecord
2
Standard
70
0
3
<>
41
0.18
42
0.0625
44
0.18
140
0.18
147
0.09
73
0
74
0
77
1
271
2
275
0
278
52
280
0
340
11
0
ENDTAB
0
TABLE
2
VIEW
5
218
100
AcDbSymbolTable
0
ENDTAB
0
TABLE
2
UCS
5
219
100
AcDbSymbolTable
0
ENDTAB
0
TABLE
2
APPID
5
21a
100
AcDbSymbolTable
0
APPID
5
12
100
AcDbSymbolTableRecord
100
AcDbRegAppTableRecord
2
ACAD
70
0
0
APPID
5
124
100
AcDbSymbolTableRecord
100
AcDbRegAppTableRecord
2
ACAD_DSTYLE_DIMBREAK
70
0
0
APPID
5
1BE
100
AcDbSymbolTableRecord
100
AcDbRegAppTableRecord
2
ACAD_DSTYLE_DIM_LINETYPE
70
0
0
APPID
5
1BF
100
AcDbSymbolTableRecord
100
AcDbRegAppTableRecord
2
ACAD_DSTYLE_DIM_EXT1_LINETYPE
70
0
0
APPID
5
1C0
100
AcDbSymbolTableRecord
100
AcDbRegAppTableRecord
2
ACAD_DSTYLE_DIM_EXT2_LINETYPE
70
0
0
APPID
5
1FB
100
AcDbSymbolTableRecord
100
AcDbRegAppTableRecord
2
ACAD_MLEADERVER
70
0
0
ENDTAB
0
TABLE
2
BLOCK_RECORD
5
21b
100
AcDbSymbolTable
0
BLOCK_RECORD
5
1F
100
AcDbSymbolTableRecord
100
AcDbBlockTableRecord
2
*Model_Space
340
0
70
0
0
BLOCK_RECORD
5
1B
100
AcDbSymbolTableRecord
100
AcDbBlockTableRecord
2
*Paper_Space
340
0
70
0
0
BLOCK_RECORD
5
23
100
AcDbSymbolTableRecord
100
AcDbBlockTableRecord
2
*Paper_Space0
340
0
70
0
0
BLOCK_RECORD
5
129
100
AcDbSymbolTableRecord
100
AcDbBlockTableRecord
2
*D1
340
0
70
0
0
BLOCK_RECORD
5
135
100
AcDbSymbolTableRecord
100
AcDbBlockTableRecord
2
_U0
340
0
70
0
0
BLOCK_RECORD
5
141
100
AcDbSymbolTableRecord
100
AcDbBlockTableRecord
2
*D3
340
0
70
0
0
BLOCK_RECORD
5
14D
100
AcDbSymbolTableRecord
100
AcDbBlockTableRecord
2
_U1
340
0
70
0
0
BLOCK_RECORD
5
159
100
AcDbSymbolTableRecord
100
AcDbBlockTableRecord
2
*D5
340
0
70
0
0
BLOCK_RECORD
5
165
100
AcDbSymbolTableRecord
100
AcDbBlockTableRecord
2
_U2
340
0
70
0
0
BLOCK_RECORD
5
173
100
AcDbSymbolTableRecord
100
AcDbBlockTableRecord
2
*D7
340
0
70
0
0
BLOCK_RECORD
5
17F
100
AcDbSymbolTableRecord
100
AcDbBlockTableRecord
2
_U3
340
0
70
0
0
BLOCK_RECORD
5
18B
100
AcDbSymbolTableRecord
100
AcDbBlockTableRecord
2
*D9
340
0
70
0
0
BLOCK_RECORD
5
197
100
AcDbSymbolTableRecord
100
AcDbBlockTableRecord
2
_U4
340
0
70
0
0
ENDTAB
0
ENDSEC
0
SECTION
2
BLOCKS
0
BLOCK
5
20
100
AcDbEntity
8
0
100
AcDbBlockBegin
2
*Model_Space
70
0
10
0
20
0
30
0
3
*Model_Space
0
ENDBLK
5
21
100
AcDbEntity
8
0
100
AcDbBlockEnd
0
BLOCK
5
1C
100
AcDbEntity
8
0
100
AcDbBlockBegin
2
*Paper_Space
70
0
10
0
20
0
30
0
3
*Paper_Space
0
ENDBLK
5
1D
100
AcDbEntity
8
0
100
AcDbBlockEnd
0
BLOCK
5
24
100
AcDbEntity
8
0
100
AcDbBlockBegin
2
*Paper_Space0
70
0
10
0
20
0
30
0
3
*Paper_Space0
0
ENDBLK
5
25
100
AcDbEntity
8
0
100
AcDbBlockEnd
0
BLOCK
5
12A
100
AcDbEntity
8
0
100
AcDbBlockBegin
2
*D1
70
1
10
0
20
0
30
0
3
*D1
0
LINE
5
12C
100
AcDbEntity
8
0
62
256
6
ByLayer
370
-2
48
1
60
0
100
AcDbLine
10
-45
20
-7.5875
30
0
11
-45
21
-61.894254
31
0
39
0
210
0
220
0
230
1
0
LINE
5
12D
100
AcDbEntity
8
0
62
256
6
ByLayer
370
-2
48
1
60
0
100
AcDbLine
10
57
20
-7.0875
30
0
11
57
21
-61.894254
31
0
39
0
210
0
220
0
230
1
0
LINE
5
12E
100
AcDbEntity
8
0
62
256
6
ByLayer
370
-2
48
1
60
0
100
AcDbLine
10
-41.5
20
-59.894254
30
0
11
53.5
21
-59.894254
31
0
39
0
210
0
220
0
230
1
0
SOLID
5
12F
100
AcDbEntity
8
0
62
256
6
ByLayer
370
-1
48
1
60
0
100
AcDbTrace
10
-41.5
20
-59.310921
30
0
11
-41.5
21
-60.477588
31
0
12
-45
22
-59.894254
32
0
13
-45
23
-59.894254
33
0
39
0
210
0
220
0
230
1
0
SOLID
5
130
100
AcDbEntity
8
0
62
256
6
ByLayer
370
-1
48
1
60
0
100
AcDbTrace
10
53.5
20
-60.477588
30
0
11
53.5
21
-59.310921
31
0
12
57
22
-59.894254
32
0
13
57
23
-59.894254
33
0
39
0
210
0
220
0
230
1
0
MTEXT
5
131
100
AcDbEntity
8
0
62
256
6
ByLayer
370
18
48
1
60
0
100
AcDbMText
10
6
20
-52.894254
30
0
210
0
220
0
230
1
1
\A1;102
40
3.5
41
0
44
1
50
0
71
5
72
5
7
iso_b_vert
0
POINT
5
132
100
AcDbEntity
8
Defpoints
62
0
6
ByLayer
370
-1
48
1
60
0
100
AcDbPoint
10
-45
20
-6
30
0
39
0
210
0
220
0
230
1
50
360
0
POINT
5
133
100
AcDbEntity
8
Defpoints
62
0
6
ByLayer
370
-1
48
1
60
0
100
AcDbPoint
10
57
20
-5.5
30
0
39
0
210
0
220
0
230
1
50
360
0
POINT
5
134
100
AcDbEntity
8
Defpoints
62
0
6
ByLayer
370
-1
48
1
60
0
100
AcDbPoint
10
57
20
-59.894254
30
0
39
0
210
0
220
0
230
1
50
360
0
ENDBLK
5
12B
100
AcDbEntity
8
0
100
AcDbBlockEnd
0
BLOCK
5
13C
100
AcDbEntity
8
0
100
AcDbBlockBegin
2
_U0
70
0
10
0
20
0
30
0
3
_U0
0
MTEXT
5
136
100
AcDbEntity
8
2
62
256
6
ByLayer
370
18
48
1
60
0
100
AcDbMText
10
3.224734
20
-58.861621
30
0
210
0
220
0
230
1
1
\W0.6217;102
40
3.5
41
0
44
1.084337
50
0
71
7
72
5
7
iso_b_vert
0
LINE
5
137
100
AcDbEntity
8
2
62
256
6
ByLayer
370
13
48
1
60
0
100
AcDbLine
10
-45
20
-7.5875
30
0
11
-45
21
-61.894254
31
0
39
0
210
0
220
0
230
1
0
LINE
5
138
100
AcDbEntity
8
2
62
256
6
ByLayer
370
13
48
1
60
0
100
AcDbLine
10
57
20
-7.0875
30
0
11
57
21
-61.894254
31
0
39
0
210
0
220
0
230
1
0
LINE
5
139
100
AcDbEntity
8
2
62
256
6
ByLayer
370
13
48
1
60
0
100
AcDbLine
10
-45
20
-59.894254
30
0
11
57
21
-59.894254
31
0
39
0
210
0
220
0
230
1
0
SOLID
5
13A
100
AcDbEntity
8
2
62
256
6
ByLayer
370
18
48
1
60
0
100
AcDbTrace
10
-45
20
-59.894254
30
0
11
-41.500002
21
-59.433471
31
0
12
-41.499998
22
-60.355038
32
0
13
-41.499998
23
-60.355038
33
0
39
0
210
0
220
0
230
1
0
SOLID
5
13B
100
AcDbEntity
8
2
62
256
6
ByLayer
370
18
48
1
60
0
100
AcDbTrace
10
57
20
-59.894254
30
0
11
53.500002
21
-60.355038
31
0
12
53.499998
22
-59.433471
32
0
13
53.499998
23
-59.433471
33
0
39
0
210
0
220
0
230
1
0
ENDBLK
5
13D
100
AcDbEntity
8
0
100
AcDbBlockEnd
0
BLOCK
5
142
100
AcDbEntity
8
0
100
AcDbBlockBegin
2
*D3
70
1
10
0
20
0
30
0
3
*D3
0
LINE
5
144
100
AcDbEntity
8
0
62
256
6
ByLayer
370
-2
48
1
60
0
100
AcDbLine
10
57
20
-7.0875
30
0
11
57
21
-41.894254
31
0
39
0
210
0
220
0
230
1
0
LINE
5
145
100
AcDbEntity
8
0
62
256
6
ByLayer
370
-2
48
1
60
0
100
AcDbLine
10
2
20
-7.0875
30
0
11
2
21
-41.894254
31
0
39
0
210
0
220
0
230
1
0
LINE
5
146
100
AcDbEntity
8
0
62
256
6
ByLayer
370
-2
48
1
60
0
100
AcDbLine
10
53.5
20
-39.894254
30
0
11
5.5
21
-39.894254
31
0
39
0
210
0
220
0
230
1
0
SOLID
5
147
100
AcDbEntity
8
0
62
256
6
ByLayer
370
-1
48
1
60
0
100
AcDbTrace
10
53.5
20
-40.477588
30
0
11
53.5
21
-39.310921
31
0
12
57
22
-39.894254
32
0
13
57
23
-39.894254
33
0
39
0
210
0
220
0
230
1
0
SOLID
5
148
100
AcDbEntity
8
0
62
256
6
ByLayer
370
-1
48
1
60
0
100
AcDbTrace
10
5.5
20
-39.310921
30
0
11
5.5
21
-40.477588
31
0
12
2
22
-39.894254
32
0
13
2
23
-39.894254
33
0
39
0
210
0
220
0
230
1
0
MTEXT
5
149
100
AcDbEntity
8
0
62
256
6
ByLayer
370
18
48
1
60
0
100
AcDbMText
10
29.5
20
-32.894254
30
0
210
0
220
0
230
1
1
\A1;55
40
3.5
41
0
44
1
50
0
71
5
72
5
7
iso_b_vert
0
POINT
5
14A
100
AcDbEntity
8
Defpoints
62
0
6
ByLayer
370
-1
48
1
60
0
100
AcDbPoint
10
57
20
-5.5
30
0
39
0
210
0
220
0
230
1
50
360
0
POINT
5
14B
100
AcDbEntity
8
Defpoints
62
0
6
ByLayer
370
-1
48
1
60
0
100
AcDbPoint
10
2
20
-5.5
30
0
39
0
210
0
220
0
230
1
50
360
0
POINT
5
14C
100
AcDbEntity
8
Defpoints
62
0
6
ByLayer
370
-1
48
1
60
0
100
AcDbPoint
10
2
20
-39.894254
30
0
39
0
210
0
220
0
230
1
50
360
0
ENDBLK
5
143
100
AcDbEntity
8
0
100
AcDbBlockEnd
0
BLOCK
5
154
100
AcDbEntity
8
0
100
AcDbBlockBegin
2
_U1
70
0
10
0
20
0
30
0
3
_U1
0
MTEXT
5
14E
100
AcDbEntity
8
SK2
62
256
6
ByLayer
370
18
48
1
60
0
100
AcDbMText
10
27.595034
20
-38.861621
30
0
210
0
220
0
230
1
1
\W0.6740;55
40
3.5
41
0
44
1.084337
50
0
71
7
72
5
7
iso_b_vert
0
LINE
5
14F
100
AcDbEntity
8
SK2
62
256
6
ByLayer
370
13
48
1
60
0
100
AcDbLine
10
57
20
-7.0875
30
0
11
57
21
-41.894254
31
0
39
0
210
0
220
0
230
1
0
LINE
5
150
100
AcDbEntity
8
SK2
62
256
6
ByLayer
370
13
48
1
60
0
100
AcDbLine
10
2
20
-7.0875
30
0
11
2
21
-41.894254
31
0
39
0
210
0
220
0
230
1
0
LINE
5
151
100
AcDbEntity
8
SK2
62
256
6
ByLayer
370
13
48
1
60
0
100
AcDbLine
10
57
20
-39.894254
30
0
11
2
21
-39.894254
31
0
39
0
210
0
220
0
230
1
0
SOLID
5
152
100
AcDbEntity
8
SK2
62
256
6
ByLayer
370
18
48
1
60
0
100
AcDbTrace
10
57
20
-39.894254
30
0
11
53.500002
21
-40.355038
31
0
12
53.499998
22
-39.433471
32
0
13
53.499998
23
-39.433471
33
0
39
0
210
0
220
0
230
1
0
SOLID
5
153
100
AcDbEntity
8
SK2
62
256
6
ByLayer
370
18
48
1
60
0
100
AcDbTrace
10
2
20
-39.894254
30
0
11
5.499998
21
-39.433471
31
0
12
5.500002
22
-40.355038
32
0
13
5.500002
23
-40.355038
33
0
39
0
210
0
220
0
230
1
0
ENDBLK
5
155
100
AcDbEntity
8
0
100
AcDbBlockEnd
0
BLOCK
5
15A
100
AcDbEntity
8
0
100
AcDbBlockBegin
2
*D5
70
1
10
0
20
0
30
0
3
*D5
0
LINE
5
15C
100
AcDbEntity
8
0
62
256
6
ByLayer
370
-2
48
1
60
0
100
AcDbLine
10
57
20
-7.0875
30
0
11
57
21
-31.894254
31
0
39
0
210
0
220
0
230
1
0
LINE
5
15D
100
AcDbEntity
8
0
62
256
6
ByLayer
370
-2
48
1
60
0
100
AcDbLine
10
17
20
-7.0875
30
0
11
17
21
-31.894254
31
0
39
0
210
0
220
0
230
1
0
LINE
5
15E
100
AcDbEntity
8
0
62
256
6
ByLayer
370
-2
48
1
60
0
100
AcDbLine
10
53.5
20
-29.894254
30
0
11
20.5
21
-29.894254
31
0
39
0
210
0
220
0
230
1
0
SOLID
5
15F
100
AcDbEntity
8
0
62
256
6
ByLayer
370
-1
48
1
60
0
100
AcDbTrace
10
53.5
20
-30.477588
30
0
11
53.5
21
-29.310921
31
0
12
57
22
-29.894254
32
0
13
57
23
-29.894254
33
0
39
0
210
0
220
0
230
1
0
SOLID
5
160
100
AcDbEntity
8
0
62
256
6
ByLayer
370
-1
48
1
60
0
100
AcDbTrace
10
20.5
20
-29.310921
30
0
11
20.5
21
-30.477588
31
0
12
17
22
-29.894254
32
0
13
17
23
-29.894254
33
0
39
0
210
0
220
0
230
1
0
MTEXT
5
161
100
AcDbEntity
8
0
62
256
6
ByLayer
370
18
48
1
60
0
100
AcDbMText
10
37
20
-22.894254
30
0
210
0
220
0
230
1
1
\A1;40
40
3.5
41
0
44
1
50
0
71
5
72
5
7
iso_b_vert
0
POINT
5
162
100
AcDbEntity
8
Defpoints
62
0
6
ByLayer
370
-1
48
1
60
0
100
AcDbPoint
10
57
20
-5.5
30
0
39
0
210
0
220
0
230
1
50
360
0
POINT
5
163
100
AcDbEntity
8
Defpoints
62
0
6
ByLayer
370
-1
48
1
60
0
100
AcDbPoint
10
17
20
-5.5
30
0
39
0
210
0
220
0
230
1
50
360
0
POINT
5
164
100
AcDbEntity
8
Defpoints
62
0
6
ByLayer
370
-1
48
1
60
0
100
AcDbPoint
10
17
20
-29.894254
30
0
39
0
210
0
220
0
230
1
50
360
0
ENDBLK
5
15B
100
AcDbEntity
8
0
100
AcDbBlockEnd
0
BLOCK
5
16E
100
AcDbEntity
8
0
100
AcDbBlockBegin
2
_U2
70
0
10
0
20
0
30
0
3
_U2
0
MTEXT
5
166
100
AcDbEntity
8
SK2
62
256
6
ByLayer
370
18
48
1
60
0
100
AcDbMText
10
34.910767
20
-28.861621
30
0
210
0
220
0
230
1
1
\W0.7361;40
40
3.5
41
0
44
1.084337
50
0
71
7
72
5
7
iso_b_vert
0
MTEXT
5
167
100
AcDbEntity
8
SK2
62
256
6
ByLayer
370
18
48
1
60
0
100
AcDbMText
10
31.042768
20
-28.861621
30
0
210
0
220
0
230
1
1
\W0.1790;(
40
3.5
41
0
44
1.084337
50
0
71
7
72
5
7
iso_b_vert
0
MTEXT
5
168
100
AcDbEntity
8
SK2
62
256
6
ByLayer
370
18
48
1
60
0
100
AcDbMText
10
42.960233
20
-28.861621
30
0
210
0
220
0
230
1
1
\W0.1969;)
40
3.5
41
0
44
1.084337
50
0
71
7
72
5
7
iso_b_vert
0
LINE
5
169
100
AcDbEntity
8
SK2
62
256
6
ByLayer
370
13
48
1
60
0
100
AcDbLine
10
57
20
-7.0875
30
0
11
57
21
-31.894254
31
0
39
0
210
0
220
0
230
1
0
LINE
5
16A
100
AcDbEntity
8
SK2
62
256
6
ByLayer
370
13
48
1
60
0
100
AcDbLine
10
17
20
-7.0875
30
0
11
17
21
-31.894254
31
0
39
0
210
0
220
0
230
1
0
LINE
5
16B
100
AcDbEntity
8
SK2
62
256
6
ByLayer
370
13
48
1
60
0
100
AcDbLine
10
57
20
-29.894254
30
0
11
17
21
-29.894254
31
0
39
0
210
0
220
0
230
1
0
SOLID
5
16C
100
AcDbEntity
8
SK2
62
256
6
ByLayer
370
18
48
1
60
0
100
AcDbTrace
10
57
20
-29.894254
30
0
11
53.500002
21
-30.355038
31
0
12
53.499998
22
-29.433471
32
0
13
53.499998
23
-29.433471
33
0
39
0
210
0
220
0
230
1
0
SOLID
5
16D
100
AcDbEntity
8
SK2
62
256
6
ByLayer
370
18
48
1
60
0
100
AcDbTrace
10
17
20
-29.894254
30
0
11
20.499998
21
-29.433471
31
0
12
20.500002
22
-30.355038
32
0
13
20.500002
23
-30.355038
33
0
39
0
210
0
220
0
230
1
0
ENDBLK
5
16F
100
AcDbEntity
8
0
100
AcDbBlockEnd
0
BLOCK
5
174
100
AcDbEntity
8
0
100
AcDbBlockBegin
2
*D7
70
1
10
0
20
0
30
0
3
*D7
0
LINE
5
176
100
AcDbEntity
8
0
62
256
6
ByLayer
370
-2
48
1
60
0
100
AcDbLine
10
-45
20
-7.5875
30
0
11
-45
21
-41.894254
31
0
39
0
210
0
220
0
230
1
0
LINE
5
177
100
AcDbEntity
8
0
62
256
6
ByLayer
370
-2
48
1
60
0
100
AcDbLine
10
0
20
-7.5875
30
0
11
0
21
-41.894254
31
0
39
0
210
0
220
0
230
1
0
LINE
5
178
100
AcDbEntity
8
0
62
256
6
ByLayer
370
-2
48
1
60
0
100
AcDbLine
10
-41.5
20
-39.894254
30
0
11
-3.5
21
-39.894254
31
0
39
0
210
0
220
0
230
1
0
SOLID
5
179
100
AcDbEntity
8
0
62
256
6
ByLayer
370
-1
48
1
60
0
100
AcDbTrace
10
-41.5
20
-39.310921
30
0
11
-41.5
21
-40.477588
31
0
12
-45
22
-39.894254
32
0
13
-45
23
-39.894254
33
0
39
0
210
0
220
0
230
1
0
SOLID
5
17A
100
AcDbEntity
8
0
62
256
6
ByLayer
370
-1
48
1
60
0
100
AcDbTrace
10
-3.5
20
-40.477588
30
0
11
-3.5
21
-39.310921
31
0
12
0
22
-39.894254
32
0
13
0
23
-39.894254
33
0
39
0
210
0
220
0
230
1
0
MTEXT
5
17B
100
AcDbEntity
8
0
62
256
6
ByLayer
370
18
48
1
60
0
100
AcDbMText
10
-22.5
20
-32.894254
30
0
210
0
220
0
230
1
1
\A1;45
40
3.5
41
0
44
1
50
0
71
5
72
5
7
iso_b_vert
0
POINT
5
17C
100
AcDbEntity
8
Defpoints
62
0
6
ByLayer
370
-1
48
1
60
0
100
AcDbPoint
10
-45
20
-6
30
0
39
0
210
0
220
0
230
1
50
360
0
POINT
5
17D
100
AcDbEntity
8
Defpoints
62
0
6
ByLayer
370
-1
48
1
60
0
100
AcDbPoint
10
0
20
-6
30
0
39
0
210
0
220
0
230
1
50
360
0
POINT
5
17E
100
AcDbEntity
8
Defpoints
62
0
6
ByLayer
370
-1
48
1
60
0
100
AcDbPoint
10
0
20
-39.894254
30
0
39
0
210
0
220
0
230
1
50
360
0
ENDBLK
5
175
100
AcDbEntity
8
0
100
AcDbBlockEnd
0
BLOCK
5
186
100
AcDbEntity
8
0
100
AcDbBlockBegin
2
_U3
70
0
10
0
20
0
30
0
3
_U3
0
MTEXT
5
180
100
AcDbEntity
8
SK2
62
256
6
ByLayer
370
18
48
1
60
0
100
AcDbMText
10
-24.589233
20
-38.861621
30
0
210
0
220
0
230
1
1
\W0.7361;45
40
3.5
41
0
44
1.084337
50
0
71
7
72
5
7
iso_b_vert
0
LINE
5
181
100
AcDbEntity
8
SK2
62
256
6
ByLayer
370
13
48
1
60
0
100
AcDbLine
10
-45
20
-7.5875
30
0
11
-45
21
-41.894254
31
0
39
0
210
0
220
0
230
1
0
LINE
5
182
100
AcDbEntity
8
SK2
62
256
6
ByLayer
370
13
48
1
60
0
100
AcDbLine
10
0
20
-7.5875
30
0
11
0
21
-41.894254
31
0
39
0
210
0
220
0
230
1
0
LINE
5
183
100
AcDbEntity
8
SK2
62
256
6
ByLayer
370
13
48
1
60
0
100
AcDbLine
10
-45
20
-39.894254
30
0
11
0
21
-39.894254
31
0
39
0
210
0
220
0
230
1
0
SOLID
5
184
100
AcDbEntity
8
SK2
62
256
6
ByLayer
370
18
48
1
60
0
100
AcDbTrace
10
-45
20
-39.894254
30
0
11
-41.500002
21
-39.433471
31
0
12
-41.499998
22
-40.355038
32
0
13
-41.499998
23
-40.355038
33
0
39
0
210
0
220
0
230
1
0
SOLID
5
185
100
AcDbEntity
8
SK2
62
256
6
ByLayer
370
18
48
1
60
0
100
AcDbTrace
10
0
20
-39.894254
30
0
11
-3.499998
21
-40.355038
31
0
12
-3.500002
22
-39.433471
32
0
13
-3.500002
23
-39.433471
33
0
39
0
210
0
220
0
230
1
0
ENDBLK
5
187
100
AcDbEntity
8
0
100
AcDbBlockEnd
0
BLOCK
5
18C
100
AcDbEntity
8
0
100
AcDbBlockBegin
2
*D9
70
1
10
0
20
0
30
0
3
*D9
0
LINE
5
18E
100
AcDbEntity
8
0
62
256
6
ByLayer
370
-2
48
1
60
0
100
AcDbLine
10
0
20
-7.5875
30
0
11
0
21
-51.894254
31
0
39
0
210
0
220
0
230
1
0
LINE
5
18F
100
AcDbEntity
8
0
62
256
6
ByLayer
370
-2
48
1
60
0
100
AcDbLine
10
57
20
-7.0875
30
0
11
57
21
-51.894254
31
0
39
0
210
0
220
0
230
1
0
LINE
5
190
100
AcDbEntity
8
0
62
256
6
ByLayer
370
-2
48
1
60
0
100
AcDbLine
10
3.5
20
-49.894254
30
0
11
53.5
21
-49.894254
31
0
39
0
210
0
220
0
230
1
0
SOLID
5
191
100
AcDbEntity
8
0
62
256
6
ByLayer
370
-1
48
1
60
0
100
AcDbTrace
10
3.5
20
-49.310921
30
0
11
3.5
21
-50.477588
31
0
12
0
22
-49.894254
32
0
13
0
23
-49.894254
33
0
39
0
210
0
220
0
230
1
0
SOLID
5
192
100
AcDbEntity
8
0
62
256
6
ByLayer
370
-1
48
1
60
0
100
AcDbTrace
10
53.5
20
-50.477588
30
0
11
53.5
21
-49.310921
31
0
12
57
22
-49.894254
32
0
13
57
23
-49.894254
33
0
39
0
210
0
220
0
230
1
0
MTEXT
5
193
100
AcDbEntity
8
0
62
256
6
ByLayer
370
18
48
1
60
0
100
AcDbMText
10
28.5
20
-42.894254
30
0
210
0
220
0
230
1
1
\A1;57
40
3.5
41
0
44
1
50
0
71
5
72
5
7
iso_b_vert
0
POINT
5
194
100
AcDbEntity
8
Defpoints
62
0
6
ByLayer
370
-1
48
1
60
0
100
AcDbPoint
10
0
20
-6
30
0
39
0
210
0
220
0
230
1
50
360
0
POINT
5
195
100
AcDbEntity
8
Defpoints
62
0
6
ByLayer
370
-1
48
1
60
0
100
AcDbPoint
10
57
20
-5.5
30
0
39
0
210
0
220
0
230
1
50
360
0
POINT
5
196
100
AcDbEntity
8
Defpoints
62
0
6
ByLayer
370
-1
48
1
60
0
100
AcDbPoint
10
57
20
-49.894254
30
0
39
0
210
0
220
0
230
1
50
360
0
ENDBLK
5
18D
100
AcDbEntity
8
0
100
AcDbBlockEnd
0
BLOCK
5
19E
100
AcDbEntity
8
0
100
AcDbBlockBegin
2
_U4
70
0
10
0
20
0
30
0
3
_U4
0
MTEXT
5
198
100
AcDbEntity
8
SK2
62
256
6
ByLayer
370
18
48
1
60
0
100
AcDbMText
10
26.595034
20
-48.861621
30
0
210
0
220
0
230
1
1
\W0.6740;57
40
3.5
41
0
44
1.084337
50
0
71
7
72
5
7
iso_b_vert
0
LINE
5
199
100
AcDbEntity
8
SK2
62
256
6
ByLayer
370
13
48
1
60
0
100
AcDbLine
10
0
20
-7.5875
30
0
11
0
21
-51.894254
31
0
39
0
210
0
220
0
230
1
0
LINE
5
19A
100
AcDbEntity
8
SK2
62
256
6
ByLayer
370
13
48
1
60
0
100
AcDbLine
10
57
20
-7.0875
30
0
11
57
21
-51.894254
31
0
39
0
210
0
220
0
230
1
0
LINE
5
19B
100
AcDbEntity
8
SK2
62
256
6
ByLayer
370
13
48
1
60
0
100
AcDbLine
10
0
20
-49.894254
30
0
11
57
21
-49.894254
31
0
39
0
210
0
220
0
230
1
0
SOLID
5
19C
100
AcDbEntity
8
SK2
62
256
6
ByLayer
370
18
48
1
60
0
100
AcDbTrace
10
0
20
-49.894254
30
0
11
3.499998
21
-49.433471
31
0
12
3.500002
22
-50.355038
32
0
13
3.500002
23
-50.355038
33
0
39
0
210
0
220
0
230
1
0
SOLID
5
19D
100
AcDbEntity
8
SK2
62
256
6
ByLayer
370
18
48
1
60
0
100
AcDbTrace
10
57
20
-49.894254
30
0
11
53.500002
21
-50.355038
31
0
12
53.499998
22
-49.433471
32
0
13
53.499998
23
-49.433471
33
0
39
0
210
0
220
0
230
1
0
ENDBLK
5
19F
100
AcDbEntity
8
0
100
AcDbBlockEnd
0
ENDSEC
0
SECTION
2
ENTITIES
0
ARC
5
C0
100
AcDbEntity
8
1
62
256
6
ByLayer
370
18
48
1
60
0
100
AcDbCircle
39
0
10
1.192876
20
6.266371
30
0
40
0.800000000000001
210
0
220
0
230
1
100
AcDbArc
50
222.153195
51
270.03581
0
ARC
5
C1
100
AcDbEntity
8
1
62
256
6
ByLayer
370
18
48
1
60
0
100
AcDbCircle
39
0
10
1.192876
20
-6.266371
30
0
40
0.800000000000001
210
0
220
0
230
1
100
AcDbArc
50
89.96419
51
137.846805
0
ARC
5
C2
100
AcDbEntity
8
1
62
256
6
ByLayer
370
18
48
1
60
0
100
AcDbCircle
39
0
10
0
20
5.2
30
0
40
0.800000000000002
210
0
220
0
230
1
100
AcDbArc
50
42.153195
51
90
0
ARC
5
C3
100
AcDbEntity
8
1
62
256
6
ByLayer
370
18
48
1
60
0
100
AcDbCircle
39
0
10
0
20
-5.2
30
0
40
0.800000000000002
210
0
220
0
230
1
100
AcDbArc
50
270
51
317.846805
0
ARC
5
C4
100
AcDbEntity
8
SK2
62
256
6
ByLayer
370
13
48
1
60
0
100
AcDbCircle
39
0
10
57
20
0
30
0
40
33.4522944890927
210
0
220
0
230
1
100
AcDbArc
50
5.575267
51
69.998494
0
ARC
5
C5
100
AcDbEntity
8
SK2
62
256
6
ByLayer
370
13
48
1
60
0
100
AcDbCircle
39
0
10
57
20
0
30
0
40
33.4522944890927
210
0
220
0
230
1
100
AcDbArc
50
290.001506
51
354.424733
0
ELLIPSE
5
C6
100
AcDbEntity
8
1
62
256
6
ByLayer
370
18
48
1
60
0
100
AcDbEllipse
10
3.75
20
-5.443564
30
0
11
0.25
21
0
31
0
210
0
220
0
230
1
40
0.999999
41
1.5723832259524
42
3.13152392431576
0
ELLIPSE
5
C7
100
AcDbEntity
8
1
62
256
6
ByLayer
370
18
48
1
60
0
100
AcDbEllipse
10
3.75
20
5.443564
30
0
11
0.25
21
0
31
0
210
0
220
0
230
1
40
0.999999
41
-3.13152392431571
42
-1.56395188680596
0
POINT
5
70
100
AcDbEntity
8
80
62
256
6
ByLayer
370
18
48
1
60
0
100
AcDbPoint
10
0
20
0
30
0
39
0
210
0
220
0
230
1
50
360
0
POINT
5
72
100
AcDbEntity
8
81
62
256
6
ByLayer
370
18
48
1
60
0
100
AcDbPoint
10
57
20
0
30
0
39
0
210
0
220
0
230
1
50
360
0
POINT
5
74
100
AcDbEntity
8
1
62
256
6
ByLayer
370
18
48
1
60
0
100
AcDbPoint
10
-211.948853
20
-169.63045
30
0
39
0
210
0
220
0
230
1
50
360
0
POINT
5
76
100
AcDbEntity
8
1
62
256
6
ByLayer
370
13
48
1
60
1
100
AcDbPoint
10
-46.5
20
0
30
0
39
0
210
0
220
0
230
1
50
360
0
POINT
5
77
100
AcDbEntity
8
1
62
256
6
ByLayer
370
13
48
1
60
1
100
AcDbPoint
10
56.560051
20
0
30
0
39
0
210
0
220
0
230
1
50
360
0
POINT
5
78
100
AcDbEntity
8
1
62
256
6
ByLayer
370
18
48
1
60
1
100
AcDbPoint
10
-45
20
-6
30
0
39
0
210
0
220
0
230
1
50
360
0
POINT
5
79
100
AcDbEntity
8
1
62
256
6
ByLayer
370
18
48
1
60
1
100
AcDbPoint
10
57
20
-5.5
30
0
39
0
210
0
220
0
230
1
50
360
0
POINT
5
7A
100
AcDbEntity
8
1
62
256
6
ByLayer
370
18
48
1
60
1
100
AcDbPoint
10
57
20
-5.5
30
0
39
0
210
0
220
0
230
1
50
360
0
POINT
5
7B
100
AcDbEntity
8
1
62
256
6
ByLayer
370
18
48
1
60
1
100
AcDbPoint
10
2
20
-5.5
30
0
39
0
210
0
220
0
230
1
50
360
0
POINT
5
7C
100
AcDbEntity
8
1
62
256
6
ByLayer
370
18
48
1
60
1
100
AcDbPoint
10
57
20
-5.5
30
0
39
0
210
0
220
0
230
1
50
360
0
POINT
5
7D
100
AcDbEntity
8
1
62
256
6
ByLayer
370
18
48
1
60
1
100
AcDbPoint
10
17
20
-5.5
30
0
39
0
210
0
220
0
230
1
50
360
0
POINT
5
7E
100
AcDbEntity
8
1
62
256
6
ByLayer
370
18
48
1
60
1
100
AcDbPoint
10
-45
20
-6
30
0
39
0
210
0
220
0
230
1
50
360
0
POINT
5
7F
100
AcDbEntity
8
1
62
256
6
ByLayer
370
18
48
1
60
1
100
AcDbPoint
10
0
20
-6
30
0
39
0
210
0
220
0
230
1
50
360
0
POINT
5
80
100
AcDbEntity
8
1
62
256
6
ByLayer
370
18
48
1
60
1
100
AcDbPoint
10
0
20
-6
30
0
39
0
210
0
220
0
230
1
50
360
0
POINT
5
81
100
AcDbEntity
8
1
62
256
6
ByLayer
370
18
48
1
60
1
100
AcDbPoint
10
57
20
-5.5
30
0
39
0
210
0
220
0
230
1
50
360
0
SPLINE
5
C8
100
AcDbEntity
8
1
62
256
6
ByLayer
370
18
48
1
60
0
100
AcDbSpline
70
4
71
3
72
24
73
20
40
0
40
0
40
0
40
0
40
0.500000000000057
40
0.500000000000057
40
0.750000000000068
40
0.750000000000068
40
0.875000000000089
40
0.875000000000089
40
0.937500000000079
40
0.937500000000079
40
0.968750000000074
40
0.968750000000074
40
0.984375000000071
40
0.984375000000071
40
0.992187500000052
40
0.992187500000052
40
0.996093750000026
40
0.996093750000026
40
1
40
1
40
1
40
1
41
1
10
54.9998158329213
20
5.49996514618061
30
0
41
1
10
55.0197508509581
20
5.45445545485342
30
0
41
1
10
55.0400726561668
20
5.40894879615985
30
0
41
1
10
55.0711290011006
20
5.34068147974185
30
0
41
1
10
55.0815759031306
20
5.31792726332125
30
0
41
1
10
55.0973866325805
20
5.28380113212629
30
0
41
1
10
55.1026807888059
20
5.27242451670676
30
0
41
1
10
55.1106605463816
20
5.25534620172743
30
0
41
1
10
55.1133278260275
20
5.24964739608836
30
0
41
1
10
55.1173349707089
20
5.24110954843556
30
0
41
1
10
55.1186710840759
20
5.23826791239554
30
0
41
1
10
55.1206753691129
20
5.23401389304362
30
0
41
1
10
55.1213439531912
20
5.2325953972061
30
0
41
1
10
55.1223505538891
20
5.23045474443745
30
0
41
1
10
55.1226879307736
20
5.22973432929263
30
0
41
1
10
55.1231910273734
20
5.22866538579697
30
0
41
1
10
55.1233575389002
20
5.22831365256343
30
0
41
1
10
55.1236750682735
20
5.22766902050043
30
0
41
1
10
55.123835487455
20
5.22735342134217
30
0
41
1
10
55.1239406107715
20
5.22720712514626
30
0
0
SPLINE
5
C9
100
AcDbEntity
8
1
62
256
6
ByLayer
370
18
48
1
60
0
100
AcDbSpline
70
4
71
3
72
8
73
4
40
0
40
0
40
0
40
0
40
1
40
1
40
1
40
1
41
1
10
56.4957091849877
20
1.75745499876027
30
0
41
1
10
56.6668799258543
20
1.27456606719477
30
0
41
1
10
56.8333110038217
20
0.789973789496742
30
0
41
1
10
56.9949280870282
20
0.303651452186216
30
0
0
SPLINE
5
CA
100
AcDbEntity
8
1
62
256
6
ByLayer
370
18
48
1
60
0
100
AcDbSpline
70
4
71
3
72
24
73
20
40
0
40
0
40
0
40
0
40
0.273541584044767
40
0.273541584044767
40
0.341926980055979
40
0.341926980055979
40
0.410312376067191
40
0.410312376067191
40
0.547083168089615
40
0.547083168089615
40
0.683853960112039
40
0.683853960112039
40
0.752239356123251
40
0.752239356123251
40
0.820624752134462
40
0.820624752134462
40
0.957395544156886
40
0.957395544156886
40
1
40
1
40
1
40
1
41
1
10
55.5825270490124
20
1.54619387244762
30
0
41
1
10
55.496445751569
20
1.53184861728843
30
0
41
1
10
55.4134095259582
20
1.50987616143226
30
0
41
1
10
55.3134650297182
20
1.47381118925412
30
0
41
1
10
55.2936688352873
20
1.46616982874741
30
0
41
1
10
55.2544626391718
20
1.45006508203647
30
0
41
1
10
55.2351813406568
20
1.44165273757525
30
0
41
1
10
55.1787017867545
20
1.41565705458598
30
0
41
1
10
55.1426751434838
20
1.39723992546811
30
0
41
1
10
55.0736115477118
20
1.35889401844958
30
0
41
1
10
55.0405713200151
20
1.33896947146562
30
0
41
1
10
54.9931505429866
20
1.30835689921824
30
0
41
1
10
54.9777333074645
20
1.29804912294009
30
0
41
1
10
54.9480243602551
20
1.27755463692264
30
0
41
1
10
54.9336761389042
20
1.2673318653531
30
0
41
1
10
54.8920753866359
20
1.23682586686391
30
0
41
1
10
54.8662575139638
20
1.21671025834158
30
0
41
1
10
54.8347655939468
20
1.19088070633359
30
0
41
1
10
54.8274618400728
20
1.18478615224544
30
0
41
1
10
54.8203342140039
20
1.17873625276047
30
0
0
SPLINE
5
CB
100
AcDbEntity
8
1
62
256
6
ByLayer
370
18
48
1
60
0
100
AcDbSpline
70
4
71
3
72
12
73
8
40
0
40
0
40
0
40
0
40
0.25
40
0.25
40
0.5
40
0.5
40
1
40
1
40
1
40
1
41
1
10
56.4957091849878
20
1.75745499875964
30
0
41
1
10
56.4208933441773
20
1.73359503184645
30
0
41
1
10
56.3456191069287
20
1.71197041023987
30
0
41
1
10
56.1945079613473
20
1.67146500197524
30
0
41
1
10
56.1186292726487
20
1.6527879549995
30
0
41
1
10
55.8901192284721
20
1.60101872066428
30
0
41
1
10
55.736676622318
20
1.57188255311843
30
0
41
1
10
55.5825270490124
20
1.54619387244764
30
0
0
SPLINE
5
CC
100
AcDbEntity
8
1
62
256
6
ByLayer
370
18
48
1
60
0
100
AcDbSpline
70
4
71
3
72
31
73
27
40
0
40
0
40
0
40
0
40
0.0625000000000065
40
0.0625000000000065
40
0.0937500000000074
40
0.0937500000000074
40
0.125000000000008
40
0.250000000000012
40
0.250000000000012
40
0.375000000000016
40
0.375000000000016
40
0.406250000000017
40
0.406250000000017
40
0.421875000000017
40
0.421875000000017
40
0.437500000000017
40
0.437500000000017
40
0.500000000000016
40
0.500000000000016
40
0.625000000000012
40
0.625000000000012
40
0.750000000000008
40
0.750000000000008
40
0.875000000000004
40
0.875000000000004
40
1
40
1
40
1
40
1
41
1
10
56.4957091849877
20
1.75745499876029
30
0
41
1
10
56.4596110544763
20
1.81925729228431
30
0
41
1
10
56.4240395616697
20
1.88274152278507
30
0
41
1
10
56.3714268013521
20
1.98061952206629
30
0
41
1
10
56.3540485603476
20
2.01362405089281
30
0
41
1
10
56.3198078738546
20
2.07998127910418
30
0
41
1
10
56.2353357092165
20
2.24703538177815
30
0
41
1
10
56.1562822330191
20
2.41980723073141
30
0
41
1
10
56.0352991499563
20
2.70299659385282
30
0
41
1
10
55.9775592217684
20
2.84796658904918
30
0
41
1
10
55.9078511390901
20
3.03309182348323
30
0
41
1
10
55.8940174228741
20
3.07035688499809
30
0
41
1
10
55.8735231189847
20
3.1262800626686
30
0
41
1
10
55.8667316111146
20
3.14493198585029
30
0
41
1
10
55.8532231898004
20
3.18225579759195
30
0
41
1
10
55.8465142982862
20
3.20092984496446
30
0
41
1
10
55.8130164833941
20
3.29431148745312
30
0
41
1
10
55.7862879102186
20
3.36903405801294
30
0
41
1
10
55.7062888848791
20
3.59318642103878
30
0
41
1
10
55.6532064751087
20
3.74260750585435
30
0
41
1
10
55.5473641770274
20
4.04108885900166
30
0
41
1
10
55.4945947440723
20
4.19017468374417
30
0
41
1
10
55.3890429551223
20
4.4878698531993
30
0
41
1
10
55.3362419461022
20
4.63653922837062
30
0
41
1
10
55.2303965443986
20
4.93273597189958
30
0
41
1
10
55.177341336719
20
5.08029664457627
30
0
41
1
10
55.1239406106051
20
5.22720712535815
30
0
0
SPLINE
5
CD
100
AcDbEntity
8
1
62
256
6
ByLayer
370
18
48
1
60
0
100
AcDbSpline
70
4
71
3
72
29
73
25
40
0
40
0
40
0
40
0
40
0.126839162152956
40
0.126839162152956
40
0.190258743229434
40
0.190258743229434
40
0.221968533767675
40
0.253678324305916
40
0.253678324305916
40
0.380517486458889
40
0.380517486458889
40
0.507356648611863
40
0.507356648611863
40
0.634195810764835
40
0.634195810764835
40
0.697615391841322
40
0.697615391841322
40
0.761034972917808
40
0.761034972917808
40
0.887874135070777
40
0.887874135070777
40
0.95129371614726
40
0.95129371614726
40
1
40
1
40
1
40
1
41
1
10
55.1239406106308
20
5.22720712537534
30
0
41
1
10
54.8002977748144
20
5.23499349990271
30
0
41
1
10
54.4765685944634
20
5.23522391009107
30
0
41
1
10
53.9904453839408
20
5.22423337305759
30
0
41
1
10
53.828305247309
20
5.21867116450969
30
0
41
1
10
53.5848912959973
20
5.20747123721802
30
0
41
1
10
53.422499298988
20
5.19904922818887
30
0
41
1
10
53.2602473225596
20
5.18874098951761
30
0
41
1
10
52.8547726797373
20
5.16062347316503
30
0
41
1
10
52.5308942662703
20
5.13063018020196
30
0
41
1
10
51.8836641214645
20
5.05574183037086
30
0
41
1
10
51.5602953483431
20
5.01082837647027
30
0
41
1
10
50.9133664274832
20
4.90654837363829
30
0
41
1
10
50.5898155475285
20
4.84719428408033
30
0
41
1
10
50.1040118744448
20
4.74766589994692
30
0
41
1
10
49.9420034975439
20
4.71273517190187
30
0
41
1
10
49.6177311284968
20
4.63942491913366
30
0
41
1
10
49.455413428174
20
4.60103231141113
30
0
41
1
10
48.9683612479399
20
4.48085499922288
30
0
41
1
10
48.6437319501786
20
4.39414134708457
30
0
41
1
10
48.1566380747599
20
4.25448943716893
30
0
41
1
10
47.9942811186571
20
4.206346095084
30
0
41
1
10
47.7072443452617
20
4.118492535641
30
0
41
1
10
47.5825493113463
20
4.07941407583564
30
0
41
1
10
47.4579082665992
20
4.03947932244401
30
0
0
SPLINE
5
CE
100
AcDbEntity
8
1
62
256
6
ByLayer
370
18
48
1
60
0
100
AcDbSpline
70
2053
71
3
72
118
73
114
40
0
40
0
40
0
40
0
40
0.0312499999999964
40
0.0312499999999964
40
0.0624999999999928
40
0.0624999999999928
40
0.0937499999999891
40
0.0937499999999891
40
0.109374999999987
40
0.109374999999987
40
0.124999999999986
40
0.124999999999986
40
0.156249999999982
40
0.156249999999982
40
0.17187499999998
40
0.17187499999998
40
0.187499999999979
40
0.187499999999979
40
0.218749999999975
40
0.218749999999975
40
0.234374999999974
40
0.234374999999974
40
0.242187499999974
40
0.242187499999974
40
0.249999999999973
40
0.249999999999973
40
0.281249999999971
40
0.281249999999971
40
0.296874999999969
40
0.296874999999969
40
0.304687499999969
40
0.304687499999969
40
0.312499999999968
40
0.312499999999968
40
0.343749999999965
40
0.343749999999965
40
0.351562499999965
40
0.351562499999965
40
0.359374999999964
40
0.359374999999964
40
0.374999999999964
40
0.390624999999963
40
0.390624999999963
40
0.398437499999962
40
0.398437499999962
40
0.406249999999962
40
0.406249999999962
40
0.437499999999964
40
0.437499999999964
40
0.445312499999965
40
0.445312499999965
40
0.453124999999965
40
0.468749999999964
40
0.484374999999962
40
0.484374999999962
40
0.492187499999963
40
0.492187499999963
40
0.499999999999963
40
0.499999999999963
40
0.531249999999963
40
0.531249999999963
40
0.546874999999963
40
0.546874999999963
40
0.562499999999963
40
0.562499999999963
40
0.593749999999963
40
0.593749999999963
40
0.609374999999963
40
0.609374999999963
40
0.624999999999962
40
0.624999999999962
40
0.656249999999964
40
0.656249999999964
40
0.664062499999965
40
0.664062499999965
40
0.671874999999965
40
0.671874999999965
40
0.687499999999968
40
0.687499999999968
40
0.718749999999975
40
0.718749999999975
40
0.734374999999978
40
0.734374999999978
40
0.749999999999982
40
0.765624999999986
40
0.765624999999986
40
0.781249999999989
40
0.781249999999989
40
0.812499999999997
40
0.812499999999997
40
0.820312499999999
40
0.820312499999999
40
0.828125
40
0.828125
40
0.843750000000003
40
0.859375000000006
40
0.859375000000006
40
0.867187500000007
40
0.867187500000007
40
0.875000000000007
40
0.875000000000007
40
0.906250000000006
40
0.906250000000006
40
0.937500000000004
40
0.937500000000004
40
0.953125000000003
40
0.953125000000003
40
0.968750000000002
40
0.984375000000001
40
0.984375000000001
40
0.9921875
40
0.9921875
40
1
40
1
40
1
40
1
41
1
10
55.4472321210578
20
-2.52714424329247
30
0
41
1
10
55.426745778047
20
-2.55419159368478
30
0
41
1
10
55.4069805198105
20
-2.57637409378845
30
0
41
1
10
55.3685956630488
20
-2.6116825723156
30
0
41
1
10
55.3499598145137
20
-2.62481165117441
30
0
41
1
10
55.3136623674184
20
-2.64165736944878
30
0
41
1
10
55.2964731532535
20
-2.64516139731492
30
0
41
1
10
55.2718336553509
20
-2.64330584300228
30
0
41
1
10
55.2638125907808
20
-2.64149470703904
30
0
41
1
10
55.2481195403014
20
-2.6354457839887
30
0
41
1
10
55.2404327620517
20
-2.63119718522839
30
0
41
1
10
55.2179497794413
20
-2.61472966939573
30
0
41
1
10
55.2040262331005
20
-2.59906219122476
30
0
41
1
10
55.1844912280129
20
-2.56865212575514
30
0
41
1
10
55.1782066784903
20
-2.55735715823295
30
0
41
1
10
55.1660745242516
20
-2.5323860833216
30
0
41
1
10
55.1602199705563
20
-2.51869211813238
30
0
41
1
10
55.1433533422626
20
-2.47395607747609
30
0
41
1
10
55.1333260153164
20
-2.44010111253542
30
0
41
1
10
55.1200326998458
20
-2.38328475091066
30
0
41
1
10
55.1158958676451
20
-2.36333377358338
30
0
41
1
10
55.110151515078
20
-2.33182504784423
30
0
41
1
10
55.1083137629634
20
-2.32105793645829
30
0
41
1
10
55.104798479796
20
-2.29897794235473
30
0
41
1
10
55.1031167180573
20
-2.2876336282518
30
0
41
1
10
55.0951818970699
20
-2.22987903814931
30
0
41
1
10
55.0903869205392
20
-2.18090848603649
30
0
41
1
10
55.0857363975609
20
-2.10321608474723
30
0
41
1
10
55.0846140851675
20
-2.07660725300033
30
0
41
1
10
55.083644929514
20
-2.03556029403012
30
0
41
1
10
55.0834412930697
20
-2.02168858794084
30
0
41
1
10
55.0832900961386
20
-1.99354917934866
30
0
41
1
10
55.0833436325344
20
-1.97937519322144
30
0
41
1
10
55.0842692734619
20
-1.90842002112416
30
0
41
1
10
55.0870852608392
20
-1.85095640294918
30
0
41
1
10
55.0936138038815
20
-1.77823763515965
30
0
41
1
10
55.095071711248
20
-1.76364894211952
30
0
41
1
10
55.0983101166745
20
-1.73437926697312
30
0
41
1
10
55.1000985755759
20
-1.71964250964106
30
0
41
1
10
55.1059019306126
20
-1.67585994903106
30
0
41
1
10
55.1148107088481
20
-1.61847574685566
30
0
41
1
10
55.1261115332486
20
-1.56303962249578
30
0
41
1
10
55.1355275844297
20
-1.52220260130863
30
0
41
1
10
55.1388232617438
20
-1.50871384483429
30
0
41
1
10
55.145739096464
20
-1.48198804608981
30
0
41
1
10
55.149361292822
20
-1.46875039150393
30
0
41
1
10
55.1680353215768
20
-1.40411369887443
30
0
41
1
10
55.1849559729844
20
-1.35655629580287
30
0
41
1
10
55.2085160688804
20
-1.30192008529215
30
0
41
1
10
55.2133626579109
20
-1.29120811341383
30
0
41
1
10
55.2232304864567
20
-1.27041198818958
30
0
41
1
10
55.2382676157642
20
-1.24021155275963
30
0
41
1
10
55.2644563768164
20
-1.19459841247971
30
0
41
1
10
55.2865316428924
20
-1.16282398690922
30
0
41
1
10
55.3034874902227
20
-1.14069549329645
30
0
41
1
10
55.3092136996419
20
-1.13359607461544
30
0
41
1
10
55.3206939512584
20
-1.12007542610354
30
0
41
1
10
55.3264594556067
20
-1.11363823518172
30
0
41
1
10
55.3554033201158
20
-1.08300125505221
30
0
41
1
10
55.3789297275765
20
-1.06340354329097
30
0
41
1
10
55.4145904534161
20
-1.04069423515318
30
0
41
1
10
55.4265715936845
20
-1.03424028620418
30
0
41
1
10
55.450282812327
20
-1.02368764865122
30
0
41
1
10
55.4620500165163
20
-1.01955938019603
30
0
41
1
10
55.4970530986056
20
-1.01045580171001
30
0
41
1
10
55.5199938180821
20
-1.00873395771956
30
0
41
1
10
55.5536260274369
20
-1.01257000881074
30
0
41
1
10
55.5647132699512
20
-1.01493833717939
30
0
41
1
10
55.5862544428936
20
-1.02175430413806
30
0
41
1
10
55.5967523192384
20
-1.02620361840442
30
0
41
1
10
55.6273876346168
20
-1.04264533369482
30
0
41
1
10
55.6466748728464
20
-1.05770138386887
30
0
41
1
10
55.6691233324195
20
-1.08196864313152
30
0
41
1
10
55.6735293515503
20
-1.08709686074417
30
0
41
1
10
55.6821651442047
20
-1.0979215250392
30
0
41
1
10
55.6864042778156
20
-1.10363217104489
30
0
41
1
10
55.6987561860185
20
-1.12152438489736
30
0
41
1
10
55.7065075314969
20
-1.13445910086551
30
0
41
1
10
55.7282507694852
20
-1.17634639489191
30
0
41
1
10
55.7407475138957
20
-1.20834417302262
30
0
41
1
10
55.756015762046
20
-1.26328909203753
30
0
41
1
10
55.7605327475645
20
-1.2828679077773
30
0
41
1
10
55.7681209943372
20
-1.32370964186279
30
0
41
1
10
55.7743159691557
20
-1.36637511556913
30
0
41
1
10
55.7776334423582
20
-1.41283767023003
30
0
41
1
10
55.7794272948344
20
-1.46134206238813
30
0
41
1
10
55.7795512196701
20
-1.48678249013548
30
0
41
1
10
55.7775348911056
20
-1.5643927108427
30
0
41
1
10
55.7730808384918
20
-1.61823610005337
30
0
41
1
10
55.7636727993789
20
-1.68833510829123
30
0
41
1
10
55.761597592022
20
-1.70249608261142
30
0
41
1
10
55.7570544032085
20
-1.73111080315863
30
0
41
1
10
55.7545943851435
20
-1.74550672889779
30
0
41
1
10
55.746746813338
20
-1.78849982976843
30
0
41
1
10
55.7349838566141
20
-1.8456698555556
30
0
41
1
10
55.7208167863365
20
-1.90256778009618
30
0
41
1
10
55.7093317436103
20
-1.94514914329486
30
0
41
1
10
55.7053459086086
20
-1.95937413626911
30
0
41
1
10
55.697175507751
20
-1.98750577736936
30
0
41
1
10
55.6929907720328
20
-2.00141769887583
30
0
41
1
10
55.6716035791094
20
-2.07023970040805
30
0
41
1
10
55.653031351533
20
-2.12296395617483
30
0
41
1
10
55.6134646437548
20
-2.22408886456753
30
0
41
1
10
55.5930908093085
20
-2.27090153050443
30
0
41
1
10
55.5619624727954
20
-2.33595011809319
30
0
41
1
10
55.551473524507
20
-2.35679444219355
30
0
41
1
10
55.5303513428955
20
-2.39669041213273
30
0
41
1
10
55.5093364746568
20
-2.43432591520022
30
0
41
1
10
55.4885279950444
20
-2.46769261059359
30
0
41
1
10
55.4729920058733
20
-2.49115822451128
30
0
41
1
10
55.4678250311212
20
-2.49871967236965
30
0
41
1
10
55.4575127940181
20
-2.51332263657471
30
0
41
1
10
55.4523537068105
20
-2.52038240569439
30
0
41
1
10
55.4472321210578
20
-2.52714424329247
30
0
0
SPLINE
5
CF
100
AcDbEntity
8
1
62
256
6
ByLayer
370
18
48
1
60
0
100
AcDbSpline
70
4
71
3
72
8
73
4
40
0
40
0
40
0
40
0
40
1
40
1
40
1
40
1
41
1
10
56.4957091849877
20
-1.75745499876027
30
0
41
1
10
56.6668799258596
20
-1.27456606717959
30
0
41
1
10
56.8333110038323
20
-0.789973789466245
30
0
41
1
10
56.9949280870434
20
-0.303651452140343
30
0
0
SPLINE
5
D0
100
AcDbEntity
8
1
62
256
6
ByLayer
370
18
48
1
60
0
100
AcDbSpline
70
4
71
3
72
8
73
4
40
0
40
0
40
0
40
0
40
1
40
1
40
1
40
1
41
1
10
56.9949280870351
20
0.303651452179338
30
0
41
1
10
57.0016969599465
20
0.101027895367252
30
0
41
1
10
57.0016843271597
20
-0.101406052866537
30
0
41
1
10
56.9949280870362
20
-0.30365145214725
30
0
0
SPLINE
5
D1
100
AcDbEntity
8
1
62
256
6
ByLayer
370
18
48
1
60
0
100
AcDbSpline
70
4
71
3
72
8
73
4
40
0
40
0
40
0
40
0
40
1
40
1
40
1
40
1
41
1
10
56.9949280870411
20
0.303651452182237
30
0
41
1
10
56.9711712318127
20
0.224468013664619
30
0
41
1
10
56.9472957684175
20
0.145321183258034
30
0
41
1
10
56.9233021367038
20
0.0662108252043936
30
0
0
SPLINE
5
D2
100
AcDbEntity
8
1
62
256
6
ByLayer
370
18
48
1
60
0
100
AcDbSpline
70
4
71
3
72
55
73
51
40
0
40
0
40
0
40
0
40
0.0625000000000014
40
0.0625000000000014
40
0.125000000000003
40
0.125000000000003
40
0.156250000000003
40
0.156250000000003
40
0.171875000000008
40
0.171875000000008
40
0.187500000000012
40
0.250000000000012
40
0.250000000000012
40
0.312500000000013
40
0.312500000000013
40
0.343750000000013
40
0.343750000000013
40
0.375000000000014
40
0.375000000000014
40
0.437500000000014
40
0.437500000000014
40
0.468750000000019
40
0.468750000000019
40
0.484375000000017
40
0.484375000000017
40
0.500000000000015
40
0.500000000000015
40
0.562500000000025
40
0.562500000000025
40
0.593750000000029
40
0.593750000000029
40
0.609375000000032
40
0.609375000000032
40
0.625000000000034
40
0.625000000000034
40
0.687500000000028
40
0.687500000000028
40
0.718750000000029
40
0.718750000000029
40
0.75000000000003
40
0.75000000000003
40
0.812500000000025
40
0.812500000000025
40
0.87500000000002
40
0.87500000000002
40
0.906250000000015
40
0.906250000000015
40
0.93750000000001
40
0.93750000000001
40
1
40
1
40
1
40
1
41
1
10
56.9233021367038
20
0.0662108252043936
30
0
41
1
10
56.9099903828843
20
0.0223201118871827
30
0
41
1
10
56.8956719300334
20
-0.0210635139806072
30
0
41
1
10
56.8650248185977
20
-0.106801762143533
30
0
41
1
10
56.8486970170943
20
-0.149156859169722
30
0
41
1
10
56.8226383532893
20
-0.211874422466735
30
0
41
1
10
56.8136902516513
20
-0.232644051124851
30
0
41
1
10
56.7998596119246
20
-0.263584368378446
30
0
41
1
10
56.7951732398619
20
-0.273878841193181
30
0
41
1
10
56.7857328155581
20
-0.294240812652333
30
0
41
1
10
56.7619306919431
20
-0.344649320312527
30
0
41
1
10
56.7371475808234
20
-0.392593517351742
30
0
41
1
10
56.6962682204729
20
-0.466052461636537
30
0
41
1
10
56.6752161909675
20
-0.50115818319324
30
0
41
1
10
56.6426711664435
20
-0.551161989689149
30
0
41
1
10
56.631605679983
20
-0.567459524078345
30
0
41
1
10
56.6095398397794
20
-0.598544062278478
30
0
41
1
10
56.5985141261477
20
-0.613377391290697
30
0
41
1
10
56.565458816323
20
-0.655775254834623
30
0
41
1
10
56.5434523506303
20
-0.681247999663896
30
0
41
1
10
56.510466297433
20
-0.715181472157468
30
0
41
1
10
56.4994745725413
20
-0.725777489287822
30
0
41
1
10
56.4829865266831
20
-0.740563245904411
30
0
41
1
10
56.4774895769187
20
-0.745306426807105
30
0
41
1
10
56.4666025439315
20
-0.754329738462189
30
0
41
1
10
56.4611987161734
20
-0.758622521057816
30
0
41
1
10
56.4343706214463
20
-0.779012622631825
30
0
41
1
10
56.4135178568527
20
-0.791903602820469
30
0
41
1
10
56.3830333200359
20
-0.806309362778109
30
0
41
1
10
56.3730045690232
20
-0.810286500972182
30
0
41
1
10
56.3581479435438
20
-0.815015247565327
30
0
41
1
10
56.3532177274121
20
-0.816386915617613
30
0
41
1
10
56.3434850104722
20
-0.818701356911504
30
0
41
1
10
56.3386777728761
20
-0.819646446651888
30
0
41
1
10
56.3149231272234
20
-0.823340881785782
30
0
41
1
10
56.2968161752519
20
-0.823011076910177
30
0
41
1
10
56.2707870460804
20
-0.817972653747745
30
0
41
1
10
56.2623000519497
20
-0.815533125103002
30
0
41
1
10
56.2456774503899
20
-0.809169699820018
30
0
41
1
10
56.237523123435
20
-0.805230518266541
30
0
41
1
10
56.2138509220279
20
-0.791416949985489
30
0
41
1
10
56.1990254456082
20
-0.779535414954154
30
0
41
1
10
56.1709471154942
20
-0.751015654393058
30
0
41
1
10
56.1576958901751
20
-0.734374039793522
30
0
41
1
10
56.1388270844146
20
-0.706109417153442
30
0
41
1
10
56.1327061724497
20
-0.696136054019604
30
0
41
1
10
56.1207797994041
20
-0.675115637156836
30
0
41
1
10
56.1149745239304
20
-0.664065080524693
30
0
41
1
10
56.0981208487149
20
-0.629595776659613
30
0
41
1
10
56.0875877831175
20
-0.604788787288783
30
0
41
1
10
56.0776637455802
20
-0.578297701697124
30
0
0
SPLINE
5
D3
100
AcDbEntity
8
1
62
256
6
ByLayer
370
18
48
1
60
0
100
AcDbSpline
70
4
71
3
72
9
73
5
40
0
40
0
40
0
40
0
40
0.5
40
1
40
1
40
1
40
1
41
1
10
56.0776637455803
20
-0.578297701696982
30
0
41
1
10
55.9858682828136
20
-0.333260190307158
30
0
41
1
10
55.7785834932632
20
0.172320394733987
30
0
41
1
10
55.5241643266045
20
0.708746308269525
30
0
41
1
10
55.3853706601248
20
0.984540034573257
30
0
0
SPLINE
5
D4
100
AcDbEntity
8
1
62
256
6
ByLayer
370
18
48
1
60
0
100
AcDbSpline
70
4
71
3
72
25
73
21
40
0
40
0
40
0
40
0
40
0.130661369033775
40
0.130661369033775
40
0.261322738067551
40
0.326653422584444
40
0.326653422584444
40
0.391984107101338
40
0.391984107101338
40
0.457314791618231
40
0.457314791618231
40
0.522645476135125
40
0.522645476135125
40
0.653306845168923
40
0.653306845168923
40
0.783968214202721
40
0.783968214202721
40
0.91462958323652
40
0.91462958323652
40
1
40
1
40
1
40
1
41
1
10
54.4490690566908
20
1.12287752979296
30
0
41
1
10
54.4886658533721
20
1.1247662512456
30
0
41
1
10
54.5283021466573
20
1.1257556832779
30
0
41
1
10
54.607590511718
20
1.12563213851754
30
0
41
1
10
54.6670677676743
20
1.12398750810391
30
0
41
1
10
54.7264799042156
20
1.11993517799203
30
0
41
1
10
54.7660640475906
20
1.11668889436652
30
0
41
1
10
54.7858429494198
20
1.11474545001619
30
0
41
1
10
54.825379664336
20
1.11099011107245
30
0
41
1
10
54.8451439244096
20
1.10914705024794
30
0
41
1
10
54.8845992471621
20
1.10485325262445
30
0
41
1
10
54.904292102959
20
1.10245624943337
30
0
41
1
10
54.9632489379368
20
1.09447219017849
30
0
41
1
10
55.0023924172409
20
1.08809884651498
30
0
41
1
10
55.0802413043918
20
1.07288560452003
30
0
41
1
10
55.1189389600134
20
1.06399400833934
30
0
41
1
10
55.1958964205796
20
1.04444768123059
30
0
41
1
10
55.2341627568188
20
1.0338302121998
30
0
41
1
10
55.2969959290197
20
1.01462777825245
30
0
41
1
10
55.3217141199497
20
1.0066208629633
30
0
41
1
10
55.3463154279754
20
0.998225449596731
30
0
0
SPLINE
5
D5
100
AcDbEntity
8
1
62
256
6
ByLayer
370
18
48
1
60
0
100
AcDbSpline
70
4
71
3
72
24
73
20
40
0
40
0
40
0
40
0
40
0.499999999999982
40
0.499999999999982
40
0.749999999999993
40
0.749999999999993
40
0.874999999999978
40
0.874999999999978
40
0.937499999999971
40
0.937499999999971
40
0.968749999999985
40
0.968749999999985
40
0.984374999999993
40
0.984374999999993
40
0.992187499999994
40
0.992187499999994
40
0.996093749999997
40
0.996093749999997
40
1
40
1
40
1
40
1
41
1
10
54.9998158329215
20
-5.49996514618024
30
0
41
1
10
55.0197508509553
20
-5.45445545485961
30
0
41
1
10
55.0400726561611
20
-5.40894879617267
30
0
41
1
10
55.0711290010902
20
-5.34068147976456
30
0
41
1
10
55.0815759031186
20
-5.31792726334723
30
0
41
1
10
55.0973866325662
20
-5.28380113215721
30
0
41
1
10
55.1026807887907
20
-5.27242451673939
30
0
41
1
10
55.1106605463652
20
-5.25534620176254
30
0
41
1
10
55.1133278260106
20
-5.24964739612432
30
0
41
1
10
55.1173349706915
20
-5.24110954847268
30
0
41
1
10
55.1186710840583
20
-5.23826791243297
30
0
41
1
10
55.120675369095
20
-5.23401389308171
30
0
41
1
10
55.1213439531731
20
-5.23259539724444
30
0
41
1
10
55.1223505538708
20
-5.23045474447633
30
0
41
1
10
55.1226879307551
20
-5.22973432933242
30
0
41
1
10
55.1231910273552
20
-5.22866538583554
30
0
41
1
10
55.1233575388821
20
-5.22831365260112
30
0
41
1
10
55.1236750682566
20
-5.22766902053354
30
0
41
1
10
55.1238354874379
20
-5.22735342137366
30
0
41
1
10
55.1239406107599
20
-5.22720712516238
30
0
0
SPLINE
5
D6
100
AcDbEntity
8
1
62
256
6
ByLayer
370
18
48
1
60
0
100
AcDbSpline
70
4
71
3
72
31
73
27
40
0
40
0
40
0
40
0
40
0.0624999999999966
40
0.0624999999999966
40
0.0937499999999973
40
0.0937499999999973
40
0.124999999999998
40
0.25
40
0.25
40
0.375000000000003
40
0.375000000000003
40
0.406250000000005
40
0.406250000000005
40
0.421875000000005
40
0.421875000000005
40
0.437500000000004
40
0.437500000000004
40
0.500000000000005
40
0.500000000000005
40
0.625000000000004
40
0.625000000000004
40
0.750000000000002
40
0.750000000000002
40
0.875000000000001
40
0.875000000000001
40
1
40
1
40
1
40
1
41
1
10
56.4957091849877
20
-1.75745499876029
30
0
41
1
10
56.4596110544763
20
-1.81925729228419
30
0
41
1
10
56.4240395616699
20
-1.88274152278481
30
0
41
1
10
56.3714268013523
20
-1.98061952206584
30
0
41
1
10
56.3540485603478
20
-2.01362405089233
30
0
41
1
10
56.3198078738549
20
-2.07998127910355
30
0
41
1
10
56.2353357092169
20
-2.24703538177715
30
0
41
1
10
56.1562822330197
20
-2.4198072307301
30
0
41
1
10
56.035299149957
20
-2.70299659385094
30
0
41
1
10
55.9775592217693
20
-2.84796658904696
30
0
41
1
10
55.9078511390911
20
-3.03309182348062
30
0
41
1
10
55.8940174228751
20
-3.07035688499542
30
0
41
1
10
55.8735231189856
20
-3.12628006266579
30
0
41
1
10
55.8667316111156
20
-3.14493198584748
30
0
41
1
10
55.8532231898014
20
-3.18225579758905
30
0
41
1
10
55.8465142982872
20
-3.20092984496154
30
0
41
1
10
55.8130164833951
20
-3.29431148745002
30
0
41
1
10
55.7862879102198
20
-3.3690340580097
30
0
41
1
10
55.7062888848805
20
-3.59318642103511
30
0
41
1
10
55.65320647511
20
-3.7426075058504
30
0
41
1
10
55.547364177029
20
-4.04108885899717
30
0
41
1
10
55.4945947440739
20
-4.1901746837394
30
0
41
1
10
55.3890429551242
20
-4.48786985319398
30
0
41
1
10
55.3362419461042
20
-4.63653922836502
30
0
41
1
10
55.2303965444008
20
-4.93273597189349
30
0
41
1
10
55.1773413367213
20
-5.0802966445699
30
0
41
1
10
55.1239406106075
20
-5.22720712535153
30
0
0
SPLINE
5
D7
100
AcDbEntity
8
1
62
256
6
ByLayer
370
18
48
1
60
0
100
AcDbSpline
70
4
71
3
72
63
73
59
40
0
40
0
40
0
40
0
40
0.0094806752710578
40
0.0094806752710578
40
0.0566482621629121
40
0.0566482621629121
40
0.103815849054766
40
0.103815849054766
40
0.127399642500693
40
0.127399642500693
40
0.15098343594662
40
0.15098343594662
40
0.198151022838475
40
0.198151022838475
40
0.245318609730329
40
0.245318609730329
40
0.268902403176257
40
0.268902403176257
40
0.292486196622185
40
0.292486196622185
40
0.339653783514042
40
0.339653783514042
40
0.36323757695997
40
0.36323757695997
40
0.386821370405898
40
0.386821370405898
40
0.433988957297756
40
0.433988957297756
40
0.528324131081469
40
0.528324131081469
40
0.551907924527396
40
0.551907924527396
40
0.575491717973323
40
0.575491717973323
40
0.622659304865177
40
0.622659304865177
40
0.669826891757032
40
0.669826891757032
40
0.693410685202958
40
0.70520258192592
40
0.70520258192592
40
0.716994478648883
40
0.716994478648883
40
0.764162065540735
40
0.764162065540735
40
0.811329652432588
40
0.811329652432588
40
0.858497239324441
40
0.858497239324441
40
0.882081032770367
40
0.882081032770367
40
0.905664826216293
40
0.905664826216293
40
0.952832413108146
40
0.952832413108146
40
0.976416206554073
40
0.976416206554073
40
1
40
1
40
1
40
1
41
1
10
44.622716803574
20
-2.99350415189156
30
0
41
1
10
44.5574634569688
20
-2.96657079615437
30
0
41
1
10
44.4922000941908
20
-2.93945736001388
30
0
41
1
10
44.102229640207
20
-2.77641708322278
30
0
41
1
10
43.777739113408
20
-2.63647050692148
30
0
41
1
10
43.1286466032847
20
-2.34903075975112
30
0
41
1
10
42.8039326361621
20
-2.20154860531221
30
0
41
1
10
42.3168451727764
20
-1.97590310468644
30
0
41
1
10
42.1544509060383
20
-1.89993267389838
30
0
41
1
10
41.8298759946061
20
-1.74676110166357
30
0
41
1
10
41.6676768479172
20
-1.66954853381026
30
0
41
1
10
41.181263616343
20
-1.43618387389793
30
0
41
1
10
40.8571972880048
20
-1.27836921178277
30
0
41
1
10
40.2088385199625
20
-0.959476413344618
30
0
41
1
10
39.8845557226497
20
-0.798388432560131
30
0
41
1
10
39.3976189368289
20
-0.554999094812189
30
0
41
1
10
39.235254143023
20
-0.473594396598884
30
0
41
1
10
38.910666064381
20
-0.310562526368983
30
0
41
1
10
38.7483951977881
20
-0.228914680721744
30
0
41
1
10
38.2615220497755
20
0.0161675407074711
30
0
41
1
10
37.9367795749858
20
0.179793879170347
30
0
41
1
10
37.449704907321
20
0.424544421279052
30
0
41
1
10
37.2873445450265
20
0.506025732991304
30
0
41
1
10
36.9629698674851
20
0.668428521260353
30
0
41
1
10
36.8009006362238
20
0.749358603676569
30
0
41
1
10
36.3149075630602
20
0.991063138822369
30
0
41
1
10
35.9912007871082
20
1.15075753965789
30
0
41
1
10
35.0201615108949
20
1.62407786698461
30
0
41
1
10
34.3730069950836
20
1.93215826615361
30
0
41
1
10
33.5613083637492
20
2.30195035655873
30
0
41
1
10
33.3989933004569
20
2.37507700302075
30
0
41
1
10
33.0747065116158
20
2.51940552549038
30
0
41
1
10
32.9126841324142
20
2.59064129463721
30
0
41
1
10
32.4268467735984
20
2.80136706733035
30
0
41
1
10
32.1032232263645
20
2.93779450855669
30
0
41
1
10
31.4559136134469
20
3.20165304508214
30
0
41
1
10
31.1322362496034
20
3.32911052421133
30
0
41
1
10
30.6463262719144
20
3.51305258843226
30
0
41
1
10
30.4032696437311
20
3.60320435976692
30
0
41
1
10
30.1599657851903
20
3.69046981742122
30
0
41
1
10
29.9976964014697
20
3.7479856904684
30
0
41
1
10
29.9165058074676
20
3.77642165484949
30
0
41
1
10
29.5107143086309
20
3.91679889191528
30
0
41
1
10
29.1865835575539
20
4.02334488963996
30
0
41
1
10
28.5388902427347
20
4.2242540369802
30
0
41
1
10
28.2153513958691
20
4.31861475165783
30
0
41
1
10
27.5681066119373
20
4.49434408793277
30
0
41
1
10
27.2444128330779
20
4.57573400108862
30
0
41
1
10
26.7583889777609
20
4.68783699087209
30
0
41
1
10
26.5963029668048
20
4.72354476382483
30
0
41
1
10
26.2719016924771
20
4.79156926656574
30
0
41
1
10
26.1095270916172
20
4.82389614536538
30
0
41
1
10
25.6226667745303
20
4.91550684729862
30
0
41
1
10
25.2982679497735
20
4.96944028791262
30
0
41
1
10
24.8115485809749
20
5.03940580984096
30
0
41
1
10
24.6492890247558
20
5.06090496825706
30
0
41
1
10
24.3246819407591
20
5.1002085406619
30
0
41
1
10
24.1623307026867
20
5.1180123066155
30
0
41
1
10
24
20
5.13391453170277
30
0
0
SPLINE
5
D8
100
AcDbEntity
8
1
62
256
6
ByLayer
370
18
48
1
60
0
100
AcDbSpline
70
4
71
3
72
8
73
4
40
0
40
0
40
0
40
0
40
1
40
1
40
1
40
1
41
1
10
23.9999999999999
20
5.35932410815093
30
0
41
1
10
23.9999999999999
20
5.28510475305634
30
0
41
1
10
24
20
5.20995997227826
30
0
41
1
10
24
20
5.13391453170277
30
0
0
SPLINE
5
D9
100
AcDbEntity
8
1
62
256
6
ByLayer
370
18
48
1
60
0
100
AcDbSpline
70
4
71
3
72
176
73
172
40
0
40
0
40
0
40
0
40
0.0039656830461927
40
0.0039656830461927
40
0.0131882230179886
40
0.0131882230179886
40
0.0224107629897844
40
0.0224107629897844
40
0.0408558429333762
40
0.0408558429333762
40
0.0593009228769679
40
0.0593009228769679
40
0.0685234628487637
40
0.0685234628487637
40
0.0731347328346617
40
0.0731347328346617
40
0.0777460028205596
40
0.0777460028205596
40
0.0961910827641505
40
0.0961910827641505
40
0.114636162707741
40
0.114636162707741
40
0.133081242651332
40
0.133081242651332
40
0.151526322594923
40
0.151526322594923
40
0.160748862566719
40
0.160748862566719
40
0.169971402538515
40
0.169971402538515
40
0.179193942510311
40
0.179193942510311
40
0.183805212496208
40
0.183805212496208
40
0.188416482482106
40
0.188416482482106
40
0.206861562425694
40
0.206861562425694
40
0.225306642369282
40
0.225306642369282
40
0.234529182341077
40
0.234529182341077
40
0.243751722312871
40
0.243751722312871
40
0.26219680225646
40
0.26219680225646
40
0.280641882200049
40
0.280641882200049
40
0.289864422171844
40
0.289864422171844
40
0.299086962143638
40
0.299086962143638
40
0.317532042087227
40
0.317532042087227
40
0.326754582059021
40
0.326754582059021
40
0.335977122030815
40
0.335977122030815
40
0.354422201974404
40
0.354422201974404
40
0.363644741946198
40
0.363644741946198
40
0.372867281917993
40
0.372867281917993
40
0.391312361861581
40
0.391312361861581
40
0.400534901833375
40
0.400534901833375
40
0.409757441805168
40
0.409757441805168
40
0.428202521748756
40
0.428202521748756
40
0.446647601692343
40
0.446647601692343
40
0.465092681635931
40
0.465092681635931
40
0.483537761579518
40
0.483537761579518
40
0.501982841523106
40
0.501982841523106
40
0.5112053814949
40
0.5112053814949
40
0.520427921466694
40
0.520427921466694
40
0.529650461438488
40
0.529650461438488
40
0.538873001410282
40
0.538873001410282
40
0.548095541382076
40
0.548095541382076
40
0.557318081353871
40
0.557318081353871
40
0.575763161297459
40
0.575763161297459
40
0.594208241241047
40
0.594208241241047
40
0.603430781212842
40
0.603430781212842
40
0.612653321184636
40
0.612653321184636
40
0.617264591170533
40
0.617264591170533
40
0.62187586115643
40
0.62187586115643
40
0.631098401128224
40
0.631098401128224
40
0.649543481071811
40
0.649543481071811
40
0.658766021043605
40
0.658766021043605
40
0.667988561015399
40
0.667988561015399
40
0.686433640958986
40
0.686433640958986
40
0.704878720902572
40
0.704878720902572
40
0.714101260874365
40
0.714101260874365
40
0.723323800846159
40
0.723323800846159
40
0.727935070832056
40
0.727935070832056
40
0.732546340817953
40
0.732546340817953
40
0.741768880789747
40
0.741768880789747
40
0.750991420761541
40
0.750991420761541
40
0.760213960733335
40
0.760213960733335
40
0.778659040676924
40
0.778659040676924
40
0.787881580648719
40
0.787881580648719
40
0.797104120620514
40
0.797104120620514
40
0.806326660592309
40
0.806326660592309
40
0.815549200564104
40
0.815549200564104
40
0.824771740535898
40
0.824771740535898
40
0.833994280507693
40
0.833994280507693
40
0.843216820479488
40
0.843216820479488
40
0.852439360451283
40
0.852439360451283
40
0.870884440394873
40
0.870884440394873
40
0.889329520338462
40
0.889329520338462
40
0.907774600282052
40
0.907774600282052
40
0.916997140253847
40
0.916997140253847
40
0.926219680225642
40
0.926219680225642
40
0.935442220197436
40
0.935442220197436
40
0.944664760169231
40
0.944664760169231
40
0.953887300141026
40
0.953887300141026
40
0.963109840112821
40
0.963109840112821
40
0.972332380084616
40
0.972332380084616
40
0.98155492005641
40
0.98155492005641
40
1
40
1
40
1
40
1
41
1
10
47.3466019357708
20
-4.08859511524204
30
0
41
1
10
47.2946411099473
20
-4.10471368165574
30
0
41
1
10
47.2426879818625
20
-4.12067036219861
30
0
41
1
10
47.0699363601388
20
-4.17321432201848
30
0
41
1
10
46.9491713756332
20
-4.20912007745429
30
0
41
1
10
46.7076264251996
20
-4.27934043429349
30
0
41
1
10
46.5868479324124
20
-4.31364655183199
30
0
41
1
10
46.2244620719733
20
-4.41404648316487
30
0
41
1
10
45.9828378576186
20
-4.47765638488818
30
0
41
1
10
45.4993056046985
20
-4.59764395975745
30
0
41
1
10
45.2573254895416
20
-4.65396586188564
30
0
41
1
10
44.893901702561
20
-4.73254234799219
30
0
41
1
10
44.7726818996625
20
-4.75774926311615
30
0
41
1
10
44.5907611197747
20
-4.7940049448008
30
0
41
1
10
44.5301430347448
20
-4.80582309660144
30
0
41
1
10
44.4090287587726
20
-4.82897343100669
30
0
41
1
10
44.3485406907776
20
-4.84031024299176
30
0
41
1
10
44.0462256833898
20
-4.89569602740721
30
0
41
1
10
43.8046057636867
20
-4.93576241010342
30
0
41
1
10
43.3211249556537
20
-5.00854633091058
30
0
41
1
10
43.0792827955863
20
-5.04114203297215
30
0
41
1
10
42.5958073535684
20
-5.09806297091561
30
0
41
1
10
42.3541711993505
20
-5.12239756665716
30
0
41
1
10
41.8707087287832
20
-5.16274510109326
30
0
41
1
10
41.6289276367817
20
-5.17880935357613
30
0
41
1
10
41.2660160749238
20
-5.19576418710679
30
0
41
1
10
41.1449987699763
20
-5.20017810494747
30
0
41
1
10
40.9027665110573
20
-5.20682565061284
30
0
41
1
10
40.7815143916793
20
-5.20911311901284
30
0
41
1
10
40.5391173311252
20
-5.21182668442287
30
0
41
1
10
40.4179291094603
20
-5.21223677187041
30
0
41
1
10
40.2362007844656
20
-5.21142626817343
30
0
41
1
10
40.1756474439654
20
-5.21091647521007
30
0
41
1
10
40.0546395178692
20
-5.2094001498366
30
0
41
1
10
39.994172886096
20
-5.20839347402386
30
0
41
1
10
39.6918326872723
20
-5.20210218710355
30
0
41
1
10
39.4500126598328
20
-5.19304048747657
30
0
41
1
10
38.9663418870258
20
-5.16638701426467
30
0
41
1
10
38.7244478661112
20
-5.14886673847948
30
0
41
1
10
38.3617643739153
20
-5.11555825344348
30
0
41
1
10
38.2408940936608
20
-5.10327084444432
30
0
41
1
10
37.9991648441603
20
-5.07618271509352
30
0
41
1
10
37.8783107627739
20
-5.06132954775598
30
0
41
1
10
37.5155487467745
20
-5.01392300890623
30
0
41
1
10
37.2734258100759
20
-4.9788722955858
30
0
41
1
10
36.7883692158124
20
-4.9014787150536
30
0
41
1
10
36.545952866447
20
-4.85923696882526
30
0
41
1
10
36.1825155380411
20
-4.7902794680322
30
0
41
1
10
36.0613762150263
20
-4.76638202369972
30
0
41
1
10
35.8192821593207
20
-4.71657562536859
30
0
41
1
10
35.6984409711777
20
-4.69056672130759
30
0
41
1
10
35.3358817212674
20
-4.60967760816001
30
0
41
1
10
35.0942334165739
20
-4.5518388153439
30
0
41
1
10
34.7317163193296
20
-4.45879459972912
30
0
41
1
10
34.6108610916912
20
-4.42674840303363
30
0
41
1
10
34.3690508813263
20
-4.36106076091647
30
0
41
1
10
34.2480983084515
20
-4.3274338424828
30
0
41
1
10
33.8851680579626
20
-4.22389197924861
30
0
41
1
10
33.6430889371878
20
-4.15130994854272
30
0
41
1
10
33.2795973904453
20
-4.03695771981728
30
0
41
1
10
33.158344911942
20
-3.99787239332483
30
0
41
1
10
32.9160426030003
20
-3.91823084237021
30
0
41
1
10
32.7949331902146
20
-3.87772180089348
30
0
41
1
10
32.4315866918019
20
-3.75443005853452
30
0
41
1
10
32.1893736336401
20
-3.66972053448606
30
0
41
1
10
31.8261345324364
20
-3.53854164561705
30
0
41
1
10
31.7050252013642
20
-3.49419726839872
30
0
41
1
10
31.4630839946047
20
-3.40372523466789
30
0
41
1
10
31.3422682449069
20
-3.35756767807953
30
0
41
1
10
30.9796535730671
20
-3.2172245283771
30
0
41
1
10
30.7378582944656
20
-3.12096546976298
30
0
41
1
10
30.2540055071292
20
-2.92266208453455
30
0
41
1
10
30.0119771508538
20
-2.82046178867662
30
0
41
1
10
29.5274286580228
20
-2.61188995535727
30
0
41
1
10
29.2846810254815
20
-2.505728061257
30
0
41
1
10
28.7998334630492
20
-2.29026925627309
30
0
41
1
10
28.5576567774752
20
-2.18079594500563
30
0
41
1
10
28.0734418517953
20
-1.95879412058147
30
0
41
1
10
27.8314058524197
20
-1.84626466925366
30
0
41
1
10
27.4684259162566
20
-1.6751067745673
30
0
41
1
10
27.347412697534
20
-1.6177206721147
30
0
41
1
10
27.1057591092853
20
-1.50144791194495
30
0
41
1
10
26.9850110405488
20
-1.44277121701614
30
0
41
1
10
26.7433393637355
20
-1.3250787150935
30
0
41
1
10
26.6224474820642
20
-1.26600226726629
30
0
41
1
10
26.3804798585917
20
-1.14760637967535
30
0
41
1
10
26.2594012118283
20
-1.08829742105723
30
0
41
1
10
26.017054956817
20
-0.969424056104231
30
0
41
1
10
25.8957923970509
20
-0.909848442879223
30
0
41
1
10
25.6531379659048
20
-0.790294596308371
30
0
41
1
10
25.5317123127797
20
-0.730285021864603
30
0
41
1
10
25.1677904944561
20
-0.549929993647197
30
0
41
1
10
24.9254834611713
20
-0.429235276298471
30
0
41
1
10
24.441363720567
20
-0.187191121648254
30
0
41
1
10
24.1995649690194
20
-0.0658102875163991
30
0
41
1
10
23.8370376648436
20
0.116310383255126
30
0
41
1
10
23.7162044624386
20
0.17699041098453
30
0
41
1
10
23.4744099713191
20
0.298026013388466
30
0
41
1
10
23.3534603636269
20
0.35840332136928
30
0
41
1
10
23.1719727743095
20
0.448785484416788
30
0
41
1
10
23.1114614290869
20
0.478872338543454
30
0
41
1
10
22.9904807250776
20
0.539110269271191
30
0
41
1
10
22.9300245937333
20
0.569287786175522
30
0
41
1
10
22.7486838241779
20
0.659844589215879
30
0
41
1
10
22.6277651253303
20
0.72012459430934
30
0
41
1
10
22.2647604918251
20
0.900347603941668
30
0
41
1
10
22.0224507289397
20
1.01972531194289
30
0
41
1
10
21.6583521497758
20
1.19729311440756
30
0
41
1
10
21.5370341016973
20
1.25618676984396
30
0
41
1
10
21.294580683178
20
1.37344741599961
30
0
41
1
10
21.1734456338093
20
1.43182306600545
30
0
41
1
10
20.8102444393743
20
1.60603888924445
30
0
41
1
10
20.5683492950308
20
1.7209228082088
30
0
41
1
10
20.0847577100874
20
1.94774784207095
30
0
41
1
10
19.8430855063235
20
2.05970930389876
30
0
41
1
10
19.4804150205046
20
2.22466759601241
30
0
41
1
10
19.3595063515413
20
2.27917177296203
30
0
41
1
10
19.11765108102
20
2.38716130835252
30
0
41
1
10
18.9967002934447
20
2.44063797329613
30
0
41
1
10
18.8151540958194
20
2.52010418618053
30
0
41
1
10
18.7546247593802
20
2.54648129664989
30
0
41
1
10
18.6336153811249
20
2.59914466842989
30
0
41
1
10
18.5731296166612
20
2.62541974699414
30
0
41
1
10
18.3916040156545
20
2.70384460662319
30
0
41
1
10
18.270493255291
20
2.75559016391776
30
0
41
1
10
18.0280779055785
20
2.85794906164682
30
0
41
1
10
17.9067320453162
20
2.90857864971781
30
0
41
1
10
17.6641947142317
20
3.00848540264567
30
0
41
1
10
17.5429656826842
20
3.05776899345025
30
0
41
1
10
17.1794310493023
20
3.2036049554099
30
0
41
1
10
16.9373336008595
20
3.2982444980357
30
0
41
1
10
16.5745798909914
20
3.43600005118637
30
0
41
1
10
16.4537229370184
20
3.48118928126885
30
0
41
1
10
16.2121134428377
20
3.56999895254975
30
0
41
1
10
16.0913540406056
20
3.61363263707233
30
0
41
1
10
15.8498423960697
20
3.69940777244199
30
0
41
1
10
15.7290864473942
20
3.74154692236635
30
0
41
1
10
15.4874427802286
20
3.82434278390497
30
0
41
1
10
15.3665527408884
20
3.86498946755324
30
0
41
1
10
15.1246244518888
20
3.94473438853134
30
0
41
1
10
15.0035886625612
20
3.98383598924519
30
0
41
1
10
14.7613728311338
20
4.06046793685354
30
0
41
1
10
14.6401757681217
20
4.09797939365603
30
0
41
1
10
14.397716187613
20
4.17146941205868
30
0
41
1
10
14.2765853147706
20
4.20760571387501
30
0
41
1
10
14.0341448401267
20
4.27811749778527
30
0
41
1
10
13.9129569394248
20
4.31246033536209
30
0
41
1
10
13.5495592580426
20
4.41259793307682
30
0
41
1
10
13.3074636097942
20
4.47545723786445
30
0
41
1
10
12.8234643751993
20
4.59308402157788
30
0
41
1
10
12.5815987034175
20
4.64805606966806
30
0
41
1
10
12.097649103116
20
4.75110344545632
30
0
41
1
10
11.8555658534221
20
4.79907764582106
30
0
41
1
10
11.4922421823067
20
4.86531347128835
30
0
41
1
10
11.3710947176296
20
4.8864334249574
30
0
41
1
10
11.1286513634312
20
4.92665903375138
30
0
41
1
10
11.0073277730409
20
4.94576554514381
30
0
41
1
10
10.764842098385
20
4.98186104671632
30
0
41
1
10
10.6436432663087
20
4.99885700375958
30
0
41
1
10
10.4013238773061
20
5.0307038809901
30
0
41
1
10
10.2801676302142
20
5.04553885711411
30
0
41
1
10
10.0381201407156
20
5.07311114490031
30
0
41
1
10
9.9173051354793
20
5.08586141141515
30
0
41
1
10
9.67563052171948
20
5.10916991146078
30
0
41
1
10
9.5548047898111
20
5.11975366929167
30
0
41
1
10
9.31307607698182
20
5.13889170221907
30
0
41
1
10
9.19217088290469
20
5.1474565246636
30
0
41
1
10
8.95020069956522
20
5.16260855057149
30
0
41
1
10
8.82913708345322
20
5.16918184001037
30
0
41
1
10
8.46573850947721
20
5.18579486715876
30
0
41
1
10
8.22320527906757
20
5.19268171726921
30
0
41
1
10
7.98041417589684
20
5.19531736206821
30
0
0
SPLINE
5
DA
100
AcDbEntity
8
1
62
256
6
ByLayer
370
13
48
1
60
0
100
AcDbSpline
70
4
71
3
72
39
73
35
40
0
40
0
40
0
40
0
40
0.0168664474265918
40
0.0168664474265918
40
0.106242224933266
40
0.19561800243994
40
0.19561800243994
40
0.240305891193277
40
0.240305891193277
40
0.262649835569945
40
0.262649835569945
40
0.284993779946614
40
0.284993779946614
40
0.374369557453287
40
0.374369557453287
40
0.419057446206624
40
0.419057446206624
40
0.46374533495996
40
0.508433223713297
40
0.530777168089965
40
0.530777168089965
40
0.553121112466634
40
0.553121112466634
40
0.642496889973307
40
0.642496889973307
40
0.73187266747998
40
0.73187266747998
40
0.776560556233317
40
0.798904500609985
40
0.798904500609985
40
0.821248444986654
40
0.821248444986654
40
0.910624222493327
40
1
40
1
40
1
40
1
41
1
10
3.75066160919653
20
5.19356994451928
30
0
41
1
10
3.75065841278479
20
5.19358080040598
30
0
41
1
10
3.75065522643524
20
5.19323733893685
30
0
41
1
10
3.75063522906515
20
5.1888608966197
30
0
41
1
10
3.75060225244602
20
5.16182108962121
30
0
41
1
10
3.75057135062198
20
5.09632954191542
30
0
41
1
10
3.75054911185012
20
5.03263353974475
30
0
41
1
10
3.75054185413458
20
5.00896701483359
30
0
41
1
10
3.75053121016802
20
4.96974803424405
30
0
41
1
10
3.75052769899045
20
4.95603983127563
30
0
41
1
10
3.75052077661272
20
4.92744518719542
30
0
41
1
10
3.75051736742142
20
4.91256900107743
30
0
41
1
10
3.75050057749581
20
4.83530839935983
30
0
41
1
10
3.75048797047279
20
4.76430970743667
30
0
41
1
10
3.75047015444889
20
4.64400849573545
30
0
41
1
10
3.75046439188282
20
4.60155220237573
30
0
41
1
10
3.75045325330819
20
4.51249572932304
30
0
41
1
10
3.75044248604172
20
4.41920648610886
30
0
41
1
10
3.75042981695003
20
4.29206084623186
30
0
41
1
10
3.75042249954487
20
4.21101344388546
30
0
41
1
10
3.75041767540358
20
4.15591756761765
30
0
41
1
10
3.75041529414733
20
4.12787866538741
30
0
41
1
10
3.75040354832547
20
3.98562953573827
30
0
41
1
10
3.75039463598185
20
3.86491483738453
30
0
41
1
10
3.75037706825759
20
3.6100597903143
30
0
41
1
10
3.75036841416647
20
3.47591846822698
30
0
41
1
10
3.75035502984389
20
3.26459244832898
30
0
41
1
10
3.75034823571659
20
3.15639567936225
30
0
41
1
10
3.75034116342096
20
3.04434095861012
30
0
41
1
10
3.75033637169378
20
2.96877050906974
30
0
41
1
10
3.75033393513388
20
2.93051579023057
30
0
41
1
10
3.7503215484557
20
2.737465002063
30
0
41
1
10
3.75030055673253
20
2.41923592671759
30
0
41
1
10
3.750275402607
20
2.08261642430662
30
0
41
1
10
3.75026129824079
20
1.90962570604663
30
0
0
SPLINE
5
DB
100
AcDbEntity
8
1
62
256
6
ByLayer
370
18
48
1
60
0
100
AcDbSpline
70
4
71
3
72
64
73
60
40
0
40
0
40
0
40
0
40
0.053011026666893
40
0.053011026666893
40
0.0795165400003395
40
0.0795165400003395
40
0.106022053333786
40
0.106022053333786
40
0.132527566667232
40
0.132527566667232
40
0.159033080000679
40
0.159033080000679
40
0.21204410666757
40
0.21204410666757
40
0.26505513333446
40
0.26505513333446
40
0.291560646667905
40
0.291560646667905
40
0.318066160001351
40
0.318066160001351
40
0.371077186668244
40
0.371077186668244
40
0.397582700001689
40
0.397582700001689
40
0.424088213335134
40
0.424088213335134
40
0.450593726668579
40
0.450593726668579
40
0.477099240002025
40
0.477099240002025
40
0.50360475333547
40
0.50360475333547
40
0.530110266668915
40
0.530110266668915
40
0.55661578000236
40
0.55661578000236
40
0.583121293335806
40
0.583121293335806
40
0.636132320002696
40
0.636132320002696
40
0.689143346669587
40
0.689143346669587
40
0.715648860003032
40
0.715648860003032
40
0.728901616669756
40
0.728901616669756
40
0.74215437333648
40
0.74215437333648
40
0.79516540000337
40
0.79516540000337
40
0.848176426670261
40
0.848176426670261
40
0.901187453337151
40
0.901187453337151
40
0.954198480004041
40
0.954198480004041
40
0.980703993337488
40
0.980703993337488
40
1
40
1
40
1
40
1
41
1
10
54.4490690566908
20
1.12287752979296
30
0
41
1
10
54.2076258570591
20
1.24192228817296
30
0
41
1
10
53.9660601911256
20
1.35977877000343
30
0
41
1
10
53.6033153457222
20
1.5343823388979
30
0
41
1
10
53.482342139882
20
1.59223488865851
30
0
41
1
10
53.2402717139979
20
1.70722908600504
30
0
41
1
10
53.1191340809776
20
1.76429721173216
30
0
41
1
10
52.8770710823893
20
1.87832648888499
30
0
41
1
10
52.7560713190522
20
1.93514871420641
30
0
41
1
10
52.5138317222667
20
2.04783672991857
30
0
41
1
10
52.3925943771426
20
2.10378659506739
30
0
41
1
10
52.0288296881359
20
2.27020762802815
30
0
41
1
10
51.7865059012757
20
2.37905403363374
30
0
41
1
10
51.3023309187903
20
2.59256798072045
30
0
41
1
10
51.0605504005626
20
2.69735195652604
30
0
41
1
10
50.698143377821
20
2.85099295605011
30
0
41
1
10
50.5773879241335
20
2.90161426081792
30
0
41
1
10
50.3359775629318
20
3.00157558751817
30
0
41
1
10
50.2153174418497
20
3.05092565967505
30
0
41
1
10
49.8531676827207
20
3.19714431237193
30
0
41
1
10
49.6114665394773
20
3.29213601099124
30
0
41
1
10
49.2484538424119
20
3.43054424939155
30
0
41
1
10
49.1273779157595
20
3.47600849986281
30
0
41
1
10
48.885083077708
20
3.56555144864072
30
0
41
1
10
48.7638610103598
20
3.60962768405969
30
0
41
1
10
48.5215950694022
20
3.69680980226298
30
0
41
1
10
48.4003890885068
20
3.73973555702401
30
0
41
1
10
48.1581569296123
20
3.8238266780356
30
0
41
1
10
48.0371036006374
20
3.86503742476288
30
0
41
1
10
47.7951092160312
20
3.94569237860199
30
0
41
1
10
47.6741701213737
20
3.98512601901186
30
0
41
1
10
47.432390026666
20
4.06213427260772
30
0
41
1
10
47.3115471873696
20
4.0997262153866
30
0
41
1
10
47.0699363601389
20
4.17321432201842
30
0
41
1
10
46.9491713756334
20
4.20912007745423
30
0
41
1
10
46.7076264251999
20
4.27934043429343
30
0
41
1
10
46.5868479324126
20
4.31364655183194
30
0
41
1
10
46.2244620719735
20
4.41404648316481
30
0
41
1
10
45.9828378576188
20
4.47765638488815
30
0
41
1
10
45.4993056046988
20
4.59764395975739
30
0
41
1
10
45.2573254895419
20
4.65396586188561
30
0
41
1
10
44.8939017025612
20
4.73254234799214
30
0
41
1
10
44.7726818996628
20
4.7577492631161
30
0
41
1
10
44.5907611197749
20
4.79400494480075
30
0
41
1
10
44.5301430347451
20
4.80582309660139
30
0
41
1
10
44.4090287587729
20
4.82897343100666
30
0
41
1
10
44.348540690778
20
4.84031024299171
30
0
41
1
10
44.0462256833901
20
4.89569602740718
30
0
41
1
10
43.8046057636871
20
4.93576241010339
30
0
41
1
10
43.321124955654
20
5.00854633091052
30
0
41
1
10
43.0792827955867
20
5.04114203297212
30
0
41
1
10
42.5958073535687
20
5.09806297091558
30
0
41
1
10
42.3541711993508
20
5.12239756665713
30
0
41
1
10
41.8707087287836
20
5.16274510109324
30
0
41
1
10
41.628927636782
20
5.1788093535761
30
0
41
1
10
41.2660160749242
20
5.19576418710679
30
0
41
1
10
41.1449987699768
20
5.20017810494744
30
0
41
1
10
40.9357101304592
20
5.20592158351897
30
0
41
1
10
40.8474655479727
20
5.20779206489038
30
0
41
1
10
40.7592220379384
20
5.20915407255322
30
0
0
SPLINE
5
DC
100
AcDbEntity
8
1
62
256
6
ByLayer
370
18
48
1
60
0
100
AcDbSpline
70
4
71
3
72
34
73
30
40
0
40
0
40
0
40
0
40
0.0439770669726509
40
0.0439770669726509
40
0.100213710091907
40
0.100213710091907
40
0.212686996330418
40
0.212686996330418
40
0.325160282568929
40
0.325160282568929
40
0.43763356880744
40
0.43763356880744
40
0.493870211926697
40
0.493870211926697
40
0.550106855045952
40
0.550106855045952
40
0.606343498165208
40
0.606343498165208
40
0.662580141284464
40
0.662580141284464
40
0.718816784403721
40
0.718816784403721
40
0.775053427522976
40
0.775053427522976
40
0.831290070642232
40
0.831290070642232
40
0.887526713761488
40
0.887526713761488
40
1
40
1
40
1
40
1
41
1
10
14.4396739251804
20
-4.15866601589647
30
0
41
1
10
14.3448989320307
20
-4.18718298364374
30
0
41
1
10
14.2501593290174
20
-4.21529149076432
30
0
41
1
10
14.0341448401282
20
-4.27811749778485
30
0
41
1
10
13.9129569394263
20
-4.31246033536169
30
0
41
1
10
13.5495592580441
20
-4.41259793307646
30
0
41
1
10
13.3074636097956
20
-4.47545723786408
30
0
41
1
10
12.8234643752007
20
-4.59308402157757
30
0
41
1
10
12.581598703419
20
-4.64805606966775
30
0
41
1
10
12.0976491031175
20
-4.75110344545601
30
0
41
1
10
11.8555658534237
20
-4.79907764582077
30
0
41
1
10
11.4922421823082
20
-4.86531347128809
30
0
41
1
10
11.3710947176312
20
-4.88643342495715
30
0
41
1
10
11.1286513634328
20
-4.92665903375115
30
0
41
1
10
11.0073277730424
20
-4.94576554514359
30
0
41
1
10
10.7648420983865
20
-4.98186104671612
30
0
41
1
10
10.6436432663103
20
-4.99885700375938
30
0
41
1
10
10.4013238773077
20
-5.0307038809899
30
0
41
1
10
10.2801676302157
20
-5.04553885711391
30
0
41
1
10
10.0381201407172
20
-5.07311114490014
30
0
41
1
10
9.91730513548086
20
-5.08586141141498
30
0
41
1
10
9.67563052172108
20
-5.10916991146064
30
0
41
1
10
9.55480478981269
20
-5.11975366929153
30
0
41
1
10
9.31307607698344
20
-5.13889170221896
30
0
41
1
10
9.19217088290628
20
-5.14745652466348
30
0
41
1
10
8.95020069956684
20
-5.16260855057141
30
0
41
1
10
8.82913708345484
20
-5.16918184001028
30
0
41
1
10
8.46573850947885
20
-5.18579486715871
30
0
41
1
10
8.22320527906925
20
-5.19268171726918
30
0
41
1
10
7.98041417589852
20
-5.19531736206818
30
0
0
SPLINE
5
DD
100
AcDbEntity
8
1
62
256
6
ByLayer
370
13
48
1
60
0
100
AcDbSpline
70
4
71
3
72
23
73
19
40
0
40
0
40
0
40
0
40
0.207633661170173
40
0.207633661170173
40
0.415267322340346
40
0.415267322340346
40
0.622900983510519
40
0.622900983510519
40
0.674809398803061
40
0.674809398803061
40
0.726717814095604
40
0.726717814095604
40
0.830534644680691
40
0.934351475265777
40
0.934351475265777
40
0.986259890558321
40
0.986259890558321
40
1
40
1
40
1
40
1
41
1
10
3.75086707304737
20
-4.52412756297497
30
0
41
1
10
3.75085915411799
20
-4.61523951772307
30
0
41
1
10
3.75084914890761
20
-4.69694148083562
30
0
41
1
10
3.75082601042786
20
-4.84214857373794
30
0
41
1
10
3.75081287505833
20
-4.9056519747931
30
0
41
1
10
3.75078434404151
20
-5.01445111444767
30
0
41
1
10
3.75076894712365
20
-5.0597486698567
30
0
41
1
10
3.75074875500371
20
-5.10459360752995
30
0
41
1
10
3.75074466546218
20
-5.11297761343579
30
0
41
1
10
3.75073643836731
20
-5.12848410434816
30
0
41
1
10
3.75073229728045
20
-5.13561561680629
30
0
41
1
10
3.75071980894461
20
-5.1551533858501
30
0
41
1
10
3.75070298492713
20
-5.17625501334169
30
0
41
1
10
3.75068598607288
20
-5.18748470592439
30
0
41
1
10
3.75067322817313
20
-5.19218261039225
30
0
41
1
10
3.75066896939782
20
-5.19312748669952
30
0
41
1
10
3.75066360340412
20
-5.19353177566452
30
0
41
1
10
3.75066248148494
20
-5.19357270462385
30
0
41
1
10
3.75066136080815
20
-5.19357007492363
30
0
0
SPLINE
5
DE
100
AcDbEntity
8
1
62
256
6
ByLayer
370
18
48
1
60
0
100
AcDbSpline
70
4
71
3
72
61
73
57
40
0
40
0
40
0
40
0
40
0.0625000000000004
40
0.0625000000000004
40
0.0781250000000005
40
0.0781250000000005
40
0.0937500000000005
40
0.0937500000000005
40
0.125000000000001
40
0.125000000000001
40
0.187500000000001
40
0.187500000000001
40
0.250000000000001
40
0.250000000000001
40
0.265625000000001
40
0.265625000000001
40
0.281250000000002
40
0.281250000000002
40
0.312500000000002
40
0.343750000000002
40
0.343750000000002
40
0.359375000000001
40
0.359375000000001
40
0.375000000000001
40
0.375000000000001
40
0.437500000000001
40
0.437500000000001
40
0.500000000000001
40
0.500000000000001
40
0.531250000000001
40
0.531250000000001
40
0.546875000000001
40
0.546875000000001
40
0.562500000000001
40
0.562500000000001
40
0.625000000000001
40
0.625000000000001
40
0.65625
40
0.65625
40
0.671875
40
0.671875
40
0.6875
40
0.6875
40
0.75
40
0.75
40
0.8125
40
0.8125
40
0.84375
40
0.84375
40
0.859375
40
0.859375
40
0.875
40
0.875
40
0.9375
40
0.9375
40
1
40
1
40
1
40
1
41
1
10
54.4490690566908
20
1.12287752979296
30
0
41
1
10
54.4300777296031
20
0.948481922355739
30
0
41
1
10
54.4178034922913
20
0.77232766262253
30
0
41
1
10
54.4096274365938
20
0.549995761987049
30
0
41
1
10
54.4083509784265
20
0.505422212782747
30
0
41
1
10
54.4064863310273
20
0.416061393543089
30
0
41
1
10
54.4058983711097
20
0.371224463149048
30
0
41
1
10
54.4051241905951
20
0.237005826366584
30
0
41
1
10
54.4059206391643
20
0.147781319611028
30
0
41
1
10
54.4117548825939
20
-0.119168731999395
30
0
41
1
10
54.4202260241755
20
-0.296172930101676
30
0
41
1
10
54.4440424836673
20
-0.648414249959103
30
0
41
1
10
54.4593920365923
20
-0.823651108380091
30
0
41
1
10
54.4816518635802
20
-1.04165028046108
30
0
41
1
10
54.4862580995718
20
-1.08519761846102
30
0
41
1
10
54.4957507091429
20
-1.17218814285002
30
0
41
1
10
54.5006397637145
20
-1.21565219826061
30
0
41
1
10
54.5156238729173
20
-1.34536784526165
30
0
41
1
10
54.5364812893946
20
-1.51685108617821
30
0
41
1
10
54.5586226456194
20
-1.68547052941167
30
0
41
1
10
54.5755499744648
20
-1.81087920293609
30
0
41
1
10
54.5812461182691
20
-1.85250599870818
30
0
41
1
10
54.5927209258046
20
-1.93540905490596
30
0
41
1
10
54.5985029367821
20
-1.97670830748209
30
0
41
1
10
54.6274494258356
20
-2.18155510040583
30
0
41
1
10
54.6507860476626
20
-2.34074438707097
30
0
41
1
10
54.6965119400772
20
-2.65013710988896
30
0
41
1
10
54.7189037804712
20
-2.80033935098345
30
0
41
1
10
54.7510655105115
20
-3.01893150154427
30
0
41
1
10
54.7615508710767
20
-3.090674406944
30
0
41
1
10
54.7768573689204
20
-3.19658696647849
30
0
41
1
10
54.7818894204685
20
-3.23160735223487
30
0
41
1
10
54.7918035581817
20
-3.30107510573444
30
0
41
1
10
54.7966904542351
20
-3.3355568194321
30
0
41
1
10
54.8206631517635
20
-3.50604911603131
30
0
41
1
10
54.8383244041682
20
-3.63613506150176
30
0
41
1
10
54.8624374072277
20
-3.82183629960815
30
0
41
1
10
54.870081268744
20
-3.88216211012602
30
0
41
1
10
54.8809678367334
20
-3.97026323735403
30
0
41
1
10
54.8844982558549
20
-3.99921628910133
30
0
41
1
10
54.8913418335177
20
-4.05607648181899
30
0
41
1
10
54.894658890933
20
-4.08401498954328
30
0
41
1
10
54.91074359639
20
-4.22127280297553
30
0
41
1
10
54.9219979785642
20
-4.32330706463875
30
0
41
1
10
54.9420537420911
20
-4.51211022706894
30
0
41
1
10
54.9508536968166
20
-4.59887857439853
30
0
41
1
10
54.9630279252924
20
-4.71743574014027
30
0
41
1
10
54.9669176215597
20
-4.75501862001255
30
0
41
1
10
54.9726274135019
20
-4.80843656199198
30
0
41
1
10
54.9745100791651
20
-4.8257495695145
30
0
41
1
10
54.9782580009767
20
-4.85937791137383
30
0
41
1
10
54.9801236538099
20
-4.87569504983466
30
0
41
1
10
54.9894269525624
20
-4.95438344259028
30
0
41
1
10
54.9968177969045
20
-5.00841650243424
30
0
41
1
10
55.0132740788086
20
-5.0989029170137
30
0
41
1
10
55.0223362134022
20
-5.13535713190515
30
0
41
1
10
55.033256353879
20
-5.16288657899278
30
0
0
SPLINE
5
DF
100
AcDbEntity
8
1
62
256
6
ByLayer
370
18
48
1
60
0
100
AcDbSpline
70
4
71
3
72
19
73
15
40
0
40
0
40
0
40
0
40
0.250000000000044
40
0.250000000000044
40
0.375000000000036
40
0.375000000000036
40
0.500000000000029
40
0.500000000000029
40
0.625000000000022
40
0.625000000000022
40
0.750000000000015
40
0.875000000000007
40
0.875000000000007
40
1
40
1
40
1
40
1
41
1
10
3.63359871297857
20
1.9597532296628
30
0
41
1
10
3.61338301595001
20
1.96967782728135
30
0
41
1
10
3.59506137941696
20
1.98190389971143
30
0
41
1
10
3.5703442647891
20
2.00357417173313
30
0
41
1
10
3.56253985552965
20
2.01141179362466
30
0
41
1
10
3.54833141026882
20
2.02777409031666
30
0
41
1
10
3.54186969518432
20
2.03633909514022
30
0
41
1
10
3.53021518194018
20
2.05422226230769
30
0
41
1
10
3.52501596813914
20
2.0635537793851
30
0
41
1
10
3.51596715455659
20
2.08294315312173
30
0
41
1
10
3.50844882186018
20
2.10266123706649
30
0
41
1
10
3.50387178994396
20
2.12300421824605
30
0
41
1
10
3.50078858304238
20
2.14366239661243
30
0
41
1
10
3.5
20
2.15418000115611
30
0
41
1
10
3.5
20
2.16466820350323
30
0
0
SPLINE
5
E0
100
AcDbEntity
8
1
62
256
6
ByLayer
370
18
48
1
60
0
100
AcDbSpline
70
4
71
3
72
29
73
25
40
0
40
0
40
0
40
0
40
0.192164495488146
40
0.192164495488146
40
0.240205619360182
40
0.240205619360182
40
0.288246743232219
40
0.384328990976295
40
0.384328990976295
40
0.480411238720372
40
0.480411238720372
40
0.576493486464448
40
0.576493486464448
40
0.624534610336485
40
0.624534610336485
40
0.672575734208521
40
0.672575734208521
40
0.768657981952589
40
0.768657981952589
40
0.864740229696658
40
0.864740229696658
40
0.960822477440728
40
0.960822477440728
40
1
40
1
40
1
40
1
41
1
10
23.9999999999894
20
5.35932410817821
30
0
41
1
10
23.3882517410075
20
5.42649467533241
30
0
41
1
10
22.7763831532005
20
5.46572445735796
30
0
41
1
10
22.0091109845236
20
5.47897419767361
30
0
41
1
10
21.8557391519638
20
5.47982886465814
30
0
41
1
10
21.5492349647369
20
5.47795944484892
30
0
41
1
10
21.0897552159371
20
5.46978835906455
30
0
41
1
10
20.6308166686981
20
5.44561081308129
30
0
41
1
10
20.0189674389992
20
5.39926263658273
30
0
41
1
10
19.7130961385953
20
5.36901981981248
30
0
41
1
10
19.10076441814
20
5.29460943599486
30
0
41
1
10
18.7943160838848
20
5.2504435945514
30
0
41
1
10
18.3338841417332
20
5.17385984508331
30
0
41
1
10
18.1804774927166
20
5.14663882585202
30
0
41
1
10
17.8739799151062
20
5.08890432620564
30
0
41
1
10
17.7208511038207
20
5.05838443400009
30
0
41
1
10
17.2617066683413
20
4.96196894144322
30
0
41
1
10
16.9559126325494
20
4.89123367645033
30
0
41
1
10
16.344423485531
20
4.73733701260406
30
0
41
1
10
16.0387356415154
20
4.65417148690773
30
0
41
1
10
15.4270716380576
20
4.47577203157766
30
0
41
1
10
15.121046586043
20
4.38058545364837
30
0
41
1
10
14.6895608755965
20
4.23857585702177
30
0
41
1
10
14.5645006041092
20
4.19649398069362
30
0
41
1
10
14.4393522311242
20
4.15348089431964
30
0
0
SPLINE
5
E1
100
AcDbEntity
8
1
62
256
6
ByLayer
370
18
48
1
60
0
100
AcDbSpline
70
4
71
3
72
84
73
80
40
0
40
0
40
0
40
0
40
0.0156250000000009
40
0.0156250000000009
40
0.0312500000000017
40
0.0312500000000017
40
0.0625000000000034
40
0.0625000000000034
40
0.125000000000008
40
0.125000000000008
40
0.14062500000001
40
0.14062500000001
40
0.156250000000012
40
0.156250000000012
40
0.187500000000014
40
0.187500000000014
40
0.203125000000016
40
0.203125000000016
40
0.218750000000017
40
0.25000000000002
40
0.25000000000002
40
0.265625000000021
40
0.265625000000021
40
0.281250000000023
40
0.281250000000023
40
0.312500000000025
40
0.312500000000025
40
0.328125000000026
40
0.328125000000026
40
0.343750000000027
40
0.343750000000027
40
0.375000000000029
40
0.375000000000029
40
0.406250000000031
40
0.406250000000031
40
0.421875000000031
40
0.421875000000031
40
0.437500000000032
40
0.437500000000032
40
0.468750000000031
40
0.468750000000031
40
0.484375000000031
40
0.484375000000031
40
0.50000000000003
40
0.50000000000003
40
0.562500000000025
40
0.562500000000025
40
0.593750000000023
40
0.593750000000023
40
0.609375000000022
40
0.609375000000022
40
0.62500000000002
40
0.62500000000002
40
0.656250000000018
40
0.656250000000018
40
0.687500000000016
40
0.687500000000016
40
0.718750000000014
40
0.718750000000014
40
0.734375000000013
40
0.734375000000013
40
0.750000000000012
40
0.750000000000012
40
0.78125000000001
40
0.78125000000001
40
0.796875000000009
40
0.796875000000009
40
0.812500000000008
40
0.843750000000006
40
0.843750000000006
40
0.851562500000005
40
0.851562500000005
40
0.859375000000005
40
0.875000000000004
40
0.906250000000003
40
0.906250000000003
40
0.937500000000003
40
0.937500000000003
40
1
40
1
40
1
40
1
41
1
10
24
20
5.40651087698814
30
0
41
1
10
24.1617694560144
20
5.39263955316633
30
0
41
1
10
24.3235327787423
20
5.37680843501715
30
0
41
1
10
24.6471211862777
20
5.34125384683747
30
0
41
1
10
24.808900553863
20
5.32153334034211
30
0
41
1
10
25.2937256873325
20
5.25667628520827
30
0
41
1
10
25.6164731620443
20
5.2058202230568
30
0
41
1
10
26.5841822631876
20
5.03100142867072
30
0
41
1
10
27.2285980676023
20
4.88475310791014
30
0
41
1
10
28.0364210076398
20
4.66721194737482
30
0
41
1
10
28.1981569988984
20
4.62195349735654
30
0
41
1
10
28.5216844307886
20
4.52811368729087
30
0
41
1
10
28.6833906157155
20
4.47956051773122
30
0
41
1
10
29.1684401946457
20
4.32912581252958
30
0
41
1
10
29.4917076627855
20
4.22246215973203
30
0
41
1
10
29.9768643868443
20
4.05337491951877
30
0
41
1
10
30.1386732079282
20
3.99548012915651
30
0
41
1
10
30.4621315824109
20
3.87686475471233
30
0
41
1
10
30.9471264442618
20
3.69469131619604
30
0
41
1
10
31.4318863667783
20
3.50023380611538
30
0
41
1
10
31.9169757211014
20
3.29826708973309
30
0
41
1
10
32.0787424645471
20
3.22968669916045
30
0
41
1
10
32.4020867606069
20
3.09031311155545
30
0
41
1
10
32.5637111976915
20
3.01950076962939
30
0
41
1
10
33.0485674585134
20
2.80389085068819
30
0
41
1
10
33.3717911148868
20
2.65593462867235
30
0
41
1
10
33.8570599389791
20
2.42842294638541
30
0
41
1
10
34.0187976927633
20
2.35169063794305
30
0
41
1
10
34.3419319776812
20
2.19672756864813
30
0
41
1
10
34.5033837133129
20
2.11847098755419
30
0
41
1
10
34.9874969150036
20
1.88156480010682
30
0
41
1
10
35.3099145902912
20
1.72077532596623
30
0
41
1
10
35.9547036635687
20
1.39458230109187
30
0
41
1
10
36.2770756634359
20
1.22917944396045
30
0
41
1
10
36.7610889626849
20
0.978508286261899
30
0
41
1
10
36.9225029437461
20
0.894524144269496
30
0
41
1
10
37.2455678728631
20
0.725857655725633
30
0
41
1
10
37.4072838622184
20
0.641141196963332
30
0
41
1
10
37.892424453691
20
0.386441486293307
30
0
41
1
10
38.215630742397
20
0.216022631244158
30
0
41
1
10
38.7005041771661
20
-0.0397843416366754
30
0
41
1
10
38.8621398099146
20
-0.125082199545687
30
0
41
1
10
39.1855053398485
20
-0.295599165825564
30
0
41
1
10
39.3472991932722
20
-0.380851804106584
30
0
41
1
10
40.1554055463223
20
-0.805881724225458
30
0
41
1
10
40.7997996275659
20
-1.14226697995198
30
0
41
1
10
41.7669552898581
20
-1.63451260583807
30
0
41
1
10
42.0894240671044
20
-1.79655914134543
30
0
41
1
10
42.573721137997
20
-2.03571103618995
30
0
41
1
10
42.7352529225905
20
-2.1147745945122
30
0
41
1
10
43.0585980214909
20
-2.27144274916563
30
0
41
1
10
43.2203128438014
20
-2.34899888516722
30
0
41
1
10
43.7052011468312
20
-2.57887495085871
30
0
41
1
10
44.0283337256491
20
-2.72848767484655
30
0
41
1
10
44.6748838273713
20
-3.01955328466184
30
0
41
1
10
44.9984230943369
20
-3.16105772848209
30
0
41
1
10
45.6448804926448
20
-3.43434200646865
30
0
41
1
10
45.9679605542963
20
-3.56619661035035
30
0
41
1
10
46.4528251196113
20
-3.75610077096619
30
0
41
1
10
46.614534914595
20
-3.81810635249778
30
0
41
1
10
46.9378590102689
20
-3.93927617980199
30
0
41
1
10
47.0994577895979
20
-3.99843553027875
30
0
41
1
10
47.5841873424783
20
-4.17148239418626
30
0
41
1
10
47.9072571630502
20
-4.28093099570859
30
0
41
1
10
48.3921992698042
20
-4.43566626333097
30
0
41
1
10
48.5539364948451
20
-4.48568453309406
30
0
41
1
10
48.8772265912768
20
-4.58238833901655
30
0
41
1
10
49.3619954408494
20
-4.72248172222763
30
0
41
1
10
49.8465919967235
20
-4.84736012553572
30
0
41
1
10
50.2507136047549
20
-4.94259272583119
30
0
41
1
10
50.3315725298616
20
-4.96120191147955
30
0
41
1
10
50.4931712135691
20
-4.99749237985793
30
0
41
1
10
50.7354271447956
20
-5.05054559525331
30
0
41
1
10
51.2998019276774
20
-5.16460689760046
30
0
41
1
10
51.7823921804485
20
-5.24551891255496
30
0
41
1
10
52.4254550465486
20
-5.33815069369771
30
0
41
1
10
52.7467902685061
20
-5.37684456519696
30
0
41
1
10
53.7110032666107
20
-5.46975091716825
30
0
41
1
10
54.354067693526
20
-5.50077726135316
30
0
41
1
10
54.999815832919
20
-5.49996514616504
30
0
0
SPLINE
5
E2
100
AcDbEntity
8
1
62
256
6
ByLayer
370
18
48
1
60
0
100
AcDbSpline
70
4
71
3
72
8
73
4
40
0
40
0
40
0
40
0
40
1
40
1
40
1
40
1
41
1
10
54.9998158329272
20
-5.49996514616507
30
0
41
1
10
54.977113858356
20
-5.50090108383529
30
0
41
1
10
54.9617083320512
20
-5.48249023250264
30
0
41
1
10
54.9500735294281
20
-5.44517197903812
30
0
0
SPLINE
5
E3
100
AcDbEntity
8
1
62
256
6
ByLayer
370
18
48
1
60
0
100
AcDbSpline
70
4
71
3
72
39
73
35
40
0
40
0
40
0
40
0
40
0.0086286003399909
40
0.0086286003399909
40
0.0453460595866561
40
0.118780978079989
40
0.118780978079989
40
0.192215896573322
40
0.192215896573322
40
0.265650815066655
40
0.265650815066655
40
0.302368274313323
40
0.302368274313323
40
0.339085733559991
40
0.339085733559991
40
0.412520652053325
40
0.412520652053325
40
0.48595557054666
40
0.48595557054666
40
0.559390489039994
40
0.559390489039994
40
0.596107948286661
40
0.596107948286661
40
0.632825407533328
40
0.632825407533328
40
0.706260326026663
40
0.706260326026663
40
0.779695244519997
40
0.779695244519997
40
0.853130163013331
40
0.853130163013331
40
0.926565081506666
40
0.926565081506666
40
1
40
1
40
1
40
1
41
1
10
21.8105491077731
20
-5.47925659357665
30
0
41
1
10
21.7745221333651
20
-5.47923464999764
30
0
41
1
10
21.7385012895675
20
-5.47911381151533
30
0
41
1
10
21.5492349647359
20
-5.47795944484889
30
0
41
1
10
21.0897552159364
20
-5.46978835906452
30
0
41
1
10
20.6308166686975
20
-5.44561081308123
30
0
41
1
10
20.0189674389985
20
-5.39926263658265
30
0
41
1
10
19.7130961385944
20
-5.36901981981237
30
0
41
1
10
19.1007644181386
20
-5.29460943599466
30
0
41
1
10
18.794316083883
20
-5.25044359455111
30
0
41
1
10
18.3338841417306
20
-5.17385984508286
30
0
41
1
10
18.1804774927146
20
-5.14663882585165
30
0
41
1
10
17.8739799151045
20
-5.08890432620532
30
0
41
1
10
17.7208511038193
20
-5.05838443399978
30
0
41
1
10
17.2617066683401
20
-4.96196894144296
30
0
41
1
10
16.9559126325486
20
-4.8912336764501
30
0
41
1
10
16.3444234855303
20
-4.73733701260386
30
0
41
1
10
16.0387356415146
20
-4.65417148690753
30
0
41
1
10
15.4270716380568
20
-4.47577203157744
30
0
41
1
10
15.121046586042
20
-4.38058545364808
30
0
41
1
10
14.6612855258666
20
-4.22926993816418
30
0
41
1
10
14.5079086367494
20
-4.17740401458641
30
0
41
1
10
14.2008857115064
20
-4.07088400459156
30
0
41
1
10
14.0475519109325
20
-4.01633641187175
30
0
41
1
10
13.5880032913541
20
-3.8489553298943
30
0
41
1
10
13.2822462002453
20
-3.73237423073803
30
0
41
1
10
12.6713129619068
20
-3.4901872499234
30
0
41
1
10
12.3661318131124
20
-3.36459168386395
30
0
41
1
10
11.7558960237609
20
-3.10510235715486
30
0
41
1
10
11.450871923043
20
-2.97115935856721
30
0
41
1
10
10.8404433649274
20
-2.69576267725881
30
0
41
1
10
10.5350096780243
20
-2.55435825993965
30
0
41
1
10
9.92321051139925
20
-2.26493289400068
30
0
41
1
10
9.61684313723248
20
-2.11691739816354
30
0
41
1
10
9.30982052007926
20
-1.96588214449673
30
0
0
SPLINE
5
E4
100
AcDbEntity
8
1
62
256
6
ByLayer
370
18
48
1
60
0
100
AcDbSpline
70
4
71
3
72
23
73
19
40
0
40
0
40
0
40
0
40
0.115212044087863
40
0.115212044087863
40
0.178411183795874
40
0.178411183795874
40
0.241610323503884
40
0.368008602919904
40
0.368008602919904
40
0.399608172773909
40
0.399608172773909
40
0.431207742627913
40
0.494406882335924
40
0.620805161751943
40
0.620805161751943
40
0.747203441167964
40
0.747203441167964
40
1
40
1
40
1
40
1
41
1
10
47.3468296012886
20
4.08660781286872
30
0
41
1
10
47.6413723989349
20
4.19080549668087
30
0
41
1
10
47.9358687156321
20
4.29006036637816
30
0
41
1
10
48.392199269804
20
4.43566626333092
30
0
41
1
10
48.5539364948448
20
4.485684533094
30
0
41
1
10
48.8772265912766
20
4.58238833901646
30
0
41
1
10
49.3619954408493
20
4.7224817222276
30
0
41
1
10
49.8465919967234
20
4.84736012553569
30
0
41
1
10
50.2507136047548
20
4.94259272583113
30
0
41
1
10
50.3315725298614
20
4.96120191147952
30
0
41
1
10
50.4931712135689
20
4.99749237985787
30
0
41
1
10
50.7354271447954
20
5.05054559525325
30
0
41
1
10
51.2998019276773
20
5.16460689760044
30
0
41
1
10
51.7823921804484
20
5.24551891255493
30
0
41
1
10
52.4254550465485
20
5.33815069369768
30
0
41
1
10
52.7467902685059
20
5.37684456519693
30
0
41
1
10
53.7110032666105
20
5.46975091716825
30
0
41
1
10
54.3540676935258
20
5.50077726135316
30
0
41
1
10
54.9998158329187
20
5.49996514616504
30
0
0
SPLINE
5
E5
100
AcDbEntity
8
1
62
256
6
ByLayer
370
13
48
1
60
0
100
AcDbSpline
70
4
71
3
72
37
73
33
40
0
40
0
40
0
40
0
40
0.0558098009157749
40
0.0558098009157749
40
0.0837147013736616
40
0.0837147013736616
40
0.111619601831548
40
0.111619601831548
40
0.167429402747322
40
0.167429402747322
40
0.223239203663095
40
0.223239203663095
40
0.334858805494642
40
0.334858805494642
40
0.390668606410416
40
0.390668606410416
40
0.44647840732619
40
0.44647840732619
40
0.558098009157738
40
0.558098009157738
40
0.586002909615624
40
0.599955359844568
40
0.599955359844568
40
0.613907810073512
40
0.613907810073512
40
0.669717610989286
40
0.669717610989286
40
0.781337212820836
40
0.781337212820836
40
0.892956814652386
40
0.892956814652386
40
1
40
1
40
1
40
1
41
1
10
3.75026129824076
20
1.90962570604663
30
0
41
1
10
4.01969415094095
20
1.78457118417637
30
0
41
1
10
4.28905835150215
20
1.65757975705318
30
0
41
1
10
4.69323554921459
20
1.46464264011644
30
0
41
1
10
4.82788311557522
20
1.39996952514971
30
0
41
1
10
5.0967163308344
20
1.27015072777354
30
0
41
1
10
5.23095381611446
20
1.20497881785562
30
0
41
1
10
5.63319738303719
20
1.00881554079569
30
0
41
1
10
5.9007400972007
20
0.877187519088267
30
0
41
1
10
6.43497276433274
20
0.613017140742727
30
0
41
1
10
6.70165018316953
20
0.480449666180476
30
0
41
1
10
7.50072843601828
20
0.0820496366045802
30
0
41
1
10
8.03218646315256
20
-0.184458995814452
30
0
41
1
10
8.82936319077024
20
-0.581741745675544
30
0
41
1
10
9.09509392306848
20
-0.713742715082844
30
0
41
1
10
9.62694057954286
20
-0.976130590430728
30
0
41
1
10
9.89304727639049
20
-1.10653536773845
30
0
41
1
10
10.6922605647063
20
-1.49466870794373
30
0
41
1
10
11.2262686544375
20
-1.7493035142918
30
0
41
1
10
11.8968353599798
20
-2.05928966412395
30
0
41
1
10
12.0982374306189
20
-2.15165710886035
30
0
41
1
10
12.3000486500068
20
-2.2429605645716
30
0
41
1
10
12.4346873361404
20
-2.30357925045976
30
0
41
1
10
12.502053644299
20
-2.3337619678197
30
0
41
1
10
12.8385135820207
20
-2.48374278456291
30
0
41
1
10
13.1069889167547
20
-2.60097702996057
30
0
41
1
10
13.9105950353298
20
-2.94392443763164
30
0
41
1
10
14.4439556667962
20
-3.16085797621713
30
0
41
1
10
15.5085986749638
20
-3.567608065233
30
0
41
1
10
16.0399064416003
20
-3.75738800831604
30
0
41
1
10
17.0811893214033
20
-4.09893998785088
30
0
41
1
10
17.5911434628433
20
-4.25199378430997
30
0
41
1
10
18.1022987124846
20
-4.38958387771001
30
0
0
SPLINE
5
E6
100
AcDbEntity
8
1
62
256
6
ByLayer
370
18
48
1
60
0
100
AcDbSpline
70
4
71
3
72
24
73
20
40
0
40
0
40
0
40
0
40
0.0112715109165341
40
0.0112715109165341
40
0.148728563505398
40
0.148728563505398
40
0.286185616094263
40
0.286185616094263
40
0.354914142388696
40
0.354914142388696
40
0.423642668683128
40
0.423642668683128
40
0.561099721271999
40
0.561099721271999
40
0.836013826449745
40
0.836013826449745
40
0.973470879038615
40
0.973470879038615
40
1
40
1
40
1
40
1
41
1
10
18.1022987063387
20
-4.3895838760557
30
0
41
1
10
18.1241521248628
20
-4.39546626482255
30
0
41
1
10
18.146007738795
20
-4.40132038874384
30
0
41
1
10
18.4344244502907
20
-4.4781917475546
30
0
41
1
10
18.7013275884916
20
-4.54500814952783
30
0
41
1
10
19.236224730243
20
-4.66969779506206
30
0
41
1
10
19.5042145817366
20
-4.72761441760582
30
0
41
1
10
19.9071912942609
20
-4.80747049860838
30
0
41
1
10
20.0416833391281
20
-4.83291996317811
30
0
41
1
10
20.3110437553087
20
-4.88143490814994
30
0
41
1
10
20.445535246854
20
-4.90443198375826
30
0
41
1
10
20.8484899138096
20
-4.96963241191952
30
0
41
1
10
21.1164439329615
20
-5.00805359164585
30
0
41
1
10
21.9187738320082
20
-5.10817489162375
30
0
41
1
10
22.4515816234541
20
-5.15466756908427
30
0
41
1
10
23.2494557839401
20
-5.19373268654178
30
0
41
1
10
23.5151968230433
20
-5.20164286259308
30
0
41
1
10
23.8321844119089
20
-5.20498132847484
30
0
41
1
10
23.8834657964642
20
-5.20533560438599
30
0
41
1
10
23.9347479498612
20
-5.20550285958362
30
0
0
SPLINE
5
E7
100
AcDbEntity
8
1
62
256
6
ByLayer
370
13
48
1
60
0
100
AcDbSpline
70
4
71
3
72
28
73
24
40
0
40
0
40
0
40
0
40
0.103759707374965
40
0.103759707374965
40
0.177191928607267
40
0.177191928607267
40
0.250624149839568
40
0.250624149839568
40
0.397488592304175
40
0.397488592304175
40
0.470920813536479
40
0.470920813536479
40
0.50763692415263
40
0.50763692415263
40
0.544353034768782
40
0.544353034768782
40
0.617785256001088
40
0.617785256001088
40
0.691217477233394
40
0.691217477233394
40
0.838081919698004
40
0.838081919698004
40
1
40
1
40
1
40
1
41
1
10
25.6684021292751
20
-5.21760051293069
30
0
41
1
10
25.2919416249969
20
-5.25234661968929
30
0
41
1
10
24.916112250872
20
-5.2767377521314
30
0
41
1
10
24.2745730956153
20
-5.30055880302351
30
0
41
1
10
24.0088011285908
20
-5.305189712144
30
0
41
1
10
23.4772895602212
20
-5.30424870771353
30
0
41
1
10
23.2114892359269
20
-5.29856744975555
30
0
41
1
10
22.4134210406969
20
-5.26586064466716
30
0
41
1
10
21.8804601787965
20
-5.22317309470083
30
0
41
1
10
21.0778035966107
20
-5.12804810508109
30
0
41
1
10
20.8097288588203
20
-5.09116897702367
30
0
41
1
10
20.4065608371144
20
-5.02809580459291
30
0
41
1
10
20.2719950997333
20
-5.00577749481627
30
0
41
1
10
20.0024646782963
20
-4.95855492307419
30
0
41
1
10
19.8678742263831
20
-4.93371656118578
30
0
41
1
10
19.4646484184801
20
-4.85560451944522
30
0
41
1
10
19.1965221769193
20
-4.79871810156681
30
0
41
1
10
18.6614003200936
20
-4.67579954544394
30
0
41
1
10
18.3943948486728
20
-4.60974002362011
30
0
41
1
10
17.5944343002969
20
-4.39848640002532
30
0
41
1
10
17.0625146260619
20
-4.24025071860646
30
0
41
1
10
15.9446898121979
20
-3.87412620103277
30
0
41
1
10
15.3588668292369
20
-3.66269845724099
30
0
41
1
10
14.7715630042802
20
-3.43434762097576
30
0
0
SPLINE
5
E8
100
AcDbEntity
8
1
62
256
6
ByLayer
370
18
48
1
60
0
100
AcDbSpline
70
4
71
3
72
23
73
19
40
0
40
0
40
0
40
0
40
0.196196248617317
40
0.196196248617317
40
0.30549780681894
40
0.30549780681894
40
0.332823196369346
40
0.332823196369346
40
0.360148585919754
40
0.414799365020567
40
0.414799365020567
40
0.633402481423818
40
0.633402481423818
40
0.742704039625442
40
0.742704039625442
40
0.852005597827066
40
0.852005597827066
40
1
40
1
40
1
40
1
41
1
10
14.7715630042653
20
-3.43434762096993
30
0
41
1
10
14.2934632788795
20
-3.24845666049779
30
0
41
1
10
13.8143822122491
20
-3.05135091230434
30
0
41
1
10
13.0653482508634
20
-2.7290893300725
30
0
41
1
10
12.7967396467531
20
-2.61072703014599
30
0
41
1
10
12.4600857307109
20
-2.45914744829696
30
0
41
1
10
12.3926783368513
20
-2.42863499585701
30
0
41
1
10
12.2579531769842
20
-2.36733973758089
30
0
41
1
10
12.0560167265886
20
-2.27500077811212
30
0
41
1
10
11.8545015663848
20
-2.18153711127758
30
0
41
1
10
11.1835794637906
20
-1.86776666034524
30
0
41
1
10
10.6493588728295
20
-1.60968069881039
30
0
41
1
10
9.84989607801165
20
-1.21573727144715
30
0
41
1
10
9.58371950268159
20
-1.0832865477681
30
0
41
1
10
9.0517459399079
20
-0.816605289497062
30
0
41
1
10
8.78595595301655
20
-0.682361723110745
30
0
41
1
10
8.16029621769994
20
-0.365128413944348
30
0
41
1
10
7.80041996781424
20
-0.181724061677812
30
0
41
1
10
7.44014083419938
20
0.0018123632451079
30
0
0
SPLINE
5
E9
100
AcDbEntity
8
1
62
256
6
ByLayer
370
18
48
1
60
0
100
AcDbSpline
70
4
71
3
72
59
73
55
40
0
40
0
40
0
40
0
40
0.0062367338857432
40
0.0062367338857432
40
0.0405044327172705
40
0.0405044327172705
40
0.109039830380324
40
0.109039830380324
40
0.143307529211851
40
0.143307529211851
40
0.160441378627615
40
0.160441378627615
40
0.177575228043379
40
0.177575228043379
40
0.246110625706435
40
0.246110625706435
40
0.280378324537962
40
0.297512173953726
40
0.297512173953726
40
0.31464602336949
40
0.31464602336949
40
0.348913722201016
40
0.348913722201016
40
0.383181421032542
40
0.383181421032542
40
0.451716818695594
40
0.451716818695594
40
0.468850668111356
40
0.468850668111356
40
0.485984517527119
40
0.520252216358644
40
0.520252216358644
40
0.588787614021695
40
0.588787614021695
40
0.62305531285322
40
0.62305531285322
40
0.640189162268983
40
0.640189162268983
40
0.657323011684745
40
0.725858409347796
40
0.725858409347796
40
0.760126108179322
40
0.760126108179322
40
0.777259957595084
40
0.777259957595084
40
0.794393807010847
40
0.794393807010847
40
0.862929204673899
40
0.862929204673899
40
0.897196903505424
40
0.897196903505424
40
0.931464602336949
40
0.931464602336949
40
1
40
1
40
1
40
1
41
1
10
27.0328564157662
20
-5.21426066908302
30
0
41
1
10
26.9841170065037
20
-5.22217763361871
30
0
41
1
10
26.9353885616606
20
-5.22992129347233
30
0
41
1
10
26.6190414370345
20
-5.2790717358364
30
0
41
1
10
26.3517455578931
20
-5.31539284959109
30
0
41
1
10
25.55029502048
20
-5.40836901627677
30
0
41
1
10
25.0165328704505
20
-5.44901987255966
30
0
41
1
10
24.2146585882329
20
-5.4775100441243
30
0
41
1
10
23.9471962200384
20
-5.48159915129122
30
0
41
1
10
23.5455324399937
20
-5.47953740548516
30
0
41
1
10
23.4115187301126
20
-5.47748183988583
30
0
41
1
10
23.1437834566634
20
-5.47064707054861
30
0
41
1
10
23.0100022598776
20
-5.46586835497581
30
0
41
1
10
22.3414082642452
20
-5.4352094741914
30
0
41
1
10
21.8075022719953
20
-5.38904238761978
30
0
41
1
10
21.0061600977902
20
-5.28811811170954
30
0
41
1
10
20.6053794400323
20
-5.22973008472192
30
0
41
1
10
20.2040188438662
20
-5.15962587696038
30
0
41
1
10
19.9362709980096
20
-5.11030726265412
30
0
41
1
10
19.802243705272
20
-5.08434280386879
30
0
41
1
10
19.4004023115961
20
-5.00272576585846
30
0
41
1
10
19.1328786316077
20
-4.94335753738756
30
0
41
1
10
18.5982864711747
20
-4.81498745246103
30
0
41
1
10
18.3312041562236
20
-4.7459945567029
30
0
41
1
10
17.5299510048944
20
-4.52523933054567
30
0
41
1
10
16.9957721036309
20
-4.35972268648118
30
0
41
1
10
16.3265672909124
20
-4.13140447338466
30
0
41
1
10
16.1926298759318
20
-4.08466163079427
30
0
41
1
10
15.9246512024499
20
-3.98911493196172
30
0
41
1
10
15.5229895815908
20
-3.84286822234623
30
0
41
1
10
15.1220096953799
20
-3.68818572391476
30
0
41
1
10
14.3204179116126
20
-3.36838651165573
30
0
41
1
10
13.7865100227343
20
-3.14127847509582
30
0
41
1
10
12.9843079413558
20
-2.78294124818626
30
0
41
1
10
12.7166847777401
20
-2.66055055796204
30
0
41
1
10
12.314737129255
20
-2.4728075388359
30
0
41
1
10
12.1807394911935
20
-2.40956530106223
30
0
41
1
10
11.9130209020134
20
-2.28203638390261
30
0
41
1
10
11.244147357575
20
-1.96047400261497
30
0
41
1
10
10.5766277005785
20
-1.6265852132963
30
0
41
1
10
9.77493986402547
20
-1.21769357046227
30
0
41
1
10
9.50760148205751
20
-1.08002287195146
30
0
41
1
10
9.10622272912877
20
-0.871833420314431
30
0
41
1
10
8.97236806092491
20
-0.8021560174858
30
0
41
1
10
8.70448233577383
20
-0.662336723879605
30
0
41
1
10
8.57040931444567
20
-0.592172738262093
30
0
41
1
10
7.90102024692368
20
-0.241248091753079
30
0
41
1
10
7.36747246976287
20
0.0403923756771576
30
0
41
1
10
6.56802751881222
20
0.460260975473147
30
0
41
1
10
6.30169446560396
20
0.599790277109634
30
0
41
1
10
5.76904637808408
20
0.877463208120417
30
0
41
1
10
5.50273488851275
20
1.01561317324379
30
0
41
1
10
4.70323004990937
20
1.42684723771879
30
0
41
1
10
4.16944953261529
20
1.69668519095273
30
0
41
1
10
3.6335987129786
20
1.9597532296628
30
0
0
SPLINE
5
EA
100
AcDbEntity
8
1
62
256
6
ByLayer
370
13
48
1
60
0
100
AcDbSpline
70
4
71
3
72
42
73
38
40
0
40
0
40
0
40
0
40
0.0645625666485954
40
0.0645625666485954
40
0.11993355342686
40
0.11993355342686
40
0.175304540205124
40
0.175304540205124
40
0.286046513761653
40
0.286046513761653
40
0.313732007150785
40
0.313732007150785
40
0.341417500539917
40
0.341417500539917
40
0.396788487318182
40
0.396788487318182
40
0.507530460874716
40
0.507530460874716
40
0.562901447652983
40
0.562901447652983
40
0.61827243443125
40
0.61827243443125
40
0.729014407987781
40
0.729014407987781
40
0.784385394766047
40
0.784385394766047
40
0.839756381544313
40
0.839756381544313
40
0.867441874933445
40
0.867441874933445
40
0.881284621628012
40
0.881284621628012
40
0.895127368322578
40
0.895127368322578
40
0.950498355100844
40
0.950498355100844
40
1
40
1
40
1
40
1
41
1
10
36.5000968326712
20
1.87026920600076
30
0
41
1
10
36.8097240498263
20
1.7253265012942
30
0
41
1
10
37.1191470864374
20
1.57797493223842
30
0
41
1
10
37.6940492095773
20
1.30072690728267
30
0
41
1
10
37.9595167400745
20
1.17132729252106
30
0
41
1
10
38.4907751826573
20
0.910225699466935
30
0
41
1
10
38.7565698602816
20
0.778525635132951
30
0
41
1
10
39.5549719880837
20
0.380944146737846
30
0
41
1
10
40.0885859216861
20
0.112589374200127
30
0
41
1
10
40.7589153700671
20
-0.223673447270642
30
0
41
1
10
40.8931486428641
20
-0.290963576760277
30
0
41
1
10
41.161986616375
20
-0.425545138059249
30
0
41
1
10
41.2966942101526
20
-0.492896545344791
30
0
41
1
10
41.6999716174183
20
-0.694186769408219
30
0
41
1
10
41.968054328164
20
-0.827513247468659
30
0
41
1
10
42.7705693224852
20
-1.2237150577852
30
0
41
1
10
43.3033005097362
20
-1.48284787626074
30
0
41
1
10
44.1008375972959
20
-1.86051482068029
30
0
41
1
10
44.3664145685656
20
-1.98458050467309
30
0
41
1
10
44.8972917911389
20
-2.22860741980716
30
0
41
1
10
45.1625981715819
20
-2.34855465509125
30
0
41
1
10
45.9586477842547
20
-2.70120259062577
30
0
41
1
10
46.489511094056
20
-2.92674064666494
30
0
41
1
10
47.2879339862405
20
-3.24729858566812
30
0
41
1
10
47.5544452615802
20
-3.35119160904074
30
0
41
1
10
48.0884110820539
20
-3.55265329289182
30
0
41
1
10
48.35588752165
20
-3.65020269375614
30
0
41
1
10
48.7581154167395
20
-3.79126204017544
30
0
41
1
10
48.8923588438651
20
-3.83740624662821
30
0
41
1
10
49.0940053776084
20
-3.90525492730396
30
0
41
1
10
49.1612947565898
20
-3.92765204888818
30
0
41
1
10
49.2958389335885
20
-3.97193740202167
30
0
41
1
10
49.3630677866228
20
-3.99381731867734
30
0
41
1
10
49.6990077782012
20
-4.10189009386923
30
0
41
1
10
49.9671019551088
20
-4.18409752213671
30
0
41
1
10
50.4739336532456
20
-4.33146285804992
30
0
41
1
10
50.712820357253
20
-4.39754363371912
30
0
41
1
10
50.9514194700893
20
-4.46004112778166
30
0
0
SPLINE
5
EB
100
AcDbEntity
8
1
62
256
6
ByLayer
370
18
48
1
60
0
100
AcDbSpline
70
4
71
3
72
19
73
15
40
0
40
0
40
0
40
0
40
0.0207599500076457
40
0.0207599500076457
40
0.216607960006121
40
0.216607960006121
40
0.608303980003073
40
0.608303980003073
40
0.804151990001544
40
0.902075995000776
40
0.951037997500392
40
0.975518998750196
40
0.975518998750196
40
1
40
1
40
1
40
1
41
1
10
50.9514194708005
20
-4.46004112796794
30
0
41
1
10
50.979709838856
20
-4.46745136972601
30
0
41
1
10
51.0079961638058
20
-4.47481123585453
30
0
41
1
10
51.3030926644033
20
-4.55107615278493
30
0
41
1
10
51.5695551715244
20
-4.61553470736854
30
0
41
1
10
52.3684648479048
20
-4.7950152966763
30
0
41
1
10
52.9004252328928
20
-4.89615337299813
30
0
41
1
10
53.6991724663702
20
-5.01854129529673
30
0
41
1
10
54.0987468478286
20
-5.07240532146204
30
0
41
1
10
54.5656636383821
20
-5.12209059588383
30
0
41
1
10
54.7993575370273
20
-5.14359992931171
30
0
41
1
10
54.8995677606888
20
-5.15209911160443
30
0
41
1
10
54.9663875333274
20
-5.15760488754094
30
0
41
1
10
54.9998065632864
20
-5.16025040764296
30
0
41
1
10
55.0332563538806
20
-5.16288657899278
30
0
0
SPLINE
5
EC
100
AcDbEntity
8
1
62
256
6
ByLayer
370
18
48
1
60
0
100
AcDbSpline
70
4
71
3
72
22
73
18
40
0
40
0
40
0
40
0
40
0.125
40
0.125
40
0.25
40
0.25
40
0.375
40
0.375
40
0.5
40
0.5
40
0.625
40
0.625
40
0.75
40
0.75
40
0.875
40
0.875
40
1
40
1
40
1
40
1
41
1
10
55.0332563538789
20
-5.16288657899264
30
0
41
1
10
55.0336733118025
20
-5.16393772124852
30
0
41
1
10
55.0339207298404
20
-5.16548655192452
30
0
41
1
10
55.034051960789
20
-5.16963962792082
30
0
41
1
10
55.0339340735694
20
-5.17226407396885
30
0
41
1
10
55.0332779705775
20
-5.1786553708919
30
0
41
1
10
55.0327480055926
20
-5.18236010971367
30
0
41
1
10
55.0312448817507
20
-5.19088385362085
30
0
41
1
10
55.0302564480664
20
-5.19576027112242
30
0
41
1
10
55.0278920112609
20
-5.2062359540048
30
0
41
1
10
55.0265107502705
20
-5.21187809738703
30
0
41
1
10
55.0233174811272
20
-5.22404619592521
30
0
41
1
10
55.0215651764324
20
-5.23034180162358
30
0
41
1
10
55.0178099075331
20
-5.24319302262529
30
0
41
1
10
55.0157830527449
20
-5.24982161923125
30
0
41
1
10
55.011678662591
20
-5.26273256224306
30
0
41
1
10
55.009568846602
20
-5.26912355805766
30
0
41
1
10
55.0074416139881
20
-5.27535326354348
30
0
0
SPLINE
5
ED
100
AcDbEntity
8
1
62
256
6
ByLayer
370
18
48
1
60
0
100
AcDbSpline
70
4
71
3
72
8
73
4
40
0
40
0
40
0
40
0
40
1
40
1
40
1
40
1
41
1
10
55.007441613988
20
-5.27535326354362
30
0
41
1
10
54.9881119973341
20
-5.3319609979871
30
0
41
1
10
54.9689867817298
20
-5.38856493136933
30
0
41
1
10
54.9500735294224
20
-5.44517197905611
30
0
0
SPLINE
5
EE
100
AcDbEntity
8
1
62
256
6
ByLayer
370
13
48
1
60
0
100
AcDbSpline
70
4
71
3
72
30
73
26
40
0
40
0
40
0
40
0
40
0.0131717590680368
40
0.0131717590680368
40
0.0263435181360729
40
0.0526870362721504
40
0.105374072544305
40
0.210748145088616
40
0.210748145088616
40
0.421496290177235
40
0.421496290177235
40
0.526870362721546
40
0.526870362721546
40
0.632244435265855
40
0.632244435265855
40
0.737618507810166
40
0.763962025946245
40
0.763962025946245
40
0.790305544082324
40
0.790305544082324
40
0.842992580354487
40
0.842992580354487
40
0.948366652898814
40
0.948366652898814
40
1
40
1
40
1
40
1
41
1
10
55.0074416139881
20
-5.27535326354365
30
0
41
1
10
54.9740186478359
20
-5.27294331435627
30
0
41
1
10
54.9405930723725
20
-5.27055483100199
30
0
41
1
10
54.8737583691988
20
-5.26557826902987
30
0
41
1
10
54.773526159266
20
-5.25786673831692
30
0
41
1
10
54.5397836135665
20
-5.23815228236134
30
0
41
1
10
54.072778448644
20
-5.19188642713374
30
0
41
1
10
53.6731378552367
20
-5.14066625337736
30
0
41
1
10
52.874255282546
20
-5.023192744623
30
0
41
1
10
52.3422000162143
20
-4.9248345533984
30
0
41
1
10
51.5431199449795
20
-4.74875276083236
30
0
41
1
10
51.2765965735659
20
-4.6852973664694
30
0
41
1
10
50.7428322931152
20
-4.5491309919893
30
0
41
1
10
50.4755960161851
20
-4.47640723251735
30
0
41
1
10
49.9402421061506
20
-4.32192620499097
30
0
41
1
10
49.6049944267609
20
-4.21970853890443
30
0
41
1
10
49.2686773990967
20
-4.11062277063476
30
0
41
1
10
49.1340612338077
20
-4.06644543650077
30
0
41
1
10
49.0667138401656
20
-4.04408645230032
30
0
41
1
10
48.864912341897
20
-3.97633194014361
30
0
41
1
10
48.7305718973399
20
-3.93021750791158
30
0
41
1
10
48.3280713528786
20
-3.78914798640648
30
0
41
1
10
48.0604390904867
20
-3.69145637797132
30
0
41
1
10
47.6624409997689
20
-3.54094493544596
30
0
41
1
10
47.5316748614251
20
-3.49065510034742
30
0
41
1
10
47.401014877452
20
-3.43959686922167
30
0
0
SPLINE
5
EF
100
AcDbEntity
8
1
62
256
6
ByLayer
370
18
48
1
60
0
100
AcDbSpline
70
4
71
3
72
24
73
20
40
0
40
0
40
0
40
0
40
0.0556647406947229
40
0.0556647406947229
40
0.273957700912716
40
0.273957700912716
40
0.49225066113071
40
0.49225066113071
40
0.601397141239709
40
0.601397141239709
40
0.710543621348708
40
0.710543621348708
40
0.819690101457706
40
0.819690101457706
40
0.874263341512204
40
0.874263341512204
40
0.928836581566701
40
0.928836581566701
40
1
40
1
40
1
40
1
41
1
10
47.4010155315059
20
-3.43959712480748
30
0
41
1
10
47.2650225348215
20
-3.38645490576295
30
0
41
1
10
47.1291445349633
20
-3.33248028490453
30
0
41
1
10
46.4609053966088
20
-3.06287904537825
30
0
41
1
10
45.9299003408631
20
-2.83572478072725
30
0
41
1
10
44.8682492409277
20
-2.36129284776419
30
0
41
1
10
44.337590295555
20
-2.11404591691863
30
0
41
1
10
43.5398808168783
20
-1.73164474945315
30
0
41
1
10
43.273699707887
20
-1.60222605222603
30
0
41
1
10
42.7404998339199
20
-1.34003340987263
30
0
41
1
10
42.4734859739977
20
-1.20725761599576
30
0
41
1
10
41.9382717349811
20
-0.938969600566367
30
0
41
1
10
41.6700695956574
20
-0.803448396435016
30
0
41
1
10
41.2665942444752
20
-0.59865428932946
30
0
41
1
10
41.1317993777671
20
-0.530088174106282
30
0
41
1
10
40.8627773057077
20
-0.393025471811001
30
0
41
1
10
40.7284580580638
20
-0.324475689201364
30
0
41
1
10
40.4193839433663
20
-0.166583869668926
30
0
41
1
10
40.2447472886121
20
-0.0772607960988125
30
0
41
1
10
40.0703547494422
20
0.0119313293201913
30
0
0
SPLINE
5
F0
100
AcDbEntity
8
1
62
256
6
ByLayer
370
18
48
1
60
0
100
AcDbSpline
70
4
71
3
72
78
73
74
40
0
40
0
40
0
40
0
40
0.0514271021401837
40
0.0514271021401837
40
0.0642838776752294
40
0.0642838776752294
40
0.0771406532102751
40
0.102854204280366
40
0.102854204280366
40
0.128567755350458
40
0.128567755350458
40
0.154281306420549
40
0.154281306420549
40
0.167138081955595
40
0.167138081955595
40
0.179994857490641
40
0.179994857490641
40
0.205708408560732
40
0.205708408560732
40
0.231421959630823
40
0.231421959630823
40
0.257135510700915
40
0.257135510700915
40
0.282849061771006
40
0.282849061771006
40
0.295705837306052
40
0.295705837306052
40
0.308562612841099
40
0.308562612841099
40
0.35998971498128
40
0.35998971498128
40
0.411416817121462
40
0.411416817121462
40
0.424273592656508
40
0.424273592656508
40
0.437130368191553
40
0.462843919261645
40
0.462843919261645
40
0.514271021401827
40
0.514271021401827
40
0.527127796936872
40
0.527127796936872
40
0.539984572471918
40
0.539984572471918
40
0.56569812354201
40
0.56569812354201
40
0.617125225682194
40
0.617125225682194
40
0.642838776752287
40
0.642838776752287
40
0.655695552287333
40
0.655695552287333
40
0.668552327822379
40
0.668552327822379
40
0.719979429962564
40
0.719979429962564
40
0.745692981032657
40
0.745692981032657
40
0.77140653210275
40
0.77140653210275
40
0.822833634242937
40
0.822833634242937
40
0.874260736383124
40
0.874260736383124
40
0.88711751191817
40
0.88711751191817
40
0.899974287453217
40
0.899974287453217
40
0.92568783852331
40
0.92568783852331
40
0.977114940663496
40
0.977114940663496
40
1
40
1
40
1
40
1
41
1
10
54.9500735294229
20
-5.44517197903821
30
0
41
1
10
54.4151431340516
20
-5.40489848457079
30
0
41
1
10
53.880615364796
20
-5.343012822681
30
0
41
1
10
53.2113913049521
20
-5.23940560360285
30
0
41
1
10
53.0774645170017
20
-5.21736566603252
30
0
41
1
10
52.8098777443275
20
-5.17075359533777
30
0
41
1
10
52.4087544002513
20
-5.09701683991369
30
0
41
1
10
52.0082240646825
20
-5.01198245251115
30
0
41
1
10
51.4743862397372
20
-4.88884373692437
30
0
41
1
10
51.2075697865639
20
-4.8223919011858
30
0
41
1
10
50.6737362878176
20
-4.6800898173737
30
0
41
1
10
50.4067452697507
20
-4.60421685104438
30
0
41
1
10
50.0059174461696
20
-4.48352293618518
30
0
41
1
10
49.8722381575915
20
-4.44215835766568
30
0
41
1
10
49.6046997313625
20
-4.35720139137334
30
0
41
1
10
49.470774667619
20
-4.31358617607447
30
0
41
1
10
49.0692359799943
20
-4.179642427831
30
0
41
1
10
48.8019101357614
20
-4.08623813374962
30
0
41
1
10
48.2676720493378
20
-3.8916636841507
30
0
41
1
10
48.0007695976055
20
-3.79047936121975
30
0
41
1
10
47.4669999847429
20
-3.58087487554647
30
0
41
1
10
47.2001206857486
20
-3.47247383455391
30
0
41
1
10
46.6660999344184
20
-3.24886559374536
30
0
41
1
10
46.3989373533743
20
-3.13368926374301
30
0
41
1
10
45.9977140443881
20
-2.95623094692749
30
0
41
1
10
45.8638732644319
20
-2.89628693051108
30
0
41
1
10
45.5960717499015
20
-2.77493378791303
30
0
41
1
10
45.4622701949917
20
-2.71359707922835
30
0
41
1
10
44.7936516322559
20
-2.40380062315498
30
0
41
1
10
44.2599804875443
20
-2.14603493513454
30
0
41
1
10
43.1922080300392
20
-1.61575701656057
30
0
41
1
10
42.6581748277122
20
-1.34312677510681
30
0
41
1
10
41.9887790700691
20
-0.995946765801477
30
0
41
1
10
41.8548722994104
20
-0.92622827914866
30
0
41
1
10
41.5873319029698
20
-0.786517876536919
30
0
41
1
10
41.1862638482001
20
-0.576457751632631
30
0
41
1
10
40.7856975926534
20
-0.365343703355251
30
0
41
1
10
39.9847944991241
20
0.0574530327887999
30
0
41
1
10
39.4511213473981
20
0.33999273676983
30
0
41
1
10
38.782671655731
20
0.690803092886313
30
0
41
1
10
38.648914099119
20
0.760847510129622
30
0
41
1
10
38.3812184544914
20
0.90061483605362
30
0
41
1
10
38.2472431027672
20
0.970356744465306
30
0
41
1
10
37.845754318428
20
1.17856269324852
30
0
41
1
10
37.578437268042
20
1.31612439601724
30
0
41
1
10
36.7770037993662
20
1.72416953790568
30
0
41
1
10
36.2434200933577
20
1.99003802533989
30
0
41
1
10
35.441993047058
20
2.37583110070082
30
0
41
1
10
35.1746750493435
20
2.50226075842662
30
0
41
1
10
34.7732045976414
20
2.68824238485621
30
0
41
1
10
34.6392328433753
20
2.74965597234632
30
0
41
1
10
34.3714524303156
20
2.87100356216436
30
0
41
1
10
34.2376547604052
20
2.93093258735331
30
0
41
1
10
33.5690341127675
20
3.22671471369392
30
0
41
1
10
33.0352880215976
20
3.45093035883386
30
0
41
1
10
32.2342733086421
20
3.76554346040666
30
0
41
1
10
31.9671976931612
20
3.86679058988687
30
0
41
1
10
31.4325623844434
20
4.06155067195292
30
0
41
1
10
31.1649591436641
20
4.15507812141942
30
0
41
1
10
30.3611837706445
20
4.42325643126534
30
0
41
1
10
29.8270141296228
20
4.58469397080492
30
0
41
1
10
28.7589868339505
20
4.86986164147953
30
0
41
1
10
28.2250963377298
20
4.99357435016711
30
0
41
1
10
27.5561960439078
20
5.12313495277104
30
0
41
1
10
27.4223386900748
20
5.14779321608552
30
0
41
1
10
27.1544544450973
20
5.19458124263301
30
0
41
1
10
27.0204970530867
20
5.21669809756852
30
0
41
1
10
26.6190414370345
20
5.2790717358364
30
0
41
1
10
26.3517455578931
20
5.31539284959106
30
0
41
1
10
25.55029502048
20
5.40836901627677
30
0
41
1
10
25.0165328704505
20
5.44901987255966
30
0
41
1
10
24.244060656847
20
5.47646540408815
30
0
41
1
10
24.0060358958699
20
5.48063411514607
30
0
41
1
10
23.7677752433529
20
5.48047998386801
30
0
0
SPLINE
5
F1
100
AcDbEntity
8
1
62
256
6
ByLayer
370
18
48
1
60
0
100
AcDbSpline
70
4
71
3
72
8
73
4
40
0
40
0
40
0
40
0
40
1
40
1
40
1
40
1
41
1
10
3.5
20
-4.82842174090189
30
0
41
1
10
3.5
20
-4.8412942608179
30
0
41
1
10
3.49999999999997
20
-4.85417394152554
30
0
41
1
10
3.49999999999997
20
-4.86706078956706
30
0
0
SPLINE
5
F2
100
AcDbEntity
8
1
62
256
6
ByLayer
370
18
48
1
60
0
100
AcDbSpline
70
4
71
3
72
36
73
32
40
0
40
0
40
0
40
0
40
0.0625000000000365
40
0.0625000000000365
40
0.125000000000073
40
0.125000000000073
40
0.187500000000109
40
0.187500000000109
40
0.218750000000127
40
0.218750000000127
40
0.250000000000145
40
0.250000000000145
40
0.312500000000144
40
0.312500000000144
40
0.343750000000125
40
0.343750000000125
40
0.375000000000107
40
0.375000000000107
40
0.437500000000098
40
0.437500000000098
40
0.50000000000009
40
0.50000000000009
40
0.562500000000082
40
0.562500000000082
40
0.625000000000073
40
0.625000000000073
40
0.750000000000049
40
0.750000000000049
40
0.875000000000024
40
0.875000000000024
40
1
40
1
40
1
40
1
41
1
10
3.75086707304871
20
-4.52412756560659
30
0
41
1
10
3.74308403580886
20
-4.52029448728646
30
0
41
1
10
3.73504252742435
20
-4.51692608266865
30
0
41
1
10
3.71828768213004
20
-4.51139411483609
30
0
41
1
10
3.70951594911736
20
-4.50921742000938
30
0
41
1
10
3.69132446967456
20
-4.50658906177651
30
0
41
1
10
3.68198868610688
20
-4.50613765822618
30
0
41
1
10
3.66750318126887
20
-4.5071912001026
30
0
41
1
10
3.66255576098149
20
-4.50784248350428
30
0
41
1
10
3.65270610310694
20
-4.50978804169682
30
0
41
1
10
3.6478005469354
20
-4.51107725070764
30
0
41
1
10
3.6331456140513
20
-4.515955462927
30
0
41
1
10
3.62335399794304
20
-4.52065828542663
30
0
41
1
10
3.60972962762497
20
-4.52936088828943
30
0
41
1
10
3.60532799451863
20
-4.53254191805732
30
0
41
1
10
3.59678929568
20
-4.53943377387139
30
0
41
1
10
3.59266814388366
20
-4.54313739572419
30
0
41
1
10
3.58099776811525
20
-4.55464981056465
30
0
41
1
10
3.57400477743772
20
-4.56295564757897
30
0
41
1
10
3.56121829604427
20
-4.5805291765686
30
0
41
1
10
3.55553332396374
20
-4.58965937187708
30
0
41
1
10
3.54535962763217
20
-4.60814795425526
30
0
41
1
10
3.54083921247522
20
-4.61755844451875
30
0
41
1
10
3.53268203945967
20
-4.63663992821876
30
0
41
1
10
3.52903862758956
20
-4.64634551758232
30
0
41
1
10
3.51936061166589
20
-4.67531745240379
30
0
41
1
10
3.51448475358819
20
-4.69457723238921
30
0
41
1
10
3.50693870529943
20
-4.73302704166628
30
0
41
1
10
3.50428570826767
20
-4.75221634327869
30
0
41
1
10
3.50080848093242
20
-4.79054100458546
30
0
41
1
10
3.5
20
-4.80957167118729
30
0
41
1
10
3.5
20
-4.82842174090189
30
0
0
SPLINE
5
F3
100
AcDbEntity
8
1
62
256
6
ByLayer
370
18
48
1
60
0
100
AcDbSpline
70
4
71
3
72
26
73
22
40
0
40
0
40
0
40
0
40
0.125
40
0.125
40
0.25
40
0.25
40
0.375
40
0.375
40
0.5
40
0.5
40
0.625
40
0.625
40
0.6875
40
0.6875
40
0.71875
40
0.71875
40
0.75
40
0.75
40
0.875
40
0.875
40
1
40
1
40
1
40
1
41
1
10
7.98028575576234
20
-5.19531876292868
30
0
41
1
10
7.79038165877557
20
-5.19738973851793
30
0
41
1
10
7.60170376827284
20
-5.19689651382038
30
0
41
1
10
7.22695028847482
20
-5.19018118995066
30
0
41
1
10
7.04087863769499
20
-5.18394690176186
30
0
41
1
10
6.67158418503891
20
-5.16488055219031
30
0
41
1
10
6.48836667908924
20
-5.15203161664698
30
0
41
1
10
6.12494157684432
20
-5.11916803034762
30
0
41
1
10
5.94472263073664
20
-5.09918774189373
30
0
41
1
10
5.58761632414195
20
-5.05105816726694
30
0
41
1
10
5.4107411451499
20
-5.02287009541675
30
0
41
1
10
5.14842161414018
20
-4.97299294880361
30
0
41
1
10
5.06148237364789
20
-4.95509686041297
30
0
41
1
10
4.93189914757838
20
-4.92613350919058
30
0
41
1
10
4.88884246402054
20
-4.91612556555597
30
0
41
1
10
4.80301901128996
20
-4.89536197512396
30
0
41
1
10
4.76023024201385
20
-4.884600123289
30
0
41
1
10
4.5476182851796
20
-4.82896187517934
30
0
41
1
10
4.3813992221958
20
-4.77855794317341
30
0
41
1
10
4.05840171496618
20
-4.66324077751051
30
0
41
1
10
3.90159998043805
20
-4.59836221482885
30
0
41
1
10
3.7508670730478
20
-4.52412756559761
30
0
0
SPLINE
5
F4
100
AcDbEntity
8
1
62
256
6
ByLayer
370
18
48
1
60
0
100
AcDbSpline
70
4
71
3
72
12
73
8
40
0
40
0
40
0
40
0
40
0.295773232852421
40
0.295773232852421
40
0.889866348510886
40
0.889866348510886
40
1
40
1
40
1
40
1
41
1
10
12.6986748117771
20
-3.495570210426
30
0
41
1
10
12.2271594422103
20
-3.66652942945541
30
0
41
1
10
11.7571369297737
20
-3.83751883721595
30
0
41
1
10
10.3466693791278
20
-4.34980580274993
30
0
41
1
10
9.41530187046746
20
-4.68677289828861
30
0
41
1
10
8.32158536193074
20
-5.07488379820867
30
0
41
1
10
8.15082810464588
20
-5.13525794878703
30
0
41
1
10
7.98034649505487
20
-5.19529616194833
30
0
0
SPLINE
5
F5
100
AcDbEntity
8
1
62
256
6
ByLayer
370
18
48
1
60
0
100
AcDbSpline
70
4
71
3
72
108
73
104
40
0
40
0
40
0
40
0
40
0.0624999999999967
40
0.0624999999999967
40
0.124999999999993
40
0.124999999999993
40
0.156249999999992
40
0.156249999999992
40
0.18749999999999
40
0.18749999999999
40
0.249999999999988
40
0.249999999999988
40
0.312499999999987
40
0.312499999999987
40
0.343749999999986
40
0.343749999999986
40
0.374999999999986
40
0.374999999999986
40
0.390624999999987
40
0.390624999999987
40
0.398437499999988
40
0.400390624999989
40
0.400390624999989
40
0.40234374999999
40
0.40234374999999
40
0.40429687499999
40
0.40429687499999
40
0.406249999999991
40
0.406249999999991
40
0.408203124999992
40
0.408203124999992
40
0.409179687499992
40
0.409179687499992
40
0.410156249999992
40
0.410156249999992
40
0.411132812499993
40
0.411132812499993
40
0.412109374999993
40
0.412109374999993
40
0.414062499999992
40
0.414062499999992
40
0.421874999999992
40
0.421874999999992
40
0.437499999999992
40
0.437499999999992
40
0.453124999999992
40
0.453124999999992
40
0.468749999999992
40
0.468749999999992
40
0.499999999999992
40
0.499999999999992
40
0.531249999999991
40
0.531249999999991
40
0.562499999999991
40
0.562499999999991
40
0.593749999999991
40
0.593749999999991
40
0.609374999999991
40
0.609374999999991
40
0.617187499999991
40
0.617187499999991
40
0.624999999999992
40
0.624999999999992
40
0.656249999999991
40
0.656249999999991
40
0.671874999999992
40
0.671874999999992
40
0.679687499999992
40
0.679687499999992
40
0.687499999999992
40
0.687499999999992
40
0.718749999999992
40
0.718749999999992
40
0.734374999999992
40
0.742187499999992
40
0.742187499999992
40
0.749999999999992
40
0.749999999999992
40
0.781249999999991
40
0.781249999999991
40
0.796874999999991
40
0.796874999999991
40
0.804687499999991
40
0.804687499999991
40
0.812499999999991
40
0.812499999999991
40
0.843749999999993
40
0.843749999999993
40
0.859374999999993
40
0.859374999999993
40
0.867187499999994
40
0.867187499999994
40
0.874999999999994
40
0.874999999999994
40
0.906249999999995
40
0.906249999999995
40
0.937499999999996
40
0.937499999999996
40
0.968749999999998
40
0.968749999999998
40
0.984374999999999
40
0.984374999999999
40
1
40
1
40
1
40
1
41
1
10
9.30982062556211
20
-1.96588288134416
30
0
41
1
10
9.07838903576607
20
-1.85199452338495
30
0
41
1
10
8.84581148253858
20
-1.73923257245198
30
0
41
1
10
8.37769521768945
20
-1.51760516733907
30
0
41
1
10
8.14215172348551
20
-1.40874961382522
30
0
41
1
10
7.78615052212203
20
-1.2495852794903
30
0
41
1
10
7.66703760943273
20
-1.19721367001867
30
0
41
1
10
7.42784870426277
20
-1.09402749911132
30
0
41
1
10
7.30773156530961
20
-1.0431987454995
30
0
41
1
10
6.94612790218653
20
-0.893442622027948
30
0
41
1
10
6.7035704640906
20
-0.797322589004608
30
0
41
1
10
6.21512550528973
20
-0.61364480924621
30
0
41
1
10
5.96923677675667
20
-0.526090606619078
30
0
41
1
10
5.59769936292179
20
-0.401867299692128
30
0
41
1
10
5.473402420772
20
-0.36164532970335
30
0
41
1
10
5.22388159265819
20
-0.283659906252552
30
0
41
1
10
5.09862785472927
20
-0.245890004344972
30
0
41
1
10
4.91018770506483
20
-0.191184567549698
30
0
41
1
10
4.84727779678121
20
-0.173273323619924
30
0
41
1
10
4.75277617378373
20
-0.146901167744943
30
0
41
1
10
4.71337156866548
20
-0.136015696337012
30
0
41
1
10
4.67393059284439
20
-0.125259592937368
30
0
41
1
10
4.65815134167036
20
-0.120967589161495
30
0
41
1
10
4.65027855918015
20
-0.118755618763004
30
0
41
1
10
4.63439712589192
20
-0.114863576424852
30
0
41
1
10
4.62635597985394
20
-0.113232544244227
30
0
41
1
10
4.61028467112683
20
-0.111056127612727
30
0
41
1
10
4.6022302197633
20
-0.11053775306118
30
0
41
1
10
4.58608522324206
20
-0.110595194242904
30
0
41
1
10
4.57799332675199
20
-0.111211975888239
30
0
41
1
10
4.56582490107263
20
-0.113064213844126
30
0
41
1
10
4.5618104930314
20
-0.113836116359494
30
0
41
1
10
4.55392653888808
20
-0.115870635879247
30
0
41
1
10
4.55005617948569
20
-0.117135486998848
30
0
41
1
10
4.5424418869116
20
-0.120102237073127
30
0
41
1
10
4.53867784037348
20
-0.12176693601279
30
0
41
1
10
4.53136373566014
20
-0.125499541059696
30
0
41
1
10
4.52781642071528
20
-0.1275706098657
30
0
41
1
10
4.51728524225419
20
-0.133959045351418
30
0
41
1
10
4.51028302012347
20
-0.138248397527633
30
0
41
1
10
4.47526000483381
20
-0.159674576595165
30
0
41
1
10
4.44731242470115
20
-0.176927954713221
30
0
41
1
10
4.3636906055342
20
-0.229034139694818
30
0
41
1
10
4.30824362580051
20
-0.264228903431615
30
0
41
1
10
4.19801831736188
20
-0.335570667097983
30
0
41
1
10
4.14323570686128
20
-0.371720242766401
30
0
41
1
10
4.03437449750544
20
-0.445039475385016
30
0
41
1
10
3.98026216822407
20
-0.482233426338979
30
0
41
1
10
3.81946549035055
20
-0.595161761855934
30
0
41
1
10
3.71423205257213
20
-0.672292875801588
30
0
41
1
10
3.50822932475273
20
-0.830720445031517
30
0
41
1
10
3.40745708948759
20
-0.912014141557563
30
0
41
1
10
3.21107740299993
20
-1.07938794074161
30
0
41
1
10
3.11546585053819
20
-1.16546437463316
30
0
41
1
10
2.93037578071807
20
-1.34326458317474
30
0
41
1
10
2.84089092071014
20
-1.43498289393915
30
0
41
1
10
2.71230319198065
20
-1.57772024670498
30
0
41
1
10
2.67038449699129
20
-1.62616287338554
30
0
41
1
10
2.60910147869322
20
-1.70028144545398
30
0
41
1
10
2.58890941015869
20
-1.72527003919373
30
0
41
1
10
2.54928895058839
20
-1.7755132207906
30
0
41
1
10
2.52985488891733
20
-1.80077251644104
30
0
41
1
10
2.43464031864971
20
-1.92778138254329
30
0
41
1
10
2.36469332313723
20
-2.03165701250745
30
0
41
1
10
2.27091342831426
20
-2.19145193827868
30
0
41
1
10
2.24151664574845
20
-2.24538260797007
30
0
41
1
10
2.20051825494682
20
-2.32737469643345
30
0
41
1
10
2.18734593510049
20
-2.35493941137739
30
0
41
1
10
2.16220392989101
20
-2.41020936598764
30
0
41
1
10
2.15026293770271
20
-2.43784625139423
30
0
41
1
10
2.09376102172644
20
-2.5760346773005
30
0
41
1
10
2.05878643639031
20
-2.68659863729152
30
0
41
1
10
2.0229377125554
20
-2.85235368116503
30
0
41
1
10
2.0091757081922
20
-2.93520883749045
30
0
41
1
10
2.00197051849821
20
-3.01800853119079
30
0
41
1
10
1.99866326582884
20
-3.07319307676602
30
0
41
1
10
1.99776959879196
20
-3.10062196050353
30
0
41
1
10
1.99704434755284
20
-3.23626358076603
30
0
41
1
10
2.00836607959477
20
-3.3406930377015
30
0
41
1
10
2.04164330880357
20
-3.49163544431357
30
0
41
1
10
2.05545761244912
20
-3.54099758469704
30
0
41
1
10
2.08011541874564
20
-3.61365227037965
30
0
41
1
10
2.08901049590727
20
-3.63768117338586
30
0
41
1
10
2.10791552182951
20
-3.6848657656036
30
0
41
1
10
2.11793785455382
20
-3.70806597882969
30
0
41
1
10
2.17074284318142
20
-3.8222090705091
30
0
41
1
10
2.22155441701085
20
-3.90761101576558
30
0
41
1
10
2.30832854241555
20
-4.02836259070057
30
0
41
1
10
2.33902290364415
20
-4.0673813055146
30
0
41
1
10
2.38750601638856
20
-4.12420350523325
30
0
41
1
10
2.40407440348005
20
-4.14285965347491
30
0
41
1
10
2.43799494611318
20
-4.17962346646004
30
0
41
1
10
2.45536378051224
20
-4.19774779995112
30
0
41
1
10
2.54390928557305
20
-4.28685821804638
30
0
41
1
10
2.61949335960304
20
-4.35270429174571
30
0
41
1
10
2.77822787958374
20
-4.47567311923314
30
0
41
1
10
2.86139149533952
20
-4.53278212859271
30
0
41
1
10
3.03403268269389
20
-4.63970071059762
30
0
41
1
10
3.12351624379684
20
-4.68950366368296
30
0
41
1
10
3.26181032515595
20
-4.75949866456347
30
0
41
1
10
3.30858885599846
20
-4.78204279289199
30
0
41
1
10
3.40341825494897
20
-4.82565865946998
30
0
41
1
10
3.45153091782902
20
-4.84675464019128
30
0
41
1
10
3.49999999999997
20
-4.86706078956706
30
0
0
SPLINE
5
F6
100
AcDbEntity
8
SK1
62
256
6
ByLayer
370
18
48
1
60
0
100
AcDbSpline
70
4
71
3
72
8
73
4
40
0
40
0
40
0
40
0
40
1
40
1
40
1
40
1
41
1
10
-44.25
20
-1.30018080667907
30
0
41
1
10
-44.5004726330413
20
-1.18579306313347
30
0
41
1
10
-44.7505581219146
20
-1.07123676749637
30
0
41
1
10
-45
20
-0.956400261143472
30
0
0
SPLINE
5
F7
100
AcDbEntity
8
SK1
62
256
6
ByLayer
370
18
48
1
60
0
100
AcDbSpline
70
4
71
3
72
20
73
16
40
0
40
0
40
0
40
0
40
0.0625000000000002
40
0.0625000000000002
40
0.125000000000001
40
0.125000000000001
40
0.250000000000001
40
0.250000000000001
40
0.375000000000001
40
0.375000000000001
40
0.500000000000001
40
0.500000000000001
40
0.750000000000001
40
0.750000000000001
40
1
40
1
40
1
40
1
41
1
10
-44.15
20
-1.44373612759503
30
0
41
1
10
-44.15
20
-1.43969416128112
30
0
41
1
10
-44.150256914617
20
-1.43560122924561
30
0
41
1
10
-44.1512466991598
20
-1.42732084278157
30
0
41
1
10
-44.1519837129547
20
-1.42313792045167
30
0
41
1
10
-44.1547653438365
20
-1.41085990070613
30
0
41
1
10
-44.1574101181635
20
-1.40282917533068
30
0
41
1
10
-44.1638373738149
20
-1.38736746965483
30
0
41
1
10
-44.1675465419207
20
-1.38008664280753
30
0
41
1
10
-44.1757372414659
20
-1.36622470089765
30
0
41
1
10
-44.1802613014627
20
-1.35960322214007
30
0
41
1
10
-44.1944507164524
20
-1.34121070484127
30
0
41
1
10
-44.2047953517103
20
-1.33069311559493
30
0
41
1
10
-44.226908544871
20
-1.31269133604249
30
0
41
1
10
-44.2382901766631
20
-1.30552853769683
30
0
41
1
10
-44.25
20
-1.30018080667904
30
0
0
SPLINE
5
F8
100
AcDbEntity
8
SK1
62
256
6
ByLayer
370
18
48
1
60
0
100
AcDbSpline
70
4
71
3
72
20
73
16
40
0
40
0
40
0
40
0
40
0.25
40
0.25
40
0.375
40
0.375
40
0.5
40
0.5
40
0.625
40
0.625
40
0.75
40
0.75
40
0.875
40
0.875
40
1
40
1
40
1
40
1
41
1
10
-44.25
20
-3.08876944115082
30
0
41
1
10
-44.2382877407462
20
-3.09411828462166
30
0
41
1
10
-44.226914977972
20
-3.09770975253065
30
0
41
1
10
-44.2103576071414
20
-3.10043318705578
30
0
41
1
10
-44.2049751381096
20
-3.10087278314876
30
0
41
1
10
-44.1946946812027
20
-3.10076263207128
30
0
41
1
10
-44.1897650588918
20
-3.10021967948757
30
0
41
1
10
-44.1803754339179
20
-3.09803627233438
30
0
41
1
10
-44.175898221617
20
-3.09639138149908
30
0
41
1
10
-44.1675998620729
20
-3.09174613269516
30
0
41
1
10
-44.1638730040088
20
-3.08880518161533
30
0
41
1
10
-44.1574568338975
20
-3.08139709885387
30
0
41
1
10
-44.1547730646344
20
-3.07689016995414
30
0
41
1
10
-44.1510607548749
20
-3.06637531152722
30
0
41
1
10
-44.15
20
-3.06020815146851
30
0
41
1
10
-44.15
20
-3.05346589861958
30
0
0
SPLINE
5
F9
100
AcDbEntity
8
SK1
62
256
6
ByLayer
370
18
48
1
60
0
100
AcDbSpline
70
4
71
3
72
8
73
4
40
0
40
0
40
0
40
0
40
1
40
1
40
1
40
1
41
1
10
-45
20
-2.74498889561519
30
0
41
1
10
-44.7505676148092
20
-2.85982103168806
30
0
41
1
10
-44.5004731690617
20
-2.97438145281131
30
0
41
1
10
-44.25
20
-3.08876944115079
30
0
0
SPLINE
5
FA
100
AcDbEntity
8
1
62
256
6
ByLayer
370
18
48
1
60
0
100
AcDbSpline
70
4
71
3
72
18
73
14
40
0
40
0
40
0
40
0
40
0.0151353840756541
40
0.129158981381532
40
0.223845209165393
40
0.305524079884279
40
0.389261904240861
40
0.460813864292552
40
0.533485355407013
40
0.607956807112474
40
0.710218138009599
40
0.853183563373592
40
1
40
1
40
1
40
1
41
1
10
55.3467855152335
20
0.998316662179377
30
0
41
1
10
55.3274136450294
20
1.00482351124052
30
0
41
1
10
55.1621391062352
20
1.06052562789404
30
0
41
1
10
54.8764479544376
20
1.16090322176424
30
0
41
1
10
54.5064920909657
20
1.29359995522594
30
0
41
1
10
54.1756702344661
20
1.41554011593919
30
0
41
1
10
53.874767821926
20
1.52891311255505
30
0
41
1
10
53.5857729260254
20
1.64006239763955
30
0
41
1
10
53.3089305049018
20
1.74851641652515
30
0
41
1
10
52.9937056460631
20
1.87427519916247
30
0
41
1
10
52.5903213630102
20
2.03871364384992
30
0
41
1
10
52.097079755439
20
2.24527141759319
30
0
41
1
10
51.7341440033879
20
2.40292392013893
30
0
41
1
10
51.5506533197022
20
2.48401619170409
30
0
0
SPLINE
5
FB
100
AcDbEntity
8
1
62
256
6
ByLayer
370
18
48
1
60
0
100
AcDbSpline
70
4
71
3
72
34
73
30
40
0
40
0
40
0
40
0
40
7.9142403934E-06
40
2.38411615367E-05
40
3.8627772297E-05
40
6.85093253143E-05
40
0.0002800155046209
40
0.000447782352825
40
0.0007604861607591
40
0.0013610315091793
40
0.0025692157057173
40
0.0051650905155865
40
0.0112159966597261
40
0.0264179952420628
40
0.0560886722072962
40
0.0993972710902876
40
0.143650789417098
40
0.2673589070885
40
0.381294391694052
40
0.491013221986901
40
0.601038496115138
40
0.644524731191383
40
0.69036239079349
40
0.738059750701493
40
0.777473854331731
40
0.806922572648071
40
0.854350009222448
40
0.927869938515978
40
1
40
1
40
1
40
1
41
1
10
25.4495221808615
20
0.16495298697663
30
0
41
1
10
25.449517100369
20
0.164954350930316
30
0
41
1
10
25.4494988781347
20
0.164959228261353
30
0
41
1
10
25.449457526638
20
0.164970623732472
30
0
41
1
10
25.4493593262681
20
0.164997211946741
30
0
41
1
10
25.4488042320631
20
0.165145601243609
30
0
41
1
10
25.447997687832
20
0.165362293995315
30
0
41
1
10
25.4466819843092
20
0.165716092774488
30
0
41
1
10
25.44458213858
20
0.166279927849189
30
0
41
1
10
25.4404088127225
20
0.167398932641163
30
0
41
1
10
25.4315341120077
20
0.16977358030158
30
0
41
1
10
25.4111432002297
20
0.175218944326389
30
0
41
1
10
25.3604883393506
20
0.188740971752338
30
0
41
1
10
25.2500319412417
20
0.218365234110706
30
0
41
1
10
25.0580865465274
20
0.270599776310519
30
0
41
1
10
24.8003209153841
20
0.342419152435866
30
0
41
1
10
24.3322385714604
20
0.476666993579585
30
0
41
1
10
23.7118147493546
20
0.664283132194299
30
0
41
1
10
22.9498710227776
20
0.911089585727524
30
0
41
1
10
22.2215627254099
20
1.1615402888693
30
0
41
1
10
21.6503100861094
20
1.36897450701127
30
0
41
1
10
21.219541869334
20
1.53106273777681
30
0
41
1
10
20.9240711659489
20
1.64448755988616
30
0
41
1
10
20.6379610695574
20
1.75656958028918
30
0
41
1
10
20.3880497731928
20
1.85630710384112
30
0
41
1
10
20.1430523084288
20
1.95540265665022
30
0
41
1
10
19.823040408793
20
2.08689747810752
30
0
41
1
10
19.4125570606205
20
2.25962073617072
30
0
41
1
10
19.1037645138027
20
2.39401400640867
30
0
41
1
10
18.9510075501522
20
2.46152956590541
30
0
0
SPLINE
5
FC
100
AcDbEntity
8
1
62
256
6
ByLayer
370
18
48
1
60
0
100
AcDbSpline
70
4
71
3
72
36
73
32
40
0
40
0
40
0
40
0
40
0.0180112107513616
40
0.0347309468945177
40
0.0508615964738634
40
0.0790948150312903
40
0.108066187293923
40
0.13747185690758
40
0.17208986673694
40
0.203959544660779
40
0.238537567080186
40
0.274215904230703
40
0.310320952873067
40
0.353086874083761
40
0.400096617447133
40
0.446703980772418
40
0.495264384972509
40
0.540680878683014
40
0.580509962401443
40
0.616524347233335
40
0.66982311470445
40
0.722428902945103
40
0.770555369988567
40
0.816633363255233
40
0.850911485483007
40
0.883406316458799
40
0.909412494148878
40
0.933983248319953
40
0.951191265767179
40
0.971748573435102
40
1
40
1
40
1
40
1
41
1
10
23.8851550605027
20
-5.20553733053509
30
0
41
1
10
23.9678460260175
20
-5.20513253751167
30
0
41
1
10
24.1350400362032
20
-5.20409024256077
30
0
41
1
10
24.4039741212094
20
-5.20010270615819
30
0
41
1
10
24.7465358824039
20
-5.19853758403221
30
0
41
1
10
25.1440238814843
20
-5.20398743560636
30
0
41
1
10
25.616301927131
20
-5.20575710758541
30
0
41
1
10
26.1290053501674
20
-5.20640955742869
30
0
41
1
10
26.6606872860188
20
-5.20646418478773
30
0
41
1
10
27.2225284782642
20
-5.20740626491454
30
0
41
1
10
27.789613756447
20
-5.20787290351669
30
0
41
1
10
28.3806609115697
20
-5.20764709717412
30
0
41
1
10
29.017286039409
20
-5.20733222940831
30
0
41
1
10
29.7168589456115
20
-5.20728686300495
30
0
41
1
10
30.474829132672
20
-5.21013249184884
30
0
41
1
10
31.2648611703752
20
-5.20916897468851
30
0
41
1
10
32.0461597623679
20
-5.20847323953183
30
0
41
1
10
32.7897213953708
20
-5.20788053609422
30
0
41
1
10
33.4635879047467
20
-5.20994960293021
30
0
41
1
10
34.1813054335582
20
-5.21009737669226
30
0
41
1
10
34.9700166363278
20
-5.21240123790275
30
0
41
1
10
35.8260431680694
20
-5.21081188402871
30
0
41
1
10
36.6419224526336
20
-5.20976322294612
30
0
41
1
10
37.3560128495148
20
-5.20936753654507
30
0
41
1
10
37.9830452313046
20
-5.21281269057005
30
0
41
1
10
38.4990654450593
20
-5.21391747759105
30
0
41
1
10
38.9594110014872
20
-5.2132289604327
30
0
41
1
10
39.337191588231
20
-5.21265866704459
30
0
41
1
10
39.6812248443759
20
-5.2123455455814
30
0
41
1
10
40.0456535734419
20
-5.21164045559649
30
0
41
1
10
40.3169603389112
20
-5.21168640717738
30
0
41
1
10
40.4744465952492
20
-5.21181129571292
30
0
0
SPLINE
5
FD
100
AcDbEntity
8
1
62
256
6
ByLayer
370
18
48
1
60
0
100
AcDbSpline
70
4
71
2
72
6
73
3
40
0
40
0
40
0
40
1
40
1
40
1
41
1
10
8.17295800490143
20
5.19228857960809
30
0
41
1
10
8.08737098971326
20
5.19228746736906
30
0
41
1
10
8.00481287596503
20
5.19279423677298
30
0
0
SPLINE
5
FE
100
AcDbEntity
8
1
62
256
6
ByLayer
370
18
48
1
60
0
100
AcDbSpline
70
4
71
3
72
15
73
11
40
0
40
0
40
0
40
0
40
0.125082285942038
40
0.261739394090505
40
0.393489316314944
40
0.509616950533931
40
0.603064771967697
40
0.718169065404603
40
0.869913363823005
40
1
40
1
40
1
40
1
41
1
10
8.00481287596503
20
5.19279423677298
30
0
41
1
10
7.83152024385882
20
5.19415305057825
30
0
41
1
10
7.46671346361796
20
5.19625439839601
30
0
41
1
10
6.90851309326607
20
5.19626173748429
30
0
41
1
10
6.36166993810241
20
5.19549867781615
30
0
41
1
10
5.87617359542807
20
5.19496209100461
30
0
41
1
10
5.41416732036453
20
5.19501913697226
30
0
41
1
10
4.90153182716762
20
5.19507801224384
30
0
41
1
10
4.33674621105934
20
5.19486472312386
30
0
41
1
10
3.9357442190373
20
5.19393055114065
30
0
41
1
10
3.7506506540023
20
5.19337540697202
30
0
0
SPLINE
5
FF
100
AcDbEntity
8
1
62
256
6
ByLayer
370
18
48
1
60
0
100
AcDbSpline
70
4
71
3
72
28
73
24
40
0
40
0
40
0
40
0
40
0.0020792280236494
40
0.0413256686632804
40
0.0777955123928614
40
0.11080032561558
40
0.139935376275966
40
0.167323702339455
40
0.192950972121185
40
0.228781005380161
40
0.272275067566398
40
0.339995651262476
40
0.403781667340268
40
0.466122954944964
40
0.522569281931147
40
0.573717194767155
40
0.628487438474669
40
0.693411700037401
40
0.769919671347389
40
0.84455377270805
40
0.913603910155629
40
0.967415377938715
40
1
40
1
40
1
40
1
41
1
10
40.7597413301134
20
5.20915315653798
30
0
41
1
10
40.750223537217
20
5.20910165230296
30
0
41
1
10
40.5611351619559
20
5.20812902903401
30
0
41
1
10
40.2126157460559
20
5.21159308982877
30
0
41
1
10
39.7216987399133
20
5.21219821860512
30
0
41
1
10
39.2716540431061
20
5.2128454396366
30
0
41
1
10
38.8613458581379
20
5.21329069846888
30
0
41
1
10
38.4848841594413
20
5.21364133087752
30
0
41
1
10
38.0787011555063
20
5.21324574738713
30
0
41
1
10
37.5975853264226
20
5.21023399494985
30
0
41
1
10
36.9239406910549
20
5.20950049370919
30
0
41
1
10
36.1220712419713
20
5.21018119760598
30
0
41
1
10
35.2338977382908
20
5.21246049482463
30
0
41
1
10
34.3973638077936
20
5.21021518278823
30
0
41
1
10
33.6187373361059
20
5.21024319962709
30
0
41
1
10
32.8748071580777
20
5.20805021652268
30
0
41
1
10
32.0920265122067
20
5.20836839714346
30
0
41
1
10
31.193049836028
20
5.2094938458747
30
0
41
1
10
30.203053415774
20
5.20937105415419
30
0
41
1
10
29.1941727768492
20
5.20677106476515
30
0
41
1
10
28.289262582257
20
5.20779774376317
30
0
41
1
10
27.577039764165
20
5.20789996553344
30
0
41
1
10
27.1812000563363
20
5.20734668457698
30
0
41
1
10
27.0318988647499
20
5.20713465113866
30
0
0
SPLINE
5
100
100
AcDbEntity
8
1
62
256
6
ByLayer
370
18
48
1
60
0
100
AcDbSpline
70
4
71
3
72
16
73
12
40
0
40
0
40
0
40
0
40
0.151306034444155
40
0.330298370956056
40
0.48309425471558
40
0.619419113275336
40
0.702517095369677
40
0.786871292277681
40
0.874206546452585
40
0.974610538017227
40
1
40
1
40
1
40
1
41
1
10
3.75065098654574
20
-5.19334856547871
30
0
41
1
10
3.96445806722096
20
-5.19397590789549
30
0
41
1
10
4.43119466739574
20
-5.19501771795706
30
0
41
1
10
5.11384126618148
20
-5.19510760219518
30
0
41
1
10
5.77531838256232
20
-5.19487272262123
30
0
41
1
10
6.30126043810617
20
-5.19540152684846
30
0
41
1
10
6.73057531332029
20
-5.19604789798191
30
0
41
1
10
7.09041047291726
20
-5.1964256644917
30
0
41
1
10
7.46896665410438
20
-5.19615303820453
30
0
41
1
10
7.76822247811506
20
-5.19499804075278
30
0
41
1
10
7.94577583528351
20
-5.19522524944529
30
0
41
1
10
7.98165276758178
20
-5.19528496691393
30
0
0
SPLINE
5
101
100
AcDbEntity
8
1
62
256
6
ByLayer
370
18
48
1
60
0
100
AcDbSpline
70
4
71
2
72
6
73
3
40
0
40
0
40
0
40
1
40
1
40
1
41
1
10
40.0983065538529
20
-0.0023623018328465
30
0
41
1
10
40.0982964452144
20
-0.0023563501985677
30
0
41
1
10
40.0982863365126
20
-0.0023502326846767
30
0
0
LINE
5
82
100
AcDbEntity
8
81
62
256
6
ByLayer
370
18
48
1
60
0
100
AcDbLine
10
57
20
0
30
0
11
60
21
0
31
0
39
0
210
0
220
0
230
1
0
LINE
5
83
100
AcDbEntity
8
80
62
256
6
ByLayer
370
18
48
1
60
0
100
AcDbLine
10
0
20
0
30
0
11
-3
21
0
31
0
39
0
210
0
220
0
230
1
0
LINE
5
84
100
AcDbEntity
8
SK4
62
256
6
ByLayer
370
18
48
0.05
60
0
100
AcDbLine
10
-48
20
0
30
0
11
60
21
0
31
0
39
0
210
0
220
0
230
1
0
LINE
5
86
100
AcDbEntity
8
4
62
256
6
ByLayer
370
18
48
0.05
60
0
100
AcDbLine
10
0
20
0
30
0
11
57
21
0
31
0
39
0
210
0
220
0
230
1
0
LINE
5
88
100
AcDbEntity
8
1
62
256
6
ByLayer
370
13
48
1
60
0
100
AcDbLine
10
56.923302
20
0.066211
30
0
11
55.582527
21
1.546194
31
0
39
0
210
0
220
0
230
1
0
LINE
5
89
100
AcDbEntity
8
1
62
256
6
ByLayer
370
13
48
1
60
0
100
AcDbLine
10
0.599794
20
5.729479
30
0
11
0.599794
21
-5.729479
31
0
39
0
210
0
220
0
230
1
0
LINE
5
8A
100
AcDbEntity
8
1
62
256
6
ByLayer
370
13
48
1
60
0
100
AcDbLine
10
1.193376
20
5.466371
30
0
11
1.193376
21
-5.466371
31
0
39
0
210
0
220
0
230
1
0
LINE
5
8B
100
AcDbEntity
8
1
62
256
6
ByLayer
370
18
48
1
60
0
100
AcDbLine
10
3.5
20
5.467813
30
0
11
3.5
21
2.164668
31
0
39
0
210
0
220
0
230
1
0
LINE
5
8C
100
AcDbEntity
8
1
62
256
6
ByLayer
370
18
48
1
60
0
100
AcDbLine
10
24
20
5.406511
30
0
11
24
21
5.359324
31
0
39
0
210
0
220
0
230
1
0
LINE
5
8D
100
AcDbEntity
8
1
62
256
6
ByLayer
370
18
48
1
60
0
100
AcDbLine
10
3.5
20
-4.867061
30
0
11
3.5
21
-5.467813
31
0
39
0
210
0
220
0
230
1
0
LINE
5
8E
100
AcDbEntity
8
1
62
256
6
ByLayer
370
18
48
1
60
0
100
AcDbLine
10
0
20
6
30
0
11
0
21
-6
31
0
39
0
210
0
220
0
230
1
0
LINE
5
8F
100
AcDbEntity
8
1
62
256
6
ByLayer
370
13
48
1
60
0
100
AcDbLine
10
0.593082
20
5.736892
30
0
11
0.593082
21
-5.736892
31
0
39
0
210
0
220
0
230
1
0
LINE
5
90
100
AcDbEntity
8
SK1
62
256
6
ByLayer
370
18
48
1
60
0
100
AcDbLine
10
-45
20
-0.956414
30
0
11
-45
21
-2.744989
31
0
39
0
210
0
220
0
230
1
0
LINE
5
92
100
AcDbEntity
8
SK1
62
256
6
ByLayer
370
13
48
1
60
0
100
AcDbLine
10
-44.25
20
-3.088769
30
0
11
-44.25
21
-1.300135
31
0
39
0
210
0
220
0
230
1
0
LINE
5
93
100
AcDbEntity
8
SK1
62
256
6
ByLayer
370
18
48
1
60
0
100
AcDbLine
10
-44.15
20
-3.053466
30
0
11
-44.15
21
-1.443736
31
0
39
0
210
0
220
0
230
1
0
LINE
5
94
100
AcDbEntity
8
SK1
62
256
6
ByLayer
370
18
48
1
60
0
100
AcDbLine
10
-45
20
-4.255
30
0
11
-45
21
-2.744989
31
0
39
0
210
0
220
0
230
1
0
LINE
5
95
100
AcDbEntity
8
SK1
62
256
6
ByLayer
370
18
48
1
60
0
100
AcDbLine
10
-45
20
4.255
30
0
11
-45
21
-0.9564
31
0
39
0
210
0
220
0
230
1
0
LINE
5
96
100
AcDbEntity
8
SK1
62
256
6
ByLayer
370
18
48
1
60
0
100
AcDbLine
10
-43.255
20
-6
30
0
11
-43.255
21
6
31
0
39
0
210
0
220
0
230
1
0
LINE
5
97
100
AcDbEntity
8
SK1
62
256
6
ByLayer
370
18
48
1
60
0
100
AcDbLine
10
0
20
6
30
0
11
0
21
-6
31
0
39
0
210
0
220
0
230
1
0
LINE
5
98
100
AcDbEntity
8
1
62
256
6
ByLayer
370
18
48
1
60
0
100
AcDbLine
10
0.599794
20
5.729479
30
0
11
0.593082
21
5.736892
31
0
39
0
210
0
220
0
230
1
0
LINE
5
99
100
AcDbEntity
8
1
62
256
6
ByLayer
370
18
48
1
60
0
100
AcDbLine
10
0.593082
20
-5.736892
30
0
11
0.599794
21
-5.729479
31
0
39
0
210
0
220
0
230
1
0
LINE
5
9A
100
AcDbEntity
8
1
62
256
6
ByLayer
370
18
48
1
60
0
100
AcDbLine
10
1.193376
20
-5.466371
30
0
11
3.5
21
-5.467813
31
0
39
0
210
0
220
0
230
1
0
LINE
5
9B
100
AcDbEntity
8
1
62
256
6
ByLayer
370
18
48
1
60
0
100
AcDbLine
10
21.81054
20
-5.479257
30
0
11
23.767893
21
-5.48048
31
0
39
0
210
0
220
0
230
1
0
LINE
5
9C
100
AcDbEntity
8
1
62
256
6
ByLayer
370
18
48
1
60
0
100
AcDbLine
10
23.767893
20
5.48048
30
0
11
21.81054
21
5.479257
31
0
39
0
210
0
220
0
230
1
0
LINE
5
9D
100
AcDbEntity
8
1
62
256
6
ByLayer
370
18
48
1
60
0
100
AcDbLine
10
3.5
20
5.467813
30
0
11
1.193376
21
5.466371
31
0
39
0
210
0
220
0
230
1
0
LINE
5
9E
100
AcDbEntity
8
SK1
62
256
6
ByLayer
370
18
48
1
60
0
100
AcDbLine
10
-45.002145
20
0.323923
30
0
11
-45
21
0.324524
31
0
39
0
210
0
220
0
230
1
0
LINE
5
9F
100
AcDbEntity
8
SK1
62
256
6
ByLayer
370
18
48
1
60
0
100
AcDbLine
10
-44.998242
20
-0.325017
30
0
11
-45.002145
21
-0.323923
31
0
39
0
210
0
220
0
230
1
0
LINE
5
A0
100
AcDbEntity
8
SK1
62
256
6
ByLayer
370
18
48
1
60
0
100
AcDbLine
10
-45
20
-4.255
30
0
11
-43.255
21
-6
31
0
39
0
210
0
220
0
230
1
0
LINE
5
A1
100
AcDbEntity
8
SK1
62
256
6
ByLayer
370
18
48
1
60
0
100
AcDbLine
10
-43.255
20
6
30
0
11
-45
21
4.255
31
0
39
0
210
0
220
0
230
1
0
LINE
5
A2
100
AcDbEntity
8
SK1
62
256
6
ByLayer
370
18
48
1
60
0
100
AcDbLine
10
-43.255
20
-6
30
0
11
0
21
-6
31
0
39
0
210
0
220
0
230
1
0
LINE
5
A3
100
AcDbEntity
8
SK1
62
256
6
ByLayer
370
18
48
1
60
0
100
AcDbLine
10
0
20
6
30
0
11
-43.255
21
6
31
0
39
0
210
0
220
0
230
1
0
LINE
5
A4
100
AcDbEntity
8
2
62
256
6
ByLayer
370
13
48
1
60
0
100
AcDbLine
10
70.75
20
-5.5
30
0
11
70.75
21
18.681199
31
0
39
0
210
0
220
0
230
1
0
LINE
5
A6
100
AcDbEntity
8
2
62
256
6
ByLayer
370
13
48
1
60
0
100
AcDbLine
10
58.5875
20
5.5
30
0
11
72.75
21
5.5
31
0
39
0
210
0
220
0
230
1
0
LINE
5
A7
100
AcDbEntity
8
2
62
256
6
ByLayer
370
13
48
1
60
0
100
AcDbLine
10
58.5875
20
-5.5
30
0
11
72.75
21
-5.5
31
0
39
0
210
0
220
0
230
1
0
LINE
5
A8
100
AcDbEntity
8
1
62
256
6
ByLayer
370
18
48
1
60
1
100
AcDbLine
10
70.75
20
5.5
30
0
11
71.210784
21
2.000002
31
0
39
0
210
0
220
0
230
1
0
LINE
5
A9
100
AcDbEntity
8
1
62
256
6
ByLayer
370
18
48
1
60
1
100
AcDbLine
10
71.210784
20
2.000002
30
0
11
70.289216
21
1.999998
31
0
39
0
210
0
220
0
230
1
0
LINE
5
AA
100
AcDbEntity
8
1
62
256
6
ByLayer
370
18
48
1
60
1
100
AcDbLine
10
70.289216
20
1.999998
30
0
11
70.75
21
5.5
31
0
39
0
210
0
220
0
230
1
0
LINE
5
AB
100
AcDbEntity
8
1
62
256
6
ByLayer
370
18
48
1
60
1
100
AcDbLine
10
70.75
20
-5.5
30
0
11
70.289216
21
-2.000002
31
0
39
0
210
0
220
0
230
1
0
LINE
5
AC
100
AcDbEntity
8
1
62
256
6
ByLayer
370
18
48
1
60
1
100
AcDbLine
10
70.289216
20
-2.000002
30
0
11
71.210784
21
-1.999998
31
0
39
0
210
0
220
0
230
1
0
LINE
5
AD
100
AcDbEntity
8
1
62
256
6
ByLayer
370
18
48
1
60
1
100
AcDbLine
10
71.210784
20
-1.999998
30
0
11
70.75
21
-5.5
31
0
39
0
210
0
220
0
230
1
0
LINE
5
AE
100
AcDbEntity
8
SK2
62
256
6
ByLayer
370
13
48
1
60
0
100
AcDbLine
10
-53.25
20
-6
30
0
11
-53.25
21
22.056066
31
0
39
0
210
0
220
0
230
1
0
LINE
5
B0
100
AcDbEntity
8
SK2
62
256
6
ByLayer
370
13
48
1
60
0
100
AcDbLine
10
-46.5875
20
6
30
0
11
-55.25
21
6
31
0
39
0
210
0
220
0
230
1
0
LINE
5
B1
100
AcDbEntity
8
SK2
62
256
6
ByLayer
370
13
48
1
60
0
100
AcDbLine
10
-46.5875
20
-6
30
0
11
-55.25
21
-6
31
0
39
0
210
0
220
0
230
1
0
LINE
5
B2
100
AcDbEntity
8
1
62
256
6
ByLayer
370
18
48
1
60
1
100
AcDbLine
10
-53.25
20
6
30
0
11
-52.789216
21
2.500002
31
0
39
0
210
0
220
0
230
1
0
LINE
5
B3
100
AcDbEntity
8
1
62
256
6
ByLayer
370
18
48
1
60
1
100
AcDbLine
10
-52.789216
20
2.500002
30
0
11
-53.710784
21
2.499998
31
0
39
0
210
0
220
0
230
1
0
LINE
5
B4
100
AcDbEntity
8
1
62
256
6
ByLayer
370
18
48
1
60
1
100
AcDbLine
10
-53.710784
20
2.499998
30
0
11
-53.25
21
6
31
0
39
0
210
0
220
0
230
1
0
LINE
5
B5
100
AcDbEntity
8
1
62
256
6
ByLayer
370
18
48
1
60
1
100
AcDbLine
10
-53.25
20
-6
30
0
11
-53.710784
21
-2.500002
31
0
39
0
210
0
220
0
230
1
0
LINE
5
B6
100
AcDbEntity
8
1
62
256
6
ByLayer
370
18
48
1
60
1
100
AcDbLine
10
-53.710784
20
-2.500002
30
0
11
-52.789216
21
-2.499998
31
0
39
0
210
0
220
0
230
1
0
LINE
5
B7
100
AcDbEntity
8
1
62
256
6
ByLayer
370
18
48
1
60
1
100
AcDbLine
10
-52.789216
20
-2.499998
30
0
11
-53.25
21
-6
31
0
39
0
210
0
220
0
230
1
0
LINE
5
B8
100
AcDbEntity
8
SK2
62
256
6
ByLayer
370
13
48
1
60
0
100
AcDbLine
10
57.542996
20
1.491748
30
0
11
69.126274
21
33.313941
31
0
39
0
210
0
220
0
230
1
0
LINE
5
B9
100
AcDbEntity
8
SK2
62
256
6
ByLayer
370
13
48
1
60
0
100
AcDbLine
10
57.542996
20
-1.491748
30
0
11
69.126274
21
-33.313941
31
0
39
0
210
0
220
0
230
1
0
LINE
5
BA
100
AcDbEntity
8
1
62
256
6
ByLayer
370
18
48
1
60
1
100
AcDbLine
10
68.442185
20
31.434574
30
0
11
71.86754
21
30.580612
31
0
39
0
210
0
220
0
230
1
0
LINE
5
BB
100
AcDbEntity
8
1
62
256
6
ByLayer
370
18
48
1
60
1
100
AcDbLine
10
71.86754
20
30.580612
30
0
11
71.529806
21
29.723162
31
0
39
0
210
0
220
0
230
1
0
LINE
5
BC
100
AcDbEntity
8
1
62
256
6
ByLayer
370
18
48
1
60
1
100
AcDbLine
10
71.529806
20
29.723162
30
0
11
68.442185
21
31.434574
31
0
39
0
210
0
220
0
230
1
0
LINE
5
BD
100
AcDbEntity
8
1
62
256
6
ByLayer
370
18
48
1
60
1
100
AcDbLine
10
68.442185
20
-31.434574
30
0
11
71.529803
21
-29.723163
31
0
39
0
210
0
220
0
230
1
0
LINE
5
BE
100
AcDbEntity
8
1
62
256
6
ByLayer
370
18
48
1
60
1
100
AcDbLine
10
71.529803
20
-29.723163
30
0
11
71.867543
21
-30.580611
31
0
39
0
210
0
220
0
230
1
0
LINE
5
BF
100
AcDbEntity
8
1
62
256
6
ByLayer
370
18
48
1
60
1
100
AcDbLine
10
71.867543
20
-30.580611
30
0
11
68.442185
21
-31.434574
31
0
39
0
210
0
220
0
230
1
0
LINE
5
102
100
AcDbEntity
8
1
62
256
6
ByLayer
370
13
48
0.05
60
0
100
AcDbLine
10
-51.5
20
0
30
0
11
61.560051
21
0
31
0
39
0
210
0
220
0
230
1
0
LINE
5
107
100
AcDbEntity
8
1
62
256
6
ByLayer
370
18
48
1
60
1
100
AcDbLine
10
70.75
20
5.5
30
0
11
71.210784
21
2.000002
31
0
39
0
210
0
220
0
230
1
0
LINE
5
108
100
AcDbEntity
8
1
62
256
6
ByLayer
370
18
48
1
60
1
100
AcDbLine
10
71.210784
20
2.000002
30
0
11
70.289216
21
1.999998
31
0
39
0
210
0
220
0
230
1
0
LINE
5
109
100
AcDbEntity
8
1
62
256
6
ByLayer
370
18
48
1
60
1
100
AcDbLine
10
70.289216
20
1.999998
30
0
11
70.75
21
5.5
31
0
39
0
210
0
220
0
230
1
0
LINE
5
10B
100
AcDbEntity
8
1
62
256
6
ByLayer
370
18
48
1
60
1
100
AcDbLine
10
70.75
20
-5.5
30
0
11
70.289216
21
-2.000002
31
0
39
0
210
0
220
0
230
1
0
LINE
5
10C
100
AcDbEntity
8
1
62
256
6
ByLayer
370
18
48
1
60
1
100
AcDbLine
10
70.289216
20
-2.000002
30
0
11
71.210784
21
-1.999998
31
0
39
0
210
0
220
0
230
1
0
LINE
5
10D
100
AcDbEntity
8
1
62
256
6
ByLayer
370
18
48
1
60
1
100
AcDbLine
10
71.210784
20
-1.999998
30
0
11
70.75
21
-5.5
31
0
39
0
210
0
220
0
230
1
0
LINE
5
111
100
AcDbEntity
8
1
62
256
6
ByLayer
370
18
48
1
60
1
100
AcDbLine
10
-53.25
20
6
30
0
11
-52.789216
21
2.500002
31
0
39
0
210
0
220
0
230
1
0
LINE
5
112
100
AcDbEntity
8
1
62
256
6
ByLayer
370
18
48
1
60
1
100
AcDbLine
10
-52.789216
20
2.500002
30
0
11
-53.710784
21
2.499998
31
0
39
0
210
0
220
0
230
1
0
LINE
5
113
100
AcDbEntity
8
1
62
256
6
ByLayer
370
18
48
1
60
1
100
AcDbLine
10
-53.710784
20
2.499998
30
0
11
-53.25
21
6
31
0
39
0
210
0
220
0
230
1
0
LINE
5
115
100
AcDbEntity
8
1
62
256
6
ByLayer
370
18
48
1
60
1
100
AcDbLine
10
-53.25
20
-6
30
0
11
-53.710784
21
-2.500002
31
0
39
0
210
0
220
0
230
1
0
LINE
5
116
100
AcDbEntity
8
1
62
256
6
ByLayer
370
18
48
1
60
1
100
AcDbLine
10
-53.710784
20
-2.500002
30
0
11
-52.789216
21
-2.499998
31
0
39
0
210
0
220
0
230
1
0
LINE
5
117
100
AcDbEntity
8
1
62
256
6
ByLayer
370
18
48
1
60
1
100
AcDbLine
10
-52.789216
20
-2.499998
30
0
11
-53.25
21
-6
31
0
39
0
210
0
220
0
230
1
0
LINE
5
11A
100
AcDbEntity
8
1
62
256
6
ByLayer
370
18
48
1
60
1
100
AcDbLine
10
68.442185
20
31.434574
30
0
11
71.86754
21
30.580612
31
0
39
0
210
0
220
0
230
1
0
LINE
5
11B
100
AcDbEntity
8
1
62
256
6
ByLayer
370
18
48
1
60
1
100
AcDbLine
10
71.86754
20
30.580612
30
0
11
71.529806
21
29.723162
31
0
39
0
210
0
220
0
230
1
0
LINE
5
11C
100
AcDbEntity
8
1
62
256
6
ByLayer
370
18
48
1
60
1
100
AcDbLine
10
71.529806
20
29.723162
30
0
11
68.442185
21
31.434574
31
0
39
0
210
0
220
0
230
1
0
LINE
5
11E
100
AcDbEntity
8
1
62
256
6
ByLayer
370
18
48
1
60
1
100
AcDbLine
10
68.442185
20
-31.434574
30
0
11
71.529803
21
-29.723163
31
0
39
0
210
0
220
0
230
1
0
LINE
5
11F
100
AcDbEntity
8
1
62
256
6
ByLayer
370
18
48
1
60
1
100
AcDbLine
10
71.529803
20
-29.723163
30
0
11
71.867543
21
-30.580611
31
0
39
0
210
0
220
0
230
1
0
LINE
5
120
100
AcDbEntity
8
1
62
256
6
ByLayer
370
18
48
1
60
1
100
AcDbLine
10
71.867543
20
-30.580611
30
0
11
68.442185
21
-31.434574
31
0
39
0
210
0
220
0
230
1
0
MTEXT
5
103
100
AcDbEntity
8
2
62
256
6
ByLayer
370
18
48
1
60
0
100
AcDbMText
10
69.185366
20
9.434844
30
0
210
0
220
0
230
1
1
%%c
40
3.5
41
0
44
1.084337
50
90
71
7
72
5
7
iso_b_vert
0
MTEXT
5
106
100
AcDbEntity
8
2
62
256
6
ByLayer
370
18
48
1
60
0
100
AcDbMText
10
69.185366
20
16.4075
30
0
210
0
220
0
230
1
1
\W0.4657;11
40
3.5
41
0
44
1.084337
50
90
71
7
72
5
7
iso_b_vert
0
MTEXT
5
10F
100
AcDbEntity
8
SK2
62
256
6
ByLayer
370
18
48
1
60
0
100
AcDbMText
10
-54.814634
20
11.934844
30
0
210
0
220
0
230
1
1
%%c
40
3.5
41
0
44
1.084337
50
90
71
7
72
5
7
iso_b_vert
0
MTEXT
5
110
100
AcDbEntity
8
SK2
62
256
6
ByLayer
370
18
48
1
60
0
100
AcDbMText
10
-54.814634
20
18.9075
30
0
210
0
220
0
230
1
1
\W0.5321;12
40
3.5
41
0
44
1.084337
50
90
71
7
72
5
7
iso_b_vert
0
MTEXT
5
119
100
AcDbEntity
8
SK2
62
256
6
ByLayer
370
18
48
1
60
0
100
AcDbMText
10
86.380645
20
-2.467366
30
0
210
0
220
0
230
1
1
\W0.7825;140%%d
40
3.5
41
0
44
1.084337
50
0
71
7
72
5
7
iso_b_vert
0
MTEXT
5
122
100
AcDbEntity
8
SK6
62
256
6
ByLayer
370
18
48
1
60
0
100
AcDbMText
10
-22.348348
20
-67.097817
30
0
210
0
220
0
230
1
1
\W0.7337;860.1-1100-040A1-MM M2BM
40
3.5
41
0
44
1.084337
50
0
71
7
72
5
7
iso_b_vert
0
HATCH
5
10A
100
AcDbEntity
8
2
62
256
6
ByLayer
370
13
48
1
60
0
100
AcDbHatch
10
0
20
0
30
0
210
0
220
0
230
1
2
ANSI31
70
0
71
0
91
1
92
5
93
3
72
1
10
70.75
20
5.5
11
71.2107837415528
21
2.00000169255318
72
1
10
71.2107837415528
20
2.00000169255318
11
70.2892162584472
21
1.99999830744682
72
1
10
70.2892162584472
20
1.99999830744682
11
70.75
21
5.5
97
0
75
0
76
1
52
0
41
0.0062
77
0
78
1
53
45
43
0
44
0
45
-0.0139193969876572
46
0.0139193969876572
79
0
47
0
98
1
10
0
20
0
0
HATCH
5
10E
100
AcDbEntity
8
2
62
256
6
ByLayer
370
13
48
1
60
0
100
AcDbHatch
10
0
20
0
30
0
210
0
220
0
230
1
2
ANSI31
70
0
71
0
91
1
92
5
93
3
72
1
10
70.75
20
-5.5
11
70.2892162584472
21
-2.00000169255318
72
1
10
70.2892162584472
20
-2.00000169255318
11
71.2107837415528
21
-1.99999830744682
72
1
10
71.2107837415528
20
-1.99999830744682
11
70.75
21
-5.5
97
0
75
0
76
1
52
0
41
0.0062
77
0
78
1
53
45
43
0
44
0
45
-0.0139193969876572
46
0.0139193969876572
79
0
47
0
98
1
10
0
20
0
0
HATCH
5
114
100
AcDbEntity
8
SK2
62
256
6
ByLayer
370
13
48
1
60
0
100
AcDbHatch
10
0
20
0
30
0
210
0
220
0
230
1
2
ANSI31
70
0
71
0
91
1
92
5
93
3
72
1
10
-53.25
20
6
11
-52.7892162584472
21
2.50000169255318
72
1
10
-52.7892162584472
20
2.50000169255318
11
-53.7107837415528
21
2.49999830744682
72
1
10
-53.7107837415528
20
2.49999830744682
11
-53.25
21
6
97
0
75
0
76
1
52
0
41
0.0062
77
0
78
1
53
45
43
0
44
0
45
-0.0139193969876572
46
0.0139193969876572
79
0
47
0
98
1
10
0
20
0
0
HATCH
5
118
100
AcDbEntity
8
SK2
62
256
6
ByLayer
370
13
48
1
60
0
100
AcDbHatch
10
0
20
0
30
0
210
0
220
0
230
1
2
ANSI31
70
0
71
0
91
1
92
5
93
3
72
1
10
-53.25
20
-6
11
-53.7107837415528
21
-2.50000169255318
72
1
10
-53.7107837415528
20
-2.50000169255318
11
-52.7892162584472
21
-2.49999830744682
72
1
10
-52.7892162584472
20
-2.49999830744682
11
-53.25
21
-6
97
0
75
0
76
1
52
0
41
0.0062
77
0
78
1
53
45
43
0
44
0
45
-0.0139193969876572
46
0.0139193969876572
79
0
47
0
98
1
10
0
20
0
0
HATCH
5
11D
100
AcDbEntity
8
SK2
62
256
6
ByLayer
370
13
48
1
60
0
100
AcDbHatch
10
0
20
0
30
0
210
0
220
0
230
1
2
ANSI31
70
0
71
0
91
1
92
5
93
3
72
1
10
68.442184771962
20
31.4345735493462
11
71.8675402767281
21
30.580612499544
72
1
10
71.8675402767281
20
30.580612499544
11
71.529805670161
21
29.7231616487916
72
1
10
71.529805670161
20
29.7231616487916
11
68.442184771962
21
31.4345735493462
97
0
75
0
76
1
52
0
41
0.0062
77
0
78
1
53
45
43
0
44
0
45
-0.0139193969876572
46
0.0139193969876572
79
0
47
0
98
1
10
0
20
0
0
HATCH
5
121
100
AcDbEntity
8
SK2
62
256
6
ByLayer
370
13
48
1
60
0
100
AcDbHatch
10
0
20
0
30
0
210
0
220
0
230
1
2
ANSI31
70
0
71
0
91
1
92
5
93
3
72
1
10
68.442184771962
20
-31.4345735493462
11
71.5298025205727
21
-29.7231628893717
72
1
10
71.5298025205727
20
-29.7231628893717
11
71.8675434263163
21
-30.580611258964
72
1
10
71.8675434263163
20
-30.580611258964
11
68.442184771962
21
-31.4345735493462
97
0
75
0
76
1
52
0
41
0.0062
77
0
78
1
53
45
43
0
44
0
45
-0.0139193969876572
46
0.0139193969876572
79
0
47
0
98
1
10
0
20
0
0
DIMENSION
5
125
100
AcDbEntity
8
2
62
256
6
ByLayer
370
18
48
1
60
0
100
AcDbDimension
2
_U0
10
57
20
-59.894254
30
0
11
6
21
-59.894254
31
0
70
32
71
1
72
1
41
1
210
0
220
0
230
1
3
Standard
100
AcDbAlignedDimension
13
-45
23
-6
33
0
14
57
24
-5.5
34
0
50
0
100
AcDbRotatedDimension
1001
ACAD
1000
DSTYLE
1002
{
1070
   371
1070
    13
1070
   372
1070
    13
1070
     3
1000

1070
   170
1070
     0
1070
   144
1040
1.0
1070
   277
1070
     2
1070
   284
1070
     8
1070
   278
1070
    46
1070
   146
1040
1.0
1070
   345
1005
16
1070
   347
1005
16
1070
   346
1005
16
1070
   344
1005
0
1070
   343
1005
0
1070
   172
1070
     1
1070
    76
1070
     0
1070
    75
1070
     0
1070
   282
1070
     0
1070
   281
1070
     0
1070
    71
1070
     0
1070
    74
1070
     0
1070
   279
1070
     0
1070
   173
1070
     1
1070
   340
1005
104
1070
   271
1070
     2
1070
   272
1070
     2
1070
    77
1070
     1
1070
    73
1070
     1
1070
   171
1070
     3
1070
   274
1070
     4
1070
   177
1070
     2
1070
   176
1070
     2
1070
   178
1070
     2
1070
    78
1070
     8
1070
    48
1040
-0.1
1070
    41
1040
3.5
1070
   147
1040
1.75
1070
    42
1040
1.5875
1070
    44
1040
2.0
1070
   140
1040
3.5
1002
}
1001
ACAD_DSTYLE_DIM_LINETYPE
1070
   380
1005
16
1001
ACAD_DSTYLE_DIM_EXT1_LINETYPE
1070
   381
1005
16
1001
ACAD_DSTYLE_DIM_EXT2_LINETYPE
1070
   382
1005
16
0
DIMENSION
5
13E
100
AcDbEntity
8
SK2
62
256
6
ByLayer
370
18
48
1
60
0
100
AcDbDimension
2
_U1
10
2
20
-39.894254
30
0
11
29.5
21
-39.894254
31
0
70
32
71
1
72
1
41
1
210
0
220
0
230
1
3
Standard
100
AcDbAlignedDimension
13
57
23
-5.5
33
0
14
2
24
-5.5
34
0
50
0
100
AcDbRotatedDimension
1001
ACAD
1000
DSTYLE
1002
{
1070
   371
1070
    13
1070
   372
1070
    13
1070
     3
1000

1070
   170
1070
     0
1070
   144
1040
1.0
1070
   277
1070
     2
1070
   284
1070
     8
1070
   278
1070
    46
1070
   146
1040
1.0
1070
   345
1005
16
1070
   347
1005
16
1070
   346
1005
16
1070
   344
1005
0
1070
   343
1005
0
1070
   172
1070
     1
1070
    76
1070
     0
1070
    75
1070
     0
1070
   282
1070
     0
1070
   281
1070
     0
1070
    71
1070
     0
1070
    74
1070
     0
1070
   279
1070
     0
1070
   173
1070
     1
1070
   340
1005
104
1070
   271
1070
     2
1070
   272
1070
     2
1070
    77
1070
     1
1070
    73
1070
     1
1070
   171
1070
     3
1070
   274
1070
     4
1070
   177
1070
     2
1070
   176
1070
     2
1070
   178
1070
     2
1070
    78
1070
     8
1070
    48
1040
-0.1
1070
    41
1040
3.5
1070
   147
1040
1.75
1070
    42
1040
1.5875
1070
    44
1040
2.0
1070
   140
1040
3.5
1002
}
1001
ACAD_DSTYLE_DIM_LINETYPE
1070
   380
1005
16
1001
ACAD_DSTYLE_DIM_EXT1_LINETYPE
1070
   381
1005
16
1001
ACAD_DSTYLE_DIM_EXT2_LINETYPE
1070
   382
1005
16
0
DIMENSION
5
156
100
AcDbEntity
8
SK2
62
256
6
ByLayer
370
18
48
1
60
0
100
AcDbDimension
2
_U2
10
17
20
-29.894254
30
0
11
37
21
-29.894254
31
0
70
32
71
1
72
1
41
1
210
0
220
0
230
1
3
Standard
100
AcDbAlignedDimension
13
57
23
-5.5
33
0
14
17
24
-5.5
34
0
50
0
100
AcDbRotatedDimension
1001
ACAD
1000
DSTYLE
1002
{
1070
   371
1070
    13
1070
   372
1070
    13
1070
     3
1000

1070
   170
1070
     0
1070
   144
1040
1.0
1070
   277
1070
     2
1070
   284
1070
     8
1070
   278
1070
    46
1070
   146
1040
1.0
1070
   345
1005
16
1070
   347
1005
16
1070
   346
1005
16
1070
   344
1005
0
1070
   343
1005
0
1070
   172
1070
     1
1070
    76
1070
     0
1070
    75
1070
     0
1070
   282
1070
     0
1070
   281
1070
     0
1070
    71
1070
     0
1070
    74
1070
     0
1070
   279
1070
     0
1070
   173
1070
     1
1070
   340
1005
104
1070
   271
1070
     2
1070
   272
1070
     2
1070
    77
1070
     1
1070
    73
1070
     1
1070
   171
1070
     3
1070
   274
1070
     4
1070
   177
1070
     2
1070
   176
1070
     2
1070
   178
1070
     2
1070
    78
1070
     8
1070
    48
1040
-0.1
1070
    41
1040
3.5
1070
   147
1040
1.75
1070
    42
1040
1.5875
1070
    44
1040
2.0
1070
   140
1040
3.5
1002
}
1001
ACAD_DSTYLE_DIM_LINETYPE
1070
   380
1005
16
1001
ACAD_DSTYLE_DIM_EXT1_LINETYPE
1070
   381
1005
16
1001
ACAD_DSTYLE_DIM_EXT2_LINETYPE
1070
   382
1005
16
0
DIMENSION
5
170
100
AcDbEntity
8
SK2
62
256
6
ByLayer
370
18
48
1
60
0
100
AcDbDimension
2
_U3
10
0
20
-39.894254
30
0
11
-22.5
21
-39.894254
31
0
70
32
71
1
72
1
41
1
210
0
220
0
230
1
3
Standard
100
AcDbAlignedDimension
13
-45
23
-6
33
0
14
0
24
-6
34
0
50
0
100
AcDbRotatedDimension
1001
ACAD
1000
DSTYLE
1002
{
1070
   371
1070
    13
1070
   372
1070
    13
1070
     3
1000

1070
   170
1070
     0
1070
   144
1040
1.0
1070
   277
1070
     2
1070
   284
1070
     8
1070
   278
1070
    46
1070
   146
1040
1.0
1070
   345
1005
16
1070
   347
1005
16
1070
   346
1005
16
1070
   344
1005
0
1070
   343
1005
0
1070
   172
1070
     1
1070
    76
1070
     0
1070
    75
1070
     0
1070
   282
1070
     0
1070
   281
1070
     0
1070
    71
1070
     0
1070
    74
1070
     0
1070
   279
1070
     0
1070
   173
1070
     1
1070
   340
1005
104
1070
   271
1070
     2
1070
   272
1070
     2
1070
    77
1070
     1
1070
    73
1070
     1
1070
   171
1070
     3
1070
   274
1070
     4
1070
   177
1070
     2
1070
   176
1070
     2
1070
   178
1070
     2
1070
    78
1070
     8
1070
    48
1040
-0.1
1070
    41
1040
3.5
1070
   147
1040
1.75
1070
    42
1040
1.5875
1070
    44
1040
2.0
1070
   140
1040
3.5
1002
}
1001
ACAD_DSTYLE_DIM_LINETYPE
1070
   380
1005
16
1001
ACAD_DSTYLE_DIM_EXT1_LINETYPE
1070
   381
1005
16
1001
ACAD_DSTYLE_DIM_EXT2_LINETYPE
1070
   382
1005
16
0
DIMENSION
5
188
100
AcDbEntity
8
SK2
62
256
6
ByLayer
370
18
48
1
60
0
100
AcDbDimension
2
_U4
10
57
20
-49.894254
30
0
11
28.5
21
-49.894254
31
0
70
32
71
1
72
1
41
1
210
0
220
0
230
1
3
Standard
100
AcDbAlignedDimension
13
0
23
-6
33
0
14
57
24
-5.5
34
0
50
0
100
AcDbRotatedDimension
1001
ACAD
1000
DSTYLE
1002
{
1070
   371
1070
    13
1070
   372
1070
    13
1070
     3
1000

1070
   170
1070
     0
1070
   144
1040
1.0
1070
   277
1070
     2
1070
   284
1070
     8
1070
   278
1070
    46
1070
   146
1040
1.0
1070
   345
1005
16
1070
   347
1005
16
1070
   346
1005
16
1070
   344
1005
0
1070
   343
1005
0
1070
   172
1070
     1
1070
    76
1070
     0
1070
    75
1070
     0
1070
   282
1070
     0
1070
   281
1070
     0
1070
    71
1070
     0
1070
    74
1070
     0
1070
   279
1070
     0
1070
   173
1070
     1
1070
   340
1005
104
1070
   271
1070
     2
1070
   272
1070
     2
1070
    77
1070
     1
1070
    73
1070
     1
1070
   171
1070
     3
1070
   274
1070
     4
1070
   177
1070
     2
1070
   176
1070
     2
1070
   178
1070
     2
1070
    78
1070
     8
1070
    48
1040
-0.1
1070
    41
1040
3.5
1070
   147
1040
1.75
1070
    42
1040
1.5875
1070
    44
1040
2.0
1070
   140
1040
3.5
1002
}
1001
ACAD_DSTYLE_DIM_LINETYPE
1070
   380
1005
16
1001
ACAD_DSTYLE_DIM_EXT1_LINETYPE
1070
   381
1005
16
1001
ACAD_DSTYLE_DIM_EXT2_LINETYPE
1070
   382
1005
16
0
ENDSEC
0
SECTION
2
OBJECTS
0
DICTIONARY
5
210
330
0
100
AcDbDictionary
280
0
281
1
3
ACAD_GROUP
350
211
3
ACAD_MLINESTYLE
350
212
0
DICTIONARY
5
211
330
0
100
AcDbDictionary
280
0
281
1
0
DICTIONARY
5
212
330
0
100
AcDbDictionary
280
0
281
1
3
Standard
350
18
0
MLINESTYLE
5
18
330
212
100
AcDbMlineStyle
2
Standard
70
0
3

62
256
51
90
52
90
71
2
49
-0.5
62
256
6
ByLayer
49
0.5
62
256
6
ByLayer
0
RASTERVARIABLES
5
1fe
330

100
AcDbRasterVariables
90
0
70
1
71
1
72
1
0
ENDSEC
0
EOF
