0
SECTION
2
HEADER
9
$ACADVER
1
AC1015
9
$DWGCODEPAGE
3
ANSI_1252
9
$HANDSEED
5
21a
9
$ANGBASE
50
0
9
$ANGDIR
70
0
9
$ATTMODE
70
1
9
$AUNITS
70
0
9
$AUPREC
70
0
9
$CECOLOR
62
256
9
$CELTSCALE
40
1
9
$CELTYPE
6
ByLayer
9
$CELWEIGHT
370
18
9
$CLAYER
8
0
9
$CMLJUST
70
0
9
$CMLSCALE
40
1
9
$CMLSTYLE
2
Standard
9
$DIMSTYLE
2
Standard
9
$TEXTSIZE
40
0.2
9
$TEXTSTYLE
7
Standard
9
$LUNITS
70
2
9
$LUPREC
70
4
9
$EXTNAMES
290
1
9
$INSUNITS
70
4
9
$LTSCALE
40
1
9
$LWDISPLAY
290
1
9
$PDMODE
70
0
9
$PDSIZE
40
0
9
$PLINEGEN
70
0
0
ENDSEC
0
SECTION
2
CLASSES
0
CLASS
1
RASTERVARIABLES
2
AcDbRasterVariables
3
ISM
90
0
280
0
281
0
0
ENDSEC
0
SECTION
2
TABLES
0
TABLE
2
VPORT
5
210
100
AcDbSymbolTable
0
VPORT
5
1
100
AcDbSymbolTableRecord
100
AcDbViewportTableRecord
2
*Active
70
0
10
0
20
0
11
1
21
1
12
-1
22
1
13
0
23
0
14
0.5
24
0.5
15
10
25
10
16
0
26
0
36
1
17
0
27
0
37
0
0
ENDTAB
0
TABLE
2
LTYPE
5
211
100
AcDbSymbolTable
0
LTYPE
5
14
100
AcDbSymbolTableRecord
100
AcDbLinetypeTableRecord
70
0
2
ByBlock
3

72
65
73
0
40
0
0
LTYPE
5
15
100
AcDbSymbolTableRecord
100
AcDbLinetypeTableRecord
70
0
2
ByLayer
3

72
65
73
0
40
0
0
LTYPE
5
16
100
AcDbSymbolTableRecord
100
AcDbLinetypeTableRecord
70
0
2
Continuous
3
Solid line
72
65
73
0
40
0
0
LTYPE
5
6E
100
AcDbSymbolTableRecord
100
AcDbLinetypeTableRecord
70
0
2
CENTER
3
____ _ ____ _ ____ _ ____
72
65
73
4
40
47.5
49
22
74
0
49
-8.5
74
0
49
8.5
74
0
49
-8.5
74
0
0
LTYPE
5
6F
100
AcDbSymbolTableRecord
100
AcDbLinetypeTableRecord
70
0
2
DASHED
3
__ __ __ __ __ __ __ __ __
72
65
73
2
40
25.72
49
12.86
74
0
49
-12.86
74
0
0
ENDTAB
0
TABLE
2
LAYER
5
212
100
AcDbSymbolTable
0
LAYER
5
10
100
AcDbSymbolTableRecord
100
AcDbLayerTableRecord
2
0
70
0
62
7
6
Continuous
290
1
370
-3
390
0
0
LAYER
5
71
100
AcDbSymbolTableRecord
100
AcDbLayerTableRecord
2
80
70
0
62
-6
6
Continuous
290
1
370
-3
390
0
0
LAYER
5
73
100
AcDbSymbolTableRecord
100
AcDbLayerTableRecord
2
81
70
0
62
-3
6
Continuous
290
1
370
-3
390
0
0
LAYER
5
75
100
AcDbSymbolTableRecord
100
AcDbLayerTableRecord
2
1
70
0
62
4
6
Continuous
290
1
370
-3
390
0
0
LAYER
5
87
100
AcDbSymbolTableRecord
100
AcDbLayerTableRecord
2
4
70
0
62
-2
6
CENTER
290
1
370
-3
390
0
0
LAYER
5
A2
100
AcDbSymbolTableRecord
100
AcDbLayerTableRecord
2
2
70
0
62
7
6
Continuous
290
1
370
-3
390
0
0
LAYER
5
125
100
AcDbSymbolTableRecord
100
AcDbLayerTableRecord
2
Defpoints
70
0
62
7
6
Continuous
290
0
370
-3
390
0
0
LAYER
5
1fc
100
AcDbSymbolTableRecord
100
AcDbLayerTableRecord
2
SK4
70
0
62
2
6
CENTER
290
1
370
-3
390
0
0
LAYER
5
1fd
100
AcDbSymbolTableRecord
100
AcDbLayerTableRecord
2
SK1
70
0
62
4
6
Continuous
290
1
370
-3
390
0
0
LAYER
5
1fe
100
AcDbSymbolTableRecord
100
AcDbLayerTableRecord
2
SK2
70
0
62
7
6
Continuous
290
1
370
-3
390
0
0
LAYER
5
1ff
100
AcDbSymbolTableRecord
100
AcDbLayerTableRecord
2
SK6
70
0
62
5
6
Continuous
290
1
370
-3
390
0
0
ENDTAB
0
TABLE
2
STYLE
5
213
100
AcDbSymbolTable
0
STYLE
5
11
100
AcDbSymbolTableRecord
100
AcDbTextStyleTableRecord
2
Standard
3
txt
70
0
71
0
40
0
41
1
42
0
50
0
0
STYLE
5
101
100
AcDbSymbolTableRecord
100
AcDbTextStyleTableRecord
2
iso_b_vert
3
simplex.shx
70
0
71
0
40
0
41
1
42
0
50
0
0
STYLE
5
102
100
AcDbSymbolTableRecord
100
AcDbTextStyleTableRecord
2
DWGDirectTextStyle
3
simplex
70
0
71
0
40
0
41
1
42
0
50
0
0
ENDTAB
0
TABLE
2
DIMSTYLE
5
214
100
AcDbSymbolTable
100
AcDbDimStyleTable
0
DIMSTYLE
105
27
100
AcDbSymbolTableRecord
100
AcDbDimStyleTableRecord
2
Standard
70
0
3
<>
41
0.18
42
0.0625
44
0.18
140
0.18
147
0.09
73
0
74
0
77
1
271
2
275
0
278
52
280
0
340
11
0
ENDTAB
0
TABLE
2
VIEW
5
215
100
AcDbSymbolTable
0
ENDTAB
0
TABLE
2
UCS
5
216
100
AcDbSymbolTable
0
ENDTAB
0
TABLE
2
APPID
5
217
100
AcDbSymbolTable
0
APPID
5
12
100
AcDbSymbolTableRecord
100
AcDbRegAppTableRecord
2
ACAD
70
0
0
APPID
5
121
100
AcDbSymbolTableRecord
100
AcDbRegAppTableRecord
2
ACAD_DSTYLE_DIMBREAK
70
0
0
APPID
5
1BB
100
AcDbSymbolTableRecord
100
AcDbRegAppTableRecord
2
ACAD_DSTYLE_DIM_LINETYPE
70
0
0
APPID
5
1BC
100
AcDbSymbolTableRecord
100
AcDbRegAppTableRecord
2
ACAD_DSTYLE_DIM_EXT1_LINETYPE
70
0
0
APPID
5
1BD
100
AcDbSymbolTableRecord
100
AcDbRegAppTableRecord
2
ACAD_DSTYLE_DIM_EXT2_LINETYPE
70
0
0
APPID
5
1F8
100
AcDbSymbolTableRecord
100
AcDbRegAppTableRecord
2
ACAD_MLEADERVER
70
0
0
ENDTAB
0
TABLE
2
BLOCK_RECORD
5
218
100
AcDbSymbolTable
0
BLOCK_RECORD
5
1F
100
AcDbSymbolTableRecord
100
AcDbBlockTableRecord
2
*Model_Space
340
0
70
0
0
BLOCK_RECORD
5
1B
100
AcDbSymbolTableRecord
100
AcDbBlockTableRecord
2
*Paper_Space
340
0
70
0
0
BLOCK_RECORD
5
23
100
AcDbSymbolTableRecord
100
AcDbBlockTableRecord
2
*Paper_Space0
340
0
70
0
0
BLOCK_RECORD
5
126
100
AcDbSymbolTableRecord
100
AcDbBlockTableRecord
2
*D1
340
0
70
0
0
BLOCK_RECORD
5
132
100
AcDbSymbolTableRecord
100
AcDbBlockTableRecord
2
_U0
340
0
70
0
0
BLOCK_RECORD
5
13E
100
AcDbSymbolTableRecord
100
AcDbBlockTableRecord
2
*D3
340
0
70
0
0
BLOCK_RECORD
5
14A
100
AcDbSymbolTableRecord
100
AcDbBlockTableRecord
2
_U1
340
0
70
0
0
BLOCK_RECORD
5
156
100
AcDbSymbolTableRecord
100
AcDbBlockTableRecord
2
*D5
340
0
70
0
0
BLOCK_RECORD
5
162
100
AcDbSymbolTableRecord
100
AcDbBlockTableRecord
2
_U2
340
0
70
0
0
BLOCK_RECORD
5
170
100
AcDbSymbolTableRecord
100
AcDbBlockTableRecord
2
*D7
340
0
70
0
0
BLOCK_RECORD
5
17C
100
AcDbSymbolTableRecord
100
AcDbBlockTableRecord
2
_U3
340
0
70
0
0
BLOCK_RECORD
5
188
100
AcDbSymbolTableRecord
100
AcDbBlockTableRecord
2
*D9
340
0
70
0
0
BLOCK_RECORD
5
194
100
AcDbSymbolTableRecord
100
AcDbBlockTableRecord
2
_U4
340
0
70
0
0
ENDTAB
0
ENDSEC
0
SECTION
2
BLOCKS
0
BLOCK
5
20
100
AcDbEntity
8
0
100
AcDbBlockBegin
2
*Model_Space
70
0
10
0
20
0
30
0
3
*Model_Space
0
ENDBLK
5
21
100
AcDbEntity
8
0
100
AcDbBlockEnd
0
BLOCK
5
1C
100
AcDbEntity
8
0
100
AcDbBlockBegin
2
*Paper_Space
70
0
10
0
20
0
30
0
3
*Paper_Space
0
ENDBLK
5
1D
100
AcDbEntity
8
0
100
AcDbBlockEnd
0
BLOCK
5
24
100
AcDbEntity
8
0
100
AcDbBlockBegin
2
*Paper_Space0
70
0
10
0
20
0
30
0
3
*Paper_Space0
0
ENDBLK
5
25
100
AcDbEntity
8
0
100
AcDbBlockEnd
0
BLOCK
5
127
100
AcDbEntity
8
0
100
AcDbBlockBegin
2
*D1
70
1
10
0
20
0
30
0
3
*D1
0
LINE
5
129
100
AcDbEntity
8
0
62
256
6
ByLayer
370
-2
48
1
60
0
100
AcDbLine
10
-45
20
-7.5875
30
0
11
-45
21
-61.755064
31
0
39
0
210
0
220
0
230
1
0
LINE
5
12A
100
AcDbEntity
8
0
62
256
6
ByLayer
370
-2
48
1
60
0
100
AcDbLine
10
57
20
-6.7375
30
0
11
57
21
-61.755064
31
0
39
0
210
0
220
0
230
1
0
LINE
5
12B
100
AcDbEntity
8
0
62
256
6
ByLayer
370
-2
48
1
60
0
100
AcDbLine
10
-41.5
20
-59.755064
30
0
11
53.5
21
-59.755064
31
0
39
0
210
0
220
0
230
1
0
SOLID
5
12C
100
AcDbEntity
8
0
62
256
6
ByLayer
370
-1
48
1
60
0
100
AcDbTrace
10
-41.5
20
-59.17173
30
0
11
-41.5
21
-60.338397
31
0
12
-45
22
-59.755064
32
0
13
-45
23
-59.755064
33
0
39
0
210
0
220
0
230
1
0
SOLID
5
12D
100
AcDbEntity
8
0
62
256
6
ByLayer
370
-1
48
1
60
0
100
AcDbTrace
10
53.5
20
-60.338397
30
0
11
53.5
21
-59.17173
31
0
12
57
22
-59.755064
32
0
13
57
23
-59.755064
33
0
39
0
210
0
220
0
230
1
0
MTEXT
5
12E
100
AcDbEntity
8
0
62
256
6
ByLayer
370
18
48
1
60
0
100
AcDbMText
10
6
20
-52.755064
30
0
210
0
220
0
230
1
1
\A1;102
40
3.5
41
0
44
1
50
0
71
5
72
5
7
iso_b_vert
0
POINT
5
12F
100
AcDbEntity
8
Defpoints
62
0
6
ByLayer
370
-1
48
1
60
0
100
AcDbPoint
10
-45
20
-6
30
0
39
0
210
0
220
0
230
1
50
360
0
POINT
5
130
100
AcDbEntity
8
Defpoints
62
0
6
ByLayer
370
-1
48
1
60
0
100
AcDbPoint
10
57
20
-5.15
30
0
39
0
210
0
220
0
230
1
50
360
0
POINT
5
131
100
AcDbEntity
8
Defpoints
62
0
6
ByLayer
370
-1
48
1
60
0
100
AcDbPoint
10
57
20
-59.755064
30
0
39
0
210
0
220
0
230
1
50
360
0
ENDBLK
5
128
100
AcDbEntity
8
0
100
AcDbBlockEnd
0
BLOCK
5
139
100
AcDbEntity
8
0
100
AcDbBlockBegin
2
_U0
70
0
10
0
20
0
30
0
3
_U0
0
MTEXT
5
133
100
AcDbEntity
8
2
62
256
6
ByLayer
370
18
48
1
60
0
100
AcDbMText
10
3.224734
20
-58.72243
30
0
210
0
220
0
230
1
1
\W0.6217;102
40
3.5
41
0
44
1.084337
50
0
71
7
72
5
7
iso_b_vert
0
LINE
5
134
100
AcDbEntity
8
2
62
256
6
ByLayer
370
13
48
1
60
0
100
AcDbLine
10
-45
20
-7.5875
30
0
11
-45
21
-61.755064
31
0
39
0
210
0
220
0
230
1
0
LINE
5
135
100
AcDbEntity
8
2
62
256
6
ByLayer
370
13
48
1
60
0
100
AcDbLine
10
57
20
-6.7375
30
0
11
57
21
-61.755064
31
0
39
0
210
0
220
0
230
1
0
LINE
5
136
100
AcDbEntity
8
2
62
256
6
ByLayer
370
13
48
1
60
0
100
AcDbLine
10
-45
20
-59.755064
30
0
11
57
21
-59.755064
31
0
39
0
210
0
220
0
230
1
0
SOLID
5
137
100
AcDbEntity
8
2
62
256
6
ByLayer
370
18
48
1
60
0
100
AcDbTrace
10
-45
20
-59.755064
30
0
11
-41.500002
21
-59.29428
31
0
12
-41.499998
22
-60.215847
32
0
13
-41.499998
23
-60.215847
33
0
39
0
210
0
220
0
230
1
0
SOLID
5
138
100
AcDbEntity
8
2
62
256
6
ByLayer
370
18
48
1
60
0
100
AcDbTrace
10
57
20
-59.755064
30
0
11
53.500002
21
-60.215847
31
0
12
53.499998
22
-59.29428
32
0
13
53.499998
23
-59.29428
33
0
39
0
210
0
220
0
230
1
0
ENDBLK
5
13A
100
AcDbEntity
8
0
100
AcDbBlockEnd
0
BLOCK
5
13F
100
AcDbEntity
8
0
100
AcDbBlockBegin
2
*D3
70
1
10
0
20
0
30
0
3
*D3
0
LINE
5
141
100
AcDbEntity
8
0
62
256
6
ByLayer
370
-2
48
1
60
0
100
AcDbLine
10
57
20
-6.7375
30
0
11
57
21
-41.755064
31
0
39
0
210
0
220
0
230
1
0
LINE
5
142
100
AcDbEntity
8
0
62
256
6
ByLayer
370
-2
48
1
60
0
100
AcDbLine
10
2
20
-6.7375
30
0
11
2
21
-41.755064
31
0
39
0
210
0
220
0
230
1
0
LINE
5
143
100
AcDbEntity
8
0
62
256
6
ByLayer
370
-2
48
1
60
0
100
AcDbLine
10
53.5
20
-39.755064
30
0
11
5.5
21
-39.755064
31
0
39
0
210
0
220
0
230
1
0
SOLID
5
144
100
AcDbEntity
8
0
62
256
6
ByLayer
370
-1
48
1
60
0
100
AcDbTrace
10
53.5
20
-40.338397
30
0
11
53.5
21
-39.17173
31
0
12
57
22
-39.755064
32
0
13
57
23
-39.755064
33
0
39
0
210
0
220
0
230
1
0
SOLID
5
145
100
AcDbEntity
8
0
62
256
6
ByLayer
370
-1
48
1
60
0
100
AcDbTrace
10
5.5
20
-39.17173
30
0
11
5.5
21
-40.338397
31
0
12
2
22
-39.755064
32
0
13
2
23
-39.755064
33
0
39
0
210
0
220
0
230
1
0
MTEXT
5
146
100
AcDbEntity
8
0
62
256
6
ByLayer
370
18
48
1
60
0
100
AcDbMText
10
29.5
20
-32.755064
30
0
210
0
220
0
230
1
1
\A1;55
40
3.5
41
0
44
1
50
0
71
5
72
5
7
iso_b_vert
0
POINT
5
147
100
AcDbEntity
8
Defpoints
62
0
6
ByLayer
370
-1
48
1
60
0
100
AcDbPoint
10
57
20
-5.15
30
0
39
0
210
0
220
0
230
1
50
360
0
POINT
5
148
100
AcDbEntity
8
Defpoints
62
0
6
ByLayer
370
-1
48
1
60
0
100
AcDbPoint
10
2
20
-5.15
30
0
39
0
210
0
220
0
230
1
50
360
0
POINT
5
149
100
AcDbEntity
8
Defpoints
62
0
6
ByLayer
370
-1
48
1
60
0
100
AcDbPoint
10
2
20
-39.755064
30
0
39
0
210
0
220
0
230
1
50
360
0
ENDBLK
5
140
100
AcDbEntity
8
0
100
AcDbBlockEnd
0
BLOCK
5
151
100
AcDbEntity
8
0
100
AcDbBlockBegin
2
_U1
70
0
10
0
20
0
30
0
3
_U1
0
MTEXT
5
14B
100
AcDbEntity
8
SK2
62
256
6
ByLayer
370
18
48
1
60
0
100
AcDbMText
10
27.595034
20
-38.72243
30
0
210
0
220
0
230
1
1
\W0.6740;55
40
3.5
41
0
44
1.084337
50
0
71
7
72
5
7
iso_b_vert
0
LINE
5
14C
100
AcDbEntity
8
SK2
62
256
6
ByLayer
370
13
48
1
60
0
100
AcDbLine
10
57
20
-6.7375
30
0
11
57
21
-41.755064
31
0
39
0
210
0
220
0
230
1
0
LINE
5
14D
100
AcDbEntity
8
SK2
62
256
6
ByLayer
370
13
48
1
60
0
100
AcDbLine
10
2
20
-6.7375
30
0
11
2
21
-41.755064
31
0
39
0
210
0
220
0
230
1
0
LINE
5
14E
100
AcDbEntity
8
SK2
62
256
6
ByLayer
370
13
48
1
60
0
100
AcDbLine
10
57
20
-39.755064
30
0
11
2
21
-39.755064
31
0
39
0
210
0
220
0
230
1
0
SOLID
5
14F
100
AcDbEntity
8
SK2
62
256
6
ByLayer
370
18
48
1
60
0
100
AcDbTrace
10
57
20
-39.755064
30
0
11
53.500002
21
-40.215847
31
0
12
53.499998
22
-39.29428
32
0
13
53.499998
23
-39.29428
33
0
39
0
210
0
220
0
230
1
0
SOLID
5
150
100
AcDbEntity
8
SK2
62
256
6
ByLayer
370
18
48
1
60
0
100
AcDbTrace
10
2
20
-39.755064
30
0
11
5.499998
21
-39.29428
31
0
12
5.500002
22
-40.215847
32
0
13
5.500002
23
-40.215847
33
0
39
0
210
0
220
0
230
1
0
ENDBLK
5
152
100
AcDbEntity
8
0
100
AcDbBlockEnd
0
BLOCK
5
157
100
AcDbEntity
8
0
100
AcDbBlockBegin
2
*D5
70
1
10
0
20
0
30
0
3
*D5
0
LINE
5
159
100
AcDbEntity
8
0
62
256
6
ByLayer
370
-2
48
1
60
0
100
AcDbLine
10
57
20
-6.7375
30
0
11
57
21
-31.755064
31
0
39
0
210
0
220
0
230
1
0
LINE
5
15A
100
AcDbEntity
8
0
62
256
6
ByLayer
370
-2
48
1
60
0
100
AcDbLine
10
17
20
-6.7375
30
0
11
17
21
-31.755064
31
0
39
0
210
0
220
0
230
1
0
LINE
5
15B
100
AcDbEntity
8
0
62
256
6
ByLayer
370
-2
48
1
60
0
100
AcDbLine
10
53.5
20
-29.755064
30
0
11
20.5
21
-29.755064
31
0
39
0
210
0
220
0
230
1
0
SOLID
5
15C
100
AcDbEntity
8
0
62
256
6
ByLayer
370
-1
48
1
60
0
100
AcDbTrace
10
53.5
20
-30.338397
30
0
11
53.5
21
-29.17173
31
0
12
57
22
-29.755064
32
0
13
57
23
-29.755064
33
0
39
0
210
0
220
0
230
1
0
SOLID
5
15D
100
AcDbEntity
8
0
62
256
6
ByLayer
370
-1
48
1
60
0
100
AcDbTrace
10
20.5
20
-29.17173
30
0
11
20.5
21
-30.338397
31
0
12
17
22
-29.755064
32
0
13
17
23
-29.755064
33
0
39
0
210
0
220
0
230
1
0
MTEXT
5
15E
100
AcDbEntity
8
0
62
256
6
ByLayer
370
18
48
1
60
0
100
AcDbMText
10
37
20
-22.755064
30
0
210
0
220
0
230
1
1
\A1;40
40
3.5
41
0
44
1
50
0
71
5
72
5
7
iso_b_vert
0
POINT
5
15F
100
AcDbEntity
8
Defpoints
62
0
6
ByLayer
370
-1
48
1
60
0
100
AcDbPoint
10
57
20
-5.15
30
0
39
0
210
0
220
0
230
1
50
360
0
POINT
5
160
100
AcDbEntity
8
Defpoints
62
0
6
ByLayer
370
-1
48
1
60
0
100
AcDbPoint
10
17
20
-5.15
30
0
39
0
210
0
220
0
230
1
50
360
0
POINT
5
161
100
AcDbEntity
8
Defpoints
62
0
6
ByLayer
370
-1
48
1
60
0
100
AcDbPoint
10
17
20
-29.755064
30
0
39
0
210
0
220
0
230
1
50
360
0
ENDBLK
5
158
100
AcDbEntity
8
0
100
AcDbBlockEnd
0
BLOCK
5
16B
100
AcDbEntity
8
0
100
AcDbBlockBegin
2
_U2
70
0
10
0
20
0
30
0
3
_U2
0
MTEXT
5
163
100
AcDbEntity
8
SK2
62
256
6
ByLayer
370
18
48
1
60
0
100
AcDbMText
10
34.910767
20
-28.72243
30
0
210
0
220
0
230
1
1
\W0.7361;40
40
3.5
41
0
44
1.084337
50
0
71
7
72
5
7
iso_b_vert
0
MTEXT
5
164
100
AcDbEntity
8
SK2
62
256
6
ByLayer
370
18
48
1
60
0
100
AcDbMText
10
31.042768
20
-28.72243
30
0
210
0
220
0
230
1
1
\W0.1790;(
40
3.5
41
0
44
1.084337
50
0
71
7
72
5
7
iso_b_vert
0
MTEXT
5
165
100
AcDbEntity
8
SK2
62
256
6
ByLayer
370
18
48
1
60
0
100
AcDbMText
10
42.960233
20
-28.72243
30
0
210
0
220
0
230
1
1
\W0.1969;)
40
3.5
41
0
44
1.084337
50
0
71
7
72
5
7
iso_b_vert
0
LINE
5
166
100
AcDbEntity
8
SK2
62
256
6
ByLayer
370
13
48
1
60
0
100
AcDbLine
10
57
20
-6.7375
30
0
11
57
21
-31.755064
31
0
39
0
210
0
220
0
230
1
0
LINE
5
167
100
AcDbEntity
8
SK2
62
256
6
ByLayer
370
13
48
1
60
0
100
AcDbLine
10
17
20
-6.7375
30
0
11
17
21
-31.755064
31
0
39
0
210
0
220
0
230
1
0
LINE
5
168
100
AcDbEntity
8
SK2
62
256
6
ByLayer
370
13
48
1
60
0
100
AcDbLine
10
57
20
-29.755064
30
0
11
17
21
-29.755064
31
0
39
0
210
0
220
0
230
1
0
SOLID
5
169
100
AcDbEntity
8
SK2
62
256
6
ByLayer
370
18
48
1
60
0
100
AcDbTrace
10
57
20
-29.755064
30
0
11
53.500002
21
-30.215847
31
0
12
53.499998
22
-29.29428
32
0
13
53.499998
23
-29.29428
33
0
39
0
210
0
220
0
230
1
0
SOLID
5
16A
100
AcDbEntity
8
SK2
62
256
6
ByLayer
370
18
48
1
60
0
100
AcDbTrace
10
17
20
-29.755064
30
0
11
20.499998
21
-29.29428
31
0
12
20.500002
22
-30.215847
32
0
13
20.500002
23
-30.215847
33
0
39
0
210
0
220
0
230
1
0
ENDBLK
5
16C
100
AcDbEntity
8
0
100
AcDbBlockEnd
0
BLOCK
5
171
100
AcDbEntity
8
0
100
AcDbBlockBegin
2
*D7
70
1
10
0
20
0
30
0
3
*D7
0
LINE
5
173
100
AcDbEntity
8
0
62
256
6
ByLayer
370
-2
48
1
60
0
100
AcDbLine
10
-45
20
-7.5875
30
0
11
-45
21
-41.755064
31
0
39
0
210
0
220
0
230
1
0
LINE
5
174
100
AcDbEntity
8
0
62
256
6
ByLayer
370
-2
48
1
60
0
100
AcDbLine
10
0
20
-7.5875
30
0
11
0
21
-41.755064
31
0
39
0
210
0
220
0
230
1
0
LINE
5
175
100
AcDbEntity
8
0
62
256
6
ByLayer
370
-2
48
1
60
0
100
AcDbLine
10
-41.5
20
-39.755064
30
0
11
-3.5
21
-39.755064
31
0
39
0
210
0
220
0
230
1
0
SOLID
5
176
100
AcDbEntity
8
0
62
256
6
ByLayer
370
-1
48
1
60
0
100
AcDbTrace
10
-41.5
20
-39.17173
30
0
11
-41.5
21
-40.338397
31
0
12
-45
22
-39.755064
32
0
13
-45
23
-39.755064
33
0
39
0
210
0
220
0
230
1
0
SOLID
5
177
100
AcDbEntity
8
0
62
256
6
ByLayer
370
-1
48
1
60
0
100
AcDbTrace
10
-3.5
20
-40.338397
30
0
11
-3.5
21
-39.17173
31
0
12
0
22
-39.755064
32
0
13
0
23
-39.755064
33
0
39
0
210
0
220
0
230
1
0
MTEXT
5
178
100
AcDbEntity
8
0
62
256
6
ByLayer
370
18
48
1
60
0
100
AcDbMText
10
-22.5
20
-32.755064
30
0
210
0
220
0
230
1
1
\A1;45
40
3.5
41
0
44
1
50
0
71
5
72
5
7
iso_b_vert
0
POINT
5
179
100
AcDbEntity
8
Defpoints
62
0
6
ByLayer
370
-1
48
1
60
0
100
AcDbPoint
10
-45
20
-6
30
0
39
0
210
0
220
0
230
1
50
360
0
POINT
5
17A
100
AcDbEntity
8
Defpoints
62
0
6
ByLayer
370
-1
48
1
60
0
100
AcDbPoint
10
0
20
-6
30
0
39
0
210
0
220
0
230
1
50
360
0
POINT
5
17B
100
AcDbEntity
8
Defpoints
62
0
6
ByLayer
370
-1
48
1
60
0
100
AcDbPoint
10
0
20
-39.755064
30
0
39
0
210
0
220
0
230
1
50
360
0
ENDBLK
5
172
100
AcDbEntity
8
0
100
AcDbBlockEnd
0
BLOCK
5
183
100
AcDbEntity
8
0
100
AcDbBlockBegin
2
_U3
70
0
10
0
20
0
30
0
3
_U3
0
MTEXT
5
17D
100
AcDbEntity
8
SK2
62
256
6
ByLayer
370
18
48
1
60
0
100
AcDbMText
10
-24.589233
20
-38.72243
30
0
210
0
220
0
230
1
1
\W0.7361;45
40
3.5
41
0
44
1.084337
50
0
71
7
72
5
7
iso_b_vert
0
LINE
5
17E
100
AcDbEntity
8
SK2
62
256
6
ByLayer
370
13
48
1
60
0
100
AcDbLine
10
-45
20
-7.5875
30
0
11
-45
21
-41.755064
31
0
39
0
210
0
220
0
230
1
0
LINE
5
17F
100
AcDbEntity
8
SK2
62
256
6
ByLayer
370
13
48
1
60
0
100
AcDbLine
10
0
20
-7.5875
30
0
11
0
21
-41.755064
31
0
39
0
210
0
220
0
230
1
0
LINE
5
180
100
AcDbEntity
8
SK2
62
256
6
ByLayer
370
13
48
1
60
0
100
AcDbLine
10
-45
20
-39.755064
30
0
11
0
21
-39.755064
31
0
39
0
210
0
220
0
230
1
0
SOLID
5
181
100
AcDbEntity
8
SK2
62
256
6
ByLayer
370
18
48
1
60
0
100
AcDbTrace
10
-45
20
-39.755064
30
0
11
-41.500002
21
-39.29428
31
0
12
-41.499998
22
-40.215847
32
0
13
-41.499998
23
-40.215847
33
0
39
0
210
0
220
0
230
1
0
SOLID
5
182
100
AcDbEntity
8
SK2
62
256
6
ByLayer
370
18
48
1
60
0
100
AcDbTrace
10
0
20
-39.755064
30
0
11
-3.499998
21
-40.215847
31
0
12
-3.500002
22
-39.29428
32
0
13
-3.500002
23
-39.29428
33
0
39
0
210
0
220
0
230
1
0
ENDBLK
5
184
100
AcDbEntity
8
0
100
AcDbBlockEnd
0
BLOCK
5
189
100
AcDbEntity
8
0
100
AcDbBlockBegin
2
*D9
70
1
10
0
20
0
30
0
3
*D9
0
LINE
5
18B
100
AcDbEntity
8
0
62
256
6
ByLayer
370
-2
48
1
60
0
100
AcDbLine
10
0
20
-7.5875
30
0
11
0
21
-51.755064
31
0
39
0
210
0
220
0
230
1
0
LINE
5
18C
100
AcDbEntity
8
0
62
256
6
ByLayer
370
-2
48
1
60
0
100
AcDbLine
10
57
20
-6.7375
30
0
11
57
21
-51.755064
31
0
39
0
210
0
220
0
230
1
0
LINE
5
18D
100
AcDbEntity
8
0
62
256
6
ByLayer
370
-2
48
1
60
0
100
AcDbLine
10
3.5
20
-49.755064
30
0
11
53.5
21
-49.755064
31
0
39
0
210
0
220
0
230
1
0
SOLID
5
18E
100
AcDbEntity
8
0
62
256
6
ByLayer
370
-1
48
1
60
0
100
AcDbTrace
10
3.5
20
-49.17173
30
0
11
3.5
21
-50.338397
31
0
12
0
22
-49.755064
32
0
13
0
23
-49.755064
33
0
39
0
210
0
220
0
230
1
0
SOLID
5
18F
100
AcDbEntity
8
0
62
256
6
ByLayer
370
-1
48
1
60
0
100
AcDbTrace
10
53.5
20
-50.338397
30
0
11
53.5
21
-49.17173
31
0
12
57
22
-49.755064
32
0
13
57
23
-49.755064
33
0
39
0
210
0
220
0
230
1
0
MTEXT
5
190
100
AcDbEntity
8
0
62
256
6
ByLayer
370
18
48
1
60
0
100
AcDbMText
10
28.5
20
-42.755064
30
0
210
0
220
0
230
1
1
\A1;57
40
3.5
41
0
44
1
50
0
71
5
72
5
7
iso_b_vert
0
POINT
5
191
100
AcDbEntity
8
Defpoints
62
0
6
ByLayer
370
-1
48
1
60
0
100
AcDbPoint
10
0
20
-6
30
0
39
0
210
0
220
0
230
1
50
360
0
POINT
5
192
100
AcDbEntity
8
Defpoints
62
0
6
ByLayer
370
-1
48
1
60
0
100
AcDbPoint
10
57
20
-5.15
30
0
39
0
210
0
220
0
230
1
50
360
0
POINT
5
193
100
AcDbEntity
8
Defpoints
62
0
6
ByLayer
370
-1
48
1
60
0
100
AcDbPoint
10
57
20
-49.755064
30
0
39
0
210
0
220
0
230
1
50
360
0
ENDBLK
5
18A
100
AcDbEntity
8
0
100
AcDbBlockEnd
0
BLOCK
5
19B
100
AcDbEntity
8
0
100
AcDbBlockBegin
2
_U4
70
0
10
0
20
0
30
0
3
_U4
0
MTEXT
5
195
100
AcDbEntity
8
SK2
62
256
6
ByLayer
370
18
48
1
60
0
100
AcDbMText
10
26.595034
20
-48.72243
30
0
210
0
220
0
230
1
1
\W0.6740;57
40
3.5
41
0
44
1.084337
50
0
71
7
72
5
7
iso_b_vert
0
LINE
5
196
100
AcDbEntity
8
SK2
62
256
6
ByLayer
370
13
48
1
60
0
100
AcDbLine
10
0
20
-7.5875
30
0
11
0
21
-51.755064
31
0
39
0
210
0
220
0
230
1
0
LINE
5
197
100
AcDbEntity
8
SK2
62
256
6
ByLayer
370
13
48
1
60
0
100
AcDbLine
10
57
20
-6.7375
30
0
11
57
21
-51.755064
31
0
39
0
210
0
220
0
230
1
0
LINE
5
198
100
AcDbEntity
8
SK2
62
256
6
ByLayer
370
13
48
1
60
0
100
AcDbLine
10
0
20
-49.755064
30
0
11
57
21
-49.755064
31
0
39
0
210
0
220
0
230
1
0
SOLID
5
199
100
AcDbEntity
8
SK2
62
256
6
ByLayer
370
18
48
1
60
0
100
AcDbTrace
10
0
20
-49.755064
30
0
11
3.499998
21
-49.29428
31
0
12
3.500002
22
-50.215847
32
0
13
3.500002
23
-50.215847
33
0
39
0
210
0
220
0
230
1
0
SOLID
5
19A
100
AcDbEntity
8
SK2
62
256
6
ByLayer
370
18
48
1
60
0
100
AcDbTrace
10
57
20
-49.755064
30
0
11
53.500002
21
-50.215847
31
0
12
53.499998
22
-49.29428
32
0
13
53.499998
23
-49.29428
33
0
39
0
210
0
220
0
230
1
0
ENDBLK
5
19C
100
AcDbEntity
8
0
100
AcDbBlockEnd
0
ENDSEC
0
SECTION
2
ENTITIES
0
ARC
5
BD
100
AcDbEntity
8
1
62
256
6
ByLayer
370
18
48
1
60
0
100
AcDbCircle
39
0
10
1.430669
20
5.91644
30
0
40
0.800000000000003
210
0
220
0
230
1
100
AcDbArc
50
206.958545
51
270.03581
0
ARC
5
BE
100
AcDbEntity
8
1
62
256
6
ByLayer
370
18
48
1
60
0
100
AcDbCircle
39
0
10
1.430669
20
-5.91644
30
0
40
0.800000000000003
210
0
220
0
230
1
100
AcDbArc
50
89.96419
51
153.041455
0
ARC
5
BF
100
AcDbEntity
8
1
62
256
6
ByLayer
370
18
48
1
60
0
100
AcDbCircle
39
0
10
0
20
5.2
30
0
40
0.799999999999996
210
0
220
0
230
1
100
AcDbArc
50
26.958545
51
90
0
ARC
5
C0
100
AcDbEntity
8
1
62
256
6
ByLayer
370
18
48
1
60
0
100
AcDbCircle
39
0
10
0
20
-5.2
30
0
40
0.799999999999996
210
0
220
0
230
1
100
AcDbArc
50
270
51
333.041455
0
ARC
5
C1
100
AcDbEntity
8
SK2
62
256
6
ByLayer
370
13
48
1
60
0
100
AcDbCircle
39
0
10
57
20
0
30
0
40
33.5929779628066
210
0
220
0
230
1
100
AcDbArc
50
5.551845
51
70.004389
0
ARC
5
C2
100
AcDbEntity
8
SK2
62
256
6
ByLayer
370
13
48
1
60
0
100
AcDbCircle
39
0
10
57
20
0
30
0
40
33.5929779628066
210
0
220
0
230
1
100
AcDbArc
50
289.995611
51
354.448155
0
ELLIPSE
5
C3
100
AcDbEntity
8
1
62
256
6
ByLayer
370
18
48
1
60
0
100
AcDbEllipse
10
3.75
20
-5.111114
30
0
11
0.25
21
0
31
0
210
0
220
0
230
1
40
0.999998
41
1.57567927983098
42
3.13249834550413
0
ELLIPSE
5
C4
100
AcDbEntity
8
1
62
256
6
ByLayer
370
18
48
1
60
0
100
AcDbEllipse
10
3.75
20
5.111114
30
0
11
0.25
21
0
31
0
210
0
220
0
230
1
40
0.999998
41
-3.13249834550396
42
-1.55974210634251
0
POINT
5
70
100
AcDbEntity
8
80
62
256
6
ByLayer
370
18
48
1
60
0
100
AcDbPoint
10
0
20
0
30
0
39
0
210
0
220
0
230
1
50
360
0
POINT
5
72
100
AcDbEntity
8
81
62
256
6
ByLayer
370
18
48
1
60
0
100
AcDbPoint
10
57
20
0
30
0
39
0
210
0
220
0
230
1
50
360
0
POINT
5
74
100
AcDbEntity
8
1
62
256
6
ByLayer
370
18
48
1
60
0
100
AcDbPoint
10
-211.878511
20
-169.984246
30
0
39
0
210
0
220
0
230
1
50
360
0
POINT
5
76
100
AcDbEntity
8
1
62
256
6
ByLayer
370
13
48
1
60
1
100
AcDbPoint
10
-46.5
20
0
30
0
39
0
210
0
220
0
230
1
50
360
0
POINT
5
77
100
AcDbEntity
8
1
62
256
6
ByLayer
370
13
48
1
60
1
100
AcDbPoint
10
56.683441
20
0
30
0
39
0
210
0
220
0
230
1
50
360
0
POINT
5
78
100
AcDbEntity
8
1
62
256
6
ByLayer
370
18
48
1
60
1
100
AcDbPoint
10
-45
20
-6
30
0
39
0
210
0
220
0
230
1
50
360
0
POINT
5
79
100
AcDbEntity
8
1
62
256
6
ByLayer
370
18
48
1
60
1
100
AcDbPoint
10
57
20
-5.15
30
0
39
0
210
0
220
0
230
1
50
360
0
POINT
5
7A
100
AcDbEntity
8
1
62
256
6
ByLayer
370
18
48
1
60
1
100
AcDbPoint
10
57
20
-5.15
30
0
39
0
210
0
220
0
230
1
50
360
0
POINT
5
7B
100
AcDbEntity
8
1
62
256
6
ByLayer
370
18
48
1
60
1
100
AcDbPoint
10
2
20
-5.15
30
0
39
0
210
0
220
0
230
1
50
360
0
POINT
5
7C
100
AcDbEntity
8
1
62
256
6
ByLayer
370
18
48
1
60
1
100
AcDbPoint
10
57
20
-5.15
30
0
39
0
210
0
220
0
230
1
50
360
0
POINT
5
7D
100
AcDbEntity
8
1
62
256
6
ByLayer
370
18
48
1
60
1
100
AcDbPoint
10
17
20
-5.15
30
0
39
0
210
0
220
0
230
1
50
360
0
POINT
5
7E
100
AcDbEntity
8
1
62
256
6
ByLayer
370
18
48
1
60
1
100
AcDbPoint
10
-45
20
-6
30
0
39
0
210
0
220
0
230
1
50
360
0
POINT
5
7F
100
AcDbEntity
8
1
62
256
6
ByLayer
370
18
48
1
60
1
100
AcDbPoint
10
0
20
-6
30
0
39
0
210
0
220
0
230
1
50
360
0
POINT
5
80
100
AcDbEntity
8
1
62
256
6
ByLayer
370
18
48
1
60
1
100
AcDbPoint
10
0
20
-6
30
0
39
0
210
0
220
0
230
1
50
360
0
POINT
5
81
100
AcDbEntity
8
1
62
256
6
ByLayer
370
18
48
1
60
1
100
AcDbPoint
10
57
20
-5.15
30
0
39
0
210
0
220
0
230
1
50
360
0
SPLINE
5
C5
100
AcDbEntity
8
1
62
256
6
ByLayer
370
18
48
1
60
0
100
AcDbSpline
70
4
71
3
72
41
73
37
40
0
40
0
40
0
40
0
40
0.0891516368894775
40
0.0891516368894775
40
0.133727455334216
40
0.156015364556586
40
0.156015364556586
40
0.178303273778955
40
0.178303273778955
40
0.267454910668433
40
0.267454910668433
40
0.356606547557911
40
0.356606547557911
40
0.44575818444739
40
0.44575818444739
40
0.46804609366976
40
0.46804609366976
40
0.490334002892129
40
0.490334002892129
40
0.534909821336869
40
0.579485639781608
40
0.579485639781608
40
0.624061458226348
40
0.624061458226348
40
0.713213095115827
40
0.713213095115827
40
0.735501004338197
40
0.735501004338197
40
0.757788913560566
40
0.757788913560566
40
0.802364732005305
40
0.802364732005305
40
0.891516368894784
40
0.980668005784263
40
0.980668005784263
40
1
40
1
40
1
40
1
41
1
10
3.50000000000003
20
2.09274298923344
30
0
41
1
10
3.50000000000003
20
2.25323352184057
30
0
41
1
10
3.5
20
2.40924517192585
30
0
41
1
10
3.5
20
2.63663017714777
30
0
41
1
10
3.5
20
2.74866122890344
30
0
41
1
10
3.5
20
2.85818621458489
30
0
41
1
10
3.5
20
2.93064232476422
30
0
41
1
10
3.5
20
2.96655634698934
30
0
41
1
10
3.5
20
3.14394692765438
30
0
41
1
10
3.5
20
3.27948357021117
30
0
41
1
10
3.5
20
3.53818286724098
30
0
41
1
10
3.5
20
3.66134458697394
30
0
41
1
10
3.5
20
3.8952748821562
30
0
41
1
10
3.50000000000006
20
4.00604458241526
30
0
41
1
10
3.50000000000003
20
4.13650301420441
30
0
41
1
10
3.5
20
4.16220416348952
30
0
41
1
10
3.5
20
4.2125798269266
30
0
41
1
10
3.50000000000006
20
4.23728167548865
30
0
41
1
10
3.50000000000006
20
4.3099354861661
30
0
41
1
10
3.50000000000008
20
4.40293785490397
30
0
41
1
10
3.50000000000006
20
4.48822126835415
30
0
41
1
10
3.50000000000006
20
4.56962434839036
30
0
41
1
10
3.50000000000003
20
4.60840736376051
30
0
41
1
10
3.50000000000003
20
4.71827354386079
30
0
41
1
10
3.50000000000003
20
4.78311595593362
30
0
41
1
10
3.50000000000006
20
4.8536750926271
30
0
41
1
10
3.5
20
4.86726092224873
30
0
41
1
10
3.5
20
4.89337553809077
30
0
41
1
10
3.50000000000006
20
4.90590208705012
30
0
41
1
10
3.50000000000003
20
4.94174051611716
30
0
41
1
10
3.5
20
4.96337018739297
30
0
41
1
10
3.50000000000003
20
5.02159876985678
30
0
41
1
10
3.50000000000006
20
5.08150981669465
30
0
41
1
10
3.50000000000003
20
5.10646089395954
30
0
41
1
10
3.5
20
5.11082158305166
30
0
41
1
10
3.5
20
5.11117974623872
30
0
41
1
10
3.5
20
5.1111152031437
30
0
0
SPLINE
5
C6
100
AcDbEntity
8
1
62
256
6
ByLayer
370
18
48
1
60
0
100
AcDbSpline
70
4
71
3
72
10
73
6
40
0
40
0
40
0
40
0
40
0.717037605838985
40
0.717037605838985
40
1
40
1
40
1
40
1
41
1
10
55.127231120762
20
5.14996167731312
30
0
41
1
10
55.1458223425878
20
5.10740066451527
30
0
41
1
10
55.1647671236166
20
5.06484583641841
30
0
41
1
10
55.1916743383529
20
5.0054997261189
30
0
41
1
10
55.1993424458355
20
4.98870684355643
30
0
41
1
10
55.2070663410618
20
4.97190656199763
30
0
0
SPLINE
5
C7
100
AcDbEntity
8
1
62
256
6
ByLayer
370
18
48
1
60
0
100
AcDbSpline
70
4
71
3
72
8
73
4
40
0
40
0
40
0
40
0
40
1
40
1
40
1
40
1
41
1
10
56.5193206884002
20
1.66952592239721
30
0
41
1
10
56.6825831020301
20
1.20945346229246
30
0
41
1
10
56.8412509334553
20
0.747729666868509
30
0
41
1
10
56.9952508451369
20
0.28432817793589
30
0
0
SPLINE
5
C8
100
AcDbEntity
8
1
62
256
6
ByLayer
370
18
48
1
60
0
100
AcDbSpline
70
4
71
3
72
27
73
23
40
0
40
0
40
0
40
0
40
0.227259944487726
40
0.227259944487726
40
0.284074930609657
40
0.284074930609657
40
0.340889916731589
40
0.340889916731589
40
0.454519888975452
40
0.454519888975452
40
0.511334875097383
40
0.511334875097383
40
0.568149861219315
40
0.568149861219315
40
0.681779833463205
40
0.795409805707094
40
0.795409805707094
40
0.852224791829049
40
0.852224791829049
40
0.909039777951004
40
0.909039777951004
40
1
40
1
40
1
40
1
41
1
10
55.6509057757453
20
1.47188973359152
30
0
41
1
10
55.5698782430917
20
1.45825361233892
30
0
41
1
10
55.4918353973569
20
1.43700537167166
30
0
41
1
10
55.398165148444
20
1.40146245882886
30
0
41
1
10
55.3795725996198
20
1.3938821574628
30
0
41
1
10
55.3430261484994
20
1.37794688963942
30
0
41
1
10
55.3251790807789
20
1.36964206491888
30
0
41
1
10
55.2728684291037
20
1.34382378706255
30
0
41
1
10
55.2396322031377
20
1.32540878479256
30
0
41
1
10
55.1920958549504
20
1.29637270337793
30
0
41
1
10
55.176637498874
20
1.28645785673049
30
0
41
1
10
55.1464815901903
20
1.26621522934491
30
0
41
1
10
55.1317298200026
20
1.2558467329506
30
0
41
1
10
55.0890519005271
20
1.22453923202676
30
0
41
1
10
55.0364488393423
20
1.18238861080732
30
0
41
1
10
54.9915971558989
20
1.14036768526157
30
0
41
1
10
54.9607489654556
20
1.10915995887836
30
0
41
1
10
54.9509228318512
20
1.09879189339156
30
0
41
1
10
54.9324590093088
20
1.07847117323857
30
0
41
1
10
54.9237848620397
20
1.06848310862293
30
0
41
1
10
54.9026230009987
20
1.04296951616595
30
0
41
1
10
54.8909701227843
20
1.02772479195733
30
0
41
1
10
54.8806685596958
20
1.01295882967813
30
0
0
SPLINE
5
C9
100
AcDbEntity
8
1
62
256
6
ByLayer
370
18
48
1
60
0
100
AcDbSpline
70
4
71
3
72
14
73
10
40
0
40
0
40
0
40
0
40
0.125
40
0.125
40
0.25
40
0.25
40
0.5
40
0.5
40
1
40
1
40
1
40
1
41
1
10
56.5193206884002
20
1.66952592239719
30
0
41
1
10
56.4836364990193
20
1.6585217604767
30
0
41
1
10
56.4477227772462
20
1.64795291598415
30
0
41
1
10
56.3758286620999
20
1.6276712899035
30
0
41
1
10
56.3398280748389
20
1.61795138368998
30
0
41
1
10
56.2316866083095
20
1.58989017101308
30
0
41
1
10
56.1594068366869
20
1.57264098263315
30
0
41
1
10
55.9421354120921
20
1.52429111961226
30
0
41
1
10
55.7967316643509
20
1.49643076839382
30
0
41
1
10
55.6509057757453
20
1.47188973359155
30
0
0
SPLINE
5
CA
100
AcDbEntity
8
1
62
256
6
ByLayer
370
18
48
1
60
0
100
AcDbSpline
70
4
71
3
72
32
73
28
40
0
40
0
40
0
40
0
40
0.0625000000000062
40
0.0625000000000062
40
0.0937500000000094
40
0.0937500000000094
40
0.125000000000013
40
0.125000000000013
40
0.250000000000031
40
0.250000000000031
40
0.37500000000005
40
0.37500000000005
40
0.43750000000006
40
0.43750000000006
40
0.468750000000065
40
0.468750000000065
40
0.484375000000065
40
0.484375000000065
40
0.500000000000066
40
0.500000000000066
40
0.625000000000049
40
0.625000000000049
40
0.750000000000033
40
0.750000000000033
40
0.875000000000017
40
0.875000000000017
40
1
40
1
40
1
40
1
41
1
10
56.5193206884002
20
1.66952592239721
30
0
41
1
10
56.4858913170736
20
1.72717281803125
30
0
41
1
10
56.4529749466796
20
1.78618299199817
30
0
41
1
10
56.4043283217688
20
1.87681977504917
30
0
41
1
10
56.3882339136331
20
1.90738526895734
30
0
41
1
10
56.3562788289073
20
1.96923668037166
30
0
41
1
10
56.3403911662408
20
2.00057822935932
30
0
41
1
10
56.2620614452869
20
2.15800515037174
30
0
41
1
10
56.2026515571278
20
2.28678022706984
30
0
41
1
10
56.0890521204684
20
2.54947296438894
30
0
41
1
10
56.0348689552751
20
2.68339792942609
30
0
41
1
10
55.9564723245925
20
2.88775406047833
30
0
41
1
10
55.9308184305709
20
2.95645016809621
30
0
41
1
10
55.8929147679222
20
3.06030770878891
30
0
41
1
10
55.8803626902883
20
3.09510105280236
30
0
41
1
10
55.8617289353369
20
3.14729204117714
30
0
41
1
10
55.8555492329478
20
3.16469209338038
30
0
41
1
10
55.8432458634627
20
3.1994967618802
30
0
41
1
10
55.8371293204519
20
3.21690212834497
30
0
41
1
10
55.7820656505086
20
3.37353927270155
30
0
41
1
10
55.7332418561465
20
3.51271232159792
30
0
41
1
10
55.6356823842836
20
3.79064218424637
30
0
41
1
10
55.5869411075629
20
3.92942236210521
30
0
41
1
10
55.489269165806
20
4.20647660381002
30
0
41
1
10
55.4403231818403
20
4.34479561458215
30
0
41
1
10
55.3420153329138
20
4.62054355920918
30
0
41
1
10
55.292665821029
20
4.75793920224609
30
0
41
1
10
55.2429430927546
20
4.89477262609859
30
0
0
SPLINE
5
CB
100
AcDbEntity
8
1
62
256
6
ByLayer
370
18
48
1
60
0
100
AcDbSpline
70
4
71
3
72
26
73
22
40
0
40
0
40
0
40
0
40
0.132292631885055
40
0.132292631885055
40
0.198438947827584
40
0.198438947827584
40
0.264585263770114
40
0.264585263770114
40
0.396877895655173
40
0.396877895655173
40
0.529170527540232
40
0.529170527540232
40
0.595316843482761
40
0.595316843482761
40
0.66146315942529
40
0.66146315942529
40
0.793755791310354
40
0.793755791310354
40
0.926048423195417
40
0.926048423195417
40
1
40
1
40
1
40
1
41
1
10
55.2429430927551
20
4.89477262609904
30
0
41
1
10
54.9023412532889
20
4.90252656548901
30
0
41
1
10
54.5615607296347
20
4.90240806926158
30
0
41
1
10
54.0512425670498
20
4.89052638520187
30
0
41
1
10
53.8812426735794
20
4.88461404839344
30
0
41
1
10
53.5414160964383
20
4.86884705927355
30
0
41
1
10
53.3715890509383
20
4.85899455835039
30
0
41
1
10
52.8621787344225
20
4.82355459872528
30
0
41
1
10
52.5226794331468
20
4.79201855134409
30
0
41
1
10
51.8433305992027
20
4.71357248560491
30
0
41
1
10
51.5035050938431
20
4.66668857418597
30
0
41
1
10
50.9930759981523
20
4.58522226999511
30
0
41
1
10
50.8227280808068
20
4.55618950697558
30
0
41
1
10
50.4823369357333
20
4.49456924488268
30
0
41
1
10
50.3122529339623
20
4.46198001913325
30
0
41
1
10
49.8022398216612
20
4.35903106697785
30
0
41
1
10
49.462557024587
20
4.2835070619812
30
0
41
1
10
48.7833899492071
20
4.11891171295284
30
0
41
1
10
48.4438271367694
20
4.02994785975258
30
0
41
1
10
47.914056187976
20
3.88113695554625
30
0
41
1
10
47.7240280285681
20
3.82572034517509
30
0
41
1
10
47.5338774285619
20
3.76833834676566
30
0
0
SPLINE
5
CC
100
AcDbEntity
8
1
62
256
6
ByLayer
370
18
48
1
60
0
100
AcDbSpline
70
2053
71
3
72
130
73
126
40
0
40
0
40
0
40
0
40
0.0312500000000002
40
0.0312500000000002
40
0.0468750000000016
40
0.0468750000000016
40
0.0625000000000029
40
0.0625000000000029
40
0.0937500000000057
40
0.0937500000000057
40
0.109375000000007
40
0.109375000000007
40
0.117187500000008
40
0.117187500000008
40
0.125000000000008
40
0.125000000000008
40
0.156250000000013
40
0.156250000000013
40
0.171875000000016
40
0.171875000000016
40
0.179687500000016
40
0.179687500000016
40
0.187500000000016
40
0.187500000000016
40
0.218750000000016
40
0.218750000000016
40
0.234375000000015
40
0.234375000000015
40
0.242187500000014
40
0.242187500000014
40
0.250000000000013
40
0.250000000000013
40
0.28125000000001
40
0.28125000000001
40
0.296875000000008
40
0.296875000000008
40
0.304687500000007
40
0.304687500000007
40
0.312500000000006
40
0.312500000000006
40
0.343750000000002
40
0.343750000000002
40
0.351562500000002
40
0.351562500000002
40
0.359375000000001
40
0.359375000000001
40
0.374999999999999
40
0.390624999999997
40
0.390624999999997
40
0.398437499999997
40
0.398437499999997
40
0.406249999999997
40
0.406249999999997
40
0.4375
40
0.4375
40
0.4453125
40
0.4453125
40
0.453125000000001
40
0.468750000000001
40
0.484375000000002
40
0.484375000000002
40
0.492187500000004
40
0.492187500000004
40
0.500000000000005
40
0.500000000000005
40
0.531250000000009
40
0.531250000000009
40
0.546875000000009
40
0.546875000000009
40
0.562500000000009
40
0.562500000000009
40
0.593750000000007
40
0.593750000000007
40
0.601562500000007
40
0.601562500000007
40
0.609375000000006
40
0.625000000000006
40
0.625000000000006
40
0.656250000000007
40
0.656250000000007
40
0.664062500000008
40
0.664062500000008
40
0.671875000000009
40
0.671875000000009
40
0.687500000000011
40
0.687500000000011
40
0.718750000000015
40
0.718750000000015
40
0.726562500000015
40
0.726562500000015
40
0.734375000000015
40
0.750000000000015
40
0.765625000000015
40
0.765625000000015
40
0.773437500000015
40
0.773437500000015
40
0.781250000000015
40
0.781250000000015
40
0.812500000000014
40
0.812500000000014
40
0.820312500000013
40
0.820312500000013
40
0.828125000000012
40
0.828125000000012
40
0.84375000000001
40
0.859375000000008
40
0.859375000000008
40
0.867187500000007
40
0.867187500000007
40
0.875000000000005
40
0.875000000000005
40
0.906250000000002
40
0.906250000000002
40
0.921875000000002
40
0.921875000000002
40
0.937500000000002
40
0.937500000000002
40
0.953125000000001
40
0.953125000000001
40
0.968750000000001
40
0.984375
40
0.984375
40
0.9921875
40
0.9921875
40
1
40
1
40
1
40
1
41
1
10
55.4813504641828
20
-2.57286588415902
30
0
41
1
10
55.4617039032188
20
-2.60133816037975
30
0
41
1
10
55.4427716866275
20
-2.62495473751142
30
0
41
1
10
55.415221749961
20
-2.65359010228568
30
0
41
1
10
55.4061803721911
20
-2.66199488478037
30
0
41
1
10
55.3883482224619
20
-2.67651116667037
30
0
41
1
10
55.3795398998228
20
-2.68263256147583
30
0
41
1
10
55.3535546467384
20
-2.69738514128721
30
0
41
1
10
55.337157039703
20
-2.70225772092439
30
0
41
1
10
55.3136389323851
20
-2.70237768055921
30
0
41
1
10
55.3059805565346
20
-2.70121205428978
30
0
41
1
10
55.2947351378789
20
-2.69762155034505
30
0
41
1
10
55.2910270780773
20
-2.69611725600666
30
0
41
1
10
55.2836875252931
20
-2.69248245356911
30
0
41
1
10
55.280047374695
20
-2.69034550683739
30
0
41
1
10
55.2621579190061
20
-2.67815040790148
30
0
41
1
10
55.2488295168255
20
-2.66363028531671
30
0
41
1
10
55.2300433070733
20
-2.63482205645565
30
0
41
1
10
55.2239842444152
20
-2.62404108833772
30
0
41
1
10
55.2151832560469
20
-2.60605214242327
30
0
41
1
10
55.2122976392616
20
-2.59975244263288
30
0
41
1
10
55.2066210805955
20
-2.58653175313708
30
0
41
1
10
55.2038230151313
20
-2.57959113025061
30
0
41
1
10
55.1901796382012
20
-2.54358896865477
30
0
41
1
10
55.1803424475639
20
-2.51066785908534
30
0
41
1
10
55.1671093434884
20
-2.45511186319615
30
0
41
1
10
55.1629548856861
20
-2.43555753110468
30
0
41
1
10
55.1571235604448
20
-2.40460657468287
30
0
41
1
10
55.1552467127705
20
-2.39401917773745
30
0
41
1
10
55.1516321487783
20
-2.37228573358237
30
0
41
1
10
55.1498915539407
20
-2.36111602252751
30
0
41
1
10
55.1416466713407
20
-2.30448296663661
30
0
41
1
10
55.1364186366839
20
-2.25627579564562
30
0
41
1
10
55.1308401915726
20
-2.17950127382048
30
0
41
1
10
55.1293619018646
20
-2.15316031505392
30
0
41
1
10
55.1277860843467
20
-2.1124516096221
30
0
41
1
10
55.1273673733473
20
-2.09864569384342
30
0
41
1
10
55.1267644511118
20
-2.07078382824974
30
0
41
1
10
55.1265810042988
20
-2.05679214617484
30
0
41
1
10
55.1262660123597
20
-1.98653349165133
30
0
41
1
10
55.1279147031625
20
-1.92937622898231
30
0
41
1
10
55.1327985686241
20
-1.85669441225525
30
0
41
1
10
55.1339182318806
20
-1.84209561614193
30
0
41
1
10
55.1364623099586
20
-1.81276906739055
30
0
41
1
10
55.137891948471
20
-1.79800139698955
30
0
41
1
10
55.1425968358026
20
-1.75414823374083
30
0
41
1
10
55.1500027138994
20
-1.6965112221076
30
0
41
1
10
55.159751740938
20
-1.64052374219969
30
0
41
1
10
55.1679961764956
20
-1.59916484127621
30
0
41
1
10
55.1709000251401
20
-1.58548403069938
30
0
41
1
10
55.1770315039072
20
-1.55833815703761
30
0
41
1
10
55.1802617331665
20
-1.54486984805769
30
0
41
1
10
55.1970018371601
20
-1.47902796441437
30
0
41
1
10
55.2124383546777
20
-1.43031763863837
30
0
41
1
10
55.234263882362
20
-1.37406882526639
30
0
41
1
10
55.2387675494203
20
-1.36302720590118
30
0
41
1
10
55.2479772065238
20
-1.34153793049666
30
0
41
1
10
55.2620517783339
20
-1.31029309587959
30
0
41
1
10
55.2867579773422
20
-1.26292082619864
30
0
41
1
10
55.3077750616189
20
-1.22972713154766
30
0
41
1
10
55.3239850401608
20
-1.20653215576621
30
0
41
1
10
55.329470630553
20
-1.19907609679893
30
0
41
1
10
55.3404867100556
20
-1.18485164193294
30
0
41
1
10
55.3460284142302
20
-1.17806610237938
30
0
41
1
10
55.3738929778965
20
-1.14570357807293
30
0
41
1
10
55.3966822347756
20
-1.12477649714913
30
0
41
1
10
55.4314037103727
20
-1.10013052270864
30
0
41
1
10
55.4430884984727
20
-1.09304647878156
30
0
41
1
10
55.4662499287761
20
-1.08127013645444
30
0
41
1
10
55.4777695589238
20
-1.07654280193378
30
0
41
1
10
55.5121053314073
20
-1.06567398672502
30
0
41
1
10
55.5347012897271
20
-1.06281745065297
30
0
41
1
10
55.5624085656586
20
-1.06463638921326
30
0
41
1
10
55.5679285480071
20
-1.06527388227477
30
0
41
1
10
55.5788277638689
20
-1.06708139201302
30
0
41
1
10
55.5949938981157
20
-1.07059412729666
30
0
41
1
10
55.6106018796799
20
-1.07646557667894
30
0
41
1
10
55.6410284910838
20
-1.0913235355934
30
0
41
1
10
55.6602681316494
20
-1.10535154867407
30
0
41
1
10
55.682762062583
20
-1.12837670529891
30
0
41
1
10
55.6871824576965
20
-1.13325869594425
30
0
41
1
10
55.695857460471
20
-1.14359571774389
30
0
41
1
10
55.700105260064
20
-1.14904457899181
30
0
41
1
10
55.712478721042
20
-1.16612208034732
30
0
41
1
10
55.7202709305556
20
-1.17852133991599
30
0
41
1
10
55.7422106969617
20
-1.21883295446202
30
0
41
1
10
55.7549365630084
20
-1.24982004704791
30
0
41
1
10
55.7680588264731
20
-1.29443052591921
30
0
41
1
10
55.770548903554
20
-1.30367556494005
30
0
41
1
10
55.7751991759549
20
-1.32265082548938
30
0
41
1
10
55.7816742790876
20
-1.35181085496348
30
0
41
1
10
55.789946649905
20
-1.40391983379826
30
0
41
1
10
55.7937746763443
20
-1.4495207911574
30
0
41
1
10
55.7955334833137
20
-1.48530533237462
30
0
41
1
10
55.7959344042059
20
-1.49752037741877
30
0
41
1
10
55.7963480117024
20
-1.52241029830665
30
0
41
1
10
55.7963599889408
20
-1.53500038155843
30
0
41
1
10
55.7954616259943
20
-1.59867440509109
30
0
41
1
10
55.7916997138313
20
-1.65190512502511
30
0
41
1
10
55.7832168685279
20
-1.72150892820835
30
0
41
1
10
55.7813297932418
20
-1.73558452161779
30
0
41
1
10
55.7771688234151
20
-1.76405729109436
30
0
41
1
10
55.7749068941045
20
-1.77836662914643
30
0
41
1
10
55.7676507801297
20
-1.8211760226732
30
0
41
1
10
55.7566850451241
20
-1.87821902441797
30
0
41
1
10
55.7433314655498
20
-1.93521870720411
30
0
41
1
10
55.732463642579
20
-1.97796266149933
30
0
41
1
10
55.7286853573469
20
-1.99225685481812
30
0
41
1
10
55.720928656333
20
-2.02055377500804
30
0
41
1
10
55.7169502767073
20
-2.03456116967976
30
0
41
1
10
55.6965936739155
20
-2.10392211872221
30
0
41
1
10
55.6788420302272
20
-2.157272297541
30
0
41
1
10
55.6504175996106
20
-2.23432843787927
30
0
41
1
10
55.6407747994012
20
-2.2591450361596
30
0
41
1
10
55.6212801674605
20
-2.30698829435252
30
0
41
1
10
55.6114164286258
20
-2.33004613131226
30
0
41
1
10
55.5914897610546
20
-2.37450561777393
30
0
41
1
10
55.5814182737842
20
-2.39592418676278
30
0
41
1
10
55.5611269086055
20
-2.43704669942511
30
0
41
1
10
55.5409417954124
20
-2.47594500082823
30
0
41
1
10
55.5209665795475
20
-2.51064238615001
30
0
41
1
10
55.5060582626488
20
-2.53512991166022
30
0
41
1
10
55.5011009591881
20
-2.54303598033093
30
0
41
1
10
55.4912091152356
20
-2.5583358955179
30
0
41
1
10
55.4862621044238
20
-2.56574781510383
30
0
41
1
10
55.4813504641828
20
-2.57286588415902
30
0
0
SPLINE
5
CD
100
AcDbEntity
8
1
62
256
6
ByLayer
370
18
48
1
60
0
100
AcDbSpline
70
4
71
3
72
8
73
4
40
0
40
0
40
0
40
0
40
1
40
1
40
1
40
1
41
1
10
56.5193206884002
20
-1.66952592239721
30
0
41
1
10
56.682583102032
20
-1.20945346228709
30
0
41
1
10
56.841250933459
20
-0.747729666857765
30
0
41
1
10
56.9952508451423
20
-0.28432817791969
30
0
0
SPLINE
5
CE
100
AcDbEntity
8
1
62
256
6
ByLayer
370
18
48
1
60
0
100
AcDbSpline
70
4
71
3
72
8
73
4
40
0
40
0
40
0
40
0
40
1
40
1
40
1
40
1
41
1
10
56.9952508451369
20
0.28432817793589
30
0
41
1
10
57.0015897521843
20
0.0945754806829768
30
0
41
1
10
57.0015763652154
20
-0.0949762143404769
30
0
41
1
10
56.9952508451373
20
-0.284328177924436
30
0
0
SPLINE
5
CF
100
AcDbEntity
8
1
62
256
6
ByLayer
370
18
48
1
60
0
100
AcDbSpline
70
4
71
3
72
8
73
4
40
0
40
0
40
0
40
0
40
1
40
1
40
1
40
1
41
1
10
56.9952508451369
20
0.28432817793589
30
0
41
1
10
56.9730057548796
20
0.210183569157579
30
0
41
1
10
56.9506496388522
20
0.136073355487611
30
0
41
1
10
56.9281829098254
20
0.0619974090520543
30
0
0
SPLINE
5
D0
100
AcDbEntity
8
1
62
256
6
ByLayer
370
18
48
1
60
0
100
AcDbSpline
70
4
71
3
72
52
73
48
40
0
40
0
40
0
40
0
40
0.0625000000000105
40
0.0625000000000105
40
0.125000000000021
40
0.125000000000021
40
0.156250000000022
40
0.156250000000022
40
0.187500000000024
40
0.187500000000024
40
0.250000000000018
40
0.250000000000018
40
0.312500000000012
40
0.312500000000012
40
0.343750000000014
40
0.343750000000014
40
0.375000000000016
40
0.375000000000016
40
0.43750000000002
40
0.43750000000002
40
0.468750000000022
40
0.468750000000022
40
0.484375000000023
40
0.484375000000023
40
0.500000000000024
40
0.500000000000024
40
0.562500000000028
40
0.562500000000028
40
0.593750000000026
40
0.593750000000026
40
0.625000000000024
40
0.625000000000024
40
0.687500000000019
40
0.687500000000019
40
0.71875000000002
40
0.71875000000002
40
0.750000000000022
40
0.750000000000022
40
0.812500000000018
40
0.812500000000018
40
0.875000000000013
40
0.875000000000013
40
0.906250000000011
40
0.906250000000011
40
0.937500000000009
40
0.937500000000009
40
1
40
1
40
1
40
1
41
1
10
56.9281829098253
20
0.0619974090520827
30
0
41
1
10
56.9157182676125
20
0.0208997411277778
30
0
41
1
10
56.902310989034
20
-0.0197231085485043
30
0
41
1
10
56.8736141483261
20
-0.100005286373801
30
0
41
1
10
56.8583253887366
20
-0.13966505904375
30
0
41
1
10
56.8339250035374
20
-0.198391504676437
30
0
41
1
10
56.825546326549
20
-0.217839429692674
30
0
41
1
10
56.8082789824054
20
-0.256467946991108
30
0
41
1
10
56.7994049227573
20
-0.275609056725926
30
0
41
1
10
56.7724393561945
20
-0.331695731377607
30
0
41
1
10
56.7538745529558
20
-0.36761029352337
30
0
41
1
10
56.7155966064457
20
-0.43639457771738
30
0
41
1
10
56.6958842515453
20
-0.469266298811363
30
0
41
1
10
56.6654102740364
20
-0.516088044893905
30
0
41
1
10
56.6550489548962
20
-0.531348463458329
30
0
41
1
10
56.6343873045238
20
-0.560454894682124
30
0
41
1
10
56.6240632272142
20
-0.574344284575403
30
0
41
1
10
56.5931114371056
20
-0.614044102257481
30
0
41
1
10
56.5725053828659
20
-0.637895854234046
30
0
41
1
10
56.5416184421448
20
-0.669669923932588
30
0
41
1
10
56.5313261906554
20
-0.679591649063724
30
0
41
1
10
56.5158873840791
20
-0.693436493895632
30
0
41
1
10
56.5107402402089
20
-0.697877836013561
30
0
41
1
10
56.5005460184116
20
-0.706326936926985
30
0
41
1
10
56.4954860706018
20
-0.710346542448377
30
0
41
1
10
56.4703652182665
20
-0.729439092104087
30
0
41
1
10
56.4508394477833
20
-0.74150973718983
30
0
41
1
10
56.4222948360367
20
-0.754998766968384
30
0
41
1
10
56.4129042782703
20
-0.758722814550111
30
0
41
1
10
56.3943560064596
20
-0.764626583023983
30
0
41
1
10
56.385210511882
20
-0.76679526037961
30
0
41
1
10
56.3585189282215
20
-0.770946462039177
30
0
41
1
10
56.3415642368299
20
-0.770637644746614
30
0
41
1
10
56.3171915067875
20
-0.765919848512709
30
0
41
1
10
56.3092445941015
20
-0.763635562599887
30
0
41
1
10
56.2936797944592
20
-0.757677082562196
30
0
41
1
10
56.2860443792196
20
-0.753988576198481
30
0
41
1
10
56.2638785906293
20
-0.741054053171666
30
0
41
1
10
56.2499965536182
20
-0.72992861582415
30
0
41
1
10
56.2237050263296
20
-0.703223749116916
30
0
41
1
10
56.2112970608035
20
-0.68764114635556
30
0
41
1
10
56.1936289972277
20
-0.661175181519837
30
0
41
1
10
56.1878975978424
20
-0.651836486949094
30
0
41
1
10
56.1767301758088
20
-0.632153732977599
30
0
41
1
10
56.1712943269561
20
-0.621806393585643
30
0
41
1
10
56.1555131583452
20
-0.589530590875597
30
0
41
1
10
56.1456503787404
20
-0.566302228101137
30
0
41
1
10
56.1363578708646
20
-0.541496938865293
30
0
0
SPLINE
5
D1
100
AcDbEntity
8
1
62
256
6
ByLayer
370
18
48
1
60
0
100
AcDbSpline
70
4
71
3
72
9
73
5
40
0
40
0
40
0
40
0
40
0.5
40
1
40
1
40
1
40
1
41
1
10
56.1363578708646
20
-0.541496938865151
30
0
41
1
10
56.0588929789635
20
-0.334713250876348
30
0
41
1
10
55.8859390019088
20
0.0906644691593783
30
0
41
1
10
55.6770805612929
20
0.5395685718712
30
0
41
1
10
55.5637960528526
20
0.769823046565051
30
0
0
SPLINE
5
D2
100
AcDbEntity
8
1
62
256
6
ByLayer
370
18
48
1
60
0
100
AcDbSpline
70
4
71
3
72
24
73
20
40
0
40
0
40
0
40
0
40
0.249999999999983
40
0.249999999999983
40
0.31249999999998
40
0.31249999999998
40
0.374999999999977
40
0.374999999999977
40
0.499999999999984
40
0.499999999999984
40
0.62499999999999
40
0.62499999999999
40
0.749999999999997
40
0.749999999999997
40
0.875000000000003
40
0.875000000000003
40
0.937500000000001
40
0.937500000000001
40
1
40
1
40
1
40
1
41
1
10
54.6037132007859
20
0.979360304998409
30
0
41
1
10
54.6859792828966
20
0.979729585386337
30
0
41
1
10
54.7681449590657
20
0.975590594655927
30
0
41
1
10
54.8702489990736
20
0.964265741291854
30
0
41
1
10
54.8906408399914
20
0.961734012097736
30
0
41
1
10
54.9313969098837
20
0.956773132117803
30
0
41
1
10
54.9517516129941
20
0.954158539694134
30
0
41
1
10
55.0126936632234
20
0.945283905786766
30
0
41
1
10
55.0531716613713
20
0.938207031960587
30
0
41
1
10
55.1337031434437
20
0.921350372707764
30
0
41
1
10
55.173745540917
20
0.911455363321494
30
0
41
1
10
55.2533373902733
20
0.889394072532497
30
0
41
1
10
55.2929005074246
20
0.877356054842181
30
0
41
1
10
55.3714427105372
20
0.850926020117271
30
0
41
1
10
55.4104249571414
20
0.836572954752626
30
0
41
1
10
55.4684025543008
20
0.813375912176923
30
0
41
1
10
55.4876424369918
20
0.805333476089459
30
0
41
1
10
55.5258971713252
20
0.788311817778748
30
0
41
1
10
55.5449102474491
20
0.779320400893369
30
0
41
1
10
55.5637960528526
20
0.769823046565051
30
0
0
SPLINE
5
D3
100
AcDbEntity
8
1
62
256
6
ByLayer
370
18
48
1
60
0
100
AcDbSpline
70
4
71
3
72
21
73
17
40
0
40
0
40
0
40
0
40
0.500000000000039
40
0.500000000000039
40
0.750000000000039
40
0.750000000000039
40
0.875000000000019
40
0.93750000000001
40
0.93750000000001
40
0.968750000000005
40
0.984374999999982
40
0.992187499999971
40
0.992187499999971
40
0.996093749999985
40
0.996093749999985
40
1
40
1
40
1
40
1
41
1
10
55.127231120762
20
-5.14996167731312
30
0
41
1
10
55.1458223425878
20
-5.10740066451538
30
0
41
1
10
55.1647671236165
20
-5.0648458364187
30
0
41
1
10
55.1937073508678
20
-5.00101574715137
30
0
41
1
10
55.2034413876709
20
-4.97973878567487
30
0
41
1
10
55.2181776868479
20
-4.94780087535153
30
0
41
1
10
55.2255783892045
20
-4.93183122462563
30
0
41
1
10
55.2330187064132
20
-4.91589746411111
30
0
41
1
10
55.2367446834969
20
-4.90793974063655
30
0
41
1
10
55.2386088196936
20
-4.90396442822023
30
0
41
1
10
55.2407920193239
20
-4.89930673924087
30
0
41
1
10
55.2417301210593
20
-4.89730361272208
30
0
41
1
10
55.2421996287603
20
-4.89630068019574
30
0
41
1
10
55.2423567540078
20
-4.89596390282978
30
0
41
1
10
55.2426686083991
20
-4.89530033592638
30
0
41
1
10
55.2428349691249
20
-4.89494142220511
30
0
41
1
10
55.2429430927627
20
-4.89477262608898
30
0
0
SPLINE
5
D4
100
AcDbEntity
8
1
62
256
6
ByLayer
370
18
48
1
60
0
100
AcDbSpline
70
4
71
3
72
32
73
28
40
0
40
0
40
0
40
0
40
0.0624999999999937
40
0.0624999999999937
40
0.0937499999999906
40
0.0937499999999906
40
0.124999999999987
40
0.124999999999987
40
0.24999999999998
40
0.24999999999998
40
0.374999999999973
40
0.374999999999973
40
0.437499999999969
40
0.437499999999969
40
0.46874999999997
40
0.46874999999997
40
0.484374999999971
40
0.484374999999971
40
0.499999999999973
40
0.499999999999973
40
0.62499999999998
40
0.62499999999998
40
0.749999999999987
40
0.749999999999987
40
0.874999999999993
40
0.874999999999993
40
1
40
1
40
1
40
1
41
1
10
56.5193206884002
20
-1.66952592239719
30
0
41
1
10
56.4858913170736
20
-1.72717281803125
30
0
41
1
10
56.4529749466796
20
-1.78618299199817
30
0
41
1
10
56.4043283217688
20
-1.8768197750492
30
0
41
1
10
56.388233913633
20
-1.90738526895737
30
0
41
1
10
56.3562788289073
20
-1.96923668037172
30
0
41
1
10
56.3403911662408
20
-2.00057822935941
30
0
41
1
10
56.2620614452869
20
-2.15800515037185
30
0
41
1
10
56.2026515571278
20
-2.28678022706995
30
0
41
1
10
56.0890521204684
20
-2.54947296438911
30
0
41
1
10
56.0348689552751
20
-2.68339792942632
30
0
41
1
10
55.9564723245924
20
-2.88775406047859
30
0
41
1
10
55.9308184305708
20
-2.95645016809647
30
0
41
1
10
55.8929147679222
20
-3.0603077087892
30
0
41
1
10
55.8803626902883
20
-3.09510105280265
30
0
41
1
10
55.8617289353368
20
-3.14729204117745
30
0
41
1
10
55.8555492329477
20
-3.16469209338069
30
0
41
1
10
55.8432458634625
20
-3.19949676188051
30
0
41
1
10
55.8371293204518
20
-3.21690212834531
30
0
41
1
10
55.7820656505085
20
-3.37353927270189
30
0
41
1
10
55.7332418561464
20
-3.51271232159829
30
0
41
1
10
55.6356823842835
20
-3.79064218424673
30
0
41
1
10
55.5869411075628
20
-3.92942236210558
30
0
41
1
10
55.4892691658059
20
-4.20647660381042
30
0
41
1
10
55.4403231818402
20
-4.34479561458258
30
0
41
1
10
55.3420153329136
20
-4.62054355920961
30
0
41
1
10
55.2926658210289
20
-4.75793920224655
30
0
41
1
10
55.2429430927544
20
-4.89477262609907
30
0
0
SPLINE
5
D5
100
AcDbEntity
8
1
62
256
6
ByLayer
370
18
48
1
60
0
100
AcDbSpline
70
4
71
3
72
60
73
56
40
0
40
0
40
0
40
0
40
0.0202710467533309
40
0.0202710467533309
40
0.0669248064317461
40
0.0669248064317461
40
0.113578566110161
40
0.113578566110161
40
0.136905445949369
40
0.136905445949369
40
0.160232325788577
40
0.160232325788577
40
0.206886085466992
40
0.206886085466992
40
0.253539845145407
40
0.253539845145407
40
0.300193604823823
40
0.300193604823823
40
0.323520484663029
40
0.323520484663029
40
0.346847364502236
40
0.346847364502236
40
0.39350112418065
40
0.39350112418065
40
0.440154883859064
40
0.440154883859064
40
0.486808643537477
40
0.486808643537477
40
0.510135523376684
40
0.510135523376684
40
0.53346240321589
40
0.53346240321589
40
0.580116162894302
40
0.580116162894302
40
0.626769922572714
40
0.626769922572714
40
0.673423682251126
40
0.673423682251126
40
0.696750562090332
40
0.696750562090332
40
0.720077441929538
40
0.720077441929538
40
0.766731201607949
40
0.766731201607949
40
0.813384961286359
40
0.813384961286359
40
0.836711841125564
40
0.836711841125564
40
0.860038720964769
40
0.860038720964769
40
0.906692480643179
40
0.906692480643179
40
0.953346240321589
40
0.953346240321589
40
1
40
1
40
1
40
1
41
1
10
44.4635722591908
20
-2.69211385950044
30
0
41
1
10
44.3159463852851
20
-2.63397764982116
30
0
41
1
10
44.1683707085796
20
-2.57506158229128
30
0
41
1
10
43.6812252163322
20
-2.37813601403744
30
0
41
1
10
43.3417692057579
20
-2.23699113987263
30
0
41
1
10
42.6627167039316
20
-1.94752937190481
30
0
41
1
10
42.3231088639204
20
-1.79921133631527
30
0
41
1
10
41.8129829545121
20
-1.57257035266394
30
0
41
1
10
41.6428265686091
20
-1.49631939575244
30
0
41
1
10
41.3022217709467
20
-1.34254613300101
30
0
41
1
10
41.1319721386202
20
-1.26511577484962
30
0
41
1
10
40.6217192136313
20
-1.03157166677656
30
0
41
1
10
40.2820442626969
20
-0.874100395517189
30
0
41
1
10
39.6028929038955
20
-0.557266111585449
30
0
41
1
10
39.263431447338
20
-0.397876010794846
30
0
41
1
10
38.5842925649293
20
-0.0780959960086136
30
0
41
1
10
38.2446295715173
20
0.0823267413575195
30
0
41
1
10
37.7344475982686
20
0.322600454090292
30
0
41
1
10
37.5642705634638
20
0.402628144011089
30
0
41
1
10
37.2236219604757
20
0.562425951657957
30
0
41
1
10
37.0533758424582
20
0.642089718886581
30
0
41
1
10
36.5431026005197
20
0.880038528637328
30
0
41
1
10
36.2034351230776
20
1.03742863928358
30
0
41
1
10
35.5243421639856
20
1.34809156129447
30
0
41
1
10
35.1849143575099
20
1.50135400942943
30
0
41
1
10
34.5057807024622
20
1.80276493907266
30
0
41
1
10
34.1661052917551
20
1.95097617165547
30
0
41
1
10
33.6559408837187
20
2.16852895000548
30
0
41
1
10
33.4857713423692
20
2.24023956621647
30
0
41
1
10
33.145125383035
20
2.38188681518636
30
0
41
1
10
32.9749027729683
20
2.45172360948806
30
0
41
1
10
32.464656388989
20
2.65801589447358
30
0
41
1
10
32.1249988192495
20
2.7913284694053
30
0
41
1
10
31.4460046764623
20
3.04849413986065
30
0
41
1
10
31.1066255261152
20
3.17224878821136
30
0
41
1
10
30.4275553935842
20
3.40933749085139
30
0
41
1
10
30.0878885077128
20
3.52272439926924
30
0
41
1
10
29.5777691860994
20
3.68438660083729
30
0
41
1
10
29.407621919254
20
3.73686365280102
30
0
41
1
10
29.0670159481535
20
3.83883457423474
30
0
41
1
10
28.896750429379
20
3.88827357813358
30
0
41
1
10
28.3863076412539
20
4.03175072820224
30
0
41
1
10
28.0463480360098
20
4.12099155090999
30
0
41
1
10
27.3666390040961
20
4.28600378849379
30
0
41
1
10
27.0268206774317
20
4.36164479644435
30
0
41
1
10
26.5166687228635
20
4.46438499089894
30
0
41
1
10
26.3465496184754
20
4.49685331404962
30
0
41
1
10
26.0061161621591
20
4.55820956356771
30
0
41
1
10
25.8357734586735
20
4.58710514540675
30
0
41
1
10
25.3249120770814
20
4.66823969547008
30
0
41
1
10
24.9843166430558
20
4.71494696759268
30
0
41
1
10
24.3030115816992
20
4.79298167452012
30
0
41
1
10
23.9623743237489
20
4.82436074186961
30
0
41
1
10
23.2811193276556
20
4.87152199664385
30
0
41
1
10
22.940631043011
20
4.8872284135625
30
0
41
1
10
22.5999999999991
20
4.89496516838736
30
0
0
SPLINE
5
D6
100
AcDbEntity
8
1
62
256
6
ByLayer
370
18
48
1
60
0
100
AcDbSpline
70
4
71
3
72
8
73
4
40
0
40
0
40
0
40
0
40
1
40
1
40
1
40
1
41
1
10
22.6
20
5.1194141118055
30
0
41
1
10
22.6
20
5.04514395300643
30
0
41
1
10
22.6
20
4.97032445141468
30
0
41
1
10
22.6
20
4.89496516837846
30
0
0
SPLINE
5
D7
100
AcDbEntity
8
1
62
256
6
ByLayer
370
18
48
1
60
0
100
AcDbSpline
70
4
71
3
72
178
73
174
40
0
40
0
40
0
40
0
40
0.0011653147959268
40
0.0011653147959268
40
0.0104137841033711
40
0.0104137841033711
40
0.0196622534108155
40
0.0196622534108155
40
0.0381591920257041
40
0.0381591920257041
40
0.0566561306405928
40
0.0566561306405928
40
0.0659045999480376
40
0.0659045999480376
40
0.0751530692554824
40
0.0751530692554824
40
0.0936500078703711
40
0.0936500078703711
40
0.11214694648526
40
0.11214694648526
40
0.130643885100148
40
0.130643885100148
40
0.149140823715037
40
0.149140823715037
40
0.158389293022481
40
0.158389293022481
40
0.167637762329926
40
0.167637762329926
40
0.17688623163737
40
0.17688623163737
40
0.186134700944814
40
0.186134700944814
40
0.204631639559703
40
0.204631639559703
40
0.223128578174592
40
0.223128578174592
40
0.232377047482036
40
0.232377047482036
40
0.24162551678948
40
0.24162551678948
40
0.250873986096925
40
0.250873986096925
40
0.260122455404369
40
0.260122455404369
40
0.278619394019258
40
0.278619394019258
40
0.287867863326702
40
0.287867863326702
40
0.297116332634146
40
0.297116332634146
40
0.315613271249035
40
0.315613271249035
40
0.324861740556479
40
0.324861740556479
40
0.334110209863924
40
0.334110209863924
40
0.352607148478812
40
0.352607148478812
40
0.361855617786256
40
0.361855617786256
40
0.3711040870937
40
0.3711040870937
40
0.389601025708588
40
0.389601025708588
40
0.398849495016032
40
0.398849495016032
40
0.408097964323476
40
0.408097964323476
40
0.426594902938365
40
0.426594902938365
40
0.435843372245809
40
0.435843372245809
40
0.445091841553253
40
0.445091841553253
40
0.454340310860698
40
0.454340310860698
40
0.463588780168142
40
0.463588780168142
40
0.472837249475586
40
0.472837249475586
40
0.482085718783031
40
0.482085718783031
40
0.50058265739792
40
0.50058265739792
40
0.505206892051643
40
0.505206892051643
40
0.509831126705366
40
0.509831126705366
40
0.519079596012811
40
0.519079596012811
40
0.537576534627703
40
0.537576534627703
40
0.556073473242594
40
0.556073473242594
40
0.56532194255004
40
0.56532194255004
40
0.574570411857485
40
0.574570411857485
40
0.583818881164931
40
0.583818881164931
40
0.593067350472377
40
0.593067350472377
40
0.602315819779822
40
0.602315819779822
40
0.611564289087268
40
0.611564289087268
40
0.61618852374099
40
0.61618852374099
40
0.620812758394713
40
0.620812758394713
40
0.630061227702158
40
0.630061227702158
40
0.648558166317051
40
0.648558166317051
40
0.667055104931943
40
0.667055104931943
40
0.676303574239389
40
0.676303574239389
40
0.685552043546835
40
0.685552043546835
40
0.704048982161728
40
0.704048982161728
40
0.722545920776621
40
0.722545920776621
40
0.727170155430344
40
0.727170155430344
40
0.731794390084067
40
0.731794390084067
40
0.741042859391514
40
0.741042859391514
40
0.759539798006407
40
0.759539798006407
40
0.768788267313853
40
0.768788267313853
40
0.778036736621299
40
0.778036736621299
40
0.787285205928745
40
0.787285205928745
40
0.796533675236191
40
0.796533675236191
40
0.815030613851083
40
0.815030613851083
40
0.824279083158529
40
0.824279083158529
40
0.833527552465975
40
0.833527552465975
40
0.84277602177342
40
0.84277602177342
40
0.852024491080866
40
0.852024491080866
40
0.870521429695758
40
0.870521429695758
40
0.879769899003204
40
0.879769899003204
40
0.88901836831065
40
0.88901836831065
40
0.907515306925541
40
0.907515306925541
40
0.926012245540433
40
0.926012245540433
40
0.935260714847879
40
0.935260714847879
40
0.944509184155325
40
0.944509184155325
40
0.953757653462771
40
0.953757653462771
40
0.963006122770216
40
0.963006122770216
40
0.972254592077662
40
0.972254592077662
40
0.981503061385108
40
0.981503061385108
40
1
40
1
40
1
40
1
41
1
10
47.4141057438104
20
-3.80766946024701
30
0
41
1
10
47.3989336602785
20
-3.81211434015728
30
0
41
1
10
47.3837622024353
20
-3.8165469996321
30
0
41
1
10
47.2481884560909
20
-3.85605113776754
30
0
41
1
10
47.1278182576801
20
-3.89036569989858
30
0
41
1
10
46.8870655067446
20
-3.95750178270069
30
0
41
1
10
46.7666805696048
20
-3.99032571500899
30
0
41
1
10
46.4054865502458
20
-4.08649245785068
30
0
41
1
10
46.1646692561758
20
-4.14756084002383
30
0
41
1
10
45.6826863897223
20
-4.26295957529456
30
0
41
1
10
45.4414838877197
20
-4.31726249463762
30
0
41
1
10
45.0793001527311
20
-4.39334629227557
30
0
41
1
10
44.9584886410698
20
-4.41778794065345
30
0
41
1
10
44.7168390356661
20
-4.46488046764338
30
0
41
1
10
44.5962001161458
20
-4.48757913750677
30
0
41
1
10
44.2344769124365
20
-4.55252181073311
30
0
41
1
10
43.9935574340086
20
-4.59179618711843
30
0
41
1
10
43.5115814284035
20
-4.66349367078354
30
0
41
1
10
43.2705396195038
20
-4.69589383172323
30
0
41
1
10
42.7887127100167
20
-4.75317280944398
30
0
41
1
10
42.5478841913165
20
-4.77799343170875
30
0
41
1
10
42.0661051222584
20
-4.81987204692589
30
0
41
1
10
41.8251889214131
20
-4.83701116813398
30
0
41
1
10
41.4635401081536
20
-4.85619688203872
30
0
41
1
10
41.3429417280144
20
-4.86147555901528
30
0
41
1
10
41.1016114958704
20
-4.86986061827508
30
0
41
1
10
40.9808722070175
20
-4.87302035596318
30
0
41
1
10
40.7391919467993
20
-4.87762802264427
30
0
41
1
10
40.618347787787
20
-4.87904574991535
30
0
41
1
10
40.3769172220742
20
-4.88013675010711
30
0
41
1
10
40.2563516535196
20
-4.87979651906892
30
0
41
1
10
39.8945894261967
20
-4.87599598140281
30
0
41
1
10
39.6534842630141
20
-4.86976165038794
30
0
41
1
10
39.1713051788858
20
-4.84943607789839
30
0
41
1
10
38.9302341394053
20
-4.83538471063156
30
0
41
1
10
38.5688150018798
20
-4.80791000434198
30
0
41
1
10
38.448365584453
20
-4.79767223129508
30
0
41
1
10
38.2074818698176
20
-4.77489788216377
30
0
41
1
10
38.0870550328453
20
-4.76230648812168
30
0
41
1
10
37.8461540811016
20
-4.73501829146292
30
0
41
1
10
37.7256695745632
20
-4.72041402748218
30
0
41
1
10
37.484542986511
20
-4.6897199493342
30
0
41
1
10
37.3639074638949
20
-4.67356927861934
30
0
41
1
10
37.0017207499285
20
-4.62259813077301
30
0
41
1
10
36.7597816808646
20
-4.58524702011218
30
0
41
1
10
36.3973601225507
20
-4.5240494655753
30
0
41
1
10
36.276563735537
20
-4.50281368955572
30
0
41
1
10
36.0353255645735
20
-4.45833491116645
30
0
41
1
10
35.9148247406239
20
-4.43513597739542
30
0
41
1
10
35.5532959278693
20
-4.36293272549602
30
0
41
1
10
35.3123651353293
20
-4.31123059795723
30
0
41
1
10
34.9510029958176
20
-4.2279341158129
30
0
41
1
10
34.8305625536669
20
-4.19917092780577
30
0
41
1
10
34.5896786143846
20
-4.13990893551704
30
0
41
1
10
34.4692304946266
20
-4.10946708350187
30
0
41
1
10
34.1078201230434
20
-4.01585587534416
30
0
41
1
10
33.8668083704505
20
-3.95016632694245
30
0
41
1
10
33.5050371301617
20
-3.84665283556274
30
0
41
1
10
33.3844090827327
20
-3.81131923896805
30
0
41
1
10
33.1430231644878
20
-3.73907036214842
30
0
41
1
10
33.0222289999904
20
-3.70216089072915
30
0
41
1
10
32.6597477000075
20
-3.58953561807076
30
0
41
1
10
32.4182041906028
20
-3.51202249828208
30
0
41
1
10
32.05603534057
20
-3.39209542778693
30
0
41
1
10
31.9353308923666
20
-3.35151128364501
30
0
41
1
10
31.6942585442925
20
-3.26859522012566
30
0
41
1
10
31.5737860892876
20
-3.22642451360662
30
0
41
1
10
31.212339737262
20
-3.09807435597949
30
0
41
1
10
30.9714061953065
20
-3.00996431617608
30
0
41
1
10
30.6099269141989
20
-2.87394682125446
30
0
41
1
10
30.4894320973404
20
-2.82792142271575
30
0
41
1
10
30.2484517669316
20
-2.7344778799978
30
0
41
1
10
30.1279665447089
20
-2.68707458559692
30
0
41
1
10
29.8869271473073
20
-2.59119656852792
30
0
41
1
10
29.7663686696723
20
-2.54273858616566
30
0
41
1
10
29.5251086754874
20
-2.44505498142823
30
0
41
1
10
29.4044131859489
20
-2.39580213653375
30
0
41
1
10
29.1628923010664
20
-2.29641848299371
30
0
41
1
10
29.0420279823761
20
-2.24626426502135
30
0
41
1
10
28.8003448927663
20
-2.14518020211111
30
0
41
1
10
28.6795540542459
20
-2.09426878469935
30
0
41
1
10
28.3172874688268
20
-1.94048697910563
30
0
41
1
10
28.0759372972485
20
-1.83653016567445
30
0
41
1
10
27.7744365865499
20
-1.70472804532903
30
0
41
1
10
27.7141420919074
20
-1.67828250702971
30
0
41
1
10
27.5936236907975
20
-1.6250982057748
30
0
41
1
10
27.5334101128501
20
-1.5983382112868
30
0
41
1
10
27.3528336197428
20
-1.51769316544923
30
0
41
1
10
27.2324937924695
20
-1.46351825721814
30
0
41
1
10
26.8714354670233
20
-1.30017141338081
30
0
41
1
10
26.6306621912835
20
-1.19025761284257
30
0
41
1
10
26.1485448993589
20
-0.96977564852051
30
0
41
1
10
25.9073079355224
20
-0.858927758159638
30
0
41
1
10
25.5452558999028
20
-0.691448428176273
30
0
41
1
10
25.4245271916767
20
-0.635447070596484
30
0
41
1
10
25.1829544936829
20
-0.5231304619291
30
0
41
1
10
25.0620629516341
20
-0.466789078929878
30
0
41
1
10
24.8204375728563
20
-0.353930237624695
30
0
41
1
10
24.6997108611405
20
-0.297413294791482
30
0
41
1
10
24.4583754916882
20
-0.184325700267067
30
0
41
1
10
24.3377600207563
20
-0.127768175437041
30
0
41
1
10
24.09664163915
20
-0.0146326376387265
30
0
41
1
10
23.9761568767693
20
0.0419775057929428
30
0
41
1
10
23.7352177211367
20
0.155068248309874
30
0
41
1
10
23.6147448519809
20
0.211517196696548
30
0
41
1
10
23.4340068280071
20
0.296007483223803
30
0
41
1
10
23.3737625126265
20
0.32415335763568
30
0
41
1
10
23.2533433459196
20
0.380549542857693
30
0
41
1
10
23.1931653513536
20
0.408793045530103
30
0
41
1
10
23.012622241269
20
0.493434893612744
30
0
41
1
10
22.8922415682472
20
0.549730313830054
30
0
41
1
10
22.5310176416582
20
0.718154296115102
30
0
41
1
10
22.2900672372746
20
0.829772837544738
30
0
41
1
10
21.8076754673247
20
1.05126095063736
30
0
41
1
10
21.5663153085469
20
1.16129918219539
30
0
41
1
10
21.2040198620989
20
1.32522374688736
30
0
41
1
10
21.0831545232106
20
1.3796754592758
30
0
41
1
10
20.8416043862984
20
1.4879362516877
30
0
41
1
10
20.72090494991
20
1.54175551084313
30
0
41
1
10
20.3589877596864
20
1.70221703016062
30
0
41
1
10
20.117925006103
20
1.80782927258576
30
0
41
1
10
19.6358915138946
20
2.01545511986257
30
0
41
1
10
19.3949371030392
20
2.11749045541677
30
0
41
1
10
19.0938501857937
20
2.24273405918297
30
0
41
1
10
19.0336507809707
20
2.26770038457278
30
0
41
1
10
18.9133051907746
20
2.31752944198874
30
0
41
1
10
18.8531466922532
20
2.34237037693467
30
0
41
1
10
18.6726095662456
20
2.41649848540047
30
0
41
1
10
18.5521931263284
20
2.46542594659988
30
0
41
1
10
18.190771242094
20
2.61066547295013
30
0
41
1
10
17.9495815412904
20
2.70540522939171
30
0
41
1
10
17.5874375916496
20
2.84416361326797
30
0
41
1
10
17.466671112469
20
2.88987425634772
30
0
41
1
10
17.2250588923077
20
2.98021987042313
30
0
41
1
10
17.1041640625344
20
3.02486245421554
30
0
41
1
10
16.8626266636774
20
3.11281144834098
30
0
41
1
10
16.7419473848587
20
3.15613155507151
30
0
41
1
10
16.500773144949
20
3.24135544906432
30
0
41
1
10
16.3802874956147
20
3.2832479732117
30
0
41
1
10
16.0190581921741
20
3.40672074758771
30
0
41
1
10
15.7784808853141
20
3.48607439547442
30
0
41
1
10
15.4173897598044
20
3.60088487621115
30
0
41
1
10
15.2970060873918
20
3.6384518292846
30
0
41
1
10
15.0562022325531
20
3.71215265837867
30
0
41
1
10
14.9357611501705
20
3.74825864633189
30
0
41
1
10
14.6949467325458
20
3.81914714352237
30
0
41
1
10
14.574668046589
20
3.85405120916545
30
0
41
1
10
14.3340012529718
20
3.92221126145498
30
0
41
1
10
14.2136340337955
20
3.95549763881573
30
0
41
1
10
13.8524039550237
20
4.05285528610699
30
0
41
1
10
13.6113931416651
20
4.11440068730965
30
0
41
1
10
13.2495427164956
20
4.20129821945213
30
0
41
1
10
13.1288823600514
20
4.22935888755882
30
0
41
1
10
12.8874582442235
20
4.28375486127672
30
0
41
1
10
12.7666413557292
20
4.31009996124106
30
0
41
1
10
12.4044536359989
20
4.38655190108452
30
0
41
1
10
12.1632021468999
20
4.43420561881828
30
0
41
1
10
11.681040559095
20
4.52261729913852
30
0
41
1
10
11.4401018657135
20
4.56329475904209
30
0
41
1
10
11.0787217991646
20
4.61861405940982
30
0
41
1
10
10.9582729936863
20
4.63611075025392
30
0
41
1
10
10.7173902496975
20
4.66917248538667
30
0
41
1
10
10.5969256408846
20
4.68472096902909
30
0
41
1
10
10.3561777771168
20
4.71393513632106
30
0
41
1
10
10.235942535277
20
4.72762077363026
30
0
41
1
10
9.99539449227774
20
4.75289982009724
30
0
41
1
10
9.87511466345308
20
4.76450048741808
30
0
41
1
10
9.6344587714606
20
4.78571986996275
30
0
41
1
10
9.51408208901518
20
4.79534175862543
30
0
41
1
10
9.27314851384605
20
4.81272667721908
30
0
41
1
10
9.15258847780481
20
4.82050398662417
30
0
41
1
10
8.79063725086002
20
4.84110750020378
30
0
41
1
10
8.54898636364445
20
4.85115220701366
30
0
41
1
10
8.30701948982136
20
4.85720834151704
30
0
0
SPLINE
5
D8
100
AcDbEntity
8
1
62
256
6
ByLayer
370
18
48
1
60
0
100
AcDbSpline
70
4
71
3
72
8
73
4
40
0
40
0
40
0
40
0
40
1
40
1
40
1
40
1
41
1
10
8.30674132878136
20
4.8572153018481
30
0
41
1
10
8.18837112716341
20
4.86019002408037
30
0
41
1
10
8.07041930147739
20
4.86224279128064
30
0
41
1
10
7.95289668321055
20
4.86331560552335
30
0
0
SPLINE
5
D9
100
AcDbEntity
8
1
62
256
6
ByLayer
370
13
48
1
60
0
100
AcDbSpline
70
4
71
3
72
39
73
35
40
0
40
0
40
0
40
0
40
0.0053533066409321
40
0.0053533066409321
40
0.0957757333099378
40
0.186198159978943
40
0.186198159978943
40
0.231409373313446
40
0.231409373313446
40
0.254014979980698
40
0.254014979980698
40
0.276620586647949
40
0.276620586647949
40
0.367043013316956
40
0.367043013316956
40
0.412254226651459
40
0.412254226651459
40
0.457465439985962
40
0.502676653320464
40
0.525282259987716
40
0.525282259987716
40
0.547887866654968
40
0.547887866654968
40
0.638310293323974
40
0.638310293323974
40
0.72873271999298
40
0.72873271999298
40
0.773943933327483
40
0.796549539994735
40
0.796549539994735
40
0.819155146661986
40
0.819155146661986
40
0.909577573330993
40
1
40
1
40
1
40
1
41
1
10
3.75077683142894
20
4.86112310146387
30
0
41
1
10
3.75077588182069
20
4.86111876499365
30
0
41
1
10
3.7507749318292
20
4.86108199840916
30
0
41
1
10
3.75075792950352
20
4.85984549945695
30
0
41
1
10
3.75072564449269
20
4.83910324354466
30
0
41
1
10
3.75069362142875
20
4.78233640189586
30
0
41
1
10
3.75066982138634
20
4.72608508927198
30
0
41
1
10
3.75066192318064
20
4.70505061311945
30
0
41
1
10
3.75065013321915
20
4.67000711002123
30
0
41
1
10
3.75064620877987
20
4.65773049786458
30
0
41
1
10
3.75063839857307
20
4.632063684721
30
0
41
1
10
3.75063451599038
20
4.61868540806978
30
0
41
1
10
3.75061521253235
20
4.54908360147311
30
0
41
1
10
3.75060012554309
20
4.48475209268454
30
0
41
1
10
3.75057790245683
20
4.37526543575899
30
0
41
1
10
3.75057055399799
20
4.33655213463075
30
0
41
1
10
3.75055603745841
20
4.25520801888595
30
0
41
1
10
3.75054168353165
20
4.1698693214052
30
0
41
1
10
3.75052403201136
20
4.05325557452983
30
0
41
1
10
3.75051351098614
20
3.97879599137718
30
0
41
1
10
3.75050650470581
20
3.92815211277255
30
0
41
1
10
3.75050301007948
20
3.90236058559799
30
0
41
1
10
3.75048561060441
20
3.77145867170557
30
0
41
1
10
3.75047187950435
20
3.66017518632296
30
0
41
1
10
3.75044421087114
20
3.42487104994433
30
0
41
1
10
3.75043027438895
20
3.30084946246399
30
0
41
1
10
3.75040871639527
20
3.10522325402266
30
0
41
1
10
3.75039777296882
20
3.00500671079527
30
0
41
1
10
3.75038647691841
20
2.90113093112438
30
0
41
1
10
3.75037885504111
20
2.83105781414554
30
0
41
1
10
3.75037499519891
20
2.79557928759471
30
0
41
1
10
3.75035547342037
20
2.61645556279146
30
0
41
1
10
3.75032304436422
20
2.32089079460187
30
0
41
1
10
3.75028672763483
20
2.00768674131348
30
0
41
1
10
3.75026719276127
20
1.84659526640357
30
0
0
SPLINE
5
DA
100
AcDbEntity
8
1
62
256
6
ByLayer
370
18
48
1
60
0
100
AcDbSpline
70
4
71
3
72
65
73
61
40
0
40
0
40
0
40
0
40
0.051945354919482
40
0.051945354919482
40
0.0779180323792242
40
0.0779180323792242
40
0.0909043711090965
40
0.0909043711090965
40
0.103890709838969
40
0.129863387298716
40
0.129863387298716
40
0.155836064758463
40
0.155836064758463
40
0.20778141967796
40
0.20778141967796
40
0.259726774597456
40
0.259726774597456
40
0.285699452057206
40
0.285699452057206
40
0.311672129516955
40
0.311672129516955
40
0.363617484436457
40
0.363617484436457
40
0.389590161896209
40
0.389590161896209
40
0.415562839355961
40
0.415562839355961
40
0.441535516815713
40
0.441535516815713
40
0.467508194275465
40
0.467508194275465
40
0.493480871735217
40
0.493480871735217
40
0.519453549194969
40
0.519453549194969
40
0.545426226654721
40
0.545426226654721
40
0.571398904114473
40
0.571398904114473
40
0.623344259033977
40
0.623344259033977
40
0.675289613953481
40
0.675289613953481
40
0.701262291413234
40
0.701262291413234
40
0.727234968872987
40
0.727234968872987
40
0.779180323792491
40
0.779180323792491
40
0.831125678711995
40
0.831125678711995
40
0.883071033631499
40
0.883071033631499
40
0.935016388551003
40
0.935016388551003
40
0.960989066010755
40
0.960989066010755
40
0.986961743470506
40
0.986961743470506
40
1
40
1
40
1
40
1
41
1
10
54.6037132007859
20
0.979360304998409
30
0
41
1
10
54.3628461685074
20
1.09080976456411
30
0
41
1
10
54.1218369917261
20
1.20115205928062
30
0
41
1
10
53.7600288962249
20
1.36484493048232
30
0
41
1
10
53.6393766981428
20
1.41910496539566
30
0
41
1
10
53.4583311400888
20
1.50005258496427
30
0
41
1
10
53.3979776290199
20
1.52697395490694
30
0
41
1
10
53.2773201343726
20
1.58081057091047
30
0
41
1
10
53.0963901324358
20
1.6615196061536
30
0
41
1
10
52.9153081558673
20
1.74144715222582
30
0
41
1
10
52.6737114312451
20
1.84727550864284
30
0
41
1
10
52.5528639717204
20
1.89980620002064
30
0
41
1
10
52.1905671095023
20
2.05598172731109
30
0
41
1
10
51.9491763263581
20
2.15822681473776
30
0
41
1
10
51.466876568235
20
2.35921993930538
30
0
41
1
10
51.225961779277
20
2.45794633599149
30
0
41
1
10
50.8647412167199
20
2.60282335453758
30
0
41
1
10
50.744364327442
20
2.65058622954373
30
0
41
1
10
50.503674482662
20
2.74495332801027
30
0
41
1
10
50.3833601339014
20
2.79154806002421
30
0
41
1
10
50.0222524124641
20
2.92959081152307
30
0
41
1
10
49.7812481506285
20
3.0193109267548
30
0
41
1
10
49.4193490889813
20
3.15026486475344
30
0
41
1
10
49.2986407554822
20
3.19329377361061
30
0
41
1
10
49.0571441613367
20
3.27818516652587
30
0
41
1
10
48.9364637233207
20
3.32021995248999
30
0
41
1
10
48.694951793144
20
3.40295738192225
30
0
41
1
10
48.5741736449561
20
3.44362684698032
30
0
41
1
10
48.3327901648574
20
3.52342012253879
30
0
41
1
10
48.2121513987106
20
3.56255389775626
30
0
41
1
10
47.9709686870478
20
3.63919845004884
30
0
41
1
10
47.850421089407
20
3.67670179485242
30
0
41
1
10
47.6094345698486
20
3.75003828476682
30
0
41
1
10
47.4889942226624
20
3.78588398134565
30
0
41
1
10
47.2481884560909
20
3.85605113776754
30
0
41
1
10
47.1278182576801
20
3.89036569989861
30
0
41
1
10
46.8870655067445
20
3.95750178270069
30
0
41
1
10
46.7666805696048
20
3.99032571500902
30
0
41
1
10
46.4054865502458
20
4.08649245785068
30
0
41
1
10
46.1646692561758
20
4.14756084002386
30
0
41
1
10
45.6826863897223
20
4.26295957529459
30
0
41
1
10
45.4414838877197
20
4.31726249463762
30
0
41
1
10
45.0793001527311
20
4.39334629227557
30
0
41
1
10
44.9584886410698
20
4.41778794065348
30
0
41
1
10
44.7168390356661
20
4.46488046764338
30
0
41
1
10
44.5962001161458
20
4.48757913750677
30
0
41
1
10
44.2344769124364
20
4.55252181073314
30
0
41
1
10
43.9935574340086
20
4.59179618711843
30
0
41
1
10
43.5115814284034
20
4.66349367078357
30
0
41
1
10
43.2705396195038
20
4.69589383172325
30
0
41
1
10
42.7887127100168
20
4.75317280944398
30
0
41
1
10
42.5478841913164
20
4.77799343170878
30
0
41
1
10
42.0661051222583
20
4.81987204692589
30
0
41
1
10
41.825188921413
20
4.83701116813398
30
0
41
1
10
41.4635401081535
20
4.85619688203872
30
0
41
1
10
41.3429417280144
20
4.86147555901528
30
0
41
1
10
41.1016114958703
20
4.86986061827508
30
0
41
1
10
40.9808722070174
20
4.87302035596318
30
0
41
1
10
40.799370459797
20
4.87648071119645
30
0
41
1
10
40.7387078273902
20
4.87741393175912
30
0
41
1
10
40.6780609928699
20
4.87812560674411
30
0
0
SPLINE
5
DB
100
AcDbEntity
8
1
62
256
6
ByLayer
370
18
48
1
60
0
100
AcDbSpline
70
4
71
3
72
34
73
30
40
0
40
0
40
0
40
0
40
0.0072413269805969
40
0.0072413269805969
40
0.065638895981736
40
0.065638895981736
40
0.182434033984017
40
0.182434033984017
40
0.240831602985158
40
0.240831602985158
40
0.299229171986299
40
0.299229171986299
40
0.41602430998858
40
0.41602430998858
40
0.532819447990862
40
0.532819447990862
40
0.591217016992004
40
0.591217016992004
40
0.649614585993146
40
0.649614585993146
40
0.708012154994288
40
0.708012154994288
40
0.766409723995431
40
0.766409723995431
40
0.824807292996573
40
0.824807292996573
40
0.883204861997715
40
0.883204861997715
40
1
40
1
40
1
40
1
41
1
10
14.4990966747465
20
-3.87541594544166
30
0
41
1
10
14.4841766080906
20
-3.87966668511927
30
0
41
1
10
14.4692560495559
20
-3.88390529548013
30
0
41
1
10
14.3340012529718
20
-3.92221126145495
30
0
41
1
10
14.2136340337955
20
-3.95549763881573
30
0
41
1
10
13.8524039550237
20
-4.05285528610699
30
0
41
1
10
13.6113931416651
20
-4.11440068730963
30
0
41
1
10
13.2495427164957
20
-4.20129821945213
30
0
41
1
10
13.1288823600515
20
-4.22935888755882
30
0
41
1
10
12.8874582442236
20
-4.28375486127669
30
0
41
1
10
12.7666413557292
20
-4.31009996124104
30
0
41
1
10
12.4044536359989
20
-4.38655190108452
30
0
41
1
10
12.1632021469
20
-4.43420561881828
30
0
41
1
10
11.6810405590951
20
-4.52261729913852
30
0
41
1
10
11.4401018657135
20
-4.56329475904209
30
0
41
1
10
11.0787217991647
20
-4.61861405940982
30
0
41
1
10
10.9582729936863
20
-4.63611075025392
30
0
41
1
10
10.7173902496976
20
-4.66917248538667
30
0
41
1
10
10.5969256408847
20
-4.68472096902909
30
0
41
1
10
10.3561777771168
20
-4.71393513632106
30
0
41
1
10
10.235942535277
20
-4.72762077363026
30
0
41
1
10
9.99539449227774
20
-4.75289982009724
30
0
41
1
10
9.87511466345308
20
-4.76450048741808
30
0
41
1
10
9.63445877146063
20
-4.78571986996275
30
0
41
1
10
9.51408208901518
20
-4.79534175862546
30
0
41
1
10
9.27314851384608
20
-4.81272667721908
30
0
41
1
10
9.15258847780484
20
-4.82050398662417
30
0
41
1
10
8.79063725086004
20
-4.84110750020378
30
0
41
1
10
8.54898636364447
20
-4.85115220701366
30
0
41
1
10
8.30701948982139
20
-4.85720834151704
30
0
0
SPLINE
5
DC
100
AcDbEntity
8
1
62
256
6
ByLayer
370
13
48
1
60
0
100
AcDbSpline
70
4
71
3
72
23
73
19
40
0
40
0
40
0
40
0
40
0.202563304204738
40
0.202563304204738
40
0.405126608409475
40
0.405126608409475
40
0.607689912614213
40
0.607689912614213
40
0.658330738665397
40
0.658330738665397
40
0.708971564716581
40
0.708971564716581
40
0.81025321681895
40
0.91153486892132
40
0.91153486892132
40
0.962175694972504
40
0.962175694972504
40
1
40
1
40
1
40
1
41
1
10
3.75095544317392
20
-4.20187872240106
30
0
41
1
10
3.75095058279803
20
-4.28923997511032
30
0
41
1
10
3.75094360238188
20
-4.36784919950304
30
0
41
1
10
3.75092628790875
20
-4.50812083661435
30
0
41
1
10
3.75091595206717
20
-4.56978176738045
30
0
41
1
10
3.75089264012453
20
-4.67612398541837
30
0
41
1
10
3.75087966307626
20
-4.72080711227895
30
0
41
1
10
3.75086215781519
20
-4.76566216049466
30
0
41
1
10
3.75085859906812
20
-4.77406331146523
30
0
41
1
10
3.75085139132582
20
-4.78969465200487
30
0
41
1
10
3.75084774003821
20
-4.79693077598071
30
0
41
1
10
3.75083665849979
20
-4.81690698804414
30
0
41
1
10
3.75082154329445
20
-4.83892529712094
30
0
41
1
10
3.7508058880839
20
-4.85171963256363
30
0
41
1
10
3.7507939893714
20
-4.85782990321241
30
0
41
1
10
3.75078999665294
20
-4.85928374582221
30
0
41
1
10
3.75078301317964
20
-4.8608001060154
30
0
41
1
10
3.75078002210631
20
-4.8611231542439
30
0
41
1
10
3.75077702719113
20
-4.86112353599623
30
0
0
SPLINE
5
DD
100
AcDbEntity
8
1
62
256
6
ByLayer
370
18
48
1
60
0
100
AcDbSpline
70
4
71
3
72
53
73
49
40
0
40
0
40
0
40
0
40
0.0625000000000004
40
0.0625000000000004
40
0.0781250000000006
40
0.0781250000000006
40
0.0937500000000007
40
0.0937500000000007
40
0.125000000000001
40
0.125000000000001
40
0.187500000000002
40
0.187500000000002
40
0.250000000000003
40
0.250000000000003
40
0.265625000000003
40
0.265625000000003
40
0.281250000000003
40
0.281250000000003
40
0.312500000000003
40
0.343750000000003
40
0.343750000000003
40
0.375000000000003
40
0.375000000000003
40
0.437500000000003
40
0.437500000000003
40
0.500000000000002
40
0.562500000000002
40
0.562500000000002
40
0.578125000000002
40
0.578125000000002
40
0.593750000000002
40
0.625000000000002
40
0.656250000000002
40
0.656250000000002
40
0.687500000000002
40
0.687500000000002
40
0.750000000000001
40
0.750000000000001
40
0.812500000000001
40
0.812500000000001
40
0.875000000000001
40
0.875000000000001
40
0.890625000000001
40
0.890625000000001
40
0.906250000000001
40
0.937500000000001
40
0.937500000000001
40
1
40
1
40
1
40
1
41
1
10
54.6037132007858
20
0.979360304998437
30
0
41
1
10
54.5878973479774
20
0.816998243115876
30
0
41
1
10
54.5781443783151
20
0.653213605334798
30
0
41
1
10
54.5723787603727
20
0.446754205325647
30
0
41
1
10
54.5715473376776
20
0.405375717719124
30
0
41
1
10
54.5705006004637
20
0.322446057279194
30
0
41
1
10
54.5702856678051
20
0.280843261056333
30
0
41
1
10
54.5705222005087
20
0.156265313277828
30
0
41
1
10
54.5718498065991
20
0.0734900224548198
30
0
41
1
10
54.5788925347294
20
-0.174048640680354
30
0
41
1
10
54.5876568225473
20
-0.338027118770185
30
0
41
1
10
54.6112396912114
20
-0.664055674478533
30
0
41
1
10
54.6260621705152
20
-0.82610545935907
30
0
41
1
10
54.6472647260837
20
-1.02752140970114
30
0
41
1
10
54.6516395455744
20
-1.06774712098658
30
0
41
1
10
54.6606321114647
20
-1.14808441142688
30
0
41
1
10
54.6652544909955
20
-1.18823481349463
30
0
41
1
10
54.679411674966
20
-1.30820548262409
30
0
41
1
10
54.6990405503634
20
-1.4667435498057
30
0
41
1
10
54.7197494959904
20
-1.62251161723953
30
0
41
1
10
54.740806601793
20
-1.77691830314052
30
0
41
1
10
54.7515169744103
20
-1.85349465342333
30
0
41
1
10
54.7838609709347
20
-2.08085619870621
30
0
41
1
10
54.8055060071582
20
-2.22796692529951
30
0
41
1
10
54.8478003961904
20
-2.51365054754657
30
0
41
1
10
54.8891031777317
20
-2.79079337854768
30
0
41
1
10
54.9267426764627
20
-3.05098332002754
30
0
41
1
10
54.9487685474458
20
-3.20814790444604
30
0
41
1
10
54.9530997999576
20
-3.23931068013164
30
0
41
1
10
54.9615731579115
20
-3.30082944120551
30
0
41
1
10
54.9740136123565
20
-3.39199512182878
30
0
41
1
10
54.9933812337882
20
-3.53839768620367
30
0
41
1
10
55.0074145152203
20
-3.64961148731578
30
0
41
1
10
55.0207354081419
20
-3.75784746383036
30
0
41
1
10
55.0270471772915
20
-3.81054609548428
30
0
41
1
10
55.04483040479
20
-3.96286545601384
30
0
41
1
10
55.0551939742201
20
-4.0571308685418
30
0
41
1
10
55.0736715876727
20
-4.23144124058308
30
0
41
1
10
55.0817844961722
20
-4.31148528371563
30
0
41
1
10
55.0967651195204
20
-4.45725870952208
30
0
41
1
10
55.1036302817578
20
-4.52298933256117
30
0
41
1
10
55.1122637309634
20
-4.59587577630734
30
0
41
1
10
55.1139920102141
20
-4.60997036671458
30
0
41
1
10
55.1174646508209
20
-4.63710451507956
30
0
41
1
10
55.1227028883218
20
-4.67626541713582
30
0
41
1
10
55.1281402747839
20
-4.71083127736446
30
0
41
1
10
55.1395934165303
20
-4.7738696098796
30
0
41
1
10
55.1479914123478
20
-4.80778473631071
30
0
41
1
10
55.1580798040506
20
-4.83349278011895
30
0
0
SPLINE
5
DE
100
AcDbEntity
8
1
62
256
6
ByLayer
370
13
48
1
60
0
100
AcDbSpline
70
4
71
3
72
38
73
34
40
0
40
0
40
0
40
0
40
0.104651769251006
40
0.104651769251006
40
0.156977653876509
40
0.156977653876509
40
0.209303538502011
40
0.209303538502011
40
0.313955307753016
40
0.313955307753016
40
0.366281192378518
40
0.366281192378518
40
0.41860707700402
40
0.41860707700402
40
0.470932961629522
40
0.497095903942273
40
0.510177375098648
40
0.510177375098648
40
0.523258846255024
40
0.523258846255024
40
0.575584730880526
40
0.575584730880526
40
0.627910615506028
40
0.627910615506028
40
0.732562384757031
40
0.732562384757031
40
0.837214154008033
40
0.837214154008033
40
0.941865923259035
40
0.941865923259035
40
0.994191807884536
40
0.994191807884536
40
1
40
1
40
1
40
1
41
1
10
3.7502671927613
20
1.84659526640357
30
0
41
1
10
4.28884852224226
20
1.6138897471009
30
0
41
1
10
4.82470282399615
20
1.37476042085618
30
0
41
1
10
5.62608487226908
20
1.01013539044396
30
0
41
1
10
5.89282227121763
20
0.887627176341226
30
0
41
1
10
6.42586087106702
20
0.64143117596268
30
0
41
1
10
6.69214994976664
20
0.517716627081057
30
0
41
1
10
7.49064104712934
20
0.145410289990423
30
0
41
1
10
8.02253624346088
20
-0.104191035788489
30
0
41
1
10
8.82133661735259
20
-0.477168896725033
30
0
41
1
10
9.08776298778582
20
-0.601257304533931
30
0
41
1
10
9.62129415035164
20
-0.848168910571417
30
0
41
1
10
9.88839050928829
20
-0.971010908212065
30
0
41
1
10
10.4234543851204
20
-1.21501009631928
30
0
41
1
10
10.8254104469322
20
-1.39673498202834
30
0
41
1
10
11.2958729059616
20
-1.60572058746482
30
0
41
1
10
11.497864277935
20
-1.69454878538869
30
0
41
1
10
11.632610738269
20
-1.75359384985256
30
0
41
1
10
11.7000316373266
20
-1.78303171502935
30
0
41
1
10
12.0367677640011
20
-1.92950119559328
30
0
41
1
10
12.305456201942
20
-2.04457646783149
30
0
41
1
10
12.8418401356028
20
-2.26982266152075
30
0
41
1
10
13.1095201871947
20
-2.38001240871955
30
0
41
1
10
13.9112416487534
20
-2.7027847687695
30
0
41
1
10
14.4440048687744
20
-2.9075459663523
30
0
41
1
10
15.5084793439656
20
-3.29244494116841
30
0
41
1
10
16.0402098675523
20
-3.47255649869399
30
0
41
1
10
17.1048992390696
20
-3.80438204291264
30
0
41
1
10
17.6378538902904
20
-3.95612722799046
30
0
41
1
10
18.439729540793
20
-4.16023577484648
30
0
41
1
10
18.7074322700802
20
-4.22434612862469
30
0
41
1
10
19.0055082841816
20
-4.2909383053354
30
0
41
1
10
19.0352964097527
20
-4.29754061665741
30
0
41
1
10
19.0650919538811
20
-4.30409167024155
30
0
0
SPLINE
5
DF
100
AcDbEntity
8
1
62
256
6
ByLayer
370
18
48
1
60
0
100
AcDbSpline
70
4
71
3
72
20
73
16
40
0
40
0
40
0
40
0
40
0.142605073577391
40
0.142605073577391
40
0.222810404239252
40
0.222810404239252
40
0.303015734901113
40
0.303015734901113
40
0.46342639622483
40
0.46342639622483
40
0.784247718872262
40
0.784247718872262
40
0.944658380195977
40
0.944658380195977
40
1
40
1
40
1
40
1
41
1
10
19.0650916844601
20
-4.30409161100476
30
0
41
1
10
19.303723680771
20
-4.35655888812727
30
0
41
1
10
19.542831531529
20
-4.40573829904747
30
0
41
1
10
19.9172863958995
20
-4.477179125292
30
0
41
1
10
20.0519469635578
20
-4.50174296164192
30
0
41
1
10
20.3208862935611
20
-4.54852618376623
30
0
41
1
10
20.4551907871317
20
-4.57075020132663
30
0
41
1
10
20.8576692696527
20
-4.63390581806706
30
0
41
1
10
21.125408896389
20
-4.6713269649745
30
0
41
1
10
21.9273522151613
20
-4.76949961283506
30
0
41
1
10
22.4602475658778
20
-4.81609605719891
30
0
41
1
10
23.2585745161426
20
-4.8572949329203
30
0
41
1
10
23.5245201617151
20
-4.86624961404604
30
0
41
1
10
23.882213403501
20
-4.87183733233078
30
0
41
1
10
23.9739677208685
20
-4.87271288713484
30
0
41
1
10
24.0657293556259
20
-4.87302498158346
30
0
0
SPLINE
5
E0
100
AcDbEntity
8
1
62
256
6
ByLayer
370
13
48
1
60
0
100
AcDbSpline
70
4
71
3
72
28
73
24
40
0
40
0
40
0
40
0
40
0.137966155152487
40
0.137966155152487
40
0.177138827958011
40
0.177138827958011
40
0.216311500763535
40
0.216311500763535
40
0.294656846374582
40
0.294656846374582
40
0.451347537596681
40
0.451347537596681
40
0.52969288320773
40
0.52969288320773
40
0.60803822881878
40
0.60803822881878
40
0.686383574429829
40
0.686383574429829
40
0.764728920040878
40
0.764728920040878
40
0.921419611262977
40
0.921419611262977
40
1
40
1
40
1
40
1
41
1
10
25.9589654075373
20
-4.87561281951727
30
0
41
1
10
25.488849090524
20
-4.91979496310327
30
0
41
1
10
25.0198795886526
20
-4.94887999657212
30
0
41
1
10
24.4181659311086
20
-4.96664002513404
30
0
41
1
10
24.2851261908264
20
-4.96932976994324
30
0
41
1
10
24.0191045803233
20
-4.97229570258406
30
0
41
1
10
23.8861268890613
20
-4.97258347907618
30
0
41
1
10
23.4871922573819
20
-4.9698020813473
30
0
41
1
10
23.2212243168752
20
-4.96304895954259
30
0
41
1
10
22.4228184656825
20
-4.92812503818274
30
0
41
1
10
21.8898490587087
20
-4.8852783463357
30
0
41
1
10
21.0877075616082
20
-4.79202338457148
30
0
41
1
10
20.8198911817568
20
-4.75611896114816
30
0
41
1
10
20.2830593000879
20
-4.67470030115078
30
0
41
1
10
20.0140054709135
20
-4.62917363618143
30
0
41
1
10
19.4745207011567
20
-4.52858781044441
30
0
41
1
10
19.2055124166499
20
-4.47378783631802
30
0
41
1
10
18.6687249314296
20
-4.35563557178045
30
0
41
1
10
18.4009372006829
20
-4.29225990293995
30
0
41
1
10
17.5988413326305
20
-4.0899671880965
30
0
41
1
10
17.0657896139051
20
-3.93890811068834
30
0
41
1
10
16.2663859663406
20
-3.69004872491792
30
0
41
1
10
15.9995528214612
20
-3.60321884387633
30
0
41
1
10
15.7327337258268
20
-3.51291807633916
30
0
0
SPLINE
5
E1
100
AcDbEntity
8
1
62
256
6
ByLayer
370
18
48
1
60
0
100
AcDbSpline
70
4
71
3
72
24
73
20
40
0
40
0
40
0
40
0
40
0.29422736567768
40
0.29422736567768
40
0.392401331149909
40
0.392401331149909
40
0.490575296622138
40
0.490575296622138
40
0.515118787990197
40
0.515118787990197
40
0.539662279358256
40
0.588749262094374
40
0.686923227566611
40
0.686923227566611
40
0.785097193038849
40
0.785097193038849
40
0.883271158511087
40
0.883271158511087
40
1
40
1
40
1
40
1
41
1
10
15.7327337261581
20
-3.51291807645126
30
0
41
1
10
14.9354687875315
20
-3.24309617440551
30
0
41
1
10
14.1383292855717
20
-2.94228496088877
30
0
41
1
10
13.0699303601716
20
-2.50831700730052
30
0
41
1
10
12.8021831729673
20
-2.3970032197613
30
0
41
1
10
12.265629077428
20
-2.16922156069296
30
0
41
1
10
11.9968346230161
20
-2.05274013991098
30
0
41
1
10
11.6599310523585
20
-1.90434878759621
30
0
41
1
10
11.5924737815418
20
-1.8745176490952
30
0
41
1
10
11.4576522315058
20
-1.81467040575842
30
0
41
1
10
11.2555519560409
20
-1.72461873619119
30
0
41
1
10
10.7848600324539
20
-1.51263776730951
30
0
41
1
10
10.382744774044
20
-1.32810664852494
30
0
41
1
10
9.84749510739644
20
-1.08015427986246
30
0
41
1
10
9.58032082640818
20
-0.955225810317188
30
0
41
1
10
9.04664964412427
20
-0.703944761846628
30
0
41
1
10
8.78015909542387
20
-0.577578499302007
30
0
41
1
10
8.1971616650554
20
-0.300244413257559
30
0
41
1
10
7.88072361010671
20
-0.149135261720801
30
0
41
1
10
7.56428194073897
20
0.0019438651663961
30
0
0
SPLINE
5
E2
100
AcDbEntity
8
1
62
256
6
ByLayer
370
13
48
1
60
0
100
AcDbSpline
70
4
71
3
72
40
73
36
40
0
40
0
40
0
40
0
40
0.0826688252612063
40
0.0826688252612063
40
0.135832037670726
40
0.135832037670726
40
0.188995250080246
40
0.188995250080246
40
0.215576856285008
40
0.215576856285008
40
0.242158462489769
40
0.242158462489769
40
0.295321674899293
40
0.295321674899293
40
0.401648099718342
40
0.401648099718342
40
0.507974524537391
40
0.507974524537391
40
0.561137736946916
40
0.561137736946916
40
0.61430094935644
40
0.61430094935644
40
0.720627374175489
40
0.720627374175489
40
0.747208980380251
40
0.747208980380251
40
0.773790586585013
40
0.773790586585013
40
0.826953798994538
40
0.826953798994538
40
0.933280223813589
40
0.933280223813589
40
0.986443436223115
40
0.986443436223115
40
1
40
1
40
1
40
1
41
1
10
36.2233914058252
20
1.93066675184923
30
0
41
1
10
36.6409321384565
20
1.75063985308446
30
0
41
1
10
37.0581548955935
20
1.5660216627229
30
0
41
1
10
37.7441298758574
20
1.25709705599783
30
0
41
1
10
38.0127248541443
20
1.13476650431781
30
0
41
1
10
38.5503628850137
20
0.88777190806411
30
0
41
1
10
38.8194089791138
20
0.763111144127976
30
0
41
1
10
39.2235717374684
20
0.574860103824989
30
0
41
1
10
39.3581838280416
20
0.511996792437941
30
0
41
1
10
39.6270124405814
20
0.386222887448127
30
0
41
1
10
39.7612635099128
20
0.323296195035965
30
0
41
1
10
40.1635816207544
20
0.134512647210784
30
0
41
1
10
40.431213557457
20
0.0086516184859988
30
0
41
1
10
41.2327950574152
20
-0.368028417659332
30
0
41
1
10
41.7654832329166
20
-0.617795413456633
30
0
41
1
10
42.8295789695655
20
-1.11010209018852
30
0
41
1
10
43.3609618736773
20
-1.35270427342041
30
0
41
1
10
44.1588477136979
20
-1.70745740502105
30
0
41
1
10
44.424943685027
20
-1.82418610195057
30
0
41
1
10
44.957605380832
20
-2.0541754537598
30
0
41
1
10
45.2241769421508
20
-2.16742443995585
30
0
41
1
10
46.0251143874704
20
-2.50089317404922
30
0
41
1
10
46.5606925831963
20
-2.71486125259852
30
0
41
1
10
47.2336407667468
20
-2.96890088158491
30
0
41
1
10
47.368425481666
20
-3.01904561358955
30
0
41
1
10
47.6376266560087
20
-3.11766959421328
30
0
41
1
10
47.7721350793934
20
-3.16618454882854
30
0
41
1
10
48.1754326301697
20
-3.30927425139143
30
0
41
1
10
48.4439978690447
20
-3.40138656031533
30
0
41
1
10
49.2493012829146
20
-3.6671014661475
30
0
41
1
10
49.7856382073371
20
-3.83009673986399
30
0
41
1
10
50.5910157278389
20
-4.05083427702391
30
0
41
1
10
50.8596622762515
20
-4.1204952647827
30
0
41
1
10
51.197165791836
20
-4.20275681018063
30
0
41
1
10
51.2657597722653
20
-4.21920366066954
30
0
41
1
10
51.334374488
20
-4.23537974262698
30
0
0
SPLINE
5
E3
100
AcDbEntity
8
1
62
256
6
ByLayer
370
18
48
1
60
0
100
AcDbSpline
70
4
71
3
72
19
73
15
40
0
40
0
40
0
40
0
40
0.0516332655436227
40
0.0516332655436227
40
0.157007347149884
40
0.157007347149884
40
0.578503673574947
40
0.578503673574947
40
0.789251836787477
40
0.894625918393748
40
0.947312959196879
40
0.973656479598439
40
0.973656479598439
40
1
40
1
40
1
40
1
41
1
10
51.3343754609394
20
-4.23537997199969
30
0
41
1
10
51.4002996290627
20
-4.25092174847336
30
0
41
1
10
51.4662429382248
20
-4.26621357503353
30
0
41
1
10
51.6668306610794
20
-4.31194461365604
30
0
41
1
10
51.8015723166695
20
-4.34158868447855
30
0
41
1
10
52.4745190991862
20
-4.48415243460249
30
0
41
1
10
53.0114542111665
20
-4.58034904522552
30
0
41
1
10
53.8163796889637
20
-4.69659614234718
30
0
41
1
10
54.2187216131052
20
-4.74770882975142
30
0
41
1
10
54.6882711890622
20
-4.79481886124537
30
0
41
1
10
54.9231277522026
20
-4.81521025052055
30
0
41
1
10
55.023802796087
20
-4.82326789307143
30
0
41
1
10
55.0909249525587
20
-4.82848779982413
30
0
41
1
10
55.1244878953787
20
-4.83099702788243
30
0
41
1
10
55.1580798040514
20
-4.83349278011895
30
0
0
SPLINE
5
E4
100
AcDbEntity
8
1
62
256
6
ByLayer
370
18
48
1
60
0
100
AcDbSpline
70
4
71
3
72
26
73
22
40
0
40
0
40
0
40
0
40
0.124999999999993
40
0.124999999999993
40
0.249999999999987
40
0.249999999999987
40
0.37499999999998
40
0.37499999999998
40
0.437499999999961
40
0.437499999999961
40
0.499999999999942
40
0.499999999999942
40
0.624999999999905
40
0.624999999999905
40
0.687499999999916
40
0.687499999999916
40
0.749999999999927
40
0.749999999999927
40
0.874999999999963
40
0.874999999999963
40
1
40
1
40
1
40
1
41
1
10
55.1580798040506
20
-4.83349278011886
30
0
41
1
10
55.1584930381189
20
-4.83454581610746
30
0
41
1
10
55.1587335768264
20
-4.83610592399111
30
0
41
1
10
55.158845595991
20
-4.8402968480849
30
0
41
1
10
55.1587143790157
20
-4.84295529651732
30
0
41
1
10
55.1580311633523
20
-4.84939090586548
30
0
41
1
10
55.1574879272132
20
-4.85310939426182
30
0
41
1
10
55.156349201067
20
-4.8594889331946
30
0
41
1
10
55.1559153140304
20
-4.86174994750917
30
0
41
1
10
55.1549302416984
20
-4.86656267190446
30
0
41
1
10
55.1543767376957
20
-4.86912251896069
30
0
41
1
10
55.1525830870132
20
-4.87702446040018
30
0
41
1
10
55.1511976971541
20
-4.88265583497261
30
0
41
1
10
55.1488279310802
20
-4.89166827487654
30
0
41
1
10
55.1479826679327
20
-4.8947896210976
30
0
41
1
10
55.1462362853388
20
-4.90106584319255
30
0
41
1
10
55.1453326934151
20
-4.90423143453941
30
0
41
1
10
55.1425351993053
20
-4.91380795249222
30
0
41
1
10
55.1405302618555
20
-4.92037533467496
30
0
41
1
10
55.136437755449
20
-4.93327910658047
30
0
41
1
10
55.1343545277672
20
-4.93960948192765
30
0
41
1
10
55.1322398404621
20
-4.94582790965666
30
0
0
SPLINE
5
E5
100
AcDbEntity
8
1
62
256
6
ByLayer
370
18
48
1
60
0
100
AcDbSpline
70
4
71
3
72
8
73
4
40
0
40
0
40
0
40
0
40
1
40
1
40
1
40
1
41
1
10
55.1322398404622
20
-4.94582790965663
30
0
41
1
10
55.1148703039236
20
-4.99690459006831
30
0
41
1
10
55.0976713275387
20
-5.04798104612792
30
0
41
1
10
55.0806489887101
20
-5.09906244168633
30
0
0
SPLINE
5
E6
100
AcDbEntity
8
1
62
256
6
ByLayer
370
13
48
1
60
0
100
AcDbSpline
70
4
71
3
72
27
73
23
40
0
40
0
40
0
40
0
40
0.0132851529558164
40
0.0132851529558164
40
0.0265703059116321
40
0.053140611823265
40
0.106281223646525
40
0.21256244729304
40
0.21256244729304
40
0.425124894586077
40
0.425124894586077
40
0.478265506409332
40
0.478265506409332
40
0.531406118232588
40
0.531406118232588
40
0.637687341879103
40
0.637687341879103
40
0.85024978917213
40
0.85024978917213
40
0.956531012818644
40
0.956531012818644
40
1
40
1
40
1
40
1
41
1
10
55.1322398404621
20
-4.94582790965666
30
0
41
1
10
55.0986667112252
20
-4.94356333874342
30
0
41
1
10
55.065092181424
20
-4.94131518748887
30
0
41
1
10
54.9979505855048
20
-4.93662161577703
30
0
41
1
10
54.8972464657472
20
-4.92934735758089
30
0
41
1
10
54.6623224444524
20
-4.9107411527398
30
0
41
1
10
54.1926379049901
20
-4.86703147366913
30
0
41
1
10
53.7901747863375
20
-4.81854439759243
30
0
41
1
10
52.9849843875282
20
-4.7071668002815
30
0
41
1
10
52.4478421402025
20
-4.61370894468917
30
0
41
1
10
51.774576727287
20
-4.47389789967784
30
0
41
1
10
51.6397630467943
20
-4.44476962732128
30
0
41
1
10
51.3703567405373
20
-4.38434489858128
30
0
41
1
10
51.2357484182452
20
-4.35304661423251
30
0
41
1
10
50.8321395475423
20
-4.25596688797845
30
0
41
1
10
50.5633693495802
20
-4.18698773513663
30
0
41
1
10
49.7576668395071
20
-3.96782756863354
30
0
41
1
10
49.2211103106422
20
-3.80535925448578
30
0
41
1
10
48.4154669930556
20
-3.53959652780608
30
0
41
1
10
48.1467870883187
20
-3.44732817590892
30
0
41
1
10
47.7677931555946
20
-3.31248633231755
30
0
41
1
10
47.6577292382608
20
-3.2727717801412
30
0
41
1
10
47.5476045802847
20
-3.23249633839723
30
0
0
SPLINE
5
E7
100
AcDbEntity
8
1
62
256
6
ByLayer
370
18
48
1
60
0
100
AcDbSpline
70
4
71
3
72
23
73
19
40
0
40
0
40
0
40
0
40
0.0099496891554095
40
0.0372840418109942
40
0.0372840418109942
40
0.0646183944665789
40
0.0646183944665789
40
0.283293215711278
40
0.283293215711278
40
0.392630626333627
40
0.392630626333627
40
0.501968036955976
40
0.501968036955976
40
0.720642858200679
40
0.720642858200679
40
0.939317679445382
40
0.939317679445382
40
1
40
1
40
1
40
1
41
1
10
47.5476042148956
20
-3.23249620476494
30
0
41
1
10
47.5231021702941
20
-3.22353517172036
30
0
41
1
10
47.431275445916
20
-3.18985183216327
30
0
41
1
10
47.3394049670868
20
-3.15578049556052
30
0
41
1
10
47.204646125008
20
-3.10541020157387
30
0
41
1
10
47.1372428654831
20
-3.08001950024874
30
0
41
1
10
46.5312344581781
20
-2.85000636170017
30
0
41
1
10
45.9954336926144
20
-2.63431585350011
30
0
41
1
10
45.1942568705863
20
-2.29753985120283
30
0
41
1
10
44.9276218841681
20
-2.18306659938489
30
0
41
1
10
44.3948636258432
20
-1.95037346457971
30
0
41
1
10
44.1287353453777
20
-1.83216348451094
30
0
41
1
10
43.3307624629564
20
-1.47262852585752
30
0
41
1
10
42.7993344799912
20
-1.22638849008231
30
0
41
1
10
41.7351336906313
20
-0.725893832273414
30
0
41
1
10
41.2023964530699
20
-0.471558021642153
30
0
41
1
10
40.5195872015902
20
-0.144362501948507
30
0
41
1
10
40.3711261268768
20
-0.0731650210115902
30
0
41
1
10
40.2224998658581
20
-0.0018967066556002
30
0
0
SPLINE
5
E8
100
AcDbEntity
8
1
62
256
6
ByLayer
370
18
48
1
60
0
100
AcDbSpline
70
4
71
3
72
19
73
15
40
0
40
0
40
0
40
0
40
0.249999999999963
40
0.249999999999963
40
0.374999999999971
40
0.374999999999971
40
0.499999999999977
40
0.499999999999977
40
0.624999999999982
40
0.624999999999982
40
0.749999999999988
40
0.874999999999994
40
0.874999999999994
40
1
40
1
40
1
40
1
41
1
10
3.63955382492733
20
1.88880351349476
30
0
41
1
10
3.61855966012436
20
1.89840733053313
30
0
41
1
10
3.59948146550613
20
1.91046234660985
30
0
41
1
10
3.57366747015826
20
1.93209751121395
30
0
41
1
10
3.56551692438259
20
1.93994989979609
30
0
41
1
10
3.5506742888127
20
1.95638646647464
30
0
41
1
10
3.54391326550595
20
1.96502028421233
30
0
41
1
10
3.531701175076
20
1.9831063845499
30
0
41
1
10
3.52622423917512
20
1.99261359634218
30
0
41
1
10
3.5167650301139
20
2.0122309029943
30
0
41
1
10
3.50888804548893
20
2.03222520923555
30
0
41
1
10
3.50407246102904
20
2.05294077038619
30
0
41
1
10
3.50082587041689
20
2.07402329456266
30
0
41
1
10
3.50000000000003
20
2.08472933510484
30
0
41
1
10
3.5
20
2.09540443542545
30
0
0
SPLINE
5
E9
100
AcDbEntity
8
1
62
256
6
ByLayer
370
18
48
1
60
0
100
AcDbSpline
70
4
71
3
72
24
73
20
40
0
40
0
40
0
40
0
40
0.108991831070906
40
0.108991831070906
40
0.217983662141812
40
0.217983662141812
40
0.435967324283623
40
0.435967324283623
40
0.653950986425435
40
0.653950986425435
40
0.708446901960888
40
0.708446901960888
40
0.762942817496341
40
0.762942817496341
40
0.871934648567244
40
0.871934648567244
40
0.980926479638148
40
0.980926479638148
40
1
40
1
40
1
40
1
41
1
10
22.6000000000131
20
5.11941411180499
30
0
41
1
10
22.3060523041712
20
5.12840283712691
30
0
41
1
10
22.0125348777155
20
5.13123063369889
30
0
41
1
10
21.4260557553038
20
5.1246368440242
30
0
41
1
10
21.1330975639125
20
5.1152088961083
30
0
41
1
10
20.2542969457587
20
5.06868382782687
30
0
41
1
10
19.6684858831471
20
5.01339076755622
30
0
41
1
10
18.4943190865236
20
4.85498591039698
30
0
41
1
10
17.905663736348
20
4.75203935644811
30
0
41
1
10
17.1661176690395
20
4.59433039712999
30
0
41
1
10
17.0180221424215
20
4.56133596540386
30
0
41
1
10
16.7213947131184
20
4.49247577152926
30
0
41
1
10
16.5727194399202
20
4.45657327946077
30
0
41
1
10
16.127581776079
20
4.34505827786987
30
0
41
1
10
15.8316901916343
20
4.26557315383221
30
0
41
1
10
15.2412954164388
20
4.0968728501139
30
0
41
1
10
14.9468224977405
20
4.0076166291245
30
0
41
1
10
14.6013820700453
20
3.89740012757866
30
0
41
1
10
14.5499474432423
20
3.88084704197442
30
0
41
1
10
14.4985256448581
20
3.86415769303525
30
0
0
SPLINE
5
EA
100
AcDbEntity
8
1
62
256
6
ByLayer
370
18
48
1
60
0
100
AcDbSpline
70
4
71
3
72
73
73
69
40
0
40
0
40
0
40
0
40
0.0156250000000004
40
0.0156250000000004
40
0.0312500000000009
40
0.0312500000000009
40
0.0625000000000028
40
0.0625000000000028
40
0.125000000000006
40
0.125000000000006
40
0.140625000000006
40
0.140625000000006
40
0.156250000000006
40
0.156250000000006
40
0.187500000000005
40
0.187500000000005
40
0.250000000000003
40
0.250000000000003
40
0.257812500000003
40
0.257812500000003
40
0.265625000000003
40
0.265625000000003
40
0.281250000000002
40
0.281250000000002
40
0.3125
40
0.3125
40
0.374999999999996
40
0.374999999999996
40
0.390624999999996
40
0.390624999999996
40
0.406249999999995
40
0.437499999999995
40
0.437499999999995
40
0.499999999999993
40
0.499999999999993
40
0.515624999999994
40
0.515624999999994
40
0.531249999999994
40
0.546874999999995
40
0.546874999999995
40
0.562499999999995
40
0.562499999999995
40
0.624999999999999
40
0.624999999999999
40
0.65625
40
0.65625
40
0.671875000000001
40
0.679687500000001
40
0.679687500000001
40
0.687500000000001
40
0.687500000000001
40
0.75
40
0.75
40
0.78125
40
0.78125
40
0.8125
40
0.8125
40
0.874999999999999
40
0.874999999999999
40
0.906249999999997
40
0.906249999999997
40
0.921874999999997
40
0.921874999999997
40
0.929687499999997
40
0.929687499999997
40
0.937499999999996
40
0.937499999999996
40
1
40
1
40
1
40
1
41
1
10
22.6000000000001
20
5.12881551998802
30
0
41
1
10
22.7700670401479
20
5.12738954833569
30
0
41
1
10
22.9401241286281
20
5.12390407720247
30
0
41
1
10
23.2803089730471
20
5.11282406583547
30
0
41
1
10
23.450412719466
20
5.10522910814296
30
0
41
1
10
23.960175610194
20
5.07635447325296
30
0
41
1
10
24.2995305372326
20
5.04897766844641
30
0
41
1
10
25.3169975395921
20
4.94289064053538
30
0
41
1
10
25.9944872769346
20
4.84017441843099
30
0
41
1
10
26.8436268625329
20
4.67360300087796
30
0
41
1
10
27.0135726105823
20
4.63838299441713
30
0
41
1
10
27.3537758530616
20
4.56419527639625
30
0
41
1
10
27.5237322019847
20
4.52529430549782
30
0
41
1
10
28.0332927418136
20
4.40332207351497
30
0
41
1
10
28.3725778993743
20
4.31497296300944
30
0
41
1
10
29.3899727048874
20
4.02980153341909
30
0
41
1
10
30.0675922337588
20
3.81279738641584
30
0
41
1
10
30.8320328445379
20
3.54186544900537
30
0
41
1
10
30.9170006888953
20
3.5113907487754
30
0
41
1
10
31.0870071477375
20
3.44971298755692
30
0
41
1
10
31.1720540844952
20
3.41850661356907
30
0
41
1
10
31.4270137894199
20
3.32393054284162
30
0
41
1
10
31.5968441884781
20
3.25956835285757
30
0
41
1
10
32.1060387902988
20
3.06276934369575
30
0
41
1
10
32.4451085196404
20
2.92662227811519
30
0
41
1
10
33.4621725518837
20
2.50513342670959
30
0
41
1
10
34.139933018969
20
2.20659951081473
30
0
41
1
10
34.9897228951027
20
1.81665191797975
30
0
41
1
10
35.1598455008921
20
1.73781228916556
30
0
41
1
10
35.4996285692772
20
1.57899601466829
30
0
41
1
10
36.0089066616138
20
1.33893166623054
30
0
41
1
10
36.5173759636327
20
1.0941034325086
30
0
41
1
10
37.5342675738516
20
0.600160443289298
30
0
41
1
10
38.2121342321065
20
0.265155658921572
30
0
41
1
10
39.062316376782
20
-0.154849616938066
30
0
41
1
10
39.2323414831671
20
-0.238832809271202
30
0
41
1
10
39.5722307025643
20
-0.406496271574241
30
0
41
1
10
39.9120279399891
20
-0.573890963145203
30
0
41
1
10
40.2518045898005
20
-0.740418230070873
30
0
41
1
10
40.5916547737054
20
-0.906342895203977
30
0
41
1
10
40.7616511369057
20
-0.989020554170594
30
0
41
1
10
41.6116598853395
20
-1.40029419202517
30
0
41
1
10
42.2892788946575
20
-1.72129200860087
30
0
41
1
10
43.3061330820016
20
-2.18318871471939
30
0
41
1
10
43.6451361196784
20
-2.33392803359658
30
0
41
1
10
44.154131388522
20
-2.55442197519713
30
0
41
1
10
44.4087528176534
20
-2.66326296780758
30
0
41
1
10
44.6636466621557
20
-2.76983250190565
30
0
41
1
10
44.8336466250941
20
-2.84035510600214
30
0
41
1
10
44.918648806527
20
-2.87534056603761
30
0
41
1
10
45.6827105404151
20
-3.18723574659052
30
0
41
1
10
46.3571618632178
20
-3.44417277147539
30
0
41
1
10
47.3658038179157
20
-3.79368879226513
30
0
41
1
10
47.7015152036356
20
-3.904216445038
30
0
41
1
10
48.3725696409813
20
-4.11255285760149
30
0
41
1
10
48.7078976540772
20
-4.2103845325409
30
0
41
1
10
49.7140475953496
20
-4.48396052678044
30
0
41
1
10
50.3850057649961
20
-4.63979102458353
30
0
41
1
10
51.3954451390136
20
-4.82938236583536
30
0
41
1
10
51.7329336519797
20
-4.8852160698047
30
0
41
1
10
52.2406936285569
20
-4.95739695769774
30
0
41
1
10
52.410201692019
20
-4.97952937977127
30
0
41
1
10
52.6649110861958
20
-5.00977512236872
30
0
41
1
10
52.7499223566394
20
-5.01936834654595
30
0
41
1
10
52.9198857377199
20
-5.03753807596553
30
0
41
1
10
53.0048454848889
20
-5.0461158668644
30
0
41
1
10
53.7693269462933
20
-5.11874568430261
30
0
41
1
10
54.4476950606129
20
-5.15083471193762
30
0
41
1
10
55.127231120762
20
-5.14996167731312
30
0
0
SPLINE
5
EB
100
AcDbEntity
8
1
62
256
6
ByLayer
370
18
48
1
60
0
100
AcDbSpline
70
4
71
3
72
8
73
4
40
0
40
0
40
0
40
0
40
1
40
1
40
1
40
1
41
1
10
55.127231120762
20
-5.14996167731312
30
0
41
1
10
55.1060096173732
20
-5.15090983452791
30
0
41
1
10
55.0915644765031
20
-5.13384894125298
30
0
41
1
10
55.0806489887144
20
-5.09906244167266
30
0
0
SPLINE
5
EC
100
AcDbEntity
8
1
62
256
6
ByLayer
370
18
48
1
60
0
100
AcDbSpline
70
4
71
3
72
78
73
74
40
0
40
0
40
0
40
0
40
0.0515304540473975
40
0.0515304540473975
40
0.0644130675592471
40
0.0644130675592471
40
0.0772956810710968
40
0.103060908094795
40
0.103060908094795
40
0.128826135118493
40
0.128826135118493
40
0.154591362142191
40
0.154591362142191
40
0.18035658916589
40
0.18035658916589
40
0.193239202677738
40
0.193239202677738
40
0.206121816189587
40
0.206121816189587
40
0.257652270236978
40
0.257652270236978
40
0.309182724284369
40
0.309182724284369
40
0.334947951308064
40
0.334947951308064
40
0.36071317833176
40
0.36071317833176
40
0.412243632379151
40
0.412243632379151
40
0.425126245890999
40
0.425126245890999
40
0.438008859402847
40
0.438008859402847
40
0.463774086426544
40
0.463774086426544
40
0.515304540473938
40
0.515304540473938
40
0.541069767497635
40
0.541069767497635
40
0.553952381009484
40
0.553952381009484
40
0.566834994521333
40
0.566834994521333
40
0.618365448568727
40
0.618365448568727
40
0.669895902616121
40
0.669895902616121
40
0.682778516127969
40
0.682778516127969
40
0.695661129639817
40
0.695661129639817
40
0.721426356663514
40
0.721426356663514
40
0.772956810710909
40
0.772956810710909
40
0.798722037734606
40
0.798722037734606
40
0.811604651246455
40
0.811604651246455
40
0.824487264758303
40
0.824487264758303
40
0.876017718805695
40
0.876017718805695
40
0.901782945829391
40
0.901782945829391
40
0.927548172853087
40
0.927548172853087
40
0.940430786364934
40
0.940430786364934
40
0.953313399876782
40
0.979078626900477
40
0.979078626900477
40
1
40
1
40
1
40
1
41
1
10
55.0806489887105
20
-5.09906244167277
30
0
41
1
10
54.5444987504417
20
-5.06139391513463
30
0
41
1
10
54.0087323283671
20
-5.00339126098649
30
0
41
1
10
53.3380795880603
20
-4.90621387655708
30
0
41
1
10
53.2038622783211
20
-4.88553777556339
30
0
41
1
10
52.9356664834147
20
-4.84179881281571
30
0
41
1
10
52.5336241216472
20
-4.77259701429657
30
0
41
1
10
52.1321742299061
20
-4.69276664792321
30
0
41
1
10
51.5971389379538
20
-4.57715412148133
30
0
41
1
10
51.3297379157028
20
-4.51475923844725
30
0
41
1
10
50.7947998612204
20
-4.38115457355471
30
0
41
1
10
50.5272868718488
20
-4.30992249903608
30
0
41
1
10
49.991902271263
20
-4.15885613635331
30
0
41
1
10
49.7239825945554
20
-4.07907736678723
30
0
41
1
10
49.3215507728872
20
-3.95326612002867
30
0
41
1
10
49.1873526227425
20
-3.91031590816314
30
0
41
1
10
48.9192366831896
20
-3.82257625355248
30
0
41
1
10
48.7852595966447
20
-3.77776844051044
30
0
41
1
10
48.1156868625258
20
-3.54917860569705
30
0
41
1
10
47.5810107303703
20
-3.35176039302769
30
0
41
1
10
46.5109840398284
20
-2.93194496506447
30
0
41
1
10
45.9756350615883
20
-2.70946901447661
30
0
41
1
10
45.1704688094896
20
-2.35989921553423
30
0
41
1
10
44.902466802172
20
-2.24105521033195
30
0
41
1
10
44.3668727183446
20
-1.99941718789026
30
0
41
1
10
44.0992768458181
20
-1.87663104850654
30
0
41
1
10
43.2966979064296
20
-1.50313547210843
30
0
41
1
10
42.7619217756362
20
-1.24728686781131
30
0
41
1
10
42.0921705162861
20
-0.922072990658364
30
0
41
1
10
41.9581573235938
20
-0.85675809863281
30
0
41
1
10
41.6899695334731
20
-0.725653362552919
30
0
41
1
10
41.5557319919735
20
-0.659832482831348
30
0
41
1
10
41.1532562783719
20
-0.462022735554399
30
0
41
1
10
40.8853156220713
20
-0.329699989329555
30
0
41
1
10
40.0820730266444
20
0.067496255406752
30
0
41
1
10
39.5472969619175
20
0.332489102704813
30
0
41
1
10
38.7444915315705
20
0.726781937347965
30
0
41
1
10
38.4767864649048
20
0.85768738776315
30
0
41
1
10
38.0748207297317
20
1.05274408952784
30
0
41
1
10
37.9407638041677
20
1.11754543666325
30
0
41
1
10
37.6724693999874
20
1.24662435202126
30
0
41
1
10
37.5382007633043
20
1.31091555621347
30
0
41
1
10
36.8675673118163
20
1.63029935749708
30
0
41
1
10
36.3324029974281
20
1.87963847941708
30
0
41
1
10
35.262183657654
20
2.36118719010386
30
0
41
1
10
34.7271556533349
20
2.59344977849207
30
0
41
1
10
34.0569470526264
20
2.87034408496819
30
0
41
1
10
33.9228359736875
20
2.92505447189626
30
0
41
1
10
33.6544285209263
20
3.03305463571456
30
0
41
1
10
33.5202185633452
20
3.08630873954482
30
0
41
1
10
33.1179468947618
20
3.2435465286089
30
0
41
1
10
32.8500636019321
20
3.34508141735802
30
0
41
1
10
32.0468908778499
20
3.63922707557722
30
0
41
1
10
31.5120394700883
20
3.82131395981818
30
0
41
1
10
30.7088277939447
20
4.07088501567901
30
0
41
1
10
30.4409503265527
20
4.15016945053034
30
0
41
1
10
30.0386865733214
20
4.26290930515771
30
0
41
1
10
29.9044823133529
20
4.2994626240949
30
0
41
1
10
29.6360424834263
20
4.37040297654838
30
0
41
1
10
29.5019157396284
20
4.40476250606781
30
0
41
1
10
28.831631976318
20
4.57090670223877
30
0
41
1
10
28.296514067098
20
4.68571519957979
30
0
41
1
10
27.493646738489
20
4.82936678812192
30
0
41
1
10
27.2260112430908
20
4.87250683846131
30
0
41
1
10
26.6904555038508
20
4.94908807090005
30
0
41
1
10
26.4225112020899
20
4.98251266800813
30
0
41
1
10
26.0200804906381
20
5.02517194498253
30
0
41
1
10
25.8857876873057
20
5.03814970904159
30
0
41
1
10
25.6174082368317
20
5.06155268818077
30
0
41
1
10
25.2150879080404
20
5.09283900686563
30
0
41
1
10
24.8133348956511
20
5.11266176059482
30
0
41
1
10
24.3281946830227
20
5.12737290477364
30
0
41
1
10
24.1108747504536
20
5.13060859396475
30
0
41
1
10
23.8935747607436
20
5.13047904909786
30
0
0
SPLINE
5
ED
100
AcDbEntity
8
1
62
256
6
ByLayer
370
18
48
1
60
0
100
AcDbSpline
70
4
71
3
72
36
73
32
40
0
40
0
40
0
40
0
40
0.0166513795959794
40
0.0166513795959794
40
0.08220795428958
40
0.08220795428958
40
0.213321103676781
40
0.213321103676781
40
0.344434253063982
40
0.344434253063982
40
0.377212540410782
40
0.377212540410782
40
0.409990827757583
40
0.409990827757583
40
0.475547402451185
40
0.475547402451185
40
0.541103977144787
40
0.541103977144787
40
0.606660551838389
40
0.606660551838389
40
0.672217126531991
40
0.672217126531991
40
0.737773701225592
40
0.737773701225592
40
0.803330275919194
40
0.803330275919194
40
0.868886850612796
40
0.868886850612796
40
0.934443425306398
40
0.934443425306398
40
1
40
1
40
1
40
1
41
1
10
21.9428002690788
20
-5.12925995721173
30
0
41
1
10
21.8682790264735
20
-5.12921342135914
30
0
41
1
10
21.793778208104
20
-5.12877115063418
30
0
41
1
10
21.4260557553038
20
-5.12463684402417
30
0
41
1
10
21.1330975639126
20
-5.1152088961083
30
0
41
1
10
20.2542969457588
20
-5.06868382782687
30
0
41
1
10
19.668485883147
20
-5.01339076755624
30
0
41
1
10
18.4943190865233
20
-4.85498591039689
30
0
41
1
10
17.9056637363473
20
-4.75203935644797
30
0
41
1
10
17.1661176690385
20
-4.59433039712977
30
0
41
1
10
17.0180221424204
20
-4.5613359654036
30
0
41
1
10
16.7213947131171
20
-4.49247577152895
30
0
41
1
10
16.5727194399189
20
-4.45657327946046
30
0
41
1
10
16.1275817760779
20
-4.34505827786958
30
0
41
1
10
15.8316901916332
20
-4.26557315383189
30
0
41
1
10
15.2412954164379
20
-4.09687285011364
30
0
41
1
10
14.9468224977398
20
-4.00761662912427
30
0
41
1
10
14.3588385611139
20
-3.8200139999461
30
0
41
1
10
14.0652982712263
20
-3.7217098487331
30
0
41
1
10
13.4787463149686
20
-3.51670614030638
30
0
41
1
10
13.1857441121249
20
-3.40999323916495
30
0
41
1
10
12.5999562160589
20
-3.18867429935446
30
0
41
1
10
12.3071606816554
20
-3.07408046825407
30
0
41
1
10
11.7212446118457
20
-2.83788657717918
30
0
41
1
10
11.4281341162812
20
-2.71627316672169
30
0
41
1
10
10.8412909137372
20
-2.46654172775612
30
0
41
1
10
10.5475923650886
20
-2.33835775832992
30
0
41
1
10
9.95909753464417
20
-2.07629288250075
30
0
41
1
10
9.66429123317994
20
-1.94243457916181
30
0
41
1
10
9.07319115258696
20
-1.66971168471144
30
0
41
1
10
8.77689538531868
20
-1.53085316528336
30
0
41
1
10
8.47971005992127
20
-1.38972166715033
30
0
0
SPLINE
5
EE
100
AcDbEntity
8
1
62
256
6
ByLayer
370
18
48
1
60
0
100
AcDbSpline
70
4
71
3
72
22
73
18
40
0
40
0
40
0
40
0
40
0.0811839770713037
40
0.0811839770713037
40
0.212443408918255
40
0.212443408918255
40
0.474962272612162
40
0.474962272612162
40
0.606221704459117
40
0.606221704459117
40
0.671851420382592
40
0.671851420382592
40
0.70466627834433
40
0.70466627834433
40
0.737481136306068
40
0.737481136306068
40
1
40
1
40
1
40
1
41
1
10
47.4141848294125
20
3.80789255150131
30
0
41
1
10
47.6219247066546
20
3.87709579275048
30
0
41
1
10
47.8295187903358
20
3.94395660107344
30
0
41
1
10
48.3725696409813
20
4.11255285760149
30
0
41
1
10
48.7078976540772
20
4.2103845325409
30
0
41
1
10
49.7140475953496
20
4.48396052678041
30
0
41
1
10
50.385005764996
20
4.6397910245835
30
0
41
1
10
51.3954451390136
20
4.82938236583533
30
0
41
1
10
51.7329336519797
20
4.8852160698047
30
0
41
1
10
52.2406936285568
20
4.95739695769774
30
0
41
1
10
52.410201692019
20
4.97952937977124
30
0
41
1
10
52.6649110861958
20
5.00977512236872
30
0
41
1
10
52.7499223566393
20
5.01936834654595
30
0
41
1
10
52.9198857377198
20
5.03753807596553
30
0
41
1
10
53.0048454848888
20
5.0461158668644
30
0
41
1
10
53.7693269462933
20
5.11874568430261
30
0
41
1
10
54.4476950606129
20
5.15083471193762
30
0
41
1
10
55.127231120762
20
5.14996167731312
30
0
0
SPLINE
5
EF
100
AcDbEntity
8
1
62
256
6
ByLayer
370
18
48
1
60
0
100
AcDbSpline
70
4
71
3
72
68
73
64
40
0
40
0
40
0
40
0
40
0.0044969422737783
40
0.0044969422737783
40
0.0388246339195121
40
0.0388246339195121
40
0.055988479742379
40
0.055988479742379
40
0.0731523255652462
40
0.10748001721098
40
0.10748001721098
40
0.141807708856714
40
0.141807708856714
40
0.176135400502448
40
0.176135400502448
40
0.210463092148182
40
0.210463092148182
40
0.227626937971048
40
0.227626937971048
40
0.244790783793914
40
0.244790783793914
40
0.313446167085377
40
0.313446167085377
40
0.347773858731108
40
0.347773858731108
40
0.382101550376839
40
0.382101550376839
40
0.41642924202257
40
0.41642924202257
40
0.450756933668301
40
0.450756933668301
40
0.519412316959763
40
0.519412316959763
40
0.536576162782629
40
0.536576162782629
40
0.553740008605495
40
0.553740008605495
40
0.588067700251226
40
0.588067700251226
40
0.622395391896958
40
0.622395391896958
40
0.65672308354269
40
0.65672308354269
40
0.691050775188422
40
0.708214621011288
40
0.708214621011288
40
0.725378466834154
40
0.725378466834154
40
0.759706158479884
40
0.759706158479884
40
0.794033850125615
40
0.794033850125615
40
0.828361541771345
40
0.828361541771345
40
0.84552538759421
40
0.84552538759421
40
0.862689233417075
40
0.862689233417075
40
0.897016925062807
40
0.897016925062807
40
0.931344616708538
40
0.931344616708538
40
1
40
1
40
1
40
1
41
1
10
27.063463380325
20
-4.89549976582563
30
0
41
1
10
27.0283889608537
20
-4.90068205882628
30
0
41
1
10
26.9933123888123
20
-4.90578136759439
30
0
41
1
10
26.6904555038508
20
-4.94908807090005
30
0
41
1
10
26.4225112020899
20
-4.98251266800813
30
0
41
1
10
26.0200804906382
20
-5.02517194498253
30
0
41
1
10
25.8857876873057
20
-5.03814970904159
30
0
41
1
10
25.6174082368317
20
-5.06155268818077
30
0
41
1
10
25.2150879080404
20
-5.09283900686563
30
0
41
1
10
24.8133348956511
20
-5.11266176059482
30
0
41
1
10
24.2778601477061
20
-5.12889922353048
30
0
41
1
10
24.0102485138897
20
-5.13192695438227
30
0
41
1
10
23.4750415205956
20
-5.12776862281538
30
0
41
1
10
23.2073996278807
20
-5.12058107858297
30
0
41
1
10
22.6716954797467
20
-5.09600384613063
30
0
41
1
10
22.4036327731451
20
-5.07861488446355
30
0
41
1
10
22.0009826790204
20
-5.04490806973985
30
0
41
1
10
21.8666721709362
20
-5.03240057559495
30
0
41
1
10
21.5983392637658
20
-5.00490631950518
30
0
41
1
10
21.4642534678253
20
-4.98991462589785
30
0
41
1
10
20.794143881834
20
-4.90879158522532
30
0
41
1
10
20.2590778108131
20
-4.82415032088971
30
0
41
1
10
19.4560255706234
20
-4.66900076177029
30
0
41
1
10
19.1882753215604
20
-4.61258383781345
30
0
41
1
10
18.6523921721313
20
-4.49052668054918
30
0
41
1
10
18.3842459798709
20
-4.42489551820336
30
0
41
1
10
17.8471527124786
20
-4.2847677367123
30
0
41
1
10
17.5788699953236
20
-4.21045139578362
30
0
41
1
10
17.042844587358
20
-4.05375472808467
30
0
41
1
10
16.7750568945208
20
-3.97136188856655
30
0
41
1
10
15.9719574124427
20
-3.71260463426549
30
0
41
1
10
15.4369151461285
20
-3.52463599395705
30
0
41
1
10
14.7668424018804
20
-3.27275378066341
30
0
41
1
10
14.6327654183485
20
-3.22153059454311
30
0
41
1
10
14.3644466511947
20
-3.11744935197683
30
0
41
1
10
14.2301500829766
20
-3.06456932599238
30
0
41
1
10
13.8273577579474
20
-2.90372829821143
30
0
41
1
10
13.5591801413582
20
-2.79365815412641
30
0
41
1
10
13.0232113830313
20
-2.5684054391709
30
0
41
1
10
12.7554190404159
20
-2.45322614664701
30
0
41
1
10
12.2200099729156
20
-2.21814133281092
30
0
41
1
10
11.9523968739749
20
-2.09822666142611
30
0
41
1
10
11.4169194021654
20
-1.85444955758928
30
0
41
1
10
11.0151194448827
20
-1.66866461447799
30
0
41
1
10
10.6126950203734
20
-1.47908649219465
30
0
41
1
10
10.3442363373144
20
-1.35192807798461
30
0
41
1
10
10.2098722268388
20
-1.28793980287929
30
0
41
1
10
9.80711374330195
20
-1.09523348329543
30
0
41
1
10
9.53888823098799
20
-0.965698288107859
30
0
41
1
10
9.00274703208734
20
-0.705006080036043
30
0
41
1
10
8.73483405311157
20
-0.573843223774219
30
0
41
1
10
8.19892336420142
20
-0.310694011977944
30
0
41
1
10
7.93092290376404
20
-0.1787135857397
30
0
41
1
10
7.5286550503987
20
0.0194602322837056
30
0
41
1
10
7.39452184481866
20
0.0855533004246922
30
0
41
1
10
7.1261236788045
20
0.217720291655724
30
0
41
1
10
6.99181949531746
20
0.283813252177509
30
0
41
1
10
6.58891339722706
20
0.481795579323347
30
0
41
1
10
6.32061332275401
20
0.61323559170819
30
0
41
1
10
5.78436923795417
20
0.874517350605032
30
0
41
1
10
5.51643020908796
20
1.00436843321418
30
0
41
1
10
4.71259863289862
20
1.3904267612584
30
0
41
1
10
4.17667009435172
20
1.64309874608435
30
0
41
1
10
3.63955382492733
20
1.88880351349476
30
0
0
SPLINE
5
F0
100
AcDbEntity
8
1
62
256
6
ByLayer
370
18
48
1
60
0
100
AcDbSpline
70
4
71
3
72
8
73
4
40
0
40
0
40
0
40
0
40
1
40
1
40
1
40
1
41
1
10
3.50000000000003
20
-4.50488990727698
30
0
41
1
10
3.50000000000003
20
-4.5083117738196
30
0
41
1
10
3.5
20
-4.51173410592389
30
0
41
1
10
3.5
20
-4.51515690368001
30
0
0
SPLINE
5
F1
100
AcDbEntity
8
1
62
256
6
ByLayer
370
18
48
1
60
0
100
AcDbSpline
70
4
71
3
72
36
73
32
40
0
40
0
40
0
40
0
40
0.062500000000015
40
0.062500000000015
40
0.12500000000003
40
0.12500000000003
40
0.187500000000045
40
0.187500000000045
40
0.218750000000052
40
0.218750000000052
40
0.250000000000059
40
0.250000000000059
40
0.312500000000038
40
0.312500000000038
40
0.343750000000028
40
0.343750000000028
40
0.375000000000019
40
0.375000000000019
40
0.437500000000001
40
0.437500000000001
40
0.468750000000004
40
0.468750000000004
40
0.500000000000006
40
0.500000000000006
40
0.625000000000005
40
0.625000000000005
40
0.750000000000003
40
0.750000000000003
40
0.875000000000002
40
0.875000000000002
40
1
40
1
40
1
40
1
41
1
10
3.75095544317594
20
-4.20187872355055
30
0
41
1
10
3.74310312439155
20
-4.19809366779748
30
0
41
1
10
3.73499894518707
20
-4.19478566108072
30
0
41
1
10
3.71814177075987
20
-4.18939591729657
30
0
41
1
10
3.7093281959867
20
-4.1873018778939
30
0
41
1
10
3.69110632430542
20
-4.1848466626945
30
0
41
1
10
3.68178096387192
20
-4.18448517141022
30
0
41
1
10
3.6673719322481
20
-4.18564277571068
30
0
41
1
10
3.66246130692068
20
-4.18632293288741
30
0
41
1
10
3.65268956453926
20
-4.18830836419491
30
0
41
1
10
3.64783250324302
20
-4.18960759230023
30
0
41
1
10
3.63335229448313
20
-4.19447124644489
30
0
41
1
10
3.62369579025034
20
-4.19910569166962
30
0
41
1
10
3.61022900445766
20
-4.20764766360344
30
0
41
1
10
3.60588175485128
20
-4.21076098516937
30
0
41
1
10
3.59745351614876
20
-4.2174872676265
30
0
41
1
10
3.59335613329293
20
-4.22112012455372
30
0
41
1
10
3.58173488166619
20
-4.23242571686282
30
0
41
1
10
3.5747688119969
20
-4.24057153112986
30
0
41
1
10
3.56521059314477
20
-4.25348467092158
30
0
41
1
10
3.56216316927271
20
-4.25792542273783
30
0
41
1
10
3.55641252256248
20
-4.26689861042067
30
0
41
1
10
3.55370532960848
20
-4.27143317789114
30
0
41
1
10
3.54088716738505
20
-4.2943112604149
30
0
41
1
10
3.5328452973306
20
-4.31329817079336
30
0
41
1
10
3.5196973855538
20
-4.351904564552
30
0
41
1
10
3.5147384019717
20
-4.37114067640158
30
0
41
1
10
3.50706496584064
20
-4.40952601440873
30
0
41
1
10
3.50436872514928
20
-4.42867436166358
30
0
41
1
10
3.50083143783223
20
-4.46690267077338
30
0
41
1
10
3.50000000000003
20
-4.48599876818676
30
0
41
1
10
3.50000000000003
20
-4.50488990727695
30
0
0
SPLINE
5
F2
100
AcDbEntity
8
1
62
256
6
ByLayer
370
18
48
1
60
0
100
AcDbSpline
70
4
71
3
72
24
73
20
40
0
40
0
40
0
40
0
40
0.124999999999998
40
0.124999999999998
40
0.249999999999997
40
0.249999999999997
40
0.499999999999997
40
0.499999999999997
40
0.624999999999997
40
0.624999999999997
40
0.687499999999998
40
0.687499999999998
40
0.75
40
0.75
40
0.875
40
0.875
40
0.9375
40
0.9375
40
1
40
1
40
1
40
1
41
1
10
8.3067413287817
20
-4.8572153018481
30
0
41
1
10
8.1031376317078
20
-4.86233199875304
30
0
41
1
10
7.90077174249808
20
-4.86472099766712
30
0
41
1
10
7.49862582201558
20
-4.86345330020694
30
0
41
1
10
7.29884198375836
20
-4.859809570192
30
0
41
1
10
6.70370290925794
20
-4.8383909343703
30
0
41
1
10
6.31260327704061
20
-4.80994640172773
30
0
41
1
10
5.73565630933641
20
-4.74118798594199
30
0
41
1
10
5.54497314473349
20
-4.71387356051639
30
0
41
1
10
5.26188016594165
20
-4.66465188054102
30
0
41
1
10
5.16800606390311
20
-4.6468649441087
30
0
41
1
10
4.98134233760823
20
-4.60818762538261
30
0
41
1
10
4.88844265398211
20
-4.58726873132099
30
0
41
1
10
4.6130123957507
20
-4.51963261188146
30
0
41
1
10
4.43338588674115
20
-4.46802740733943
30
0
41
1
10
4.17135603526663
20
-4.37836533103072
30
0
41
1
10
4.08525380739783
20
-4.34642581643814
30
0
41
1
10
3.91587412210652
20
-4.27785766991394
30
0
41
1
10
3.83259512313208
20
-4.24123152476687
30
0
41
1
10
3.75095544317423
20
-4.20187872353833
30
0
0
SPLINE
5
F3
100
AcDbEntity
8
1
62
256
6
ByLayer
370
18
48
1
60
0
100
AcDbSpline
70
4
71
3
72
14
73
10
40
0
40
0
40
0
40
0
40
0.0311606008578812
40
0.0311606008578812
40
0.327896620309159
40
0.327896620309159
40
0.921368659211717
40
0.921368659211717
40
1
40
1
40
1
40
1
41
1
10
12.8042564288894
20
-3.26063282601399
30
0
41
1
10
12.7569477417816
20
-3.27753108055717
30
0
41
1
10
12.7096523935668
20
-3.29442983919014
30
0
41
1
10
12.2121101027591
20
-3.47224727224071
30
0
41
1
10
11.762768208635
20
-3.63324206080887
30
0
41
1
10
10.4217603808355
20
-4.11287337522259
30
0
41
1
10
9.53593711935915
20
-4.42844060505627
30
0
41
1
10
8.53967876616548
20
-4.77630146066375
30
0
41
1
10
8.42323122165817
20
-4.81685328781998
30
0
41
1
10
8.30688749105843
20
-4.85725417873863
30
0
0
SPLINE
5
F4
100
AcDbEntity
8
1
62
256
6
ByLayer
370
18
48
1
60
0
100
AcDbSpline
70
4
71
3
72
99
73
95
40
0
40
0
40
0
40
0
40
0.124999999999885
40
0.124999999999885
40
0.187499999999829
40
0.187499999999829
40
0.2187499999998
40
0.2187499999998
40
0.249999999999772
40
0.249999999999772
40
0.312499999999717
40
0.312499999999717
40
0.343749999999689
40
0.359374999999675
40
0.363281249999672
40
0.363281249999672
40
0.365234374999671
40
0.365234374999671
40
0.367187499999669
40
0.367187499999669
40
0.369140624999668
40
0.369140624999668
40
0.371093749999667
40
0.371093749999667
40
0.373046874999665
40
0.373046874999665
40
0.374999999999664
40
0.374999999999664
40
0.375976562499663
40
0.375976562499663
40
0.376953124999663
40
0.378906249999663
40
0.382812499999663
40
0.390624999999666
40
0.390624999999666
40
0.406249999999672
40
0.406249999999672
40
0.437499999999687
40
0.437499999999687
40
0.453124999999694
40
0.453124999999694
40
0.468749999999701
40
0.468749999999701
40
0.499999999999715
40
0.499999999999715
40
0.53124999999973
40
0.53124999999973
40
0.562499999999744
40
0.562499999999744
40
0.593749999999759
40
0.593749999999759
40
0.601562499999763
40
0.601562499999763
40
0.609374999999768
40
0.609374999999768
40
0.624999999999776
40
0.624999999999776
40
0.656249999999794
40
0.656249999999794
40
0.671874999999803
40
0.671874999999803
40
0.687499999999811
40
0.687499999999811
40
0.718749999999829
40
0.718749999999829
40
0.734374999999837
40
0.734374999999837
40
0.742187499999842
40
0.742187499999842
40
0.749999999999846
40
0.749999999999846
40
0.781249999999864
40
0.781249999999864
40
0.789062499999868
40
0.789062499999868
40
0.796874999999873
40
0.796874999999873
40
0.812499999999882
40
0.812499999999882
40
0.843749999999902
40
0.843749999999902
40
0.859374999999912
40
0.859374999999912
40
0.867187499999917
40
0.867187499999917
40
0.874999999999922
40
0.874999999999922
40
0.906249999999941
40
0.906249999999941
40
0.937499999999961
40
0.937499999999961
40
0.96874999999998
40
0.96874999999998
40
1
40
1
40
1
40
1
41
1
10
8.47970327386187
20
-1.38973242191528
30
0
41
1
10
8.05089049596603
20
-1.18600746781689
30
0
41
1
10
7.61792602411407
20
-0.98897585333944
30
0
41
1
10
6.95956510077917
20
-0.710573644259426
30
0
41
1
10
6.73863014549437
20
-0.620623495984177
30
0
41
1
10
6.40474814174428
20
-0.490704976309729
30
0
41
1
10
6.29303702524095
20
-0.448230712408872
30
0
41
1
10
6.06898750680864
20
-0.365143969812266
30
0
41
1
10
5.95661992849017
20
-0.32452081798732
30
0
41
1
10
5.61844368958413
20
-0.205550454056208
30
0
41
1
10
5.39150880481901
20
-0.130094176089273
30
0
41
1
10
5.0492470949564
20
-0.0232782858889209
30
0
41
1
10
4.87762832643179
20
0.0285430034681156
30
0
41
1
10
4.69089584842888
20
0.082040722961807
30
0
41
1
10
4.61894386295194
20
0.102187982195204
30
0
41
1
10
4.59735230594706
20
0.108205839357538
30
0
41
1
10
4.59016637755585
20
0.110257273346974
30
0
41
1
10
4.57565975225694
20
0.113815249664469
30
0
41
1
10
4.56833862418
20
0.115320051154669
30
0
41
1
10
4.55347850071016
20
0.117448861117651
30
0
41
1
10
4.54600396927279
20
0.118032250589494
30
0
41
1
10
4.53111090423835
20
0.118259937971686
30
0
41
1
10
4.52366997915277
20
0.117898814307352
30
0
41
1
10
4.50880078365424
20
0.116104697268099
30
0
41
1
10
4.50140734643477
20
0.114647799188475
30
0
41
1
10
4.48730988381575
20
0.110257307683469
30
0
41
1
10
4.48050296423497
20
0.107425137821963
30
0
41
1
10
4.47067299291706
20
0.102174806937114
30
0
41
1
10
4.46745575561968
20
0.100266238871683
30
0
41
1
10
4.46103018152388
20
0.0964344290587746
30
0
41
1
10
4.4513929620274
20
0.090684798461325
30
0
41
1
10
4.42892616956556
20
0.0772356739462339
30
0
41
1
10
4.38407038298564
20
0.0502082498386471
30
0
41
1
10
4.3457574800932
20
0.0268171467164393
30
0
41
1
10
4.2693177589461
20
-0.0202728099683043
30
0
41
1
10
4.21862735973514
20
-0.0520630733734038
30
0
41
1
10
4.06741238744596
20
-0.148694794976962
30
0
41
1
10
3.96774183696851
20
-0.214793982160074
30
0
41
1
10
3.82017604895361
20
-0.316796960609594
30
0
41
1
10
3.77127416116431
20
-0.351301498770738
30
0
41
1
10
3.67435456694636
20
-0.421194638345156
30
0
41
1
10
3.62636429858054
20
-0.456562194815547
30
0
41
1
10
3.48388992038059
20
-0.564002495920079
30
0
41
1
10
3.39089715035629
20
-0.637408503815266
30
0
41
1
10
3.20946464811104
20
-0.788266595243499
30
0
41
1
10
3.12102262572887
20
-0.865716784697611
30
0
41
1
10
2.94945266315594
20
-1.02531233247325
30
0
41
1
10
2.86631968890282
20
-1.10745332179559
30
0
41
1
10
2.70641874521419
20
-1.27732661770727
30
0
41
1
10
2.62964179507588
20
-1.36505125285279
30
0
41
1
10
2.53861096185165
20
-1.47902285782595
30
0
41
1
10
2.52065345013378
20
-1.50203436859326
30
0
41
1
10
2.4852675662629
20
-1.54851894398462
30
0
41
1
10
2.46782316067208
20
-1.57201421040864
30
0
41
1
10
2.41644218186946
20
-1.64309276974464
30
0
41
1
10
2.38368495564356
20
-1.69094865021361
30
0
41
1
10
2.29024880091919
20
-1.83602004397252
30
0
41
1
10
2.2343768136127
20
-1.93473125623174
30
0
41
1
10
2.16199872339396
20
-2.08628505090624
30
0
41
1
10
2.13978404096991
20
-2.1373859394586
30
0
41
1
10
2.09957847492944
20
-2.2408639497371
30
0
41
1
10
2.08186597900311
20
-2.29253491401977
30
0
41
1
10
2.03613546701931
20
-2.4471273853201
30
0
41
1
10
2.01547508613601
20
-2.54971178916182
30
0
41
1
10
2.00004034328117
20
-2.70273704558895
30
0
41
1
10
1.99749158467827
20
-2.7536034103648
30
0
41
1
10
1.9977011454676
20
-2.8296710450567
30
0
41
1
10
1.99844784133137
20
-2.85495474154868
30
0
41
1
10
2.00125533951802
20
-2.90487291512864
30
0
41
1
10
2.00331551390332
20
-2.92957824387773
30
0
41
1
10
2.0167998714262
20
-3.05186922558846
30
0
41
1
10
2.0377461368596
20
-3.14575731114053
30
0
41
1
10
2.07535736039526
20
-3.2586145727966
30
0
41
1
10
2.08345271353028
20
-3.28096032137862
30
0
41
1
10
2.10076417230101
20
-3.32520901644176
30
0
41
1
10
2.11000182225078
20
-3.34715692630237
30
0
41
1
10
2.13914366043031
20
-3.41188298898678
30
0
41
1
10
2.16048912636907
20
-3.45361683433308
30
0
41
1
10
2.22966863771242
20
-3.57500257899503
30
0
41
1
10
2.28261879188801
20
-3.65085766772316
30
0
41
1
10
2.37050396998478
20
-3.75831862151455
30
0
41
1
10
2.40121712175113
20
-3.79307981034407
30
0
41
1
10
2.44924352515514
20
-3.84375489979644
30
0
41
1
10
2.46557878373386
20
-3.86040191218547
30
0
41
1
10
2.49887779833443
20
-3.89322427595883
30
0
41
1
10
2.51586445587887
20
-3.90942032847056
30
0
41
1
10
2.60197186013986
20
-3.98895155019133
30
0
41
1
10
2.67457691750161
20
-4.04798607373516
30
0
41
1
10
2.82579072692886
20
-4.15861885497378
30
0
41
1
10
2.90440756896214
20
-4.21020748369179
30
0
41
1
10
3.0666849407047
20
-4.30712677672898
30
0
41
1
10
3.15034973224957
20
-4.35245235700393
30
0
41
1
10
3.32203419128024
20
-4.43769975375588
30
0
41
1
10
3.41005629382801
20
-4.47761865858504
30
0
41
1
10
3.50000000000006
20
-4.51515690368001
30
0
0
SPLINE
5
F5
100
AcDbEntity
8
SK1
62
256
6
ByLayer
370
18
48
1
60
0
100
AcDbSpline
70
4
71
3
72
8
73
4
40
0
40
0
40
0
40
0
40
1
40
1
40
1
40
1
41
1
10
-44.25
20
-1.3926326584467
30
0
41
1
10
-44.5004726454696
20
-1.27388172775162
30
0
41
1
10
-44.7505581365306
20
-1.1549558205499
30
0
41
1
10
-45
20
-1.03573902241428
30
0
0
SPLINE
5
F6
100
AcDbEntity
8
SK1
62
256
6
ByLayer
370
18
48
1
60
0
100
AcDbSpline
70
4
71
3
72
20
73
16
40
0
40
0
40
0
40
0
40
0.0625000000000015
40
0.0625000000000015
40
0.125000000000003
40
0.125000000000003
40
0.250000000000004
40
0.250000000000004
40
0.375000000000004
40
0.375000000000004
40
0.500000000000005
40
0.500000000000005
40
0.750000000000002
40
0.750000000000002
40
1
40
1
40
1
40
1
41
1
10
-44.15
20
-1.53737791862525
30
0
41
1
10
-44.15
20
-1.53335955123188
30
0
41
1
10
-44.150256914617
20
-1.52928527456726
30
0
41
1
10
-44.1512466991598
20
-1.52103303235745
30
0
41
1
10
-44.1519837129547
20
-1.51685948790401
30
0
41
1
10
-44.1547653438365
20
-1.50459636982578
30
0
41
1
10
-44.1574101181635
20
-1.4965585360965
30
0
41
1
10
-44.1638373738149
20
-1.48105594373433
30
0
41
1
10
-44.1675465419208
20
-1.47374195956184
30
0
41
1
10
-44.1757372414659
20
-1.45979400505837
30
0
41
1
10
-44.1802613014627
20
-1.45311904206915
30
0
41
1
10
-44.1944507164524
20
-1.43454524446145
30
0
41
1
10
-44.2047953517103
20
-1.42387903334372
30
0
41
1
10
-44.226908544871
20
-1.40553492647791
30
0
41
1
10
-44.2382901766631
20
-1.39818437215544
30
0
41
1
10
-44.25
20
-1.39263265844667
30
0
0
SPLINE
5
F7
100
AcDbEntity
8
SK1
62
256
6
ByLayer
370
18
48
1
60
0
100
AcDbSpline
70
4
71
3
72
20
73
16
40
0
40
0
40
0
40
0
40
0.250000000000012
40
0.250000000000012
40
0.37500000000001
40
0.37500000000001
40
0.500000000000008
40
0.500000000000008
40
0.625000000000006
40
0.625000000000006
40
0.750000000000004
40
0.750000000000004
40
0.875000000000002
40
0.875000000000002
40
1
40
1
40
1
40
1
41
1
10
-44.25
20
-3.16372875482958
30
0
41
1
10
-44.2382877407461
20
-3.16928162342461
30
0
41
1
10
-44.226914977972
20
-3.17309558492542
30
0
41
1
10
-44.2103576071414
20
-3.17618050768152
30
0
41
1
10
-44.2049751381096
20
-3.1767442957208
30
0
41
1
10
-44.1946946812027
20
-3.17688544545402
30
0
41
1
10
-44.1897650588918
20
-3.17647026965312
30
0
41
1
10
-44.1803754339179
20
-3.1745471412847
30
0
41
1
10
-44.1758982216171
20
-3.17303523705411
30
0
41
1
10
-44.1675998620729
20
-3.16865977069756
30
0
41
1
10
-44.1638730040088
20
-3.16585245223777
30
0
41
1
10
-44.1574568338975
20
-3.15870848054172
30
0
41
1
10
-44.1547730646344
20
-3.15433247059195
30
0
41
1
10
-44.1510607548749
20
-3.14406075523729
30
0
41
1
10
-44.15
20
-3.13800891102002
30
0
41
1
10
-44.15
20
-3.13136440536982
30
0
0
SPLINE
5
F8
100
AcDbEntity
8
SK1
62
256
6
ByLayer
370
18
48
1
60
0
100
AcDbSpline
70
4
71
3
72
8
73
4
40
0
40
0
40
0
40
0
40
1
40
1
40
1
40
1
41
1
10
-45
20
-2.80683511879713
30
0
41
1
10
-44.7505652914626
20
-2.92604849734602
30
0
41
1
10
-44.5004712384345
20
-3.04497849122024
30
0
41
1
10
-44.25
20
-3.16372875482955
30
0
0
SPLINE
5
F9
100
AcDbEntity
8
1
62
256
6
ByLayer
370
18
48
1
60
0
100
AcDbSpline
70
4
71
3
72
14
73
10
40
0
40
0
40
0
40
0
40
0.033415706349906
40
0.161314302498897
40
0.343362206722863
40
0.474317026486979
40
0.610925448595763
40
0.805321342276261
40
1
40
1
40
1
40
1
41
1
10
55.3353943966474
20
0.86360145508857
30
0
41
1
10
55.2988365678484
20
0.875706916931478
30
0
41
1
10
55.1224287651519
20
0.934514515258854
30
0
41
1
10
54.7478917974822
20
1.06502527712644
30
0
41
1
10
54.2683017438097
20
1.23712669256733
30
0
41
1
10
53.781239904817
20
1.41906754813868
30
0
41
1
10
53.2807937755908
20
1.61170288794651
30
0
41
1
10
52.7126420060287
20
1.83809932000784
30
0
41
1
10
52.2950274640241
20
2.01200600207764
30
0
41
1
10
52.0866476544946
20
2.10060324397207
30
0
0
SPLINE
5
FA
100
AcDbEntity
8
1
62
256
6
ByLayer
370
18
48
1
60
0
100
AcDbSpline
70
4
71
3
72
34
73
30
40
0
40
0
40
0
40
0
40
6.1894947145E-06
40
2.31742923706E-05
40
4.84056207708E-05
40
6.71017912625E-05
40
0.0001922355701152
40
0.0002900341533901
40
0.0004647705952673
40
0.0007771095030722
40
0.001335862220037
40
0.0023369389417188
40
0.0041356784448123
40
0.007386271714137
40
0.02818586779519
40
0.0721198066951012
40
0.168777186278221
40
0.263667063707808
40
0.347406393460498
40
0.424564408410134
40
0.517176402790363
40
0.600806138318851
40
0.645315898629986
40
0.685991822590674
40
0.724277116178757
40
0.771533933989292
40
0.832766649698036
40
0.915667501609026
40
1
40
1
40
1
40
1
41
1
10
25.0831846873193
20
0.134512208441293
30
0
41
1
10
25.0831872266803
20
0.134511927714584
30
0
41
1
10
25.0831952712656
20
0.13451156752015
30
0
41
1
10
25.0832003826425
20
0.13451740204593
30
0
41
1
10
25.0831830708909
20
0.134522583160049
30
0
41
1
10
25.0829977959347
20
0.134580408325491
30
0
41
1
10
25.082647284072
20
0.134683951427064
30
0
41
1
10
25.0821466629172
20
0.134835797253601
30
0
41
1
10
25.0813820191057
20
0.135065891856499
30
0
41
1
10
25.0800252224514
20
0.13547442691609
30
0
41
1
10
25.0775681276553
20
0.136211475884409
30
0
41
1
10
25.0731094533629
20
0.13754243227774
30
0
41
1
10
25.0648818625452
20
0.139976460067544
30
0
41
1
10
25.0285993463953
20
0.15056874933228
30
0
41
1
10
24.9102232258558
20
0.183215721394788
30
0
41
1
10
24.6013880545474
20
0.268580989178474
30
0
41
1
10
24.1517947078256
20
0.398254055044788
30
0
41
1
10
23.6271399510987
20
0.55747262716244
30
0
41
1
10
23.1413378241533
20
0.711821502548986
30
0
41
1
10
22.6614399610856
20
0.870351517465537
30
0
41
1
10
22.1839644681847
20
1.0343938231849
30
0
41
1
10
21.7693785558785
20
1.18241196159022
30
0
41
1
10
21.4526456044151
20
1.29857792501258
30
0
41
1
10
21.2228928031316
20
1.38431104918212
30
0
41
1
10
20.9918761569423
20
1.47186041517315
30
0
41
1
10
20.721400342496
20
1.57628463284715
30
0
41
1
10
20.3673372780339
20
1.71598550778756
30
0
41
1
10
19.943981720701
20
1.88695471520953
30
0
41
1
10
19.6346813539195
20
2.01626232742271
30
0
41
1
10
19.4787569486964
20
2.08247811456738
30
0
0
SPLINE
5
FB
100
AcDbEntity
8
1
62
256
6
ByLayer
370
18
48
1
60
0
100
AcDbSpline
70
4
71
3
72
36
73
32
40
0
40
0
40
0
40
0
40
0.0166372227681065
40
0.0323667936208338
40
0.0481778847705092
40
0.0774038255259068
40
0.107585690815992
40
0.138256429699683
40
0.173982608993103
40
0.20656695763045
40
0.242361085055258
40
0.279935691231488
40
0.316831367420561
40
0.352197017141844
40
0.391049000788761
40
0.430874605858599
40
0.468825886681047
40
0.512242458034161
40
0.566148704786341
40
0.610959110639961
40
0.669610901046569
40
0.733305820243691
40
0.788401700434232
40
0.835639818237172
40
0.865176499950172
40
0.892646607924422
40
0.915849883014472
40
0.938966855920467
40
0.95619236225667
40
0.977198485347694
40
1
40
1
40
1
40
1
41
1
10
24.0246001149081
20
-4.87305771167334
30
0
41
1
10
24.0950545842076
20
-4.87255040462858
30
0
41
1
10
24.2417622512763
20
-4.87132941926868
30
0
41
1
10
24.4930569338018
20
-4.86669915534972
30
0
41
1
10
24.8316920882177
20
-4.8654258809251
30
0
41
1
10
25.2344777746006
20
-4.87146156857449
30
0
41
1
10
25.722066048967
20
-4.87333159271449
30
0
41
1
10
26.2483535289798
20
-4.87410703689017
30
0
41
1
10
26.7910362811569
20
-4.87396590583873
30
0
41
1
10
27.3653560104469
20
-4.87484288153308
30
0
41
1
10
27.9469633472136
20
-4.87556149085114
30
0
41
1
10
28.5545154156451
20
-4.87529924028107
30
0
41
1
10
29.1594173442831
20
-4.87509530743168
30
0
41
1
10
29.7714329104692
20
-4.87516249733778
30
0
41
1
10
30.3995605608819
20
-4.87727787873632
30
0
41
1
10
31.0419277139235
20
-4.87746287121408
30
0
41
1
10
31.7093962679072
20
-4.876955247094
30
0
41
1
10
32.4544931131788
20
-4.87607595082289
30
0
41
1
10
33.237303883653
20
-4.87707145359775
30
0
41
1
10
34.1040796246489
20
-4.87803795308827
30
0
41
1
10
35.0247573624121
20
-4.88012891527302
30
0
41
1
10
36.002086924751
20
-4.87862719163988
30
0
41
1
10
36.9165388978331
20
-4.87759208589583
30
0
41
1
10
37.6429083974362
20
-4.87811123233794
30
0
41
1
10
38.2169727970485
20
-4.88145473475501
30
0
41
1
10
38.6590390668201
20
-4.88171242376856
30
0
41
1
10
39.0643396405428
20
-4.88118141966598
30
0
41
1
10
39.4150771275712
20
-4.88059405025703
30
0
41
1
10
39.75133674615
20
-4.88033772372026
30
0
41
1
10
40.0853882787733
20
-4.87975039240825
30
0
41
1
10
40.326733369023
20
-4.87977035438385
30
0
41
1
10
40.4526050481796
20
-4.87983759444475
30
0
0
SPLINE
5
FC
100
AcDbEntity
8
1
62
256
6
ByLayer
370
18
48
1
60
0
100
AcDbSpline
70
4
71
3
72
15
73
11
40
0
40
0
40
0
40
0
40
0.0157481539300225
40
0.119654776525439
40
0.207313109925422
40
0.292221398207151
40
0.375998069134842
40
0.562795867598819
40
0.784017447164484
40
1
40
1
40
1
40
1
41
1
10
7.95690552771518
20
4.86346877143032
30
0
41
1
10
7.93479187609867
20
4.86345135710317
30
0
41
1
10
7.7668659578128
20
4.86334010262897
30
0
41
1
10
7.47728765194523
20
4.86405539389892
30
0
41
1
10
7.09342567040429
20
4.86405027902143
30
0
41
1
10
6.73334301631868
20
4.86364167580416
30
0
41
1
10
6.23435555880147
20
4.86293011539217
30
0
41
1
10
5.54392116646986
20
4.86250216024089
30
0
41
1
10
4.66781987765029
20
4.86320868450338
30
0
41
1
10
4.05399244071262
20
4.86173661041155
30
0
41
1
10
3.75075407976342
20
4.86076754660391
30
0
0
SPLINE
5
FD
100
AcDbEntity
8
1
62
256
6
ByLayer
370
18
48
1
60
0
100
AcDbSpline
70
4
71
3
72
27
73
23
40
0
40
0
40
0
40
0
40
0.0071639788513932
40
0.0572211076515332
40
0.10268254582496
40
0.140806510047714
40
0.168896931953736
40
0.202651242648305
40
0.24459907031577
40
0.285949721293746
40
0.349557837410627
40
0.414508218177547
40
0.473613045889167
40
0.530646951653787
40
0.581007302748515
40
0.63371206094514
40
0.70223171796127
40
0.778345377837351
40
0.848288542635413
40
0.919596267472266
40
0.9693209106774
40
1
40
1
40
1
40
1
41
1
10
40.6783740163636
20
4.87824326939304
30
0
41
1
10
40.6457856827712
20
4.87815977758373
30
0
41
1
10
40.3856924167742
20
4.87758714193669
30
0
41
1
10
39.9318842557919
20
4.88065863034223
30
0
41
1
10
39.3225406593619
20
4.88076542756662
30
0
41
1
10
38.8157724170123
20
4.88160878178107
30
0
41
1
10
38.3615860789234
20
4.88169588068087
30
0
41
1
10
37.8901284693151
20
4.87961065358564
30
0
41
1
10
37.3584063452173
20
4.87772230679818
30
0
41
1
10
36.6910773677187
20
4.8778269402334
30
0
41
1
10
35.9192610649617
20
4.87874861698575
30
0
41
1
10
35.0667932447969
20
4.88012164703878
30
0
41
1
10
34.244187394632
20
4.87800113291908
30
0
41
1
10
33.4878563032991
20
4.87756137219347
30
0
41
1
10
32.760602154731
20
4.87620135153054
30
0
41
1
10
31.9811692366896
20
4.87654605015683
30
0
41
1
10
31.084750733932
20
4.87783921375643
30
0
41
1
10
30.1100268601548
20
4.87617214034177
30
0
41
1
10
29.1226416978966
20
4.87477512622743
30
0
41
1
10
28.255121910493
20
4.87551720525272
30
0
41
1
10
27.5659712855814
20
4.87544113337464
30
0
41
1
10
27.2007451279008
20
4.8748993762903
30
0
41
1
10
27.061382433508
20
4.87469907971084
30
0
0
SPLINE
5
FE
100
AcDbEntity
8
1
62
256
6
ByLayer
370
18
48
1
60
0
100
AcDbSpline
70
4
71
3
72
16
73
12
40
0
40
0
40
0
40
0
40
0.152391408497285
40
0.332672100434937
40
0.486618930345044
40
0.624002546030472
40
0.7077790798923
40
0.792687229256731
40
0.880345419240107
40
0.984251871835306
40
1
40
1
40
1
40
1
41
1
10
3.75074956725018
20
-4.86086131890676
30
0
41
1
10
3.96470591188674
20
-4.86160170428974
30
0
41
1
10
4.4317748081387
20
-4.86282229429816
30
0
41
1
10
5.11498439491658
20
-4.86288351515347
30
0
41
1
10
5.77712091826152
20
-4.86254039422133
30
0
41
1
10
6.3037168565518
20
-4.86304144763855
30
0
41
1
10
6.73334313658444
20
-4.86363901882271
30
0
41
1
10
7.09342563689199
20
-4.86405101939428
30
0
41
1
10
7.47728766343732
20
-4.86405514001075
30
0
41
1
10
7.76686595732554
20
-4.8633401133888
30
0
41
1
10
7.93479187609876
20
-4.86345135710314
30
0
41
1
10
7.95690552771521
20
-4.86346877143032
30
0
0
LINE
5
82
100
AcDbEntity
8
81
62
256
6
ByLayer
370
18
48
1
60
0
100
AcDbLine
10
57
20
0
30
0
11
60
21
0
31
0
39
0
210
0
220
0
230
1
0
LINE
5
83
100
AcDbEntity
8
80
62
256
6
ByLayer
370
18
48
1
60
0
100
AcDbLine
10
0
20
0
30
0
11
-3
21
0
31
0
39
0
210
0
220
0
230
1
0
LINE
5
84
100
AcDbEntity
8
SK4
62
256
6
ByLayer
370
18
48
0.05
60
0
100
AcDbLine
10
-48
20
0
30
0
11
60
21
0
31
0
39
0
210
0
220
0
230
1
0
LINE
5
86
100
AcDbEntity
8
4
62
256
6
ByLayer
370
18
48
0.05
60
0
100
AcDbLine
10
0
20
0
30
0
11
57
21
0
31
0
39
0
210
0
220
0
230
1
0
LINE
5
88
100
AcDbEntity
8
1
62
256
6
ByLayer
370
13
48
1
60
0
100
AcDbLine
10
56.928183
20
0.061997
30
0
11
55.650906
21
1.47189
31
0
39
0
210
0
220
0
230
1
0
LINE
5
89
100
AcDbEntity
8
1
62
256
6
ByLayer
370
13
48
1
60
0
100
AcDbLine
10
0.717601
20
5.553763
30
0
11
0.717601
21
-5.553763
31
0
39
0
210
0
220
0
230
1
0
LINE
5
8A
100
AcDbEntity
8
1
62
256
6
ByLayer
370
13
48
1
60
0
100
AcDbLine
10
0.713068
20
5.562677
30
0
11
0.713068
21
-5.562677
31
0
39
0
210
0
220
0
230
1
0
LINE
5
8B
100
AcDbEntity
8
1
62
256
6
ByLayer
370
18
48
1
60
0
100
AcDbLine
10
0
20
6
30
0
11
0
21
-6
31
0
39
0
210
0
220
0
230
1
0
LINE
5
8C
100
AcDbEntity
8
1
62
256
6
ByLayer
370
13
48
1
60
0
100
AcDbLine
10
1.431169
20
5.11644
30
0
11
1.431169
21
-5.11644
31
0
39
0
210
0
220
0
230
1
0
LINE
5
8D
100
AcDbEntity
8
1
62
256
6
ByLayer
370
18
48
1
60
0
100
AcDbLine
10
22.6
20
5.128816
30
0
11
22.6
21
5.119414
31
0
39
0
210
0
220
0
230
1
0
LINE
5
8E
100
AcDbEntity
8
1
62
256
6
ByLayer
370
18
48
1
60
0
100
AcDbLine
10
3.5
20
-4.515157
30
0
11
3.5
21
-5.117733
31
0
39
0
210
0
220
0
230
1
0
LINE
5
8F
100
AcDbEntity
8
SK1
62
256
6
ByLayer
370
18
48
1
60
0
100
AcDbLine
10
-45
20
-1.035751
30
0
11
-45
21
-2.806835
31
0
39
0
210
0
220
0
230
1
0
LINE
5
91
100
AcDbEntity
8
SK1
62
256
6
ByLayer
370
13
48
1
60
0
100
AcDbLine
10
-44.25
20
-3.163729
30
0
11
-44.25
21
-1.392586
31
0
39
0
210
0
220
0
230
1
0
LINE
5
92
100
AcDbEntity
8
SK1
62
256
6
ByLayer
370
18
48
1
60
0
100
AcDbLine
10
-44.15
20
-3.131364
30
0
11
-44.15
21
-1.537378
31
0
39
0
210
0
220
0
230
1
0
LINE
5
93
100
AcDbEntity
8
SK1
62
256
6
ByLayer
370
18
48
1
60
0
100
AcDbLine
10
-45
20
-4.255
30
0
11
-45
21
-2.806835
31
0
39
0
210
0
220
0
230
1
0
LINE
5
94
100
AcDbEntity
8
SK1
62
256
6
ByLayer
370
18
48
1
60
0
100
AcDbLine
10
-45
20
4.255
30
0
11
-45
21
-1.035739
31
0
39
0
210
0
220
0
230
1
0
LINE
5
95
100
AcDbEntity
8
SK1
62
256
6
ByLayer
370
18
48
1
60
0
100
AcDbLine
10
-43.255
20
-6
30
0
11
-43.255
21
6
31
0
39
0
210
0
220
0
230
1
0
LINE
5
96
100
AcDbEntity
8
SK1
62
256
6
ByLayer
370
18
48
1
60
0
100
AcDbLine
10
0
20
6
30
0
11
0
21
-6
31
0
39
0
210
0
220
0
230
1
0
LINE
5
97
100
AcDbEntity
8
1
62
256
6
ByLayer
370
18
48
1
60
0
100
AcDbLine
10
0.717601
20
5.553763
30
0
11
0.713068
21
5.562677
31
0
39
0
210
0
220
0
230
1
0
LINE
5
98
100
AcDbEntity
8
1
62
256
6
ByLayer
370
18
48
1
60
0
100
AcDbLine
10
0.713068
20
-5.562677
30
0
11
0.717601
21
-5.553763
31
0
39
0
210
0
220
0
230
1
0
LINE
5
99
100
AcDbEntity
8
1
62
256
6
ByLayer
370
18
48
1
60
0
100
AcDbLine
10
1.431169
20
-5.11644
30
0
11
3.5
21
-5.117733
31
0
39
0
210
0
220
0
230
1
0
LINE
5
9A
100
AcDbEntity
8
1
62
256
6
ByLayer
370
18
48
1
60
0
100
AcDbLine
10
21.942917
20
-5.12926
30
0
11
23.893097
21
-5.130479
31
0
39
0
210
0
220
0
230
1
0
LINE
5
9B
100
AcDbEntity
8
1
62
256
6
ByLayer
370
18
48
1
60
0
100
AcDbLine
10
23.893097
20
5.130479
30
0
11
21.942917
21
5.12926
31
0
39
0
210
0
220
0
230
1
0
LINE
5
9C
100
AcDbEntity
8
1
62
256
6
ByLayer
370
18
48
1
60
0
100
AcDbLine
10
3.5
20
5.117733
30
0
11
1.431169
21
5.11644
31
0
39
0
210
0
220
0
230
1
0
LINE
5
9D
100
AcDbEntity
8
SK1
62
256
6
ByLayer
370
18
48
1
60
0
100
AcDbLine
10
-45
20
-4.255
30
0
11
-43.255
21
-6
31
0
39
0
210
0
220
0
230
1
0
LINE
5
9E
100
AcDbEntity
8
SK1
62
256
6
ByLayer
370
18
48
1
60
0
100
AcDbLine
10
-43.255
20
6
30
0
11
-45
21
4.255
31
0
39
0
210
0
220
0
230
1
0
LINE
5
9F
100
AcDbEntity
8
SK1
62
256
6
ByLayer
370
18
48
1
60
0
100
AcDbLine
10
-43.255
20
-6
30
0
11
0
21
-6
31
0
39
0
210
0
220
0
230
1
0
LINE
5
A0
100
AcDbEntity
8
SK1
62
256
6
ByLayer
370
18
48
1
60
0
100
AcDbLine
10
0
20
6
30
0
11
-43.255
21
6
31
0
39
0
210
0
220
0
230
1
0
LINE
5
A1
100
AcDbEntity
8
2
62
256
6
ByLayer
370
13
48
1
60
0
100
AcDbLine
10
70.75
20
-5.15
30
0
11
70.75
21
23.239532
31
0
39
0
210
0
220
0
230
1
0
LINE
5
A3
100
AcDbEntity
8
2
62
256
6
ByLayer
370
13
48
1
60
0
100
AcDbLine
10
58.5875
20
5.15
30
0
11
72.75
21
5.15
31
0
39
0
210
0
220
0
230
1
0
LINE
5
A4
100
AcDbEntity
8
2
62
256
6
ByLayer
370
13
48
1
60
0
100
AcDbLine
10
58.5875
20
-5.15
30
0
11
72.75
21
-5.15
31
0
39
0
210
0
220
0
230
1
0
LINE
5
A5
100
AcDbEntity
8
1
62
256
6
ByLayer
370
18
48
1
60
1
100
AcDbLine
10
70.75
20
5.15
30
0
11
71.210784
21
1.650002
31
0
39
0
210
0
220
0
230
1
0
LINE
5
A6
100
AcDbEntity
8
1
62
256
6
ByLayer
370
18
48
1
60
1
100
AcDbLine
10
71.210784
20
1.650002
30
0
11
70.289216
21
1.649998
31
0
39
0
210
0
220
0
230
1
0
LINE
5
A7
100
AcDbEntity
8
1
62
256
6
ByLayer
370
18
48
1
60
1
100
AcDbLine
10
70.289216
20
1.649998
30
0
11
70.75
21
5.15
31
0
39
0
210
0
220
0
230
1
0
LINE
5
A8
100
AcDbEntity
8
1
62
256
6
ByLayer
370
18
48
1
60
1
100
AcDbLine
10
70.75
20
-5.15
30
0
11
70.289216
21
-1.650002
31
0
39
0
210
0
220
0
230
1
0
LINE
5
A9
100
AcDbEntity
8
1
62
256
6
ByLayer
370
18
48
1
60
1
100
AcDbLine
10
70.289216
20
-1.650002
30
0
11
71.210784
21
-1.649998
31
0
39
0
210
0
220
0
230
1
0
LINE
5
AA
100
AcDbEntity
8
1
62
256
6
ByLayer
370
18
48
1
60
1
100
AcDbLine
10
71.210784
20
-1.649998
30
0
11
70.75
21
-5.15
31
0
39
0
210
0
220
0
230
1
0
LINE
5
AB
100
AcDbEntity
8
SK2
62
256
6
ByLayer
370
13
48
1
60
0
100
AcDbLine
10
-53.25
20
-6
30
0
11
-53.25
21
22.056066
31
0
39
0
210
0
220
0
230
1
0
LINE
5
AD
100
AcDbEntity
8
SK2
62
256
6
ByLayer
370
13
48
1
60
0
100
AcDbLine
10
-46.5875
20
6
30
0
11
-55.25
21
6
31
0
39
0
210
0
220
0
230
1
0
LINE
5
AE
100
AcDbEntity
8
SK2
62
256
6
ByLayer
370
13
48
1
60
0
100
AcDbLine
10
-46.5875
20
-6
30
0
11
-55.25
21
-6
31
0
39
0
210
0
220
0
230
1
0
LINE
5
AF
100
AcDbEntity
8
1
62
256
6
ByLayer
370
18
48
1
60
1
100
AcDbLine
10
-53.25
20
6
30
0
11
-52.789216
21
2.500002
31
0
39
0
210
0
220
0
230
1
0
LINE
5
B0
100
AcDbEntity
8
1
62
256
6
ByLayer
370
18
48
1
60
1
100
AcDbLine
10
-52.789216
20
2.500002
30
0
11
-53.710784
21
2.499998
31
0
39
0
210
0
220
0
230
1
0
LINE
5
B1
100
AcDbEntity
8
1
62
256
6
ByLayer
370
18
48
1
60
1
100
AcDbLine
10
-53.710784
20
2.499998
30
0
11
-53.25
21
6
31
0
39
0
210
0
220
0
230
1
0
LINE
5
B2
100
AcDbEntity
8
1
62
256
6
ByLayer
370
18
48
1
60
1
100
AcDbLine
10
-53.25
20
-6
30
0
11
-53.710784
21
-2.500002
31
0
39
0
210
0
220
0
230
1
0
LINE
5
B3
100
AcDbEntity
8
1
62
256
6
ByLayer
370
18
48
1
60
1
100
AcDbLine
10
-53.710784
20
-2.500002
30
0
11
-52.789216
21
-2.499998
31
0
39
0
210
0
220
0
230
1
0
LINE
5
B4
100
AcDbEntity
8
1
62
256
6
ByLayer
370
18
48
1
60
1
100
AcDbLine
10
-52.789216
20
-2.499998
30
0
11
-53.25
21
-6
31
0
39
0
210
0
220
0
230
1
0
LINE
5
B5
100
AcDbEntity
8
SK2
62
256
6
ByLayer
370
13
48
1
60
0
100
AcDbLine
10
57.542843
20
1.491804
30
0
11
69.170954
21
33.447391
31
0
39
0
210
0
220
0
230
1
0
LINE
5
B6
100
AcDbEntity
8
SK2
62
256
6
ByLayer
370
13
48
1
60
0
100
AcDbLine
10
57.542843
20
-1.491804
30
0
11
69.170954
21
-33.447391
31
0
39
0
210
0
220
0
230
1
0
LINE
5
B7
100
AcDbEntity
8
1
62
256
6
ByLayer
370
18
48
1
60
1
100
AcDbLine
10
68.487057
20
31.567953
30
0
11
71.912594
21
30.714719
31
0
39
0
210
0
220
0
230
1
0
LINE
5
B8
100
AcDbEntity
8
1
62
256
6
ByLayer
370
18
48
1
60
1
100
AcDbLine
10
71.912594
20
30.714719
30
0
11
71.575041
21
29.857197
31
0
39
0
210
0
220
0
230
1
0
LINE
5
B9
100
AcDbEntity
8
1
62
256
6
ByLayer
370
18
48
1
60
1
100
AcDbLine
10
71.575041
20
29.857197
30
0
11
68.487057
21
31.567953
31
0
39
0
210
0
220
0
230
1
0
LINE
5
BA
100
AcDbEntity
8
1
62
256
6
ByLayer
370
18
48
1
60
1
100
AcDbLine
10
68.487057
20
-31.567953
30
0
11
71.575038
21
-29.857198
31
0
39
0
210
0
220
0
230
1
0
LINE
5
BB
100
AcDbEntity
8
1
62
256
6
ByLayer
370
18
48
1
60
1
100
AcDbLine
10
71.575038
20
-29.857198
30
0
11
71.912597
21
-30.714718
31
0
39
0
210
0
220
0
230
1
0
LINE
5
BC
100
AcDbEntity
8
1
62
256
6
ByLayer
370
18
48
1
60
1
100
AcDbLine
10
71.912597
20
-30.714718
30
0
11
68.487057
21
-31.567953
31
0
39
0
210
0
220
0
230
1
0
LINE
5
FF
100
AcDbEntity
8
1
62
256
6
ByLayer
370
13
48
0.05
60
0
100
AcDbLine
10
-51.5
20
0
30
0
11
61.683441
21
0
31
0
39
0
210
0
220
0
230
1
0
LINE
5
104
100
AcDbEntity
8
1
62
256
6
ByLayer
370
18
48
1
60
1
100
AcDbLine
10
70.75
20
5.15
30
0
11
71.210784
21
1.650002
31
0
39
0
210
0
220
0
230
1
0
LINE
5
105
100
AcDbEntity
8
1
62
256
6
ByLayer
370
18
48
1
60
1
100
AcDbLine
10
71.210784
20
1.650002
30
0
11
70.289216
21
1.649998
31
0
39
0
210
0
220
0
230
1
0
LINE
5
106
100
AcDbEntity
8
1
62
256
6
ByLayer
370
18
48
1
60
1
100
AcDbLine
10
70.289216
20
1.649998
30
0
11
70.75
21
5.15
31
0
39
0
210
0
220
0
230
1
0
LINE
5
108
100
AcDbEntity
8
1
62
256
6
ByLayer
370
18
48
1
60
1
100
AcDbLine
10
70.75
20
-5.15
30
0
11
70.289216
21
-1.650002
31
0
39
0
210
0
220
0
230
1
0
LINE
5
109
100
AcDbEntity
8
1
62
256
6
ByLayer
370
18
48
1
60
1
100
AcDbLine
10
70.289216
20
-1.650002
30
0
11
71.210784
21
-1.649998
31
0
39
0
210
0
220
0
230
1
0
LINE
5
10A
100
AcDbEntity
8
1
62
256
6
ByLayer
370
18
48
1
60
1
100
AcDbLine
10
71.210784
20
-1.649998
30
0
11
70.75
21
-5.15
31
0
39
0
210
0
220
0
230
1
0
LINE
5
10E
100
AcDbEntity
8
1
62
256
6
ByLayer
370
18
48
1
60
1
100
AcDbLine
10
-53.25
20
6
30
0
11
-52.789216
21
2.500002
31
0
39
0
210
0
220
0
230
1
0
LINE
5
10F
100
AcDbEntity
8
1
62
256
6
ByLayer
370
18
48
1
60
1
100
AcDbLine
10
-52.789216
20
2.500002
30
0
11
-53.710784
21
2.499998
31
0
39
0
210
0
220
0
230
1
0
LINE
5
110
100
AcDbEntity
8
1
62
256
6
ByLayer
370
18
48
1
60
1
100
AcDbLine
10
-53.710784
20
2.499998
30
0
11
-53.25
21
6
31
0
39
0
210
0
220
0
230
1
0
LINE
5
112
100
AcDbEntity
8
1
62
256
6
ByLayer
370
18
48
1
60
1
100
AcDbLine
10
-53.25
20
-6
30
0
11
-53.710784
21
-2.500002
31
0
39
0
210
0
220
0
230
1
0
LINE
5
113
100
AcDbEntity
8
1
62
256
6
ByLayer
370
18
48
1
60
1
100
AcDbLine
10
-53.710784
20
-2.500002
30
0
11
-52.789216
21
-2.499998
31
0
39
0
210
0
220
0
230
1
0
LINE
5
114
100
AcDbEntity
8
1
62
256
6
ByLayer
370
18
48
1
60
1
100
AcDbLine
10
-52.789216
20
-2.499998
30
0
11
-53.25
21
-6
31
0
39
0
210
0
220
0
230
1
0
LINE
5
117
100
AcDbEntity
8
1
62
256
6
ByLayer
370
18
48
1
60
1
100
AcDbLine
10
68.487057
20
31.567953
30
0
11
71.912594
21
30.714719
31
0
39
0
210
0
220
0
230
1
0
LINE
5
118
100
AcDbEntity
8
1
62
256
6
ByLayer
370
18
48
1
60
1
100
AcDbLine
10
71.912594
20
30.714719
30
0
11
71.575041
21
29.857197
31
0
39
0
210
0
220
0
230
1
0
LINE
5
119
100
AcDbEntity
8
1
62
256
6
ByLayer
370
18
48
1
60
1
100
AcDbLine
10
71.575041
20
29.857197
30
0
11
68.487057
21
31.567953
31
0
39
0
210
0
220
0
230
1
0
LINE
5
11B
100
AcDbEntity
8
1
62
256
6
ByLayer
370
18
48
1
60
1
100
AcDbLine
10
68.487057
20
-31.567953
30
0
11
71.575038
21
-29.857198
31
0
39
0
210
0
220
0
230
1
0
LINE
5
11C
100
AcDbEntity
8
1
62
256
6
ByLayer
370
18
48
1
60
1
100
AcDbLine
10
71.575038
20
-29.857198
30
0
11
71.912597
21
-30.714718
31
0
39
0
210
0
220
0
230
1
0
LINE
5
11D
100
AcDbEntity
8
1
62
256
6
ByLayer
370
18
48
1
60
1
100
AcDbLine
10
71.912597
20
-30.714718
30
0
11
68.487057
21
-31.567953
31
0
39
0
210
0
220
0
230
1
0
MTEXT
5
100
100
AcDbEntity
8
2
62
256
6
ByLayer
370
18
48
1
60
0
100
AcDbMText
10
69.185366
20
9.084844
30
0
210
0
220
0
230
1
1
%%c
40
3.5
41
0
44
1.084337
50
90
71
7
72
5
7
iso_b_vert
0
MTEXT
5
103
100
AcDbEntity
8
2
62
256
6
ByLayer
370
18
48
1
60
0
100
AcDbMText
10
69.185366
20
16.0575
30
0
210
0
220
0
230
1
1
\W0.6563;10.3
40
3.5
41
0
44
1.084337
50
90
71
7
72
5
7
iso_b_vert
0
MTEXT
5
10C
100
AcDbEntity
8
SK2
62
256
6
ByLayer
370
18
48
1
60
0
100
AcDbMText
10
-54.814634
20
11.934844
30
0
210
0
220
0
230
1
1
%%c
40
3.5
41
0
44
1.084337
50
90
71
7
72
5
7
iso_b_vert
0
MTEXT
5
10D
100
AcDbEntity
8
SK2
62
256
6
ByLayer
370
18
48
1
60
0
100
AcDbMText
10
-54.814634
20
18.9075
30
0
210
0
220
0
230
1
1
\W0.5321;12
40
3.5
41
0
44
1.084337
50
90
71
7
72
5
7
iso_b_vert
0
MTEXT
5
116
100
AcDbEntity
8
SK2
62
256
6
ByLayer
370
18
48
1
60
0
100
AcDbMText
10
86.521329
20
-2.467366
30
0
210
0
220
0
230
1
1
\W0.7825;140%%d
40
3.5
41
0
44
1.084337
50
0
71
7
72
5
7
iso_b_vert
0
MTEXT
5
11F
100
AcDbEntity
8
SK6
62
256
6
ByLayer
370
18
48
1
60
0
100
AcDbMText
10
-22.71544
20
-67.451612
30
0
210
0
220
0
230
1
1
\W0.7442;860.1-1030-040A1-MM M2BM
40
3.5
41
0
44
1.084337
50
0
71
7
72
5
7
iso_b_vert
0
HATCH
5
107
100
AcDbEntity
8
2
62
256
6
ByLayer
370
13
48
1
60
0
100
AcDbHatch
10
0
20
0
30
0
210
0
220
0
230
1
2
ANSI31
70
0
71
0
91
1
92
5
93
3
72
1
10
70.75
20
5.15000000000001
11
71.2107837415528
21
1.65000169255319
72
1
10
71.2107837415528
20
1.65000169255319
11
70.2892162584472
21
1.64999830744682
72
1
10
70.2892162584472
20
1.64999830744682
11
70.75
21
5.15000000000001
97
0
75
0
76
1
52
0
41
0.0062
77
0
78
1
53
45
43
0
44
0
45
-0.0139193969876572
46
0.0139193969876572
79
0
47
0
98
1
10
0
20
0
0
HATCH
5
10B
100
AcDbEntity
8
2
62
256
6
ByLayer
370
13
48
1
60
0
100
AcDbHatch
10
0
20
0
30
0
210
0
220
0
230
1
2
ANSI31
70
0
71
0
91
1
92
5
93
3
72
1
10
70.75
20
-5.15000000000001
11
70.2892162584472
21
-1.65000169255319
72
1
10
70.2892162584472
20
-1.65000169255319
11
71.2107837415528
21
-1.64999830744682
72
1
10
71.2107837415528
20
-1.64999830744682
11
70.75
21
-5.15000000000001
97
0
75
0
76
1
52
0
41
0.0062
77
0
78
1
53
45
43
0
44
0
45
-0.0139193969876572
46
0.0139193969876572
79
0
47
0
98
1
10
0
20
0
0
HATCH
5
111
100
AcDbEntity
8
SK2
62
256
6
ByLayer
370
13
48
1
60
0
100
AcDbHatch
10
0
20
0
30
0
210
0
220
0
230
1
2
ANSI31
70
0
71
0
91
1
92
5
93
3
72
1
10
-53.25
20
6
11
-52.7892162584472
21
2.50000169255318
72
1
10
-52.7892162584472
20
2.50000169255318
11
-53.7107837415528
21
2.49999830744682
72
1
10
-53.7107837415528
20
2.49999830744682
11
-53.25
21
6
97
0
75
0
76
1
52
0
41
0.0062
77
0
78
1
53
45
43
0
44
0
45
-0.0139193969876572
46
0.0139193969876572
79
0
47
0
98
1
10
0
20
0
0
HATCH
5
115
100
AcDbEntity
8
SK2
62
256
6
ByLayer
370
13
48
1
60
0
100
AcDbHatch
10
0
20
0
30
0
210
0
220
0
230
1
2
ANSI31
70
0
71
0
91
1
92
5
93
3
72
1
10
-53.25
20
-6
11
-53.7107837415528
21
-2.50000169255318
72
1
10
-53.7107837415528
20
-2.50000169255318
11
-52.7892162584472
21
-2.49999830744682
72
1
10
-52.7892162584472
20
-2.49999830744682
11
-53.25
21
-6
97
0
75
0
76
1
52
0
41
0.0062
77
0
78
1
53
45
43
0
44
0
45
-0.0139193969876572
46
0.0139193969876572
79
0
47
0
98
1
10
0
20
0
0
HATCH
5
11A
100
AcDbEntity
8
SK2
62
256
6
ByLayer
370
13
48
1
60
0
100
AcDbHatch
10
0
20
0
30
0
210
0
220
0
230
1
2
ANSI31
70
0
71
0
91
1
92
5
93
3
72
1
10
68.4870572331595
20
31.5679534422446
11
71.9125938044027
21
30.7147190033676
72
1
10
71.9125938044027
20
30.7147190033676
11
71.5750410892359
21
29.8571965311183
72
1
10
71.5750410892359
20
29.8571965311183
11
68.4870572331595
21
31.5679534422446
97
0
75
0
76
1
52
0
41
0.0062
77
0
78
1
53
45
43
0
44
0
45
-0.0139193969876572
46
0.0139193969876572
79
0
47
0
98
1
10
0
20
0
0
HATCH
5
11E
100
AcDbEntity
8
SK2
62
256
6
ByLayer
370
13
48
1
60
0
100
AcDbHatch
10
0
20
0
30
0
210
0
220
0
230
1
2
ANSI31
70
0
71
0
91
1
92
5
93
3
72
1
10
68.4870572331595
20
-31.5679534422446
11
71.5750379393845
21
-29.8571977710303
72
1
10
71.5750379393845
20
-29.8571977710303
11
71.912596954254
21
-30.7147177634557
72
1
10
71.912596954254
20
-30.7147177634557
11
68.4870572331595
21
-31.5679534422446
97
0
75
0
76
1
52
0
41
0.0062
77
0
78
1
53
45
43
0
44
0
45
-0.0139193969876572
46
0.0139193969876572
79
0
47
0
98
1
10
0
20
0
0
DIMENSION
5
122
100
AcDbEntity
8
2
62
256
6
ByLayer
370
18
48
1
60
0
100
AcDbDimension
2
_U0
10
57
20
-59.755064
30
0
11
6
21
-59.755064
31
0
70
32
71
1
72
1
41
1
210
0
220
0
230
1
3
Standard
100
AcDbAlignedDimension
13
-45
23
-6
33
0
14
57
24
-5.15
34
0
50
0
100
AcDbRotatedDimension
1001
ACAD
1000
DSTYLE
1002
{
1070
   371
1070
    13
1070
   372
1070
    13
1070
     3
1000

1070
   170
1070
     0
1070
   144
1040
1.0
1070
   277
1070
     2
1070
   284
1070
     8
1070
   278
1070
    46
1070
   146
1040
1.0
1070
   345
1005
16
1070
   347
1005
16
1070
   346
1005
16
1070
   344
1005
0
1070
   343
1005
0
1070
   172
1070
     1
1070
    76
1070
     0
1070
    75
1070
     0
1070
   282
1070
     0
1070
   281
1070
     0
1070
    71
1070
     0
1070
    74
1070
     0
1070
   279
1070
     0
1070
   173
1070
     1
1070
   340
1005
101
1070
   271
1070
     2
1070
   272
1070
     2
1070
    77
1070
     1
1070
    73
1070
     1
1070
   171
1070
     3
1070
   274
1070
     4
1070
   177
1070
     2
1070
   176
1070
     2
1070
   178
1070
     2
1070
    78
1070
     8
1070
    48
1040
-0.1
1070
    41
1040
3.5
1070
   147
1040
1.75
1070
    42
1040
1.5875
1070
    44
1040
2.0
1070
   140
1040
3.5
1002
}
1001
ACAD_DSTYLE_DIM_LINETYPE
1070
   380
1005
16
1001
ACAD_DSTYLE_DIM_EXT1_LINETYPE
1070
   381
1005
16
1001
ACAD_DSTYLE_DIM_EXT2_LINETYPE
1070
   382
1005
16
0
DIMENSION
5
13B
100
AcDbEntity
8
SK2
62
256
6
ByLayer
370
18
48
1
60
0
100
AcDbDimension
2
_U1
10
2
20
-39.755064
30
0
11
29.5
21
-39.755064
31
0
70
32
71
1
72
1
41
1
210
0
220
0
230
1
3
Standard
100
AcDbAlignedDimension
13
57
23
-5.15
33
0
14
2
24
-5.15
34
0
50
0
100
AcDbRotatedDimension
1001
ACAD
1000
DSTYLE
1002
{
1070
   371
1070
    13
1070
   372
1070
    13
1070
     3
1000

1070
   170
1070
     0
1070
   144
1040
1.0
1070
   277
1070
     2
1070
   284
1070
     8
1070
   278
1070
    46
1070
   146
1040
1.0
1070
   345
1005
16
1070
   347
1005
16
1070
   346
1005
16
1070
   344
1005
0
1070
   343
1005
0
1070
   172
1070
     1
1070
    76
1070
     0
1070
    75
1070
     0
1070
   282
1070
     0
1070
   281
1070
     0
1070
    71
1070
     0
1070
    74
1070
     0
1070
   279
1070
     0
1070
   173
1070
     1
1070
   340
1005
101
1070
   271
1070
     2
1070
   272
1070
     2
1070
    77
1070
     1
1070
    73
1070
     1
1070
   171
1070
     3
1070
   274
1070
     4
1070
   177
1070
     2
1070
   176
1070
     2
1070
   178
1070
     2
1070
    78
1070
     8
1070
    48
1040
-0.1
1070
    41
1040
3.5
1070
   147
1040
1.75
1070
    42
1040
1.5875
1070
    44
1040
2.0
1070
   140
1040
3.5
1002
}
1001
ACAD_DSTYLE_DIM_LINETYPE
1070
   380
1005
16
1001
ACAD_DSTYLE_DIM_EXT1_LINETYPE
1070
   381
1005
16
1001
ACAD_DSTYLE_DIM_EXT2_LINETYPE
1070
   382
1005
16
0
DIMENSION
5
153
100
AcDbEntity
8
SK2
62
256
6
ByLayer
370
18
48
1
60
0
100
AcDbDimension
2
_U2
10
17
20
-29.755064
30
0
11
37
21
-29.755064
31
0
70
32
71
1
72
1
41
1
210
0
220
0
230
1
3
Standard
100
AcDbAlignedDimension
13
57
23
-5.15
33
0
14
17
24
-5.15
34
0
50
0
100
AcDbRotatedDimension
1001
ACAD
1000
DSTYLE
1002
{
1070
   371
1070
    13
1070
   372
1070
    13
1070
     3
1000

1070
   170
1070
     0
1070
   144
1040
1.0
1070
   277
1070
     2
1070
   284
1070
     8
1070
   278
1070
    46
1070
   146
1040
1.0
1070
   345
1005
16
1070
   347
1005
16
1070
   346
1005
16
1070
   344
1005
0
1070
   343
1005
0
1070
   172
1070
     1
1070
    76
1070
     0
1070
    75
1070
     0
1070
   282
1070
     0
1070
   281
1070
     0
1070
    71
1070
     0
1070
    74
1070
     0
1070
   279
1070
     0
1070
   173
1070
     1
1070
   340
1005
101
1070
   271
1070
     2
1070
   272
1070
     2
1070
    77
1070
     1
1070
    73
1070
     1
1070
   171
1070
     3
1070
   274
1070
     4
1070
   177
1070
     2
1070
   176
1070
     2
1070
   178
1070
     2
1070
    78
1070
     8
1070
    48
1040
-0.1
1070
    41
1040
3.5
1070
   147
1040
1.75
1070
    42
1040
1.5875
1070
    44
1040
2.0
1070
   140
1040
3.5
1002
}
1001
ACAD_DSTYLE_DIM_LINETYPE
1070
   380
1005
16
1001
ACAD_DSTYLE_DIM_EXT1_LINETYPE
1070
   381
1005
16
1001
ACAD_DSTYLE_DIM_EXT2_LINETYPE
1070
   382
1005
16
0
DIMENSION
5
16D
100
AcDbEntity
8
SK2
62
256
6
ByLayer
370
18
48
1
60
0
100
AcDbDimension
2
_U3
10
0
20
-39.755064
30
0
11
-22.5
21
-39.755064
31
0
70
32
71
1
72
1
41
1
210
0
220
0
230
1
3
Standard
100
AcDbAlignedDimension
13
-45
23
-6
33
0
14
0
24
-6
34
0
50
0
100
AcDbRotatedDimension
1001
ACAD
1000
DSTYLE
1002
{
1070
   371
1070
    13
1070
   372
1070
    13
1070
     3
1000

1070
   170
1070
     0
1070
   144
1040
1.0
1070
   277
1070
     2
1070
   284
1070
     8
1070
   278
1070
    46
1070
   146
1040
1.0
1070
   345
1005
16
1070
   347
1005
16
1070
   346
1005
16
1070
   344
1005
0
1070
   343
1005
0
1070
   172
1070
     1
1070
    76
1070
     0
1070
    75
1070
     0
1070
   282
1070
     0
1070
   281
1070
     0
1070
    71
1070
     0
1070
    74
1070
     0
1070
   279
1070
     0
1070
   173
1070
     1
1070
   340
1005
101
1070
   271
1070
     2
1070
   272
1070
     2
1070
    77
1070
     1
1070
    73
1070
     1
1070
   171
1070
     3
1070
   274
1070
     4
1070
   177
1070
     2
1070
   176
1070
     2
1070
   178
1070
     2
1070
    78
1070
     8
1070
    48
1040
-0.1
1070
    41
1040
3.5
1070
   147
1040
1.75
1070
    42
1040
1.5875
1070
    44
1040
2.0
1070
   140
1040
3.5
1002
}
1001
ACAD_DSTYLE_DIM_LINETYPE
1070
   380
1005
16
1001
ACAD_DSTYLE_DIM_EXT1_LINETYPE
1070
   381
1005
16
1001
ACAD_DSTYLE_DIM_EXT2_LINETYPE
1070
   382
1005
16
0
DIMENSION
5
185
100
AcDbEntity
8
SK2
62
256
6
ByLayer
370
18
48
1
60
0
100
AcDbDimension
2
_U4
10
57
20
-49.755064
30
0
11
28.5
21
-49.755064
31
0
70
32
71
1
72
1
41
1
210
0
220
0
230
1
3
Standard
100
AcDbAlignedDimension
13
0
23
-6
33
0
14
57
24
-5.15
34
0
50
0
100
AcDbRotatedDimension
1001
ACAD
1000
DSTYLE
1002
{
1070
   371
1070
    13
1070
   372
1070
    13
1070
     3
1000

1070
   170
1070
     0
1070
   144
1040
1.0
1070
   277
1070
     2
1070
   284
1070
     8
1070
   278
1070
    46
1070
   146
1040
1.0
1070
   345
1005
16
1070
   347
1005
16
1070
   346
1005
16
1070
   344
1005
0
1070
   343
1005
0
1070
   172
1070
     1
1070
    76
1070
     0
1070
    75
1070
     0
1070
   282
1070
     0
1070
   281
1070
     0
1070
    71
1070
     0
1070
    74
1070
     0
1070
   279
1070
     0
1070
   173
1070
     1
1070
   340
1005
101
1070
   271
1070
     2
1070
   272
1070
     2
1070
    77
1070
     1
1070
    73
1070
     1
1070
   171
1070
     3
1070
   274
1070
     4
1070
   177
1070
     2
1070
   176
1070
     2
1070
   178
1070
     2
1070
    78
1070
     8
1070
    48
1040
-0.1
1070
    41
1040
3.5
1070
   147
1040
1.75
1070
    42
1040
1.5875
1070
    44
1040
2.0
1070
   140
1040
3.5
1002
}
1001
ACAD_DSTYLE_DIM_LINETYPE
1070
   380
1005
16
1001
ACAD_DSTYLE_DIM_EXT1_LINETYPE
1070
   381
1005
16
1001
ACAD_DSTYLE_DIM_EXT2_LINETYPE
1070
   382
1005
16
0
ENDSEC
0
SECTION
2
OBJECTS
0
DICTIONARY
5
20d
330
0
100
AcDbDictionary
280
0
281
1
3
ACAD_GROUP
350
20e
3
ACAD_MLINESTYLE
350
20f
0
DICTIONARY
5
20e
330
0
100
AcDbDictionary
280
0
281
1
0
DICTIONARY
5
20f
330
0
100
AcDbDictionary
280
0
281
1
3
Standard
350
18
0
MLINESTYLE
5
18
330
20f
100
AcDbMlineStyle
2
Standard
70
0
3

62
256
51
90
52
90
71
2
49
-0.5
62
256
6
ByLayer
49
0.5
62
256
6
ByLayer
0
RASTERVARIABLES
5
1fb
330

100
AcDbRasterVariables
90
0
70
1
71
1
72
1
0
ENDSEC
0
EOF
