0
SECTION
2
HEADER
9
$ACADVER
1
AC1015
9
$DWGCODEPAGE
3
ANSI_1252
9
$HANDSEED
5
21f
9
$ANGBASE
50
0
9
$ANGDIR
70
0
9
$ATTMODE
70
1
9
$AUNITS
70
0
9
$AUPREC
70
0
9
$CECOLOR
62
256
9
$CELTSCALE
40
1
9
$CELTYPE
6
ByLayer
9
$CELWEIGHT
370
18
9
$CLAYER
8
0
9
$CMLJUST
70
0
9
$CMLSCALE
40
1
9
$CMLSTYLE
2
Standard
9
$DIMSTYLE
2
Standard
9
$TEXTSIZE
40
0.2
9
$TEXTSTYLE
7
Standard
9
$LUNITS
70
2
9
$LUPREC
70
4
9
$EXTNAMES
290
1
9
$INSUNITS
70
4
9
$LTSCALE
40
1
9
$LWDISPLAY
290
1
9
$PDMODE
70
0
9
$PDSIZE
40
0
9
$PLINEGEN
70
0
0
ENDSEC
0
SECTION
2
CLASSES
0
CLASS
1
RASTERVARIABLES
2
AcDbRasterVariables
3
ISM
90
0
280
0
281
0
0
ENDSEC
0
SECTION
2
TABLES
0
TABLE
2
VPORT
5
215
100
AcDbSymbolTable
0
VPORT
5
1
100
AcDbSymbolTableRecord
100
AcDbViewportTableRecord
2
*Active
70
0
10
0
20
0
11
1
21
1
12
-1
22
1
13
0
23
0
14
0.5
24
0.5
15
10
25
10
16
0
26
0
36
1
17
0
27
0
37
0
0
ENDTAB
0
TABLE
2
LTYPE
5
216
100
AcDbSymbolTable
0
LTYPE
5
14
100
AcDbSymbolTableRecord
100
AcDbLinetypeTableRecord
70
0
2
ByBlock
3

72
65
73
0
40
0
0
LTYPE
5
15
100
AcDbSymbolTableRecord
100
AcDbLinetypeTableRecord
70
0
2
ByLayer
3

72
65
73
0
40
0
0
LTYPE
5
16
100
AcDbSymbolTableRecord
100
AcDbLinetypeTableRecord
70
0
2
Continuous
3
Solid line
72
65
73
0
40
0
0
LTYPE
5
6E
100
AcDbSymbolTableRecord
100
AcDbLinetypeTableRecord
70
0
2
CENTER
3
____ _ ____ _ ____ _ ____
72
65
73
4
40
47.5
49
22
74
0
49
-8.5
74
0
49
8.5
74
0
49
-8.5
74
0
0
LTYPE
5
6F
100
AcDbSymbolTableRecord
100
AcDbLinetypeTableRecord
70
0
2
DASHED
3
__ __ __ __ __ __ __ __ __
72
65
73
2
40
25.72
49
12.86
74
0
49
-12.86
74
0
0
ENDTAB
0
TABLE
2
LAYER
5
217
100
AcDbSymbolTable
0
LAYER
5
10
100
AcDbSymbolTableRecord
100
AcDbLayerTableRecord
2
0
70
0
62
7
6
Continuous
290
1
370
-3
390
0
0
LAYER
5
71
100
AcDbSymbolTableRecord
100
AcDbLayerTableRecord
2
81
70
0
62
-3
6
Continuous
290
1
370
-3
390
0
0
LAYER
5
73
100
AcDbSymbolTableRecord
100
AcDbLayerTableRecord
2
80
70
0
62
-6
6
Continuous
290
1
370
-3
390
0
0
LAYER
5
75
100
AcDbSymbolTableRecord
100
AcDbLayerTableRecord
2
1
70
0
62
4
6
Continuous
290
1
370
-3
390
0
0
LAYER
5
83
100
AcDbSymbolTableRecord
100
AcDbLayerTableRecord
2
4
70
0
62
-2
6
CENTER
290
1
370
-3
390
0
0
LAYER
5
A1
100
AcDbSymbolTableRecord
100
AcDbLayerTableRecord
2
2
70
0
62
7
6
Continuous
290
1
370
-3
390
0
0
LAYER
5
12A
100
AcDbSymbolTableRecord
100
AcDbLayerTableRecord
2
Defpoints
70
0
62
7
6
Continuous
290
0
370
-3
390
0
0
LAYER
5
201
100
AcDbSymbolTableRecord
100
AcDbLayerTableRecord
2
SK4
70
0
62
2
6
CENTER
290
1
370
-3
390
0
0
LAYER
5
202
100
AcDbSymbolTableRecord
100
AcDbLayerTableRecord
2
SK1
70
0
62
4
6
Continuous
290
1
370
-3
390
0
0
LAYER
5
203
100
AcDbSymbolTableRecord
100
AcDbLayerTableRecord
2
SK2
70
0
62
7
6
Continuous
290
1
370
-3
390
0
0
LAYER
5
204
100
AcDbSymbolTableRecord
100
AcDbLayerTableRecord
2
SK6
70
0
62
5
6
Continuous
290
1
370
-3
390
0
0
ENDTAB
0
TABLE
2
STYLE
5
218
100
AcDbSymbolTable
0
STYLE
5
11
100
AcDbSymbolTableRecord
100
AcDbTextStyleTableRecord
2
Standard
3
txt
70
0
71
0
40
0
41
1
42
0
50
0
0
STYLE
5
106
100
AcDbSymbolTableRecord
100
AcDbTextStyleTableRecord
2
iso_b_vert
3
simplex.shx
70
0
71
0
40
0
41
1
42
0
50
0
0
STYLE
5
107
100
AcDbSymbolTableRecord
100
AcDbTextStyleTableRecord
2
DWGDirectTextStyle
3
simplex
70
0
71
0
40
0
41
1
42
0
50
0
0
ENDTAB
0
TABLE
2
DIMSTYLE
5
219
100
AcDbSymbolTable
100
AcDbDimStyleTable
0
DIMSTYLE
105
27
100
AcDbSymbolTableRecord
100
AcDbDimStyleTableRecord
2
Standard
70
0
3
<>
41
0.18
42
0.0625
44
0.18
140
0.18
147
0.09
73
0
74
0
77
1
271
2
275
0
278
52
280
0
340
11
0
ENDTAB
0
TABLE
2
VIEW
5
21a
100
AcDbSymbolTable
0
ENDTAB
0
TABLE
2
UCS
5
21b
100
AcDbSymbolTable
0
ENDTAB
0
TABLE
2
APPID
5
21c
100
AcDbSymbolTable
0
APPID
5
12
100
AcDbSymbolTableRecord
100
AcDbRegAppTableRecord
2
ACAD
70
0
0
APPID
5
126
100
AcDbSymbolTableRecord
100
AcDbRegAppTableRecord
2
ACAD_DSTYLE_DIMBREAK
70
0
0
APPID
5
1C0
100
AcDbSymbolTableRecord
100
AcDbRegAppTableRecord
2
ACAD_DSTYLE_DIM_LINETYPE
70
0
0
APPID
5
1C1
100
AcDbSymbolTableRecord
100
AcDbRegAppTableRecord
2
ACAD_DSTYLE_DIM_EXT1_LINETYPE
70
0
0
APPID
5
1C2
100
AcDbSymbolTableRecord
100
AcDbRegAppTableRecord
2
ACAD_DSTYLE_DIM_EXT2_LINETYPE
70
0
0
APPID
5
1FD
100
AcDbSymbolTableRecord
100
AcDbRegAppTableRecord
2
ACAD_MLEADERVER
70
0
0
ENDTAB
0
TABLE
2
BLOCK_RECORD
5
21d
100
AcDbSymbolTable
0
BLOCK_RECORD
5
1F
100
AcDbSymbolTableRecord
100
AcDbBlockTableRecord
2
*Model_Space
340
0
70
0
0
BLOCK_RECORD
5
1B
100
AcDbSymbolTableRecord
100
AcDbBlockTableRecord
2
*Paper_Space
340
0
70
0
0
BLOCK_RECORD
5
23
100
AcDbSymbolTableRecord
100
AcDbBlockTableRecord
2
*Paper_Space0
340
0
70
0
0
BLOCK_RECORD
5
12B
100
AcDbSymbolTableRecord
100
AcDbBlockTableRecord
2
*D1
340
0
70
0
0
BLOCK_RECORD
5
137
100
AcDbSymbolTableRecord
100
AcDbBlockTableRecord
2
_U0
340
0
70
0
0
BLOCK_RECORD
5
143
100
AcDbSymbolTableRecord
100
AcDbBlockTableRecord
2
*D3
340
0
70
0
0
BLOCK_RECORD
5
14F
100
AcDbSymbolTableRecord
100
AcDbBlockTableRecord
2
_U1
340
0
70
0
0
BLOCK_RECORD
5
15B
100
AcDbSymbolTableRecord
100
AcDbBlockTableRecord
2
*D5
340
0
70
0
0
BLOCK_RECORD
5
167
100
AcDbSymbolTableRecord
100
AcDbBlockTableRecord
2
_U2
340
0
70
0
0
BLOCK_RECORD
5
175
100
AcDbSymbolTableRecord
100
AcDbBlockTableRecord
2
*D7
340
0
70
0
0
BLOCK_RECORD
5
181
100
AcDbSymbolTableRecord
100
AcDbBlockTableRecord
2
_U3
340
0
70
0
0
BLOCK_RECORD
5
18D
100
AcDbSymbolTableRecord
100
AcDbBlockTableRecord
2
*D9
340
0
70
0
0
BLOCK_RECORD
5
199
100
AcDbSymbolTableRecord
100
AcDbBlockTableRecord
2
_U4
340
0
70
0
0
ENDTAB
0
ENDSEC
0
SECTION
2
BLOCKS
0
BLOCK
5
20
100
AcDbEntity
8
0
100
AcDbBlockBegin
2
*Model_Space
70
0
10
0
20
0
30
0
3
*Model_Space
0
ENDBLK
5
21
100
AcDbEntity
8
0
100
AcDbBlockEnd
0
BLOCK
5
1C
100
AcDbEntity
8
0
100
AcDbBlockBegin
2
*Paper_Space
70
0
10
0
20
0
30
0
3
*Paper_Space
0
ENDBLK
5
1D
100
AcDbEntity
8
0
100
AcDbBlockEnd
0
BLOCK
5
24
100
AcDbEntity
8
0
100
AcDbBlockBegin
2
*Paper_Space0
70
0
10
0
20
0
30
0
3
*Paper_Space0
0
ENDBLK
5
25
100
AcDbEntity
8
0
100
AcDbBlockEnd
0
BLOCK
5
12C
100
AcDbEntity
8
0
100
AcDbBlockBegin
2
*D1
70
1
10
0
20
0
30
0
3
*D1
0
LINE
5
12E
100
AcDbEntity
8
0
62
256
6
ByLayer
370
-2
48
1
60
0
100
AcDbLine
10
-40
20
-6.5875
30
0
11
-40
21
-60.504074
31
0
39
0
210
0
220
0
230
1
0
LINE
5
12F
100
AcDbEntity
8
0
62
256
6
ByLayer
370
-2
48
1
60
0
100
AcDbLine
10
49
20
-5.7875
30
0
11
49
21
-60.504074
31
0
39
0
210
0
220
0
230
1
0
LINE
5
130
100
AcDbEntity
8
0
62
256
6
ByLayer
370
-2
48
1
60
0
100
AcDbLine
10
-36.5
20
-58.504074
30
0
11
45.5
21
-58.504074
31
0
39
0
210
0
220
0
230
1
0
SOLID
5
131
100
AcDbEntity
8
0
62
256
6
ByLayer
370
-1
48
1
60
0
100
AcDbTrace
10
-36.5
20
-57.920741
30
0
11
-36.5
21
-59.087408
31
0
12
-40
22
-58.504074
32
0
13
-40
23
-58.504074
33
0
39
0
210
0
220
0
230
1
0
SOLID
5
132
100
AcDbEntity
8
0
62
256
6
ByLayer
370
-1
48
1
60
0
100
AcDbTrace
10
45.5
20
-59.087408
30
0
11
45.5
21
-57.920741
31
0
12
49
22
-58.504074
32
0
13
49
23
-58.504074
33
0
39
0
210
0
220
0
230
1
0
MTEXT
5
133
100
AcDbEntity
8
0
62
256
6
ByLayer
370
18
48
1
60
0
100
AcDbMText
10
4.5
20
-51.504074
30
0
210
0
220
0
230
1
1
\A1;89
40
3.5
41
0
44
1
50
0
71
5
72
5
7
iso_b_vert
0
POINT
5
134
100
AcDbEntity
8
Defpoints
62
0
6
ByLayer
370
-1
48
1
60
0
100
AcDbPoint
10
-40
20
-5
30
0
39
0
210
0
220
0
230
1
50
360
0
POINT
5
135
100
AcDbEntity
8
Defpoints
62
0
6
ByLayer
370
-1
48
1
60
0
100
AcDbPoint
10
49
20
-4.2
30
0
39
0
210
0
220
0
230
1
50
360
0
POINT
5
136
100
AcDbEntity
8
Defpoints
62
0
6
ByLayer
370
-1
48
1
60
0
100
AcDbPoint
10
49
20
-58.504074
30
0
39
0
210
0
220
0
230
1
50
360
0
ENDBLK
5
12D
100
AcDbEntity
8
0
100
AcDbBlockEnd
0
BLOCK
5
13E
100
AcDbEntity
8
0
100
AcDbBlockBegin
2
_U0
70
0
10
0
20
0
30
0
3
_U0
0
MTEXT
5
138
100
AcDbEntity
8
2
62
256
6
ByLayer
370
18
48
1
60
0
100
AcDbMText
10
2.595034
20
-57.471441
30
0
210
0
220
0
230
1
1
\W0.6927;89
40
3.5
41
0
44
1.084337
50
0
71
7
72
5
7
iso_b_vert
0
LINE
5
139
100
AcDbEntity
8
2
62
256
6
ByLayer
370
13
48
1
60
0
100
AcDbLine
10
-40
20
-6.5875
30
0
11
-40
21
-60.504074
31
0
39
0
210
0
220
0
230
1
0
LINE
5
13A
100
AcDbEntity
8
2
62
256
6
ByLayer
370
13
48
1
60
0
100
AcDbLine
10
49
20
-5.7875
30
0
11
49
21
-60.504074
31
0
39
0
210
0
220
0
230
1
0
LINE
5
13B
100
AcDbEntity
8
2
62
256
6
ByLayer
370
13
48
1
60
0
100
AcDbLine
10
-40
20
-58.504074
30
0
11
49
21
-58.504074
31
0
39
0
210
0
220
0
230
1
0
SOLID
5
13C
100
AcDbEntity
8
2
62
256
6
ByLayer
370
18
48
1
60
0
100
AcDbTrace
10
-40
20
-58.504074
30
0
11
-36.500002
21
-58.043291
31
0
12
-36.499998
22
-58.964858
32
0
13
-36.499998
23
-58.964858
33
0
39
0
210
0
220
0
230
1
0
SOLID
5
13D
100
AcDbEntity
8
2
62
256
6
ByLayer
370
18
48
1
60
0
100
AcDbTrace
10
49
20
-58.504074
30
0
11
45.500002
21
-58.964858
31
0
12
45.499998
22
-58.043291
32
0
13
45.499998
23
-58.043291
33
0
39
0
210
0
220
0
230
1
0
ENDBLK
5
13F
100
AcDbEntity
8
0
100
AcDbBlockEnd
0
BLOCK
5
144
100
AcDbEntity
8
0
100
AcDbBlockBegin
2
*D3
70
1
10
0
20
0
30
0
3
*D3
0
LINE
5
146
100
AcDbEntity
8
0
62
256
6
ByLayer
370
-2
48
1
60
0
100
AcDbLine
10
49
20
-5.7875
30
0
11
49
21
-40.504074
31
0
39
0
210
0
220
0
230
1
0
LINE
5
147
100
AcDbEntity
8
0
62
256
6
ByLayer
370
-2
48
1
60
0
100
AcDbLine
10
2
20
-5.7875
30
0
11
2
21
-40.504074
31
0
39
0
210
0
220
0
230
1
0
LINE
5
148
100
AcDbEntity
8
0
62
256
6
ByLayer
370
-2
48
1
60
0
100
AcDbLine
10
45.5
20
-38.504074
30
0
11
5.5
21
-38.504074
31
0
39
0
210
0
220
0
230
1
0
SOLID
5
149
100
AcDbEntity
8
0
62
256
6
ByLayer
370
-1
48
1
60
0
100
AcDbTrace
10
45.5
20
-39.087408
30
0
11
45.5
21
-37.920741
31
0
12
49
22
-38.504074
32
0
13
49
23
-38.504074
33
0
39
0
210
0
220
0
230
1
0
SOLID
5
14A
100
AcDbEntity
8
0
62
256
6
ByLayer
370
-1
48
1
60
0
100
AcDbTrace
10
5.5
20
-37.920741
30
0
11
5.5
21
-39.087408
31
0
12
2
22
-38.504074
32
0
13
2
23
-38.504074
33
0
39
0
210
0
220
0
230
1
0
MTEXT
5
14B
100
AcDbEntity
8
0
62
256
6
ByLayer
370
18
48
1
60
0
100
AcDbMText
10
25.5
20
-31.504074
30
0
210
0
220
0
230
1
1
\A1;47
40
3.5
41
0
44
1
50
0
71
5
72
5
7
iso_b_vert
0
POINT
5
14C
100
AcDbEntity
8
Defpoints
62
0
6
ByLayer
370
-1
48
1
60
0
100
AcDbPoint
10
49
20
-4.2
30
0
39
0
210
0
220
0
230
1
50
360
0
POINT
5
14D
100
AcDbEntity
8
Defpoints
62
0
6
ByLayer
370
-1
48
1
60
0
100
AcDbPoint
10
2
20
-4.2
30
0
39
0
210
0
220
0
230
1
50
360
0
POINT
5
14E
100
AcDbEntity
8
Defpoints
62
0
6
ByLayer
370
-1
48
1
60
0
100
AcDbPoint
10
2
20
-38.504074
30
0
39
0
210
0
220
0
230
1
50
360
0
ENDBLK
5
145
100
AcDbEntity
8
0
100
AcDbBlockEnd
0
BLOCK
5
156
100
AcDbEntity
8
0
100
AcDbBlockBegin
2
_U1
70
0
10
0
20
0
30
0
3
_U1
0
MTEXT
5
150
100
AcDbEntity
8
SK2
62
256
6
ByLayer
370
18
48
1
60
0
100
AcDbMText
10
23.410767
20
-37.471441
30
0
210
0
220
0
230
1
1
\W0.7361;47
40
3.5
41
0
44
1.084337
50
0
71
7
72
5
7
iso_b_vert
0
LINE
5
151
100
AcDbEntity
8
SK2
62
256
6
ByLayer
370
13
48
1
60
0
100
AcDbLine
10
49
20
-5.7875
30
0
11
49
21
-40.504074
31
0
39
0
210
0
220
0
230
1
0
LINE
5
152
100
AcDbEntity
8
SK2
62
256
6
ByLayer
370
13
48
1
60
0
100
AcDbLine
10
2
20
-5.7875
30
0
11
2
21
-40.504074
31
0
39
0
210
0
220
0
230
1
0
LINE
5
153
100
AcDbEntity
8
SK2
62
256
6
ByLayer
370
13
48
1
60
0
100
AcDbLine
10
49
20
-38.504074
30
0
11
2
21
-38.504074
31
0
39
0
210
0
220
0
230
1
0
SOLID
5
154
100
AcDbEntity
8
SK2
62
256
6
ByLayer
370
18
48
1
60
0
100
AcDbTrace
10
49
20
-38.504074
30
0
11
45.500002
21
-38.964858
31
0
12
45.499998
22
-38.043291
32
0
13
45.499998
23
-38.043291
33
0
39
0
210
0
220
0
230
1
0
SOLID
5
155
100
AcDbEntity
8
SK2
62
256
6
ByLayer
370
18
48
1
60
0
100
AcDbTrace
10
2
20
-38.504074
30
0
11
5.499998
21
-38.043291
31
0
12
5.500002
22
-38.964858
32
0
13
5.500002
23
-38.964858
33
0
39
0
210
0
220
0
230
1
0
ENDBLK
5
157
100
AcDbEntity
8
0
100
AcDbBlockEnd
0
BLOCK
5
15C
100
AcDbEntity
8
0
100
AcDbBlockBegin
2
*D5
70
1
10
0
20
0
30
0
3
*D5
0
LINE
5
15E
100
AcDbEntity
8
0
62
256
6
ByLayer
370
-2
48
1
60
0
100
AcDbLine
10
49
20
-5.7875
30
0
11
49
21
-30.504074
31
0
39
0
210
0
220
0
230
1
0
LINE
5
15F
100
AcDbEntity
8
0
62
256
6
ByLayer
370
-2
48
1
60
0
100
AcDbLine
10
14
20
-5.7875
30
0
11
14
21
-30.504074
31
0
39
0
210
0
220
0
230
1
0
LINE
5
160
100
AcDbEntity
8
0
62
256
6
ByLayer
370
-2
48
1
60
0
100
AcDbLine
10
45.5
20
-28.504074
30
0
11
17.5
21
-28.504074
31
0
39
0
210
0
220
0
230
1
0
SOLID
5
161
100
AcDbEntity
8
0
62
256
6
ByLayer
370
-1
48
1
60
0
100
AcDbTrace
10
45.5
20
-29.087408
30
0
11
45.5
21
-27.920741
31
0
12
49
22
-28.504074
32
0
13
49
23
-28.504074
33
0
39
0
210
0
220
0
230
1
0
SOLID
5
162
100
AcDbEntity
8
0
62
256
6
ByLayer
370
-1
48
1
60
0
100
AcDbTrace
10
17.5
20
-27.920741
30
0
11
17.5
21
-29.087408
31
0
12
14
22
-28.504074
32
0
13
14
23
-28.504074
33
0
39
0
210
0
220
0
230
1
0
MTEXT
5
163
100
AcDbEntity
8
0
62
256
6
ByLayer
370
18
48
1
60
0
100
AcDbMText
10
31.5
20
-21.504074
30
0
210
0
220
0
230
1
1
\A1;35
40
3.5
41
0
44
1
50
0
71
5
72
5
7
iso_b_vert
0
POINT
5
164
100
AcDbEntity
8
Defpoints
62
0
6
ByLayer
370
-1
48
1
60
0
100
AcDbPoint
10
49
20
-4.2
30
0
39
0
210
0
220
0
230
1
50
360
0
POINT
5
165
100
AcDbEntity
8
Defpoints
62
0
6
ByLayer
370
-1
48
1
60
0
100
AcDbPoint
10
14
20
-4.2
30
0
39
0
210
0
220
0
230
1
50
360
0
POINT
5
166
100
AcDbEntity
8
Defpoints
62
0
6
ByLayer
370
-1
48
1
60
0
100
AcDbPoint
10
14
20
-28.504074
30
0
39
0
210
0
220
0
230
1
50
360
0
ENDBLK
5
15D
100
AcDbEntity
8
0
100
AcDbBlockEnd
0
BLOCK
5
170
100
AcDbEntity
8
0
100
AcDbBlockBegin
2
_U2
70
0
10
0
20
0
30
0
3
_U2
0
MTEXT
5
168
100
AcDbEntity
8
SK2
62
256
6
ByLayer
370
18
48
1
60
0
100
AcDbMText
10
29.595034
20
-27.471441
30
0
210
0
220
0
230
1
1
\W0.6740;35
40
3.5
41
0
44
1.084337
50
0
71
7
72
5
7
iso_b_vert
0
MTEXT
5
169
100
AcDbEntity
8
SK2
62
256
6
ByLayer
370
18
48
1
60
0
100
AcDbMText
10
25.727034
20
-27.471441
30
0
210
0
220
0
230
1
1
\W0.1790;(
40
3.5
41
0
44
1.084337
50
0
71
7
72
5
7
iso_b_vert
0
MTEXT
5
16A
100
AcDbEntity
8
SK2
62
256
6
ByLayer
370
18
48
1
60
0
100
AcDbMText
10
37.275966
20
-27.471441
30
0
210
0
220
0
230
1
1
\W0.1969;)
40
3.5
41
0
44
1.084337
50
0
71
7
72
5
7
iso_b_vert
0
LINE
5
16B
100
AcDbEntity
8
SK2
62
256
6
ByLayer
370
13
48
1
60
0
100
AcDbLine
10
49
20
-5.7875
30
0
11
49
21
-30.504074
31
0
39
0
210
0
220
0
230
1
0
LINE
5
16C
100
AcDbEntity
8
SK2
62
256
6
ByLayer
370
13
48
1
60
0
100
AcDbLine
10
14
20
-5.7875
30
0
11
14
21
-30.504074
31
0
39
0
210
0
220
0
230
1
0
LINE
5
16D
100
AcDbEntity
8
SK2
62
256
6
ByLayer
370
13
48
1
60
0
100
AcDbLine
10
49
20
-28.504074
30
0
11
14
21
-28.504074
31
0
39
0
210
0
220
0
230
1
0
SOLID
5
16E
100
AcDbEntity
8
SK2
62
256
6
ByLayer
370
18
48
1
60
0
100
AcDbTrace
10
49
20
-28.504074
30
0
11
45.500002
21
-28.964858
31
0
12
45.499998
22
-28.043291
32
0
13
45.499998
23
-28.043291
33
0
39
0
210
0
220
0
230
1
0
SOLID
5
16F
100
AcDbEntity
8
SK2
62
256
6
ByLayer
370
18
48
1
60
0
100
AcDbTrace
10
14
20
-28.504074
30
0
11
17.499998
21
-28.043291
31
0
12
17.500002
22
-28.964858
32
0
13
17.500002
23
-28.964858
33
0
39
0
210
0
220
0
230
1
0
ENDBLK
5
171
100
AcDbEntity
8
0
100
AcDbBlockEnd
0
BLOCK
5
176
100
AcDbEntity
8
0
100
AcDbBlockBegin
2
*D7
70
1
10
0
20
0
30
0
3
*D7
0
LINE
5
178
100
AcDbEntity
8
0
62
256
6
ByLayer
370
-2
48
1
60
0
100
AcDbLine
10
-40
20
-6.5875
30
0
11
-40
21
-40.504074
31
0
39
0
210
0
220
0
230
1
0
LINE
5
179
100
AcDbEntity
8
0
62
256
6
ByLayer
370
-2
48
1
60
0
100
AcDbLine
10
0
20
-6.5875
30
0
11
0
21
-40.504074
31
0
39
0
210
0
220
0
230
1
0
LINE
5
17A
100
AcDbEntity
8
0
62
256
6
ByLayer
370
-2
48
1
60
0
100
AcDbLine
10
-36.5
20
-38.504074
30
0
11
-3.5
21
-38.504074
31
0
39
0
210
0
220
0
230
1
0
SOLID
5
17B
100
AcDbEntity
8
0
62
256
6
ByLayer
370
-1
48
1
60
0
100
AcDbTrace
10
-36.5
20
-37.920741
30
0
11
-36.5
21
-39.087408
31
0
12
-40
22
-38.504074
32
0
13
-40
23
-38.504074
33
0
39
0
210
0
220
0
230
1
0
SOLID
5
17C
100
AcDbEntity
8
0
62
256
6
ByLayer
370
-1
48
1
60
0
100
AcDbTrace
10
-3.5
20
-39.087408
30
0
11
-3.5
21
-37.920741
31
0
12
0
22
-38.504074
32
0
13
0
23
-38.504074
33
0
39
0
210
0
220
0
230
1
0
MTEXT
5
17D
100
AcDbEntity
8
0
62
256
6
ByLayer
370
18
48
1
60
0
100
AcDbMText
10
-20
20
-31.504074
30
0
210
0
220
0
230
1
1
\A1;40
40
3.5
41
0
44
1
50
0
71
5
72
5
7
iso_b_vert
0
POINT
5
17E
100
AcDbEntity
8
Defpoints
62
0
6
ByLayer
370
-1
48
1
60
0
100
AcDbPoint
10
-40
20
-5
30
0
39
0
210
0
220
0
230
1
50
360
0
POINT
5
17F
100
AcDbEntity
8
Defpoints
62
0
6
ByLayer
370
-1
48
1
60
0
100
AcDbPoint
10
0
20
-5
30
0
39
0
210
0
220
0
230
1
50
360
0
POINT
5
180
100
AcDbEntity
8
Defpoints
62
0
6
ByLayer
370
-1
48
1
60
0
100
AcDbPoint
10
0
20
-38.504074
30
0
39
0
210
0
220
0
230
1
50
360
0
ENDBLK
5
177
100
AcDbEntity
8
0
100
AcDbBlockEnd
0
BLOCK
5
188
100
AcDbEntity
8
0
100
AcDbBlockBegin
2
_U3
70
0
10
0
20
0
30
0
3
_U3
0
MTEXT
5
182
100
AcDbEntity
8
SK2
62
256
6
ByLayer
370
18
48
1
60
0
100
AcDbMText
10
-22.089233
20
-37.471441
30
0
210
0
220
0
230
1
1
\W0.7361;40
40
3.5
41
0
44
1.084337
50
0
71
7
72
5
7
iso_b_vert
0
LINE
5
183
100
AcDbEntity
8
SK2
62
256
6
ByLayer
370
13
48
1
60
0
100
AcDbLine
10
-40
20
-6.5875
30
0
11
-40
21
-40.504074
31
0
39
0
210
0
220
0
230
1
0
LINE
5
184
100
AcDbEntity
8
SK2
62
256
6
ByLayer
370
13
48
1
60
0
100
AcDbLine
10
0
20
-6.5875
30
0
11
0
21
-40.504074
31
0
39
0
210
0
220
0
230
1
0
LINE
5
185
100
AcDbEntity
8
SK2
62
256
6
ByLayer
370
13
48
1
60
0
100
AcDbLine
10
-40
20
-38.504074
30
0
11
0
21
-38.504074
31
0
39
0
210
0
220
0
230
1
0
SOLID
5
186
100
AcDbEntity
8
SK2
62
256
6
ByLayer
370
18
48
1
60
0
100
AcDbTrace
10
-40
20
-38.504074
30
0
11
-36.500002
21
-38.043291
31
0
12
-36.499998
22
-38.964858
32
0
13
-36.499998
23
-38.964858
33
0
39
0
210
0
220
0
230
1
0
SOLID
5
187
100
AcDbEntity
8
SK2
62
256
6
ByLayer
370
18
48
1
60
0
100
AcDbTrace
10
0
20
-38.504074
30
0
11
-3.499998
21
-38.964858
31
0
12
-3.500002
22
-38.043291
32
0
13
-3.500002
23
-38.043291
33
0
39
0
210
0
220
0
230
1
0
ENDBLK
5
189
100
AcDbEntity
8
0
100
AcDbBlockEnd
0
BLOCK
5
18E
100
AcDbEntity
8
0
100
AcDbBlockBegin
2
*D9
70
1
10
0
20
0
30
0
3
*D9
0
LINE
5
190
100
AcDbEntity
8
0
62
256
6
ByLayer
370
-2
48
1
60
0
100
AcDbLine
10
0
20
-6.5875
30
0
11
0
21
-50.504074
31
0
39
0
210
0
220
0
230
1
0
LINE
5
191
100
AcDbEntity
8
0
62
256
6
ByLayer
370
-2
48
1
60
0
100
AcDbLine
10
49
20
-5.7875
30
0
11
49
21
-50.504074
31
0
39
0
210
0
220
0
230
1
0
LINE
5
192
100
AcDbEntity
8
0
62
256
6
ByLayer
370
-2
48
1
60
0
100
AcDbLine
10
3.5
20
-48.504074
30
0
11
45.5
21
-48.504074
31
0
39
0
210
0
220
0
230
1
0
SOLID
5
193
100
AcDbEntity
8
0
62
256
6
ByLayer
370
-1
48
1
60
0
100
AcDbTrace
10
3.5
20
-47.920741
30
0
11
3.5
21
-49.087408
31
0
12
0
22
-48.504074
32
0
13
0
23
-48.504074
33
0
39
0
210
0
220
0
230
1
0
SOLID
5
194
100
AcDbEntity
8
0
62
256
6
ByLayer
370
-1
48
1
60
0
100
AcDbTrace
10
45.5
20
-49.087408
30
0
11
45.5
21
-47.920741
31
0
12
49
22
-48.504074
32
0
13
49
23
-48.504074
33
0
39
0
210
0
220
0
230
1
0
MTEXT
5
195
100
AcDbEntity
8
0
62
256
6
ByLayer
370
18
48
1
60
0
100
AcDbMText
10
24.5
20
-41.504074
30
0
210
0
220
0
230
1
1
\A1;49
40
3.5
41
0
44
1
50
0
71
5
72
5
7
iso_b_vert
0
POINT
5
196
100
AcDbEntity
8
Defpoints
62
0
6
ByLayer
370
-1
48
1
60
0
100
AcDbPoint
10
0
20
-5
30
0
39
0
210
0
220
0
230
1
50
360
0
POINT
5
197
100
AcDbEntity
8
Defpoints
62
0
6
ByLayer
370
-1
48
1
60
0
100
AcDbPoint
10
49
20
-4.2
30
0
39
0
210
0
220
0
230
1
50
360
0
POINT
5
198
100
AcDbEntity
8
Defpoints
62
0
6
ByLayer
370
-1
48
1
60
0
100
AcDbPoint
10
49
20
-48.504074
30
0
39
0
210
0
220
0
230
1
50
360
0
ENDBLK
5
18F
100
AcDbEntity
8
0
100
AcDbBlockEnd
0
BLOCK
5
1A0
100
AcDbEntity
8
0
100
AcDbBlockBegin
2
_U4
70
0
10
0
20
0
30
0
3
_U4
0
MTEXT
5
19A
100
AcDbEntity
8
SK2
62
256
6
ByLayer
370
18
48
1
60
0
100
AcDbMText
10
22.410767
20
-47.471441
30
0
210
0
220
0
230
1
1
\W0.7565;49
40
3.5
41
0
44
1.084337
50
0
71
7
72
5
7
iso_b_vert
0
LINE
5
19B
100
AcDbEntity
8
SK2
62
256
6
ByLayer
370
13
48
1
60
0
100
AcDbLine
10
0
20
-6.5875
30
0
11
0
21
-50.504074
31
0
39
0
210
0
220
0
230
1
0
LINE
5
19C
100
AcDbEntity
8
SK2
62
256
6
ByLayer
370
13
48
1
60
0
100
AcDbLine
10
49
20
-5.7875
30
0
11
49
21
-50.504074
31
0
39
0
210
0
220
0
230
1
0
LINE
5
19D
100
AcDbEntity
8
SK2
62
256
6
ByLayer
370
13
48
1
60
0
100
AcDbLine
10
0
20
-48.504074
30
0
11
49
21
-48.504074
31
0
39
0
210
0
220
0
230
1
0
SOLID
5
19E
100
AcDbEntity
8
SK2
62
256
6
ByLayer
370
18
48
1
60
0
100
AcDbTrace
10
0
20
-48.504074
30
0
11
3.499998
21
-48.043291
31
0
12
3.500002
22
-48.964858
32
0
13
3.500002
23
-48.964858
33
0
39
0
210
0
220
0
230
1
0
SOLID
5
19F
100
AcDbEntity
8
SK2
62
256
6
ByLayer
370
18
48
1
60
0
100
AcDbTrace
10
49
20
-48.504074
30
0
11
45.500002
21
-48.964858
31
0
12
45.499998
22
-48.043291
32
0
13
45.499998
23
-48.043291
33
0
39
0
210
0
220
0
230
1
0
ENDBLK
5
1A1
100
AcDbEntity
8
0
100
AcDbBlockEnd
0
ENDSEC
0
SECTION
2
ENTITIES
0
ARC
5
BC
100
AcDbEntity
8
1
62
256
6
ByLayer
370
18
48
1
60
0
100
AcDbCircle
39
0
10
1.401906
20
4.971206
30
0
40
0.800000000000003
210
0
220
0
230
1
100
AcDbArc
50
209.173819
51
270.03581
0
ARC
5
BD
100
AcDbEntity
8
1
62
256
6
ByLayer
370
18
48
1
60
0
100
AcDbCircle
39
0
10
1.401906
20
-4.971206
30
0
40
0.800000000000003
210
0
220
0
230
1
100
AcDbArc
50
89.96419
51
150.826181
0
ARC
5
BE
100
AcDbEntity
8
1
62
256
6
ByLayer
370
18
48
1
60
0
100
AcDbCircle
39
0
10
0
20
4.2
30
0
40
0.800000000000005
210
0
220
0
230
1
100
AcDbArc
50
29.173819
51
90
0
ARC
5
BF
100
AcDbEntity
8
1
62
256
6
ByLayer
370
18
48
1
60
0
100
AcDbCircle
39
0
10
0
20
-4.2
30
0
40
0.800000000000005
210
0
220
0
230
1
100
AcDbArc
50
270
51
330.826181
0
ARC
5
C0
100
AcDbEntity
8
SK2
62
256
6
ByLayer
370
13
48
1
60
0
100
AcDbCircle
39
0
10
49
20
0
30
0
40
32.5901089551597
210
0
220
0
230
1
100
AcDbArc
50
5.723249
51
69.996085
0
ARC
5
C1
100
AcDbEntity
8
SK2
62
256
6
ByLayer
370
13
48
1
60
0
100
AcDbCircle
39
0
10
49
20
0
30
0
40
32.5901089551597
210
0
220
0
230
1
100
AcDbArc
50
290.003915
51
354.276751
0
ELLIPSE
5
C2
100
AcDbEntity
8
1
62
256
6
ByLayer
370
18
48
1
60
0
100
AcDbEllipse
10
3.75
20
-4.213367
30
0
11
0.25
21
0
31
0
210
0
220
0
230
1
40
0.999998
41
1.57306940049905
42
2.92569130905854
0
ELLIPSE
5
C3
100
AcDbEntity
8
1
62
256
6
ByLayer
370
18
48
1
60
0
100
AcDbEllipse
10
3.75
20
4.213367
30
0
11
0.25
21
0
31
0
210
0
220
0
230
1
40
0.999998
41
-2.92612877809833
42
-1.56266114349224
0
POINT
5
70
100
AcDbEntity
8
81
62
256
6
ByLayer
370
18
48
1
60
0
100
AcDbPoint
10
49
20
0
30
0
39
0
210
0
220
0
230
1
50
360
0
POINT
5
72
100
AcDbEntity
8
80
62
256
6
ByLayer
370
18
48
1
60
0
100
AcDbPoint
10
0
20
0
30
0
39
0
210
0
220
0
230
1
50
360
0
POINT
5
74
100
AcDbEntity
8
1
62
256
6
ByLayer
370
18
48
1
60
0
100
AcDbPoint
10
-213.879946
20
-200
30
0
39
0
210
0
220
0
230
1
50
360
0
POINT
5
76
100
AcDbEntity
8
1
62
256
6
ByLayer
370
13
48
1
60
1
100
AcDbPoint
10
-41.5
20
0
30
0
39
0
210
0
220
0
230
1
50
360
0
POINT
5
77
100
AcDbEntity
8
1
62
256
6
ByLayer
370
13
48
1
60
1
100
AcDbPoint
10
49.018833
20
0
30
0
39
0
210
0
220
0
230
1
50
360
0
POINT
5
78
100
AcDbEntity
8
1
62
256
6
ByLayer
370
18
48
1
60
1
100
AcDbPoint
10
-40
20
-5
30
0
39
0
210
0
220
0
230
1
50
360
0
POINT
5
79
100
AcDbEntity
8
1
62
256
6
ByLayer
370
18
48
1
60
1
100
AcDbPoint
10
49
20
-4.2
30
0
39
0
210
0
220
0
230
1
50
360
0
POINT
5
7A
100
AcDbEntity
8
1
62
256
6
ByLayer
370
18
48
1
60
1
100
AcDbPoint
10
49
20
-4.2
30
0
39
0
210
0
220
0
230
1
50
360
0
POINT
5
7B
100
AcDbEntity
8
1
62
256
6
ByLayer
370
18
48
1
60
1
100
AcDbPoint
10
2
20
-4.2
30
0
39
0
210
0
220
0
230
1
50
360
0
POINT
5
7C
100
AcDbEntity
8
1
62
256
6
ByLayer
370
18
48
1
60
1
100
AcDbPoint
10
49
20
-4.2
30
0
39
0
210
0
220
0
230
1
50
360
0
POINT
5
7D
100
AcDbEntity
8
1
62
256
6
ByLayer
370
18
48
1
60
1
100
AcDbPoint
10
14
20
-4.2
30
0
39
0
210
0
220
0
230
1
50
360
0
POINT
5
7E
100
AcDbEntity
8
1
62
256
6
ByLayer
370
18
48
1
60
1
100
AcDbPoint
10
-40
20
-5
30
0
39
0
210
0
220
0
230
1
50
360
0
POINT
5
7F
100
AcDbEntity
8
1
62
256
6
ByLayer
370
18
48
1
60
1
100
AcDbPoint
10
0
20
-5
30
0
39
0
210
0
220
0
230
1
50
360
0
POINT
5
80
100
AcDbEntity
8
1
62
256
6
ByLayer
370
18
48
1
60
1
100
AcDbPoint
10
0
20
-5
30
0
39
0
210
0
220
0
230
1
50
360
0
POINT
5
81
100
AcDbEntity
8
1
62
256
6
ByLayer
370
18
48
1
60
1
100
AcDbPoint
10
49
20
-4.2
30
0
39
0
210
0
220
0
230
1
50
360
0
SPLINE
5
C4
100
AcDbEntity
8
1
62
256
6
ByLayer
370
18
48
1
60
0
100
AcDbSpline
70
4
71
3
72
8
73
4
40
0
40
0
40
0
40
0
40
1
40
1
40
1
40
1
41
1
10
48.5976308757765
20
1.39072220397037
30
0
41
1
10
48.7344265966773
20
1.00586567171197
30
0
41
1
10
48.8672801228187
20
0.619592433237045
30
0
41
1
10
48.996126902837
20
0.23187929072725
30
0
0
SPLINE
5
C5
100
AcDbEntity
8
1
62
256
6
ByLayer
370
18
48
1
60
0
100
AcDbSpline
70
4
71
3
72
19
73
15
40
0
40
0
40
0
40
0
40
0.499999999999933
40
0.499999999999933
40
0.749999999999903
40
0.749999999999903
40
0.874999999999909
40
0.874999999999909
40
0.937499999999933
40
0.968749999999942
40
0.984374999999968
40
0.992187499999984
40
0.992187499999984
40
1
40
1
40
1
40
1
41
1
10
47.4730152489367
20
4.19995250440644
30
0
41
1
10
47.4881553788881
20
4.16528812575487
30
0
41
1
10
47.5035643092058
20
4.13069530974235
30
0
41
1
10
47.5271417471632
20
4.07864554344965
30
0
41
1
10
47.5350889003024
20
4.06122558370376
30
0
41
1
10
47.5470923479757
20
4.03518392590215
30
0
41
1
10
47.5511047829661
20
4.02652844617643
30
0
41
1
10
47.5571251946094
20
4.0136448053841
30
0
41
1
10
47.5601363176941
20
4.00722597431826
30
0
41
1
10
47.563687968196
20
3.99962637830507
30
0
41
1
10
47.5654772083652
20
3.99578326599851
30
0
41
1
10
47.5662470378866
20
3.99412596850567
30
0
41
1
10
47.5667609617464
20
3.99301868286275
30
0
41
1
10
47.5670338758245
20
3.9924081343593
30
0
41
1
10
47.5672637874961
20
3.99195496472277
30
0
0
SPLINE
5
C6
100
AcDbEntity
8
1
62
256
6
ByLayer
370
13
48
1
60
0
100
AcDbSpline
70
4
71
3
72
13
73
9
40
0
40
0
40
0
40
0
40
0.102285750510197
40
0.32671431288266
40
0.32671431288266
40
0.551142875255123
40
0.551142875255123
40
1
40
1
40
1
40
1
41
1
10
3.55678325721203
20
2.00417529425423
30
0
41
1
10
3.55387303119323
20
2.00769050277029
30
0
41
1
10
3.54494335480899
20
2.01911176348284
30
0
41
1
10
3.53714073934299
20
2.03112992399468
30
0
41
1
10
3.52745118287288
20
2.04818987188304
30
0
41
1
10
3.52310875799202
20
2.05702498708601
30
0
41
1
10
3.51172646516079
20
2.08415540196296
30
0
41
1
10
3.50639951370357
20
2.10282948973847
30
0
41
1
10
3.50326991306949
20
2.12196889360675
30
0
0
SPLINE
5
C7
100
AcDbEntity
8
1
62
256
6
ByLayer
370
18
48
1
60
0
100
AcDbSpline
70
2053
71
3
72
119
73
115
40
0
40
0
40
0
40
0
40
0.0312500000000105
40
0.0312500000000105
40
0.0468750000000157
40
0.0468750000000157
40
0.0625000000000209
40
0.0625000000000209
40
0.0937500000000282
40
0.0937500000000282
40
0.109375000000031
40
0.109375000000031
40
0.117187500000032
40
0.117187500000032
40
0.125000000000033
40
0.125000000000033
40
0.156250000000034
40
0.156250000000034
40
0.171875000000035
40
0.171875000000035
40
0.179687500000035
40
0.179687500000035
40
0.187500000000035
40
0.187500000000035
40
0.218750000000033
40
0.218750000000033
40
0.234375000000033
40
0.234375000000033
40
0.242187500000033
40
0.242187500000033
40
0.250000000000033
40
0.250000000000033
40
0.281250000000033
40
0.281250000000033
40
0.296875000000032
40
0.296875000000032
40
0.304687500000032
40
0.304687500000032
40
0.312500000000032
40
0.312500000000032
40
0.343750000000031
40
0.343750000000031
40
0.351562500000032
40
0.351562500000032
40
0.359375000000032
40
0.359375000000032
40
0.375000000000032
40
0.390625000000032
40
0.390625000000032
40
0.406250000000032
40
0.406250000000032
40
0.43750000000003
40
0.43750000000003
40
0.44531250000003
40
0.44531250000003
40
0.453125000000029
40
0.468750000000028
40
0.484375000000027
40
0.484375000000027
40
0.492187500000028
40
0.492187500000028
40
0.500000000000029
40
0.500000000000029
40
0.531250000000034
40
0.531250000000034
40
0.546875000000036
40
0.546875000000036
40
0.562500000000039
40
0.562500000000039
40
0.593750000000039
40
0.593750000000039
40
0.60937500000004
40
0.60937500000004
40
0.62500000000004
40
0.62500000000004
40
0.656250000000041
40
0.656250000000041
40
0.66406250000004
40
0.66406250000004
40
0.671875000000039
40
0.671875000000039
40
0.687500000000041
40
0.687500000000041
40
0.718750000000044
40
0.718750000000044
40
0.726562500000045
40
0.726562500000045
40
0.734375000000045
40
0.750000000000043
40
0.765625000000042
40
0.765625000000042
40
0.781250000000041
40
0.781250000000041
40
0.812500000000038
40
0.812500000000038
40
0.828125000000037
40
0.828125000000037
40
0.843750000000035
40
0.859375000000034
40
0.859375000000034
40
0.867187500000033
40
0.867187500000033
40
0.875000000000032
40
0.875000000000032
40
0.906250000000024
40
0.906250000000024
40
0.937500000000016
40
0.937500000000016
40
0.953125000000012
40
0.953125000000012
40
0.968750000000008
40
0.984375000000004
40
0.984375000000004
40
1
40
1
40
1
40
1
41
1
10
47.827425212174
20
-1.99104592113181
30
0
41
1
10
47.8117517177308
20
-2.01356299251776
30
0
41
1
10
47.7966118057518
20
-2.03242825483753
30
0
41
1
10
47.7745502918248
20
-2.05561423563367
30
0
41
1
10
47.7673049124404
20
-2.0624843772905
30
0
41
1
10
47.7530088051572
20
-2.07449745409224
30
0
41
1
10
47.7459469240683
20
-2.07964721726694
30
0
41
1
10
47.7250914041701
20
-2.09238011763983
30
0
41
1
10
47.7119270500143
20
-2.09709560863885
30
0
41
1
10
47.6930689522846
20
-2.09869531565408
30
0
41
1
10
47.6869319858818
20
-2.0983106015351
30
0
41
1
10
47.6779300958812
20
-2.09632964381976
30
0
41
1
10
47.6749634376145
20
-2.09543499793713
30
0
41
1
10
47.6690952462795
20
-2.0931681711493
30
0
41
1
10
47.6661871092087
20
-2.0917920302405
30
0
41
1
10
47.6518896579144
20
-2.08373853363369
30
0
41
1
10
47.6412772000017
20
-2.07362496485112
30
0
41
1
10
47.6264001746398
20
-2.0530282186152
30
0
41
1
10
47.6216163203704
20
-2.04525287008175
30
0
41
1
10
47.614692068696
20
-2.03218435060879
30
0
41
1
10
47.612425997023
20
-2.02759355987493
30
0
41
1
10
47.607977154462
20
-2.01793108625671
30
0
41
1
10
47.6057889188943
20
-2.01284545330603
30
0
41
1
10
47.5951290321767
20
-1.98636134823911
30
0
41
1
10
47.5875265106237
20
-1.96194941919552
30
0
41
1
10
47.5774366851743
20
-1.92049114518829
30
0
41
1
10
47.5742946620623
20
-1.90585976237966
30
0
41
1
10
47.5699262455369
20
-1.88264164741162
30
0
41
1
10
47.568527705479
20
-1.87469003821889
30
0
41
1
10
47.5658501317698
20
-1.85834807562233
30
0
41
1
10
47.5645684487226
20
-1.8499361036726
30
0
41
1
10
47.558540248064
20
-1.80723239854365
30
0
41
1
10
47.5548657278556
20
-1.77076075828711
30
0
41
1
10
47.5512247013424
20
-1.71250689771983
30
0
41
1
10
47.5503259718519
20
-1.69249351158146
30
0
41
1
10
47.5495033833149
20
-1.6615232033202
30
0
41
1
10
47.5493168528023
20
-1.65100751484888
30
0
41
1
10
47.5491332847527
20
-1.62981101291919
30
0
41
1
10
47.5491358627943
20
-1.61916102797289
30
0
41
1
10
47.5496281912687
20
-1.56565571043987
30
0
41
1
10
47.5515357087045
20
-1.52204294315163
30
0
41
1
10
47.5561314241121
20
-1.46648184801219
30
0
41
1
10
47.5571624772286
20
-1.45531681198307
30
0
41
1
10
47.559462365781
20
-1.432877825942
30
0
41
1
10
47.5607321194921
20
-1.421606371443
30
0
41
1
10
47.5648527384714
20
-1.38813720568172
30
0
41
1
10
47.5712085227418
20
-1.34408927694472
30
0
41
1
10
47.5793393773031
20
-1.3011845259748
30
0
41
1
10
47.5884090005202
20
-1.2588636575058
30
0
41
1
10
47.5934522126693
20
-1.2378648468075
30
0
41
1
10
47.6096927322973
20
-1.17724824005759
30
0
41
1
10
47.6220276172872
20
-1.13968770015273
30
0
41
1
10
47.6393208771176
20
-1.09608984341142
30
0
41
1
10
47.6428845229388
20
-1.08751564042993
30
0
41
1
10
47.6501404435234
20
-1.07084571188957
30
0
41
1
10
47.6612129547112
20
-1.04656298429705
30
0
41
1
10
47.6805767318917
20
-1.00953793650558
30
0
41
1
10
47.6969862159776
20
-0.983377784100895
30
0
41
1
10
47.7096239083756
20
-0.965013310478753
30
0
41
1
10
47.7138967614249
20
-0.959095944798037
30
0
41
1
10
47.7224719937367
20
-0.947777155593656
30
0
41
1
10
47.7267834183394
20
-0.942361849803234
30
0
41
1
10
47.748451551838
20
-0.916457234913452
30
0
41
1
10
47.766140308372
20
-0.89945021648947
30
0
41
1
10
47.7930662679363
20
-0.879028503200828
30
0
41
1
10
47.8021301213782
20
-0.873068933142463
30
0
41
1
10
47.8200950360047
20
-0.862979766133179
30
0
41
1
10
47.8290264875075
20
-0.858822757593543
30
0
41
1
10
47.8556408619328
20
-0.848890589504776
30
0
41
1
10
47.8731462107592
20
-0.845632733258554
30
0
41
1
10
47.8989026630435
20
-0.84572065182806
30
0
41
1
10
47.9073951756776
20
-0.846592844973486
30
0
41
1
10
47.9239230120827
20
-0.849970989702655
30
0
41
1
10
47.9319923509988
20
-0.852475434984058
30
0
41
1
10
47.9555840446351
20
-0.862411301480392
30
0
41
1
10
47.9704962013625
20
-0.872241419282432
30
0
41
1
10
47.9879287456727
20
-0.88879682782121
30
0
41
1
10
47.9913543863927
20
-0.892323201229487
30
0
41
1
10
47.9980770345468
20
-0.899821343457745
30
0
41
1
10
48.0013745238226
20
-0.903795551980807
30
0
41
1
10
48.0109753994084
20
-0.916290976917566
30
0
41
1
10
48.0170189106795
20
-0.925416320621935
30
0
41
1
10
48.034028537948
20
-0.955228536113452
30
0
41
1
10
48.0438857888464
20
-0.978321169491949
30
0
41
1
10
48.054039231454
20
-1.0117688434851
30
0
41
1
10
48.0559653013301
20
-1.01870959431889
30
0
41
1
10
48.059560799399
20
-1.03297301312131
30
0
41
1
10
48.0645645483942
20
-1.05491471222143
30
0
41
1
10
48.0709412794677
20
-1.09423646342407
30
0
41
1
10
48.0738719682904
20
-1.12875307351905
30
0
41
1
10
48.0756486559237
20
-1.1649166014667
30
0
41
1
10
48.075950893642
20
-1.18390461985606
30
0
41
1
10
48.0750422693702
20
-1.24191255339056
30
0
41
1
10
48.0720726729709
20
-1.28240389627467
30
0
41
1
10
48.0640834027699
20
-1.34604703788307
30
0
41
1
10
48.0607973196218
20
-1.36789330158274
30
0
41
1
10
48.0532305849859
20
-1.41139012589116
30
0
41
1
10
48.044656698978
20
-1.45490300400036
30
0
41
1
10
48.0342103216602
20
-1.49846666720703
30
0
41
1
10
48.0257032653868
20
-1.53116621734273
30
0
41
1
10
48.0227455591136
20
-1.54210394861585
30
0
41
1
10
48.0166781279675
20
-1.56374409768847
30
0
41
1
10
48.0135648688418
20
-1.57446296611522
30
0
41
1
10
47.9976272319996
20
-1.6275720953366
30
0
41
1
10
47.9837045874436
20
-1.66852420636829
30
0
41
1
10
47.9539081202439
20
-1.74758535552959
30
0
41
1
10
47.938506388237
20
-1.78444300658163
30
0
41
1
10
47.9149006317088
20
-1.83605868081969
30
0
41
1
10
47.9069385487325
20
-1.85266237656313
30
0
41
1
10
47.8908703302192
20
-1.88461634029082
30
0
41
1
10
47.8748637888597
20
-1.91491196552766
30
0
41
1
10
47.8589830414191
20
-1.94207359636422
30
0
41
1
10
47.8431616503592
20
-1.96770753961593
30
0
41
1
10
47.8352619593956
20
-1.97978738543884
30
0
41
1
10
47.827425212174
20
-1.99104592113181
30
0
0
SPLINE
5
C8
100
AcDbEntity
8
1
62
256
6
ByLayer
370
18
48
1
60
0
100
AcDbSpline
70
4
71
3
72
8
73
4
40
0
40
0
40
0
40
0
40
1
40
1
40
1
40
1
41
1
10
48.5976308757765
20
-1.39072220397037
30
0
41
1
10
48.7344265966755
20
-1.00586567171717
30
0
41
1
10
48.8672801228151
20
-0.619592433247504
30
0
41
1
10
48.9961269028318
20
-0.231879290742995
30
0
0
SPLINE
5
C9
100
AcDbEntity
8
1
62
256
6
ByLayer
370
18
48
1
60
0
100
AcDbSpline
70
4
71
3
72
8
73
4
40
0
40
0
40
0
40
0
40
1
40
1
40
1
40
1
41
1
10
48.9961269028322
20
0.231879290731911
30
0
41
1
10
49.0012879901106
20
0.077384166484336
30
0
41
1
10
49.0012940782672
20
-0.0772019199125396
30
0
41
1
10
48.9961269028318
20
-0.231879290743024
30
0
0
SPLINE
5
CA
100
AcDbEntity
8
1
62
256
6
ByLayer
370
18
48
1
60
0
100
AcDbSpline
70
4
71
3
72
8
73
4
40
0
40
0
40
0
40
0
40
1
40
1
40
1
40
1
41
1
10
48.9961269028279
20
0.23187929073012
30
0
41
1
10
48.977985177972
20
0.17141151665345
30
0
41
1
10
48.9597530048277
20
0.110972119811294
30
0
41
1
10
48.9414307225771
20
0.0505609937886788
30
0
0
SPLINE
5
CB
100
AcDbEntity
8
1
62
256
6
ByLayer
370
18
48
1
60
0
100
AcDbSpline
70
4
71
3
72
46
73
42
40
0
40
0
40
0
40
0
40
0.125000000000005
40
0.125000000000005
40
0.156250000000011
40
0.156250000000011
40
0.187500000000017
40
0.187500000000017
40
0.250000000000018
40
0.250000000000018
40
0.31250000000002
40
0.31250000000002
40
0.34375000000002
40
0.34375000000002
40
0.375000000000021
40
0.375000000000021
40
0.437500000000023
40
0.437500000000023
40
0.468750000000017
40
0.468750000000017
40
0.500000000000012
40
0.500000000000012
40
0.562500000000013
40
0.562500000000013
40
0.593750000000014
40
0.593750000000014
40
0.625000000000014
40
0.625000000000014
40
0.687500000000016
40
0.687500000000016
40
0.718750000000017
40
0.718750000000017
40
0.750000000000017
40
0.750000000000017
40
0.875000000000012
40
0.875000000000012
40
0.906250000000009
40
0.906250000000009
40
0.937500000000006
40
0.937500000000006
40
1
40
1
40
1
40
1
41
1
10
48.9414307225771
20
0.0505609937886788
30
0
41
1
10
48.9211000440163
20
-0.0164720956412054
30
0
41
1
10
48.8977257691758
20
-0.0819726602366302
30
0
41
1
10
48.8645601970602
20
-0.161795013523658
30
0
41
1
10
48.8577271012639
20
-0.177655457226194
30
0
41
1
10
48.8436449953602
20
-0.20915832570256
30
0
41
1
10
48.8364078981715
20
-0.224768551117307
30
0
41
1
10
48.8144165623337
20
-0.270509140153536
30
0
41
1
10
48.7992763344496
20
-0.299798685981102
30
0
41
1
10
48.7680593683637
20
-0.355894607071207
30
0
41
1
10
48.7519832731049
20
-0.382702612623547
30
0
41
1
10
48.7271307089229
20
-0.420887337583963
30
0
41
1
10
48.7186807010803
20
-0.433332727481087
30
0
41
1
10
48.7018304231066
20
-0.457070011197487
30
0
41
1
10
48.6934107872424
20
-0.46839728062497
30
0
41
1
10
48.6681685506489
20
-0.500773830967489
30
0
41
1
10
48.6513636132107
20
-0.520225745200747
30
0
41
1
10
48.6261742634964
20
-0.546138578741164
30
0
41
1
10
48.6177805826699
20
-0.55423008273155
30
0
41
1
10
48.6009927541597
20
-0.569284671286539
30
0
41
1
10
48.5926491286382
20
-0.576197618751792
30
0
41
1
10
48.5680648381973
20
-0.594882366375856
30
0
41
1
10
48.5521409088711
20
-0.604726387611095
30
0
41
1
10
48.528861808029
20
-0.615727149760431
30
0
41
1
10
48.5212034890741
20
-0.61876423710828
30
0
41
1
10
48.5060767431314
20
-0.623578960912141
30
0
41
1
10
48.4986182815342
20
-0.625347590988611
30
0
41
1
10
48.4768503880634
20
-0.628733037002121
30
0
41
1
10
48.4630232611032
20
-0.628481186006155
30
0
41
1
10
48.4431464715541
20
-0.624633662863886
30
0
41
1
10
48.4366654942179
20
-0.622770750080605
30
0
41
1
10
48.4239718712086
20
-0.617911407137228
30
0
41
1
10
48.4177449306249
20
-0.614903304859979
30
0
41
1
10
48.3876166742885
20
-0.597322399774953
30
0
41
1
10
48.3663918899772
20
-0.575183983733638
30
0
41
1
10
48.3423770462818
20
-0.539210827646201
30
0
41
1
10
48.3377028953269
20
-0.531594804889437
30
0
41
1
10
48.328595483183
20
-0.515542850194237
30
0
41
1
10
48.3241623637303
20
-0.507104243311517
30
0
41
1
10
48.3112922844748
20
-0.480782229450881
30
0
41
1
10
48.3032488525641
20
-0.461838710295041
30
0
41
1
10
48.2956704966265
20
-0.441609154025059
30
0
0
SPLINE
5
CC
100
AcDbEntity
8
1
62
256
6
ByLayer
370
18
48
1
60
0
100
AcDbSpline
70
4
71
3
72
8
73
4
40
0
40
0
40
0
40
0
40
1
40
1
40
1
40
1
41
1
10
48.2956704966266
20
-0.441609154024945
30
0
41
1
10
48.1814645716639
20
-0.136749471472314
30
0
41
1
10
48.0431684547147
20
0.183952574686629
30
0
41
1
10
47.8810860658247
20
0.520297118387134
30
0
0
SPLINE
5
CD
100
AcDbEntity
8
1
62
256
6
ByLayer
370
18
48
1
60
0
100
AcDbSpline
70
4
71
3
72
36
73
32
40
0
40
0
40
0
40
0
40
0.0312499999999941
40
0.0312499999999941
40
0.0624999999999883
40
0.0624999999999883
40
0.124999999999976
40
0.124999999999976
40
0.187499999999964
40
0.187499999999964
40
0.218749999999958
40
0.218749999999958
40
0.249999999999951
40
0.249999999999951
40
0.31249999999995
40
0.31249999999995
40
0.374999999999948
40
0.374999999999948
40
0.499999999999956
40
0.499999999999956
40
0.56249999999996
40
0.56249999999996
40
0.624999999999964
40
0.624999999999964
40
0.749999999999972
40
0.749999999999972
40
0.874999999999981
40
0.874999999999981
40
0.93749999999999
40
0.93749999999999
40
1
40
1
40
1
40
1
41
1
10
47.8810860658246
20
0.520297118387106
30
0
41
1
10
47.8728649966665
20
0.52527710591076
30
0
41
1
10
47.8646799948881
20
0.530508079975789
30
0
41
1
10
47.8481788715459
20
0.540513189917931
30
0
41
1
10
47.8398644433808
20
0.545283620575162
30
0
41
1
10
47.8147094462704
20
0.558751564268704
30
0
41
1
10
47.7976452666296
20
0.566539426916449
30
0
41
1
10
47.7630678452026
20
0.580227569739378
30
0
41
1
10
47.7455584467515
20
0.586148431337364
30
0
41
1
10
47.7190602702854
20
0.594036593773978
30
0
41
1
10
47.710180936826
20
0.596474400672719
30
0
41
1
10
47.6924021268265
20
0.60120019547486
30
0
41
1
10
47.6835033871135
20
0.603552191370198
30
0
41
1
10
47.6567794507271
20
0.610573259020384
30
0
41
1
10
47.6389071716944
20
0.614839701079489
30
0
41
1
10
47.6030423195348
20
0.621800074889848
30
0
41
1
10
47.5850531811578
20
0.624549794182997
30
0
41
1
10
47.5309686220165
20
0.630762623119807
30
0
41
1
10
47.4947625145876
20
0.632285087761858
30
0
41
1
10
47.4404080801743
20
0.63172318553012
30
0
41
1
10
47.4222819752775
20
0.631039495798916
30
0
41
1
10
47.3860402975113
20
0.629454821051127
30
0
41
1
10
47.3679210204801
20
0.628398904755073
30
0
41
1
10
47.3135861316484
20
0.623592166944519
30
0
41
1
10
47.2773970912272
20
0.618355076215522
30
0
41
1
10
47.2052652629509
20
0.603794390038729
30
0
41
1
10
47.1693229155402
20
0.594538918897541
30
0
41
1
10
47.1157127825347
20
0.578000433154642
30
0
41
1
10
47.097893728712
20
0.572024667609668
30
0
41
1
10
47.0623717361825
20
0.559313370914509
30
0
41
1
10
47.0446664195056
20
0.552645793602238
30
0
41
1
10
47.0270260812063
20
0.545613153290674
30
0
0
SPLINE
5
CE
100
AcDbEntity
8
1
62
256
6
ByLayer
370
18
48
1
60
0
100
AcDbSpline
70
4
71
3
72
32
73
28
40
0
40
0
40
0
40
0
40
0.0390855848230198
40
0.0390855848230198
40
0.231268467858396
40
0.231268467858396
40
0.27931418861723
40
0.27931418861723
40
0.327359909376064
40
0.327359909376064
40
0.423451350893731
40
0.423451350893731
40
0.471497071652575
40
0.471497071652575
40
0.51954279241142
40
0.51954279241142
40
0.615634233929136
40
0.615634233929136
40
0.711725675446852
40
0.711725675446852
40
0.75977139620571
40
0.75977139620571
40
0.807817116964568
40
0.807817116964568
40
0.903908558482284
40
0.903908558482284
40
1
40
1
40
1
40
1
41
1
10
47.2450515553435
20
0.74303888615816
30
0
41
1
10
47.2462022711726
20
0.748862756033617
30
0
41
1
10
47.2476717585495
20
0.754806885840679
30
0
41
1
10
47.2582129408462
20
0.79053609611907
30
0
41
1
10
47.2744045714191
20
0.822677594463329
30
0
41
1
10
47.3037500096566
20
0.866650562917386
30
0
41
1
10
47.3101013582127
20
0.875639917355983
30
0
41
1
10
47.3235948039298
20
0.893675779145894
30
0
41
1
10
47.3307582965837
20
0.9027549353479
30
0
41
1
10
47.3535243698557
20
0.930122905108163
30
0
41
1
10
47.3703911375848
20
0.948548815222949
30
0
41
1
10
47.3984101912835
20
0.976262780531783
30
0
41
1
10
47.4082048777248
20
0.985512721999726
30
0
41
1
10
47.4287596782916
20
1.00399523815193
30
0
41
1
10
47.439571733292
20
1.01326798263818
30
0
41
1
10
47.4730715545487
20
1.04059669790962
30
0
41
1
10
47.4968322802508
20
1.05820443295516
30
0
41
1
10
47.5472837989527
20
1.09187888277233
30
0
41
1
10
47.5739750426419
20
1.10794607984039
30
0
41
1
10
47.6163791058734
20
1.13056428249698
30
0
41
1
10
47.63097020423
20
1.13788096700796
30
0
41
1
10
47.6605013454634
20
1.15172736670169
30
0
41
1
10
47.6754763383331
20
1.15827947489021
30
0
41
1
10
47.7210246539775
20
1.17678967777442
30
0
41
1
10
47.7522209662899
20
1.18760101610007
30
0
41
1
10
47.8162642038511
20
1.20599605554085
30
0
41
1
10
47.8492416788611
20
1.21358710464421
30
0
41
1
10
47.8825004335299
20
1.21943628867558
30
0
0
SPLINE
5
CF
100
AcDbEntity
8
1
62
256
6
ByLayer
370
18
48
1
60
0
100
AcDbSpline
70
4
71
3
72
14
73
10
40
0
40
0
40
0
40
0
40
0.25
40
0.25
40
0.5
40
0.5
40
0.75
40
0.75
40
1
40
1
40
1
40
1
41
1
10
47.8825004335299
20
1.21943628867558
30
0
41
1
10
47.9429098674128
20
1.23006043559664
30
0
41
1
10
48.003191484934
20
1.24144195062851
30
0
41
1
10
48.1234539485422
20
1.26598718360617
30
0
41
1
10
48.1834747585408
20
1.27911288568069
30
0
41
1
10
48.3029162163352
20
1.30724105012109
30
0
41
1
10
48.3623577644885
20
1.32224990993962
30
0
41
1
10
48.480564892413
20
1.35455517912513
30
0
41
1
10
48.5393310974032
20
1.37184947268415
30
0
41
1
10
48.5976308757764
20
1.39072220397031
30
0
0
SPLINE
5
D0
100
AcDbEntity
8
1
62
256
6
ByLayer
370
18
48
1
60
0
100
AcDbSpline
70
4
71
3
72
30
73
26
40
0
40
0
40
0
40
0
40
0.125000000000007
40
0.125000000000007
40
0.250000000000013
40
0.250000000000013
40
0.37500000000002
40
0.37500000000002
40
0.437500000000024
40
0.437500000000024
40
0.468750000000023
40
0.468750000000023
40
0.500000000000022
40
0.500000000000022
40
0.562500000000021
40
0.562500000000021
40
0.625000000000019
40
0.625000000000019
40
0.750000000000011
40
0.750000000000011
40
0.875000000000003
40
0.875000000000003
40
0.937500000000001
40
0.937500000000001
40
1
40
1
40
1
40
1
41
1
10
47.5672637874965
20
3.99195496472194
30
0
41
1
10
47.6073879235112
20
3.8818347961587
30
0
41
1
10
47.6472171329701
20
3.77130780035247
30
0
41
1
10
47.7265503909354
20
3.5495648601738
30
0
41
1
10
47.7660595122226
20
3.43832894246614
30
0
41
1
10
47.8449131137317
20
3.21544283277606
30
0
41
1
10
47.8842589957461
20
3.10379421056683
30
0
41
1
10
47.9432715608972
20
2.93614535224353
30
0
41
1
10
47.9629416667385
20
2.88022996627791
30
0
41
1
10
47.9924608557022
20
2.79631793044348
30
0
41
1
10
48.0023015426823
20
2.76834469730804
30
0
41
1
10
48.0219874481144
20
2.71239421434075
30
0
41
1
10
48.0318112595789
20
2.68441266202484
30
0
41
1
10
48.0615483276567
20
2.60051437438119
30
0
41
1
10
48.0816936522629
20
2.54463808706277
30
0
41
1
10
48.1228027480696
20
2.43305653388342
30
0
41
1
10
48.1437993055613
20
2.37727230215
30
0
41
1
10
48.2077074625425
20
2.21173685636586
30
0
41
1
10
48.251694912997
20
2.10336612276262
30
0
41
1
10
48.3434998246193
20
1.89103116111096
30
0
41
1
10
48.3913175595835
20
1.78706512450768
30
0
41
1
10
48.4665438534788
20
1.63459910788518
30
0
41
1
10
48.4922736927608
20
1.58423906641156
30
0
41
1
10
48.5443760699594
20
1.48589786557241
30
0
41
1
10
48.5708040963175
20
1.43779527058271
30
0
41
1
10
48.5976308757765
20
1.39072220397023
30
0
0
SPLINE
5
D1
100
AcDbEntity
8
1
62
256
6
ByLayer
370
18
48
1
60
0
100
AcDbSpline
70
4
71
3
72
28
73
24
40
0
40
0
40
0
40
0
40
0.134462827794242
40
0.134462827794242
40
0.201694241691363
40
0.201694241691363
40
0.268925655588484
40
0.268925655588484
40
0.40338848338272
40
0.40338848338272
40
0.470619897279841
40
0.470619897279841
40
0.537851311176963
40
0.537851311176963
40
0.672314138971199
40
0.672314138971199
40
0.73954555286832
40
0.73954555286832
40
0.806776966765441
40
0.806776966765441
40
0.941239794559683
40
0.941239794559683
40
1
40
1
40
1
40
1
41
1
10
47.5672637875581
20
3.99195496439046
30
0
41
1
10
47.2679246393271
20
3.9985815386006
30
0
41
1
10
46.9683707508728
20
3.99804404280985
30
0
41
1
10
46.5183255163084
20
3.98656711842415
30
0
41
1
10
46.3681430652501
20
3.98096861705704
30
0
41
1
10
46.068176228317
20
3.96625774673629
30
0
41
1
10
45.9183196227007
20
3.95715190493766
30
0
41
1
10
45.4689326632073
20
3.92443515820699
30
0
41
1
10
45.169643363684
20
3.89554570878968
30
0
41
1
10
44.720799945761
20
3.84170199239046
30
0
41
1
10
44.5712042738308
20
3.8220090649431
30
0
41
1
10
44.2719878729002
20
3.77920910320495
30
0
41
1
10
44.1223701209071
20
3.75610995277881
30
0
41
1
10
43.6732788534466
20
3.68170710054105
30
0
41
1
10
43.3736038142232
20
3.62533319678477
30
0
41
1
10
42.923314201039
20
3.53107205880573
30
0
41
1
10
42.7732373778529
20
3.49806195797706
30
0
41
1
10
42.4734218686145
20
3.42900418124037
30
0
41
1
10
42.323630167287
20
3.39294777219109
30
0
41
1
10
41.8744266910046
20
3.28030332243674
30
0
41
1
10
41.5751928768306
20
3.19920691136659
30
0
41
1
10
41.1451982219468
20
3.07465922557489
30
0
41
1
10
41.0144398466183
20
3.03572134542645
30
0
41
1
10
40.883660763126
20
2.99575528584856
30
0
0
SPLINE
5
D2
100
AcDbEntity
8
1
62
256
6
ByLayer
370
18
48
1
60
0
100
AcDbSpline
70
4
71
3
72
19
73
15
40
0
40
0
40
0
40
0
40
0.500000000000018
40
0.500000000000018
40
0.750000000000006
40
0.750000000000006
40
0.875000000000025
40
0.875000000000025
40
0.937500000000031
40
0.968750000000037
40
0.984375000000043
40
0.992187500000022
40
0.992187500000022
40
1
40
1
40
1
40
1
41
1
10
47.4730152489367
20
-4.19995250440641
30
0
41
1
10
47.4881553788883
20
-4.16528812575447
30
0
41
1
10
47.5035643092061
20
-4.13069530974161
30
0
41
1
10
47.5271417471637
20
-4.0786455434484
30
0
41
1
10
47.535088900303
20
-4.06122558370231
30
0
41
1
10
47.5470923479765
20
-4.03518392590041
30
0
41
1
10
47.551104782967
20
-4.02652844617464
30
0
41
1
10
47.5571251946103
20
-4.0136448053822
30
0
41
1
10
47.5601363176951
20
-4.00722597431621
30
0
41
1
10
47.5636879681969
20
-3.99962637830296
30
0
41
1
10
47.5654772083662
20
-3.99578326599632
30
0
41
1
10
47.5662470378876
20
-3.99412596850345
30
0
41
1
10
47.5667609617474
20
-3.99301868286054
30
0
41
1
10
47.5670338758255
20
-3.99240813435677
30
0
41
1
10
47.567263787497
20
-3.99195496472095
30
0
0
SPLINE
5
D3
100
AcDbEntity
8
1
62
256
6
ByLayer
370
18
48
1
60
0
100
AcDbSpline
70
4
71
3
72
30
73
26
40
0
40
0
40
0
40
0
40
0.124999999999995
40
0.124999999999995
40
0.24999999999999
40
0.24999999999999
40
0.374999999999985
40
0.374999999999985
40
0.437499999999985
40
0.437499999999985
40
0.468749999999985
40
0.468749999999985
40
0.499999999999985
40
0.499999999999985
40
0.562499999999985
40
0.562499999999985
40
0.624999999999984
40
0.624999999999984
40
0.74999999999999
40
0.74999999999999
40
0.874999999999995
40
0.874999999999995
40
0.937499999999997
40
0.937499999999997
40
1
40
1
40
1
40
1
41
1
10
47.5672637874969
20
-3.99195496472097
30
0
41
1
10
47.6073879235115
20
-3.88183479615779
30
0
41
1
10
47.6472171329705
20
-3.77130780035159
30
0
41
1
10
47.7265503909356
20
-3.54956486017298
30
0
41
1
10
47.7660595122229
20
-3.43832894246537
30
0
41
1
10
47.8449131137319
20
-3.21544283277538
30
0
41
1
10
47.8842589957462
20
-3.10379421056618
30
0
41
1
10
47.9432715608974
20
-2.93614535224293
30
0
41
1
10
47.9629416667387
20
-2.88022996627731
30
0
41
1
10
47.9924608557023
20
-2.79631793044294
30
0
41
1
10
48.0023015426824
20
-2.7683446973075
30
0
41
1
10
48.0219874481145
20
-2.71239421434021
30
0
41
1
10
48.0318112595791
20
-2.68441266202436
30
0
41
1
10
48.0615483276569
20
-2.60051437438074
30
0
41
1
10
48.0816936522631
20
-2.54463808706231
30
0
41
1
10
48.1228027480698
20
-2.43305653388299
30
0
41
1
10
48.1437993055615
20
-2.37727230214961
30
0
41
1
10
48.2077074625427
20
-2.2117368563656
30
0
41
1
10
48.251694912997
20
-2.1033661227624
30
0
41
1
10
48.3434998246194
20
-1.89103116111079
30
0
41
1
10
48.3913175595835
20
-1.78706512450754
30
0
41
1
10
48.4665438534789
20
-1.63459910788501
30
0
41
1
10
48.4922736927609
20
-1.58423906641139
30
0
41
1
10
48.5443760699595
20
-1.48589786557233
30
0
41
1
10
48.5708040963175
20
-1.43779527058268
30
0
41
1
10
48.5976308757765
20
-1.39072220397023
30
0
0
SPLINE
5
D4
100
AcDbEntity
8
1
62
256
6
ByLayer
370
18
48
1
60
0
100
AcDbSpline
70
4
71
3
72
68
73
64
40
0
40
0
40
0
40
0
40
0.0031717422880314
40
0.0031717422880314
40
0.0484821176385808
40
0.0484821176385808
40
0.0937924929891302
40
0.0937924929891302
40
0.116447680664404
40
0.116447680664404
40
0.139102868339678
40
0.139102868339678
40
0.184413243690224
40
0.184413243690224
40
0.22972361904077
40
0.22972361904077
40
0.275033994391315
40
0.275033994391315
40
0.297689182066589
40
0.297689182066589
40
0.320344369741861
40
0.320344369741861
40
0.365654745092409
40
0.365654745092409
40
0.456275495793506
40
0.456275495793506
40
0.467603089631143
40
0.467603089631143
40
0.478930683468779
40
0.478930683468779
40
0.501585871144051
40
0.501585871144051
40
0.546896246494592
40
0.546896246494592
40
0.569551434169863
40
0.569551434169863
40
0.592206621845134
40
0.592206621845134
40
0.637516997195675
40
0.637516997195675
40
0.660172184870946
40
0.660172184870946
40
0.682827372546217
40
0.682827372546217
40
0.728137747896759
40
0.728137747896759
40
0.75079293557203
40
0.75079293557203
40
0.7734481232473
40
0.7734481232473
40
0.818758498597842
40
0.818758498597842
40
0.841413686273112
40
0.841413686273112
40
0.864068873948382
40
0.864068873948382
40
0.909379249298921
40
0.909379249298921
40
0.932034436974191
40
0.932034436974191
40
0.954689624649461
40
0.954689624649461
40
1
40
1
40
1
40
1
41
1
10
38.6420752303636
20
-2.21897416225792
30
0
41
1
10
38.6211158932652
20
-2.21093126787255
30
0
41
1
10
38.600157884255
20
-2.20286912775896
30
0
41
1
10
38.2798201314716
20
-2.07934228319999
30
0
41
1
10
37.9806198578693
20
-1.96008026032686
30
0
41
1
10
37.382169929313
20
-1.71466443115091
30
0
41
1
10
37.0829223054591
20
-1.58851452339309
30
0
41
1
10
36.6335739478617
20
-1.39514117836492
30
0
41
1
10
36.4836838605451
20
-1.33002078926296
30
0
41
1
10
36.1836587245901
20
-1.19856867057848
30
0
41
1
10
36.0334807097861
20
-1.13221510553623
30
0
41
1
10
35.5835005210731
20
-0.93205037079565
30
0
41
1
10
35.2839555018852
20
-0.796944730927692
30
0
41
1
10
34.6852843134964
20
-0.524402515681203
30
0
41
1
10
34.3860733245454
20
-0.387133817802379
30
0
41
1
10
33.7874813925299
20
-0.111508212312629
30
0
41
1
10
33.4881017138874
20
0.0268583249279004
30
0
41
1
10
33.0385242389465
20
0.234398164121927
30
0
41
1
10
32.8885597177666
20
0.303533480239793
30
0
41
1
10
32.5883345917816
20
0.441527244642202
30
0
41
1
10
32.4382793989565
20
0.510334258464468
30
0
41
1
10
31.9885122512415
20
0.715737266001184
30
0
41
1
10
31.6890520384087
20
0.851413789093613
30
0
41
1
10
30.7911308326839
20
1.25332118670937
30
0
41
1
10
30.1928065951767
20
1.51359129151484
30
0
41
1
10
29.5180020193214
20
1.79344113260845
30
0
41
1
10
29.4429995269722
20
1.82435389614392
30
0
41
1
10
29.2929262325699
20
1.88576709654782
30
0
41
1
10
29.2178384662533
20
1.91626483775656
30
0
41
1
10
28.9927306269224
20
2.0069919621713
30
0
41
1
10
28.8427930544173
20
2.06653091965376
30
0
41
1
10
28.3932454097923
20
2.24213556777326
30
0
41
1
10
28.0938838078568
20
2.3551745344206
30
0
41
1
10
27.6449901399912
20
2.51834433271216
30
0
41
1
10
27.4953820371138
20
2.57165939898823
30
0
41
1
10
27.196076139073
20
2.67584831380367
30
0
41
1
10
27.0464010919546
20
2.72677930089131
30
0
41
1
10
26.5972263454521
20
2.87593640301043
30
0
41
1
10
26.2975543626081
20
2.97046877471485
30
0
41
1
10
25.8474171460418
20
3.10442606322246
30
0
41
1
10
25.6972486034831
20
3.14778096912716
30
0
41
1
10
25.3969570367165
20
3.23139100138661
30
0
41
1
10
25.2468008624525
20
3.27171016629058
30
0
41
1
10
24.7964377902563
20
3.38815100086751
30
0
41
1
10
24.4963300408305
20
3.45966295494452
30
0
41
1
10
24.0460287962331
20
3.55762668325835
30
0
41
1
10
23.8959165600562
20
3.58872621874747
30
0
41
1
10
23.5958707895927
20
3.64750207218162
30
0
41
1
10
23.4459006661311
20
3.67521556725109
30
0
41
1
10
22.9960928523201
20
3.75340397188217
30
0
41
1
10
22.6963121314781
20
3.79883437587048
30
0
41
1
10
22.2464729662817
20
3.85685180529634
30
0
41
1
10
22.0965005662758
20
3.87451346491491
30
0
41
1
10
21.796366186396
20
3.90630548212633
30
0
41
1
10
21.6461701241886
20
3.92042959173884
30
0
41
1
10
21.1961274193049
20
3.95751414167623
30
0
41
1
10
20.8965052219458
20
3.97510535916021
30
0
41
1
10
20.4473705499636
20
3.99081212319678
30
0
41
1
10
20.2977111280274
20
3.99426944241159
30
0
41
1
10
19.9983769665386
20
3.99750650229819
30
0
41
1
10
19.8486915453483
20
3.99726067138965
30
0
41
1
10
19.3995539512386
20
3.99119802997231
30
0
41
1
10
19.0999648409209
20
3.97994784819329
30
0
41
1
10
18.8000000000002
20
3.96164039550533
30
0
0
SPLINE
5
D5
100
AcDbEntity
8
1
62
256
6
ByLayer
370
18
48
1
60
0
100
AcDbSpline
70
4
71
3
72
8
73
4
40
0
40
0
40
0
40
0
40
1
40
1
40
1
40
1
41
1
10
18.8
20
4.15275621525532
30
0
41
1
10
18.8
20
4.08930360161796
30
0
41
1
10
18.8
20
4.02559640042716
30
0
41
1
10
18.8
20
3.96164039550718
30
0
0
SPLINE
5
D6
100
AcDbEntity
8
1
62
256
6
ByLayer
370
18
48
1
60
0
100
AcDbSpline
70
4
71
3
72
181
73
177
40
0
40
0
40
0
40
0
40
0.0185003605555355
40
0.0185003605555355
40
0.0277505408333036
40
0.0277505408333036
40
0.0370007211110716
40
0.0370007211110716
40
0.0462509013888396
40
0.0462509013888396
40
0.0555010816666076
40
0.0555010816666076
40
0.0740014422221432
40
0.0740014422221432
40
0.0832516224999109
40
0.0832516224999109
40
0.0925018027776787
40
0.0925018027776787
40
0.101751983055446
40
0.101751983055446
40
0.111002163333214
40
0.111002163333214
40
0.12950252388875
40
0.12950252388875
40
0.148002884444285
40
0.148002884444285
40
0.157253064722053
40
0.157253064722053
40
0.16650324499982
40
0.16650324499982
40
0.185003605555355
40
0.185003605555355
40
0.203503966110889
40
0.203503966110889
40
0.212754146388657
40
0.212754146388657
40
0.222004326666424
40
0.222004326666424
40
0.231254506944191
40
0.231254506944191
40
0.240504687221959
40
0.240504687221959
40
0.259005047777494
40
0.259005047777494
40
0.277505408333029
40
0.277505408333029
40
0.286755588610796
40
0.286755588610796
40
0.296005768888564
40
0.296005768888564
40
0.305255949166332
40
0.305255949166332
40
0.3145061294441
40
0.3145061294441
40
0.323756309721867
40
0.323756309721867
40
0.333006489999635
40
0.333006489999635
40
0.342256670277403
40
0.342256670277403
40
0.351506850555171
40
0.351506850555171
40
0.360757030832938
40
0.360757030832938
40
0.370007211110706
40
0.370007211110706
40
0.379257391388474
40
0.379257391388474
40
0.388507571666242
40
0.388507571666242
40
0.397757751944009
40
0.397757751944009
40
0.407007932221777
40
0.407007932221777
40
0.416258112499545
40
0.416258112499545
40
0.425508292777313
40
0.425508292777313
40
0.434758473055081
40
0.434758473055081
40
0.444008653332848
40
0.444008653332848
40
0.462509013888383
40
0.462509013888383
40
0.471759194166152
40
0.471759194166152
40
0.48100937444392
40
0.48100937444392
40
0.490259554721688
40
0.490259554721688
40
0.499509734999457
40
0.499509734999457
40
0.518010095554992
40
0.518010095554992
40
0.536510456110528
40
0.536510456110528
40
0.555010816666063
40
0.555010816666063
40
0.564260996943831
40
0.564260996943831
40
0.573511177221599
40
0.573511177221599
40
0.582761357499367
40
0.582761357499367
40
0.592011537777134
40
0.592011537777134
40
0.610511898332671
40
0.610511898332671
40
0.629012258888207
40
0.629012258888207
40
0.638262439165976
40
0.638262439165976
40
0.647512619443744
40
0.647512619443744
40
0.66601297999928
40
0.66601297999928
40
0.684513340554815
40
0.684513340554815
40
0.693763520832583
40
0.693763520832583
40
0.703013701110351
40
0.703013701110351
40
0.721514061665886
40
0.721514061665886
40
0.740014422221422
40
0.740014422221422
40
0.749264602499189
40
0.749264602499189
40
0.758514782776957
40
0.758514782776957
40
0.767764963054725
40
0.767764963054725
40
0.777015143332493
40
0.777015143332493
40
0.795515503888028
40
0.795515503888028
40
0.804765684165796
40
0.804765684165796
40
0.814015864443563
40
0.814015864443563
40
0.832516224999097
40
0.832516224999097
40
0.841766405276865
40
0.841766405276865
40
0.851016585554632
40
0.851016585554632
40
0.860266765832399
40
0.860266765832399
40
0.869516946110166
40
0.869516946110166
40
0.878767126387934
40
0.878767126387934
40
0.888017306665701
40
0.888017306665701
40
0.906517667221236
40
0.906517667221236
40
0.915767847499004
40
0.915767847499004
40
0.925018027776771
40
0.925018027776771
40
0.934268208054538
40
0.934268208054538
40
0.943518388332305
40
0.952768568610072
40
0.952768568610072
40
0.96201874888784
40
0.96201874888784
40
0.971268929165607
40
0.971268929165607
40
0.980519109443374
40
0.980519109443374
40
0.989769289721141
40
0.989769289721141
40
0.999019469998909
40
0.999019469998909
40
1
40
1
40
1
40
1
41
1
10
6.80008228355314
20
3.95489109911122
30
0
41
1
10
7.01042152456864
20
3.96200728009919
30
0
41
1
10
7.22041222059366
20
3.96570772245562
30
0
41
1
10
7.53496348563544
20
3.96603656272575
30
0
41
1
10
7.63974202480634
20
3.96526972364907
30
0
41
1
10
7.84917649756068
20
3.96195126073252
30
0
41
1
10
7.95383725089573
20
3.95940371655703
30
0
41
1
10
8.16315404571651
20
3.95261791662793
30
0
41
1
10
8.26781523236338
20
3.94838130587314
30
0
41
1
10
8.47718631566653
20
3.93832705118265
30
0
41
1
10
8.58188802280182
20
3.93251266722217
30
0
41
1
10
8.89609704938712
20
3.91254760074028
30
0
41
1
10
9.10569062771353
20
3.89580962057772
30
0
41
1
10
9.42033189110748
20
3.8650435758268
30
0
41
1
10
9.52528760885579
20
3.85386527097091
30
0
41
1
10
9.73506958441737
20
3.82973144670984
30
0
41
1
10
9.83990091962366
20
3.81677877945666
30
0
41
1
10
10.0494979133857
20
3.78917622502141
30
0
41
1
10
10.1542501915405
20
3.77451568049884
30
0
41
1
10
10.3639006030809
20
3.74369906197182
30
0
41
1
10
10.468778103586
20
3.72753299348213
30
0
41
1
10
10.7832895144728
20
3.67665061384304
30
0
41
1
10
10.9928415294375
20
3.63958800632764
30
0
41
1
10
11.4115782170915
20
3.55944417158275
30
0
41
1
10
11.6207940005237
20
3.51630495837816
30
0
41
1
10
11.9349779756278
20
3.4464423319757
30
0
41
1
10
12.0397769004707
20
3.42231238585777
30
0
41
1
10
12.2497143362602
20
3.37266555304129
30
0
41
1
10
12.3547998940059
20
3.34709287021181
30
0
41
1
10
12.6697803987462
20
3.26810989284056
30
0
41
1
10
12.8795782658673
20
3.21242533652651
30
0
41
1
10
13.2987479194383
20
3.09550423878386
30
0
41
1
10
13.5081248587385
20
3.03429277825671
30
0
41
1
10
13.8220562466028
20
2.93874990945778
30
0
41
1
10
13.9267137459999
20
2.9063471016251
30
0
41
1
10
14.1361752565468
20
2.84054209401447
30
0
41
1
10
14.2409273981274
20
2.80705225002484
30
0
41
1
10
14.4504700709827
20
2.73870311551406
30
0
41
1
10
14.5552718221109
20
2.70384741889077
30
0
41
1
10
14.7649824096037
20
2.63273097027732
30
0
41
1
10
14.8698893088012
20
2.59648532583557
30
0
41
1
10
15.184777259443
20
2.48584606361749
30
0
41
1
10
15.3944526888027
20
2.40967834646401
30
0
41
1
10
15.8136922040958
20
2.25354647911249
30
0
41
1
10
16.0235467363943
20
2.17410607924117
30
0
41
1
10
16.3380567174455
20
2.05197076887339
30
0
41
1
10
16.4428578688079
20
2.01077768294877
30
0
41
1
10
16.6523711239844
20
1.92741644610265
30
0
41
1
10
16.7570839452817
20
1.88525462916567
30
0
41
1
10
16.9664835128441
20
1.80001244080546
30
0
41
1
10
17.0711703425696
20
1.75693129630736
30
0
41
1
10
17.2806069282021
20
1.66993816996538
30
0
41
1
10
17.3853485486586
20
1.62599698596944
30
0
41
1
10
17.5950223638667
20
1.53755530868162
30
0
41
1
10
17.7000364294863
20
1.49314957477623
30
0
41
1
10
17.9099496341936
20
1.40375129384401
30
0
41
1
10
18.0148346661213
20
1.3587309296739
30
0
41
1
10
18.2244736009393
20
1.26802828237663
30
0
41
1
10
18.3292397864383
20
1.22235237440935
30
0
41
1
10
18.5387515188333
20
1.13047008014939
30
0
41
1
10
18.6434878305621
20
1.08425866981435
30
0
41
1
10
18.8529263044291
20
0.991347716518959
30
0
41
1
10
18.9576320084456
20
0.944652532389597
30
0
41
1
10
19.1670527854915
20
0.85087289295069
30
0
41
1
10
19.2717495060464
20
0.803748768270481
30
0
41
1
10
19.4813206475425
20
0.709488635144368
30
0
41
1
10
19.5862175963935
20
0.66240237131376
30
0
41
1
10
19.7960155145836
20
0.567864396231727
30
0
41
1
10
19.9009283367755
20
0.520437871124585
30
0
41
1
10
20.1107421188137
20
0.425197572208077
30
0
41
1
10
20.2156396052874
20
0.377376052281676
30
0
41
1
10
20.4254134585575
20
0.28133765658157
30
0
41
1
10
20.5302884527557
20
0.233123965995702
30
0
41
1
10
20.7397888708506
20
0.136429528243411
30
0
41
1
10
20.8444329565461
20
0.0879059876091048
30
0
41
1
10
21.0536736926219
20
-0.0090767360092627
30
0
41
1
10
21.1582803469111
20
-0.0575054150698975
30
0
41
1
10
21.3677258795414
20
-0.153678141221661
30
0
41
1
10
21.4725215754047
20
-0.201522160695987
30
0
41
1
10
21.6820699486406
20
-0.297151960782116
30
0
41
1
10
21.7868415221796
20
-0.344895090704597
30
0
41
1
10
22.1011185389923
20
-0.487978897129864
30
0
41
1
10
22.3105815907969
20
-0.583183334328055
30
0
41
1
10
22.6248420842341
20
-0.725412623194387
30
0
41
1
10
22.729608155265
20
-0.772722717776702
30
0
41
1
10
22.9391854412343
20
-0.867105813313771
30
0
41
1
10
23.0440070209601
20
-0.914161317877102
30
0
41
1
10
23.2538654032215
20
-1.00766490281282
30
0
41
1
10
23.3587671898631
20
-1.05417614258349
30
0
41
1
10
23.5684293229407
20
-1.14683061587374
30
0
41
1
10
23.6732018302095
20
-1.19294706020796
30
0
41
1
10
23.987409548561
20
-1.33036662765056
30
0
41
1
10
24.1967460480879
20
-1.42072021914501
30
0
41
1
10
24.6153470725508
20
-1.59878326231922
30
0
41
1
10
24.8245646935691
20
-1.6865612033173
30
0
41
1
10
25.2437898711946
20
-1.85791419397839
30
0
41
1
10
25.4535289764431
20
-1.94202694696347
30
0
41
1
10
25.7680308405674
20
-2.06655664206349
30
0
41
1
10
25.8728795186862
20
-2.10781309838288
30
0
41
1
10
26.0823926573023
20
-2.18961286844942
30
0
41
1
10
26.1870631223984
20
-2.23012993811361
30
0
41
1
10
26.3963301796651
20
-2.31003845809244
30
0
41
1
10
26.5009184452783
20
-2.34944206317073
30
0
41
1
10
26.7101571386162
20
-2.42678232908426
30
0
41
1
10
26.8148584216383
20
-2.46465180607183
30
0
41
1
10
27.1290746212272
20
-2.57628999719648
30
0
41
1
10
27.3385634754548
20
-2.64830096671406
30
0
41
1
10
27.7574324693247
20
-2.78788249294186
30
0
41
1
10
27.9668419866444
20
-2.855397612226
30
0
41
1
10
28.2809830966659
20
-2.95350481563835
30
0
41
1
10
28.3856819163645
20
-2.98571717711522
30
0
41
1
10
28.5952309871465
20
-3.04882953576436
30
0
41
1
10
28.7001346136299
20
-3.07965369435027
30
0
41
1
10
29.0146393377304
20
-3.16996144556777
30
0
41
1
10
29.2241399095168
20
-3.22726997259821
30
0
41
1
10
29.6426913653211
20
-3.3365742798081
30
0
41
1
10
29.8517345904501
20
-3.38867384996831
30
0
41
1
10
30.1653094983575
20
-3.46213134231098
30
0
41
1
10
30.2698230546802
20
-3.48583481137393
30
0
41
1
10
30.479080017102
20
-3.53135097431726
30
0
41
1
10
30.5838391458519
20
-3.55316382422239
30
0
41
1
10
30.8981915742139
20
-3.61618297233406
30
0
41
1
10
31.1078931650665
20
-3.65494024956004
30
0
41
1
10
31.5274929256775
20
-3.72625794771829
30
0
41
1
10
31.737002633596
20
-3.75871195833517
30
0
41
1
10
32.0510146798691
20
-3.80271477150885
30
0
41
1
10
32.1556292013542
20
-3.81661030488459
30
0
41
1
10
32.3649857276747
20
-3.84277695848252
30
0
41
1
10
32.4697053048477
20
-3.85506205759751
30
0
41
1
10
32.6790176173357
20
-3.87828046323705
30
0
41
1
10
32.7836112337581
20
-3.88926636545889
30
0
41
1
10
32.9927587029812
20
-3.90949239169757
30
0
41
1
10
33.0973318957225
20
-3.91864428927943
30
0
41
1
10
33.4111800372916
20
-3.94295612499226
30
0
41
1
10
33.6205457479205
20
-3.95513602911353
30
0
41
1
10
33.9349031362631
20
-3.96803305971963
30
0
41
1
10
34.0397902697429
20
-3.97142120028818
30
0
41
1
10
34.2496683546853
20
-3.97641272205357
30
0
41
1
10
34.3546089603842
20
-3.97802652628488
30
0
41
1
10
34.6692531235053
20
-3.98034441103854
30
0
41
1
10
34.8788029811182
20
-3.97852879449357
30
0
41
1
10
35.1927236515859
20
-3.97127588586773
30
0
41
1
10
35.2973014688915
20
-3.96809467266482
30
0
41
1
10
35.5064008426252
20
-3.96006221462719
30
0
41
1
10
35.6109198974488
20
-3.95521093425975
30
0
41
1
10
35.8200328369361
20
-3.94356959438323
30
0
41
1
10
35.9246747134089
20
-3.93677540092116
30
0
41
1
10
36.1341942612028
20
-3.9213791203359
30
0
41
1
10
36.2390192281288
20
-3.91276201029157
30
0
41
1
10
36.4487147540526
20
-3.89376311012197
30
0
41
1
10
36.5535881860156
20
-3.88339015960833
30
0
41
1
10
36.7633769334116
20
-3.86089782675168
30
0
41
1
10
36.8682967704622
20
-3.84877628528986
30
0
41
1
10
37.182769773187
20
-3.8098469423752
30
0
41
1
10
37.3921688899354
20
-3.7803956235035
30
0
41
1
10
37.7061414302495
20
-3.73161918779317
30
0
41
1
10
37.8108381133683
20
-3.71465666892251
30
0
41
1
10
38.0202551268964
20
-3.679327111909
30
0
41
1
10
38.1249426073673
20
-3.66091415742102
30
0
41
1
10
38.3342889913997
20
-3.62242671117576
30
0
41
1
10
38.4389482904346
20
-3.60234780534554
30
0
41
1
10
38.6482955372039
20
-3.56040100852417
30
0
41
1
10
38.8576713686604
20
-3.51669845728671
30
0
41
1
10
39.0671463975107
20
-3.46966650433973
30
0
41
1
10
39.2766962598659
20
-3.42107083858915
30
0
41
1
10
39.3814939025934
20
-3.39597225915864
30
0
41
1
10
39.5912822838105
20
-3.34437849544352
30
0
41
1
10
39.6962212581003
20
-3.31797216831856
30
0
41
1
10
39.9060281275192
20
-3.26379823316401
30
0
41
1
10
40.0108875606225
20
-3.23601877463992
30
0
41
1
10
40.2204911291377
20
-3.17906966982304
30
0
41
1
10
40.3252318166427
20
-3.14989525785052
30
0
41
1
10
40.534592309522
20
-3.09017237083049
30
0
41
1
10
40.6392107451763
20
-3.05963379194137
30
0
41
1
10
40.754881916305
20
-3.02509905284683
30
0
41
1
10
40.7659677055736
20
-3.02178144159558
30
0
41
1
10
40.7770532031674
20
-3.01845608695896
30
0
0
SPLINE
5
D7
100
AcDbEntity
8
1
62
256
6
ByLayer
370
13
48
1
60
0
100
AcDbSpline
70
4
71
3
72
35
73
31
40
0
40
0
40
0
40
0
40
0.0698245031387389
40
0.162842052824865
40
0.162842052824865
40
0.186096440246396
40
0.186096440246396
40
0.209350827667928
40
0.255859602510991
40
0.302368377354053
40
0.302368377354053
40
0.348877152197116
40
0.348877152197116
40
0.441894701883242
40
0.441894701883242
40
0.465149089304774
40
0.465149089304774
40
0.488403476726305
40
0.488403476726305
40
0.534912251569368
40
0.534912251569368
40
0.627929801255495
40
0.720947350941621
40
0.720947350941621
40
0.767456125784684
40
0.767456125784684
40
0.813964900627747
40
0.813964900627747
40
0.906982450313873
40
1
40
1
40
1
40
1
41
1
10
3.75073947385738
20
3.96337716228297
30
0
41
1
10
3.75072932859564
20
3.96345114845189
30
0
41
1
10
3.75070555648946
20
3.95505868781692
30
0
41
1
10
3.75068165916747
20
3.92675599691768
30
0
41
1
10
3.75066455239335
20
3.89821633107806
30
0
41
1
10
3.75066113014964
20
3.89209253601467
30
0
41
1
10
3.75065430541247
20
3.8790543657197
30
0
41
1
10
3.75064408859524
20
3.85829592687847
30
0
41
1
10
3.75062715340866
20
3.81772038422233
30
0
41
1
10
3.75061367453458
20
3.77889755046422
30
0
41
1
10
3.7506002091165
20
3.73687657871889
30
0
41
1
10
3.75059347757389
20
3.71424305312084
30
0
41
1
10
3.75057336989067
20
3.64189692694603
30
0
41
1
10
3.75056005076266
20
3.58765911302891
30
0
41
1
10
3.75054332756952
20
3.51236604996439
30
0
41
1
10
3.75053997899931
20
3.49693176938186
30
0
41
1
10
3.75053326854643
20
3.46530866416867
30
0
41
1
10
3.75052990346183
20
3.44910369369913
30
0
41
1
10
3.75051981732957
20
3.39953849065739
30
0
41
1
10
3.75051309781298
20
3.36519520977359
30
0
41
1
10
3.75049288023226
20
3.25834298517159
30
0
41
1
10
3.75046576951442
20
3.1056988466803
30
0
41
1
10
3.75043750262358
20
2.93305482574735
30
0
41
1
10
3.75041550350153
20
2.7959799460846
30
0
41
1
10
3.75040803664405
20
2.74902073339354
30
0
41
1
10
3.75039276604423
20
2.65252294859832
30
0
41
1
10
3.7503849445209
20
2.60287123707747
30
0
41
1
10
3.75036105919304
20
2.45121063316958
30
0
41
1
10
3.75032802910724
20
2.24140586601044
30
0
41
1
10
3.7502916013004
20
2.01659699287234
30
0
41
1
10
3.75027225873333
20
1.90037269139256
30
0
0
SPLINE
5
D8
100
AcDbEntity
8
1
62
256
6
ByLayer
370
18
48
1
60
0
100
AcDbSpline
70
4
71
3
72
38
73
34
40
0
40
0
40
0
40
0
40
0.0954471680928664
40
0.0954471680928664
40
0.143170752139301
40
0.143170752139301
40
0.190894336185736
40
0.190894336185736
40
0.23861792023217
40
0.23861792023217
40
0.286341504278605
40
0.286341504278605
40
0.381788672371471
40
0.381788672371471
40
0.429512256417903
40
0.429512256417903
40
0.477235840464335
40
0.477235840464335
40
0.524959424510767
40
0.524959424510767
40
0.572683008557199
40
0.572683008557199
40
0.668130176650062
40
0.668130176650062
40
0.763577344742926
40
0.763577344742926
40
0.811300928789358
40
0.811300928789358
40
0.85902451283579
40
0.85902451283579
40
0.954471680928651
40
0.954471680928651
40
1
40
1
40
1
40
1
41
1
10
6.80008228355314
20
-3.95489109911122
30
0
41
1
10
7.01042152456861
20
-3.96200728009919
30
0
41
1
10
7.22041222059366
20
-3.96570772245562
30
0
41
1
10
7.53496348563544
20
-3.96603656272575
30
0
41
1
10
7.63974202480631
20
-3.96526972364907
30
0
41
1
10
7.84917649756068
20
-3.96195126073252
30
0
41
1
10
7.95383725089573
20
-3.95940371655703
30
0
41
1
10
8.16315404571651
20
-3.95261791662793
30
0
41
1
10
8.26781523236338
20
-3.94838130587314
30
0
41
1
10
8.47718631566656
20
-3.93832705118265
30
0
41
1
10
8.58188802280182
20
-3.93251266722217
30
0
41
1
10
8.89609704938715
20
-3.91254760074028
30
0
41
1
10
9.10569062771356
20
-3.89580962057772
30
0
41
1
10
9.42033189110748
20
-3.8650435758268
30
0
41
1
10
9.52528760885576
20
-3.85386527097091
30
0
41
1
10
9.73506958441737
20
-3.82973144670984
30
0
41
1
10
9.83990091962369
20
-3.81677877945666
30
0
41
1
10
10.0494979133857
20
-3.78917622502141
30
0
41
1
10
10.1542501915405
20
-3.77451568049884
30
0
41
1
10
10.3639006030809
20
-3.74369906197182
30
0
41
1
10
10.468778103586
20
-3.72753299348213
30
0
41
1
10
10.7832895144728
20
-3.67665061384304
30
0
41
1
10
10.9928415294375
20
-3.63958800632764
30
0
41
1
10
11.4115782170915
20
-3.55944417158275
30
0
41
1
10
11.6207940005237
20
-3.51630495837816
30
0
41
1
10
11.9349779756278
20
-3.4464423319757
30
0
41
1
10
12.0397769004707
20
-3.42231238585777
30
0
41
1
10
12.2497143362603
20
-3.37266555304129
30
0
41
1
10
12.3547998940059
20
-3.34709287021181
30
0
41
1
10
12.6697803987462
20
-3.26810989284056
30
0
41
1
10
12.8795782658673
20
-3.21242533652651
30
0
41
1
10
13.1891350987067
20
-3.12607909366042
30
0
41
1
10
13.2890598042876
20
-3.09756748694065
30
0
41
1
10
13.3889500747269
20
-3.06845895910911
30
0
0
SPLINE
5
D9
100
AcDbEntity
8
1
62
256
6
ByLayer
370
18
48
1
60
0
100
AcDbSpline
70
4
71
3
72
75
73
71
40
0
40
0
40
0
40
0
40
0.0335215530107366
40
0.0335215530107366
40
0.058955196352558
40
0.058955196352558
40
0.0843888396943793
40
0.0843888396943793
40
0.1098224830362
40
0.1098224830362
40
0.135256126378022
40
0.135256126378022
40
0.160689769719843
40
0.160689769719843
40
0.186123413061664
40
0.186123413061664
40
0.23699069974531
40
0.23699069974531
40
0.262424343087132
40
0.262424343087132
40
0.287857986428955
40
0.287857986428955
40
0.313291629770778
40
0.313291629770778
40
0.3387252731126
40
0.364158916454423
40
0.364158916454423
40
0.389592559796246
40
0.389592559796246
40
0.415026203138069
40
0.415026203138069
40
0.440459846479891
40
0.440459846479891
40
0.465893489821714
40
0.465893489821714
40
0.491327133163537
40
0.491327133163537
40
0.516760776505359
40
0.516760776505359
40
0.542194419847182
40
0.542194419847182
40
0.567628063189005
40
0.567628063189005
40
0.593061706530827
40
0.593061706530827
40
0.61849534987265
40
0.61849534987265
40
0.643928993214473
40
0.643928993214473
40
0.669362636556296
40
0.669362636556296
40
0.694796279898119
40
0.694796279898119
40
0.720229923239941
40
0.720229923239941
40
0.745663566581764
40
0.745663566581764
40
0.796530853265409
40
0.796530853265409
40
0.821964496607233
40
0.821964496607233
40
0.847398139949057
40
0.847398139949057
40
0.872831783290881
40
0.872831783290881
40
0.898265426632704
40
0.898265426632704
40
0.949132713316352
40
0.949132713316352
40
1
40
1
40
1
40
1
41
1
10
34.6740010153614
20
3.97922106524638
30
0
41
1
10
34.8121347077592
20
3.97875503319062
30
0
41
1
10
34.9501675679265
20
3.97687996765311
30
0
41
1
10
35.1927236515859
20
3.97127588586773
30
0
41
1
10
35.2973014688915
20
3.96809467266482
30
0
41
1
10
35.5064008426251
20
3.96006221462719
30
0
41
1
10
35.6109198974488
20
3.95521093425972
30
0
41
1
10
35.8200328369362
20
3.94356959438323
30
0
41
1
10
35.9246747134089
20
3.93677540092116
30
0
41
1
10
36.1341942612028
20
3.9213791203359
30
0
41
1
10
36.2390192281288
20
3.91276201029157
30
0
41
1
10
36.4487147540526
20
3.89376311012197
30
0
41
1
10
36.5535881860156
20
3.88339015960833
30
0
41
1
10
36.7633769334116
20
3.86089782675168
30
0
41
1
10
36.8682967704622
20
3.84877628528986
30
0
41
1
10
37.182769773187
20
3.8098469423752
30
0
41
1
10
37.3921688899353
20
3.7803956235035
30
0
41
1
10
37.7061414302496
20
3.73161918779317
30
0
41
1
10
37.8108381133683
20
3.71465666892251
30
0
41
1
10
38.0202551268965
20
3.67932711190898
30
0
41
1
10
38.1249426073673
20
3.66091415742099
30
0
41
1
10
38.3342889913997
20
3.62242671117576
30
0
41
1
10
38.4389482904347
20
3.60234780534554
30
0
41
1
10
38.648295537204
20
3.56040100852417
30
0
41
1
10
38.8576713686604
20
3.51669845728671
30
0
41
1
10
39.0671463975107
20
3.46966650433973
30
0
41
1
10
39.2766962598659
20
3.42107083858915
30
0
41
1
10
39.3814939025934
20
3.39597225915864
30
0
41
1
10
39.5912822838105
20
3.34437849544352
30
0
41
1
10
39.6962212581003
20
3.31797216831856
30
0
41
1
10
39.9060281275192
20
3.26379823316401
30
0
41
1
10
40.0108875606225
20
3.23601877463992
30
0
41
1
10
40.2204911291377
20
3.17906966982304
30
0
41
1
10
40.3252318166428
20
3.14989525785052
30
0
41
1
10
40.534592309522
20
3.09017237083049
30
0
41
1
10
40.6392107451765
20
3.05963379194134
30
0
41
1
10
40.8483808138648
20
2.99718405897801
30
0
41
1
10
40.9529349201159
20
2.96527047173325
30
0
41
1
10
41.1620750436613
20
2.90005788472956
30
0
41
1
10
41.2666475789123
20
2.86672310205506
30
0
41
1
10
41.4760446849064
20
2.79894204526013
30
0
41
1
10
41.580884270451
20
2.7645376053205
30
0
41
1
10
41.7906228276929
20
2.69444738752574
30
0
41
1
10
41.8955341474603
20
2.65878110717932
30
0
41
1
10
42.105401794656
20
2.58620960633135
30
0
41
1
10
42.2103896160577
20
2.54928472199631
30
0
41
1
10
42.4202134016327
20
2.47430343615332
30
0
41
1
10
42.5250516682335
20
2.43624855652095
30
0
41
1
10
42.7346022275563
20
2.35907493015179
30
0
41
1
10
42.8393157122086
20
2.31995825834537
30
0
41
1
10
43.0486423808929
20
2.24073700506156
30
0
41
1
10
43.1532415957531
20
2.2006059232541
30
0
41
1
10
43.3625464796835
20
2.11977108105259
30
0
41
1
10
43.4672197974685
20
2.07902046255879
30
0
41
1
10
43.6765674953368
20
1.99649316223943
30
0
41
1
10
43.7812715099321
20
1.95474634441447
30
0
41
1
10
44.0954214597885
20
1.82806678866623
30
0
41
1
10
44.3048735726991
20
1.74168314274334
30
0
41
1
10
44.6192512095055
20
1.60969461432521
30
0
41
1
10
44.7240785631495
20
1.56529906765783
30
0
41
1
10
44.9338361056355
20
1.47579480995955
30
0
41
1
10
45.0387754439915
20
1.4307111228182
30
0
41
1
10
45.2486513851514
20
1.34042366906482
30
0
41
1
10
45.3535771327989
20
1.29509954956424
30
0
41
1
10
45.5632830572101
20
1.20385476490236
30
0
41
1
10
45.6680754659639
20
1.15795868962042
30
0
41
1
10
45.9822324745727
20
1.01938048203976
30
0
41
1
10
46.191376239662
20
0.925810394116212
30
0
41
1
10
46.60929881446
20
0.736773123374263
30
0
41
1
10
46.8180225411894
20
0.641184547940668
30
0
41
1
10
47.0270260812062
20
0.545613153290674
30
0
0
SPLINE
5
DA
100
AcDbEntity
8
1
62
256
6
ByLayer
370
13
48
1
60
0
100
AcDbSpline
70
4
71
3
72
23
73
19
40
0
40
0
40
0
40
0
40
0.190488060142751
40
0.380976120285501
40
0.380976120285501
40
0.476220150356877
40
0.476220150356877
40
0.523842165392565
40
0.523842165392565
40
0.571464180428253
40
0.571464180428253
40
0.761952240571005
40
0.761952240571005
40
0.857196270642381
40
0.857196270642381
40
0.952440300713757
40
0.952440300713757
40
1
40
1
40
1
40
1
41
1
10
3.75091527119471
20
-3.43432444111789
30
0
41
1
10
3.75090872336153
20
-3.49939520131295
30
0
41
1
10
3.75089303068052
20
-3.61800478768498
30
0
41
1
10
3.75087312601619
20
-3.71365373010377
30
0
41
1
10
3.7508569123849
20
-3.77656432097737
30
0
41
1
10
3.75085129302858
20
-3.79606073323058
30
0
41
1
10
3.75084257264416
20
-3.82304132896707
30
0
41
1
10
3.75083961984385
20
-3.83164808269558
30
0
41
1
10
3.75083364906291
20
-3.84802864858975
30
0
41
1
10
3.7508306281623
20
-3.85581166434261
30
0
41
1
10
3.75081536102144
20
-3.89269821641426
30
0
41
1
10
3.75080263123397
20
-3.91573136007184
30
0
41
1
10
3.75078299456865
20
-3.94053383632814
30
0
41
1
10
3.75077635113604
20
-3.94717259584715
30
0
41
1
10
3.75076301005126
20
-3.95710289220131
30
0
41
1
10
3.75075630124385
20
-3.96041216039381
30
0
41
1
10
3.7507462038372
20
-3.96292392535619
30
0
41
1
10
3.75074283475985
20
-3.96335375343307
30
0
41
1
10
3.75073946038498
20
-3.9633773125704
30
0
0
SPLINE
5
DB
100
AcDbEntity
8
1
62
256
6
ByLayer
370
18
48
1
60
0
100
AcDbSpline
70
4
71
3
72
46
73
42
40
0
40
0
40
0
40
0
40
0.0624999999999997
40
0.0624999999999997
40
0.0937499999999995
40
0.0937499999999995
40
0.124999999999999
40
0.156249999999999
40
0.156249999999999
40
0.187499999999999
40
0.187499999999999
40
0.249999999999999
40
0.249999999999999
40
0.312499999999999
40
0.312499999999999
40
0.375
40
0.375
40
0.4375
40
0.4375
40
0.5
40
0.5625
40
0.5625
40
0.59375
40
0.59375
40
0.625
40
0.625
40
0.6875
40
0.6875
40
0.71875
40
0.71875
40
0.75
40
0.78125
40
0.796874999999999
40
0.796874999999999
40
0.812499999999999
40
0.812499999999999
40
0.874999999999999
40
0.874999999999999
40
0.9375
40
0.9375
40
1
40
1
40
1
40
1
41
1
10
47.0270260812063
20
0.545613153290674
30
0
41
1
10
47.02038086861
20
0.417355305708639
30
0
41
1
10
47.0178458719786
20
0.288392291014503
30
0
41
1
10
47.019186922023
20
0.0939104078031789
30
0
41
1
10
47.0204963614036
20
0.0288532507549633
30
0
41
1
10
47.024638270523
20
-0.100810539415733
30
0
41
1
10
47.030301431306
20
-0.230208715463476
30
0
41
1
10
47.038629275653
20
-0.359098381119907
30
0
41
1
10
47.0481141618388
20
-0.487743010101269
30
0
41
1
10
47.0534473819407
20
-0.552066750634907
30
0
41
1
10
47.0708121738144
20
-0.743380795487354
30
0
41
1
10
47.08420429292
20
-0.86891567312918
30
0
41
1
10
47.1132537732043
20
-1.11624163192539
30
0
41
1
10
47.1289139793259
20
-1.23803199999733
30
0
41
1
10
47.1613827666786
20
-1.4779971341361
30
0
41
1
10
47.1781930183092
20
-1.59617188040826
30
0
41
1
10
47.2120193177134
20
-1.82890392626251
30
0
41
1
10
47.228783601768
20
-1.94176176030157
30
0
41
1
10
47.2612316422681
20
-2.1604630917891
30
0
41
1
10
47.2926165191725
20
-2.3722497879007
30
0
41
1
10
47.3208445208368
20
-2.57035133429841
30
0
41
1
10
47.3405904960584
20
-2.71368162342418
30
0
41
1
10
47.3469364563795
20
-2.76058233099133
30
0
41
1
10
47.3591343288618
20
-2.85259045978594
30
0
41
1
10
47.3649480489809
20
-2.89741005304575
30
0
41
1
10
47.3815487071465
20
-3.0283357180017
30
0
41
1
10
47.391488517837
20
-3.11091834618864
30
0
41
1
10
47.4048889141632
20
-3.22767573468695
30
0
41
1
10
47.4091079976633
20
-3.2654287561881
30
0
41
1
10
47.4170572468225
20
-3.33814108198442
30
0
41
1
10
47.4245296561803
20
-3.40816185280377
30
0
41
1
10
47.4328670205059
20
-3.48897723256508
30
0
41
1
10
47.4375176389166
20
-3.53443360981072
30
0
41
1
10
47.4405525427733
20
-3.56406022461331
30
0
41
1
10
47.4420385591542
20
-3.57854821047013
30
0
41
1
10
47.4493160100377
20
-3.64907399577524
30
0
41
1
10
47.4546482631575
20
-3.6994199541947
30
0
41
1
10
47.4653342846653
20
-3.78828134955827
30
0
41
1
10
47.470686977693
20
-3.82679517179625
30
0
41
1
10
47.4825598041189
20
-3.89198745650165
30
0
41
1
10
47.4890777184869
20
-3.91866717823265
30
0
41
1
10
47.4968495412733
20
-3.93926963263323
30
0
0
SPLINE
5
DC
100
AcDbEntity
8
1
62
256
6
ByLayer
370
18
48
1
60
0
100
AcDbSpline
70
4
71
3
72
18
73
14
40
0
40
0
40
0
40
0
40
0.249999999999971
40
0.249999999999971
40
0.374999999999955
40
0.374999999999955
40
0.49999999999994
40
0.49999999999994
40
0.749999999999969
40
0.749999999999969
40
0.874999999999984
40
0.874999999999984
40
1
40
1
40
1
40
1
41
1
10
3.64146999820463
20
1.94713497831441
30
0
41
1
10
3.62522240508252
20
1.95405514962562
30
0
41
1
10
3.61010812731138
20
1.96237657038529
30
0
41
1
10
3.5890705414902
20
1.97685586723438
30
0
41
1
10
3.58233269391153
20
1.98201805677547
30
0
41
1
10
3.56942425994535
20
1.99303143178696
30
0
41
1
10
3.56331372172966
20
1.99883670876648
30
0
41
1
10
3.54623290371026
20
2.0168843128728
30
0
41
1
10
3.53639045060459
20
2.02984264181688
30
0
41
1
10
3.52398844438707
20
2.05067194861277
30
0
41
1
10
3.5202645502111
20
2.05784065945989
30
0
41
1
10
3.51379038622898
20
2.07229882044365
30
0
41
1
10
3.51101368594053
20
2.07963009590148
30
0
41
1
10
3.50869135236002
20
2.0870608790689
30
0
0
SPLINE
5
DD
100
AcDbEntity
8
1
62
256
6
ByLayer
370
18
48
1
60
0
100
AcDbSpline
70
4
71
3
72
8
73
4
40
0
40
0
40
0
40
0
40
1
40
1
40
1
40
1
41
1
10
3.50869135236076
20
2.08706087906671
30
0
41
1
10
3.5051090680665
20
2.09852313326508
30
0
41
1
10
3.50326954021267
20
2.11015655256014
30
0
41
1
10
3.5032699130694
20
2.12196889360055
30
0
0
SPLINE
5
DE
100
AcDbEntity
8
1
62
256
6
ByLayer
370
18
48
1
60
0
100
AcDbSpline
70
4
71
3
72
33
73
29
40
0
40
0
40
0
40
0
40
0.0460270575659855
40
0.0460270575659855
40
0.092054115131971
40
0.092054115131971
40
0.184108230263942
40
0.276162345395914
40
0.368216460527885
40
0.368216460527885
40
0.391229989310877
40
0.391229989310877
40
0.41424351809387
40
0.41424351809387
40
0.460270575659855
40
0.460270575659855
40
0.552324690791826
40
0.644378805923796
40
0.644378805923796
40
0.690405863489782
40
0.713419392272774
40
0.713419392272774
40
0.736432921055767
40
0.736432921055767
40
0.828487036187738
40
0.828487036187738
40
0.920541151319708
40
1
40
1
40
1
40
1
41
1
10
3.5032699130694
20
2.1219688936072
30
0
41
1
10
3.50327173206142
20
2.17959571190187
30
0
41
1
10
3.5032735069361
20
2.23638153936844
30
0
41
1
10
3.50327697953526
20
2.34826931676525
30
0
41
1
10
3.50327868006843
20
2.40346342541076
30
0
41
1
10
3.50328365110227
20
2.56548198320061
30
0
41
1
10
3.50328994439468
20
2.77240967893476
30
0
41
1
10
3.50329867458891
20
3.05628674253853
30
0
41
1
10
3.50330419600871
20
3.22789124523388
30
0
41
1
10
3.50330760373691
20
3.32948575442745
30
0
41
1
10
3.50330828311218
20
3.34952111523666
30
0
41
1
10
3.50330963873259
20
3.38901857005368
30
0
41
1
10
3.50331031479618
20
3.40847448625144
30
0
41
1
10
3.50331232911012
20
3.46566589084927
30
0
41
1
10
3.50331365721183
20
3.50233404526861
30
0
41
1
10
3.5033176116317
20
3.60804041295518
30
0
41
1
10
3.50332280552448
20
3.73754003925384
30
0
41
1
10
3.50332797021034
20
3.84452103456783
30
0
41
1
10
3.50333187039689
20
3.91621813115887
30
0
41
1
10
3.50333382700717
20
3.94992844034905
30
0
41
1
10
3.50333579913274
20
3.98037988072289
30
0
41
1
10
3.50333711788059
20
3.99994841905004
30
0
41
1
10
3.50333777973253
20
4.00937202805386
30
0
41
1
10
3.50334108259659
20
4.0544056311862
30
0
41
1
10
3.50334371822038
20
4.08398067375944
30
0
41
1
10
3.50334899472207
20
4.13062002715768
30
0
41
1
10
3.50335391500471
20
4.16241144265419
30
0
41
1
10
3.5033588457388
20
4.17255991516052
30
0
41
1
10
3.50336112686344
20
4.17251935983336
30
0
0
SPLINE
5
DF
100
AcDbEntity
8
1
62
256
6
ByLayer
370
18
48
1
60
0
100
AcDbSpline
70
4
71
3
72
26
73
22
40
0
40
0
40
0
40
0
40
0.0898452963866349
40
0.0898452963866349
40
0.122350821515684
40
0.122350821515684
40
0.154856346644732
40
0.154856346644732
40
0.21986739690283
40
0.21986739690283
40
0.349889497419025
40
0.349889497419025
40
0.47991159793522
40
0.47991159793522
40
0.609933698451415
40
0.609933698451415
40
0.73995579896761
40
0.73995579896761
40
0.869977899483805
40
0.869977899483805
40
1
40
1
40
1
40
1
41
1
10
13.3886993060015
20
3.07524341050575
30
0
41
1
10
13.5515341257264
20
3.12855411050305
30
0
41
1
10
13.7146359647266
20
3.18030536784818
30
0
41
1
10
13.9371654264115
20
3.24856074805314
30
0
41
1
10
13.9963343295544
20
3.26648422555866
30
0
41
1
10
14.1145379674086
20
3.30183387764379
30
0
41
1
10
14.1735994129951
20
3.31926819594281
30
0
41
1
10
14.3506707078809
20
3.37084183980701
30
0
41
1
10
14.4685709835398
20
3.40424743954142
30
0
41
1
10
14.8218586267858
20
3.50151987844913
30
0
41
1
10
15.0568124581088
20
3.56246129497427
30
0
41
1
10
15.5260444797931
20
3.67608636673833
30
0
41
1
10
15.7603030737378
20
3.72879854128934
30
0
41
1
10
16.2283157228114
20
3.82588388385702
30
0
41
1
10
16.4620885107994
20
3.87023988198106
30
0
41
1
10
16.9293745949051
20
3.95042460068825
30
0
41
1
10
17.1629402846003
20
3.98621183829263
30
0
41
1
10
17.6302051212727
20
4.04900363069177
30
0
41
1
10
17.8638796469343
20
4.07602233747548
30
0
41
1
10
18.3316118166022
20
4.12112295143575
30
0
41
1
10
18.5656285526763
20
4.1392191630076
30
0
41
1
10
18.800000000008
20
4.15275621525407
30
0
0
SPLINE
5
E0
100
AcDbEntity
8
1
62
256
6
ByLayer
370
18
48
1
60
0
100
AcDbSpline
70
4
71
3
72
78
73
74
40
0
40
0
40
0
40
0
40
0.0312500000000017
40
0.0312500000000017
40
0.0468750000000022
40
0.0468750000000022
40
0.0625000000000028
40
0.0625000000000028
40
0.125000000000006
40
0.125000000000006
40
0.140625000000007
40
0.140625000000007
40
0.156250000000007
40
0.187500000000008
40
0.187500000000008
40
0.218750000000009
40
0.218750000000009
40
0.234375000000011
40
0.234375000000011
40
0.250000000000012
40
0.250000000000012
40
0.312500000000013
40
0.312500000000013
40
0.343750000000013
40
0.343750000000013
40
0.359375000000014
40
0.359375000000014
40
0.375000000000015
40
0.375000000000015
40
0.437500000000022
40
0.437500000000022
40
0.468750000000025
40
0.468750000000025
40
0.484375000000027
40
0.484375000000027
40
0.500000000000029
40
0.500000000000029
40
0.531250000000032
40
0.531250000000032
40
0.562500000000036
40
0.562500000000036
40
0.578125000000037
40
0.585937500000037
40
0.585937500000037
40
0.593750000000037
40
0.593750000000037
40
0.625000000000035
40
0.625000000000035
40
0.656250000000032
40
0.656250000000032
40
0.68750000000003
40
0.68750000000003
40
0.703125000000029
40
0.703125000000029
40
0.710937500000028
40
0.710937500000028
40
0.718750000000027
40
0.750000000000024
40
0.750000000000024
40
0.812500000000018
40
0.812500000000018
40
0.828125000000016
40
0.828125000000016
40
0.843750000000015
40
0.875000000000012
40
0.875000000000012
40
0.906250000000009
40
0.906250000000009
40
0.921875000000008
40
0.921875000000008
40
0.937500000000006
40
0.937500000000006
40
1
40
1
40
1
40
1
41
1
10
18.8
20
4.12690011193328
30
0
41
1
10
19.0992719477584
20
4.15047959415611
30
0
41
1
10
19.3983999088618
20
4.16666404132735
30
0
41
1
10
19.8473678054089
20
4.17972295927646
30
0
41
1
10
19.9970527819666
20
4.18220463637294
30
0
41
1
10
20.2961591476658
20
4.18342368233206
30
0
41
1
10
20.4456358191907
20
4.18216305557431
30
0
41
1
10
21.1928348357006
20
4.16655425297537
30
0
41
1
10
21.7899320299319
20
4.12428947205203
30
0
41
1
10
22.5382184182676
20
4.03484809073109
30
0
41
1
10
22.6878597969298
20
4.01514217727498
30
0
41
1
10
22.9867947052485
20
3.97219937905581
30
0
41
1
10
23.4348532971624
20
3.9024682001016
30
0
41
1
10
23.8822387031642
20
3.81706391455125
30
0
41
1
10
24.4787831668434
20
3.68980309956797
30
0
41
1
10
24.7770680356487
20
3.61947471607749
30
0
41
1
10
25.2250160803843
20
3.50442307134009
30
0
41
1
10
25.3744193875216
20
3.46448053067718
30
0
41
1
10
25.6734882062458
20
3.38150667550207
30
0
41
1
10
25.8232433566678
20
3.3384470615153
30
0
41
1
10
26.5712709838831
20
3.11603859412111
30
0
41
1
10
27.1677351386632
20
2.91523869816194
30
0
41
1
10
28.0626008773494
20
2.58430441061523
30
0
41
1
10
28.3609131271681
20
2.46902075872922
30
0
41
1
10
28.8090137582772
20
2.28957409950277
30
0
41
1
10
28.958486645526
20
2.22867382594757
30
0
41
1
10
29.2577460713096
20
2.10487739630207
30
0
41
1
10
29.4072851308629
20
2.04209109522225
30
0
41
1
10
30.1544657684436
20
1.72411600696373
30
0
41
1
10
30.750738539421
20
1.45661761905322
30
0
41
1
10
31.6459503571855
20
1.04154512943586
30
0
41
1
10
31.9444875166158
20
0.900878448075616
30
0
41
1
10
32.3929949000381
20
0.687397899932307
30
0
41
1
10
32.5426650978728
20
0.615802518980814
30
0
41
1
10
32.8416027410769
20
0.472317502422982
30
0
41
1
10
32.9909540911195
20
0.400388275507424
30
0
41
1
10
33.4387875299582
20
0.184314826188853
30
0
41
1
10
33.73706127657
20
0.0399104377117112
30
0
41
1
10
34.3336432146264
20
-0.248366290537319
30
0
41
1
10
34.6319340090762
20
-0.392274905487937
30
0
41
1
10
35.0797521553683
20
-0.60699866404542
30
0
41
1
10
35.3037574286143
20
-0.714074259539387
30
0
41
1
10
35.5279847808606
20
-0.820558699031238
30
0
41
1
10
35.6775280641073
20
-0.89139818186905
30
0
41
1
10
35.7523519533135
20
-0.926753742892402
30
0
41
1
10
36.1263144144
20
-1.10295560317454
30
0
41
1
10
36.4248983794685
20
-1.24205347695991
30
0
41
1
10
37.0215807709613
20
-1.51517185999217
30
0
41
1
10
37.3196825347761
20
-1.64918572641861
30
0
41
1
10
37.9160987556134
20
-1.91080993953503
30
0
41
1
10
38.2144212202832
20
-2.03840789602842
30
0
41
1
10
38.6624546077304
20
-2.22427742439811
30
0
41
1
10
38.8118907921465
20
-2.28531232120989
30
0
41
1
10
39.0362351108142
20
-2.37538380444863
30
0
41
1
10
39.1110667118344
20
-2.40516789581218
30
0
41
1
10
39.2606301316629
20
-2.46415745911028
30
0
41
1
10
39.6343711472109
20
-2.61021879022175
30
0
41
1
10
40.0073929685618
20
-2.74902951833349
30
0
41
1
10
40.9021974914934
20
-3.06684150930818
30
0
41
1
10
41.4981198182905
20
-3.25828094523723
30
0
41
1
10
42.2453120965188
20
-3.46766069825517
30
0
41
1
10
42.3949476205564
20
-3.50806521171978
30
0
41
1
10
42.6940093386712
20
-3.58565984293889
30
0
41
1
10
43.1422908897522
20
-3.6972379649969
30
0
41
1
10
43.589974083249
20
-3.79404883757442
30
0
41
1
10
44.1869884921887
20
-3.90943222180516
30
0
41
1
10
44.4855484031267
20
-3.96027350731353
30
0
41
1
10
44.933960894344
20
-4.02586924546205
30
0
41
1
10
45.083602419856
20
-4.04596484817847
30
0
41
1
10
45.3826500548869
20
-4.08249064852433
30
0
41
1
10
45.5320773356108
20
-4.09892704385464
30
0
41
1
10
46.2788929959682
20
-4.17193163068444
30
0
41
1
10
46.8752810242866
20
-4.20095732284844
30
0
41
1
10
47.4730152489367
20
-4.19995250440644
30
0
0
SPLINE
5
E1
100
AcDbEntity
8
1
62
256
6
ByLayer
370
18
48
1
60
0
100
AcDbSpline
70
4
71
3
72
8
73
4
40
0
40
0
40
0
40
0
40
1
40
1
40
1
40
1
41
1
10
47.4730152489367
20
-4.19995250440644
30
0
41
1
10
47.455716970889
20
-4.20090411051552
30
0
41
1
10
47.4438535906005
20
-4.18729730425676
30
0
41
1
10
47.4348812079049
20
-4.15901981572606
30
0
0
SPLINE
5
E2
100
AcDbEntity
8
1
62
256
6
ByLayer
370
18
48
1
60
0
100
AcDbSpline
70
4
71
3
72
24
73
20
40
0
40
0
40
0
40
0
40
0.0271217165213444
40
0.0271217165213444
40
0.0757656306952772
40
0.0757656306952772
40
0.12440954486921
40
0.12440954486921
40
0.221697373217075
40
0.221697373217075
40
0.416273029912806
40
0.610848686608537
40
0.610848686608537
40
0.708136514956403
40
0.756780429130336
40
0.756780429130336
40
0.805424343304268
40
0.805424343304268
40
1
40
1
40
1
40
1
41
1
10
3.50336110653191
20
-4.17251959572937
30
0
41
1
10
3.5033614749002
20
-4.17251759678226
30
0
41
1
10
3.50336184318559
20
-4.17239194361861
30
0
41
1
10
3.50336287171044
20
-4.17169435292203
30
0
41
1
10
3.50336353167034
20
-4.17084651775772
30
0
41
1
10
3.50336485036894
20
-4.16834259061122
30
0
41
1
10
3.50336550992569
20
-4.16668330805604
30
0
41
1
10
3.50336747654862
20
-4.16051152405473
30
0
41
1
10
3.50336877343341
20
-4.15480667156228
30
0
41
1
10
3.50337261509918
20
-4.13301300476132
30
0
41
1
10
3.50337760769418
20
-4.09149842176271
30
0
41
1
10
3.50338224710168
20
-4.0255134036878
30
0
41
1
10
3.50338554489093
20
-3.96676263117539
30
0
41
1
10
3.50338714812008
20
-3.93506786612002
30
0
41
1
10
3.50338867132723
20
-3.89984144926044
30
0
41
1
10
3.50338966755911
20
-3.87556382507432
30
0
41
1
10
3.50339015666432
20
-3.86301173069293
30
0
41
1
10
3.50339254183308
20
-3.79847863796329
30
0
41
1
10
3.50339425579412
20
-3.74127054764188
30
0
41
1
10
3.50339573811314
20
-3.67863060230221
30
0
0
SPLINE
5
E3
100
AcDbEntity
8
1
62
256
6
ByLayer
370
18
48
1
60
0
100
AcDbSpline
70
4
71
3
72
40
73
36
40
0
40
0
40
0
40
0
40
0.124999999999999
40
0.124999999999999
40
0.187499999999999
40
0.187499999999999
40
0.249999999999999
40
0.249999999999999
40
0.312499999999999
40
0.312499999999999
40
0.374999999999999
40
0.374999999999999
40
0.437499999999999
40
0.437499999999999
40
0.499999999999999
40
0.499999999999999
40
0.5625
40
0.5625
40
0.578125
40
0.578125
40
0.59375
40
0.59375
40
0.625
40
0.625
40
0.6875
40
0.6875
40
0.75
40
0.75
40
0.8125
40
0.8125
40
0.875
40
0.875
40
0.9375
40
0.9375
40
1
40
1
40
1
40
1
41
1
10
7.54345475564006
20
-0.630682240175901
30
0
41
1
10
8.0167731045878
20
-0.856331117935213
30
0
41
1
10
8.48744328136237
20
-1.07795171923152
30
0
41
1
10
9.19116378361295
20
-1.4010503318973
30
0
41
1
10
9.4253676988784
20
-1.50717130719056
30
0
41
1
10
9.89335396675025
20
-1.71565227612007
30
0
41
1
10
10.1271455750312
20
-1.81799552199149
30
0
41
1
10
10.5945377556395
20
-2.01849677097073
30
0
41
1
10
10.8281682778814
20
-2.11659874380427
30
0
41
1
10
11.2954801030209
20
-2.30816445120871
30
0
41
1
10
11.5291929695832
20
-2.40156881207554
30
0
41
1
10
11.9970958867203
20
-2.58297313242113
30
0
41
1
10
12.2312577456015
20
-2.67102294407212
30
0
41
1
10
12.7002601694319
20
-2.84135262738343
30
0
41
1
10
12.9350907300212
20
-2.92364799909595
30
0
41
1
10
13.4057245698391
20
-3.08194423493575
30
0
41
1
10
13.6415631198989
20
-3.15789208931597
30
0
41
1
10
13.9371654264116
20
-3.24856074805317
30
0
41
1
10
13.9963343295545
20
-3.26648422555866
30
0
41
1
10
14.1145379674087
20
-3.30183387764382
30
0
41
1
10
14.1735994129952
20
-3.31926819594284
30
0
41
1
10
14.3506707078809
20
-3.37084183980701
30
0
41
1
10
14.4685709835399
20
-3.40424743954142
30
0
41
1
10
14.8218586267858
20
-3.50151987844913
30
0
41
1
10
15.0568124581088
20
-3.56246129497424
30
0
41
1
10
15.5260444797931
20
-3.6760863667383
30
0
41
1
10
15.7603030737377
20
-3.72879854128931
30
0
41
1
10
16.2283157228112
20
-3.82588388385696
30
0
41
1
10
16.4620885107993
20
-3.87023988198106
30
0
41
1
10
16.929374594905
20
-3.95042460068825
30
0
41
1
10
17.1629402846002
20
-3.9862118382926
30
0
41
1
10
17.6302051212726
20
-4.04900363069177
30
0
41
1
10
17.8638796469342
20
-4.07602233747548
30
0
41
1
10
18.3316118166022
20
-4.12112295143575
30
0
41
1
10
18.5656285526761
20
-4.13921916300757
30
0
41
1
10
18.8000000000078
20
-4.15275621525404
30
0
0
SPLINE
5
E4
100
AcDbEntity
8
1
62
256
6
ByLayer
370
18
48
1
60
0
100
AcDbSpline
70
4
71
3
72
12
73
8
40
0
40
0
40
0
40
0
40
0.637348587538603
40
0.637348587538603
40
0.956022881307898
40
0.956022881307898
40
1
40
1
40
1
40
1
41
1
10
18.8
20
-4.12690011193328
30
0
41
1
10
19.0992719477584
20
-4.15047959415611
30
0
41
1
10
19.3983999088618
20
-4.16666404132735
30
0
41
1
10
19.8473678054089
20
-4.17972295927646
30
0
41
1
10
19.9970527819666
20
-4.18220463637294
30
0
41
1
10
20.1672443350944
20
-4.18289827365024
30
0
41
1
10
20.1878812482865
20
-4.18294677270919
30
0
41
1
10
20.208516808578
20
-4.18295968022412
30
0
0
SPLINE
5
E5
100
AcDbEntity
8
1
62
256
6
ByLayer
370
18
48
1
60
0
100
AcDbSpline
70
4
71
3
72
21
73
17
40
0
40
0
40
0
40
0
40
0.197109598179969
40
0.197109598179969
40
0.264017131664971
40
0.264017131664971
40
0.330924665149973
40
0.464739732119978
40
0.464739732119978
40
0.598554799089982
40
0.598554799089982
40
0.665462332574984
40
0.665462332574984
40
0.732369866059986
40
0.732369866059986
40
1
40
1
40
1
40
1
41
1
10
40.7771399391198
20
3.0181331254289
30
0
41
1
10
41.2163757023848
20
3.16606818088107
30
0
41
1
10
41.6556279404162
20
3.30241819433618
30
0
41
1
10
42.2453120965187
20
3.46766069825517
30
0
41
1
10
42.3949476205564
20
3.50806521171978
30
0
41
1
10
42.6940093386712
20
3.58565984293887
30
0
41
1
10
43.1422908897521
20
3.6972379649969
30
0
41
1
10
43.589974083249
20
3.79404883757442
30
0
41
1
10
44.1869884921887
20
3.90943222180516
30
0
41
1
10
44.4855484031267
20
3.96027350731353
30
0
41
1
10
44.9339608943441
20
4.02586924546205
30
0
41
1
10
45.083602419856
20
4.04596484817847
30
0
41
1
10
45.3826500548869
20
4.08249064852433
30
0
41
1
10
45.5320773356107
20
4.09892704385464
30
0
41
1
10
46.2788929959682
20
4.17193163068444
30
0
41
1
10
46.8752810242866
20
4.20095732284844
30
0
41
1
10
47.4730152489367
20
4.19995250440641
30
0
0
SPLINE
5
E6
100
AcDbEntity
8
1
62
256
6
ByLayer
370
18
48
1
60
0
100
AcDbSpline
70
4
71
3
72
64
73
60
40
0
40
0
40
0
40
0
40
0.0326884741972242
40
0.0326884741972242
40
0.0660440440524892
40
0.0660440440524892
40
0.0827218289801227
40
0.0827218289801227
40
0.0993996139077569
40
0.0993996139077569
40
0.132755183763025
40
0.132755183763025
40
0.166110753618292
40
0.166110753618292
40
0.19946632347356
40
0.19946632347356
40
0.232821893328827
40
0.232821893328827
40
0.266177463184095
40
0.266177463184095
40
0.299533033039363
40
0.299533033039363
40
0.33288860289463
40
0.33288860289463
40
0.366244172749898
40
0.366244172749898
40
0.399599742605165
40
0.399599742605165
40
0.416277527532799
40
0.416277527532799
40
0.432955312460434
40
0.466310882315703
40
0.466310882315703
40
0.533022022026242
40
0.533022022026242
40
0.566377591881511
40
0.566377591881511
40
0.583055376809146
40
0.583055376809146
40
0.59973316173678
40
0.59973316173678
40
0.633088731592049
40
0.633088731592049
40
0.666444301447317
40
0.666444301447317
40
0.733155441157853
40
0.733155441157853
40
0.766511011013121
40
0.766511011013121
40
0.799866580868389
40
0.799866580868389
40
0.866577720578925
40
0.866577720578925
40
0.883255505506559
40
0.883255505506559
40
0.899933290434194
40
0.933288860289462
40
0.933288860289462
40
1
40
1
40
1
40
1
41
1
10
24.163385088936
20
-3.98085005284941
30
0
41
1
10
23.940097883916
20
-4.014029129428
30
0
41
1
10
23.7168402620066
20
-4.04323860098518
30
0
41
1
10
23.2656337041371
20
-4.0940998733258
30
0
41
1
10
23.037650624886
20
-4.11556777909234
30
0
41
1
10
22.6953091163108
20
-4.14132611255022
30
0
41
1
10
22.5811352785318
20
-4.14883887785419
30
0
41
1
10
22.3526320137165
20
-4.16170045461422
30
0
41
1
10
22.2383103105143
20
-4.16704749333576
30
0
41
1
10
21.8957090792839
20
-4.17980352048519
30
0
41
1
10
21.6675775351116
20
-4.18393984688768
30
0
41
1
10
21.2115606437382
20
-4.18351669668411
30
0
41
1
10
20.983694632843
20
-4.1789609280157
30
0
41
1
10
20.5280934718603
20
-4.16116497206011
30
0
41
1
10
20.3003173027047
20
-4.14792642681985
30
0
41
1
10
19.8444715329727
20
-4.11284409769786
30
0
41
1
10
19.6163994370128
20
-4.09100344423854
30
0
41
1
10
19.1596991021788
20
-4.03880818476199
30
0
41
1
10
18.9309100137495
20
-4.00842339053463
30
0
41
1
10
18.4741475055867
20
-3.93949944140468
30
0
41
1
10
18.2460290948714
20
-3.90093694036474
30
0
41
1
10
17.7901508033762
20
-3.81574427957079
30
0
41
1
10
17.5623467489455
20
-3.76914545927949
30
0
41
1
10
17.106669372257
20
-3.66825763895849
30
0
41
1
10
16.8787919418641
20
-3.61397594871013
30
0
41
1
10
16.4227594574856
20
-3.49793610211987
30
0
41
1
10
16.1946086847954
20
-3.43617048387088
30
0
41
1
10
15.8519455603321
20
-3.33814746313911
30
0
41
1
10
15.7375968811285
20
-3.30456211296286
30
0
41
1
10
15.5090377459993
20
-3.23573180717062
30
0
41
1
10
15.166420007516
20
-3.13000346496784
30
0
41
1
10
14.8243281445524
20
-3.01703671531391
30
0
41
1
10
14.1404874421484
20
-2.78199724898335
30
0
41
1
10
13.6850303871643
20
-2.6131810527302
30
0
41
1
10
13.0007715401573
20
-2.34450787236662
30
0
41
1
10
12.7725169167277
20
-2.25235989030088
30
0
41
1
10
12.4296761864216
20
-2.11059044777505
30
0
41
1
10
12.3153096760446
20
-2.06273822184534
30
0
41
1
10
12.0868209721733
20
-1.96609545473919
30
0
41
1
10
11.9726450836607
20
-1.91728294765341
30
0
41
1
10
11.6302719250689
20
-1.7694710978773
30
0
41
1
10
11.4022271010069
20
-1.66910191970737
30
0
41
1
10
10.9463600920711
20
-1.46506896610788
30
0
41
1
10
10.7185431333653
20
-1.36139333964528
30
0
41
1
10
10.0348765686458
20
-1.04649581783303
30
0
41
1
10
9.57879452151576
20
-0.831440348096692
30
0
41
1
10
8.89269207947953
20
-0.50423123308542
30
0
41
1
10
8.6641996309327
20
-0.394648873458749
30
0
41
1
10
8.20759938536793
20
-0.174968334348307
30
0
41
1
10
7.97946758674777
20
-0.06484737987887
30
0
41
1
10
7.29504763383051
20
0.26525425038966
30
0
41
1
10
6.838735352105
20
0.484974783367619
30
0
41
1
10
6.26707073854939
20
0.756622899175483
30
0
41
1
10
6.15273668380036
20
0.810769497107486
30
0
41
1
10
5.9242421008382
20
0.918523561954345
30
0
41
1
10
5.58166400821477
20
1.07939189987761
30
0
41
1
10
5.23941671787853
20
1.23765254249915
30
0
41
1
10
4.55496443486928
20
1.54991133536234
30
0
41
1
10
4.09871267385378
20
1.75238627784515
30
0
41
1
10
3.64146999820468
20
1.94713497831438
30
0
0
SPLINE
5
E7
100
AcDbEntity
8
1
62
256
6
ByLayer
370
13
48
1
60
0
100
AcDbSpline
70
4
71
3
72
37
73
33
40
0
40
0
40
0
40
0
40
0.104204661753276
40
0.104204661753276
40
0.208409323506551
40
0.208409323506551
40
0.312613985259826
40
0.312613985259826
40
0.364716316136464
40
0.364716316136464
40
0.416818647013102
40
0.416818647013102
40
0.46892097788974
40
0.481946560608899
40
0.481946560608899
40
0.494972143328058
40
0.494972143328058
40
0.521023308766376
40
0.521023308766376
40
0.57312563964301
40
0.57312563964301
40
0.625227970519644
40
0.625227970519644
40
0.72943263227291
40
0.72943263227291
40
0.833637294026176
40
0.833637294026176
40
0.937841955779443
40
0.937841955779443
40
0.989944286656076
40
0.989944286656076
40
1
40
1
40
1
40
1
41
1
10
3.7502722587333
20
1.90037269139256
30
0
41
1
10
4.20915825327296
20
1.7163617672679
30
0
41
1
10
4.66580465234006
20
1.52504647511108
30
0
41
1
10
5.57665131877715
20
1.13230936291754
30
0
41
1
10
6.03085582640324
20
0.930881917920601
30
0
41
1
10
6.93878564954736
20
0.522249385376966
30
0
41
1
10
7.39252310417024
20
0.315069791380722
30
0
41
1
10
8.07410659346317
20
0.0029142766753694
30
0
41
1
10
8.30147151871614
20
-0.101349044416935
30
0
41
1
10
8.75685301300268
20
-0.309595339036377
30
0
41
1
10
8.98485891815182
20
-0.413604525966861
30
0
41
1
10
9.44167962812296
20
-0.621011920179598
30
0
41
1
10
9.7277027508394
20
-0.750246974009087
30
0
41
1
10
10.0145499243093
20
-0.878565922735419
30
0
41
1
10
10.1293586301158
20
-0.929811377213071
30
0
41
1
10
10.186821024026
20
-0.955403334118813
30
0
41
1
10
10.3590563751247
20
-1.03192663064755
30
0
41
1
10
10.473725246417
20
-1.08262813986809
30
0
41
1
10
10.8173212454967
20
-1.23368639216795
30
0
41
1
10
11.0458459505764
20
-1.33298509859213
30
0
41
1
10
11.5021550759239
20
-1.52811453341079
30
0
41
1
10
11.7299218069943
20
-1.62397047111674
30
0
41
1
10
12.4122702330091
20
-1.90592035762847
30
0
41
1
10
12.8659378305266
20
-2.08640592970534
30
0
41
1
10
13.7728716057611
20
-2.42873047025717
30
0
41
1
10
14.2261234081443
20
-2.59055314453212
30
0
41
1
10
15.1340882906057
20
-2.89195149553072
30
0
41
1
10
15.5888136035075
20
-3.03156282396301
30
0
41
1
10
16.273382562739
20
-3.22215051547801
30
0
41
1
10
16.5019907495176
20
-3.28253395756997
30
0
41
1
10
16.7753894982348
20
-3.35054070735265
30
0
41
1
10
16.8196396553607
20
-3.36141693620803
30
0
41
1
10
16.8639111179839
20
-3.37216610039747
30
0
0
SPLINE
5
E8
100
AcDbEntity
8
1
62
256
6
ByLayer
370
18
48
1
60
0
100
AcDbSpline
70
4
71
3
72
22
73
18
40
0
40
0
40
0
40
0
40
0.0436326890380284
40
0.0436326890380284
40
0.114695795348275
40
0.114695795348275
40
0.256822007968769
40
0.256822007968769
40
0.398948220589262
40
0.398948220589262
40
0.683200645830248
40
0.683200645830248
40
0.825326858450739
40
0.825326858450739
40
0.967453071071231
40
0.967453071071231
40
1
40
1
40
1
40
1
41
1
10
16.8639118822469
20
-3.37216628596144
30
0
41
1
10
16.9343334900936
20
-3.38926473433429
30
0
41
1
10
17.0048090062707
20
-3.40604167680186
30
0
41
1
10
17.1902142523077
20
-3.4492827561258
30
0
41
1
10
17.3049562441436
20
-3.47514052658019
30
0
41
1
10
17.6487043492532
20
-3.54985199727312
30
0
41
1
10
17.8772927029109
20
-3.59585073371403
30
0
41
1
10
18.3336625249579
20
-3.68007724968157
30
0
41
1
10
18.5614824370187
20
-3.71836979970991
30
0
41
1
10
19.2439446049525
20
-3.82136440733081
30
0
41
1
10
19.6976048230542
20
-3.87425795084712
30
0
41
1
10
20.377607950707
20
-3.9294869934449
30
0
41
1
10
20.6041981229068
20
-3.94386909071073
30
0
41
1
10
21.057536305596
20
-3.96452022258984
30
0
41
1
10
21.2843044249133
20
-3.97088787889933
30
0
41
1
10
21.5631798800161
20
-3.9735896417865
30
0
41
1
10
21.6151506940664
20
-3.9738753551417
30
0
41
1
10
21.6671309098919
20
-3.97394378143801
30
0
0
SPLINE
5
E9
100
AcDbEntity
8
1
62
256
6
ByLayer
370
13
48
1
60
0
100
AcDbSpline
70
4
71
3
72
30
73
26
40
0
40
0
40
0
40
0
40
0.0348727809796489
40
0.0348727809796489
40
0.179873864707487
40
0.179873864707487
40
0.252374406571405
40
0.252374406571405
40
0.324874948435323
40
0.324874948435323
40
0.469876032163161
40
0.469876032163161
40
0.542376574027081
40
0.542376574027081
40
0.614877115891
40
0.614877115891
40
0.651127386822959
40
0.651127386822959
40
0.687377657754919
40
0.687377657754919
40
0.759878199618838
40
0.759878199618838
40
0.904879283346677
40
0.904879283346677
40
1
40
1
40
1
40
1
41
1
10
23.169640385881
20
-3.99326104546154
30
0
41
1
10
23.0596944361946
20
-4.00342816663868
30
0
41
1
10
22.9498620514839
20
-4.01261858955024
30
0
41
1
10
22.3838541306063
20
-4.05498005089837
30
0
41
1
10
21.9293045922155
20
-4.07236496443613
30
0
41
1
10
21.2484141569858
20
-4.07300194810355
30
0
41
1
10
21.0216106633026
20
-4.06895412725066
30
0
41
1
10
20.568236328223
20
-4.05268363029631
30
0
41
1
10
20.3416220510236
20
-4.04037817446462
30
0
41
1
10
19.6615225909952
20
-3.99100985270317
30
0
41
1
10
19.2077698353843
20
-3.94152457608755
30
0
41
1
10
18.5251052417677
20
-3.84295236704818
30
0
41
1
10
18.297213306558
20
-3.8060132151688
30
0
41
1
10
17.8406870646593
20
-3.72418079124444
30
0
41
1
10
17.6119961479596
20
-3.67925084549927
30
0
41
1
10
17.2680596088783
20
-3.60593005679635
30
0
41
1
10
17.1532586742549
20
-3.58050247277319
30
0
41
1
10
16.9233448449699
20
-3.52769435439151
30
0
41
1
10
16.8085453025408
20
-3.5003863045412
30
0
41
1
10
16.4645803626032
20
-3.41582478567869
30
0
41
1
10
16.2358540180924
20
-3.3559301696784
30
0
41
1
10
15.5509786671213
20
-3.16639855836164
30
0
41
1
10
15.09611337512
20
-3.02694193859179
30
0
41
1
10
14.3441687534615
20
-2.77675048589819
30
0
41
1
10
14.0466374958563
20
-2.67261002889813
30
0
41
1
10
13.749152492759
20
-2.56395121470393
30
0
0
SPLINE
5
EA
100
AcDbEntity
8
1
62
256
6
ByLayer
370
18
48
1
60
0
100
AcDbSpline
70
4
71
3
72
26
73
22
40
0
40
0
40
0
40
0
40
0.0796665000315479
40
0.0796665000315479
40
0.311255189598625
40
0.311255189598625
40
0.427049534382161
40
0.427049534382161
40
0.542843879165699
40
0.542843879165699
40
0.600741051557467
40
0.600741051557467
40
0.629689637753351
40
0.629689637753351
40
0.658638223949236
40
0.658638223949236
40
0.77443256873277
40
0.77443256873277
40
0.890226913516305
40
0.890226913516305
40
1
40
1
40
1
40
1
41
1
10
13.7491524925754
20
-2.56395121463683
30
0
41
1
10
13.5931542866124
20
-2.50697160255501
30
0
41
1
10
13.4371687999468
20
-2.44874950987824
30
0
41
1
10
12.8276209795678
20
-2.21671148475764
30
0
41
1
10
12.3738683103989
20
-2.03420880099526
30
0
41
1
10
11.6913495219869
20
-1.74838487583543
30
0
41
1
10
11.4635195822932
20
-1.65109461516707
30
0
41
1
10
11.0070523197335
20
-1.4528109376227
30
0
41
1
10
10.7784292040338
20
-1.35179908938565
30
0
41
1
10
10.4346445259118
20
-1.1979783679339
30
0
41
1
10
10.3199060888492
20
-1.14632349666286
30
0
41
1
10
10.1475565736969
20
-1.06831891313445
30
0
41
1
10
10.0900519141634
20
-1.0422234581111
30
0
41
1
10
9.97516125468195
20
-0.989958440262967
30
0
41
1
10
9.91775210833811
20
-0.963778438736597
30
0
41
1
10
9.63087737988545
20
-0.832662762499609
30
0
41
1
10
9.40192434332619
20
-0.727081013539049
30
0
41
1
10
8.94486569781702
20
-0.515081484661721
30
0
41
1
10
8.71675794564948
20
-0.408669663611477
30
0
41
1
10
8.27303875369628
20
-0.200974305601648
30
0
41
1
10
8.05740185865449
20
-0.0996939205137153
30
0
41
1
10
7.84192719395858
20
0.0014873361847663
30
0
0
SPLINE
5
EB
100
AcDbEntity
8
1
62
256
6
ByLayer
370
18
48
1
60
0
100
AcDbSpline
70
4
71
3
72
8
73
4
40
0
40
0
40
0
40
0
40
1
40
1
40
1
40
1
41
1
10
47.4710135991835
20
-4.05152811596901
30
0
41
1
10
47.4588666093908
20
-4.08735714133809
30
0
41
1
10
47.4468214445611
20
-4.12318685726294
30
0
41
1
10
47.4348812078975
20
-4.15901981574965
30
0
0
SPLINE
5
EC
100
AcDbEntity
8
1
62
256
6
ByLayer
370
18
48
1
60
0
100
AcDbSpline
70
4
71
3
72
78
73
74
40
0
40
0
40
0
40
0
40
0.0526426613620617
40
0.0526426613620617
40
0.0658033267025767
40
0.0658033267025767
40
0.0789639920430918
40
0.0789639920430918
40
0.105285322724121
40
0.105285322724121
40
0.13160665340515
40
0.13160665340515
40
0.157927984086179
40
0.157927984086179
40
0.184249314767207
40
0.197409980107722
40
0.197409980107722
40
0.210570645448236
40
0.210570645448236
40
0.263213306810291
40
0.263213306810291
40
0.315855968172347
40
0.315855968172347
40
0.32901663351286
40
0.32901663351286
40
0.342177298853373
40
0.342177298853373
40
0.368498629534398
40
0.368498629534398
40
0.421141290896448
40
0.421141290896448
40
0.447462621577473
40
0.447462621577473
40
0.460623286917986
40
0.460623286917986
40
0.473783952258499
40
0.473783952258499
40
0.526426613620554
40
0.526426613620554
40
0.552747944301582
40
0.552747944301582
40
0.579069274982611
40
0.579069274982611
40
0.592229940323124
40
0.592229940323124
40
0.605390605663637
40
0.631711936344664
40
0.631711936344664
40
0.684354597706717
40
0.684354597706717
40
0.710675928387743
40
0.710675928387743
40
0.736997259068769
40
0.736997259068769
40
0.789639920430822
40
0.789639920430822
40
0.815961251111848
40
0.815961251111848
40
0.829121916452362
40
0.829121916452362
40
0.842282581792875
40
0.842282581792875
40
0.894925243154925
40
0.894925243154925
40
0.92124657383595
40
0.92124657383595
40
0.947567904516975
40
0.947567904516975
40
0.960728569857488
40
0.960728569857488
40
0.973889235198001
40
0.973889235198001
40
1
40
1
40
1
40
1
41
1
10
47.4348812078984
20
-4.15901981572642
30
0
41
1
10
46.9785243173103
20
-4.12782857388854
30
0
41
1
10
46.5226229547458
20
-4.07932550880446
30
0
41
1
10
45.9520927045322
20
-3.99775918056068
30
0
41
1
10
45.8379535046749
20
-3.98039916424662
30
0
41
1
10
45.6095789175939
20
-3.94360222382193
30
0
41
1
10
45.495310761008
20
-3.92415879197944
30
0
41
1
10
45.1528302390287
20
-3.86283434432343
30
0
41
1
10
44.9248009052052
20
-3.81793854272479
30
0
41
1
10
44.4690713448781
20
-3.72037745828669
30
0
41
1
10
44.2413722724136
20
-3.66770944600253
30
0
41
1
10
43.7859823614436
20
-3.55493994075437
30
0
41
1
10
43.5583146563775
20
-3.49481644762571
30
0
41
1
10
43.1028166000563
20
-3.36731408982396
30
0
41
1
10
42.7609949534091
20
-3.26633617524476
30
0
41
1
10
42.4186069486157
20
-3.15764611397273
30
0
41
1
10
42.1901919628995
20
-3.08350728349595
30
0
41
1
10
42.0759583955975
20
-3.04561479347254
30
0
41
1
10
41.5053672916291
20
-2.85241654352959
30
0
41
1
10
41.0499913008037
20
-2.68568057328128
30
0
41
1
10
40.1391555174205
20
-2.33159631144187
30
0
41
1
10
39.683733881703
20
-2.14419095742161
30
0
41
1
10
39.1131530509959
20
-1.89917683031317
30
0
41
1
10
38.9989408736342
20
-1.84962235736714
30
0
41
1
10
38.7704842316372
20
-1.74956551568232
30
0
41
1
10
38.6563345052884
20
-1.69910518119369
30
0
41
1
10
38.3140614972691
20
-1.54654656032793
30
0
41
1
10
38.0861105865006
20
-1.44327831749249
30
0
41
1
10
37.4026195683234
20
-1.12945225211814
30
0
41
1
10
36.9474404105957
20
-0.914870127405038
30
0
41
1
10
36.2637065050261
20
-0.588346441545667
30
0
41
1
10
36.0356390964212
20
-0.478721278822974
30
0
41
1
10
35.6931171738608
20
-0.313485460084479
30
0
41
1
10
35.5788234799172
20
-0.258249113181392
30
0
41
1
10
35.3504420364267
20
-0.14776309190583
30
0
41
1
10
35.2363278882432
20
-0.0924995851216863
30
0
41
1
10
34.6660339916279
20
0.183699882506346
30
0
41
1
10
34.2106721792753
20
0.404254837783242
30
0
41
1
10
33.5273705309298
20
0.731244575838872
30
0
41
1
10
33.2995589497845
20
0.83959847829982
30
0
41
1
10
32.8436205946065
20
1.05455398781279
30
0
41
1
10
32.6154959842667
20
1.1611596413853
30
0
41
1
10
32.2728286199936
20
1.31925375382625
30
0
41
1
10
32.1585545051616
20
1.37163603452768
30
0
41
1
10
31.9302414855491
20
1.47553434500594
30
0
41
1
10
31.5879709194111
20
1.63015457882952
30
0
41
1
10
31.2461478026609
20
1.78081761967741
30
0
41
1
10
30.5627077077062
20
2.0761538175008
30
0
41
1
10
30.1073821787898
20
2.26510260606744
30
0
41
1
10
29.4232147316383
20
2.53366875347274
30
0
41
1
10
29.1949174640703
20
2.62071646593222
30
0
41
1
10
28.737830445037
20
2.7893598010649
30
0
41
1
10
28.5096181049635
20
2.87074460353091
30
0
41
1
10
27.825491334176
20
3.10541132391702
30
0
41
1
10
27.3701004634891
20
3.24922983430551
30
0
41
1
10
26.686536593318
20
3.44403831086731
30
0
41
1
10
26.4586047951822
20
3.50549174279428
30
0
41
1
10
26.1164177578797
20
3.59221761576958
30
0
41
1
10
26.0023027578173
20
3.62021217794492
30
0
41
1
10
25.7739325420487
20
3.67432982262349
30
0
41
1
10
25.6596244695902
20
3.70046485478929
30
0
41
1
10
25.0885064414286
20
3.8261489573035
30
0
41
1
10
24.6327459430826
20
3.91077080365895
30
0
41
1
10
23.9492101926757
20
4.01283525403889
30
0
41
1
10
23.7213977953914
20
4.04272486300277
30
0
41
1
10
23.2656337041372
20
4.0940998733258
30
0
41
1
10
23.037650624886
20
4.11556777909234
30
0
41
1
10
22.6953091163107
20
4.14132611255022
30
0
41
1
10
22.5811352785319
20
4.14883887785419
30
0
41
1
10
22.3526320137165
20
4.16170045461422
30
0
41
1
10
22.2383103105143
20
4.16704749333576
30
0
41
1
10
21.8975362444903
20
4.17973548988036
30
0
41
1
10
21.6712275744285
20
4.18387338764367
30
0
41
1
10
21.4450411919627
20
4.18373251470396
30
0
0
SPLINE
5
ED
100
AcDbEntity
8
1
62
256
6
ByLayer
370
13
48
1
60
0
100
AcDbSpline
70
4
71
3
72
44
73
40
40
0
40
0
40
0
40
0
40
5.20675289674E-05
40
5.20675289674E-05
40
0.104218734396573
40
0.104218734396573
40
0.208385401264179
40
0.208385401264179
40
0.312552068131785
40
0.312552068131785
40
0.338593734848687
40
0.351614568207139
40
0.351614568207139
40
0.364635401565592
40
0.364635401565592
40
0.416718734999396
40
0.416718734999396
40
0.520885401867004
40
0.520885401867004
40
0.572968735300808
40
0.572968735300808
40
0.625052068734611
40
0.625052068734611
40
0.729218735602214
40
0.729218735602214
40
0.781302069036015
40
0.781302069036015
40
0.833385402469817
40
0.833385402469817
40
0.885468735903619
40
0.898489569262069
40
0.898489569262069
40
0.911510402620519
40
0.911510402620519
40
0.93755206933742
40
0.93755206933742
40
0.989635402771222
40
0.989635402771222
40
1
40
1
40
1
40
1
41
1
10
31.1154301980988
20
1.84140534996743
30
0
41
1
10
31.1156568289071
20
1.84131304378857
30
0
41
1
10
31.1158834595124
20
1.8412207357801
30
0
41
1
10
31.569508476079
20
1.65645271123464
30
0
41
1
10
32.0220891703861
20
1.46445771406761
30
0
41
1
10
32.9275494519329
20
1.06992607420762
30
0
41
1
10
33.3804679683545
20
0.86739764042872
30
0
41
1
10
34.2884778689589
20
0.455705883362271
30
0
41
1
10
34.7435603195649
20
0.246546812326415
30
0
41
1
10
35.315006361342
20
-0.01631581769891
30
0
41
1
10
35.4866364326605
20
-0.0952778706937636
30
0
41
1
10
35.6585991109826
20
-0.174314011949946
30
0
41
1
10
35.7733175762381
20
-0.22701593927664
30
0
41
1
10
35.830740717328
20
-0.253383803457837
30
0
41
1
10
36.1176113972975
20
-0.385021187534988
30
0
41
1
10
36.3464823855304
20
-0.48975763506678
30
0
41
1
10
37.0315989983953
20
-0.801470145850573
30
0
41
1
10
37.4863176681356
20
-1.00601240434708
30
0
41
1
10
38.1669494285119
20
-1.30457806894199
30
0
41
1
10
38.3935803630554
20
-1.40273701138952
30
0
41
1
10
38.8465215368469
20
-1.59597976858765
30
0
41
1
10
39.0728391870499
20
-1.69104867708762
30
0
41
1
10
39.7517593337523
20
-1.97072741672301
30
0
41
1
10
40.2043213471071
20
-2.14983404048439
30
0
41
1
10
40.884521339774
20
-2.40462393060693
30
0
41
1
10
41.1114771295442
20
-2.48725189638449
30
0
41
1
10
41.5660321294379
20
-2.64754085728669
30
0
41
1
10
41.7936363032044
20
-2.72519211025141
30
0
41
1
10
42.2497843937103
20
-2.87496371690889
30
0
41
1
10
42.5354617646332
20
-2.96511918741646
30
0
41
1
10
42.8220599478359
20
-3.05059328185601
30
0
41
1
10
42.9367767330694
20
-3.08440081948771
30
0
41
1
10
42.9941866339344
20
-3.10111707049467
30
0
41
1
10
43.1662573438102
20
-3.15060161499292
30
0
41
1
10
43.2808443134452
20
-3.18273012316163
30
0
41
1
10
43.6242807293335
20
-3.27649225705972
30
0
41
1
10
43.8528536449558
20
-3.3355367290234
30
0
41
1
10
44.126522722329
20
-3.40201629479037
30
0
41
1
10
44.1719310446953
20
-3.41290763459389
30
0
41
1
10
44.2173275457477
20
-3.42365566681229
30
0
0
SPLINE
5
EE
100
AcDbEntity
8
1
62
256
6
ByLayer
370
18
48
1
60
0
100
AcDbSpline
70
4
71
3
72
17
73
13
40
0
40
0
40
0
40
0
40
0.166840194904123
40
0.166840194904123
40
0.583420097452051
40
0.583420097452051
40
0.79171004872602
40
0.895855024363005
40
0.947927512181502
40
0.973963756090751
40
0.973963756090751
40
1
40
1
40
1
40
1
41
1
10
44.2173275476404
20
-3.42365566726039
30
0
41
1
10
44.4000538614254
20
-3.46691777472395
30
0
41
1
10
44.5825886512233
20
-3.50785807258802
30
0
41
1
10
45.2204978430972
20
-3.642694235779
30
0
41
1
10
45.6752776574943
20
-3.72412868991321
30
0
41
1
10
46.3577706472907
20
-3.82274402799356
30
0
41
1
10
46.699096955752
20
-3.86616894108891
30
0
41
1
10
47.0977570165121
20
-3.90628254863859
30
0
41
1
10
47.2972361429929
20
-3.92366897486468
30
0
41
1
10
47.3827631634281
20
-3.93054448814831
30
0
41
1
10
47.4397896142036
20
-3.93499980279856
30
0
41
1
10
47.4683045519789
20
-3.93714362282617
30
0
41
1
10
47.496849541274
20
-3.93926963263331
30
0
0
SPLINE
5
EF
100
AcDbEntity
8
1
62
256
6
ByLayer
370
13
48
1
60
0
100
AcDbSpline
70
4
71
3
72
28
73
24
40
0
40
0
40
0
40
0
40
0.0271179102785083
40
0.0271179102785083
40
0.0542358205570182
40
0.108471641114032
40
0.216943282228053
40
0.216943282228053
40
0.433886564456098
40
0.433886564456098
40
0.54235820557012
40
0.54235820557012
40
0.650829846684142
40
0.650829846684142
40
0.705065667241155
40
0.705065667241155
40
0.732183577519665
40
0.732183577519665
40
0.759301487798174
40
0.759301487798174
40
0.867773128912223
40
0.867773128912223
40
1
40
1
40
1
40
1
41
1
10
47.4710135991834
20
-4.05152811596901
30
0
41
1
10
47.4139662791073
20
-4.04774767477846
30
0
41
1
10
47.3569212767185
20
-4.04390556583917
30
0
41
1
10
47.2428765564715
20
-4.03553274562549
30
0
41
1
10
47.0718586331936
20
-4.02218044611382
30
0
41
1
10
46.6731217147575
20
-3.9855083000682
30
0
41
1
10
46.3317351824401
20
-3.94473505721376
30
0
41
1
10
45.6491132188851
20
-3.85103193062881
30
0
41
1
10
45.1942354156026
20
-3.77235226761991
30
0
41
1
10
44.5108140352256
20
-3.63125471271124
30
0
41
1
10
44.2828248701309
20
-3.58037388974324
30
0
41
1
10
43.8261666025938
20
-3.47114403461822
30
0
41
1
10
43.5975064415581
20
-3.412778911765
30
0
41
1
10
43.2539211402932
20
-3.31977690384866
30
0
41
1
10
43.1392774707147
20
-3.28786693987206
30
0
41
1
10
42.9671106526584
20
-3.23865375229434
30
0
41
1
10
42.9096634378952
20
-3.22201768429045
30
0
41
1
10
42.7948539545291
20
-3.18834711531096
30
0
41
1
10
42.7374895231524
20
-3.17131223620504
30
0
41
1
10
42.4508591350666
20
-3.08515869917471
30
0
41
1
10
42.2221682765743
20
-3.01310345501716
30
0
41
1
10
41.7157907983959
20
-2.84678135287035
30
0
41
1
10
41.4383361432197
20
-2.75112190472282
30
0
41
1
10
41.1613656174398
20
-2.65159846921932
30
0
0
SPLINE
5
F0
100
AcDbEntity
8
1
62
256
6
ByLayer
370
18
48
1
60
0
100
AcDbSpline
70
4
71
3
72
26
73
22
40
0
40
0
40
0
40
0
40
0.0871943775072973
40
0.0871943775072973
40
0.310483424810694
40
0.310483424810694
40
0.422127948462391
40
0.422127948462391
40
0.53377247211409
40
0.53377247211409
40
0.757061519417487
40
0.757061519417487
40
0.868706043069183
40
0.868706043069183
40
0.896617173982109
40
0.896617173982109
40
0.924528304895034
40
0.924528304895034
40
0.980350566720884
40
0.980350566720884
40
1
40
1
40
1
40
1
41
1
10
41.161365271671
20
-2.65159834497467
30
0
41
1
10
40.9839131889847
20
-2.58783473167031
30
0
41
1
10
40.8066598331066
20
-2.5224850176223
30
0
41
1
10
40.1759775198767
20
-2.28453855151366
30
0
41
1
10
39.7233479054991
20
-2.10364472193274
30
0
41
1
10
39.0443372658158
20
-1.82049925112648
30
0
41
1
10
38.8179917496737
20
-1.72414291431082
30
0
41
1
10
38.364997254233
20
-1.52804489981014
30
0
41
1
10
38.1383420837344
20
-1.42831564492093
30
0
41
1
10
37.4576040515121
20
-1.12465512298854
30
0
41
1
10
37.0027649697039
20
-0.916214102845629
30
0
41
1
10
36.3173663969431
20
-0.597868504054617
30
0
41
1
10
36.0883818047318
20
-0.490795543303932
30
0
41
1
10
35.8013448713806
20
-0.35606933927707
30
0
41
1
10
35.7438781906106
20
-0.329070944344551
30
0
41
1
10
35.6290707793656
20
-0.275092676093237
30
0
41
1
10
35.5717077285766
20
-0.248102337893386
30
0
41
1
10
35.3997346296227
20
-0.167140128206739
30
0
41
1
10
35.285241275402
20
-0.113175608410785
30
0
41
1
10
35.1306308602431
20
-0.0402838832235375
30
0
41
1
10
35.0903939943675
20
-0.0213127669643711
30
0
41
1
10
35.050173156059
20
-0.0023497375161128
30
0
0
SPLINE
5
F1
100
AcDbEntity
8
1
62
256
6
ByLayer
370
18
48
1
60
0
100
AcDbSpline
70
4
71
3
72
26
73
22
40
0
40
0
40
0
40
0
40
0.124999999999995
40
0.124999999999995
40
0.249999999999991
40
0.249999999999991
40
0.374999999999986
40
0.374999999999986
40
0.437499999999964
40
0.437499999999964
40
0.499999999999942
40
0.499999999999942
40
0.624999999999958
40
0.624999999999958
40
0.687499999999965
40
0.687499999999965
40
0.749999999999972
40
0.749999999999972
40
0.874999999999986
40
0.874999999999986
40
1
40
1
40
1
40
1
41
1
10
47.4968495412733
20
-3.93926963263326
30
0
41
1
10
47.4972556918199
20
-3.94034630387844
30
0
41
1
10
47.4974894487837
20
-3.94192938454168
30
0
41
1
10
47.497588117505
20
-3.94616333607368
30
0
41
1
10
47.4974501870166
20
-3.94884259224847
30
0
41
1
10
47.496754407962
20
-3.95531054717827
30
0
41
1
10
47.4962053120806
20
-3.95904183094598
30
0
41
1
10
47.4950588479829
20
-3.96543379768048
30
0
41
1
10
47.4946225631376
20
-3.96769781648825
30
0
41
1
10
47.4936332437068
20
-3.97251376500799
30
0
41
1
10
47.4930783455129
20
-3.97507169673261
30
0
41
1
10
47.4912818585331
20
-3.98296373409889
30
0
41
1
10
47.4898960264128
20
-3.98858379956948
30
0
41
1
10
47.4875288371101
20
-3.99757143456662
30
0
41
1
10
47.4866852392447
20
-4.00068221936829
30
0
41
1
10
47.4849437557494
20
-4.00693414920812
30
0
41
1
10
47.4840430460264
20
-4.01008722927216
30
0
41
1
10
47.4812556589519
20
-4.01962524747796
30
0
41
1
10
47.4792599054149
20
-4.02616421261331
30
0
41
1
10
47.4751875430293
20
-4.03901926106701
30
0
41
1
10
47.4731155090003
20
-4.04532827704313
30
0
41
1
10
47.4710135991835
20
-4.05152811596903
30
0
0
SPLINE
5
F2
100
AcDbEntity
8
1
62
256
6
ByLayer
370
18
48
1
60
0
100
AcDbSpline
70
4
71
3
72
32
73
28
40
0
40
0
40
0
40
0
40
0.125
40
0.125
40
0.249999999999999
40
0.249999999999999
40
0.374999999999998
40
0.374999999999998
40
0.437499999999999
40
0.437499999999999
40
0.499999999999999
40
0.499999999999999
40
0.562499999999999
40
0.562499999999999
40
0.624999999999999
40
0.624999999999999
40
0.687499999999999
40
0.687499999999999
40
0.749999999999999
40
0.749999999999999
40
0.812499999999999
40
0.812499999999999
40
0.875
40
0.875
40
0.9375
40
0.9375
40
1
40
1
40
1
40
1
41
1
10
3.50339573811314
20
-3.67863060230221
30
0
41
1
10
3.50515453403312
20
-3.66256459636185
30
0
41
1
10
3.50761984357712
20
-3.64648159599611
30
0
41
1
10
3.51421401861745
20
-3.61427415864901
30
0
41
1
10
3.51833616534384
20
-3.598149923151
30
0
41
1
10
3.52873903181634
20
-3.56584523300205
30
0
41
1
10
3.53508207167138
20
-3.54952512088874
30
0
41
1
10
3.54661104920584
20
-3.52579307032298
30
0
41
1
10
3.55079404551793
20
-3.51799203303668
30
0
41
1
10
3.55999683494787
20
-3.5026593456069
30
0
41
1
10
3.56501101460944
20
-3.49514788803111
30
0
41
1
10
3.57583644211783
20
-3.48080329031745
30
0
41
1
10
3.58166794219102
20
-3.47393100354034
30
0
41
1
10
3.59437810272203
20
-3.46093629217555
30
0
41
1
10
3.60131160493151
20
-3.45478982373885
30
0
41
1
10
3.615852338325
20
-3.44395470477616
30
0
41
1
10
3.62352978399707
20
-3.43919004624942
30
0
41
1
10
3.63971949477244
20
-3.43120567389059
30
0
41
1
10
3.64793599120088
20
-3.42812998653886
30
0
41
1
10
3.66459577567556
20
-3.42368997436313
30
0
41
1
10
3.67311918947084
20
-3.42233372747668
30
0
41
1
10
3.68966576429841
20
-3.42126191113493
30
0
41
1
10
3.69776335014268
20
-3.42151059267087
30
0
41
1
10
3.71367167602921
20
-3.42328928752556
30
0
41
1
10
3.72148766843787
20
-3.42483050156758
30
0
41
1
10
3.73653729070313
20
-3.42888663044099
30
0
41
1
10
3.74382306771034
20
-3.43140628632091
30
0
41
1
10
3.75091527119082
20
-3.43432444113228
30
0
0
SPLINE
5
F3
100
AcDbEntity
8
1
62
256
6
ByLayer
370
18
48
1
60
0
100
AcDbSpline
70
4
71
3
72
24
73
20
40
0
40
0
40
0
40
0
40
0.125
40
0.125
40
0.25
40
0.25
40
0.375
40
0.375
40
0.4375
40
0.4375
40
0.5
40
0.5
40
0.625
40
0.625
40
0.75
40
0.75
40
0.875
40
0.875
40
1
40
1
40
1
40
1
41
1
10
3.75091527186456
20
-3.43432444140947
30
0
41
1
10
3.86510091198107
20
-3.48130721281959
30
0
41
1
10
3.98187927870163
20
-3.52335976937593
30
0
41
1
10
4.21963374257894
20
-3.59959654657709
30
0
41
1
10
4.34061581309294
20
-3.63376913003475
30
0
41
1
10
4.58612043693967
20
-3.69559168489982
30
0
41
1
10
4.71064603923145
20
-3.72323570788436
30
0
41
1
10
4.89973333562983
20
-3.76055141332498
30
0
41
1
10
4.96314716968308
20
-3.77229510434554
30
0
41
1
10
5.09069219717034
20
-3.79450234364094
30
0
41
1
10
5.15486243185237
20
-3.80497197023647
30
0
41
1
10
5.34797990266381
20
-3.83455927521857
30
0
41
1
10
5.47758105797746
20
-3.85187234251012
30
0
41
1
10
5.73825602187461
20
-3.88251962018666
30
0
41
1
10
5.8693292209914
20
-3.89585597965427
30
0
41
1
10
6.13287466872242
20
-3.91882621166133
30
0
41
1
10
6.26534941424873
20
-3.92845145154232
30
0
41
1
10
6.53165634442246
20
-3.9441723556852
30
0
41
1
10
6.66548186480782
20
-3.95029125051036
30
0
41
1
10
6.79992126748249
20
-3.95488656089938
30
0
0
SPLINE
5
F4
100
AcDbEntity
8
1
62
256
6
ByLayer
370
18
48
1
60
0
100
AcDbSpline
70
4
71
3
72
12
73
8
40
0
40
0
40
0
40
0
40
0.141007651317821
40
0.141007651317821
40
0.667630374853509
40
0.667630374853509
40
1
40
1
40
1
40
1
41
1
10
11.8749220473437
20
-2.52565215243979
30
0
41
1
10
11.6335798842333
20
-2.59158458774226
30
0
41
1
10
11.3926345905919
20
-2.65776823553159
30
0
41
1
10
10.2538311522401
20
-2.97213329237337
30
0
41
1
10
9.36123257776791
20
-3.22311181909706
30
0
41
1
10
7.91376153374631
20
-3.63486357569408
30
0
41
1
10
7.35567524695242
20
-3.79480558185705
30
0
41
1
10
6.80000631685323
20
-3.95491298773521
30
0
0
SPLINE
5
F5
100
AcDbEntity
8
1
62
256
6
ByLayer
370
18
48
1
60
0
100
AcDbSpline
70
4
71
3
72
95
73
91
40
0
40
0
40
0
40
0
40
0.0312500000000266
40
0.0312500000000266
40
0.0625000000000533
40
0.0625000000000533
40
0.0781250000000666
40
0.0781250000000666
40
0.09375000000008
40
0.09375000000008
40
0.125000000000107
40
0.125000000000107
40
0.156250000000134
40
0.156250000000134
40
0.18750000000016
40
0.18750000000016
40
0.195312500000167
40
0.195312500000167
40
0.203125000000174
40
0.218750000000189
40
0.218750000000189
40
0.250000000000217
40
0.250000000000217
40
0.257812500000223
40
0.257812500000223
40
0.26562500000023
40
0.281250000000244
40
0.296875000000258
40
0.296875000000258
40
0.304687500000265
40
0.304687500000265
40
0.312500000000271
40
0.312500000000271
40
0.343750000000298
40
0.343750000000298
40
0.359375000000311
40
0.359375000000311
40
0.367187500000318
40
0.367187500000318
40
0.375000000000324
40
0.375000000000324
40
0.406250000000351
40
0.406250000000351
40
0.437500000000377
40
0.437500000000377
40
0.453125000000391
40
0.453125000000391
40
0.468750000000404
40
0.468750000000404
40
0.500000000000429
40
0.500000000000429
40
0.531250000000454
40
0.531250000000454
40
0.562500000000479
40
0.562500000000479
40
0.578125000000492
40
0.578125000000492
40
0.593750000000504
40
0.593750000000504
40
0.625000000000528
40
0.625000000000528
40
0.656250000000551
40
0.656250000000551
40
0.658203125000552
40
0.658203125000552
40
0.659179687500552
40
0.659179687500552
40
0.660156250000551
40
0.660156250000551
40
0.662109375000549
40
0.662109375000549
40
0.664062500000546
40
0.664062500000546
40
0.666015625000544
40
0.666015625000544
40
0.667968750000541
40
0.667968750000541
40
0.669921875000538
40
0.669921875000538
40
0.671875000000536
40
0.671875000000536
40
0.687500000000511
40
0.687500000000511
40
0.750000000000409
40
0.750000000000409
40
0.812500000000307
40
0.812500000000307
40
0.875000000000205
40
0.875000000000205
40
1
40
1
40
1
40
1
41
1
10
3.50339573811314
20
-3.67863060230221
30
0
41
1
10
3.42075132512821
20
-3.64832766655195
30
0
41
1
10
3.3393931874449
20
-3.61601343255944
30
0
41
1
10
3.17962971210429
20
-3.54672720476017
30
0
41
1
10
3.10122237358712
20
-3.50975843449592
30
0
41
1
10
2.98621218882073
20
-3.45017223841319
30
0
41
1
10
2.94829336161456
20
-3.42960971476586
30
0
41
1
10
2.87347914034751
20
-3.38700471409203
30
0
41
1
10
2.83672773775166
20
-3.36504473171226
30
0
41
1
10
2.72858550712988
20
-3.29704165717715
30
0
41
1
10
2.65929565109428
20
-3.2488864997971
30
0
41
1
10
2.52731738917342
20
-3.14591280139103
30
0
41
1
10
2.46462139640926
20
-3.09110185820361
30
0
41
1
10
2.34725185288363
20
-2.97336134471877
30
0
41
1
10
2.29256267524241
20
-2.91044739481328
30
0
41
1
10
2.23058035088926
20
-2.82534296658719
30
0
41
1
10
2.21849147563989
20
-2.80797503679602
30
0
41
1
10
2.19506551299833
20
-2.77263358145626
30
0
41
1
10
2.1611915686816
20
-2.71892390020199
30
0
41
1
10
2.13123829635288
20
-2.66305265108051
30
0
41
1
10
2.07696060240988
20
-2.54820910100784
30
0
41
1
10
2.04824272337865
20
-2.46753189160046
30
0
41
1
10
2.02348044963816
20
-2.36056853915971
30
0
41
1
10
2.01909984580453
20
-2.33890276198076
30
0
41
1
10
2.01157854820957
20
-2.29542765620553
30
0
41
1
10
2.00211605527838
20
-2.22983141301984
30
0
41
1
10
1.99544385058653
20
-2.11859053038018
30
0
41
1
10
1.99986644699271
20
-2.0275570219732
30
0
41
1
10
2.00688360092281
20
-1.95851352409738
30
0
41
1
10
2.0098395689763
20
-1.93537092933869
30
0
41
1
10
2.01699459118669
20
-1.88882862221422
30
0
41
1
10
2.02120846177706
20
-1.8653619776002
30
0
41
1
10
2.04519895757636
20
-1.74837367182701
30
0
41
1
10
2.07361759428318
20
-1.65592189572143
30
0
41
1
10
2.12817425393354
20
-1.51875539395456
30
0
41
1
10
2.14835574135921
20
-1.47328601755416
30
0
41
1
10
2.18144091180125
20
-1.40544339425895
30
0
41
1
10
2.19294759091034
20
-1.38287646720695
30
0
41
1
10
2.21667221539579
20
-1.33822141898389
30
0
41
1
10
2.22891198303896
20
-1.31608667300631
30
0
41
1
10
2.29188488823516
20
-1.20632044144196
30
0
41
1
10
2.34790204599395
20
-1.12139232425253
30
0
41
1
10
2.4690177731072
20
-0.956213856054319
30
0
41
1
10
2.53412952027765
20
-0.875970084956492
30
0
41
1
10
2.6375201537831
20
-0.758573891976141
30
0
41
1
10
2.67297041858205
20
-0.719916755822965
30
0
41
1
10
2.74496727160619
20
-0.644210583724885
30
0
41
1
10
2.78159506549028
20
-0.607066458905166
30
0
41
1
10
2.89317376331587
20
-0.497545132880305
30
0
41
1
10
2.96981190253936
20
-0.427069927156793
30
0
41
1
10
3.1268205956278
20
-0.290333128775814
30
0
41
1
10
3.20719471055088
20
-0.224075525557652
30
0
41
1
10
3.37113261870968
20
-0.0951666628544672
30
0
41
1
10
3.45469839720266
20
-0.0325176274299963
30
0
41
1
10
3.5821359383516
20
0.0590904829320209
30
0
41
1
10
3.62496417915907
20
0.0892312543523985
30
0
41
1
10
3.71127708070085
20
0.148768889479072
30
0
41
1
10
3.7547840703223
20
0.178180421989936
30
0
41
1
10
3.88606941492475
20
0.265251793958413
30
0
41
1
10
3.9745233305793
20
0.32169640870714
30
0
41
1
10
4.15307797627912
20
0.431753875754623
30
0
41
1
10
4.24317936822413
20
0.485365594564456
30
0
41
1
10
4.33969707369113
20
0.540980848509633
30
0
41
1
10
4.34537739352504
20
0.544247638976088
30
0
41
1
10
4.35390232935941
20
0.54913971623796
30
0
41
1
10
4.35673614587915
20
0.550784718733439
30
0
41
1
10
4.36250528893345
20
0.553893059523745
30
0
41
1
10
4.36543828160058
20
0.555342329259929
30
0
41
1
10
4.37439176273719
20
0.559286703905343
30
0
41
1
10
4.38062766453527
20
0.561352979963772
30
0
41
1
10
4.39331369397092
20
0.564484597520135
30
0
41
1
10
4.39971545026836
20
0.565518161608935
30
0
41
1
10
4.41260987824643
20
0.566761755863865
30
0
41
1
10
4.4191028441181
20
0.566969115145042
30
0
41
1
10
4.43216202034444
20
0.566720401222142
30
0
41
1
10
4.43867732880472
20
0.566260925187635
30
0
41
1
10
4.4515872627602
20
0.564584540573321
30
0
41
1
10
4.45800789752192
20
0.563396673225327
30
0
41
1
10
4.47073894756699
20
0.560496187251431
30
0
41
1
10
4.4770274970214
20
0.558761782274075
30
0
41
1
10
4.53349859222908
20
0.542686125341163
30
0
41
1
10
4.58361390935772
20
0.528097696044966
30
0
41
1
10
4.83385872944061
20
0.454054120328664
30
0
41
1
10
5.03290123119439
20
0.39088821603363
30
0
41
1
10
5.42838461208453
20
0.257216093818869
30
0
41
1
10
5.62488122469358
20
0.186690833234678
30
0
41
1
10
6.01559611250178
20
0.0388005841906818
30
0
41
1
10
6.20956444613086
20
-0.0384703508765369
30
0
41
1
10
6.78739011421124
20
-0.278929765391041
30
0
41
1
10
7.1672707284927
20
-0.450964832437762
30
0
41
1
10
7.54346591914424
20
-0.63068615132741
30
0
0
SPLINE
5
F6
100
AcDbEntity
8
SK1
62
256
6
ByLayer
370
18
48
1
60
0
100
AcDbSpline
70
4
71
3
72
8
73
4
40
0
40
0
40
0
40
0
40
1
40
1
40
1
40
1
41
1
10
-39.35
20
0.868020194752887
30
0
41
1
10
-39.5672427033684
20
0.875024830852766
30
0
41
1
10
-39.7840152879113
20
0.882043421984775
30
0
41
1
10
-40
20
0.889085400364479
30
0
0
SPLINE
5
F7
100
AcDbEntity
8
SK1
62
256
6
ByLayer
370
18
48
1
60
0
100
AcDbSpline
70
4
71
3
72
20
73
16
40
0
40
0
40
0
40
0
40
0.124999999999997
40
0.124999999999997
40
0.187499999999995
40
0.187499999999995
40
0.249999999999994
40
0.249999999999994
40
0.374999999999992
40
0.374999999999992
40
0.49999999999999
40
0.49999999999999
40
0.749999999999995
40
0.749999999999995
40
1
40
1
40
1
40
1
41
1
10
-39.25
20
0.764155207163782
30
0
41
1
10
-39.25
20
0.772537411466573
30
0
41
1
10
-39.2510680121064
20
0.780787465744652
30
0
41
1
10
-39.2538495208932
20
0.792198433945174
30
0
41
1
10
-39.2549703953799
20
0.795863047073908
30
0
41
1
10
-39.2575553074514
20
0.802946067800832
30
0
41
1
10
-39.2590298426792
20
0.806382433617586
30
0
41
1
10
-39.2638240258073
20
0.816148251042023
30
0
41
1
10
-39.2675159851081
20
0.821992187610533
30
0
41
1
10
-39.2756808081481
20
0.832634695055873
30
0
41
1
10
-39.280188745776
20
0.837447323925517
30
0
41
1
10
-39.2943188108206
20
0.850101576680942
30
0
41
1
10
-39.3046722192184
20
0.856400493555753
30
0
41
1
10
-39.3267895693349
20
0.865236521659256
30
0
41
1
10
-39.3382086939583
20
0.867640003350942
30
0
41
1
10
-39.35
20
0.868020194752944
30
0
0
SPLINE
5
F8
100
AcDbEntity
8
SK1
62
256
6
ByLayer
370
18
48
1
60
0
100
AcDbSpline
70
4
71
3
72
20
73
16
40
0
40
0
40
0
40
0
40
0.249999999999994
40
0.249999999999994
40
0.374999999999995
40
0.374999999999995
40
0.499999999999996
40
0.499999999999996
40
0.624999999999997
40
0.624999999999997
40
0.749999999999998
40
0.749999999999998
40
0.874999999999999
40
0.874999999999999
40
1
40
1
40
1
40
1
41
1
10
-39.35
20
-1.1309958947966
30
0
41
1
10
-39.3382052350822
20
-1.13137619772439
30
0
41
1
10
-39.3267890235077
20
-1.1297379576468
30
0
41
1
10
-39.310213139012
20
-1.12427450586435
30
0
41
1
10
-39.3048332480534
20
-1.1219511618373
30
0
41
1
10
-39.2945638173439
20
-1.11635142908514
30
0
41
1
10
-39.2896439542629
20
-1.11306683972063
30
0
41
1
10
-39.2802807817757
20
-1.10541287082953
30
0
41
1
10
-39.2758193520255
20
-1.10102743501864
30
0
41
1
10
-39.2675623009897
20
-1.09097414940933
30
0
41
1
10
-39.2638525690604
20
-1.08541987783406
30
0
41
1
10
-39.2574621650662
20
-1.07300923442537
30
0
41
1
10
-39.2547834252518
20
-1.06610204965068
30
0
41
1
10
-39.2510693984638
20
-1.05131664934478
30
0
41
1
10
-39.25
20
-1.04322377683786
30
0
41
1
10
-39.25
20
-1.03495927343073
30
0
0
SPLINE
5
F9
100
AcDbEntity
8
SK1
62
256
6
ByLayer
370
18
48
1
60
0
100
AcDbSpline
70
4
71
3
72
8
73
4
40
0
40
0
40
0
40
0
40
1
40
1
40
1
40
1
41
1
10
-40
20
-1.10993068918498
30
0
41
1
10
-39.7840044453924
20
-1.11697302107481
30
0
41
1
10
-39.5672334923667
20
-1.12399155569039
30
0
41
1
10
-39.35
20
-1.13099589479657
30
0
0
SPLINE
5
FA
100
AcDbEntity
8
SK1
62
256
6
ByLayer
370
18
48
1
60
0
100
AcDbSpline
70
4
71
3
72
8
73
4
40
0
40
0
40
0
40
0
40
1
40
1
40
1
40
1
41
1
10
-39.35
20
-0.868020194752887
30
0
41
1
10
-39.5672427033684
20
-0.875024830852766
30
0
41
1
10
-39.7840152879113
20
-0.882043421984775
30
0
41
1
10
-40
20
-0.889085400364479
30
0
0
SPLINE
5
FB
100
AcDbEntity
8
SK1
62
256
6
ByLayer
370
18
48
1
60
0
100
AcDbSpline
70
4
71
3
72
20
73
16
40
0
40
0
40
0
40
0
40
0.125000000000006
40
0.125000000000006
40
0.18750000000001
40
0.18750000000001
40
0.250000000000014
40
0.250000000000014
40
0.375000000000014
40
0.375000000000014
40
0.500000000000014
40
0.500000000000014
40
0.750000000000007
40
0.750000000000007
40
1
40
1
40
1
40
1
41
1
10
-39.25
20
-0.764155207163782
30
0
41
1
10
-39.25
20
-0.772537411466544
30
0
41
1
10
-39.2510680121064
20
-0.780787465744623
30
0
41
1
10
-39.2538495208932
20
-0.792198433945146
30
0
41
1
10
-39.2549703953799
20
-0.79586304707388
30
0
41
1
10
-39.2575553074514
20
-0.802946067800804
30
0
41
1
10
-39.2590298426792
20
-0.806382433617586
30
0
41
1
10
-39.2638240258073
20
-0.816148251042023
30
0
41
1
10
-39.2675159851081
20
-0.821992187610505
30
0
41
1
10
-39.2756808081481
20
-0.832634695055845
30
0
41
1
10
-39.280188745776
20
-0.837447323925517
30
0
41
1
10
-39.2943188108206
20
-0.850101576680942
30
0
41
1
10
-39.3046722192184
20
-0.856400493555725
30
0
41
1
10
-39.3267895693349
20
-0.865236521659256
30
0
41
1
10
-39.3382086939583
20
-0.867640003350942
30
0
41
1
10
-39.35
20
-0.868020194752916
30
0
0
SPLINE
5
FC
100
AcDbEntity
8
1
62
256
6
ByLayer
370
18
48
1
60
0
100
AcDbSpline
70
4
71
3
72
13
73
9
40
0
40
0
40
0
40
0
40
0.0646691120193267
40
0.210170278704045
40
0.37943685088111
40
0.572499748378979
40
0.789373076914905
40
1
40
1
40
1
40
1
41
1
10
40.8146944134602
20
3.00938360385621
30
0
41
1
10
40.9590471278419
20
3.05555455984748
30
0
41
1
10
41.428452596429
20
3.20132249919717
30
0
41
1
10
42.2771701024397
20
3.43835642143469
30
0
41
1
10
43.4145495593954
20
3.69934053270259
30
0
41
1
10
44.7133070379633
20
3.91825923087157
30
0
41
1
10
46.1062083185465
20
4.05383324492092
30
0
41
1
10
47.0664202749142
20
4.06574009459413
30
0
41
1
10
47.5396989095615
20
4.0526735800764
30
0
0
SPLINE
5
FD
100
AcDbEntity
8
1
62
256
6
ByLayer
370
18
48
1
60
0
100
AcDbSpline
70
4
71
3
72
17
73
13
40
0
40
0
40
0
40
0
40
0.0958553868175941
40
0.199205938602149
40
0.353288538325734
40
0.527946263806813
40
0.620312168971309
40
0.691422348386503
40
0.734612493152276
40
0.804684658168655
40
0.901640174573288
40
1
40
1
40
1
40
1
41
1
10
47.735671326025
20
0.589203716577771
30
0
41
1
10
47.594782139924
20
0.632915029932576
30
0
41
1
10
47.3023877795814
20
0.724769926512522
30
0
41
1
10
46.7852908836642
20
0.891552370352116
30
0
41
1
10
46.1552358725434
20
1.10101691990579
30
0
41
1
10
45.5433927360201
20
1.31235171209647
30
0
41
1
10
45.0535099543543
20
1.48669208921035
30
0
41
1
10
44.7546815779061
20
1.59495392990425
30
0
41
1
10
44.4883380114306
20
1.69263107474609
30
0
41
1
10
44.1850654556232
20
1.80520870409657
30
0
41
1
10
43.8029439523832
20
1.94938437210695
30
0
41
1
10
43.5225433556702
20
2.05765368746205
30
0
41
1
10
43.3815288459877
20
2.11269252788057
30
0
0
SPLINE
5
FE
100
AcDbEntity
8
1
62
256
6
ByLayer
370
18
48
1
60
0
100
AcDbSpline
70
4
71
3
72
25
73
21
40
0
40
0
40
0
40
0
40
5.0801246155E-06
40
0.0001433516053405
40
0.0002596630658987
40
0.0029484984375147
40
0.0074747320841979
40
0.0362483694346085
40
0.0878562194443064
40
0.140035783080595
40
0.269444315914451
40
0.393222984215029
40
0.515571436116092
40
0.610450102291186
40
0.71377203447904
40
0.757752827124853
40
0.803384264063726
40
0.853136746532057
40
0.925480876447888
40
1
40
1
40
1
40
1
41
1
10
22.6517903295153
20
-0.0298120224372269
30
0
41
1
10
22.6517851567939
20
-0.0298107129299581
30
0
41
1
10
22.6516352313711
20
-0.0297727725809693
30
0
41
1
10
22.6511463508778
20
-0.0296494708762509
30
0
41
1
10
22.6473124786342
20
-0.0286776513971461
30
0
41
1
10
22.634676820046
20
-0.025439536556263
30
0
41
1
10
22.5596421251578
20
-0.0052087222183559
30
0
41
1
10
22.3729799424714
20
0.0464035764431117
30
0
41
1
10
22.0854502650704
20
0.126997031372923
30
0
41
1
10
21.5779539725665
20
0.272508238453355
30
0
41
1
10
20.915876716614
20
0.469314761170438
30
0
41
1
10
20.1044635682099
20
0.72245424539355
30
0
41
1
10
19.37067519528
20
0.961796809202951
30
0
41
1
10
18.6833607505887
20
1.19453361644466
30
0
41
1
10
18.1658117522176
20
1.3756381609189
30
0
41
1
10
17.754546591216
20
1.52298978449812
30
0
41
1
10
17.4579284833838
20
1.63076405995469
30
0
41
1
10
17.1015476824229
20
1.762212934682
30
0
41
1
10
16.6847002885138
20
1.91863246688607
30
0
41
1
10
16.3743639670809
20
2.03822346669742
30
0
41
1
10
16.2171451978588
20
2.09955728082699
30
0
0
SPLINE
5
FF
100
AcDbEntity
8
1
62
256
6
ByLayer
370
18
48
1
60
0
100
AcDbSpline
70
4
71
3
72
30
73
26
40
0
40
0
40
0
40
0
40
0.0719409276263022
40
0.138108730745648
40
0.189626370015064
40
0.232253611089237
40
0.293547776887625
40
0.348712448740719
40
0.395285814814946
40
0.441138265528241
40
0.495168861395327
40
0.540947185618587
40
0.584155982337103
40
0.618147189831041
40
0.644606135817477
40
0.67956223230656
40
0.724102000362904
40
0.764684828193596
40
0.792840340959913
40
0.819520310110813
40
0.845093148064748
40
0.876757417909286
40
0.926283101903845
40
0.993882096241867
40
1
40
1
40
1
40
1
41
1
10
21.6661349302637
20
-3.97386879337884
30
0
41
1
10
21.9737217950151
20
-3.97345148204494
30
0
41
1
10
22.5644168325775
20
-3.97307921990117
30
0
41
1
10
23.3772246298453
20
-3.97464092268066
30
0
41
1
10
24.0629206162874
20
-3.97535857265649
30
0
41
1
10
24.7303102158884
20
-3.9755293793028
30
0
41
1
10
25.4129881552692
20
-3.97512997008116
30
0
41
1
10
26.1127212975733
20
-3.97610721852138
30
0
41
1
10
26.7461349784274
20
-3.97740446837631
30
0
41
1
10
27.3746601251166
20
-3.97700782153259
30
0
41
1
10
27.9998267694542
20
-3.97603053235707
30
0
41
1
10
28.6136292738302
20
-3.97654793857191
30
0
41
1
10
29.1414205106955
20
-3.97731791105295
30
0
41
1
10
29.5863039728956
20
-3.97754929007198
30
0
41
1
10
29.9957728175341
20
-3.97834127348574
30
0
41
1
10
30.4505126217162
20
-3.97894136892535
30
0
41
1
10
30.9658680869458
20
-3.97840075651172
30
0
41
1
10
31.4520423885039
20
-3.97783751610743
30
0
41
1
10
31.8615577880639
20
-3.97748186415873
30
0
41
1
10
32.2066733647677
20
-3.97749636823872
30
0
41
1
10
32.5660477813796
20
-3.97767634833156
30
0
41
1
10
33.0236762502112
20
-3.97990531446086
30
0
41
1
10
33.6624268858187
20
-3.98083055654089
30
0
41
1
10
34.1914736955782
20
-3.97895221172428
30
0
41
1
10
34.5075880860714
20
-3.97934566344685
30
0
41
1
10
34.5338217780051
20
-3.97938048670974
30
0
0
SPLINE
5
100
100
AcDbEntity
8
1
62
256
6
ByLayer
370
18
48
1
60
0
100
AcDbSpline
70
4
71
3
72
16
73
12
40
0
40
0
40
0
40
0
40
0.12838300771642
40
0.273777950894905
40
0.393623666200823
40
0.457404990196553
40
0.509858959718879
40
0.584119848352402
40
0.701112585834849
40
0.861458451068904
40
1
40
1
40
1
40
1
41
1
10
7.54844664970486
20
3.96564071716213
30
0
41
1
10
7.38429420599422
20
3.96573536114329
30
0
41
1
10
7.03585722207566
20
3.96565187289403
30
0
41
1
10
6.54389943681275
20
3.96591781254551
30
0
41
1
10
6.13054133971318
20
3.9635091878489
30
0
41
1
10
5.82846955261218
20
3.96270418156803
30
0
41
1
10
5.59018447830707
20
3.96370617701024
30
0
41
1
10
5.28252685234503
20
3.96420529447582
30
0
41
1
10
4.83553833492431
20
3.96469718906889
30
0
41
1
10
4.30697752216881
20
3.96472344734355
30
0
41
1
10
3.92690900209487
20
3.96375500537653
30
0
41
1
10
3.75071879570149
20
3.96313576648041
30
0
0
SPLINE
5
101
100
AcDbEntity
8
1
62
256
6
ByLayer
370
18
48
1
60
0
100
AcDbSpline
70
4
71
3
72
28
73
24
40
0
40
0
40
0
40
0
40
0.0602734801051087
40
0.106951987721616
40
0.153281264670732
40
0.210519961964179
40
0.273792439335995
40
0.323922968150034
40
0.360277218146148
40
0.409463145138136
40
0.467160261332485
40
0.5104083887632
40
0.538957622870508
40
0.568049823715358
40
0.613872378723905
40
0.669998888211956
40
0.741460824062463
40
0.81784673348575
40
0.870770643203277
40
0.906328592711809
40
0.950647815038342
40
0.994433308539956
40
1
40
1
40
1
40
1
41
1
10
34.6740888870955
20
3.97923255770834
30
0
41
1
10
34.4629079400906
20
3.97951258068156
30
0
41
1
10
34.0882288506024
20
3.97992276882837
30
0
41
1
10
33.5512608638101
20
3.98084044963986
30
0
41
1
10
33.0252531847012
20
3.98047727416937
30
0
41
1
10
32.4406566591854
20
3.97707959533358
30
0
41
1
10
31.8427605850565
20
3.97751337326073
30
0
41
1
10
31.3180472925525
20
3.97798440690681
30
0
41
1
10
30.842678577823
20
3.97854109928849
30
0
41
1
10
30.3407998000663
20
3.97897669129054
30
0
41
1
10
29.8147664899125
20
3.97790555382949
30
0
41
1
10
29.3610411426243
20
3.97738332704793
30
0
41
1
10
29.0075412859659
20
3.97717496398167
30
0
41
1
10
28.6450218732707
20
3.97665879890616
30
0
41
1
10
28.185876318573
20
3.97599396682349
30
0
41
1
10
27.5782772837106
20
3.97676743755267
30
0
41
1
10
26.8635887229698
20
3.97751839861945
30
0
41
1
10
26.1601183422888
20
3.97616609894393
30
0
41
1
10
25.5824522815284
20
3.97531609270368
30
0
41
1
10
25.1171415887167
20
3.97539361225495
30
0
41
1
10
24.6838556493912
20
3.97545967959297
30
0
41
1
10
24.3556463671093
20
3.97544650670895
30
0
41
1
10
24.1827247166396
20
3.97538193444248
30
0
41
1
10
24.1632199804353
20
3.97537384661655
30
0
0
SPLINE
5
102
100
AcDbEntity
8
1
62
256
6
ByLayer
370
18
48
1
60
0
100
AcDbSpline
70
4
71
3
72
16
73
12
40
0
40
0
40
0
40
0
40
0.138541548931101
40
0.298887414165153
40
0.415880151647601
40
0.490141040281119
40
0.542595009803448
40
0.606376333799184
40
0.726222049105095
40
0.871616992283582
40
1
40
1
40
1
40
1
41
1
10
3.75071879570152
20
-3.96313576648041
30
0
41
1
10
3.92690900209487
20
-3.96375500537653
30
0
41
1
10
4.30697752216884
20
-3.96472344734355
30
0
41
1
10
4.83553833492431
20
-3.96469718906889
30
0
41
1
10
5.28252685234503
20
-3.96420529447582
30
0
41
1
10
5.59018447830707
20
-3.96370617701024
30
0
41
1
10
5.82846955261218
20
-3.96270418156803
30
0
41
1
10
6.13054133971318
20
-3.9635091878489
30
0
41
1
10
6.54389943681275
20
-3.96591781254551
30
0
41
1
10
7.03585722207563
20
-3.96565187289403
30
0
41
1
10
7.38429420599422
20
-3.96573536114329
30
0
41
1
10
7.54844664970483
20
-3.96564071716213
30
0
0
SPLINE
5
103
100
AcDbEntity
8
1
62
256
6
ByLayer
370
18
48
1
60
0
100
AcDbSpline
70
4
71
1
72
4
73
2
40
0
40
0
40
1
40
1
41
1
10
35.0504971259827
20
-0.0025019745795589
30
0
41
1
10
35.0504885097502
20
-0.0024956819386261
30
0
0
LINE
5
82
100
AcDbEntity
8
4
62
256
6
ByLayer
370
18
48
0.05
60
0
100
AcDbLine
10
0
20
0
30
0
11
49
21
0
31
0
39
0
210
0
220
0
230
1
0
LINE
5
84
100
AcDbEntity
8
81
62
256
6
ByLayer
370
18
48
1
60
0
100
AcDbLine
10
49
20
0
30
0
11
52
21
0
31
0
39
0
210
0
220
0
230
1
0
LINE
5
85
100
AcDbEntity
8
80
62
256
6
ByLayer
370
18
48
1
60
0
100
AcDbLine
10
0
20
0
30
0
11
-3
21
0
31
0
39
0
210
0
220
0
230
1
0
LINE
5
86
100
AcDbEntity
8
SK4
62
256
6
ByLayer
370
18
48
0.05
60
0
100
AcDbLine
10
-43
20
0
30
0
11
52
21
0
31
0
39
0
210
0
220
0
230
1
0
LINE
5
88
100
AcDbEntity
8
1
62
256
6
ByLayer
370
13
48
1
60
0
100
AcDbLine
10
48.941431
20
0.050561
30
0
11
47.8825
21
1.219436
31
0
39
0
210
0
220
0
230
1
0
LINE
5
89
100
AcDbEntity
8
1
62
256
6
ByLayer
370
13
48
1
60
0
100
AcDbLine
10
0.703391
20
4.581237
30
0
11
0.703391
21
-4.581237
31
0
39
0
210
0
220
0
230
1
0
LINE
5
8A
100
AcDbEntity
8
1
62
256
6
ByLayer
370
18
48
1
60
0
100
AcDbLine
10
0
20
5
30
0
11
0
21
-5
31
0
39
0
210
0
220
0
230
1
0
LINE
5
8B
100
AcDbEntity
8
1
62
256
6
ByLayer
370
13
48
1
60
0
100
AcDbLine
10
0.698516
20
4.589969
30
0
11
0.698516
21
-4.589969
31
0
39
0
210
0
220
0
230
1
0
LINE
5
8C
100
AcDbEntity
8
1
62
256
6
ByLayer
370
18
48
1
60
0
100
AcDbLine
10
18.8
20
-4.1269
30
0
11
18.8
21
-4.152756
31
0
39
0
210
0
220
0
230
1
0
LINE
5
8D
100
AcDbEntity
8
1
62
256
6
ByLayer
370
13
48
1
60
0
100
AcDbLine
10
1.402406
20
4.171206
30
0
11
1.402406
21
-4.171206
31
0
39
0
210
0
220
0
230
1
0
LINE
5
8E
100
AcDbEntity
8
SK1
62
256
6
ByLayer
370
18
48
1
60
0
100
AcDbLine
10
-40
20
-0.889085
30
0
11
-40
21
-1.109931
31
0
39
0
210
0
220
0
230
1
0
LINE
5
90
100
AcDbEntity
8
SK1
62
256
6
ByLayer
370
13
48
1
60
0
100
AcDbLine
10
-39.35
20
-1.130996
30
0
11
-39.35
21
-0.86802
31
0
39
0
210
0
220
0
230
1
0
LINE
5
91
100
AcDbEntity
8
SK1
62
256
6
ByLayer
370
18
48
1
60
0
100
AcDbLine
10
-39.25
20
-1.034959
30
0
11
-39.25
21
0.764155
31
0
39
0
210
0
220
0
230
1
0
LINE
5
92
100
AcDbEntity
8
SK1
62
256
6
ByLayer
370
18
48
1
60
0
100
AcDbLine
10
-40
20
-3.66
30
0
11
-40
21
-1.109931
31
0
39
0
210
0
220
0
230
1
0
LINE
5
93
100
AcDbEntity
8
SK1
62
256
6
ByLayer
370
18
48
1
60
0
100
AcDbLine
10
-40
20
3.66
30
0
11
-40
21
0.889085
31
0
39
0
210
0
220
0
230
1
0
LINE
5
94
100
AcDbEntity
8
SK1
62
256
6
ByLayer
370
18
48
1
60
0
100
AcDbLine
10
-38.66
20
-5
30
0
11
-38.66
21
5
31
0
39
0
210
0
220
0
230
1
0
LINE
5
95
100
AcDbEntity
8
SK1
62
256
6
ByLayer
370
18
48
1
60
0
100
AcDbLine
10
0
20
5
30
0
11
0
21
-5
31
0
39
0
210
0
220
0
230
1
0
LINE
5
96
100
AcDbEntity
8
1
62
256
6
ByLayer
370
18
48
1
60
0
100
AcDbLine
10
0.703391
20
4.581237
30
0
11
0.698516
21
4.589969
31
0
39
0
210
0
220
0
230
1
0
LINE
5
97
100
AcDbEntity
8
1
62
256
6
ByLayer
370
18
48
1
60
0
100
AcDbLine
10
0.698516
20
-4.589969
30
0
11
0.703391
21
-4.581237
31
0
39
0
210
0
220
0
230
1
0
LINE
5
98
100
AcDbEntity
8
1
62
256
6
ByLayer
370
18
48
1
60
0
100
AcDbLine
10
1.402406
20
-4.171206
30
0
11
3.503353
21
-4.172519
31
0
39
0
210
0
220
0
230
1
0
LINE
5
99
100
AcDbEntity
8
1
62
256
6
ByLayer
370
18
48
1
60
0
100
AcDbLine
10
20.208464
20
-4.18296
30
0
11
21.44479
21
-4.183732
31
0
39
0
210
0
220
0
230
1
0
LINE
5
9A
100
AcDbEntity
8
1
62
256
6
ByLayer
370
18
48
1
60
0
100
AcDbLine
10
21.44479
20
4.183732
30
0
11
20.208464
21
4.18296
31
0
39
0
210
0
220
0
230
1
0
LINE
5
9B
100
AcDbEntity
8
1
62
256
6
ByLayer
370
18
48
1
60
0
100
AcDbLine
10
3.503353
20
4.172519
30
0
11
1.402406
21
4.171206
31
0
39
0
210
0
220
0
230
1
0
LINE
5
9C
100
AcDbEntity
8
SK1
62
256
6
ByLayer
370
18
48
1
60
0
100
AcDbLine
10
-40
20
-3.66
30
0
11
-38.66
21
-5
31
0
39
0
210
0
220
0
230
1
0
LINE
5
9D
100
AcDbEntity
8
SK1
62
256
6
ByLayer
370
18
48
1
60
0
100
AcDbLine
10
-38.66
20
5
30
0
11
-40
21
3.66
31
0
39
0
210
0
220
0
230
1
0
LINE
5
9E
100
AcDbEntity
8
SK1
62
256
6
ByLayer
370
18
48
1
60
0
100
AcDbLine
10
-38.66
20
-5
30
0
11
0
21
-5
31
0
39
0
210
0
220
0
230
1
0
LINE
5
9F
100
AcDbEntity
8
SK1
62
256
6
ByLayer
370
18
48
1
60
0
100
AcDbLine
10
0
20
5
30
0
11
-38.66
21
5
31
0
39
0
210
0
220
0
230
1
0
LINE
5
A0
100
AcDbEntity
8
2
62
256
6
ByLayer
370
13
48
1
60
0
100
AcDbLine
10
62.75
20
-4.2
30
0
11
62.75
21
20.917465
31
0
39
0
210
0
220
0
230
1
0
LINE
5
A2
100
AcDbEntity
8
2
62
256
6
ByLayer
370
13
48
1
60
0
100
AcDbLine
10
50.5875
20
4.2
30
0
11
64.75
21
4.2
31
0
39
0
210
0
220
0
230
1
0
LINE
5
A3
100
AcDbEntity
8
2
62
256
6
ByLayer
370
13
48
1
60
0
100
AcDbLine
10
50.5875
20
-4.2
30
0
11
64.75
21
-4.2
31
0
39
0
210
0
220
0
230
1
0
LINE
5
A4
100
AcDbEntity
8
1
62
256
6
ByLayer
370
18
48
1
60
1
100
AcDbLine
10
62.75
20
4.2
30
0
11
63.210784
21
0.700002
31
0
39
0
210
0
220
0
230
1
0
LINE
5
A5
100
AcDbEntity
8
1
62
256
6
ByLayer
370
18
48
1
60
1
100
AcDbLine
10
63.210784
20
0.700002
30
0
11
62.289216
21
0.699998
31
0
39
0
210
0
220
0
230
1
0
LINE
5
A6
100
AcDbEntity
8
1
62
256
6
ByLayer
370
18
48
1
60
1
100
AcDbLine
10
62.289216
20
0.699998
30
0
11
62.75
21
4.2
31
0
39
0
210
0
220
0
230
1
0
LINE
5
A7
100
AcDbEntity
8
1
62
256
6
ByLayer
370
18
48
1
60
1
100
AcDbLine
10
62.75
20
-4.2
30
0
11
62.289216
21
-0.700002
31
0
39
0
210
0
220
0
230
1
0
LINE
5
A8
100
AcDbEntity
8
1
62
256
6
ByLayer
370
18
48
1
60
1
100
AcDbLine
10
62.289216
20
-0.700002
30
0
11
63.210784
21
-0.699998
31
0
39
0
210
0
220
0
230
1
0
LINE
5
A9
100
AcDbEntity
8
1
62
256
6
ByLayer
370
18
48
1
60
1
100
AcDbLine
10
63.210784
20
-0.699998
30
0
11
62.75
21
-4.2
31
0
39
0
210
0
220
0
230
1
0
LINE
5
AA
100
AcDbEntity
8
SK2
62
256
6
ByLayer
370
13
48
1
60
0
100
AcDbLine
10
-48.25
20
-5
30
0
11
-48.25
21
22.056066
31
0
39
0
210
0
220
0
230
1
0
LINE
5
AC
100
AcDbEntity
8
SK2
62
256
6
ByLayer
370
13
48
1
60
0
100
AcDbLine
10
-41.5875
20
5
30
0
11
-50.25
21
5
31
0
39
0
210
0
220
0
230
1
0
LINE
5
AD
100
AcDbEntity
8
SK2
62
256
6
ByLayer
370
13
48
1
60
0
100
AcDbLine
10
-41.5875
20
-5
30
0
11
-50.25
21
-5
31
0
39
0
210
0
220
0
230
1
0
LINE
5
AE
100
AcDbEntity
8
1
62
256
6
ByLayer
370
18
48
1
60
1
100
AcDbLine
10
-48.25
20
5
30
0
11
-47.789216
21
1.500002
31
0
39
0
210
0
220
0
230
1
0
LINE
5
AF
100
AcDbEntity
8
1
62
256
6
ByLayer
370
18
48
1
60
1
100
AcDbLine
10
-47.789216
20
1.500002
30
0
11
-48.710784
21
1.499998
31
0
39
0
210
0
220
0
230
1
0
LINE
5
B0
100
AcDbEntity
8
1
62
256
6
ByLayer
370
18
48
1
60
1
100
AcDbLine
10
-48.710784
20
1.499998
30
0
11
-48.25
21
5
31
0
39
0
210
0
220
0
230
1
0
LINE
5
B1
100
AcDbEntity
8
1
62
256
6
ByLayer
370
18
48
1
60
1
100
AcDbLine
10
-48.25
20
-5
30
0
11
-48.710784
21
-1.500002
31
0
39
0
210
0
220
0
230
1
0
LINE
5
B2
100
AcDbEntity
8
1
62
256
6
ByLayer
370
18
48
1
60
1
100
AcDbLine
10
-48.710784
20
-1.500002
30
0
11
-47.789216
21
-1.499998
31
0
39
0
210
0
220
0
230
1
0
LINE
5
B3
100
AcDbEntity
8
1
62
256
6
ByLayer
370
18
48
1
60
1
100
AcDbLine
10
-47.789216
20
-1.499998
30
0
11
-48.25
21
-5
31
0
39
0
210
0
220
0
230
1
0
LINE
5
B4
100
AcDbEntity
8
SK2
62
256
6
ByLayer
370
13
48
1
60
0
100
AcDbLine
10
49.543059
20
1.491725
30
0
11
60.832735
21
32.503262
31
0
39
0
210
0
220
0
230
1
0
LINE
5
B5
100
AcDbEntity
8
SK2
62
256
6
ByLayer
370
13
48
1
60
0
100
AcDbLine
10
49.543059
20
-1.491725
30
0
11
60.832735
21
-32.503262
31
0
39
0
210
0
220
0
230
1
0
LINE
5
B6
100
AcDbEntity
8
1
62
256
6
ByLayer
370
18
48
1
60
1
100
AcDbLine
10
60.148566
20
30.623923
30
0
11
63.573296
21
29.767455
31
0
39
0
210
0
220
0
230
1
0
LINE
5
B7
100
AcDbEntity
8
1
62
256
6
ByLayer
370
18
48
1
60
1
100
AcDbLine
10
63.573296
20
29.767455
30
0
11
63.234933
21
28.910251
31
0
39
0
210
0
220
0
230
1
0
LINE
5
B8
100
AcDbEntity
8
1
62
256
6
ByLayer
370
18
48
1
60
1
100
AcDbLine
10
63.234933
20
28.910251
30
0
11
60.148566
21
30.623923
31
0
39
0
210
0
220
0
230
1
0
LINE
5
B9
100
AcDbEntity
8
1
62
256
6
ByLayer
370
18
48
1
60
1
100
AcDbLine
10
60.148566
20
-30.623923
30
0
11
63.23493
21
-28.910253
31
0
39
0
210
0
220
0
230
1
0
LINE
5
BA
100
AcDbEntity
8
1
62
256
6
ByLayer
370
18
48
1
60
1
100
AcDbLine
10
63.23493
20
-28.910253
30
0
11
63.573299
21
-29.767453
31
0
39
0
210
0
220
0
230
1
0
LINE
5
BB
100
AcDbEntity
8
1
62
256
6
ByLayer
370
18
48
1
60
1
100
AcDbLine
10
63.573299
20
-29.767453
30
0
11
60.148566
21
-30.623923
31
0
39
0
210
0
220
0
230
1
0
LINE
5
104
100
AcDbEntity
8
1
62
256
6
ByLayer
370
13
48
0.05
60
0
100
AcDbLine
10
-46.5
20
0
30
0
11
54.018833
21
0
31
0
39
0
210
0
220
0
230
1
0
LINE
5
109
100
AcDbEntity
8
1
62
256
6
ByLayer
370
18
48
1
60
1
100
AcDbLine
10
62.75
20
4.2
30
0
11
63.210784
21
0.700002
31
0
39
0
210
0
220
0
230
1
0
LINE
5
10A
100
AcDbEntity
8
1
62
256
6
ByLayer
370
18
48
1
60
1
100
AcDbLine
10
63.210784
20
0.700002
30
0
11
62.289216
21
0.699998
31
0
39
0
210
0
220
0
230
1
0
LINE
5
10B
100
AcDbEntity
8
1
62
256
6
ByLayer
370
18
48
1
60
1
100
AcDbLine
10
62.289216
20
0.699998
30
0
11
62.75
21
4.2
31
0
39
0
210
0
220
0
230
1
0
LINE
5
10D
100
AcDbEntity
8
1
62
256
6
ByLayer
370
18
48
1
60
1
100
AcDbLine
10
62.75
20
-4.2
30
0
11
62.289216
21
-0.700002
31
0
39
0
210
0
220
0
230
1
0
LINE
5
10E
100
AcDbEntity
8
1
62
256
6
ByLayer
370
18
48
1
60
1
100
AcDbLine
10
62.289216
20
-0.700002
30
0
11
63.210784
21
-0.699998
31
0
39
0
210
0
220
0
230
1
0
LINE
5
10F
100
AcDbEntity
8
1
62
256
6
ByLayer
370
18
48
1
60
1
100
AcDbLine
10
63.210784
20
-0.699998
30
0
11
62.75
21
-4.2
31
0
39
0
210
0
220
0
230
1
0
LINE
5
113
100
AcDbEntity
8
1
62
256
6
ByLayer
370
18
48
1
60
1
100
AcDbLine
10
-48.25
20
5
30
0
11
-47.789216
21
1.500002
31
0
39
0
210
0
220
0
230
1
0
LINE
5
114
100
AcDbEntity
8
1
62
256
6
ByLayer
370
18
48
1
60
1
100
AcDbLine
10
-47.789216
20
1.500002
30
0
11
-48.710784
21
1.499998
31
0
39
0
210
0
220
0
230
1
0
LINE
5
115
100
AcDbEntity
8
1
62
256
6
ByLayer
370
18
48
1
60
1
100
AcDbLine
10
-48.710784
20
1.499998
30
0
11
-48.25
21
5
31
0
39
0
210
0
220
0
230
1
0
LINE
5
117
100
AcDbEntity
8
1
62
256
6
ByLayer
370
18
48
1
60
1
100
AcDbLine
10
-48.25
20
-5
30
0
11
-48.710784
21
-1.500002
31
0
39
0
210
0
220
0
230
1
0
LINE
5
118
100
AcDbEntity
8
1
62
256
6
ByLayer
370
18
48
1
60
1
100
AcDbLine
10
-48.710784
20
-1.500002
30
0
11
-47.789216
21
-1.499998
31
0
39
0
210
0
220
0
230
1
0
LINE
5
119
100
AcDbEntity
8
1
62
256
6
ByLayer
370
18
48
1
60
1
100
AcDbLine
10
-47.789216
20
-1.499998
30
0
11
-48.25
21
-5
31
0
39
0
210
0
220
0
230
1
0
LINE
5
11C
100
AcDbEntity
8
1
62
256
6
ByLayer
370
18
48
1
60
1
100
AcDbLine
10
60.148566
20
30.623923
30
0
11
63.573296
21
29.767455
31
0
39
0
210
0
220
0
230
1
0
LINE
5
11D
100
AcDbEntity
8
1
62
256
6
ByLayer
370
18
48
1
60
1
100
AcDbLine
10
63.573296
20
29.767455
30
0
11
63.234933
21
28.910251
31
0
39
0
210
0
220
0
230
1
0
LINE
5
11E
100
AcDbEntity
8
1
62
256
6
ByLayer
370
18
48
1
60
1
100
AcDbLine
10
63.234933
20
28.910251
30
0
11
60.148566
21
30.623923
31
0
39
0
210
0
220
0
230
1
0
LINE
5
120
100
AcDbEntity
8
1
62
256
6
ByLayer
370
18
48
1
60
1
100
AcDbLine
10
60.148566
20
-30.623923
30
0
11
63.23493
21
-28.910253
31
0
39
0
210
0
220
0
230
1
0
LINE
5
121
100
AcDbEntity
8
1
62
256
6
ByLayer
370
18
48
1
60
1
100
AcDbLine
10
63.23493
20
-28.910253
30
0
11
63.573299
21
-29.767453
31
0
39
0
210
0
220
0
230
1
0
LINE
5
122
100
AcDbEntity
8
1
62
256
6
ByLayer
370
18
48
1
60
1
100
AcDbLine
10
63.573299
20
-29.767453
30
0
11
60.148566
21
-30.623923
31
0
39
0
210
0
220
0
230
1
0
MTEXT
5
105
100
AcDbEntity
8
2
62
256
6
ByLayer
370
18
48
1
60
0
100
AcDbMText
10
61.185366
20
8.134844
30
0
210
0
220
0
230
1
1
%%c
40
3.5
41
0
44
1.084337
50
90
71
7
72
5
7
iso_b_vert
0
MTEXT
5
108
100
AcDbEntity
8
2
62
256
6
ByLayer
370
18
48
1
60
0
100
AcDbMText
10
61.185366
20
15.1075
30
0
210
0
220
0
230
1
1
\W0.7451;8.4
40
3.5
41
0
44
1.084337
50
90
71
7
72
5
7
iso_b_vert
0
MTEXT
5
111
100
AcDbEntity
8
SK2
62
256
6
ByLayer
370
18
48
1
60
0
100
AcDbMText
10
-49.814634
20
11.934844
30
0
210
0
220
0
230
1
1
%%c
40
3.5
41
0
44
1.084337
50
90
71
7
72
5
7
iso_b_vert
0
MTEXT
5
112
100
AcDbEntity
8
SK2
62
256
6
ByLayer
370
18
48
1
60
0
100
AcDbMText
10
-49.814634
20
18.9075
30
0
210
0
220
0
230
1
1
\W0.5321;10
40
3.5
41
0
44
1.084337
50
90
71
7
72
5
7
iso_b_vert
0
MTEXT
5
11B
100
AcDbEntity
8
SK2
62
256
6
ByLayer
370
18
48
1
60
0
100
AcDbMText
10
77.51846
20
-2.467366
30
0
210
0
220
0
230
1
1
\W0.7825;140%%d
40
3.5
41
0
44
1.084337
50
0
71
7
72
5
7
iso_b_vert
0
MTEXT
5
124
100
AcDbEntity
8
SK6
62
256
6
ByLayer
370
18
48
1
60
0
100
AcDbMText
10
-25.154307
20
-97.467366
30
0
210
0
220
0
230
1
1
\W0.7547;860.1-0840-035A1-MM M2BM
40
3.5
41
0
44
1.084337
50
0
71
7
72
5
7
iso_b_vert
0
HATCH
5
10C
100
AcDbEntity
8
2
62
256
6
ByLayer
370
13
48
1
60
0
100
AcDbHatch
10
0
20
0
30
0
210
0
220
0
230
1
2
ANSI31
70
0
71
0
91
1
92
5
93
3
72
1
10
62.75
20
4.19999999999999
11
63.2107837415528
21
0.700001692553172
72
1
10
63.2107837415528
20
0.700001692553172
11
62.2892162584472
21
0.699998307446805
72
1
10
62.2892162584472
20
0.699998307446805
11
62.75
21
4.19999999999999
97
0
75
0
76
1
52
0
41
0.0062
77
0
78
1
53
45
43
0
44
0
45
-0.0139193969876572
46
0.0139193969876572
79
0
47
0
98
1
10
0
20
0
0
HATCH
5
110
100
AcDbEntity
8
2
62
256
6
ByLayer
370
13
48
1
60
0
100
AcDbHatch
10
0
20
0
30
0
210
0
220
0
230
1
2
ANSI31
70
0
71
0
91
1
92
5
93
3
72
1
10
62.75
20
-4.19999999999999
11
62.2892162584472
21
-0.700001692553172
72
1
10
62.2892162584472
20
-0.700001692553172
11
63.2107837415528
21
-0.699998307446805
72
1
10
63.2107837415528
20
-0.699998307446805
11
62.75
21
-4.19999999999999
97
0
75
0
76
1
52
0
41
0.0062
77
0
78
1
53
45
43
0
44
0
45
-0.0139193969876572
46
0.0139193969876572
79
0
47
0
98
1
10
0
20
0
0
HATCH
5
116
100
AcDbEntity
8
SK2
62
256
6
ByLayer
370
13
48
1
60
0
100
AcDbHatch
10
0
20
0
30
0
210
0
220
0
230
1
2
ANSI31
70
0
71
0
91
1
92
5
93
3
72
1
10
-48.25
20
5
11
-47.7892162584472
21
1.50000169255318
72
1
10
-47.7892162584472
20
1.50000169255318
11
-48.7107837415528
21
1.49999830744682
72
1
10
-48.7107837415528
20
1.49999830744682
11
-48.25
21
5
97
0
75
0
76
1
52
0
41
0.0062
77
0
78
1
53
45
43
0
44
0
45
-0.0139193969876572
46
0.0139193969876572
79
0
47
0
98
1
10
0
20
0
0
HATCH
5
11A
100
AcDbEntity
8
SK2
62
256
6
ByLayer
370
13
48
1
60
0
100
AcDbHatch
10
0
20
0
30
0
210
0
220
0
230
1
2
ANSI31
70
0
71
0
91
1
92
5
93
3
72
1
10
-48.25
20
-5
11
-48.7107837415528
21
-1.50000169255318
72
1
10
-48.7107837415528
20
-1.50000169255318
11
-47.7892162584472
21
-1.49999830744682
72
1
10
-47.7892162584472
20
-1.49999830744682
11
-48.25
21
-5
97
0
75
0
76
1
52
0
41
0.0062
77
0
78
1
53
45
43
0
44
0
45
-0.0139193969876572
46
0.0139193969876572
79
0
47
0
98
1
10
0
20
0
0
HATCH
5
11F
100
AcDbEntity
8
SK2
62
256
6
ByLayer
370
13
48
1
60
0
100
AcDbHatch
10
0
20
0
30
0
210
0
220
0
230
1
2
ANSI31
70
0
71
0
91
1
92
5
93
3
72
1
10
60.1485663184879
20
30.6239231770108
11
63.5732957256207
21
29.7674546740699
72
1
10
63.5732957256207
20
29.7674546740699
11
63.2349334749942
21
28.9102513065544
72
1
10
63.2349334749942
20
28.9102513065544
11
60.1485663184879
21
30.6239231770108
97
0
75
0
76
1
52
0
41
0.0062
77
0
78
1
53
45
43
0
44
0
45
-0.0139193969876572
46
0.0139193969876572
79
0
47
0
98
1
10
0
20
0
0
HATCH
5
123
100
AcDbEntity
8
SK2
62
256
6
ByLayer
370
13
48
1
60
0
100
AcDbHatch
10
0
20
0
30
0
210
0
220
0
230
1
2
ANSI31
70
0
71
0
91
1
92
5
93
3
72
1
10
60.1485663184879
20
-30.6239231770108
11
63.234930326315
21
-28.9102525494399
72
1
10
63.234930326315
20
-28.9102525494399
11
63.5732988742999
21
-29.7674534311844
72
1
10
63.5732988742999
20
-29.7674534311844
11
60.1485663184879
21
-30.6239231770108
97
0
75
0
76
1
52
0
41
0.0062
77
0
78
1
53
45
43
0
44
0
45
-0.0139193969876572
46
0.0139193969876572
79
0
47
0
98
1
10
0
20
0
0
DIMENSION
5
127
100
AcDbEntity
8
2
62
256
6
ByLayer
370
18
48
1
60
0
100
AcDbDimension
2
_U0
10
49
20
-58.504074
30
0
11
4.5
21
-58.504074
31
0
70
32
71
1
72
1
41
1
210
0
220
0
230
1
3
Standard
100
AcDbAlignedDimension
13
-40
23
-5
33
0
14
49
24
-4.2
34
0
50
0
100
AcDbRotatedDimension
1001
ACAD
1000
DSTYLE
1002
{
1070
   371
1070
    13
1070
   372
1070
    13
1070
     3
1000

1070
   170
1070
     0
1070
   144
1040
1.0
1070
   277
1070
     2
1070
   284
1070
     8
1070
   278
1070
    46
1070
   146
1040
1.0
1070
   345
1005
16
1070
   347
1005
16
1070
   346
1005
16
1070
   344
1005
0
1070
   343
1005
0
1070
   172
1070
     1
1070
    76
1070
     0
1070
    75
1070
     0
1070
   282
1070
     0
1070
   281
1070
     0
1070
    71
1070
     0
1070
    74
1070
     0
1070
   279
1070
     0
1070
   173
1070
     1
1070
   340
1005
106
1070
   271
1070
     2
1070
   272
1070
     2
1070
    77
1070
     1
1070
    73
1070
     1
1070
   171
1070
     3
1070
   274
1070
     4
1070
   177
1070
     2
1070
   176
1070
     2
1070
   178
1070
     2
1070
    78
1070
     8
1070
    48
1040
-0.1
1070
    41
1040
3.5
1070
   147
1040
1.75
1070
    42
1040
1.5875
1070
    44
1040
2.0
1070
   140
1040
3.5
1002
}
1001
ACAD_DSTYLE_DIM_LINETYPE
1070
   380
1005
16
1001
ACAD_DSTYLE_DIM_EXT1_LINETYPE
1070
   381
1005
16
1001
ACAD_DSTYLE_DIM_EXT2_LINETYPE
1070
   382
1005
16
0
DIMENSION
5
140
100
AcDbEntity
8
SK2
62
256
6
ByLayer
370
18
48
1
60
0
100
AcDbDimension
2
_U1
10
2
20
-38.504074
30
0
11
25.5
21
-38.504074
31
0
70
32
71
1
72
1
41
1
210
0
220
0
230
1
3
Standard
100
AcDbAlignedDimension
13
49
23
-4.2
33
0
14
2
24
-4.2
34
0
50
0
100
AcDbRotatedDimension
1001
ACAD
1000
DSTYLE
1002
{
1070
   371
1070
    13
1070
   372
1070
    13
1070
     3
1000

1070
   170
1070
     0
1070
   144
1040
1.0
1070
   277
1070
     2
1070
   284
1070
     8
1070
   278
1070
    46
1070
   146
1040
1.0
1070
   345
1005
16
1070
   347
1005
16
1070
   346
1005
16
1070
   344
1005
0
1070
   343
1005
0
1070
   172
1070
     1
1070
    76
1070
     0
1070
    75
1070
     0
1070
   282
1070
     0
1070
   281
1070
     0
1070
    71
1070
     0
1070
    74
1070
     0
1070
   279
1070
     0
1070
   173
1070
     1
1070
   340
1005
106
1070
   271
1070
     2
1070
   272
1070
     2
1070
    77
1070
     1
1070
    73
1070
     1
1070
   171
1070
     3
1070
   274
1070
     4
1070
   177
1070
     2
1070
   176
1070
     2
1070
   178
1070
     2
1070
    78
1070
     8
1070
    48
1040
-0.1
1070
    41
1040
3.5
1070
   147
1040
1.75
1070
    42
1040
1.5875
1070
    44
1040
2.0
1070
   140
1040
3.5
1002
}
1001
ACAD_DSTYLE_DIM_LINETYPE
1070
   380
1005
16
1001
ACAD_DSTYLE_DIM_EXT1_LINETYPE
1070
   381
1005
16
1001
ACAD_DSTYLE_DIM_EXT2_LINETYPE
1070
   382
1005
16
0
DIMENSION
5
158
100
AcDbEntity
8
SK2
62
256
6
ByLayer
370
18
48
1
60
0
100
AcDbDimension
2
_U2
10
14
20
-28.504074
30
0
11
31.5
21
-28.504074
31
0
70
32
71
1
72
1
41
1
210
0
220
0
230
1
3
Standard
100
AcDbAlignedDimension
13
49
23
-4.2
33
0
14
14
24
-4.2
34
0
50
0
100
AcDbRotatedDimension
1001
ACAD
1000
DSTYLE
1002
{
1070
   371
1070
    13
1070
   372
1070
    13
1070
     3
1000

1070
   170
1070
     0
1070
   144
1040
1.0
1070
   277
1070
     2
1070
   284
1070
     8
1070
   278
1070
    46
1070
   146
1040
1.0
1070
   345
1005
16
1070
   347
1005
16
1070
   346
1005
16
1070
   344
1005
0
1070
   343
1005
0
1070
   172
1070
     1
1070
    76
1070
     0
1070
    75
1070
     0
1070
   282
1070
     0
1070
   281
1070
     0
1070
    71
1070
     0
1070
    74
1070
     0
1070
   279
1070
     0
1070
   173
1070
     1
1070
   340
1005
106
1070
   271
1070
     2
1070
   272
1070
     2
1070
    77
1070
     1
1070
    73
1070
     1
1070
   171
1070
     3
1070
   274
1070
     4
1070
   177
1070
     2
1070
   176
1070
     2
1070
   178
1070
     2
1070
    78
1070
     8
1070
    48
1040
-0.1
1070
    41
1040
3.5
1070
   147
1040
1.75
1070
    42
1040
1.5875
1070
    44
1040
2.0
1070
   140
1040
3.5
1002
}
1001
ACAD_DSTYLE_DIM_LINETYPE
1070
   380
1005
16
1001
ACAD_DSTYLE_DIM_EXT1_LINETYPE
1070
   381
1005
16
1001
ACAD_DSTYLE_DIM_EXT2_LINETYPE
1070
   382
1005
16
0
DIMENSION
5
172
100
AcDbEntity
8
SK2
62
256
6
ByLayer
370
18
48
1
60
0
100
AcDbDimension
2
_U3
10
0
20
-38.504074
30
0
11
-20
21
-38.504074
31
0
70
32
71
1
72
1
41
1
210
0
220
0
230
1
3
Standard
100
AcDbAlignedDimension
13
-40
23
-5
33
0
14
0
24
-5
34
0
50
0
100
AcDbRotatedDimension
1001
ACAD
1000
DSTYLE
1002
{
1070
   371
1070
    13
1070
   372
1070
    13
1070
     3
1000

1070
   170
1070
     0
1070
   144
1040
1.0
1070
   277
1070
     2
1070
   284
1070
     8
1070
   278
1070
    46
1070
   146
1040
1.0
1070
   345
1005
16
1070
   347
1005
16
1070
   346
1005
16
1070
   344
1005
0
1070
   343
1005
0
1070
   172
1070
     1
1070
    76
1070
     0
1070
    75
1070
     0
1070
   282
1070
     0
1070
   281
1070
     0
1070
    71
1070
     0
1070
    74
1070
     0
1070
   279
1070
     0
1070
   173
1070
     1
1070
   340
1005
106
1070
   271
1070
     2
1070
   272
1070
     2
1070
    77
1070
     1
1070
    73
1070
     1
1070
   171
1070
     3
1070
   274
1070
     4
1070
   177
1070
     2
1070
   176
1070
     2
1070
   178
1070
     2
1070
    78
1070
     8
1070
    48
1040
-0.1
1070
    41
1040
3.5
1070
   147
1040
1.75
1070
    42
1040
1.5875
1070
    44
1040
2.0
1070
   140
1040
3.5
1002
}
1001
ACAD_DSTYLE_DIM_LINETYPE
1070
   380
1005
16
1001
ACAD_DSTYLE_DIM_EXT1_LINETYPE
1070
   381
1005
16
1001
ACAD_DSTYLE_DIM_EXT2_LINETYPE
1070
   382
1005
16
0
DIMENSION
5
18A
100
AcDbEntity
8
SK2
62
256
6
ByLayer
370
18
48
1
60
0
100
AcDbDimension
2
_U4
10
49
20
-48.504074
30
0
11
24.5
21
-48.504074
31
0
70
32
71
1
72
1
41
1
210
0
220
0
230
1
3
Standard
100
AcDbAlignedDimension
13
0
23
-5
33
0
14
49
24
-4.2
34
0
50
0
100
AcDbRotatedDimension
1001
ACAD
1000
DSTYLE
1002
{
1070
   371
1070
    13
1070
   372
1070
    13
1070
     3
1000

1070
   170
1070
     0
1070
   144
1040
1.0
1070
   277
1070
     2
1070
   284
1070
     8
1070
   278
1070
    46
1070
   146
1040
1.0
1070
   345
1005
16
1070
   347
1005
16
1070
   346
1005
16
1070
   344
1005
0
1070
   343
1005
0
1070
   172
1070
     1
1070
    76
1070
     0
1070
    75
1070
     0
1070
   282
1070
     0
1070
   281
1070
     0
1070
    71
1070
     0
1070
    74
1070
     0
1070
   279
1070
     0
1070
   173
1070
     1
1070
   340
1005
106
1070
   271
1070
     2
1070
   272
1070
     2
1070
    77
1070
     1
1070
    73
1070
     1
1070
   171
1070
     3
1070
   274
1070
     4
1070
   177
1070
     2
1070
   176
1070
     2
1070
   178
1070
     2
1070
    78
1070
     8
1070
    48
1040
-0.1
1070
    41
1040
3.5
1070
   147
1040
1.75
1070
    42
1040
1.5875
1070
    44
1040
2.0
1070
   140
1040
3.5
1002
}
1001
ACAD_DSTYLE_DIM_LINETYPE
1070
   380
1005
16
1001
ACAD_DSTYLE_DIM_EXT1_LINETYPE
1070
   381
1005
16
1001
ACAD_DSTYLE_DIM_EXT2_LINETYPE
1070
   382
1005
16
0
ENDSEC
0
SECTION
2
OBJECTS
0
DICTIONARY
5
212
330
0
100
AcDbDictionary
280
0
281
1
3
ACAD_GROUP
350
213
3
ACAD_MLINESTYLE
350
214
0
DICTIONARY
5
213
330
0
100
AcDbDictionary
280
0
281
1
0
DICTIONARY
5
214
330
0
100
AcDbDictionary
280
0
281
1
3
Standard
350
18
0
MLINESTYLE
5
18
330
214
100
AcDbMlineStyle
2
Standard
70
0
3

62
256
51
90
52
90
71
2
49
-0.5
62
256
6
ByLayer
49
0.5
62
256
6
ByLayer
0
RASTERVARIABLES
5
200
330

100
AcDbRasterVariables
90
0
70
1
71
1
72
1
0
ENDSEC
0
EOF
