0
SECTION
2
HEADER
9
$ACADVER
1
AC1015
9
$DWGCODEPAGE
3
ANSI_1252
9
$HANDSEED
5
234
9
$ANGBASE
50
0
9
$ANGDIR
70
0
9
$ATTMODE
70
1
9
$AUNITS
70
0
9
$AUPREC
70
0
9
$CECOLOR
62
256
9
$CELTSCALE
40
1
9
$CELTYPE
6
ByLayer
9
$CELWEIGHT
370
18
9
$CLAYER
8
0
9
$CMLJUST
70
0
9
$CMLSCALE
40
1
9
$CMLSTYLE
2
Standard
9
$DIMSTYLE
2
Standard
9
$TEXTSIZE
40
0.2
9
$TEXTSTYLE
7
Standard
9
$LUNITS
70
2
9
$LUPREC
70
4
9
$EXTNAMES
290
1
9
$INSUNITS
70
4
9
$LTSCALE
40
1
9
$LWDISPLAY
290
1
9
$PDMODE
70
0
9
$PDSIZE
40
0
9
$PLINEGEN
70
0
0
ENDSEC
0
SECTION
2
CLASSES
0
CLASS
1
RASTERVARIABLES
2
AcDbRasterVariables
3
ISM
90
0
280
0
281
0
0
ENDSEC
0
SECTION
2
TABLES
0
TABLE
2
VPORT
5
22a
100
AcDbSymbolTable
0
VPORT
5
1
100
AcDbSymbolTableRecord
100
AcDbViewportTableRecord
2
*Active
70
0
10
0
20
0
11
1
21
1
12
-1
22
1
13
0
23
0
14
0.5
24
0.5
15
10
25
10
16
0
26
0
36
1
17
0
27
0
37
0
0
ENDTAB
0
TABLE
2
LTYPE
5
22b
100
AcDbSymbolTable
0
LTYPE
5
14
100
AcDbSymbolTableRecord
100
AcDbLinetypeTableRecord
70
0
2
ByBlock
3

72
65
73
0
40
0
0
LTYPE
5
15
100
AcDbSymbolTableRecord
100
AcDbLinetypeTableRecord
70
0
2
ByLayer
3

72
65
73
0
40
0
0
LTYPE
5
16
100
AcDbSymbolTableRecord
100
AcDbLinetypeTableRecord
70
0
2
Continuous
3
Solid line
72
65
73
0
40
0
0
LTYPE
5
6E
100
AcDbSymbolTableRecord
100
AcDbLinetypeTableRecord
70
0
2
CENTER
3
____ _ ____ _ ____ _ ____
72
65
73
4
40
47.5
49
22
74
0
49
-8.5
74
0
49
8.5
74
0
49
-8.5
74
0
0
LTYPE
5
6F
100
AcDbSymbolTableRecord
100
AcDbLinetypeTableRecord
70
0
2
DASHED
3
__ __ __ __ __ __ __ __ __
72
65
73
2
40
25.72
49
12.86
74
0
49
-12.86
74
0
0
ENDTAB
0
TABLE
2
LAYER
5
22c
100
AcDbSymbolTable
0
LAYER
5
10
100
AcDbSymbolTableRecord
100
AcDbLayerTableRecord
2
0
70
0
62
7
6
Continuous
290
1
370
-3
390
0
0
LAYER
5
71
100
AcDbSymbolTableRecord
100
AcDbLayerTableRecord
2
81
70
0
62
-3
6
Continuous
290
1
370
-3
390
0
0
LAYER
5
73
100
AcDbSymbolTableRecord
100
AcDbLayerTableRecord
2
80
70
0
62
-6
6
Continuous
290
1
370
-3
390
0
0
LAYER
5
75
100
AcDbSymbolTableRecord
100
AcDbLayerTableRecord
2
1
70
0
62
4
6
Continuous
290
1
370
-3
390
0
0
LAYER
5
87
100
AcDbSymbolTableRecord
100
AcDbLayerTableRecord
2
4
70
0
62
-2
6
CENTER
290
1
370
-3
390
0
0
LAYER
5
A2
100
AcDbSymbolTableRecord
100
AcDbLayerTableRecord
2
2
70
0
62
7
6
Continuous
290
1
370
-3
390
0
0
LAYER
5
13F
100
AcDbSymbolTableRecord
100
AcDbLayerTableRecord
2
Defpoints
70
0
62
7
6
Continuous
290
0
370
-3
390
0
0
LAYER
5
216
100
AcDbSymbolTableRecord
100
AcDbLayerTableRecord
2
SK4
70
0
62
2
6
CENTER
290
1
370
-3
390
0
0
LAYER
5
217
100
AcDbSymbolTableRecord
100
AcDbLayerTableRecord
2
SK1
70
0
62
4
6
Continuous
290
1
370
-3
390
0
0
LAYER
5
218
100
AcDbSymbolTableRecord
100
AcDbLayerTableRecord
2
SK2
70
0
62
7
6
Continuous
290
1
370
-3
390
0
0
LAYER
5
219
100
AcDbSymbolTableRecord
100
AcDbLayerTableRecord
2
SK6
70
0
62
5
6
Continuous
290
1
370
-3
390
0
0
ENDTAB
0
TABLE
2
STYLE
5
22d
100
AcDbSymbolTable
0
STYLE
5
11
100
AcDbSymbolTableRecord
100
AcDbTextStyleTableRecord
2
Standard
3
txt
70
0
71
0
40
0
41
1
42
0
50
0
0
STYLE
5
11B
100
AcDbSymbolTableRecord
100
AcDbTextStyleTableRecord
2
iso_b_vert
3
simplex.shx
70
0
71
0
40
0
41
1
42
0
50
0
0
STYLE
5
11C
100
AcDbSymbolTableRecord
100
AcDbTextStyleTableRecord
2
DWGDirectTextStyle
3
simplex
70
0
71
0
40
0
41
1
42
0
50
0
0
ENDTAB
0
TABLE
2
DIMSTYLE
5
22e
100
AcDbSymbolTable
100
AcDbDimStyleTable
0
DIMSTYLE
105
27
100
AcDbSymbolTableRecord
100
AcDbDimStyleTableRecord
2
Standard
70
0
3
<>
41
0.18
42
0.0625
44
0.18
140
0.18
147
0.09
73
0
74
0
77
1
271
2
275
0
278
52
280
0
340
11
0
ENDTAB
0
TABLE
2
VIEW
5
22f
100
AcDbSymbolTable
0
ENDTAB
0
TABLE
2
UCS
5
230
100
AcDbSymbolTable
0
ENDTAB
0
TABLE
2
APPID
5
231
100
AcDbSymbolTable
0
APPID
5
12
100
AcDbSymbolTableRecord
100
AcDbRegAppTableRecord
2
ACAD
70
0
0
APPID
5
13B
100
AcDbSymbolTableRecord
100
AcDbRegAppTableRecord
2
ACAD_DSTYLE_DIMBREAK
70
0
0
APPID
5
1D5
100
AcDbSymbolTableRecord
100
AcDbRegAppTableRecord
2
ACAD_DSTYLE_DIM_LINETYPE
70
0
0
APPID
5
1D6
100
AcDbSymbolTableRecord
100
AcDbRegAppTableRecord
2
ACAD_DSTYLE_DIM_EXT1_LINETYPE
70
0
0
APPID
5
1D7
100
AcDbSymbolTableRecord
100
AcDbRegAppTableRecord
2
ACAD_DSTYLE_DIM_EXT2_LINETYPE
70
0
0
APPID
5
212
100
AcDbSymbolTableRecord
100
AcDbRegAppTableRecord
2
ACAD_MLEADERVER
70
0
0
ENDTAB
0
TABLE
2
BLOCK_RECORD
5
232
100
AcDbSymbolTable
0
BLOCK_RECORD
5
1F
100
AcDbSymbolTableRecord
100
AcDbBlockTableRecord
2
*Model_Space
340
0
70
0
0
BLOCK_RECORD
5
1B
100
AcDbSymbolTableRecord
100
AcDbBlockTableRecord
2
*Paper_Space
340
0
70
0
0
BLOCK_RECORD
5
23
100
AcDbSymbolTableRecord
100
AcDbBlockTableRecord
2
*Paper_Space0
340
0
70
0
0
BLOCK_RECORD
5
140
100
AcDbSymbolTableRecord
100
AcDbBlockTableRecord
2
*D1
340
0
70
0
0
BLOCK_RECORD
5
14C
100
AcDbSymbolTableRecord
100
AcDbBlockTableRecord
2
_U0
340
0
70
0
0
BLOCK_RECORD
5
158
100
AcDbSymbolTableRecord
100
AcDbBlockTableRecord
2
*D3
340
0
70
0
0
BLOCK_RECORD
5
164
100
AcDbSymbolTableRecord
100
AcDbBlockTableRecord
2
_U1
340
0
70
0
0
BLOCK_RECORD
5
170
100
AcDbSymbolTableRecord
100
AcDbBlockTableRecord
2
*D5
340
0
70
0
0
BLOCK_RECORD
5
17C
100
AcDbSymbolTableRecord
100
AcDbBlockTableRecord
2
_U2
340
0
70
0
0
BLOCK_RECORD
5
18A
100
AcDbSymbolTableRecord
100
AcDbBlockTableRecord
2
*D7
340
0
70
0
0
BLOCK_RECORD
5
196
100
AcDbSymbolTableRecord
100
AcDbBlockTableRecord
2
_U3
340
0
70
0
0
BLOCK_RECORD
5
1A2
100
AcDbSymbolTableRecord
100
AcDbBlockTableRecord
2
*D9
340
0
70
0
0
BLOCK_RECORD
5
1AE
100
AcDbSymbolTableRecord
100
AcDbBlockTableRecord
2
_U4
340
0
70
0
0
ENDTAB
0
ENDSEC
0
SECTION
2
BLOCKS
0
BLOCK
5
20
100
AcDbEntity
8
0
100
AcDbBlockBegin
2
*Model_Space
70
0
10
0
20
0
30
0
3
*Model_Space
0
ENDBLK
5
21
100
AcDbEntity
8
0
100
AcDbBlockEnd
0
BLOCK
5
1C
100
AcDbEntity
8
0
100
AcDbBlockBegin
2
*Paper_Space
70
0
10
0
20
0
30
0
3
*Paper_Space
0
ENDBLK
5
1D
100
AcDbEntity
8
0
100
AcDbBlockEnd
0
BLOCK
5
24
100
AcDbEntity
8
0
100
AcDbBlockBegin
2
*Paper_Space0
70
0
10
0
20
0
30
0
3
*Paper_Space0
0
ENDBLK
5
25
100
AcDbEntity
8
0
100
AcDbBlockEnd
0
BLOCK
5
141
100
AcDbEntity
8
0
100
AcDbBlockBegin
2
*D1
70
1
10
0
20
0
30
0
3
*D1
0
LINE
5
143
100
AcDbEntity
8
0
62
256
6
ByLayer
370
-2
48
1
60
0
100
AcDbLine
10
-36
20
-5.5875
30
0
11
-36
21
-59.908498
31
0
39
0
210
0
220
0
230
1
0
LINE
5
144
100
AcDbEntity
8
0
62
256
6
ByLayer
370
-2
48
1
60
0
100
AcDbLine
10
43
20
-5.5375
30
0
11
43
21
-59.908498
31
0
39
0
210
0
220
0
230
1
0
LINE
5
145
100
AcDbEntity
8
0
62
256
6
ByLayer
370
-2
48
1
60
0
100
AcDbLine
10
-32.5
20
-57.908498
30
0
11
39.5
21
-57.908498
31
0
39
0
210
0
220
0
230
1
0
SOLID
5
146
100
AcDbEntity
8
0
62
256
6
ByLayer
370
-1
48
1
60
0
100
AcDbTrace
10
-32.5
20
-57.325165
30
0
11
-32.5
21
-58.491832
31
0
12
-36
22
-57.908498
32
0
13
-36
23
-57.908498
33
0
39
0
210
0
220
0
230
1
0
SOLID
5
147
100
AcDbEntity
8
0
62
256
6
ByLayer
370
-1
48
1
60
0
100
AcDbTrace
10
39.5
20
-58.491832
30
0
11
39.5
21
-57.325165
31
0
12
43
22
-57.908498
32
0
13
43
23
-57.908498
33
0
39
0
210
0
220
0
230
1
0
MTEXT
5
148
100
AcDbEntity
8
0
62
256
6
ByLayer
370
18
48
1
60
0
100
AcDbMText
10
3.5
20
-50.908498
30
0
210
0
220
0
230
1
1
\A1;79
40
3.5
41
0
44
1
50
0
71
5
72
5
7
iso_b_vert
0
POINT
5
149
100
AcDbEntity
8
Defpoints
62
0
6
ByLayer
370
-1
48
1
60
0
100
AcDbPoint
10
-36
20
-4
30
0
39
0
210
0
220
0
230
1
50
360
0
POINT
5
14A
100
AcDbEntity
8
Defpoints
62
0
6
ByLayer
370
-1
48
1
60
0
100
AcDbPoint
10
43
20
-3.95
30
0
39
0
210
0
220
0
230
1
50
360
0
POINT
5
14B
100
AcDbEntity
8
Defpoints
62
0
6
ByLayer
370
-1
48
1
60
0
100
AcDbPoint
10
43
20
-57.908498
30
0
39
0
210
0
220
0
230
1
50
360
0
ENDBLK
5
142
100
AcDbEntity
8
0
100
AcDbBlockEnd
0
BLOCK
5
153
100
AcDbEntity
8
0
100
AcDbBlockBegin
2
_U0
70
0
10
0
20
0
30
0
3
_U0
0
MTEXT
5
14D
100
AcDbEntity
8
2
62
256
6
ByLayer
370
18
48
1
60
0
100
AcDbMText
10
1.595034
20
-56.875865
30
0
210
0
220
0
230
1
1
\W0.6927;79
40
3.5
41
0
44
1.084337
50
0
71
7
72
5
7
iso_b_vert
0
LINE
5
14E
100
AcDbEntity
8
2
62
256
6
ByLayer
370
13
48
1
60
0
100
AcDbLine
10
-36
20
-5.5875
30
0
11
-36
21
-59.908498
31
0
39
0
210
0
220
0
230
1
0
LINE
5
14F
100
AcDbEntity
8
2
62
256
6
ByLayer
370
13
48
1
60
0
100
AcDbLine
10
43
20
-5.5375
30
0
11
43
21
-59.908498
31
0
39
0
210
0
220
0
230
1
0
LINE
5
150
100
AcDbEntity
8
2
62
256
6
ByLayer
370
13
48
1
60
0
100
AcDbLine
10
-36
20
-57.908498
30
0
11
43
21
-57.908498
31
0
39
0
210
0
220
0
230
1
0
SOLID
5
151
100
AcDbEntity
8
2
62
256
6
ByLayer
370
18
48
1
60
0
100
AcDbTrace
10
-36
20
-57.908498
30
0
11
-32.500002
21
-57.447715
31
0
12
-32.499998
22
-58.369282
32
0
13
-32.499998
23
-58.369282
33
0
39
0
210
0
220
0
230
1
0
SOLID
5
152
100
AcDbEntity
8
2
62
256
6
ByLayer
370
18
48
1
60
0
100
AcDbTrace
10
43
20
-57.908498
30
0
11
39.500002
21
-58.369282
31
0
12
39.499998
22
-57.447715
32
0
13
39.499998
23
-57.447715
33
0
39
0
210
0
220
0
230
1
0
ENDBLK
5
154
100
AcDbEntity
8
0
100
AcDbBlockEnd
0
BLOCK
5
159
100
AcDbEntity
8
0
100
AcDbBlockBegin
2
*D3
70
1
10
0
20
0
30
0
3
*D3
0
LINE
5
15B
100
AcDbEntity
8
0
62
256
6
ByLayer
370
-2
48
1
60
0
100
AcDbLine
10
43
20
-5.5375
30
0
11
43
21
-39.908498
31
0
39
0
210
0
220
0
230
1
0
LINE
5
15C
100
AcDbEntity
8
0
62
256
6
ByLayer
370
-2
48
1
60
0
100
AcDbLine
10
2
20
-5.5375
30
0
11
2
21
-39.908498
31
0
39
0
210
0
220
0
230
1
0
LINE
5
15D
100
AcDbEntity
8
0
62
256
6
ByLayer
370
-2
48
1
60
0
100
AcDbLine
10
39.5
20
-37.908498
30
0
11
5.5
21
-37.908498
31
0
39
0
210
0
220
0
230
1
0
SOLID
5
15E
100
AcDbEntity
8
0
62
256
6
ByLayer
370
-1
48
1
60
0
100
AcDbTrace
10
39.5
20
-38.491832
30
0
11
39.5
21
-37.325165
31
0
12
43
22
-37.908498
32
0
13
43
23
-37.908498
33
0
39
0
210
0
220
0
230
1
0
SOLID
5
15F
100
AcDbEntity
8
0
62
256
6
ByLayer
370
-1
48
1
60
0
100
AcDbTrace
10
5.5
20
-37.325165
30
0
11
5.5
21
-38.491832
31
0
12
2
22
-37.908498
32
0
13
2
23
-37.908498
33
0
39
0
210
0
220
0
230
1
0
MTEXT
5
160
100
AcDbEntity
8
0
62
256
6
ByLayer
370
18
48
1
60
0
100
AcDbMText
10
22.5
20
-30.908498
30
0
210
0
220
0
230
1
1
\A1;41
40
3.5
41
0
44
1
50
0
71
5
72
5
7
iso_b_vert
0
POINT
5
161
100
AcDbEntity
8
Defpoints
62
0
6
ByLayer
370
-1
48
1
60
0
100
AcDbPoint
10
43
20
-3.95
30
0
39
0
210
0
220
0
230
1
50
360
0
POINT
5
162
100
AcDbEntity
8
Defpoints
62
0
6
ByLayer
370
-1
48
1
60
0
100
AcDbPoint
10
2
20
-3.95
30
0
39
0
210
0
220
0
230
1
50
360
0
POINT
5
163
100
AcDbEntity
8
Defpoints
62
0
6
ByLayer
370
-1
48
1
60
0
100
AcDbPoint
10
2
20
-37.908498
30
0
39
0
210
0
220
0
230
1
50
360
0
ENDBLK
5
15A
100
AcDbEntity
8
0
100
AcDbBlockEnd
0
BLOCK
5
16B
100
AcDbEntity
8
0
100
AcDbBlockBegin
2
_U1
70
0
10
0
20
0
30
0
3
_U1
0
MTEXT
5
165
100
AcDbEntity
8
SK2
62
256
6
ByLayer
370
18
48
1
60
0
100
AcDbMText
10
20.8482
20
-36.875865
30
0
210
0
220
0
230
1
1
\W0.7092;41
40
3.5
41
0
44
1.084337
50
0
71
7
72
5
7
iso_b_vert
0
LINE
5
166
100
AcDbEntity
8
SK2
62
256
6
ByLayer
370
13
48
1
60
0
100
AcDbLine
10
43
20
-5.5375
30
0
11
43
21
-39.908498
31
0
39
0
210
0
220
0
230
1
0
LINE
5
167
100
AcDbEntity
8
SK2
62
256
6
ByLayer
370
13
48
1
60
0
100
AcDbLine
10
2
20
-5.5375
30
0
11
2
21
-39.908498
31
0
39
0
210
0
220
0
230
1
0
LINE
5
168
100
AcDbEntity
8
SK2
62
256
6
ByLayer
370
13
48
1
60
0
100
AcDbLine
10
43
20
-37.908498
30
0
11
2
21
-37.908498
31
0
39
0
210
0
220
0
230
1
0
SOLID
5
169
100
AcDbEntity
8
SK2
62
256
6
ByLayer
370
18
48
1
60
0
100
AcDbTrace
10
43
20
-37.908498
30
0
11
39.500002
21
-38.369282
31
0
12
39.499998
22
-37.447715
32
0
13
39.499998
23
-37.447715
33
0
39
0
210
0
220
0
230
1
0
SOLID
5
16A
100
AcDbEntity
8
SK2
62
256
6
ByLayer
370
18
48
1
60
0
100
AcDbTrace
10
2
20
-37.908498
30
0
11
5.499998
21
-37.447715
31
0
12
5.500002
22
-38.369282
32
0
13
5.500002
23
-38.369282
33
0
39
0
210
0
220
0
230
1
0
ENDBLK
5
16C
100
AcDbEntity
8
0
100
AcDbBlockEnd
0
BLOCK
5
171
100
AcDbEntity
8
0
100
AcDbBlockBegin
2
*D5
70
1
10
0
20
0
30
0
3
*D5
0
LINE
5
173
100
AcDbEntity
8
0
62
256
6
ByLayer
370
-2
48
1
60
0
100
AcDbLine
10
43
20
-5.5375
30
0
11
43
21
-29.908498
31
0
39
0
210
0
220
0
230
1
0
LINE
5
174
100
AcDbEntity
8
0
62
256
6
ByLayer
370
-2
48
1
60
0
100
AcDbLine
10
14
20
-5.5375
30
0
11
14
21
-29.908498
31
0
39
0
210
0
220
0
230
1
0
LINE
5
175
100
AcDbEntity
8
0
62
256
6
ByLayer
370
-2
48
1
60
0
100
AcDbLine
10
39.5
20
-27.908498
30
0
11
17.5
21
-27.908498
31
0
39
0
210
0
220
0
230
1
0
SOLID
5
176
100
AcDbEntity
8
0
62
256
6
ByLayer
370
-1
48
1
60
0
100
AcDbTrace
10
39.5
20
-28.491832
30
0
11
39.5
21
-27.325165
31
0
12
43
22
-27.908498
32
0
13
43
23
-27.908498
33
0
39
0
210
0
220
0
230
1
0
SOLID
5
177
100
AcDbEntity
8
0
62
256
6
ByLayer
370
-1
48
1
60
0
100
AcDbTrace
10
17.5
20
-27.325165
30
0
11
17.5
21
-28.491832
31
0
12
14
22
-27.908498
32
0
13
14
23
-27.908498
33
0
39
0
210
0
220
0
230
1
0
MTEXT
5
178
100
AcDbEntity
8
0
62
256
6
ByLayer
370
18
48
1
60
0
100
AcDbMText
10
28.5
20
-20.908498
30
0
210
0
220
0
230
1
1
\A1;29
40
3.5
41
0
44
1
50
0
71
5
72
5
7
iso_b_vert
0
POINT
5
179
100
AcDbEntity
8
Defpoints
62
0
6
ByLayer
370
-1
48
1
60
0
100
AcDbPoint
10
43
20
-3.95
30
0
39
0
210
0
220
0
230
1
50
360
0
POINT
5
17A
100
AcDbEntity
8
Defpoints
62
0
6
ByLayer
370
-1
48
1
60
0
100
AcDbPoint
10
14
20
-3.95
30
0
39
0
210
0
220
0
230
1
50
360
0
POINT
5
17B
100
AcDbEntity
8
Defpoints
62
0
6
ByLayer
370
-1
48
1
60
0
100
AcDbPoint
10
14
20
-27.908498
30
0
39
0
210
0
220
0
230
1
50
360
0
ENDBLK
5
172
100
AcDbEntity
8
0
100
AcDbBlockEnd
0
BLOCK
5
185
100
AcDbEntity
8
0
100
AcDbBlockBegin
2
_U2
70
0
10
0
20
0
30
0
3
_U2
0
MTEXT
5
17D
100
AcDbEntity
8
SK2
62
256
6
ByLayer
370
18
48
1
60
0
100
AcDbMText
10
26.595034
20
-26.875865
30
0
210
0
220
0
230
1
1
\W0.6927;29
40
3.5
41
0
44
1.084337
50
0
71
7
72
5
7
iso_b_vert
0
MTEXT
5
17E
100
AcDbEntity
8
SK2
62
256
6
ByLayer
370
18
48
1
60
0
100
AcDbMText
10
22.727034
20
-26.875865
30
0
210
0
220
0
230
1
1
\W0.1790;(
40
3.5
41
0
44
1.084337
50
0
71
7
72
5
7
iso_b_vert
0
MTEXT
5
17F
100
AcDbEntity
8
SK2
62
256
6
ByLayer
370
18
48
1
60
0
100
AcDbMText
10
34.275966
20
-26.875865
30
0
210
0
220
0
230
1
1
\W0.1969;)
40
3.5
41
0
44
1.084337
50
0
71
7
72
5
7
iso_b_vert
0
LINE
5
180
100
AcDbEntity
8
SK2
62
256
6
ByLayer
370
13
48
1
60
0
100
AcDbLine
10
43
20
-5.5375
30
0
11
43
21
-29.908498
31
0
39
0
210
0
220
0
230
1
0
LINE
5
181
100
AcDbEntity
8
SK2
62
256
6
ByLayer
370
13
48
1
60
0
100
AcDbLine
10
14
20
-5.5375
30
0
11
14
21
-29.908498
31
0
39
0
210
0
220
0
230
1
0
LINE
5
182
100
AcDbEntity
8
SK2
62
256
6
ByLayer
370
13
48
1
60
0
100
AcDbLine
10
43
20
-27.908498
30
0
11
14
21
-27.908498
31
0
39
0
210
0
220
0
230
1
0
SOLID
5
183
100
AcDbEntity
8
SK2
62
256
6
ByLayer
370
18
48
1
60
0
100
AcDbTrace
10
43
20
-27.908498
30
0
11
39.500002
21
-28.369282
31
0
12
39.499998
22
-27.447715
32
0
13
39.499998
23
-27.447715
33
0
39
0
210
0
220
0
230
1
0
SOLID
5
184
100
AcDbEntity
8
SK2
62
256
6
ByLayer
370
18
48
1
60
0
100
AcDbTrace
10
14
20
-27.908498
30
0
11
17.499998
21
-27.447715
31
0
12
17.500002
22
-28.369282
32
0
13
17.500002
23
-28.369282
33
0
39
0
210
0
220
0
230
1
0
ENDBLK
5
186
100
AcDbEntity
8
0
100
AcDbBlockEnd
0
BLOCK
5
18B
100
AcDbEntity
8
0
100
AcDbBlockBegin
2
*D7
70
1
10
0
20
0
30
0
3
*D7
0
LINE
5
18D
100
AcDbEntity
8
0
62
256
6
ByLayer
370
-2
48
1
60
0
100
AcDbLine
10
-36
20
-5.5875
30
0
11
-36
21
-39.908498
31
0
39
0
210
0
220
0
230
1
0
LINE
5
18E
100
AcDbEntity
8
0
62
256
6
ByLayer
370
-2
48
1
60
0
100
AcDbLine
10
0
20
-5.5875
30
0
11
0
21
-39.908498
31
0
39
0
210
0
220
0
230
1
0
LINE
5
18F
100
AcDbEntity
8
0
62
256
6
ByLayer
370
-2
48
1
60
0
100
AcDbLine
10
-32.5
20
-37.908498
30
0
11
-3.5
21
-37.908498
31
0
39
0
210
0
220
0
230
1
0
SOLID
5
190
100
AcDbEntity
8
0
62
256
6
ByLayer
370
-1
48
1
60
0
100
AcDbTrace
10
-32.5
20
-37.325165
30
0
11
-32.5
21
-38.491832
31
0
12
-36
22
-37.908498
32
0
13
-36
23
-37.908498
33
0
39
0
210
0
220
0
230
1
0
SOLID
5
191
100
AcDbEntity
8
0
62
256
6
ByLayer
370
-1
48
1
60
0
100
AcDbTrace
10
-3.5
20
-38.491832
30
0
11
-3.5
21
-37.325165
31
0
12
0
22
-37.908498
32
0
13
0
23
-37.908498
33
0
39
0
210
0
220
0
230
1
0
MTEXT
5
192
100
AcDbEntity
8
0
62
256
6
ByLayer
370
18
48
1
60
0
100
AcDbMText
10
-18
20
-30.908498
30
0
210
0
220
0
230
1
1
\A1;36
40
3.5
41
0
44
1
50
0
71
5
72
5
7
iso_b_vert
0
POINT
5
193
100
AcDbEntity
8
Defpoints
62
0
6
ByLayer
370
-1
48
1
60
0
100
AcDbPoint
10
-36
20
-4
30
0
39
0
210
0
220
0
230
1
50
360
0
POINT
5
194
100
AcDbEntity
8
Defpoints
62
0
6
ByLayer
370
-1
48
1
60
0
100
AcDbPoint
10
0
20
-4
30
0
39
0
210
0
220
0
230
1
50
360
0
POINT
5
195
100
AcDbEntity
8
Defpoints
62
0
6
ByLayer
370
-1
48
1
60
0
100
AcDbPoint
10
0
20
-37.908498
30
0
39
0
210
0
220
0
230
1
50
360
0
ENDBLK
5
18C
100
AcDbEntity
8
0
100
AcDbBlockEnd
0
BLOCK
5
19D
100
AcDbEntity
8
0
100
AcDbBlockBegin
2
_U3
70
0
10
0
20
0
30
0
3
_U3
0
MTEXT
5
197
100
AcDbEntity
8
SK2
62
256
6
ByLayer
370
18
48
1
60
0
100
AcDbMText
10
-19.904966
20
-36.875865
30
0
210
0
220
0
230
1
1
\W0.6740;36
40
3.5
41
0
44
1.084337
50
0
71
7
72
5
7
iso_b_vert
0
LINE
5
198
100
AcDbEntity
8
SK2
62
256
6
ByLayer
370
13
48
1
60
0
100
AcDbLine
10
-36
20
-5.5875
30
0
11
-36
21
-39.908498
31
0
39
0
210
0
220
0
230
1
0
LINE
5
199
100
AcDbEntity
8
SK2
62
256
6
ByLayer
370
13
48
1
60
0
100
AcDbLine
10
0
20
-5.5875
30
0
11
0
21
-39.908498
31
0
39
0
210
0
220
0
230
1
0
LINE
5
19A
100
AcDbEntity
8
SK2
62
256
6
ByLayer
370
13
48
1
60
0
100
AcDbLine
10
-36
20
-37.908498
30
0
11
0
21
-37.908498
31
0
39
0
210
0
220
0
230
1
0
SOLID
5
19B
100
AcDbEntity
8
SK2
62
256
6
ByLayer
370
18
48
1
60
0
100
AcDbTrace
10
-36
20
-37.908498
30
0
11
-32.500002
21
-37.447715
31
0
12
-32.499998
22
-38.369282
32
0
13
-32.499998
23
-38.369282
33
0
39
0
210
0
220
0
230
1
0
SOLID
5
19C
100
AcDbEntity
8
SK2
62
256
6
ByLayer
370
18
48
1
60
0
100
AcDbTrace
10
0
20
-37.908498
30
0
11
-3.499998
21
-38.369282
31
0
12
-3.500002
22
-37.447715
32
0
13
-3.500002
23
-37.447715
33
0
39
0
210
0
220
0
230
1
0
ENDBLK
5
19E
100
AcDbEntity
8
0
100
AcDbBlockEnd
0
BLOCK
5
1A3
100
AcDbEntity
8
0
100
AcDbBlockBegin
2
*D9
70
1
10
0
20
0
30
0
3
*D9
0
LINE
5
1A5
100
AcDbEntity
8
0
62
256
6
ByLayer
370
-2
48
1
60
0
100
AcDbLine
10
0
20
-5.5875
30
0
11
0
21
-49.908498
31
0
39
0
210
0
220
0
230
1
0
LINE
5
1A6
100
AcDbEntity
8
0
62
256
6
ByLayer
370
-2
48
1
60
0
100
AcDbLine
10
43
20
-5.5375
30
0
11
43
21
-49.908498
31
0
39
0
210
0
220
0
230
1
0
LINE
5
1A7
100
AcDbEntity
8
0
62
256
6
ByLayer
370
-2
48
1
60
0
100
AcDbLine
10
3.5
20
-47.908498
30
0
11
39.5
21
-47.908498
31
0
39
0
210
0
220
0
230
1
0
SOLID
5
1A8
100
AcDbEntity
8
0
62
256
6
ByLayer
370
-1
48
1
60
0
100
AcDbTrace
10
3.5
20
-47.325165
30
0
11
3.5
21
-48.491832
31
0
12
0
22
-47.908498
32
0
13
0
23
-47.908498
33
0
39
0
210
0
220
0
230
1
0
SOLID
5
1A9
100
AcDbEntity
8
0
62
256
6
ByLayer
370
-1
48
1
60
0
100
AcDbTrace
10
39.5
20
-48.491832
30
0
11
39.5
21
-47.325165
31
0
12
43
22
-47.908498
32
0
13
43
23
-47.908498
33
0
39
0
210
0
220
0
230
1
0
MTEXT
5
1AA
100
AcDbEntity
8
0
62
256
6
ByLayer
370
18
48
1
60
0
100
AcDbMText
10
21.5
20
-40.908498
30
0
210
0
220
0
230
1
1
\A1;43
40
3.5
41
0
44
1
50
0
71
5
72
5
7
iso_b_vert
0
POINT
5
1AB
100
AcDbEntity
8
Defpoints
62
0
6
ByLayer
370
-1
48
1
60
0
100
AcDbPoint
10
0
20
-4
30
0
39
0
210
0
220
0
230
1
50
360
0
POINT
5
1AC
100
AcDbEntity
8
Defpoints
62
0
6
ByLayer
370
-1
48
1
60
0
100
AcDbPoint
10
43
20
-3.95
30
0
39
0
210
0
220
0
230
1
50
360
0
POINT
5
1AD
100
AcDbEntity
8
Defpoints
62
0
6
ByLayer
370
-1
48
1
60
0
100
AcDbPoint
10
43
20
-47.908498
30
0
39
0
210
0
220
0
230
1
50
360
0
ENDBLK
5
1A4
100
AcDbEntity
8
0
100
AcDbBlockEnd
0
BLOCK
5
1B5
100
AcDbEntity
8
0
100
AcDbBlockBegin
2
_U4
70
0
10
0
20
0
30
0
3
_U4
0
MTEXT
5
1AF
100
AcDbEntity
8
SK2
62
256
6
ByLayer
370
18
48
1
60
0
100
AcDbMText
10
19.410767
20
-46.875865
30
0
210
0
220
0
230
1
1
\W0.7361;43
40
3.5
41
0
44
1.084337
50
0
71
7
72
5
7
iso_b_vert
0
LINE
5
1B0
100
AcDbEntity
8
SK2
62
256
6
ByLayer
370
13
48
1
60
0
100
AcDbLine
10
0
20
-5.5875
30
0
11
0
21
-49.908498
31
0
39
0
210
0
220
0
230
1
0
LINE
5
1B1
100
AcDbEntity
8
SK2
62
256
6
ByLayer
370
13
48
1
60
0
100
AcDbLine
10
43
20
-5.5375
30
0
11
43
21
-49.908498
31
0
39
0
210
0
220
0
230
1
0
LINE
5
1B2
100
AcDbEntity
8
SK2
62
256
6
ByLayer
370
13
48
1
60
0
100
AcDbLine
10
0
20
-47.908498
30
0
11
43
21
-47.908498
31
0
39
0
210
0
220
0
230
1
0
SOLID
5
1B3
100
AcDbEntity
8
SK2
62
256
6
ByLayer
370
18
48
1
60
0
100
AcDbTrace
10
0
20
-47.908498
30
0
11
3.499998
21
-47.447715
31
0
12
3.500002
22
-48.369282
32
0
13
3.500002
23
-48.369282
33
0
39
0
210
0
220
0
230
1
0
SOLID
5
1B4
100
AcDbEntity
8
SK2
62
256
6
ByLayer
370
18
48
1
60
0
100
AcDbTrace
10
43
20
-47.908498
30
0
11
39.500002
21
-48.369282
31
0
12
39.499998
22
-47.447715
32
0
13
39.499998
23
-47.447715
33
0
39
0
210
0
220
0
230
1
0
ENDBLK
5
1B6
100
AcDbEntity
8
0
100
AcDbBlockEnd
0
ENDSEC
0
SECTION
2
ENTITIES
0
ARC
5
BD
100
AcDbEntity
8
1
62
256
6
ByLayer
370
18
48
1
60
0
100
AcDbCircle
39
0
10
0.234551
20
4.124169
30
0
40
0.199999999999997
210
0
220
0
230
1
100
AcDbArc
50
235.544609
51
270.03581
0
ARC
5
BE
100
AcDbEntity
8
1
62
256
6
ByLayer
370
18
48
1
60
0
100
AcDbCircle
39
0
10
0.234551
20
-4.124169
30
0
40
0.199999999999997
210
0
220
0
230
1
100
AcDbArc
50
89.96419
51
124.455391
0
ARC
5
BF
100
AcDbEntity
8
1
62
256
6
ByLayer
370
18
48
1
60
0
100
AcDbCircle
39
0
10
0
20
3.8
30
0
40
0.200000000000004
210
0
220
0
230
1
100
AcDbArc
50
55.544609
51
90
0
ARC
5
C0
100
AcDbEntity
8
1
62
256
6
ByLayer
370
18
48
1
60
0
100
AcDbCircle
39
0
10
0
20
-3.8
30
0
40
0.200000000000004
210
0
220
0
230
1
100
AcDbArc
50
270
51
304.455391
0
ARC
5
C1
100
AcDbEntity
8
SK2
62
256
6
ByLayer
370
13
48
1
60
0
100
AcDbCircle
39
0
10
43
20
0
30
0
40
32.0897625039462
210
0
220
0
230
1
100
AcDbArc
50
5.812792
51
69.995932
0
ARC
5
C2
100
AcDbEntity
8
SK2
62
256
6
ByLayer
370
13
48
1
60
0
100
AcDbCircle
39
0
10
43
20
0
30
0
40
32.0897625039462
210
0
220
0
230
1
100
AcDbArc
50
290.004068
51
354.187208
0
ELLIPSE
5
C3
100
AcDbEntity
8
1
62
256
6
ByLayer
370
13
48
1
60
0
100
AcDbEllipse
10
8.224699
20
-57.577237
30
0
11
-53.4308896166415
21
52.5974543491389
31
0
210
0
220
0
230
1
40
0.654855
41
-0.98137612657469
42
-0.944745877008614
0
ELLIPSE
5
C4
100
AcDbEntity
8
1
62
256
6
ByLayer
370
13
48
1
60
0
100
AcDbEllipse
10
8.193207
20
-57.609228
30
0
11
-53.4346603419539
21
52.6011662572487
31
0
210
0
220
0
230
1
40
0.654855
41
-0.988071347966017
42
-0.943481720163081
0
ELLIPSE
5
C5
100
AcDbEntity
8
1
62
256
6
ByLayer
370
13
48
1
60
0
100
AcDbEllipse
10
8.22204
20
-57.579938
30
0
11
-53.4333824773023
21
52.5999083252143
31
0
210
0
220
0
230
1
40
0.654855
41
-0.982104423767041
42
-0.944620684471089
0
ELLIPSE
5
C6
100
AcDbEntity
8
1
62
256
6
ByLayer
370
13
48
1
60
0
100
AcDbEllipse
10
8.19071
20
-57.611765
30
0
11
-53.4323663356613
21
52.5989080337357
31
0
210
0
220
0
230
1
40
0.654855
41
-0.988783083869026
42
-0.943403533035735
0
ELLIPSE
5
C7
100
AcDbEntity
8
1
62
256
6
ByLayer
370
18
48
1
60
0
100
AcDbEllipse
10
3.75
20
3.97931
30
0
11
-0.25
21
3.06151588455594E-17
31
0
210
0
220
0
230
1
40
1
41
0.251700056627416
42
1.58138354819537
0
ELLIPSE
5
C8
100
AcDbEntity
8
1
62
256
6
ByLayer
370
18
48
1
60
0
100
AcDbEllipse
10
3.75
20
-3.97931
30
0
11
-0.25
21
3.06151588455594E-17
31
0
210
0
220
0
230
1
40
1
41
-1.56424162803685
42
-0.252044026839905
0
POINT
5
70
100
AcDbEntity
8
81
62
256
6
ByLayer
370
18
48
1
60
0
100
AcDbPoint
10
43
20
0
30
0
39
0
210
0
220
0
230
1
50
360
0
POINT
5
72
100
AcDbEntity
8
80
62
256
6
ByLayer
370
18
48
1
60
0
100
AcDbPoint
10
0
20
0
30
0
39
0
210
0
220
0
230
1
50
360
0
POINT
5
74
100
AcDbEntity
8
1
62
256
6
ByLayer
370
18
48
1
60
0
100
AcDbPoint
10
-215.130119
20
-176.507586
30
0
39
0
210
0
220
0
230
1
50
360
0
POINT
5
76
100
AcDbEntity
8
1
62
256
6
ByLayer
370
13
48
1
60
1
100
AcDbPoint
10
-37.5
20
0
30
0
39
0
210
0
220
0
230
1
50
360
0
POINT
5
77
100
AcDbEntity
8
1
62
256
6
ByLayer
370
13
48
1
60
1
100
AcDbPoint
10
43.107619
20
0
30
0
39
0
210
0
220
0
230
1
50
360
0
POINT
5
78
100
AcDbEntity
8
1
62
256
6
ByLayer
370
18
48
1
60
1
100
AcDbPoint
10
-36
20
-4
30
0
39
0
210
0
220
0
230
1
50
360
0
POINT
5
79
100
AcDbEntity
8
1
62
256
6
ByLayer
370
18
48
1
60
1
100
AcDbPoint
10
43
20
-3.95
30
0
39
0
210
0
220
0
230
1
50
360
0
POINT
5
7A
100
AcDbEntity
8
1
62
256
6
ByLayer
370
18
48
1
60
1
100
AcDbPoint
10
43
20
-3.95
30
0
39
0
210
0
220
0
230
1
50
360
0
POINT
5
7B
100
AcDbEntity
8
1
62
256
6
ByLayer
370
18
48
1
60
1
100
AcDbPoint
10
2
20
-3.95
30
0
39
0
210
0
220
0
230
1
50
360
0
POINT
5
7C
100
AcDbEntity
8
1
62
256
6
ByLayer
370
18
48
1
60
1
100
AcDbPoint
10
43
20
-3.95
30
0
39
0
210
0
220
0
230
1
50
360
0
POINT
5
7D
100
AcDbEntity
8
1
62
256
6
ByLayer
370
18
48
1
60
1
100
AcDbPoint
10
14
20
-3.95
30
0
39
0
210
0
220
0
230
1
50
360
0
POINT
5
7E
100
AcDbEntity
8
1
62
256
6
ByLayer
370
18
48
1
60
1
100
AcDbPoint
10
-36
20
-4
30
0
39
0
210
0
220
0
230
1
50
360
0
POINT
5
7F
100
AcDbEntity
8
1
62
256
6
ByLayer
370
18
48
1
60
1
100
AcDbPoint
10
0
20
-4
30
0
39
0
210
0
220
0
230
1
50
360
0
POINT
5
80
100
AcDbEntity
8
1
62
256
6
ByLayer
370
18
48
1
60
1
100
AcDbPoint
10
0
20
-4
30
0
39
0
210
0
220
0
230
1
50
360
0
POINT
5
81
100
AcDbEntity
8
1
62
256
6
ByLayer
370
18
48
1
60
1
100
AcDbPoint
10
43
20
-3.95
30
0
39
0
210
0
220
0
230
1
50
360
0
SPLINE
5
C9
100
AcDbEntity
8
1
62
256
6
ByLayer
370
18
48
1
60
0
100
AcDbSpline
70
4
71
3
72
8
73
4
40
0
40
0
40
0
40
0
40
1
40
1
40
1
40
1
41
1
10
42.6333670927647
20
1.27475072738861
30
0
41
1
10
42.757868359879
20
0.923785753905577
30
0
41
1
10
42.8788835915966
20
0.57156779283082
30
0
41
1
10
42.9963574443352
20
0.218076951990497
30
0
0
SPLINE
5
CA
100
AcDbEntity
8
1
62
256
6
ByLayer
370
18
48
1
60
0
100
AcDbSpline
70
4
71
3
72
24
73
20
40
0
40
0
40
0
40
0
40
0.500000000000049
40
0.500000000000049
40
0.750000000000073
40
0.750000000000073
40
0.875000000000058
40
0.875000000000058
40
0.937500000000027
40
0.937500000000027
40
0.968750000000014
40
0.968750000000014
40
0.984375000000007
40
0.984375000000007
40
0.992187500000003
40
0.992187500000003
40
0.996093750000002
40
0.996093750000002
40
1
40
1
40
1
40
1
41
1
10
41.5640221758691
20
3.9499487201129
30
0
41
1
10
41.5784521197951
20
3.91715713780292
30
0
41
1
10
41.5931676478426
20
3.88436492788031
30
0
41
1
10
41.6156657545972
20
3.83516457724952
30
0
41
1
10
41.6232379024416
20
3.81875486446992
30
0
41
1
10
41.6346942517987
20
3.79416481878729
30
0
41
1
10
41.6385249777499
20
3.78598981501969
30
0
41
1
10
41.6443065723792
20
3.77368950374449
30
0
41
1
10
41.6462404161656
20
3.76958020639992
30
0
41
1
10
41.6491548659129
20
3.76338711154233
30
0
41
1
10
41.6501309503603
20
3.76130856069017
30
0
41
1
10
41.6515854923964
20
3.75823570247627
30
0
41
1
10
41.6520616473579
20
3.75724683309755
30
0
41
1
10
41.652781639683
20
3.75574246944961
30
0
41
1
10
41.653033916232
20
3.75519088569732
30
0
41
1
10
41.6534110736298
20
3.75436868001498
30
0
41
1
10
41.6535462731214
20
3.75407513218622
30
0
41
1
10
41.6536972888198
20
3.75386562594903
30
0
41
1
10
41.6536788137047
20
3.75401511845845
30
0
41
1
10
41.6536387856407
20
3.75420098014106
30
0
0
SPLINE
5
CB
100
AcDbEntity
8
1
62
256
6
ByLayer
370
18
48
1
60
0
100
AcDbSpline
70
4
71
3
72
23
73
19
40
0
40
0
40
0
40
0
40
0.171784648511573
40
0.171784648511573
40
0.240802594468942
40
0.240802594468942
40
0.309820540426311
40
0.309820540426311
40
0.447856432341049
40
0.585892324255787
40
0.585892324255787
40
0.723928216170525
40
0.723928216170525
40
0.861964108085263
40
0.861964108085263
40
0.930982054042632
40
0.930982054042632
40
1
40
1
40
1
40
1
41
1
10
41.4384398178131
20
0.849806130970393
30
0
41
1
10
41.4595798738377
20
0.86625447820532
30
0
41
1
10
41.4827709981217
20
0.883369781271256
30
0
41
1
10
41.5183622147184
20
0.907970641985884
30
0
41
1
10
41.5289617695465
20
0.915119751790087
30
0
41
1
10
41.5506499054599
20
0.929356926108994
30
0
41
1
10
41.5617473440441
20
0.936452583094223
30
0
41
1
10
41.5958106817198
20
0.957610891529754
30
0
41
1
10
41.6432774433051
20
0.985485077316042
30
0
41
1
10
41.6952059852685
20
1.01178787210654
30
0
41
1
10
41.7496383612745
20
1.03677545369962
30
0
41
1
10
41.7774806958519
20
1.04833149137764
30
0
41
1
10
41.8343839570662
20
1.06938901102231
30
0
41
1
10
41.8634517108337
20
1.07888460052337
30
0
41
1
10
41.9080425533669
20
1.09126532466465
30
0
41
1
10
41.9230707431925
20
1.09508284279227
30
0
41
1
10
41.9534628646879
20
1.10206200217141
30
0
41
1
10
41.9688089156228
20
1.1052182300202
30
0
41
1
10
41.9842018520088
20
1.1080142201088
30
0
0
SPLINE
5
CC
100
AcDbEntity
8
1
62
256
6
ByLayer
370
18
48
1
60
0
100
AcDbSpline
70
4
71
3
72
12
73
8
40
0
40
0
40
0
40
0
40
0.25
40
0.25
40
0.5
40
0.5
40
1
40
1
40
1
40
1
41
1
10
41.984201852009
20
1.108014220108
30
0
41
1
10
42.0392330805682
20
1.11801015368138
30
0
41
1
10
42.0941445234303
20
1.12872914918799
30
0
41
1
10
42.2036887317115
20
1.15184931975901
30
0
41
1
10
42.2582494537208
20
1.1642199037565
30
0
41
1
10
42.4209847153825
20
1.20460174457898
30
0
41
1
10
42.5282548319046
20
1.23584986009257
30
0
41
1
10
42.6333670927647
20
1.27475072738861
30
0
0
SPLINE
5
CD
100
AcDbEntity
8
1
62
256
6
ByLayer
370
18
48
1
60
0
100
AcDbSpline
70
4
71
3
72
14
73
10
40
0
40
0
40
0
40
0
40
0.499999999999989
40
0.499999999999989
40
0.749999999999995
40
0.749999999999995
40
0.874999999999997
40
0.874999999999997
40
1
40
1
40
1
40
1
41
1
10
42.2986194348811
20
1.9809428150769
30
0
41
1
10
42.3488073941306
20
1.85462398434331
30
0
41
1
10
42.4012432465636
20
1.73248637824955
30
0
41
1
10
42.4845392789858
20
1.55579148569228
30
0
41
1
10
42.5130750391426
20
1.49797880796322
30
0
41
1
10
42.5571883752319
20
1.41295572420074
30
0
41
1
10
42.5721120404052
20
1.38489923908526
30
0
41
1
10
42.6024166355896
20
1.32935715229343
30
0
41
1
10
42.6178220898163
20
1.30182932776944
30
0
41
1
10
42.6333670927646
20
1.27475072738861
30
0
0
SPLINE
5
CE
100
AcDbEntity
8
1
62
256
6
ByLayer
370
13
48
1
60
0
100
AcDbSpline
70
4
71
3
72
46
73
42
40
0
40
0
40
0
40
0
40
0.0020411662978224
40
0.0189791129325826
40
0.0359170595673428
40
0.069792952836863
40
0.103668846106383
40
0.137544739375903
40
0.154482686010664
40
0.171420632645424
40
0.205296525914944
40
0.239172419184464
40
0.273048312453984
40
0.289986259088745
40
0.306924205723505
40
0.340800098993024
40
0.374675992262545
40
0.408551885532066
40
0.425489832166826
40
0.442427778801586
40
0.476303672071106
40
0.510179565340626
40
0.544055458610146
40
0.560993405244907
40
0.577931351879667
40
0.611807245149187
40
0.645683138418707
40
0.679559031688227
40
0.696496978322988
40
0.713434924957748
40
0.747310818227268
40
0.781186711496787
40
0.815062604766308
40
0.832000551401068
40
0.848938498035828
40
0.882814391305349
40
0.916690284574869
40
0.950566177844389
40
0.96750412447915
40
0.984442071113909
40
1
40
1
40
1
40
1
41
1
10
33.7970208264488
20
-1.7770644349489
30
0
41
1
10
33.7889661965244
20
-1.77720633108231
30
0
41
1
10
33.7140734767807
20
-1.77849783442548
30
0
41
1
10
33.5723580215019
20
-1.78044727743929
30
0
41
1
10
33.305918760479
20
-1.78026138415584
30
0
41
1
10
32.9728279479702
20
-1.77561686007064
30
0
41
1
10
32.5723815137621
20
-1.76538255957035
30
0
41
1
10
32.2381354582436
20
-1.75363566041167
30
0
41
1
10
31.9708107199009
20
-1.74174058620946
30
0
41
1
10
31.7043670714881
20
-1.72558303408042
30
0
41
1
10
31.3712667638477
20
-1.70114735050768
30
0
41
1
10
30.9708083144204
20
-1.66763188415473
30
0
41
1
10
30.6365565549698
20
-1.6370254629872
30
0
41
1
10
30.3692330215043
20
-1.61019348796833
30
0
41
1
10
30.10279376048
20
-1.578935406954
30
0
41
1
10
29.7697029479685
20
-1.53603377085477
30
0
41
1
10
29.3692565137555
20
-1.48105049300597
30
0
41
1
10
29.0350104582326
20
-1.43322883467016
30
0
41
1
10
28.7676857198887
20
-1.39289080881952
30
0
41
1
10
28.5012420714772
20
-1.34819359855703
30
0
41
1
10
28.1681417638404
20
-1.2891014474537
30
0
41
1
10
27.7676833144183
20
-1.21556770357861
30
0
41
1
10
27.4334315549684
20
-1.15307087472863
30
0
41
1
10
27.1661080215019
20
-1.10137145272299
30
0
41
1
10
26.8996687604787
20
-1.04561368206106
30
0
41
1
10
26.5665779479685
20
-0.973475670748456
30
0
41
1
10
26.1661315137578
20
-0.885304505613476
30
0
41
1
10
25.8318854582385
20
-0.811463336184062
30
0
41
1
10
25.5645607198962
20
-0.751164056543132
30
0
41
1
10
25.2981170714836
20
-0.687325472386306
30
0
41
1
10
24.9650167638439
20
-0.60600189838479
30
0
41
1
10
24.564558314417
20
-0.507911491314047
30
0
41
1
10
24.2303065549644
20
-0.426665185921223
30
0
41
1
10
23.9629830214973
20
-0.360968925196374
30
0
41
1
10
23.696543760474
20
-0.292435404126906
30
0
41
1
10
23.3634529479646
20
-0.206229157412565
30
0
41
1
10
22.9630065137556
20
-0.103409464963988
30
0
41
1
10
22.6287604582366
20
-0.019075039751101
30
0
41
1
10
22.3614357198945
20
0.0485066314942344
30
0
41
1
10
22.1670301020131
20
0.0992575225663188
30
0
41
1
10
22.0392241707657
20
0.132498784555651
30
0
41
1
10
21.9780216952092
20
0.148370814115538
30
0
0
SPLINE
5
CF
100
AcDbEntity
8
1
62
256
6
ByLayer
370
13
48
1
60
0
100
AcDbSpline
70
4
71
3
72
47
73
43
40
0
40
0
40
0
40
0
40
0.022657750410082
40
0.0548328244847969
40
0.0709203615221545
40
0.0870078985595121
40
0.119182972634227
40
0.151358046708942
40
0.183533120783658
40
0.199620657821016
40
0.215708194858373
40
0.247883268933089
40
0.280058343007804
40
0.312233417082519
40
0.328320954119877
40
0.344408491157234
40
0.376583565231949
40
0.408758639306665
40
0.44093371338138
40
0.457021250418738
40
0.473108787456095
40
0.505283861530811
40
0.537458935605526
40
0.569634009680241
40
0.585721546717599
40
0.601809083754957
40
0.633984157829672
40
0.666159231904387
40
0.698334305979102
40
0.714421843016461
40
0.730509380053817
40
0.762684454128533
40
0.794859528203247
40
0.827034602277963
40
0.843122139315321
40
0.859209676352679
40
0.891384750427394
40
0.923559824502109
40
0.955734898576824
40
0.971822435614182
40
0.98790997265154
40
1
40
1
40
1
40
1
41
1
10
29.5818169800332
20
0.455381203078616
30
0
41
1
10
29.4878270533905
20
0.481559661778647
30
0
41
1
10
29.26034244082
20
0.544615057245295
30
0
41
1
10
28.9660804316439
20
0.625191195116145
30
0
41
1
10
28.6991409662811
20
0.697062029042485
30
0
41
1
10
28.4322921417785
20
0.768017802575343
30
0
41
1
10
28.0987138105991
20
0.855483834804829
30
0
41
1
10
27.6982692749892
20
0.957571129862174
30
0
41
1
10
27.3645188254862
20
1.03987154230208
30
0
41
1
10
27.0975796466056
20
1.10371382425077
30
0
41
1
10
26.830730713657
20
1.16642431040236
30
0
41
1
10
26.4971519354411
20
1.24281931258341
30
0
41
1
10
26.0967066188594
20
1.33036054075092
30
0
41
1
10
25.7629554316421
20
1.39920412834098
30
0
41
1
10
25.4960159662875
20
1.45161326062828
30
0
41
1
10
25.2291671417892
20
1.50272533968905
30
0
41
1
10
24.8955888106141
20
1.56395025708943
30
0
41
1
10
24.495144275006
20
1.63224279094371
30
0
41
1
10
24.161393825501
20
1.68394114954745
30
0
41
1
10
23.8944546466181
20
1.72212492701982
30
0
41
1
10
23.6276057136681
20
1.75892550895219
30
0
41
1
10
23.2940269354499
20
1.80174575785063
30
0
41
1
10
22.8935816188648
20
1.84719011480388
30
0
41
1
10
22.5598304316413
20
1.87901261305294
30
0
41
1
10
22.2928909662815
20
1.90094020782982
30
0
41
1
10
22.0260421417805
20
1.92146148217375
30
0
41
1
10
21.692463810603
20
1.9435717928088
30
0
41
1
10
21.2920192749944
20
1.96370999713588
30
0
41
1
10
20.9582688254925
20
1.97393591723943
30
0
41
1
10
20.6913296466123
20
1.97843245663455
30
0
41
1
10
20.4244807136629
20
1.98158523914242
30
0
41
1
10
20.0909019354452
20
1.98182711087199
30
0
41
1
10
19.6904566188601
20
1.97561921315582
30
0
41
1
10
19.3567054316374
20
1.9637294464377
30
0
41
1
10
19.0897659662789
20
1.95056488555903
30
0
41
1
10
18.8229171417791
20
1.93618043780646
30
0
41
1
10
18.4893388106034
20
1.91452710468474
30
0
41
1
10
18.0888942749967
20
1.88227660854849
30
0
41
1
10
17.7551438254949
20
1.84887993127063
30
0
41
1
10
17.4882046466144
20
1.81874376518439
30
0
41
1
10
17.3046449281035
20
1.79731088048399
30
0
41
1
10
17.1877938408252
20
1.78296394280534
30
0
41
1
10
17.137655296051
20
1.77667699838159
30
0
0
SPLINE
5
D0
100
AcDbEntity
8
1
62
256
6
ByLayer
370
13
48
1
60
0
100
AcDbSpline
70
4
71
3
72
19
73
15
40
0
40
0
40
0
40
0
40
0.0548010493664769
40
0.172599182897908
40
0.231498249663624
40
0.29039731642934
40
0.408195449960771
40
0.525993583492202
40
0.643791717023633
40
0.702690783789349
40
0.761589850555065
40
0.879387984086496
40
0.997186117617927
40
1
40
1
40
1
40
1
41
1
10
42.2986194348811
20
1.9809428150769
30
0
41
1
10
42.236523462038
20
1.98163242362907
30
0
41
1
10
42.0409371035042
20
1.98297317633569
30
0
41
1
10
41.7785804316401
20
1.98091700447375
30
0
41
1
10
41.5116409662904
20
1.97513206578668
30
0
41
1
10
41.2447921417946
20
1.96806466566093
30
0
41
1
10
40.9112138106218
20
1.95551964441268
30
0
41
1
10
40.5107692750138
20
1.93405787041246
30
0
41
1
10
40.1770188255057
20
1.90952612039123
30
0
41
1
10
39.9100796466191
20
1.88636234457835
30
0
41
1
10
39.6432307136659
20
1.86208838451699
30
0
41
1
10
39.3096519354435
20
1.82818740792143
30
0
41
1
10
39.0394998684838
20
1.79671615541591
30
0
41
1
10
38.9028197702803
20
1.7794859228386
30
0
41
1
10
38.8996310140696
20
1.77908323099209
30
0
0
SPLINE
5
D1
100
AcDbEntity
8
1
62
256
6
ByLayer
370
18
48
1
60
0
100
AcDbSpline
70
4
71
3
72
8
73
4
40
0
40
0
40
0
40
0
40
1
40
1
40
1
40
1
41
1
10
42.2262518468335
20
2.16983337732353
30
0
41
1
10
42.2496733387296
20
2.10651183195239
30
0
41
1
10
42.2737791922676
20
2.04346359593657
30
0
41
1
10
42.2986194348811
20
1.98094281507693
30
0
0
SPLINE
5
D2
100
AcDbEntity
8
1
62
256
6
ByLayer
370
18
48
1
60
0
100
AcDbSpline
70
4
71
3
72
14
73
10
40
0
40
0
40
0
40
0
40
0.179308329713176
40
0.179308329713176
40
0.358616659426351
40
0.358616659426351
40
0.717233318852702
40
0.717233318852702
40
1
40
1
40
1
40
1
41
1
10
41.8422858193682
20
0.703335260945892
30
0
41
1
10
41.8324116643079
20
0.708265346620294
30
0
41
1
10
41.8226010093744
20
0.713088629334663
30
0
41
1
10
41.8030107637392
20
0.722682946805861
30
0
41
1
10
41.7932490223065
20
0.727423960287865
30
0
41
1
10
41.7642951239459
20
0.741089732698953
30
0
41
1
10
41.7454225041307
20
0.749477051606533
30
0
41
1
10
41.7126626048924
20
0.762806464269772
30
0
41
1
10
41.6985317456538
20
0.768108446889869
30
0
41
1
10
41.6849913520044
20
0.772609662476981
30
0
0
SPLINE
5
D3
100
AcDbEntity
8
1
62
256
6
ByLayer
370
13
48
1
60
0
100
AcDbSpline
70
4
71
3
72
47
73
43
40
0
40
0
40
0
40
0
40
0.0059130840752174
40
0.0224374376947313
40
0.0389617913142452
40
0.0720104985532728
40
0.1050592057923
40
0.138107913031328
40
0.154632266650842
40
0.171156620270356
40
0.204205327509384
40
0.237254034748412
40
0.270302741987439
40
0.286827095606953
40
0.303351449226467
40
0.336400156465494
40
0.369448863704522
40
0.40249757094355
40
0.419021924563064
40
0.435546278182578
40
0.468594985421605
40
0.501643692660633
40
0.534692399899661
40
0.551216753519175
40
0.567741107138689
40
0.600789814377717
40
0.633838521616744
40
0.666887228855772
40
0.683411582475286
40
0.6999359360948
40
0.732984643333827
40
0.766033350572854
40
0.799082057811883
40
0.815606411431397
40
0.832130765050911
40
0.865179472289938
40
0.898228179528966
40
0.931276886767994
40
0.947801240387508
40
0.964325594007021
40
0.997374301246049
40
1
40
1
40
1
40
1
41
1
10
34.1337804880208
20
-1.93187486327543
30
0
41
1
10
34.1098604008721
20
-1.93270372037966
30
0
41
1
10
34.0190948107044
20
-1.93574070076167
30
0
41
1
10
33.8615046294871
20
-1.94028237543611
30
0
41
1
10
33.5950896449875
20
-1.94382355702231
30
0
41
1
10
33.2620277977104
20
-1.94347978776673
30
0
41
1
10
32.8615815382644
20
-1.93792126535854
30
0
41
1
10
32.5273060887736
20
-1.92968536461981
30
0
41
1
10
32.2599581657911
20
-1.92031377812154
30
0
41
1
10
31.9935385379552
20
-1.90634723245802
30
0
41
1
10
31.6604666538941
20
-1.884263983132
30
0
41
1
10
31.2600077068185
20
-1.85305083758669
30
0
41
1
10
30.9257262574068
20
-1.82393854633042
30
0
41
1
10
30.6583796294892
20
-1.7979915074572
30
0
41
1
10
30.3919646449879
20
-1.76727145899676
30
0
41
1
10
30.0589027977077
20
-1.72464809343091
30
0
41
1
10
29.6584565382565
20
-1.66947011956742
30
0
41
1
10
29.3241810887611
20
-1.62104556993225
30
0
41
1
10
29.0568331657774
20
-1.57990685775877
30
0
41
1
10
28.790413537943
20
-1.53406646509637
30
0
41
1
10
28.4573416538859
20
-1.47316478911898
30
0
41
1
10
28.056882706816
20
-1.39695156598037
30
0
41
1
10
27.7226012574053
20
-1.33178804941673
30
0
41
1
10
27.4552546294871
20
-1.27764493676997
30
0
41
1
10
27.1888396449871
20
-1.21912302662554
30
0
41
1
10
26.8557777977084
20
-1.14318229083796
30
0
41
1
10
26.4553315382596
20
-1.04998689344865
30
0
41
1
10
26.1210560887678
20
-0.97155571028091
30
0
41
1
10
25.8537081657858
20
-0.907299927053543
30
0
41
1
10
25.5872885379501
20
-0.839224343526496
30
0
41
1
10
25.2542166538898
20
-0.752309766303483
30
0
41
1
10
24.8537577068148
20
-0.647121482124163
30
0
41
1
10
24.5194762574013
20
-0.55960838399622
30
0
41
1
10
24.2521296294824
20
-0.488653629840655
30
0
41
1
10
23.9857146449821
20
-0.414635000606296
30
0
41
1
10
23.6526527977042
20
-0.321344616424227
30
0
41
1
10
23.2522065382571
20
-0.209727578522319
30
0
41
1
10
22.9179310887656
20
-0.117781138970457
30
0
41
1
10
22.6505831657838
20
-0.043919063342571
30
0
41
1
10
22.3841635380627
20
0.0320777602524061
30
0
41
1
10
22.1737354683269
20
0.0918771898704449
30
0
41
1
10
22.029771718509
20
0.132447677939297
30
0
41
1
10
22.0191749293714
20
0.135432056911014
30
0
0
SPLINE
5
D4
100
AcDbEntity
8
1
62
256
6
ByLayer
370
18
48
1
60
0
100
AcDbSpline
70
4
71
3
72
20
73
16
40
0
40
0
40
0
40
0
40
0.0106699139384948
40
0.120194578998503
40
0.229719244058512
40
0.284481576588517
40
0.339243909118521
40
0.448768574178529
40
0.558293239238538
40
0.667817904298547
40
0.722580236828551
40
0.777342569358555
40
0.886867234418564
40
0.996391899478573
40
1
40
1
40
1
40
1
41
1
10
42.2262518468336
20
2.16983337732353
30
0
41
1
10
42.2132502061706
20
2.16996512652361
30
0
41
1
10
42.0667873342005
20
2.17132500728474
30
0
41
1
10
41.7868208061734
20
2.17122831734417
30
0
41
1
10
41.4531033009266
20
2.1639589290227
30
0
41
1
10
41.1861893288685
20
2.15412542448823
30
0
41
1
10
40.9193129287082
20
2.14269568597203
30
0
41
1
10
40.585701848706
20
2.12435852637554
30
0
41
1
10
40.1852577599138
20
2.09548278753979
30
0
41
1
10
39.8515406598613
20
2.06436361417212
30
0
41
1
10
39.5846270729107
20
2.03564690123488
30
0
41
1
10
39.3177508500855
20
2.00556714982102
30
0
41
1
10
38.9841399266049
20
1.9641424619993
30
0
41
1
10
38.7127798668372
20
1.92616213769898
30
0
41
1
10
38.5748981777522
20
1.90546029651841
30
0
41
1
10
38.5705007669319
20
1.90479863869237
30
0
0
SPLINE
5
D5
100
AcDbEntity
8
1
62
256
6
ByLayer
370
18
48
1
60
0
100
AcDbSpline
70
4
71
3
72
14
73
10
40
0
40
0
40
0
40
0
40
0.25
40
0.25
40
0.5
40
0.5
40
0.75
40
0.75
40
1
40
1
40
1
40
1
41
1
10
41.6536387856407
20
3.75420098014106
30
0
41
1
10
41.7011806332422
20
3.62377273954726
30
0
41
1
10
41.7484653132701
20
3.49245329334175
30
0
41
1
10
41.8430055072547
20
3.22892547634353
30
0
41
1
10
41.890243467416
20
3.09677513901184
30
0
41
1
10
41.9851859430082
20
2.832000992384
30
0
41
1
10
42.0328680452673
20
2.69944352783008
30
0
41
1
10
42.1289276821632
20
2.43453003496697
30
0
41
1
10
42.1773231154636
20
2.30212089878285
30
0
41
1
10
42.2262518468335
20
2.16983337732356
30
0
0
SPLINE
5
D6
100
AcDbEntity
8
1
62
256
6
ByLayer
370
18
48
1
60
0
100
AcDbSpline
70
4
71
3
72
24
73
20
40
0
40
0
40
0
40
0
40
0.0325477931907131
40
0.0325477931907131
40
0.170755251306324
40
0.170755251306324
40
0.308962709421934
40
0.308962709421934
40
0.447170167537545
40
0.447170167537545
40
0.585377625653156
40
0.585377625653156
40
0.723585083768767
40
0.723585083768767
40
0.792688812826575
40
0.792688812826575
40
0.861792541884383
40
0.861792541884383
40
1
40
1
40
1
40
1
41
1
10
36.250079705393
20
2.80374788405078
30
0
41
1
10
36.3087245440561
20
2.82499967938395
30
0
41
1
10
36.3673623888001
20
2.84593706726861
30
0
41
1
10
36.6749782695846
20
2.95409505639233
30
0
41
1
10
36.9239460487824
20
3.03572662272006
30
0
41
1
10
37.4223050174759
20
3.18718308219226
30
0
41
1
10
37.6715646775066
20
3.25679513745996
30
0
41
1
10
38.1701041491969
20
3.38311115203851
30
0
41
1
10
38.4188792871651
20
3.43978342946863
30
0
41
1
10
38.9159147614842
20
3.53994447942392
30
0
41
1
10
39.1641520830993
20
3.58347824868247
30
0
41
1
10
39.6609463985179
20
3.65657097181583
30
0
41
1
10
39.9094456221293
20
3.6862254694997
30
0
41
1
10
40.2828841263488
20
3.71978037838687
30
0
41
1
10
40.4075055760901
20
3.72917261229591
30
0
41
1
10
40.6566491950156
20
3.74421067085717
30
0
41
1
10
40.781219504566
20
3.74984989297363
30
0
41
1
10
41.155064627745
20
3.76116386469721
30
0
41
1
10
41.4043685824074
20
3.76127471786455
30
0
41
1
10
41.6536387856407
20
3.75420098014101
30
0
0
SPLINE
5
D7
100
AcDbEntity
8
1
62
256
6
ByLayer
370
18
48
1
60
0
100
AcDbSpline
70
4
71
3
72
48
73
44
40
0
40
0
40
0
40
0
40
0.0041168627290028
40
0.0358538609811219
40
0.0675908592332397
40
0.0834593583592987
40
0.0993278574853579
40
0.131064855737476
40
0.162801853989594
40
0.194538852241713
40
0.210407351367772
40
0.226275850493831
40
0.258012848745949
40
0.289749846998067
40
0.321486845250186
40
0.337355344376245
40
0.353223843502304
40
0.384960841754421
40
0.41669784000654
40
0.448434838258659
40
0.464303337384718
40
0.480171836510777
40
0.511908834762895
40
0.543645833015013
40
0.575382831267132
40
0.591251330393191
40
0.60711982951925
40
0.638856827771368
40
0.670593826023486
40
0.702330824275604
40
0.718199323401664
40
0.734067822527723
40
0.765804820779841
40
0.797541819031958
40
0.829278817284077
40
0.845147316410137
40
0.861015815536196
40
0.892752813788314
40
0.924489812040432
40
0.95622681029255
40
0.97209530941861
40
0.987963808544668
40
1
40
1
40
1
40
1
41
1
10
29.4266831673261
20
0.53836625158695
30
0
41
1
10
29.409371210219
20
0.543621211155283
30
0
41
1
10
29.2585985016784
20
0.589344359698003
30
0
41
1
10
28.9743208061917
20
0.674804940534074
30
0
41
1
10
28.6406033009305
20
0.773529379831416
30
0
41
1
10
28.3736893288589
20
0.851040267177893
30
0
41
1
10
28.1068129286915
20
0.927331676509283
30
0
41
1
10
27.773201848682
20
1.02111022050872
30
0
41
1
10
27.3727577598872
20
1.13030259464637
30
0
41
1
10
27.0390406598395
20
1.21814946905323
30
0
41
1
10
26.7721270728951
20
1.28614416948054
30
0
41
1
10
26.5052508500747
20
1.35265594705641
30
0
41
1
10
26.1716399266011
20
1.43339770453719
30
0
41
1
10
25.7711958061805
20
1.52561816663677
30
0
41
1
10
25.4374783009286
20
1.597923698557
30
0
41
1
10
25.1705643288656
20
1.65277630205716
30
0
41
1
10
24.9036879287028
20
1.70595277215404
30
0
41
1
10
24.5700768486981
20
1.7693269479901
30
0
41
1
10
24.1696327599056
20
1.83962314095788
30
0
41
1
10
23.8359156598561
20
1.89251417975822
30
0
41
1
10
23.5690020729092
20
1.93130238890575
30
0
41
1
10
23.3021258500872
20
1.96832080567043
30
0
41
1
10
22.968514926611
20
2.01097923665995
30
0
41
1
10
22.5680708061864
20
2.05564642485399
30
0
41
1
10
22.2343533009278
20
2.0863296857878
30
0
41
1
10
21.9674393288593
20
2.1069903917101
30
0
41
1
10
21.7005629286935
20
2.125870741976
30
0
41
1
10
21.3669518486862
20
2.14551514266915
30
0
41
1
10
20.9665077598932
20
2.16213428562401
30
0
41
1
10
20.6327906598466
20
2.16894832457663
30
0
41
1
10
20.3658770729025
20
2.17037421767509
30
0
41
1
10
20.0990008500812
20
2.17011557525933
30
0
41
1
10
19.7653899266057
20
2.16572108060637
30
0
41
1
10
19.3649458061814
20
2.15344302327048
30
0
41
1
10
19.0312283009239
20
2.13605237997211
30
0
41
1
10
18.7643143288569
20
2.1181769532746
30
0
41
1
10
18.4974379286924
20
2.0987912961609
30
0
41
1
10
18.1638268486869
20
2.07057538067051
30
0
41
1
10
17.7633827598957
20
2.03002304010877
30
0
41
1
10
17.4296656598493
20
1.98932732145496
30
0
41
1
10
17.1627520729049
20
1.95309108228284
30
0
41
1
10
16.9787078316034
20
1.92724306684795
30
0
41
1
10
16.8613794207517
20
1.91000843307421
30
0
41
1
10
16.8107705179877
20
1.90243249112424
30
0
0
SPLINE
5
D8
100
AcDbEntity
8
1
62
256
6
ByLayer
370
18
48
1
60
0
100
AcDbSpline
70
4
71
3
72
8
73
4
40
0
40
0
40
0
40
0
40
1
40
1
40
1
40
1
41
1
10
17.8
20
3.82539261355089
30
0
41
1
10
17.8
20
3.76388499922257
30
0
41
1
10
17.8
20
3.70221157891427
30
0
41
1
10
17.8
20
3.64037588892197
30
0
0
SPLINE
5
D9
100
AcDbEntity
8
1
62
256
6
ByLayer
370
18
48
1
60
0
100
AcDbSpline
70
4
71
3
72
18
73
14
40
0
40
0
40
0
40
0
40
0.250000000000052
40
0.250000000000052
40
0.375000000000079
40
0.375000000000079
40
0.500000000000107
40
0.500000000000107
40
0.750000000000085
40
0.750000000000085
40
0.875000000000043
40
0.875000000000043
40
1
40
1
40
1
40
1
41
1
10
3.62671486016802
20
3.08134839776596
30
0
41
1
10
3.61382878276248
20
3.08586911520484
30
0
41
1
10
3.60178017005376
20
3.09101063319284
30
0
41
1
10
3.58491092256261
20
3.099591652616
30
0
41
1
10
3.57948967118432
20
3.10259766699906
30
0
41
1
10
3.56905633187117
20
3.10890076022608
30
0
41
1
10
3.564026044397
20
3.11221111428128
30
0
41
1
10
3.54969992314304
20
3.12249531136118
30
0
41
1
10
3.54127141766685
20
3.12973131482394
30
0
41
1
10
3.53025403916382
20
3.14111147055289
30
0
41
1
10
3.52685408596796
20
3.1449931330983
30
0
41
1
10
3.52060866607275
20
3.15293249841292
30
0
41
1
10
3.51775134627573
20
3.15701124269648
30
0
41
1
10
3.51521977910579
20
3.16111628528623
30
0
0
SPLINE
5
DA
100
AcDbEntity
8
1
62
256
6
ByLayer
370
18
48
1
60
0
100
AcDbSpline
70
4
71
3
72
10
73
6
40
0
40
0
40
0
40
0
40
0.5
40
0.5
40
1
40
1
40
1
40
1
41
1
10
3.51521977910727
20
3.16111628528441
30
0
41
1
10
3.51208706774778
20
3.16619610844847
30
0
41
1
10
3.50971561680751
20
3.17134403610876
30
0
41
1
10
3.50649799957
20
3.18177149893083
30
0
41
1
10
3.50565135797109
20
3.18707703975503
30
0
41
1
10
3.50565164171354
20
3.19239066934873
30
0
0
SPLINE
5
DB
100
AcDbEntity
8
1
62
256
6
ByLayer
370
18
48
1
60
0
100
AcDbSpline
70
4
71
3
72
25
73
21
40
0
40
0
40
0
40
0
40
0.0756708212220372
40
0.113506231833056
40
0.113506231833056
40
0.151341642444074
40
0.151341642444074
40
0.30268328488815
40
0.30268328488815
40
0.454024927332227
40
0.605366569776303
40
0.605366569776303
40
0.643201980387322
40
0.643201980387322
40
0.681037390998341
40
0.681037390998341
40
0.756708212220379
40
0.756708212220379
40
0.908049854664456
40
1
40
1
40
1
40
1
41
1
10
3.50565164171354
20
3.1923906693487
30
0
41
1
10
3.50565356718863
20
3.22844893504498
30
0
41
1
10
3.50565631443109
20
3.28072600020252
30
0
41
1
10
3.50565887815412
20
3.33028540250109
30
0
41
1
10
3.50566054956403
20
3.36271893152241
30
0
41
1
10
3.50566136686413
20
3.37864181286224
30
0
41
1
10
3.50566535280103
20
3.45646402376431
30
0
41
1
10
3.50566823146573
20
3.51320359534259
30
0
41
1
10
3.50567358569458
20
3.61598283220906
30
0
41
1
10
3.50567853640763
20
3.70806005898101
30
0
41
1
10
3.50568306840233
20
3.77882751107447
30
0
41
1
10
3.50568588321485
20
3.81624917881769
30
0
41
1
10
3.50568644526891
20
3.82339239183011
30
0
41
1
10
3.50568757031763
20
3.83698988562429
30
0
41
1
10
3.50568813386735
20
3.8434500953214
30
0
41
1
10
3.50568982616045
20
3.86174410412434
30
0
41
1
10
3.50569095266556
20
3.87245217368067
30
0
41
1
10
3.50569435755799
20
3.90020162522777
30
0
41
1
10
3.50569806254339
20
3.92057970353272
30
0
41
1
10
3.5057020360347
20
3.92620512245753
30
0
41
1
10
3.50570358885369
20
3.92621566237943
30
0
0
SPLINE
5
DC
100
AcDbEntity
8
1
62
256
6
ByLayer
370
18
48
1
60
0
100
AcDbSpline
70
4
71
3
72
18
73
14
40
0
40
0
40
0
40
0
40
0.0205680138201119
40
0.0205680138201119
40
0.347045342546737
40
0.347045342546737
40
0.673522671273362
40
0.673522671273362
40
0.75514200345502
40
0.75514200345502
40
0.836761335636678
40
0.836761335636678
40
1
40
1
40
1
40
1
41
1
10
14.2610362968195
20
2.88276145985912
30
0
41
1
10
14.2852255816315
20
2.89212281729692
30
0
41
1
10
14.309411856138
20
2.90143019403269
30
0
41
1
10
14.7174630307605
20
3.05755733123314
30
0
41
1
10
15.1005817617319
20
3.19081972068355
30
0
41
1
10
15.8681036224214
20
3.42710380576858
30
0
41
1
10
16.2524511393798
20
3.53019179694235
30
0
41
1
10
16.7351932228549
20
3.63851774805875
30
0
41
1
10
16.8318627665291
20
3.6591518430655
30
0
41
1
10
17.0254865630373
20
3.69831417548423
30
0
41
1
10
17.1225040128337
20
3.71685267836978
30
0
41
1
10
17.4131720847568
20
3.76910133582726
30
0
41
1
10
17.6066529949426
20
3.79949307145941
30
0
41
1
10
17.8000000000002
20
3.82539261354893
30
0
0
SPLINE
5
DD
100
AcDbEntity
8
1
62
256
6
ByLayer
370
18
48
1
60
0
100
AcDbSpline
70
4
71
3
72
31
73
27
40
0
40
0
40
0
40
0
40
0.0419648839668888
40
0.0419648839668888
40
0.14841323019279
40
0.14841323019279
40
0.175025316749266
40
0.175025316749266
40
0.201637403305741
40
0.254861576418692
40
0.254861576418692
40
0.361309922644593
40
0.467758268870495
40
0.467758268870495
40
0.520982441983445
40
0.520982441983445
40
0.547594528539921
40
0.547594528539921
40
0.574206615096396
40
0.680654961322297
40
0.787103307548198
40
0.893551653774099
40
0.893551653774099
40
0.946775826887049
40
0.946775826887049
40
1
40
1
40
1
40
1
41
1
10
3.5057035750967
20
-3.92621551363419
30
0
41
1
10
3.50570458246807
20
-3.92623046083185
30
0
41
1
10
3.50570561132542
20
-3.92535472589029
30
0
41
1
10
3.5057093382618
20
-3.9190996149633
30
0
41
1
10
3.50571217189102
20
-3.90886868526414
30
0
41
1
10
3.50571597257303
20
-3.88865735140803
30
0
41
1
10
3.50571674469137
20
-3.88424713683099
30
0
41
1
10
3.50571830758895
20
-3.87473031128897
30
0
41
1
10
3.50572068250452
20
-3.85939660744799
30
0
41
1
10
3.50572315186702
20
-3.84092068212266
30
0
41
1
10
3.50572822114313
20
-3.79983990047273
30
0
41
1
10
3.50573533007045
20
-3.73407286077929
30
0
41
1
10
3.50574314426376
20
-3.64652056026648
30
0
41
1
10
3.50574924990749
20
-3.57254532852838
30
0
41
1
10
3.50575132572351
20
-3.54649946379192
30
0
41
1
10
3.50575449572068
20
-3.50531014782052
30
0
41
1
10
3.50575556308635
20
-3.49120848515565
30
0
41
1
10
3.50575770545262
20
-3.46242681130084
30
0
41
1
10
3.50576308358808
20
-3.38898327603522
30
0
41
1
10
3.50577293739738
20
-3.24357038483203
30
0
41
1
10
3.50578612656491
20
-3.02218645948852
30
0
41
1
10
3.50579468434336
20
-2.85623572500646
30
0
41
1
10
3.50580088738653
20
-2.72469071269194
30
0
41
1
10
3.50580292188681
20
-2.67958022856982
30
0
41
1
10
3.50580685591442
20
-2.58784605026884
30
0
41
1
10
3.5058087599694
20
-2.54113302755638
30
0
41
1
10
3.50581059004824
20
-2.49358590572575
30
0
0
SPLINE
5
DE
100
AcDbEntity
8
1
62
256
6
ByLayer
370
18
48
1
60
0
100
AcDbSpline
70
4
71
3
72
20
73
16
40
0
40
0
40
0
40
0
40
0.0131448415577583
40
0.0131448415577583
40
0.0262896833065823
40
0.0262896833065823
40
0.0788695542996928
40
0.0788695542996928
40
0.289217317445757
40
0.289217317445757
40
0.710067926698248
40
0.710067926698248
40
0.920412013153358
40
0.920412013153358
40
1
40
1
40
1
40
1
41
1
10
4.7090066393645
20
1.59256728336175
30
0
41
1
10
4.70903775872506
20
1.59258358657695
30
0
41
1
10
4.70906889078708
20
1.59259986950039
30
0
41
1
10
4.7091311824521
20
1.592632391123
30
0
41
1
10
4.70916234209801
20
1.59264862979739
30
0
41
1
10
4.70931821471777
20
1.59272970456013
30
0
41
1
10
4.7094431511203
20
1.59279418198778
30
0
41
1
10
4.71006886415233
20
1.59311494884633
30
0
41
1
10
4.71057287145362
20
1.59336603625741
30
0
41
1
10
4.71209448754956
20
1.59410287489626
30
0
41
1
10
4.71312170234165
20
1.59457260424361
30
0
41
1
10
4.71467769612252
20
1.5952466453879
30
0
41
1
10
4.71519894173446
20
1.59546623887397
30
0
41
1
10
4.71592068488172
20
1.5957621736207
30
0
41
1
10
4.71611916149251
20
1.59584271565708
30
0
41
1
10
4.71631796878182
20
1.59592256516703
30
0
0
SPLINE
5
DF
100
AcDbEntity
8
1
62
256
6
ByLayer
370
18
48
1
60
0
100
AcDbSpline
70
4
71
3
72
18
73
14
40
0
40
0
40
0
40
0
40
0.0536476877839174
40
0.0536476877839174
40
0.339338952552742
40
0.339338952552742
40
0.625030217323318
40
0.625030217323318
40
0.910721482794586
40
0.910721482794586
40
0.982144297756511
40
0.982144297756511
40
1
40
1
40
1
40
1
41
1
10
4.81753560670862
20
1.59864762923127
30
0
41
1
10
4.8177281112834
20
1.59859713209178
30
0
41
1
10
4.81792061459481
20
1.59854663045908
30
0
41
1
10
4.81913825200959
20
1.59822716283156
30
0
41
1
10
4.82016335151383
20
1.59795807378867
30
0
41
1
10
4.82221347869586
20
1.59741964056516
30
0
41
1
10
4.82323850628325
20
1.597150296042
30
0
41
1
10
4.82528848974883
20
1.59661135237522
30
0
41
1
10
4.82631345124761
20
1.59634177098897
30
0
41
1
10
4.82759459420072
20
1.59600459053399
30
0
41
1
10
4.82785082420406
20
1.59593715807512
30
0
41
1
10
4.82817110487937
20
1.59585284481528
30
0
41
1
10
4.82823516097744
20
1.59583598200663
30
0
41
1
10
4.82829921705417
20
1.59581911907802
30
0
0
SPLINE
5
E0
100
AcDbEntity
8
1
62
256
6
ByLayer
370
18
48
1
60
0
100
AcDbSpline
70
4
71
3
72
34
73
30
40
0
40
0
40
0
40
0
40
0.124999999999998
40
0.124999999999998
40
0.249999999999995
40
0.249999999999995
40
0.312499999999995
40
0.312499999999995
40
0.374999999999995
40
0.374999999999995
40
0.437499999999995
40
0.437499999999995
40
0.453124999999995
40
0.453124999999995
40
0.468749999999995
40
0.468749999999995
40
0.499999999999996
40
0.499999999999996
40
0.624999999999998
40
0.624999999999998
40
0.749999999999999
40
0.749999999999999
40
0.875
40
0.875
40
0.90625
40
0.90625
40
0.9375
40
0.9375
40
1
40
1
40
1
40
1
41
1
10
8.55654988742896
20
0.0062855725688564
30
0
41
1
10
8.9444917734524
20
-0.214062781486689
30
0
41
1
10
9.33008622552299
20
-0.43297517823936
30
0
41
1
10
10.0990358236491
20
-0.863750069471593
30
0
41
1
10
10.482401758294
20
-1.07558894603884
30
0
41
1
10
11.0577794595657
20
-1.38462111395779
30
0
41
1
10
11.2496195464448
20
-1.48619029269696
30
0
41
1
10
11.6337070046129
20
-1.68591231097139
30
0
41
1
10
11.8259286707378
20
-1.78410660521053
30
0
41
1
10
12.2111589092603
20
-1.97643540251408
30
0
41
1
10
12.4041582809309
20
-2.0705857265207
30
0
41
1
10
12.6460726379944
20
-2.18544014336601
30
0
41
1
10
12.6944889385874
20
-2.20826906761286
30
0
41
1
10
12.7913934781428
20
-2.25363433845985
30
0
41
1
10
12.8399019961358
20
-2.27617991844718
30
0
41
1
10
12.9852660387774
20
-2.34323665137939
30
0
41
1
10
13.0820306992407
20
-2.38719795461569
30
0
41
1
10
13.5651838483156
20
-2.60324517792466
30
0
41
1
10
13.9497278610739
20
-2.76380914074662
30
0
41
1
10
14.7174630307606
20
-3.05755733123311
30
0
41
1
10
15.100581761732
20
-3.19081972068352
30
0
41
1
10
15.8681036224214
20
-3.42710380576858
30
0
41
1
10
16.2524511393798
20
-3.53019179694235
30
0
41
1
10
16.735193222855
20
-3.63851774805875
30
0
41
1
10
16.8318627665292
20
-3.6591518430655
30
0
41
1
10
17.0254865630374
20
-3.69831417548423
30
0
41
1
10
17.1225040128337
20
-3.71685267836978
30
0
41
1
10
17.4131720847569
20
-3.76910133582726
30
0
41
1
10
17.6066529949426
20
-3.79949307145941
30
0
41
1
10
17.8000000000002
20
-3.82539261354893
30
0
0
SPLINE
5
E1
100
AcDbEntity
8
1
62
256
6
ByLayer
370
18
48
1
60
0
100
AcDbSpline
70
4
71
3
72
15
73
11
40
0
40
0
40
0
40
0
40
0.190186384047757
40
0.190186384047757
40
0.380372768095514
40
0.380372768095514
40
0.760745536191036
40
0.760745536191036
40
0.950931920238797
40
1
40
1
40
1
40
1
41
1
10
17.8
20
-3.77806899147583
30
0
41
1
10
17.9246227616584
20
-3.7979580299893
30
0
41
1
10
18.0492829222828
20
-3.81602091858491
30
0
41
1
10
18.298366796977
20
-3.84839459990786
30
0
41
1
10
18.422809203857
20
-3.86270976615359
30
0
41
1
10
18.7959870647469
20
-3.90000491703856
30
0
41
1
10
19.0445807933143
20
-3.91733077319205
30
0
41
1
10
19.417760021907
20
-3.93191759513178
30
0
41
1
10
19.5743011793305
20
-3.93564532204488
30
0
41
1
10
19.7309718732615
20
-3.93635577807072
30
0
41
1
10
19.7631092146483
20
-3.93637441442678
30
0
0
SPLINE
5
E2
100
AcDbEntity
8
1
62
256
6
ByLayer
370
18
48
1
60
0
100
AcDbSpline
70
4
71
3
72
23
73
19
40
0
40
0
40
0
40
0
40
0.034682440962722
40
0.034682440962722
40
0.172584949396624
40
0.172584949396624
40
0.310487457830526
40
0.310487457830526
40
0.448389966264428
40
0.448389966264428
40
0.482865593372903
40
0.482865593372903
40
0.517341220481379
40
0.517341220481379
40
0.586292474698324
40
0.724194983132214
40
0.724194983132214
40
1
40
1
40
1
40
1
41
1
10
36.1819009452653
20
2.8291232197173
30
0
41
1
10
36.24370685943
20
2.85369808765745
30
0
41
1
10
36.3055064612175
20
2.87792794056537
30
0
41
1
10
36.6130284725251
20
2.99674848349161
30
0
41
1
10
36.8587551910919
20
3.08612153394745
30
0
41
1
10
37.3507372685895
20
3.25313323842235
30
0
41
1
10
37.5969891214533
20
3.33077375634181
30
0
41
1
10
38.0906267895031
20
3.47357003616042
30
0
41
1
10
38.3380132951323
20
3.53872326855256
30
0
41
1
10
38.6484021337063
20
3.61181933384864
30
0
41
1
10
38.7105379030479
20
3.62602110937272
30
0
41
1
10
38.8349374068806
20
3.65357577939858
30
0
41
1
10
38.8972347028164
20
3.666935310783
30
0
41
1
10
39.0839351980785
20
3.70563806616136
30
0
41
1
10
39.4568199554171
20
3.77760217953411
30
0
41
1
10
39.8285946102834
20
3.83308210897471
30
0
41
1
10
40.5718104698343
20
3.92172089498652
30
0
41
1
10
41.0668748332526
20
3.95108279351584
30
0
41
1
10
41.5640221758665
20
3.94994872009963
30
0
0
SPLINE
5
E3
100
AcDbEntity
8
1
62
256
6
ByLayer
370
18
48
1
60
0
100
AcDbSpline
70
2053
71
3
72
104
73
100
40
0
40
0
40
0
40
0
40
0.031249999999994
40
0.031249999999994
40
0.062499999999988
40
0.062499999999988
40
0.093749999999982
40
0.093749999999982
40
0.124999999999976
40
0.124999999999976
40
0.140624999999973
40
0.140624999999973
40
0.15624999999997
40
0.15624999999997
40
0.187499999999961
40
0.187499999999961
40
0.195312499999958
40
0.195312499999958
40
0.203124999999955
40
0.218749999999949
40
0.218749999999949
40
0.249999999999936
40
0.249999999999936
40
0.26562499999993
40
0.26562499999993
40
0.281249999999925
40
0.296874999999919
40
0.296874999999919
40
0.312499999999913
40
0.312499999999913
40
0.343749999999902
40
0.343749999999902
40
0.3515624999999
40
0.3515624999999
40
0.359374999999898
40
0.359374999999898
40
0.374999999999893
40
0.390624999999889
40
0.390624999999889
40
0.406249999999885
40
0.406249999999885
40
0.437499999999876
40
0.437499999999876
40
0.445312499999872
40
0.445312499999872
40
0.453124999999867
40
0.468749999999863
40
0.484374999999859
40
0.484374999999859
40
0.499999999999855
40
0.499999999999855
40
0.531249999999847
40
0.531249999999847
40
0.546874999999846
40
0.546874999999846
40
0.562499999999844
40
0.562499999999844
40
0.593749999999847
40
0.593749999999847
40
0.60937499999985
40
0.60937499999985
40
0.624999999999854
40
0.624999999999854
40
0.656249999999862
40
0.656249999999862
40
0.671874999999867
40
0.671874999999867
40
0.687499999999873
40
0.687499999999873
40
0.718749999999885
40
0.718749999999885
40
0.73437499999989
40
0.73437499999989
40
0.749999999999896
40
0.765624999999902
40
0.765624999999902
40
0.781249999999907
40
0.781249999999907
40
0.812499999999919
40
0.812499999999919
40
0.828124999999925
40
0.828124999999925
40
0.843749999999932
40
0.859374999999938
40
0.859374999999938
40
0.867187499999941
40
0.867187499999941
40
0.874999999999945
40
0.874999999999945
40
0.906249999999959
40
0.906249999999959
40
0.937499999999972
40
0.937499999999972
40
0.953124999999979
40
0.953124999999979
40
0.968749999999986
40
0.984374999999993
40
0.984374999999993
40
1
40
1
40
1
40
1
41
1
10
42.125094732324
20
-1.46675469317399
30
0
41
1
10
42.1113029661652
20
-1.48443838788435
30
0
41
1
10
42.0979115494683
20
-1.49941328509411
30
0
41
1
10
42.0718050066677
20
-1.52431203047388
30
0
41
1
10
42.0590906463565
20
-1.53423331800977
30
0
41
1
10
42.0342471540989
20
-1.54884296736236
30
0
41
1
10
42.0224262783833
20
-1.55334149456038
30
0
41
1
10
41.9999144844461
20
-1.55684560837381
30
0
41
1
10
41.9892055504456
20
-1.55586308437196
30
0
41
1
10
41.9738955386467
20
-1.55002083283503
30
0
41
1
10
41.9689645055084
20
-1.54735380166665
30
0
41
1
10
41.9595080084191
20
-1.54063988856507
30
0
41
1
10
41.9549687722958
20
-1.53658797533245
30
0
41
1
10
41.9418939800156
20
-1.52233667124258
30
0
41
1
10
41.9338954329251
20
-1.51006277227967
30
0
41
1
10
41.9247973853552
20
-1.49093802349083
30
0
41
1
10
41.923022126649
20
-1.48691754834968
30
0
41
1
10
41.9196021062787
20
-1.47857925548234
30
0
41
1
10
41.9146531801936
20
-1.46559380796361
30
0
41
1
10
41.9102364521189
20
-1.45118680934112
30
0
41
1
10
41.9021106575852
20
-1.42045400741605
30
0
41
1
10
41.8976256819561
20
-1.39743127287065
30
0
41
1
10
41.8924649966631
20
-1.35863239621639
30
0
41
1
10
41.8910349394882
20
-1.34516272326908
30
0
41
1
10
41.8887844505419
20
-1.3173743506851
30
0
41
1
10
41.8871350423108
20
-1.28866802725003
30
0
41
1
10
41.886736885539
20
-1.25809046867852
30
0
41
1
10
41.8870181872852
20
-1.22652528221528
30
0
41
1
10
41.8875071003775
20
-1.21012798903007
30
0
41
1
10
41.8900449605723
20
-1.16062104252256
30
0
41
1
10
41.893131769558
20
-1.12702195545813
30
0
41
1
10
41.8989135335616
20
-1.08428043765332
30
0
41
1
10
41.9001671538911
20
-1.07569461054959
30
0
41
1
10
41.9028781891982
20
-1.0584462823569
30
0
41
1
10
41.9043377940926
20
-1.04977641920911
30
0
41
1
10
41.9089647025285
20
-1.0240363531922
30
0
41
1
10
41.9158318866321
20
-0.990177527993637
30
0
41
1
10
41.9241036566332
20
-0.957221952159642
30
0
41
1
10
41.9331024256511
20
-0.924722652525503
30
0
41
1
10
41.9379942034425
20
-0.908627494807064
30
0
41
1
10
41.9534245170746
20
-0.86219019872371
30
0
41
1
10
41.9647910250168
20
-0.833335632758633
30
0
41
1
10
41.9803184060825
20
-0.799718496781367
30
0
41
1
10
41.9834978151338
20
-0.79310468071148
30
0
41
1
10
41.9899259993746
20
-0.78024945032422
30
0
41
1
10
41.9996884656094
20
-0.761489478868015
30
0
41
1
10
42.0165393667886
20
-0.732718074241944
30
0
41
1
10
42.0306086485372
20
-0.712211810179468
30
0
41
1
10
42.0449619143047
20
-0.692922037566433
30
0
41
1
10
42.0522604333831
20
-0.683919668515927
30
0
41
1
10
42.0741864621404
20
-0.659096924735337
30
0
41
1
10
42.088963262916
20
-0.645279262620448
30
0
41
1
10
42.111298307009
20
-0.628320323512554
30
0
41
1
10
42.1188004750792
20
-0.623284857785023
30
0
41
1
10
42.1336700788535
20
-0.61457367833782
30
0
41
1
10
42.1410409251457
20
-0.610889046350195
30
0
41
1
10
42.1629500308995
20
-0.601759482751675
30
0
41
1
10
42.1772871680447
20
-0.598222906291142
30
0
41
1
10
42.1983037439777
20
-0.596701681783514
30
0
41
1
10
42.2052544837156
20
-0.596834432476641
30
0
41
1
10
42.2187964517939
20
-0.598385778970339
30
0
41
1
10
42.2253930551801
20
-0.599797644745024
30
0
41
1
10
42.2446415794804
20
-0.605919522455764
30
0
41
1
10
42.2567575014203
20
-0.612497744137016
30
0
41
1
10
42.2736989394049
20
-0.62633220723049
30
0
41
1
10
42.2791394810605
20
-0.631609104802578
30
0
41
1
10
42.2895622162116
20
-0.64359327186736
30
0
41
1
10
42.2944945284559
20
-0.650248948319785
30
0
41
1
10
42.3083008683282
20
-0.672097881473292
30
0
41
1
10
42.316245535926
20
-0.689207338528092
30
0
41
1
10
42.3259871371119
20
-0.719161387191832
30
0
41
1
10
42.3288816901115
20
-0.729936168206962
30
0
41
1
10
42.3337691662646
20
-0.752636146946372
30
0
41
1
10
42.3377741248208
20
-0.776498001425324
30
0
41
1
10
42.33995964746
20
-0.802761128415483
30
0
41
1
10
42.3411816281833
20
-0.830306585571833
30
0
41
1
10
42.341304661252
20
-0.844827705215494
30
0
41
1
10
42.3401502953854
20
-0.889361139170092
30
0
41
1
10
42.3374000419926
20
-0.920471164313938
30
0
41
1
10
42.3303190065051
20
-0.969365204316091
30
0
41
1
10
42.3274352807804
20
-0.986158469404131
30
0
41
1
10
42.3208298396443
20
-1.01963137808386
30
0
41
1
10
42.3133820961791
20
-1.05311366283755
30
0
41
1
10
42.3043595686884
20
-1.08662767492746
30
0
41
1
10
42.297023174803
20
-1.11178040198541
30
0
41
1
10
42.2944750964501
20
-1.12019013887348
30
0
41
1
10
42.2892530011689
20
-1.13681999783486
30
0
41
1
10
42.2865742877126
20
-1.14505800313381
30
0
41
1
10
42.2728623476075
20
-1.18587969042659
30
0
41
1
10
42.2608773042745
20
-1.21739387587911
30
0
41
1
10
42.2352163909464
20
-1.27818558525257
30
0
41
1
10
42.2219359063177
20
-1.30653505294788
30
0
41
1
10
42.2014927852834
20
-1.34634702373899
30
0
41
1
10
42.1945812310991
20
-1.35917589037544
30
0
41
1
10
42.1806254934692
20
-1.38386718545729
30
0
41
1
10
42.1666901283448
20
-1.40732605004212
30
0
41
1
10
42.1528001994339
20
-1.42845749526967
30
0
41
1
10
42.1389320934118
20
-1.44845632233913
30
0
41
1
10
42.1319906154035
20
-1.45791284581881
30
0
41
1
10
42.125094732324
20
-1.46675469317399
30
0
0
SPLINE
5
E4
100
AcDbEntity
8
1
62
256
6
ByLayer
370
18
48
1
60
0
100
AcDbSpline
70
4
71
3
72
8
73
4
40
0
40
0
40
0
40
0
40
1
40
1
40
1
40
1
41
1
10
41.564022175874
20
-3.94994872009966
30
0
41
1
10
41.5476552503162
20
-3.95091280146889
30
0
41
1
10
41.5364338552349
20
-3.93806133652788
30
0
41
1
10
41.5279545346397
20
-3.91117922180851
30
0
0
SPLINE
5
E5
100
AcDbEntity
8
1
62
256
6
ByLayer
370
18
48
1
60
0
100
AcDbSpline
70
4
71
3
72
14
73
10
40
0
40
0
40
0
40
0
40
0.25
40
0.25
40
0.5
40
0.5
40
0.75
40
0.75
40
1
40
1
40
1
40
1
41
1
10
41.6536387856407
20
-3.75420098014098
30
0
41
1
10
41.7011806332421
20
-3.62377273954718
30
0
41
1
10
41.7484653132701
20
-3.4924532933417
30
0
41
1
10
41.8430055072547
20
-3.2289254763435
30
0
41
1
10
41.890243467416
20
-3.09677513901181
30
0
41
1
10
41.9851859430082
20
-2.832000992384
30
0
41
1
10
42.0328680452673
20
-2.69944352783008
30
0
41
1
10
42.1289276821632
20
-2.434530034967
30
0
41
1
10
42.1773231154636
20
-2.30212089878285
30
0
41
1
10
42.2262518468335
20
-2.16983337732356
30
0
0
SPLINE
5
E6
100
AcDbEntity
8
1
62
256
6
ByLayer
370
18
48
1
60
0
100
AcDbSpline
70
4
71
3
72
8
73
4
40
0
40
0
40
0
40
0
40
1
40
1
40
1
40
1
41
1
10
42.2262518468335
20
-2.16983337732353
30
0
41
1
10
42.2496733387293
20
-2.10651183195225
30
0
41
1
10
42.2737791922676
20
-2.0434635959366
30
0
41
1
10
42.2986194348811
20
-1.9809428150769
30
0
0
SPLINE
5
E7
100
AcDbEntity
8
1
62
256
6
ByLayer
370
18
48
1
60
0
100
AcDbSpline
70
4
71
3
72
14
73
10
40
0
40
0
40
0
40
0
40
0.5
40
0.5
40
0.75
40
0.75
40
0.875
40
0.875
40
1
40
1
40
1
40
1
41
1
10
42.2986194348811
20
-1.9809428150769
30
0
41
1
10
42.3488073941306
20
-1.85462398434331
30
0
41
1
10
42.4012432465636
20
-1.73248637824955
30
0
41
1
10
42.4845392789858
20
-1.55579148569225
30
0
41
1
10
42.5130750391426
20
-1.49797880796322
30
0
41
1
10
42.5571883752319
20
-1.41295572420074
30
0
41
1
10
42.5721120404053
20
-1.38489923908526
30
0
41
1
10
42.6024166355896
20
-1.32935715229343
30
0
41
1
10
42.6178220898164
20
-1.30182932776941
30
0
41
1
10
42.6333670927646
20
-1.27475072738858
30
0
0
SPLINE
5
E8
100
AcDbEntity
8
1
62
256
6
ByLayer
370
18
48
1
60
0
100
AcDbSpline
70
4
71
3
72
8
73
4
40
0
40
0
40
0
40
0
40
1
40
1
40
1
40
1
41
1
10
42.6333670927647
20
-1.27475072738861
30
0
41
1
10
42.7578683598768
20
-0.923785753911687
30
0
41
1
10
42.8788835915925
20
-0.571567792843126
30
0
41
1
10
42.996357444329
20
-0.218076952009056
30
0
0
SPLINE
5
E9
100
AcDbEntity
8
1
62
256
6
ByLayer
370
18
48
1
60
0
100
AcDbSpline
70
4
71
3
72
8
73
4
40
0
40
0
40
0
40
0
40
1
40
1
40
1
40
1
41
1
10
42.9963574443294
20
0.218076951996039
30
0
41
1
10
43.0012124958787
20
0.0727428873138649
30
0
41
1
10
43.0012158757517
20
-0.0726417121499026
30
0
41
1
10
42.996357444329
20
-0.218076952009056
30
0
0
SPLINE
5
EA
100
AcDbEntity
8
1
62
256
6
ByLayer
370
18
48
1
60
0
100
AcDbSpline
70
4
71
3
72
8
73
4
40
0
40
0
40
0
40
0
40
1
40
1
40
1
40
1
41
1
10
42.9963574443244
20
0.218076951993879
30
0
41
1
10
42.9792955509753
20
0.161208339965242
30
0
41
1
10
42.9621486259456
20
0.104366526511001
30
0
41
1
10
42.9449169890898
20
0.0475514108258608
30
0
0
SPLINE
5
EB
100
AcDbEntity
8
1
62
256
6
ByLayer
370
18
48
1
60
0
100
AcDbSpline
70
4
71
3
72
46
73
42
40
0
40
0
40
0
40
0
40
0.124999999999974
40
0.124999999999974
40
0.156249999999967
40
0.156249999999967
40
0.187499999999961
40
0.187499999999961
40
0.249999999999948
40
0.249999999999948
40
0.312499999999935
40
0.312499999999935
40
0.343749999999935
40
0.343749999999935
40
0.374999999999935
40
0.374999999999935
40
0.437499999999947
40
0.437499999999947
40
0.468749999999947
40
0.468749999999947
40
0.499999999999947
40
0.499999999999947
40
0.562499999999947
40
0.562499999999947
40
0.593749999999946
40
0.593749999999946
40
0.624999999999946
40
0.624999999999946
40
0.687499999999957
40
0.687499999999957
40
0.718749999999958
40
0.718749999999958
40
0.749999999999958
40
0.749999999999958
40
0.874999999999978
40
0.874999999999978
40
0.906249999999985
40
0.906249999999985
40
0.937499999999992
40
0.937499999999992
40
1
40
1
40
1
40
1
41
1
10
42.9449169890898
20
0.0475514108258892
30
0
41
1
10
42.9257964699672
20
-0.0154916137570069
30
0
41
1
10
42.9038135210101
20
-0.0770933352218321
30
0
41
1
10
42.8726220900921
20
-0.152164357956139
30
0
41
1
10
42.8661957261884
20
-0.167080727628814
30
0
41
1
10
42.8529518408743
20
-0.196708425362544
30
0
41
1
10
42.8461455232802
20
-0.211389470693121
30
0
41
1
10
42.8254631955281
20
-0.254407405620128
30
0
41
1
10
42.8112241716847
20
-0.281953526100807
30
0
41
1
10
42.781865358342
20
-0.334710404269003
30
0
41
1
10
42.7667461735155
20
-0.359922695205199
30
0
41
1
10
42.74337292863
20
-0.395834519870419
30
0
41
1
10
42.7354258974448
20
-0.407539112749902
30
0
41
1
10
42.7195786122076
20
-0.429863462911811
30
0
41
1
10
42.7116601451449
20
-0.440516490111492
30
0
41
1
10
42.6879204226345
20
-0.47096586483849
30
0
41
1
10
42.6721157790914
20
-0.489259927034112
30
0
41
1
10
42.6484257954315
20
-0.51363033000672
30
0
41
1
10
42.6405317384638
20
-0.521240196854876
30
0
41
1
10
42.6247431854602
20
-0.535398678948326
30
0
41
1
10
42.616896204315
20
-0.541900141445353
30
0
41
1
10
42.5937752644957
20
-0.559472701710945
30
0
41
1
10
42.5787991881055
20
-0.568730769301339
30
0
41
1
10
42.5569057480279
20
-0.57907672417997
30
0
41
1
10
42.5497032813918
20
-0.581933032519032
30
0
41
1
10
42.5354769369932
20
-0.586461165620335
30
0
41
1
10
42.5284624314434
20
-0.588124520096983
30
0
41
1
10
42.5079902459174
20
-0.591308451466887
30
0
41
1
10
42.4949861622285
20
-0.591071591602031
30
0
41
1
10
42.4762925149145
20
-0.587453087694428
30
0
41
1
10
42.4701973100389
20
-0.585701062576476
30
0
41
1
10
42.4582592598278
20
-0.581130966236884
30
0
41
1
10
42.4524029704693
20
-0.578301917666664
30
0
41
1
10
42.4240680627243
20
-0.561767495027169
30
0
41
1
10
42.4041066584315
20
-0.540946841845511
30
0
41
1
10
42.3815212697181
20
-0.507114945048983
30
0
41
1
10
42.3771253420343
20
-0.499952256980123
30
0
41
1
10
42.368560037756
20
-0.484855775778669
30
0
41
1
10
42.3643907944613
20
-0.47691946692467
30
0
41
1
10
42.3522867913519
20
-0.452164239603349
30
0
41
1
10
42.3447221351502
20
-0.434348310873418
30
0
41
1
10
42.337594871828
20
-0.415322894857582
30
0
0
SPLINE
5
EC
100
AcDbEntity
8
1
62
256
6
ByLayer
370
18
48
1
60
0
100
AcDbSpline
70
4
71
3
72
9
73
5
40
0
40
0
40
0
40
0
40
0.5
40
1
40
1
40
1
40
1
41
1
10
42.3375948718281
20
-0.415322894857411
30
0
41
1
10
42.2719130688791
20
-0.239992818042026
30
0
41
1
10
42.1236223869441
20
0.121818077491611
30
0
41
1
10
41.9416009712043
20
0.505849154822982
30
0
41
1
10
41.8422858193682
20
0.703335260945892
30
0
0
SPLINE
5
ED
100
AcDbEntity
8
1
62
256
6
ByLayer
370
18
48
1
60
0
100
AcDbSpline
70
4
71
3
72
26
73
22
40
0
40
0
40
0
40
0
40
0.0624999999999945
40
0.0624999999999945
40
0.124999999999989
40
0.124999999999989
40
0.249999999999978
40
0.249999999999978
40
0.31249999999998
40
0.31249999999998
40
0.374999999999982
40
0.374999999999982
40
0.437499999999983
40
0.437499999999983
40
0.499999999999985
40
0.499999999999985
40
0.749999999999992
40
0.749999999999992
40
0.874999999999996
40
0.874999999999996
40
1
40
1
40
1
40
1
41
1
10
41.8422858193682
20
0.703335260945892
30
0
41
1
10
41.8275245783846
20
0.705104660892516
30
0
41
1
10
41.8127403576701
20
0.706526578305471
30
0
41
1
10
41.7831336808678
20
0.708427624497148
30
0
41
1
10
41.7683120702415
20
0.70892871259619
30
0
41
1
10
41.7238170457187
20
0.709058628158061
30
0
41
1
10
41.6941161467582
20
0.707372977498466
30
0
41
1
10
41.6496044634678
20
0.702678141920728
30
0
41
1
10
41.634773536772
20
0.700750595393231
30
0
41
1
10
41.6051373366791
20
0.696219866695884
30
0
41
1
10
41.5903322620191
20
0.693595585489305
30
0
41
1
10
41.5607583769166
20
0.687942500358503
30
0
41
1
10
41.5459888523897
20
0.684946263601461
30
0
41
1
10
41.5164953363376
20
0.678312215259268
30
0
41
1
10
41.5017717056929
20
0.674663409026806
30
0
41
1
10
41.4283013594593
20
0.654658070601783
30
0
41
1
10
41.3700035592087
20
0.632882083100526
30
0
41
1
10
41.2838665728702
20
0.592105549690899
30
0
41
1
10
41.2553266465353
20
0.577115101398448
30
0
41
1
10
41.1990869476188
20
0.544731686629262
30
0
41
1
10
41.1713488271251
20
0.527467123448019
30
0
41
1
10
41.1440863834861
20
0.508834782937157
30
0
0
SPLINE
5
EE
100
AcDbEntity
8
1
62
256
6
ByLayer
370
18
48
1
60
0
100
AcDbSpline
70
4
71
3
72
78
73
74
40
0
40
0
40
0
40
0
40
0.0219365595819204
40
0.0219365595819204
40
0.0438731191638407
40
0.0438731191638407
40
0.0658096787457611
40
0.0658096787457611
40
0.0877462383276814
40
0.0877462383276814
40
0.109682797909602
40
0.109682797909602
40
0.131619357491522
40
0.131619357491522
40
0.175492476655363
40
0.175492476655363
40
0.197429036237282
40
0.197429036237282
40
0.219365595819202
40
0.219365595819202
40
0.263238714983042
40
0.263238714983042
40
0.285175274564962
40
0.285175274564962
40
0.307111834146882
40
0.307111834146882
40
0.329048393728801
40
0.329048393728801
40
0.350984953310721
40
0.350984953310721
40
0.39485807247456
40
0.39485807247456
40
0.438731191638399
40
0.438731191638399
40
0.460667751220318
40
0.460667751220318
40
0.482604310802236
40
0.482604310802236
40
0.504540870384155
40
0.504540870384155
40
0.526477429966074
40
0.526477429966074
40
0.570350549129912
40
0.570350549129912
40
0.592287108711831
40
0.592287108711831
40
0.61422366829375
40
0.61422366829375
40
0.636160227875669
40
0.636160227875669
40
0.658096787457587
40
0.658096787457587
40
0.701969906621425
40
0.701969906621425
40
0.745843025785261
40
0.745843025785261
40
0.767779585367179
40
0.767779585367179
40
0.789716144949097
40
0.789716144949097
40
0.833589264112932
40
0.833589264112932
40
0.85552582369485
40
0.85552582369485
40
0.877462383276768
40
0.877462383276768
40
0.921335502440604
40
0.921335502440604
40
0.943272062022523
40
0.943272062022523
40
0.965208621604442
40
0.965208621604442
40
1
40
1
40
1
40
1
41
1
10
17.7999999999999
20
3.64037588892242
30
0
41
1
10
17.924584043232
20
3.65726770122996
30
0
41
1
10
18.049126574354
20
3.67244829277982
30
0
41
1
10
18.2982884483298
20
3.69917682733876
30
0
41
1
10
18.422907827672
20
3.71072829478453
30
0
41
1
10
18.6721520038697
20
3.73016744322371
30
0
41
1
10
18.7967959011499
20
3.73806647739659
30
0
41
1
10
19.0460037074354
20
3.75023039009813
30
0
41
1
10
19.1705648781169
20
3.75449145954829
30
0
41
1
10
19.419688422658
20
3.75935973319889
30
0
41
1
10
19.5442381247402
20
3.75998611274892
30
0
41
1
10
19.793389956383
20
3.75762045795514
30
0
41
1
10
19.9180084182445
20
3.75460610669648
30
0
41
1
10
20.2918620366574
20
3.74008488980141
30
0
41
1
10
20.541123503418
20
3.72312107308139
30
0
41
1
10
20.9149837911107
20
3.68698431960988
30
0
41
1
10
21.0396191864935
20
3.67314814107226
30
0
41
1
10
21.2885332525915
20
3.64199884390698
30
0
41
1
10
21.4128736584219
20
3.62467416817125
30
0
41
1
10
21.7857247020116
20
3.56747309045252
30
0
41
1
10
22.0340560817074
20
3.52237380147926
30
0
41
1
10
22.4066604102706
20
3.4444813141204
30
0
41
1
10
22.530887753555
20
3.41680958346402
30
0
41
1
10
22.7794378036638
20
3.35815131367102
30
0
41
1
10
22.903745160292
20
3.32717240626749
30
0
41
1
10
23.1525891640534
20
3.26194813686075
30
0
41
1
10
23.2771805451235
20
3.22768766968903
30
0
41
1
10
23.5263915456803
20
3.15606769807812
30
0
41
1
10
23.6508754863165
20
3.11875043393056
30
0
41
1
10
24.0240649260235
20
3.00245678216157
30
0
41
1
10
24.272515068372
20
2.91914527559908
30
0
41
1
10
24.7692442826713
20
2.74171776352159
30
0
41
1
10
25.0176091854282
20
2.64761454553403
30
0
41
1
10
25.390594173432
20
2.498921768299
30
0
41
1
10
25.5149928932606
20
2.44809885432255
30
0
41
1
10
25.7640189796793
20
2.34402163668417
30
0
41
1
10
25.8886715659607
20
2.29075529530488
30
0
41
1
10
26.1376358462527
20
2.18212250299575
30
0
41
1
10
26.262043034002
20
2.12673851940346
30
0
41
1
10
26.5108298954273
20
2.01396336894726
30
0
41
1
10
26.6352103956703
20
1.95657293833136
30
0
41
1
10
27.0084101078153
20
1.78160835239854
30
0
41
1
10
27.2573051566563
20
1.66125983082472
30
0
41
1
10
27.6311429090078
20
1.47593906386908
30
0
41
1
10
27.7557392258857
20
1.41339920838874
30
0
41
1
10
28.0049633031915
20
1.28704849201645
30
0
41
1
10
28.1295993655191
20
1.22322636581143
30
0
41
1
10
28.3788709985247
20
1.09448739141021
30
0
41
1
10
28.5035340806903
20
1.02954952741592
30
0
41
1
10
28.7527362417846
20
0.898797419682865
30
0
41
1
10
28.8772091853541
20
0.833024232898538
30
0
41
1
10
29.2503508073547
20
0.634709990352519
30
0
41
1
10
29.4986847121004
20
0.501073521500217
30
0
41
1
10
29.9954599224278
20
0.232665714509437
30
0
41
1
10
30.2438474386485
20
0.0978066995653819
30
0
41
1
10
30.616868931473
20
-0.1046385545813
30
0
41
1
10
30.7412761162541
20
-0.172158528671218
30
0
41
1
10
30.9902882018225
20
-0.307155187844444
30
0
41
1
10
31.1149696052365
20
-0.374628396532728
30
0
41
1
10
31.4879325931404
20
-0.57575734586851
30
0
41
1
10
31.7356300749192
20
-0.708409831132002
30
0
41
1
10
32.1061901328378
20
-0.904546276112171
30
0
41
1
10
32.2295543640708
20
-0.969428243347465
30
0
41
1
10
32.4759915175188
20
-1.09821064876246
30
0
41
1
10
32.5990762519105
20
-1.16208087463548
30
0
41
1
10
32.9681190557097
20
-1.3517196356068
30
0
41
1
10
33.2138578691445
20
-1.47553370701911
30
0
41
1
10
33.5824789819368
20
-1.65655248170617
30
0
41
1
10
33.705359419736
20
-1.7161015115264
30
0
41
1
10
33.951182459697
20
-1.83358227553128
30
0
41
1
10
34.074103247055
20
-1.89156345036381
30
0
41
1
10
34.3921917943366
20
-2.03917103930479
30
0
41
1
10
34.5874855689128
20
-2.12744136710458
30
0
41
1
10
34.7831107568889
20
-2.21327225562524
30
0
0
SPLINE
5
EF
100
AcDbEntity
8
1
62
256
6
ByLayer
370
18
48
1
60
0
100
AcDbSpline
70
4
71
3
72
24
73
20
40
0
40
0
40
0
40
0
40
0.500000000000025
40
0.500000000000025
40
0.750000000000012
40
0.750000000000012
40
0.875000000000005
40
0.875000000000005
40
0.937499999999976
40
0.937499999999976
40
0.968749999999962
40
0.968749999999962
40
0.984374999999955
40
0.984374999999955
40
0.992187499999951
40
0.992187499999951
40
0.996093749999976
40
0.996093749999976
40
1
40
1
40
1
40
1
41
1
10
41.5640221758691
20
-3.9499487201129
30
0
41
1
10
41.5784521197951
20
-3.91715713780292
30
0
41
1
10
41.5931676478426
20
-3.88436492788034
30
0
41
1
10
41.6156657545972
20
-3.83516457724952
30
0
41
1
10
41.6232379024416
20
-3.81875486446995
30
0
41
1
10
41.6346942517987
20
-3.79416481878732
30
0
41
1
10
41.6385249777499
20
-3.78598981501978
30
0
41
1
10
41.6443065723792
20
-3.77368950374458
30
0
41
1
10
41.6462404161656
20
-3.76958020639998
30
0
41
1
10
41.6491548659129
20
-3.76338711154241
30
0
41
1
10
41.6501309503602
20
-3.76130856069025
30
0
41
1
10
41.6515854923963
20
-3.75823570247635
30
0
41
1
10
41.6520616473578
20
-3.75724683309758
30
0
41
1
10
41.6527816396829
20
-3.75574246944967
30
0
41
1
10
41.6530339162319
20
-3.75519088569743
30
0
41
1
10
41.6534110736297
20
-3.75436868001506
30
0
41
1
10
41.6535462731214
20
-3.75407513218627
30
0
41
1
10
41.6536972888198
20
-3.75386562594903
30
0
41
1
10
41.6536788137047
20
-3.7540151184584
30
0
41
1
10
41.6536387856407
20
-3.75420098014101
30
0
0
SPLINE
5
F0
100
AcDbEntity
8
1
62
256
6
ByLayer
370
18
48
1
60
0
100
AcDbSpline
70
4
71
3
72
72
73
68
40
0
40
0
40
0
40
0
40
0.0156249999999993
40
0.0156249999999993
40
0.0312499999999986
40
0.0312499999999986
40
0.0624999999999973
40
0.0624999999999973
40
0.0781249999999969
40
0.0859374999999967
40
0.0859374999999967
40
0.0937499999999965
40
0.0937499999999965
40
0.124999999999996
40
0.124999999999996
40
0.187499999999994
40
0.187499999999994
40
0.249999999999993
40
0.249999999999993
40
0.281249999999993
40
0.281249999999993
40
0.289062499999992
40
0.289062499999992
40
0.296874999999992
40
0.296874999999992
40
0.312499999999992
40
0.343749999999993
40
0.343749999999993
40
0.374999999999994
40
0.374999999999994
40
0.437499999999995
40
0.437499999999995
40
0.468749999999996
40
0.468749999999996
40
0.484374999999996
40
0.484374999999996
40
0.499999999999996
40
0.499999999999996
40
0.562499999999992
40
0.562499999999992
40
0.578124999999991
40
0.585937499999991
40
0.585937499999991
40
0.593749999999992
40
0.593749999999992
40
0.624999999999991
40
0.624999999999991
40
0.68749999999999
40
0.68749999999999
40
0.749999999999989
40
0.749999999999989
40
0.781249999999989
40
0.781249999999989
40
0.812499999999988
40
0.812499999999988
40
0.843749999999988
40
0.843749999999988
40
0.874999999999987
40
0.874999999999987
40
0.882812499999988
40
0.882812499999988
40
0.890624999999988
40
0.890624999999988
40
0.906249999999991
40
0.937499999999994
40
0.937499999999994
40
1
40
1
40
1
40
1
41
1
10
17.8
20
3.77806899147583
30
0
41
1
10
17.9246227616584
20
3.7979580299893
30
0
41
1
10
18.0492829222828
20
3.81602091858491
30
0
41
1
10
18.298366796977
20
3.84839459990786
30
0
41
1
10
18.422809203857
20
3.86270976615359
30
0
41
1
10
18.7959870647469
20
3.90000491703856
30
0
41
1
10
19.0445807933142
20
3.91733077319205
30
0
41
1
10
19.417760021907
20
3.93191759513178
30
0
41
1
10
19.6044148258198
20
3.93636242068092
30
0
41
1
10
19.7912537974249
20
3.93651746084888
30
0
41
1
10
19.915864303537
20
3.93566520234177
30
0
41
1
10
19.9782005482227
20
3.93476056074633
30
0
41
1
10
20.2893894435266
20
3.92786291448684
30
0
41
1
10
20.5372781134369
20
3.91474595557054
30
0
41
1
10
21.2788185613049
20
3.85322328763655
30
0
41
1
10
21.7703374930507
20
3.78260719125291
30
0
41
1
10
22.7537056401281
20
3.58605403627689
30
0
41
1
10
23.2454615802075
20
3.46013863400458
30
0
41
1
10
23.9866763323619
20
3.23192022515525
30
0
41
1
10
24.2343567443294
20
3.14929024560098
30
0
41
1
10
24.5451683325217
20
3.03808262995565
30
0
41
1
10
24.6073914201942
20
3.01544536571046
30
0
41
1
10
24.7319712195152
20
2.96938740184211
30
0
41
1
10
24.7942307936138
20
2.94600239408146
30
0
41
1
10
24.9807537471121
20
2.87487421707846
30
0
41
1
10
25.3530097931887
20
2.72863897345454
30
0
41
1
10
25.7233379381906
20
2.57112941537142
30
0
41
1
10
26.2161704869571
20
2.35228928655931
30
0
41
1
10
26.4621299175427
20
2.23847464169862
30
0
41
1
10
27.1996243324618
20
1.88541959609981
30
0
41
1
10
27.6906594224721
20
1.63440105632452
30
0
41
1
10
28.4300250136386
20
1.24020728448247
30
0
41
1
10
28.676959859952
20
1.10588015935127
30
0
41
1
10
29.0486316995275
20
0.900858144493185
30
0
41
1
10
29.1727343714716
20
0.831929854575549
30
0
41
1
10
29.4214599878899
20
0.693051671435029
30
0
41
1
10
29.5461579926393
20
0.623060757003174
30
0
41
1
10
30.1684760654457
20
0.272462635268767
30
0
41
1
10
30.6645291449452
20
-0.0112674435832218
30
0
41
1
10
31.2858025597682
20
-0.363887407916053
30
0
41
1
10
31.4722779743645
20
-0.469515148824399
30
0
41
1
10
31.6589911188709
20
-0.574733106175387
30
0
41
1
10
31.7835302348704
20
-0.644768177176474
30
0
41
1
10
31.8458482947555
20
-0.679739829578665
30
0
41
1
10
32.1571902228594
20
-0.854030130851697
30
0
41
1
10
32.4057559338587
20
-0.991805998756661
30
0
41
1
10
33.1509889829662
20
-1.39839640969078
30
0
41
1
10
33.6472143815623
20
-1.66044223429375
30
0
41
1
10
34.6437753164613
20
-2.15762080462795
30
0
41
1
10
35.1375315712271
20
-2.38944253612559
30
0
41
1
10
35.875853925907
20
-2.70635847967543
30
0
41
1
10
36.1215828753718
20
-2.80686343290881
30
0
41
1
10
36.6130284725252
20
-2.99674848349164
30
0
41
1
10
36.8587551910919
20
-3.08612153394748
30
0
41
1
10
37.3507372685895
20
-3.25313323842238
30
0
41
1
10
37.5969891214534
20
-3.33077375634181
30
0
41
1
10
38.0906267895031
20
-3.4735700361604
30
0
41
1
10
38.3380132951322
20
-3.53872326855256
30
0
41
1
10
38.6484021337062
20
-3.61181933384864
30
0
41
1
10
38.7105379030479
20
-3.62602110937269
30
0
41
1
10
38.8349374068804
20
-3.65357577939855
30
0
41
1
10
38.8972347028163
20
-3.66693531078298
30
0
41
1
10
39.0839351980784
20
-3.70563806616133
30
0
41
1
10
39.4568199554171
20
-3.77760217953411
30
0
41
1
10
39.8285946102834
20
-3.83308210897471
30
0
41
1
10
40.5718104698343
20
-3.92172089498652
30
0
41
1
10
41.0668748332526
20
-3.95108279351584
30
0
41
1
10
41.5640221758665
20
-3.94994872009963
30
0
0
SPLINE
5
F1
100
AcDbEntity
8
1
62
256
6
ByLayer
370
18
48
1
60
0
100
AcDbSpline
70
4
71
3
72
164
73
160
40
0
40
0
40
0
40
0
40
0.00785823598506
40
0.00785823598506
40
0.0181980005620579
40
0.0181980005620579
40
0.0285377651390558
40
0.0285377651390558
40
0.0388775297160537
40
0.0388775297160537
40
0.0492172942930516
40
0.0492172942930516
40
0.0698968234470474
40
0.0698968234470474
40
0.0905763526010431
40
0.0905763526010431
40
0.100916117178041
40
0.100916117178041
40
0.111255881755039
40
0.111255881755039
40
0.121595646332037
40
0.121595646332037
40
0.131935410909035
40
0.131935410909035
40
0.152614940063031
40
0.152614940063031
40
0.173294469217026
40
0.173294469217026
40
0.193973998371022
40
0.193973998371022
40
0.20431376294802
40
0.20431376294802
40
0.214653527525018
40
0.214653527525018
40
0.224993292102016
40
0.224993292102016
40
0.235333056679014
40
0.235333056679014
40
0.25601258583301
40
0.25601258583301
40
0.266352350410008
40
0.266352350410008
40
0.276692114987006
40
0.276692114987006
40
0.287031879564004
40
0.287031879564004
40
0.297371644141002
40
0.297371644141002
40
0.307711408717999
40
0.307711408717999
40
0.318051173294997
40
0.318051173294997
40
0.328390937871995
40
0.328390937871995
40
0.338730702448993
40
0.338730702448993
40
0.349070467025991
40
0.349070467025991
40
0.359410231602989
40
0.359410231602989
40
0.369749996179987
40
0.369749996179987
40
0.380089760756985
40
0.380089760756985
40
0.400769289910981
40
0.400769289910981
40
0.411109054487979
40
0.411109054487979
40
0.421448819064977
40
0.421448819064977
40
0.431788583641974
40
0.431788583641974
40
0.442128348218972
40
0.442128348218972
40
0.45246811279597
40
0.45246811279597
40
0.462807877372968
40
0.462807877372968
40
0.483487406526963
40
0.483487406526963
40
0.493827171103961
40
0.493827171103961
40
0.504166935680959
40
0.504166935680959
40
0.514506700257956
40
0.514506700257956
40
0.524846464834954
40
0.524846464834954
40
0.545525993988948
40
0.545525993988948
40
0.555865758565946
40
0.555865758565946
40
0.566205523142943
40
0.566205523142943
40
0.57654528771994
40
0.57654528771994
40
0.586885052296937
40
0.586885052296937
40
0.607564581450932
40
0.607564581450932
40
0.617904346027929
40
0.617904346027929
40
0.628244110604927
40
0.628244110604927
40
0.638583875181925
40
0.638583875181925
40
0.648923639758922
40
0.648923639758922
40
0.669603168912917
40
0.669603168912917
40
0.690282698066913
40
0.690282698066913
40
0.70062246264391
40
0.70062246264391
40
0.710962227220908
40
0.710962227220908
40
0.721301991797905
40
0.721301991797905
40
0.731641756374903
40
0.731641756374903
40
0.752321285528899
40
0.752321285528899
40
0.773000814682896
40
0.773000814682896
40
0.793680343836892
40
0.793680343836892
40
0.80402010841389
40
0.80402010841389
40
0.814359872990887
40
0.814359872990887
40
0.824699637567885
40
0.824699637567885
40
0.835039402144883
40
0.835039402144883
40
0.84537916672188
40
0.84537916672188
40
0.855718931298878
40
0.855718931298878
40
0.876398460452873
40
0.876398460452873
40
0.886738225029871
40
0.886738225029871
40
0.897077989606869
40
0.897077989606869
40
0.907417754183867
40
0.907417754183867
40
0.917757518760866
40
0.917757518760866
40
0.928097283337864
40
0.928097283337864
40
0.938437047914862
40
0.938437047914862
40
0.95911657706886
40
0.95911657706886
40
0.979796106222857
40
0.979796106222857
40
0.990135870799856
40
0.990135870799856
40
1
40
1
40
1
40
1
41
1
10
9.55999793468288
20
3.73240946077314
30
0
41
1
10
9.62990091472349
20
3.73197015960059
30
0
41
1
10
9.69980879821549
20
3.73098071836381
30
0
41
1
10
9.86152122839209
20
3.72744319089415
30
0
41
1
10
9.95331435536269
20
3.72450194161414
30
0
41
1
10
10.1367372030208
20
3.71681730104132
30
0
41
1
10
10.2283602729182
20
3.71209291577068
30
0
41
1
10
10.4115052139712
20
3.70075165876523
30
0
41
1
10
10.5030436783331
20
3.69412404083067
30
0
41
1
10
10.6862375058015
20
3.67882668202526
30
0
41
1
10
10.7778671482811
20
3.67013497185263
30
0
41
1
10
11.0528446673257
20
3.64087393461173
30
0
41
1
10
11.2362718575075
20
3.61718191325906
30
0
41
1
10
11.6033628816219
20
3.56213201888562
30
0
41
1
10
11.7870380424428
20
3.53076105558876
30
0
41
1
10
12.0628312937231
20
3.47835370923795
30
0
41
1
10
12.154797461537
20
3.46002021343546
30
0
41
1
10
12.3385396737667
20
3.42176990848952
30
0
41
1
10
12.4303253788716
20
3.4018288822185
30
0
41
1
10
12.6136800044124
20
3.36033701839071
30
0
41
1
10
12.7052568416092
20
3.33876596753544
30
0
41
1
10
12.8884097735063
20
3.29364945427258
30
0
41
1
10
12.9799862478435
20
3.27011703313926
30
0
41
1
10
13.2547660215884
20
3.19674592436326
30
0
41
1
10
13.4380069941853
20
3.14411373565557
30
0
41
1
10
13.8048954318591
20
3.03230373084963
30
0
41
1
10
13.9886810893716
20
2.97329377492605
30
0
41
1
10
14.3564447080547
20
2.84900162143521
30
0
41
1
10
14.5405850731787
20
2.78368232116375
30
0
41
1
10
14.8159385108296
20
2.68169461027986
30
0
41
1
10
14.9075963161438
20
2.64703122227507
30
0
41
1
10
15.0907793021479
20
2.57632756789798
30
0
41
1
10
15.1823230104878
20
2.54025216782154
30
0
41
1
10
15.3655492840107
20
2.46682048029291
30
0
41
1
10
15.4572302775815
20
2.42950602667165
30
0
41
1
10
15.6405862120059
20
2.35359662954806
30
0
41
1
10
15.7322703152279
20
2.31500629454888
30
0
41
1
10
16.0073309633565
20
2.19737182706405
30
0
41
1
10
16.1906779617712
20
2.11644826876412
30
0
41
1
10
16.4659244500928
20
1.99164189616786
30
0
41
1
10
16.5577164164815
20
1.94947111599023
30
0
41
1
10
16.7414549769298
20
1.86406244612351
30
0
41
1
10
16.8334298623303
20
1.82079164916755
30
0
41
1
10
17.0174492152806
20
1.73350982213239
30
0
41
1
10
17.1094335041809
20
1.68950594620369
30
0
41
1
10
17.2932383969702
20
1.60062242942553
30
0
41
1
10
17.3850658178035
20
1.55575545177317
30
0
41
1
10
17.5685983673964
20
1.46519328281232
30
0
41
1
10
17.6603022530589
20
1.41949571784391
30
0
41
1
10
17.8436520947209
20
1.32735368504194
30
0
41
1
10
17.9353042438645
20
1.28091470701995
30
0
41
1
10
18.1185620588759
20
1.18733854071016
30
0
41
1
10
18.2101667422787
20
1.14020114885531
30
0
41
1
10
18.3932995521356
20
1.04522827400604
30
0
41
1
10
18.4848071536245
20
0.997377333885169
30
0
41
1
10
18.6680023757312
20
0.901331580583758
30
0
41
1
10
18.759706174463
20
0.853127501485233
30
0
41
1
10
18.9433557103568
20
0.756372812102711
30
0
41
1
10
19.0352753994948
20
0.707802951015225
30
0
41
1
10
19.2192325031521
20
0.610221028093235
30
0
41
1
10
19.3113265260386
20
0.561194854641428
30
0
41
1
10
19.4953410274319
20
0.462956185318546
30
0
41
1
10
19.5872812448255
20
0.41373255465021
30
0
41
1
10
19.8629379567013
20
0.265815955234729
30
0
41
1
10
20.046459212392
20
0.166819206013742
30
0
41
1
10
20.3217504773825
20
0.0184512413808591
30
0
41
1
10
20.4134791962803
20
-0.0310518072876107
30
0
41
1
10
20.5967949696879
20
-0.130287464242798
30
0
41
1
10
20.6883884555714
20
-0.180007798824562
30
0
41
1
10
20.8715473821707
20
-0.279460727008711
30
0
41
1
10
20.9631148464505
20
-0.32918954572304
30
0
41
1
10
21.1464148077599
20
-0.42829352763971
30
0
41
1
10
21.2381547090525
20
-0.477654676482501
30
0
41
1
10
21.4217979180135
20
-0.576029822508389
30
0
41
1
10
21.5136916244255
20
-0.625061747841869
30
0
41
1
10
21.6976860695932
20
-0.722699373135896
30
0
41
1
10
21.7898287680686
20
-0.771250247677813
30
0
41
1
10
22.0659939365585
20
-0.91594902285172
30
0
41
1
10
22.2498879694942
20
-1.01136494278657
30
0
41
1
10
22.5253097362192
20
-1.15327633946885
30
0
41
1
10
22.6170499425487
20
-1.2003729692633
30
0
41
1
10
22.8003948237138
20
-1.29418139370475
30
0
41
1
10
22.8919897744727
20
-1.34091968317495
30
0
41
1
10
23.075099203819
20
-1.43388159080897
30
0
41
1
10
23.166613217767
20
-1.48009467769765
30
0
41
1
10
23.3498046153883
20
-1.57145424082677
30
0
41
1
10
23.4415113496317
20
-1.61654630722882
30
0
41
1
10
23.7169254140333
20
-1.7500669380733
30
0
41
1
10
23.9008465588617
20
-1.8369598065693
30
0
41
1
10
24.1771273372107
20
-1.9644382197427
30
0
41
1
10
24.2692250375575
20
-2.00640278197443
30
0
41
1
10
24.4532289492565
20
-2.0891821842286
30
0
41
1
10
24.5451695452722
20
-2.13001287261164
30
0
41
1
10
24.7289405477253
20
-2.21059669764463
30
0
41
1
10
24.8207607124314
20
-2.25036458221186
30
0
41
1
10
25.0043921572214
20
-2.32873666910427
30
0
41
1
10
25.0961994753534
20
-2.36734690904933
30
0
41
1
10
25.3714774568598
20
-2.48157537717699
30
0
41
1
10
25.5548454259918
20
-2.55548433106839
30
0
41
1
10
25.8300106524017
20
-2.66211894828044
30
0
41
1
10
25.9217478774598
20
-2.69697896220859
30
0
41
1
10
26.1052985421256
20
-2.76526428317251
30
0
41
1
10
26.1971195509013
20
-2.79866944453738
30
0
41
1
10
26.3808145228205
20
-2.86417579786792
30
0
41
1
10
26.4726880790837
20
-2.89634822336001
30
0
41
1
10
26.6566209508664
20
-2.95895285869858
30
0
41
1
10
26.7485668521217
20
-2.98929934511878
30
0
41
1
10
27.0243291211044
20
-3.07742179779828
30
0
41
1
10
27.2080552497528
20
-3.13241097529567
30
0
41
1
10
27.5752630429231
20
-3.23576415666028
30
0
41
1
10
27.7587683063147
20
-3.28405484464534
30
0
41
1
10
28.0340145164977
20
-3.3515551023753
30
0
41
1
10
28.1257834045392
20
-3.37321411992826
30
0
41
1
10
28.3094042222626
20
-3.4148753167816
30
0
41
1
10
28.401227083839
20
-3.43489962104832
30
0
41
1
10
28.5848386162945
20
-3.47343778755021
30
0
41
1
10
28.6766249713195
20
-3.49196660880671
30
0
41
1
10
28.8600981799829
20
-3.52768568554248
30
0
41
1
10
28.9518614240159
20
-3.54482746782384
30
0
41
1
10
29.2271618332921
20
-3.59252287423726
30
0
41
1
10
29.410608508742
20
-3.61946435947766
30
0
41
1
10
29.7774938117183
20
-3.66506436060431
30
0
41
1
10
29.9610744708037
20
-3.68369060826694
30
0
41
1
10
30.328092749993
20
-3.71339707078303
30
0
41
1
10
30.5115480724516
20
-3.72446195324377
30
0
41
1
10
30.7866355217818
20
-3.73580797574226
30
0
41
1
10
30.878314628121
20
-3.73871782421742
30
0
41
1
10
31.0616444769543
20
-3.74283473757322
30
0
41
1
10
31.1532673234231
20
-3.74408368667417
30
0
41
1
10
31.336666259555
20
-3.74462396952532
30
0
41
1
10
31.4285159422422
20
-3.74383281562945
30
0
41
1
10
31.6120966822109
20
-3.73989264008287
30
0
41
1
10
31.7038639515079
20
-3.73679508006003
30
0
41
1
10
31.8873258696337
20
-3.72852911162843
30
0
41
1
10
31.9790158727481
20
-3.72336746062601
30
0
41
1
10
32.1623072743529
20
-3.71111742636117
30
0
41
1
10
32.2539142529617
20
-3.70401483234414
30
0
41
1
10
32.528693841244
20
-3.67975514707496
30
0
41
1
10
32.711816482307
20
-3.65955064235939
30
0
41
1
10
32.9867497259666
20
-3.62373598866972
30
0
41
1
10
33.0784484578239
20
-3.61090527794076
30
0
41
1
10
33.2618022583053
20
-3.5835196583935
30
0
41
1
10
33.3534663118207
20
-3.56896362934464
30
0
41
1
10
33.5368452101748
20
-3.53797087470841
30
0
41
1
10
33.6285582171534
20
-3.52153249376434
30
0
41
1
10
33.812160397197
20
-3.48663365988875
30
0
41
1
10
33.9039303910698
20
-3.46818860420183
30
0
41
1
10
34.087354559128
20
-3.42941100389226
30
0
41
1
10
34.1790231534318
20
-3.40907720246219
30
0
41
1
10
34.3622979761983
20
-3.36660912337402
30
0
41
1
10
34.453901480206
20
-3.34447366022266
30
0
41
1
10
34.7288193892581
20
-3.27561542949411
30
0
41
1
10
34.9121066797837
20
-3.22633431319008
30
0
41
1
10
35.2784701878554
20
-3.12112033195984
30
0
41
1
10
35.4615571045688
20
-3.06522157992416
30
0
41
1
10
35.7361975771242
20
-2.97663545065009
30
0
41
1
10
35.8277575966711
20
-2.94630256711358
30
0
41
1
10
36.0068119720922
20
-2.88542562351833
30
0
41
1
10
36.0943667912179
20
-2.8549541390428
30
0
41
1
10
36.1819626132813
20
-2.82382795945543
30
0
0
SPLINE
5
F2
100
AcDbEntity
8
1
62
256
6
ByLayer
370
13
48
1
60
0
100
AcDbSpline
70
4
71
3
72
21
73
17
40
0
40
0
40
0
40
0
40
0.106261781832523
40
0.266386864938768
40
0.266386864938768
40
0.426511948045014
40
0.426511948045014
40
0.506574489598136
40
0.506574489598136
40
0.586637031151259
40
0.666699572704381
40
0.666699572704381
40
0.746762114257504
40
0.746762114257504
40
0.906887197363749
40
1
40
1
40
1
40
1
41
1
10
3.75050570964052
20
3.7293128838073
30
0
41
1
10
3.75049938622925
20
3.7293422559963
30
0
41
1
10
3.75048436847092
20
3.72278924156586
30
0
41
1
10
3.75047096963638
20
3.69987884586374
30
0
41
1
10
3.75045541752905
20
3.66044684620948
30
0
41
1
10
3.75044792043391
20
3.6347877144475
30
0
41
1
10
3.75043653148123
20
3.58706741823155
30
0
41
1
10
3.75043272963072
20
3.56970070089244
30
0
41
1
10
3.7504250219749
20
3.53212265700057
30
0
41
1
10
3.75041720653195
20
3.49168382458021
30
0
41
1
10
3.75040895708202
20
3.4455325779185
30
0
41
1
10
3.75040037542655
20
3.39650865846099
30
0
41
1
10
3.75039591493672
20
3.37053881513717
30
0
41
1
10
3.75038194625873
20
3.2888210781903
30
0
41
1
10
3.75036594210039
20
3.19441927518349
30
0
41
1
10
3.7503467728416
20
3.08711169155015
30
0
41
1
10
3.75033919975471
20
3.04589151257531
30
0
0
SPLINE
5
F3
100
AcDbEntity
8
1
62
256
6
ByLayer
370
18
48
1
60
0
100
AcDbSpline
70
4
71
3
72
56
73
52
40
0
40
0
40
0
40
0
40
0.0659587074354596
40
0.0659587074354596
40
0.131917414870919
40
0.131917414870919
40
0.164896768588649
40
0.164896768588649
40
0.197876122306379
40
0.197876122306379
40
0.230855476024108
40
0.230855476024108
40
0.263834829741838
40
0.263834829741838
40
0.296814183459568
40
0.296814183459568
40
0.329793537177298
40
0.329793537177298
40
0.362772890895028
40
0.362772890895028
40
0.395752244612757
40
0.395752244612757
40
0.428731598330487
40
0.428731598330487
40
0.461710952048217
40
0.461710952048217
40
0.494690305765947
40
0.494690305765947
40
0.527669659483677
40
0.527669659483677
40
0.560649013201406
40
0.560649013201406
40
0.593628366919136
40
0.593628366919136
40
0.659587074354594
40
0.659587074354594
40
0.725545781790052
40
0.725545781790052
40
0.75852513550778
40
0.75852513550778
40
0.791504489225508
40
0.791504489225508
40
0.824483842943235
40
0.824483842943235
40
0.857463196660963
40
0.857463196660963
40
0.923421904096419
40
0.923421904096419
40
0.989380611531875
40
0.989380611531875
40
1
40
1
40
1
40
1
41
1
10
5.91378079601682
20
-3.24464165924982
30
0
41
1
10
6.09784707704574
20
-3.29368131964316
30
0
41
1
10
6.2817461139862
20
-3.33909596081725
30
0
41
1
10
6.64933975090895
20
-3.4228867413301
30
0
41
1
10
6.83297980333822
20
-3.46133719199108
30
0
41
1
10
7.10862267027017
20
-3.51341280048882
30
0
41
1
10
7.20058018404674
20
-3.52982743830279
30
0
41
1
10
7.38436874051661
20
-3.56071012294873
30
0
41
1
10
7.476214830695
20
-3.57519370248974
30
0
41
1
10
7.6598046210953
20
-3.60235290366938
30
0
41
1
10
7.75154445296656
20
-3.61503755369401
30
0
41
1
10
7.93489154137174
20
-3.63868189743249
30
0
41
1
10
8.02650275690897
20
-3.64962304541248
30
0
41
1
10
8.20966672513708
20
-3.66957005768646
30
0
41
1
10
8.30121899772189
20
-3.67857449833031
30
0
41
1
10
8.48435330589257
20
-3.69446156319893
30
0
41
1
10
8.57593540333608
20
-3.70135337580643
30
0
41
1
10
8.75917088092353
20
-3.71306945465349
30
0
41
1
10
8.85081855037134
20
-3.71789372741853
30
0
41
1
10
9.03431749596189
20
-3.72550907059986
30
0
41
1
10
9.12615062617061
20
-3.72830562759739
30
0
41
1
10
9.30989551174343
20
-3.73194185216141
30
0
41
1
10
9.40181609084809
20
-3.73277995221855
30
0
41
1
10
9.5857411937379
20
-3.73254140192174
30
0
41
1
10
9.67775725371766
20
-3.73146310518047
30
0
41
1
10
9.86152122839152
20
-3.72744319089418
30
0
41
1
10
9.95331435536212
20
-3.72450194161416
30
0
41
1
10
10.1367372030202
20
-3.71681730104135
30
0
41
1
10
10.2283602729177
20
-3.71209291577071
30
0
41
1
10
10.4115052139707
20
-3.70075165876528
30
0
41
1
10
10.5030436783325
20
-3.6941240408307
30
0
41
1
10
10.6862375058009
20
-3.67882668202532
30
0
41
1
10
10.7778671482805
20
-3.67013497185269
30
0
41
1
10
11.0528446673251
20
-3.64087393461182
30
0
41
1
10
11.236271857507
20
-3.61718191325915
30
0
41
1
10
11.6033628816214
20
-3.56213201888571
30
0
41
1
10
11.7870380424422
20
-3.53076105558884
30
0
41
1
10
12.0628312937226
20
-3.47835370923806
30
0
41
1
10
12.1547974615365
20
-3.46002021343557
30
0
41
1
10
12.3385396737662
20
-3.42176990848964
30
0
41
1
10
12.4303253788711
20
-3.40182888221864
30
0
41
1
10
12.6136800044119
20
-3.36033701839082
30
0
41
1
10
12.7052568416086
20
-3.33876596753555
30
0
41
1
10
12.8884097735058
20
-3.2936494542727
30
0
41
1
10
12.979986247843
20
-3.2701170331394
30
0
41
1
10
13.2547660215879
20
-3.1967459243634
30
0
41
1
10
13.4380069941848
20
-3.14411373565571
30
0
41
1
10
13.8048954318586
20
-3.0323037308498
30
0
41
1
10
13.9886810893711
20
-2.97329377492619
30
0
41
1
10
14.2021679719705
20
-2.90114214536769
30
0
41
1
10
14.231779747299
20
-2.89105433886104
30
0
41
1
10
14.2613947609956
20
-2.88088636831327
30
0
0
SPLINE
5
F4
100
AcDbEntity
8
1
62
256
6
ByLayer
370
18
48
1
60
0
100
AcDbSpline
70
4
71
3
72
62
73
58
40
0
40
0
40
0
40
0
40
0.0155265941541995
40
0.0155265941541995
40
0.0436544057497946
40
0.0436544057497946
40
0.0717822173453892
40
0.0717822173453892
40
0.0999100289409839
40
0.0999100289409839
40
0.156165652132173
40
0.156165652132173
40
0.18429346372777
40
0.18429346372777
40
0.212421275323366
40
0.212421275323366
40
0.240549086918962
40
0.240549086918962
40
0.268676898514559
40
0.268676898514559
40
0.296804710110155
40
0.296804710110155
40
0.324932521705752
40
0.324932521705752
40
0.381188144896944
40
0.381188144896944
40
0.437443768088137
40
0.437443768088137
40
0.465571579683732
40
0.465571579683732
40
0.493699391279326
40
0.493699391279326
40
0.549955014470513
40
0.549955014470513
40
0.606210637661699
40
0.606210637661699
40
0.662466260852885
40
0.662466260852885
40
0.690594072448479
40
0.690594072448479
40
0.718721884044072
40
0.718721884044072
40
0.746849695639665
40
0.746849695639665
40
0.774977507235258
40
0.774977507235258
40
0.803105318830851
40
0.803105318830851
40
0.831233130426444
40
0.831233130426444
40
0.887488753617631
40
0.887488753617631
40
0.943744376808817
40
0.943744376808817
40
0.971872188404409
40
0.971872188404409
40
1
40
1
40
1
40
1
41
1
10
31.368282070175
20
3.74406730517717
30
0
41
1
10
31.4189513957266
20
3.74367848284408
30
0
41
1
10
31.4696378904345
20
3.74295021925948
30
0
41
1
10
31.6120966822109
20
3.7398926400829
30
0
41
1
10
31.7038639515078
20
3.73679508006006
30
0
41
1
10
31.8873258696336
20
3.72852911162843
30
0
41
1
10
31.979015872748
20
3.72336746062601
30
0
41
1
10
32.1623072743528
20
3.7111174263612
30
0
41
1
10
32.2539142529616
20
3.70401483234414
30
0
41
1
10
32.5286938412439
20
3.67975514707496
30
0
41
1
10
32.7118164823069
20
3.65955064235942
30
0
41
1
10
32.9867497259665
20
3.62373598866972
30
0
41
1
10
33.0784484578238
20
3.61090527794079
30
0
41
1
10
33.2618022583052
20
3.58351965839353
30
0
41
1
10
33.3534663118206
20
3.56896362934464
30
0
41
1
10
33.5368452101747
20
3.53797087470841
30
0
41
1
10
33.6285582171533
20
3.52153249376437
30
0
41
1
10
33.8121603971969
20
3.48663365988878
30
0
41
1
10
33.9039303910697
20
3.46818860420186
30
0
41
1
10
34.0873545591279
20
3.42941100389226
30
0
41
1
10
34.1790231534318
20
3.40907720246219
30
0
41
1
10
34.3622979761983
20
3.36660912337402
30
0
41
1
10
34.453901480206
20
3.34447366022269
30
0
41
1
10
34.7288193892581
20
3.27561542949414
30
0
41
1
10
34.9121066797836
20
3.22633431319011
30
0
41
1
10
35.2784701878552
20
3.12112033195984
30
0
41
1
10
35.4615571045687
20
3.06522157992418
30
0
41
1
10
35.7361975771241
20
2.97663545065009
30
0
41
1
10
35.827757596671
20
2.94630256711361
30
0
41
1
10
36.0110272286298
20
2.88399247264516
30
0
41
1
10
36.102810662867
20
2.85201380616044
30
0
41
1
10
36.3782811416222
20
2.75393482609587
30
0
41
1
10
36.5618308675133
20
2.68559744569075
30
0
41
1
10
36.9285360646808
20
2.54341494377852
30
0
41
1
10
37.1117158663305
20
2.46958284522489
30
0
41
1
10
37.4778787571566
20
2.31691208260688
30
0
41
1
10
37.6608414681666
20
2.23804032974721
30
0
41
1
10
37.935408929925
20
2.116616823241
30
0
41
1
10
38.0268967038649
20
2.07556478193268
30
0
41
1
10
38.2099933353721
20
1.99227236989566
30
0
41
1
10
38.3016300425728
20
1.9500351903244
30
0
41
1
10
38.4851131385691
20
1.86444087353945
30
0
41
1
10
38.5769685158995
20
1.82107795199011
30
0
41
1
10
38.7604986635968
20
1.73349943889764
30
0
41
1
10
38.8522221575858
20
1.68926202918939
30
0
41
1
10
39.0356130094088
20
1.5999649781391
30
0
41
1
10
39.127271472387
20
1.55489106965254
30
0
41
1
10
39.3105984188447
20
1.46405698432494
30
0
41
1
10
39.4022976855392
20
1.41834863284106
30
0
41
1
10
39.6774029174446
20
1.28020340814049
30
0
41
1
10
39.860780719328
20
1.18668451337106
30
0
41
1
10
40.2274912318691
20
0.996895381494284
30
0
41
1
10
40.4108273971628
20
0.90063937920641
30
0
41
1
10
40.6859800549465
20
0.754529045942832
30
0
41
1
10
40.7776314180743
20
0.705564752707943
30
0
41
1
10
40.9608830557921
20
0.60739195533003
30
0
41
1
10
41.0525096485142
20
0.558206838852385
30
0
41
1
10
41.1440863834861
20
0.508834782937129
30
0
0
SPLINE
5
F5
100
AcDbEntity
8
1
62
256
6
ByLayer
370
13
48
1
60
0
100
AcDbSpline
70
4
71
3
72
37
73
33
40
0
40
0
40
0
40
0
40
0.107001055861914
40
0.107001055861914
40
0.160501583792872
40
0.160501583792872
40
0.214002111723829
40
0.214002111723829
40
0.321003167585744
40
0.347753431551223
40
0.347753431551223
40
0.374503695516701
40
0.374503695516701
40
0.428004223447659
40
0.428004223447659
40
0.535005279309575
40
0.642006335171492
40
0.642006335171492
40
0.695506863102449
40
0.722257127067928
40
0.722257127067928
40
0.749007391033407
40
0.749007391033407
40
0.856008446895323
40
0.856008446895323
40
0.90950897482628
40
0.90950897482628
40
0.936259238791759
40
0.936259238791759
40
0.963009502757238
40
0.963009502757238
40
1
40
1
40
1
40
1
41
1
10
3.75093137272927
20
-2.25793396261821
30
0
41
1
10
3.75091775523592
20
-2.35491026351693
30
0
41
1
10
3.75090271702456
20
-2.44819734576282
30
0
41
1
10
3.75087866163855
20
-2.58254241020577
30
0
41
1
10
3.75087039258028
20
-2.62639151508316
30
0
41
1
10
3.75085344910559
20
-2.71219517741031
30
0
41
1
10
3.75084476090677
20
-2.75420868884635
30
0
41
1
10
3.7508184222774
20
-2.87645020172207
30
0
41
1
10
3.75079596296121
20
-2.97232682970511
30
0
41
1
10
3.75077341125475
20
-3.06073443734738
30
0
41
1
10
3.75076439157868
20
-3.09549520457244
30
0
41
1
10
3.75075987794369
20
-3.11259191069868
30
0
41
1
10
3.75074638986553
20
-3.16283875767198
30
0
41
1
10
3.75073747640113
20
-3.19492023666933
30
0
41
1
10
3.75071106304023
20
-3.28700283310272
30
0
41
1
10
3.75067672622285
20
-3.39870118039602
30
0
41
1
10
3.75064488698047
20
-3.48866735778949
30
0
41
1
10
3.75062211629228
20
-3.54791437177403
30
0
41
1
10
3.75061100671553
20
-3.57547738088456
30
0
41
1
10
3.75060032953144
20
-3.59990070315342
30
0
41
1
10
3.75059330861464
20
-3.61547723159768
30
0
41
1
10
3.75058984328746
20
-3.62291983297038
30
0
41
1
10
3.7505728191494
20
-3.65823021151294
30
0
41
1
10
3.75056015843768
20
-3.68044584002681
30
0
41
1
10
3.75054248659379
20
-3.7047857433561
30
0
41
1
10
3.75053681485741
20
-3.71139903749199
30
0
41
1
10
3.7505286114561
20
-3.71905225643758
30
0
41
1
10
3.75052592748165
20
-3.72122454756777
30
0
41
1
10
3.75052067741709
20
-3.72479735357732
30
0
41
1
10
3.75051810842086
20
-3.72620083407068
30
0
41
1
10
3.75051211192323
20
-3.72864211166001
30
0
41
1
10
3.75050873261136
20
-3.72933595877854
30
0
41
1
10
3.75050544331788
20
-3.72931262666805
30
0
0
SPLINE
5
F6
100
AcDbEntity
8
1
62
256
6
ByLayer
370
18
48
1
60
0
100
AcDbSpline
70
4
71
3
72
53
73
49
40
0
40
0
40
0
40
0
40
0.0312500000000001
40
0.046875
40
0.046875
40
0.0625
40
0.0625
40
0.125
40
0.125
40
0.1875
40
0.1875
40
0.25
40
0.25
40
0.265624999999999
40
0.265624999999999
40
0.281249999999999
40
0.312499999999999
40
0.343749999999999
40
0.343749999999999
40
0.359374999999999
40
0.359374999999999
40
0.374999999999999
40
0.4375
40
0.4375
40
0.5
40
0.5
40
0.53125
40
0.53125
40
0.562500000000001
40
0.562500000000001
40
0.625000000000002
40
0.625000000000002
40
0.656250000000002
40
0.656250000000002
40
0.671875000000002
40
0.671875000000002
40
0.687500000000002
40
0.750000000000002
40
0.812500000000002
40
0.812500000000002
40
0.875000000000001
40
0.875000000000001
40
0.890625000000001
40
0.890625000000001
40
0.906250000000001
40
0.937500000000001
40
0.937500000000001
40
1
40
1
40
1
40
1
41
1
10
41.1440863834861
20
0.5088347829371
30
0
41
1
10
41.1410193683006
20
0.448646839375016
30
0
41
1
10
41.1378561417873
20
0.358024973340662
30
0
41
1
10
41.1366774246635
20
0.266898248821036
30
0
41
1
10
41.1363142991243
20
0.206035148053132
30
0
41
1
10
41.136344563666
20
0.175514630990165
30
0
41
1
10
41.1374995577283
20
0.0232669161355261
30
0
41
1
10
41.1416140808224
20
-0.0976944014933565
30
0
41
1
10
41.1546940732327
20
-0.33809221240162
30
0
41
1
10
41.1636626014642
20
-0.457528361941087
30
0
41
1
10
41.185166544986
20
-0.69496959266732
30
0
41
1
10
41.1977039664307
20
-0.812974584506236
30
0
41
1
10
41.2149043333973
20
-0.95961529239645
30
0
41
1
10
41.2184201016826
20
-0.988889579302281
30
0
41
1
10
41.2255605551302
20
-1.04712869092086
30
0
41
1
10
41.2364444473745
20
-1.13410606023004
30
0
41
1
10
41.2553158513854
20
-1.27718770860852
30
0
41
1
10
41.2709318310315
20
-1.38968456590499
30
0
41
1
10
41.2827494869867
20
-1.47332625113813
30
0
41
1
10
41.2867100259227
20
-1.50111010026967
30
0
41
1
10
41.2946328872646
20
-1.55629704988525
30
0
41
1
10
41.3144400861902
20
-1.69326772831082
30
0
41
1
10
41.3340606682319
20
-1.82534540597342
30
0
41
1
10
41.3645199010971
20
-2.03060872224714
30
0
41
1
10
41.3792837876571
20
-2.13020936955561
30
0
41
1
10
41.400356095793
20
-2.27506029420474
30
0
41
1
10
41.4072026829009
20
-2.32258404296638
30
0
41
1
10
41.420494801602
20
-2.41609218105253
30
0
41
1
10
41.4269453784308
20
-2.46211334430478
30
0
41
1
10
41.4456105560706
20
-2.59758355154608
30
0
41
1
10
41.4570281622966
20
-2.68368725831635
30
0
41
1
10
41.4726116267976
20
-2.80655826838247
30
0
41
1
10
41.477550496264
20
-2.84646588478887
30
0
41
1
10
41.4845889529339
20
-2.90473937921141
30
0
41
1
10
41.4868757323308
20
-2.92391761649625
30
0
41
1
10
41.491318303915
20
-2.96164359049811
30
0
41
1
10
41.5020935474021
20
-3.05433119903816
30
0
41
1
10
41.5186264406828
20
-3.20672641258042
30
0
41
1
10
41.5302952024865
20
-3.3221005980507
30
0
41
1
10
41.5411466371947
20
-3.4273776041
30
0
41
1
10
41.5461621479408
20
-3.47496820693496
30
0
41
1
10
41.5524830704578
20
-3.52793805288917
30
0
41
1
10
41.5537517337183
20
-3.53821526783275
30
0
41
1
10
41.5563027550189
20
-3.55803869709646
30
0
41
1
10
41.5601512854632
20
-3.58669115647768
30
0
41
1
10
41.564140862697
20
-3.61211308797115
30
0
41
1
10
41.5725177563548
20
-3.65867515588425
30
0
41
1
10
41.578627275865
20
-3.68401663508067
30
0
41
1
10
41.5858798521073
20
-3.70360589195965
30
0
0
SPLINE
5
F7
100
AcDbEntity
8
1
62
256
6
ByLayer
370
13
48
1
60
0
100
AcDbSpline
70
4
71
3
72
47
73
43
40
0
40
0
40
0
40
0
40
0.0132837921487218
40
0.0132837921487218
40
0.0406166516633656
40
0.0406166516633656
40
0.0679495111780094
40
0.0679495111780094
40
0.122615230207298
40
0.122615230207298
40
0.177280949236587
40
0.177280949236587
40
0.286612387295165
40
0.286612387295165
40
0.341278106324454
40
0.341278106324454
40
0.395943825353742
40
0.395943825353742
40
0.45060954438303
40
0.477942403897674
40
0.477942403897674
40
0.491608833654997
40
0.491608833654997
40
0.50527526341232
40
0.50527526341232
40
0.559940982441616
40
0.559940982441616
40
0.614606701470911
40
0.614606701470911
40
0.723938139529504
40
0.723938139529504
40
0.7786038585588
40
0.7786038585588
40
0.833269577588097
40
0.833269577588097
40
0.887935296617393
40
0.887935296617393
40
0.915268156132042
40
0.915268156132042
40
0.942601015646691
40
0.942601015646691
40
1
40
1
40
1
40
1
41
1
10
6.57116609584554
20
1.81140218167184
30
0
41
1
10
6.61932975318874
20
1.78872495529239
30
0
41
1
10
6.66751559850425
20
1.76590582839251
30
0
41
1
10
6.81492487752058
20
1.69571192393107
30
0
41
1
10
6.91432089367456
20
1.64784193127843
30
0
41
1
10
7.1127650737308
20
1.55126369105179
30
0
41
1
10
7.21182440797224
20
1.50254856740446
30
0
41
1
10
7.50858040623609
20
1.35524996103817
30
0
41
1
10
7.70586521309571
20
1.25553321839254
30
0
41
1
10
8.09975356984472
20
1.05386091954358
30
0
41
1
10
8.29633850610134
20
0.951868966402202
30
0
41
1
10
8.8853280030215
20
0.64299606089557
30
0
41
1
10
9.27699168853383
20
0.433270058037181
30
0
41
1
10
9.86485714132675
20
0.116477874767014
30
0
41
1
10
10.0608874623448
20
0.0105408721544791
30
0
41
1
10
10.4535490135857
20
-0.201148452221474
30
0
41
1
10
10.6501739756627
20
-0.30691334307889
30
0
41
1
10
11.044186331655
20
-0.517981121392637
30
0
41
1
10
11.3402768230369
20
-0.675914466423166
30
0
41
1
10
11.6376080416569
20
-0.832591794986826
30
0
41
1
10
11.7865144756457
20
-0.910655885233808
30
0
41
1
10
11.8361815990176
20
-0.936627050014891
30
0
41
1
10
11.9353831544587
20
-0.988353785373391
30
0
41
1
10
11.9849444642472
20
-1.0141235828894
30
0
41
1
10
12.2325663914681
20
-1.14248202400179
30
0
41
1
10
12.4300698090326
20
-1.24359952366473
30
0
41
1
10
12.8242224537393
20
-1.44213100552855
30
0
41
1
10
13.0209031574332
20
-1.5395315802821
30
0
41
1
10
13.610112023781
20
-1.82540575252486
30
0
41
1
10
14.0018262965409
20
-2.00759470152445
30
0
41
1
10
14.589664611861
20
-2.26547143281346
30
0
41
1
10
14.7856528698134
20
-2.34885167679096
30
0
41
1
10
15.1780442166231
20
-2.50990822520291
30
0
41
1
10
15.3744520242998
20
-2.58761910127541
30
0
41
1
10
15.7679891480892
20
-2.73683702663516
30
0
41
1
10
15.9651200148934
20
-2.80834901690898
30
0
41
1
10
16.2616119349101
20
-2.91060874104841
30
0
41
1
10
16.3605748483385
20
-2.94386166097425
30
0
41
1
10
16.5588053205645
20
-3.00864451778554
30
0
41
1
10
16.6581747898165
20
-3.04020520136564
30
0
41
1
10
16.9656867269211
20
-3.13495274603312
30
0
41
1
10
17.1733741601466
20
-3.19478584709938
30
0
41
1
10
17.3806130686536
20
-3.25014511090129
30
0
0
SPLINE
5
F8
100
AcDbEntity
8
1
62
256
6
ByLayer
370
18
48
1
60
0
100
AcDbSpline
70
4
71
3
72
18
73
14
40
0
40
0
40
0
40
0
40
0.157206762004765
40
0.157206762004765
40
0.322687498706012
40
0.322687498706012
40
0.488168235407258
40
0.488168235407258
40
0.81912970880975
40
0.81912970880975
40
0.984610445510996
40
0.984610445510996
40
1
40
1
40
1
40
1
41
1
10
17.3806130697399
20
-3.25014511119144
30
0
41
1
10
17.5681150808357
20
-3.30023210193838
30
0
41
1
10
17.7552499316875
20
-3.34665683034953
30
0
41
1
10
18.1388865632032
20
-3.43424521983007
30
0
41
1
10
18.3353696518414
20
-3.47499286661048
30
0
41
1
10
18.7282382071265
20
-3.547950084414
30
0
41
1
10
18.9246662878711
20
-3.58027304266153
30
0
41
1
10
19.5140914377729
20
-3.66401078069569
30
0
41
1
10
19.9072296601983
20
-3.70231360940858
30
0
41
1
10
20.49925239999
20
-3.73275362844137
30
0
41
1
10
20.6970126453077
20
-3.73839967033871
30
0
41
1
10
20.9137942981766
20
-3.73957736035007
30
0
41
1
10
20.9322455781994
20
-3.73963836470298
30
0
41
1
10
20.9507010829199
20
-3.73966014068156
30
0
0
SPLINE
5
F9
100
AcDbEntity
8
1
62
256
6
ByLayer
370
13
48
1
60
0
100
AcDbSpline
70
4
71
3
72
32
73
28
40
0
40
0
40
0
40
0
40
0.104142949363821
40
0.104142949363821
40
0.142013130943801
40
0.142013130943801
40
0.17988331252378
40
0.17988331252378
40
0.255623675683741
40
0.255623675683741
40
0.407104402003663
40
0.407104402003663
40
0.482844765163625
40
0.482844765163625
40
0.558585128323586
40
0.558585128323586
40
0.710065854643512
40
0.710065854643512
40
0.747936036223493
40
0.747936036223493
40
0.785806217803474
40
0.785806217803474
40
0.861546580963436
40
0.861546580963436
40
0.937286944123398
40
0.937286944123398
40
1
40
1
40
1
40
1
41
1
10
22.2709413225381
20
-3.74731233615094
30
0
41
1
10
21.9984523872206
20
-3.78013382891095
30
0
41
1
10
21.7260475981902
20
-3.8042041502633
30
0
41
1
10
21.3540644855307
20
-3.82483622158989
30
0
41
1
10
21.2548148344533
20
-3.82914749367754
30
0
41
1
10
21.0562030075275
20
-3.83540734306141
30
0
41
1
10
20.9567729841481
20
-3.83736816990995
30
0
41
1
10
20.6590052536247
20
-3.83974385646792
30
0
41
1
10
20.4610969132356
20
-3.83661765970348
30
0
41
1
10
19.8686626325168
20
-3.81327565198777
30
0
41
1
10
19.4753071065667
20
-3.77910469866666
30
0
41
1
10
18.8855737375685
20
-3.70080126304285
30
0
41
1
10
18.6890577923142
20
-3.67015144121197
30
0
41
1
10
18.2960550088875
20
-3.60017994762148
30
0
41
1
10
18.0994892486145
20
-3.5607841042555
30
0
41
1
10
17.5090035349541
20
-3.42960036900968
30
0
41
1
10
17.1142698596821
20
-3.32486165822095
30
0
41
1
10
16.6178885690356
20
-3.17334935499957
30
0
41
1
10
16.5184199637866
20
-3.14199986365424
30
0
41
1
10
16.3200083773868
20
-3.0775565614384
30
0
41
1
10
16.220962533786
20
-3.04443246499071
30
0
41
1
10
15.9242387626282
20
-2.9424424509273
30
0
41
1
10
15.7269747391507
20
-2.87095613900272
30
0
41
1
10
15.333206386288
20
-2.72148220892026
30
0
41
1
10
15.1367077553712
20
-2.643479989795
30
0
41
1
10
14.7779351967125
20
-2.49541087662985
30
0
41
1
10
14.6155690950956
20
-2.42628529079343
30
0
41
1
10
14.4532511679746
20
-2.35525387342943
30
0
0
SPLINE
5
FA
100
AcDbEntity
8
1
62
256
6
ByLayer
370
18
48
1
60
0
100
AcDbSpline
70
4
71
3
72
25
73
21
40
0
40
0
40
0
40
0
40
0.0220512212885896
40
0.0220512212885896
40
0.278461462937572
40
0.278461462937572
40
0.406666583762065
40
0.406666583762065
40
0.534871704586558
40
0.566922984792679
40
0.566922984792679
40
0.5989742649988
40
0.5989742649988
40
0.663076825411042
40
0.663076825411042
40
0.791281946235525
40
0.791281946235525
40
0.919487067060007
40
0.919487067060007
40
1
40
1
40
1
40
1
41
1
10
14.4532511682313
20
-2.35525387354181
30
0
41
1
10
14.4195330613712
20
-2.34049860304572
30
0
41
1
10
14.3858170333009
20
-2.32566109353525
30
0
41
1
10
13.9600688042453
20
-2.13727254723077
30
0
41
1
10
13.5682115029894
20
-1.95291408570068
30
0
41
1
10
12.978749201566
20
-1.66286082543468
30
0
41
1
10
12.7819864944374
20
-1.56389941852322
30
0
41
1
10
12.3876541559834
20
-1.36187995021601
30
0
41
1
10
12.1406266414092
20
-1.23312127853768
30
0
41
1
10
11.8926268574348
20
-1.10166591450007
30
0
41
1
10
11.7933447875248
20
-1.04887688668603
30
0
41
1
10
11.7436356398431
20
-1.02236468701136
30
0
41
1
10
11.5945837649613
20
-0.94264342082036
30
0
41
1
10
11.4953828943897
20
-0.889285660396695
30
0
41
1
10
11.1982124328332
20
-0.728709551787972
30
0
41
1
10
11.0006733444588
20
-0.620991527404954
30
0
41
1
10
10.6064136881961
20
-0.404833826953478
30
0
41
1
10
10.4096917174101
20
-0.296398192757465
30
0
41
1
10
10.0899366616716
20
-0.119557605111851
30
0
41
1
10
9.96671437536574
20
-0.0512668386953123
30
0
41
1
10
9.8435556562716
20
0.0169877819764679
30
0
0
SPLINE
5
FB
100
AcDbEntity
8
1
62
256
6
ByLayer
370
18
48
1
60
0
100
AcDbSpline
70
4
71
3
72
72
73
68
40
0
40
0
40
0
40
0
40
0.0172895474876566
40
0.0172895474876566
40
0.0479992491286664
40
0.0633540999491711
40
0.0633540999491711
40
0.0787089507696761
40
0.0787089507696761
40
0.109418652410687
40
0.109418652410687
40
0.140128354051697
40
0.140128354051697
40
0.170838055692708
40
0.186192906513213
40
0.186192906513213
40
0.201547757333718
40
0.201547757333718
40
0.216902608154223
40
0.216902608154223
40
0.232257458974728
40
0.232257458974728
40
0.262967160615738
40
0.262967160615738
40
0.293676862256748
40
0.293676862256748
40
0.309031713077253
40
0.309031713077253
40
0.324386563897758
40
0.324386563897758
40
0.385805967179779
40
0.385805967179779
40
0.41651566882079
40
0.41651566882079
40
0.431870519641295
40
0.431870519641295
40
0.4472253704618
40
0.508644773743823
40
0.508644773743823
40
0.539354475384834
40
0.539354475384834
40
0.55470932620534
40
0.55470932620534
40
0.570064177025846
40
0.570064177025846
40
0.631483580307868
40
0.631483580307868
40
0.66219328194888
40
0.66219328194888
40
0.677548132769385
40
0.677548132769385
40
0.692902983589891
40
0.754322386871914
40
0.754322386871914
40
0.785032088512926
40
0.785032088512926
40
0.800386939333431
40
0.800386939333431
40
0.815741790153937
40
0.815741790153937
40
0.877161193435958
40
0.877161193435958
40
0.907870895076969
40
0.907870895076969
40
0.938580596717979
40
0.938580596717979
40
1
40
1
40
1
40
1
41
1
10
22.9193068028689
20
-3.7464561019776
30
0
41
1
10
22.8081838838922
20
-3.76589265829051
30
0
41
1
10
22.6970774738591
20
-3.78387794987137
30
0
41
1
10
22.388576807677
20
-3.82972942441612
30
0
41
1
10
22.0923980390232
20
-3.86676748500042
30
0
41
1
10
21.795651869888
20
-3.89317920831928
30
0
41
1
10
21.5976516344899
20
-3.9084062044285
30
0
41
1
10
21.4985681540559
20
-3.91482728556667
30
0
41
1
10
21.2016943956834
20
-3.9304643711823
30
0
41
1
10
21.0040739276291
20
-3.93608010549758
30
0
41
1
10
20.6091552346426
20
-3.93770104408466
30
0
41
1
10
20.4118257139056
20
-3.93370255800906
30
0
41
1
10
20.0170311682119
20
-3.91611101838046
30
0
41
1
10
19.7207987162657
20
-3.8957276432692
30
0
41
1
10
19.4239603191004
20
-3.86462188305791
30
0
41
1
10
19.2258896454747
20
-3.84150897898087
30
0
41
1
10
19.1268234392248
20
-3.82877020160666
30
0
41
1
10
18.928912541256
20
-3.80099638048895
30
0
41
1
10
18.8300177691312
20
-3.78595756820587
30
0
41
1
10
18.6323658005951
20
-3.75357339143579
30
0
41
1
10
18.5336125784282
20
-3.73622476854752
30
0
41
1
10
18.2374390417919
20
-3.68077912690637
30
0
41
1
10
18.0400979302642
20
-3.63928713764915
30
0
41
1
10
17.6452263290919
20
-3.54751709875814
30
0
41
1
10
17.447694878544
20
-3.4972408650018
30
0
41
1
10
17.1509859717174
20
-3.41543095882693
30
0
41
1
10
17.0520141201831
20
-3.38709541364736
30
0
41
1
10
16.8538952635536
20
-3.32831814274249
30
0
41
1
10
16.7548826382321
20
-3.29791586890457
30
0
41
1
10
16.2602496802776
20
-3.14103646712727
30
0
41
1
10
15.8656160361884
20
-2.99986510073333
30
0
41
1
10
15.2731277527546
20
-2.76709240083403
30
0
41
1
10
15.0755587406647
20
-2.68597862496927
30
0
41
1
10
14.778811914024
20
-2.55935281895762
30
0
41
1
10
14.679801703558
20
-2.51631590832076
30
0
41
1
10
14.4816957501348
20
-2.42870016579127
30
0
41
1
10
13.9868412676321
20
-2.20607930371688
30
0
41
1
10
13.4934822926444
20
-1.96642053574649
30
0
41
1
10
12.900864612999
20
-1.66560064024537
30
0
41
1
10
12.7032544221747
20
-1.56307886701384
30
0
41
1
10
12.4064374450661
20
-1.40637471696181
30
0
41
1
10
12.3073735850074
20
-1.35363928866812
30
0
41
1
10
12.1093024593832
20
-1.24741617342497
30
0
41
1
10
12.0103458688092
20
-1.19395608824479
30
0
41
1
10
11.5158542352698
20
-0.925094004944526
30
0
41
1
10
11.1211742046397
20
-0.705038874035893
30
0
41
1
10
10.5283978773799
20
-0.371222156719369
30
0
41
1
10
10.3306957069875
20
-0.259300083170501
30
0
41
1
10
10.0337987157217
20
-0.0907473155255332
30
0
41
1
10
9.93471494534612
20
-0.0344234164209638
30
0
41
1
10
9.7367166184292
20
0.078118012951478
30
0
41
1
10
9.2421235787096
20
0.359216406367551
30
0
41
1
10
8.74872860315975
20
0.637611624346476
30
0
41
1
10
8.15583506263576
20
0.965669457740688
30
0
41
1
10
7.95807004835541
20
1.07402416427789
30
0
41
1
10
7.66102820022564
20
1.23471769407945
30
0
41
1
10
7.56188411123404
20
1.28800859121097
30
0
41
1
10
7.3639886423143
20
1.39356034170601
30
0
41
1
10
7.26518273153056
20
1.4458511160997
30
0
41
1
10
6.77171672734508
20
1.70465846360722
30
0
41
1
10
6.3787890635725
20
1.90330979232303
30
0
41
1
10
5.79012701761962
20
2.18574623464821
30
0
41
1
10
5.59401535300978
20
2.27728354263502
30
0
41
1
10
5.20175097051211
20
2.4547648708463
30
0
41
1
10
5.00560403715534
20
2.54071439249844
30
0
41
1
10
4.41644936586385
20
2.78922620775387
30
0
41
1
10
4.02269971280236
20
2.94242826152143
30
0
41
1
10
3.62671486016845
20
3.08134839776579
30
0
0
SPLINE
5
FC
100
AcDbEntity
8
1
62
256
6
ByLayer
370
18
48
1
60
0
100
AcDbSpline
70
4
71
3
72
8
73
4
40
0
40
0
40
0
40
0
40
1
40
1
40
1
40
1
41
1
10
41.5601192505934
20
-3.81622870102785
30
0
41
1
10
41.549302779427
20
-3.84788054757277
30
0
41
1
10
41.538580329643
20
-3.87952986698801
30
0
41
1
10
41.527954534636
20
-3.91117922182082
30
0
0
SPLINE
5
FD
100
AcDbEntity
8
1
62
256
6
ByLayer
370
18
48
1
60
0
100
AcDbSpline
70
4
71
3
72
75
73
71
40
0
40
0
40
0
40
0
40
0.0569849287051339
40
0.0569849287051339
40
0.0854773930577017
40
0.0854773930577017
40
0.0997236252339863
40
0.0997236252339863
40
0.113969857410271
40
0.113969857410271
40
0.14246232176284
40
0.14246232176284
40
0.17095478611541
40
0.17095478611541
40
0.185201018291694
40
0.185201018291694
40
0.199447250467979
40
0.199447250467979
40
0.227939714820548
40
0.227939714820548
40
0.341909572230825
40
0.341909572230825
40
0.370402036583395
40
0.370402036583395
40
0.398894500935965
40
0.398894500935965
40
0.455879429641105
40
0.455879429641105
40
0.484371893993675
40
0.484371893993675
40
0.49861812616996
40
0.49861812616996
40
0.512864358346245
40
0.512864358346245
40
0.569849287051387
40
0.569849287051387
40
0.598341751403957
40
0.598341751403957
40
0.612587983580242
40
0.612587983580242
40
0.626834215756528
40
0.626834215756528
40
0.683819144461671
40
0.683819144461671
40
0.712311608814244
40
0.712311608814244
40
0.726557840990529
40
0.726557840990529
40
0.740804073166814
40
0.740804073166814
40
0.769296537519381
40
0.769296537519381
40
0.797789001871949
40
0.797789001871949
40
0.826281466224517
40
0.826281466224517
40
0.8405276984008
40
0.8405276984008
40
0.854773930577084
40
0.854773930577084
40
0.911758859282219
40
0.911758859282219
40
0.940251323634787
40
0.95449755581107
40
0.95449755581107
40
0.968743787987354
40
0.968743787987354
40
0.997236252339922
40
0.997236252339922
40
1
40
1
40
1
40
1
41
1
10
41.5279545346365
20
-3.91117922180877
30
0
41
1
10
41.1328996317269
20
-3.8793294196274
30
0
41
1
10
40.7385632894067
20
-3.82840695508199
30
0
41
1
10
40.1461602129131
20
-3.72449836955113
30
0
41
1
10
39.9485392745303
20
-3.68527573141876
30
0
41
1
10
39.6516570410698
20
-3.61966321001734
30
0
41
1
10
39.5526684682929
20
-3.59667178088543
30
0
41
1
10
39.3549108358081
20
-3.54855304613241
30
0
41
1
10
39.2560962944177
20
-3.52341582725182
30
0
41
1
10
38.9597859561542
20
-3.44482481249338
30
0
41
1
10
38.7624289200741
20
-3.38818479712208
30
0
41
1
10
38.3676273536068
20
-3.26683111613534
30
0
41
1
10
38.1701949003762
20
-3.20211088438384
30
0
41
1
10
37.8738293109603
20
-3.09910599900692
30
0
41
1
10
37.774987363308
20
-3.06380146918806
30
0
41
1
10
37.5771496751774
20
-2.99129974910514
30
0
41
1
10
37.4781373609812
20
-2.95409266809313
30
0
41
1
10
37.181763674798
20
-2.84006143485917
30
0
41
1
10
36.9847518365289
20
-2.76071478325383
30
0
41
1
10
36.0017161570086
20
-2.34861984938925
30
0
41
1
10
35.2217232541725
20
-1.96980158290137
30
0
41
1
10
34.2407879853914
20
-1.45620226278987
30
0
41
1
10
34.0442995411298
20
-1.35148854933664
30
0
41
1
10
33.6504273596011
20
-1.13851289929647
30
0
41
1
10
33.4530105080006
20
-1.03021622015547
30
0
41
1
10
32.8590902521351
20
-0.70100921130728
30
0
41
1
10
32.4645053252616
20
-0.477854774612354
30
0
41
1
10
31.8725099926098
20
-0.141402904791988
30
0
41
1
10
31.6751674663198
20
-0.0289500082941174
30
0
41
1
10
31.378897126208
20
0.139759975986863
30
0
41
1
10
31.2800972805981
20
0.196001206995987
30
0
41
1
10
31.0823741730228
20
0.308427416807774
30
0
41
1
10
30.9834166681241
20
0.364638175563329
30
0
41
1
10
30.4885892869894
20
0.645058413511322
30
0
41
1
10
30.0939950184379
20
0.866399918771947
30
0
41
1
10
29.5018908558234
20
1.19034890545598
30
0
41
1
10
29.3044849810623
20
1.29698471064322
30
0
41
1
10
29.0081316214188
20
1.45459561252809
30
0
41
1
10
28.9093080181425
20
1.50674458597706
30
0
41
1
10
28.7115321136126
20
1.61018027531901
30
0
41
1
10
28.6125243527918
20
1.66149596710488
30
0
41
1
10
28.1177541805099
20
1.9152808743986
30
0
41
1
10
27.7231597261285
20
2.10909230209006
30
0
41
1
10
27.1309999416179
20
2.38298520078416
30
0
41
1
10
26.9335690736257
20
2.47148020098103
30
0
41
1
10
26.6371392463038
20
2.59970120674507
30
0
41
1
10
26.5382826634089
20
2.64168853244132
30
0
41
1
10
26.3404269567722
20
2.7240855349601
30
0
41
1
10
26.2413716808323
20
2.76451638604774
30
0
41
1
10
25.9445106736722
20
2.8831126087602
30
0
41
1
10
25.7469283358436
20
2.95862402927358
30
0
41
1
10
25.3519870976119
20
3.10208948332337
30
0
41
1
10
25.1546295125958
20
3.17004789542463
30
0
41
1
10
24.7598579601963
20
3.29812803425418
30
0
41
1
10
24.5624281185406
20
3.35823188806515
30
0
41
1
10
24.265936759803
20
3.44219903451671
30
0
41
1
10
24.1670482191612
20
3.46915651870182
30
0
41
1
10
23.9691145026417
20
3.52096694235897
30
0
41
1
10
23.87003280805
20
3.54582762993627
30
0
41
1
10
23.3752497763145
20
3.66450865286143
30
0
41
1
10
22.9807087838946
20
3.74172272877209
30
0
41
1
10
22.388576807677
20
3.82972942441612
30
0
41
1
10
22.0923980390232
20
3.86676748500042
30
0
41
1
10
21.7956518698881
20
3.89317920831928
30
0
41
1
10
21.5976516344899
20
3.9084062044285
30
0
41
1
10
21.4985681540559
20
3.91482728556667
30
0
41
1
10
21.2016943956834
20
3.9304643711823
30
0
41
1
10
21.0040739276291
20
3.93608010549758
30
0
41
1
10
20.787461172709
20
3.9369691897044
30
0
41
1
10
20.7683089857939
20
3.93700255785672
30
0
41
1
10
20.7491578400705
20
3.9369906899002
30
0
0
SPLINE
5
FE
100
AcDbEntity
8
1
62
256
6
ByLayer
370
13
48
1
60
0
100
AcDbSpline
70
4
71
3
72
39
73
35
40
0
40
0
40
0
40
0
40
0.0413127784176116
40
0.0413127784176116
40
0.146167550103429
40
0.159274396564156
40
0.159274396564156
40
0.172381243024884
40
0.172381243024884
40
0.198594935946338
40
0.198594935946338
40
0.251022321789247
40
0.251022321789247
40
0.355877093475068
40
0.355877093475068
40
0.460731865160889
40
0.460731865160889
40
0.56558663684671
40
0.56558663684671
40
0.591800329768164
40
0.591800329768164
40
0.618014022689619
40
0.618014022689619
40
0.67044140853253
40
0.67044140853253
40
0.775296180218354
40
0.775296180218354
40
0.880150951904178
40
0.880150951904178
40
0.932578337747088
40
0.932578337747088
40
0.985005723589999
40
0.985005723589999
40
1
40
1
40
1
40
1
41
1
10
28.1318409782314
20
1.90657448226162
30
0
41
1
10
28.2862549566769
20
1.83471869027821
30
0
41
1
10
28.4407637012851
20
1.76138718352851
30
0
41
1
10
28.9880425461175
20
1.49716359157119
30
0
41
1
10
29.4311412736817
20
1.27433768061562
30
0
41
1
10
29.8772439592188
20
1.04285341367742
30
0
41
1
10
29.9764581674925
20
0.991209599686528
30
0
41
1
10
30.0260856677883
20
0.965295906149294
30
0
41
1
10
30.1747684237442
20
0.887435246577468
30
0
41
1
10
30.2737255626923
20
0.83531595129088
30
0
41
1
10
30.5701683712666
20
0.678444561498566
30
0
41
1
10
30.7672232828683
20
0.573174470215861
30
0
41
1
10
31.3571947531492
20
0.256297496735812
30
0
41
1
10
31.7490108474816
20
0.0438114175351245
30
0
41
1
10
32.5319095038088
20
-0.379382810050032
30
0
41
1
10
32.9229696358433
20
-0.5901334544603
30
0
41
1
10
33.7069849518826
20
-1.00492577425757
30
0
41
1
10
34.0999621418866
20
-1.20892323481775
30
0
41
1
10
34.5938945842298
20
-1.45685124718523
30
0
41
1
10
34.6928167322439
20
-1.50608334984713
30
0
41
1
10
34.8909762447766
20
-1.60375849193855
30
0
41
1
10
34.9902906059405
20
-1.65223774932477
30
0
41
1
10
35.2874797101769
20
-1.79574696087934
30
0
41
1
10
35.4849678212827
20
-1.88902915285294
30
0
41
1
10
36.0760287558421
20
-2.16097663341461
30
0
41
1
10
36.4681677106388
20
-2.33188283969443
30
0
41
1
10
37.2512450094614
20
-2.64937117931228
30
0
41
1
10
37.6421854776338
20
-2.79591009776905
30
0
41
1
10
38.2295510135488
20
-2.99489433025923
30
0
41
1
10
38.4255522237681
20
-3.05778174147184
30
0
41
1
10
38.8181336211596
20
-3.17629721976488
30
0
41
1
10
39.0147174642123
20
-3.2319274479035
30
0
41
1
10
39.2681702680099
20
-3.29848684076566
30
0
41
1
10
39.3245777224169
20
-3.31297285867194
30
0
41
1
10
39.3810294359637
20
-3.32713765443913
30
0
0
SPLINE
5
FF
100
AcDbEntity
8
1
62
256
6
ByLayer
370
18
48
1
60
0
100
AcDbSpline
70
4
71
3
72
19
73
15
40
0
40
0
40
0
40
0
40
0.192245731676814
40
0.192245731676814
40
0.326871443064013
40
0.326871443064013
40
0.461497154451214
40
0.461497154451214
40
0.730748577225614
40
0.865374288612815
40
0.932687144306414
40
0.966343572153207
40
0.966343572153207
40
1
40
1
40
1
40
1
41
1
10
39.3810284637019
20
-3.32713741048039
30
0
41
1
10
39.521960106785
20
-3.36249981763768
30
0
41
1
10
39.6631675951418
20
-3.39586020570985
30
0
41
1
10
39.9038233798881
20
-3.44905309793876
30
0
41
1
10
40.0031061323695
20
-3.46994148066983
30
0
41
1
10
40.2013523377447
20
-3.50950366097254
30
0
41
1
10
40.3004008364389
20
-3.52819683649165
30
0
41
1
10
40.5973755464024
20
-3.58098397775149
30
0
41
1
10
40.8940109630698
20
-3.62718771490739
30
0
41
1
10
41.2399092810612
20
-3.6693513871468
30
0
41
1
10
41.4128640375652
20
-3.68746887807288
30
0
41
1
10
41.4869939870579
20
-3.69459514345087
30
0
41
1
10
41.5364159748019
20
-3.69920377119536
30
0
41
1
10
41.5611237373126
20
-3.70141459608885
30
0
41
1
10
41.5858798521088
20
-3.70360589195965
30
0
0
SPLINE
5
100
100
AcDbEntity
8
1
62
256
6
ByLayer
370
13
48
1
60
0
100
AcDbSpline
70
4
71
3
72
29
73
25
40
0
40
0
40
0
40
0
40
0.0140749914773807
40
0.0140749914773807
40
0.0281499829547621
40
0.0562999659095298
40
0.112599931819072
40
0.112599931819072
40
0.225199863638162
40
0.225199863638162
40
0.281499829547703
40
0.309649812502475
40
0.309649812502475
40
0.337799795457246
40
0.337799795457246
40
0.450399727276331
40
0.450399727276331
40
0.562999659095414
40
0.562999659095414
40
0.675599590914498
40
0.675599590914498
40
0.900799454552666
40
0.900799454552666
40
1
40
1
40
1
40
1
41
1
10
41.5601192505322
20
-3.81622870099724
30
0
41
1
10
41.5353962952129
20
-3.81427609855021
30
0
41
1
10
41.5106716417574
20
-3.81234567149477
30
0
41
1
10
41.4612250889364
20
-3.80832134496879
30
0
41
1
10
41.3870583123194
20
-3.80206428431438
30
0
41
1
10
41.2140174726075
20
-3.78592418059847
30
0
41
1
10
41.0657003784105
20
-3.76946188339173
30
0
41
1
10
40.7690107849324
20
-3.73306583349813
30
0
41
1
10
40.5711444969601
20
-3.70417360503774
30
0
41
1
10
40.2739834345803
20
-3.65401527258496
30
0
41
1
10
40.1253115227148
20
-3.62723096308005
30
0
41
1
10
39.9764616594718
20
-3.59790879423986
30
0
41
1
10
39.8771843374886
20
-3.57779898387582
30
0
41
1
10
39.8275092813969
20
-3.56745994560316
30
0
41
1
10
39.5794405518278
20
-3.51445960040237
30
0
41
1
10
39.3816666663609
20
-3.46782561379678
30
0
41
1
10
38.9871678863393
20
-3.36649811451895
30
0
41
1
10
38.7904493215872
20
-3.31179909199079
30
0
41
1
10
38.3976459342387
20
-3.19482006816759
30
0
41
1
10
38.2015592863458
20
-3.13253084405943
30
0
41
1
10
37.6140188384129
20
-2.93476709229861
30
0
41
1
10
37.2229684069169
20
-2.78842672945251
30
0
41
1
10
36.6587893741999
20
-2.55909374543791
30
0
41
1
10
36.4861514088333
20
-2.48647257227867
30
0
41
1
10
36.3132834573101
20
-2.41150686100161
30
0
0
SPLINE
5
101
100
AcDbEntity
8
1
62
256
6
ByLayer
370
18
48
1
60
0
100
AcDbSpline
70
4
71
3
72
20
73
16
40
0
40
0
40
0
40
0
40
0.140825633353888
40
0.140825633353888
40
0.266675124421304
40
0.266675124421304
40
0.329599869955012
40
0.329599869955012
40
0.39252461548872
40
0.39252461548872
40
0.644223597623552
40
0.644223597623552
40
0.895922579758385
40
0.895922579758385
40
1
40
1
40
1
40
1
41
1
10
36.3132837333404
20
-2.41150698070456
30
0
41
1
10
36.0937158566986
20
-2.31628943820275
30
0
41
1
10
35.8737769490431
20
-2.21728950883863
30
0
41
1
10
35.4561356626017
20
-2.02322719076128
30
0
41
1
10
35.258554161731
20
-1.92884344415168
30
0
41
1
10
34.9611875585182
20
-1.78341864198381
30
0
41
1
10
34.86178832914
20
-1.7342468943317
30
0
41
1
10
34.6634200350431
20
-1.63509072970419
30
0
41
1
10
34.5644012667455
20
-1.58508337542051
30
0
41
1
10
34.0700205953658
20
-1.33310736332726
30
0
41
1
10
33.6768010766627
20
-1.12531504390628
30
0
41
1
10
32.8924551809883
20
-0.701831798246616
30
0
41
1
10
32.5012689770699
20
-0.486249834654331
30
0
41
1
10
31.9477916889687
20
-0.179628036612456
30
0
41
1
10
31.7858207290629
20
-0.0896901201176661
30
0
41
1
10
31.6237062970309
20
0.0003342833195745
30
0
0
SPLINE
5
102
100
AcDbEntity
8
1
62
256
6
ByLayer
370
18
48
1
60
0
100
AcDbSpline
70
4
71
3
72
22
73
18
40
0
40
0
40
0
40
0
40
0.125
40
0.125
40
0.25
40
0.25
40
0.375
40
0.375
40
0.5
40
0.5
40
0.625
40
0.625
40
0.75
40
0.75
40
0.875
40
0.875
40
1
40
1
40
1
40
1
41
1
10
41.5858798521071
20
-3.70360589195951
30
0
41
1
10
41.5862884724284
20
-3.70470957817693
30
0
41
1
10
41.5865337831047
20
-3.70629283267462
30
0
41
1
10
41.586670949803
20
-3.71048133863309
30
0
41
1
10
41.5865621890894
20
-3.71309774667984
30
0
41
1
10
41.5859289572261
20
-3.71948061871382
30
0
41
1
10
41.5854130182763
20
-3.72317059345559
30
0
41
1
10
41.58394036604
20
-3.73164892836917
30
0
41
1
10
41.5829662554027
20
-3.73650695234318
30
0
41
1
10
41.580620313388
20
-3.74696800931315
30
0
41
1
10
41.579246140507
20
-3.75260181533724
30
0
41
1
10
41.5760622621768
20
-3.76475495383775
30
0
41
1
10
41.5742947944147
20
-3.77110602397019
30
0
41
1
10
41.5705251597389
20
-3.78399490862333
30
0
41
1
10
41.5684864287688
20
-3.79065183983965
30
0
41
1
10
41.5643622597248
20
-3.80360484313218
30
0
41
1
10
41.5622472427684
20
-3.81000163484924
30
0
41
1
10
41.560119250602
20
-3.81622870100276
30
0
0
SPLINE
5
103
100
AcDbEntity
8
1
62
256
6
ByLayer
370
18
48
1
60
0
100
AcDbSpline
70
4
71
3
72
20
73
16
40
0
40
0
40
0
40
0
40
0.249999999999997
40
0.249999999999997
40
0.374999999999995
40
0.374999999999995
40
0.499999999999993
40
0.499999999999993
40
0.562499999999992
40
0.562499999999992
40
0.624999999999991
40
0.624999999999991
40
0.749999999999994
40
0.749999999999994
40
1
40
1
40
1
40
1
41
1
10
4.82830472076006
20
1.59581767021172
30
0
41
1
10
5.15543961263961
20
1.50969840328688
30
0
41
1
10
5.47827193650198
20
1.41068045110995
30
0
41
1
10
5.95677481970355
20
1.24315960916795
30
0
41
1
10
6.11533647382751
20
1.18415144196874
30
0
41
1
10
6.43000369741389
20
1.0603203489442
30
0
41
1
10
6.58620223171727
20
0.995466113989778
30
0
41
1
10
6.81898470848321
20
0.894048690381624
30
0
41
1
10
6.89632667455345
20
0.859554413560517
30
0
41
1
10
7.05054164978384
20
0.78924480460509
30
0
41
1
10
7.12742945126334
20
0.75342204809013
30
0
41
1
10
7.35717022935819
20
0.644200178813861
30
0
41
1
10
7.50918217992287
20
0.569008152025845
30
0
41
1
10
7.96232178534169
20
0.337237609431014
30
0
41
1
10
8.26054133305362
20
0.174436130004011
30
0
41
1
10
8.55654988742896
20
0.0062855725688564
30
0
0
SPLINE
5
104
100
AcDbEntity
8
1
62
256
6
ByLayer
370
18
48
1
60
0
100
AcDbSpline
70
4
71
3
72
14
73
10
40
0
40
0
40
0
40
0
40
0.25
40
0.25
40
0.5
40
0.5
40
0.75
40
0.75
40
1
40
1
40
1
40
1
41
1
10
4.71631796878577
20
1.59592256515899
30
0
41
1
10
4.72424999856094
20
1.59910840755322
30
0
41
1
10
4.73250324474034
20
1.60110626038977
30
0
41
1
10
4.74934945598994
20
1.60384804555684
30
0
41
1
10
4.75797212661934
20
1.60453929054813
30
0
41
1
10
4.77513703758083
20
1.6047788802268
30
0
41
1
10
4.78375976922965
20
1.60432829800439
30
0
41
1
10
4.80079382832466
20
1.60235349905108
30
0
41
1
10
4.80924702747959
20
1.60082186089429
30
0
41
1
10
4.81753560670933
20
1.59864762923405
30
0
0
SPLINE
5
105
100
AcDbEntity
8
1
62
256
6
ByLayer
370
18
48
1
60
0
100
AcDbSpline
70
4
71
3
72
34
73
30
40
0
40
0
40
0
40
0
40
0.125000000000014
40
0.125000000000014
40
0.250000000000029
40
0.250000000000029
40
0.312500000000036
40
0.312500000000036
40
0.375000000000043
40
0.375000000000043
40
0.500000000000055
40
0.500000000000055
40
0.562500000000048
40
0.562500000000048
40
0.593750000000044
40
0.593750000000044
40
0.62500000000004
40
0.62500000000004
40
0.687500000000033
40
0.687500000000033
40
0.750000000000026
40
0.750000000000026
40
0.781250000000022
40
0.781250000000022
40
0.812500000000019
40
0.812500000000019
40
0.875000000000012
40
0.875000000000012
40
1
40
1
40
1
40
1
41
1
10
3.50581059004827
20
-2.49358590572575
30
0
41
1
10
3.5079147207376
20
-2.47542201637634
30
0
41
1
10
3.51062155908625
20
-2.45731958926564
30
0
41
1
10
3.51746736330122
20
-2.4212601673232
30
0
41
1
10
3.52160023954659
20
-2.40330256927771
30
0
41
1
10
3.52920544273823
20
-2.37650814929907
30
0
41
1
10
3.53197690790719
20
-2.36760054510839
30
0
41
1
10
3.53809503798365
20
-2.34984322473267
30
0
41
1
10
3.5414503107707
20
-2.34097858610519
30
0
41
1
10
3.55240174393657
20
-2.31496680752426
30
0
41
1
10
3.56086993879703
20
-2.29823386630122
30
0
41
1
10
3.57655467857259
20
-2.2746892270398
30
0
41
1
10
3.58225725516746
20
-2.26717516280669
30
0
41
1
10
3.59158716504788
20
-2.25678876696449
30
0
41
1
10
3.59483363186371
20
-2.25346542004004
30
0
41
1
10
3.60164807266511
20
-2.24714573232407
30
0
41
1
10
3.60522942912198
20
-2.24414295168549
30
0
41
1
10
3.61627367991002
20
-2.23591457062906
30
0
41
1
10
3.62411895922742
20
-2.23138408139488
30
0
41
1
10
3.6408824860714
20
-2.22471843461437
30
0
41
1
10
3.64939941448424
20
-2.2227444150204
30
0
41
1
10
3.66236428638541
20
-2.22169381570168
30
0
41
1
10
3.66674318428787
20
-2.22166771974611
30
0
41
1
10
3.67531297879665
20
-2.22220931992618
30
0
41
1
10
3.6795305504655
20
-2.22277101745885
30
0
41
1
10
3.69200880099635
20
-2.22520991910599
30
0
41
1
10
3.70016502293535
20
-2.22786882235727
30
0
41
1
10
3.72351279955672
20
-2.23791858699212
30
0
41
1
10
3.73762297898068
20
-2.24721041896382
30
0
41
1
10
3.75093137273547
20
-2.25793396261557
30
0
0
SPLINE
5
106
100
AcDbEntity
8
1
62
256
6
ByLayer
370
18
48
1
60
0
100
AcDbSpline
70
4
71
3
72
22
73
18
40
0
40
0
40
0
40
0
40
0.125000000000003
40
0.125000000000003
40
0.250000000000007
40
0.250000000000007
40
0.37500000000001
40
0.37500000000001
40
0.500000000000013
40
0.500000000000013
40
0.562500000000012
40
0.562500000000012
40
0.62500000000001
40
0.62500000000001
40
0.750000000000007
40
0.750000000000007
40
1
40
1
40
1
40
1
41
1
10
3.75093137273342
20
-2.25793396261389
30
0
41
1
10
3.82846721773316
20
-2.32041024891069
30
0
41
1
10
3.90846757962532
20
-2.37883155036246
30
0
41
1
10
4.07245549729583
20
-2.48913854421067
30
0
41
1
10
4.15644846376372
20
-2.54101537112521
30
0
41
1
10
4.32778911606442
20
-2.6392997235381
30
0
41
1
10
4.41513961454629
20
-2.68570263545203
30
0
41
1
10
4.59273682909225
20
-2.77381933727745
30
0
41
1
10
4.68298534557738
20
-2.81553015364423
30
0
41
1
10
4.82026996412861
20
-2.87502714188562
30
0
41
1
10
4.86635056921301
20
-2.89434725741032
30
0
41
1
10
4.95910999000731
20
-2.93203223860695
30
0
41
1
10
5.00580418678501
20
-2.95040217898855
30
0
41
1
10
5.14635187263178
20
-3.00403506475297
30
0
41
1
10
5.24079092959764
20
-3.03787520883299
30
0
41
1
10
5.52603743740795
20
-3.13449842178812
30
0
41
1
10
5.7187491837191
20
-3.19245497847805
30
0
41
1
10
5.91378079844316
20
-3.24464165989906
30
0
0
SPLINE
5
107
100
AcDbEntity
8
1
62
256
6
ByLayer
370
18
48
1
60
0
100
AcDbSpline
70
4
71
5
72
12
73
6
40
0
40
0
40
0
40
0
40
0
40
0
40
1
40
1
40
1
40
1
40
1
40
1
41
1
10
12.3895486207213
20
-2.05969725860513
30
0
41
1
10
11.0735483747003
20
-2.31696301996811
30
0
41
1
10
9.76719604689447
20
-2.56716330531515
30
0
41
1
10
8.47134976971125
20
-2.80683497283189
30
0
41
1
10
7.18674697395352
20
-3.03318263752305
30
0
41
1
10
5.91378079601569
20
-3.24464165924988
30
0
0
SPLINE
5
108
100
AcDbEntity
8
1
62
256
6
ByLayer
370
18
48
1
60
0
100
AcDbSpline
70
4
71
3
72
58
73
54
40
0
40
0
40
0
40
0
40
0.0624999999999976
40
0.0624999999999976
40
0.124999999999995
40
0.124999999999995
40
0.156249999999995
40
0.156249999999995
40
0.187499999999995
40
0.187499999999995
40
0.249999999999995
40
0.249999999999995
40
0.265624999999995
40
0.265624999999995
40
0.281249999999995
40
0.312499999999997
40
0.312499999999997
40
0.343749999999999
40
0.343749999999999
40
0.351562499999999
40
0.351562499999999
40
0.359375
40
0.359375
40
0.375
40
0.375
40
0.437500000000004
40
0.437500000000004
40
0.453125000000005
40
0.453125000000005
40
0.468750000000005
40
0.468750000000005
40
0.500000000000007
40
0.500000000000007
40
0.531250000000008
40
0.531250000000008
40
0.546875000000009
40
0.546875000000009
40
0.562500000000009
40
0.562500000000009
40
0.625000000000006
40
0.625000000000006
40
0.687500000000003
40
0.687500000000003
40
0.703125000000004
40
0.703125000000004
40
0.718750000000005
40
0.750000000000004
40
0.750000000000004
40
0.812500000000003
40
0.812500000000003
40
0.875000000000002
40
0.875000000000002
40
1
40
1
40
1
40
1
41
1
10
3.50581059004824
20
-2.49358590572578
30
0
41
1
10
3.41979339530224
20
-2.4318375807473
30
0
41
1
10
3.33652177867785
20
-2.3666857309085
30
0
41
1
10
3.17663986411446
20
-2.22809845810244
30
0
41
1
10
3.10001658454212
20
-2.15467904636921
30
0
41
1
10
2.99141816551116
20
-2.03665760003599
30
0
41
1
10
2.9564817823273
20
-1.99620377379455
30
0
41
1
10
2.88961931151161
20
-1.9130910545359
30
0
41
1
10
2.85765825972311
20
-1.87039558633865
30
0
41
1
10
2.76669130992232
20
-1.73850101154616
30
0
41
1
10
2.71253419759228
20
-1.6455449421988
30
0
41
1
10
2.65540428535783
20
-1.52117777797133
30
0
41
1
10
2.64448810517982
20
-1.49583095076937
30
0
41
1
10
2.62392658890019
20
-1.44454263131686
30
0
41
1
10
2.59506198724074
20
-1.36691913413563
30
0
41
1
10
2.57231317086692
20
-1.2871607766339
30
0
41
1
10
2.54781973929721
20
-1.17878347394517
30
0
41
1
10
2.53849132841904
20
-1.12357868993578
30
0
41
1
10
2.53079269835379
20
-1.05319750663603
30
0
41
1
10
2.52945134795556
20
-1.03905241759031
30
0
41
1
10
2.52717444255865
20
-1.01062151757699
30
0
41
1
10
2.52623874577319
20
-0.996320005468306
30
0
41
1
10
2.524065769191
20
-0.953494872757034
30
0
41
1
10
2.52345369964411
20
-0.924964403587779
30
0
41
1
10
2.52451138272102
20
-0.782410226122011
30
0
41
1
10
2.53850265941287
20
-0.668679977052477
30
0
41
1
10
2.57173084317441
20
-0.52692050816168
30
0
41
1
10
2.57919115106975
20
-0.498504631152628
30
0
41
1
10
2.59553605263449
20
-0.442191222214433
30
0
41
1
10
2.60441018422193
20
-0.41430793359163
30
0
41
1
10
2.6330204899599
20
-0.33143309827193
30
0
41
1
10
2.65474092748985
20
-0.27721516849482
30
0
41
1
10
2.70295375793205
20
-0.170641935365325
30
0
41
1
10
2.72944722549226
20
-0.118287048507312
30
0
41
1
10
2.77245520454017
20
-0.0410317969779328
30
0
41
1
10
2.78733872654112
20
-0.0154955156926064
30
0
41
1
10
2.81788461603117
20
0.0347520012971074
30
0
41
1
10
2.8335776430705
20
0.0595198917746984
30
0
41
1
10
2.91399272695355
20
0.181708151406639
30
0
41
1
10
2.98450829815218
20
0.274222888234988
30
0
41
1
10
3.13511635441901
20
0.451157503297367
30
0
41
1
10
3.21523040230801
20
0.535559029075728
30
0
41
1
10
3.32027582291977
20
0.636924510192728
30
0
41
1
10
3.34150201839151
20
0.65695983722901
30
0
41
1
10
3.38423529153633
20
0.696463654705553
30
0
41
1
10
3.44881587647635
20
0.754925466987146
30
0
41
1
10
3.51474943799224
20
0.811156106593728
30
0
41
1
10
3.64822609483798
20
0.920971302262984
30
0
41
1
10
3.73934821595148
20
0.990667446473879
30
0
41
1
10
3.92510221636229
20
1.1243269511088
30
0
41
1
10
4.0197379523523
20
1.18828379401811
30
0
41
1
10
4.30811659411694
20
1.37289792474365
30
0
41
1
10
4.5062911030991
20
1.48636605090431
30
0
41
1
10
4.70900664086173
20
1.592567284143
30
0
0
SPLINE
5
109
100
AcDbEntity
8
SK1
62
256
6
ByLayer
370
18
48
1
60
0
100
AcDbSpline
70
4
71
3
72
8
73
4
40
0
40
0
40
0
40
0
40
1
40
1
40
1
40
1
41
1
10
-35.5
20
3.15481899356004
30
0
41
1
10
-35.6671063649482
20
3.00305795712433
30
0
41
1
10
-35.8338554952787
20
2.85099215701183
30
0
41
1
10
-36
20
2.69841053924179
30
0
0
SPLINE
5
10A
100
AcDbEntity
8
SK1
62
256
6
ByLayer
370
18
48
1
60
0
100
AcDbSpline
70
4
71
3
72
22
73
18
40
0
40
0
40
0
40
0
40
0.0624999999999996
40
0.0624999999999996
40
0.124999999999999
40
0.124999999999999
40
0.187499999999999
40
0.187499999999999
40
0.249999999999999
40
0.249999999999999
40
0.374999999999999
40
0.374999999999999
40
0.5
40
0.5
40
0.75
40
0.75
40
1
40
1
40
1
40
1
41
1
10
-35.4
20
3.21760401027595
30
0
41
1
10
-35.4
20
3.2188276020463
30
0
41
1
10
-35.4002593711604
20
3.21978961103403
30
0
41
1
10
-35.4012586213713
20
3.22122825160127
30
0
41
1
10
-35.4019982904561
20
3.22169578673183
30
0
41
1
10
-35.4038577960222
20
3.22217260852835
30
0
41
1
10
-35.4049815019166
20
3.22218745345745
30
0
41
1
10
-35.4075716365044
20
3.22182248372067
30
0
41
1
10
-35.4090489365252
20
3.22143807923339
30
0
41
1
10
-35.4138573413159
20
3.21977622339884
30
0
41
1
10
-35.4175572189291
20
3.2180084667732
30
0
41
1
10
-35.4257321189722
20
3.21344695284091
30
0
41
1
10
-35.4302443207472
20
3.21062324891977
30
0
41
1
10
-35.4443843974886
20
3.20108775399393
30
0
41
1
10
-35.4547260031623
20
3.19327533058933
30
0
41
1
10
-35.476826532951
20
3.17534137364669
30
0
41
1
10
-35.4882298632593
20
3.16550828209384
30
0
41
1
10
-35.5
20
3.1548189935601
30
0
0
SPLINE
5
10B
100
AcDbEntity
8
SK1
62
256
6
ByLayer
370
18
48
1
60
0
100
AcDbSpline
70
4
71
3
72
20
73
16
40
0
40
0
40
0
40
0
40
0.250000000000001
40
0.250000000000001
40
0.375000000000001
40
0.375000000000001
40
0.500000000000001
40
0.500000000000001
40
0.625000000000001
40
0.625000000000001
40
0.75
40
0.75
40
0.875
40
0.875
40
1
40
1
40
1
40
1
41
1
10
-35.5
20
2.45304899244655
30
0
41
1
10
-35.4882267853228
20
2.46374107627077
30
0
41
1
10
-35.4768284287078
20
2.47545466081891
30
0
41
1
10
-35.460270322179
20
2.49453247690892
30
0
41
1
10
-35.4548935789763
20
2.50109481589129
30
0
41
1
10
-35.4446281317026
20
2.51439427188601
30
0
41
1
10
-35.4397086144297
20
2.52116571514642
30
0
41
1
10
-35.4303421404714
20
2.53497743404253
30
0
41
1
10
-35.4258783488616
20
2.54204295959008
30
0
41
1
10
-35.4176059338444
20
2.55639871714482
30
0
41
1
10
-35.4138878532275
20
2.56352638440836
30
0
41
1
10
-35.4074805084037
20
2.57765383702275
30
0
41
1
10
-35.4047944770761
20
2.58468193103079
30
0
41
1
10
-35.4010706922354
20
2.59779950189218
30
0
41
1
10
-35.4
20
2.60405799800694
30
0
41
1
10
-35.4
20
2.60940334264427
30
0
0
SPLINE
5
10C
100
AcDbEntity
8
SK1
62
256
6
ByLayer
370
18
48
1
60
0
100
AcDbSpline
70
4
71
3
72
8
73
4
40
0
40
0
40
0
40
0
40
1
40
1
40
1
40
1
41
1
10
-36
20
1.99664053812833
30
0
41
1
10
-35.8338567993034
20
2.1492209583252
30
0
41
1
10
-35.6671074694048
20
2.30128695297617
30
0
41
1
10
-35.5
20
2.45304899244661
30
0
0
SPLINE
5
10D
100
AcDbEntity
8
1
62
256
6
ByLayer
370
18
48
1
60
0
100
AcDbSpline
70
4
71
3
72
13
73
9
40
0
40
0
40
0
40
0
40
0.101705793390614
40
0.245247457205282
40
0.409969884962587
40
0.595893210367222
40
0.802997556406489
40
1
40
1
40
1
40
1
41
1
10
36.2025730850138
20
2.81825838193453
30
0
41
1
10
36.3854061324944
20
2.88740796277946
30
0
41
1
10
36.8270572648444
20
3.04650748005801
30
0
41
1
10
37.5664932162961
20
3.27979232197149
30
0
41
1
10
38.4595396798631
20
3.50966558576934
30
0
41
1
10
39.4689307369514
20
3.69895505594363
30
0
41
1
10
40.5382353702305
20
3.81432617379679
30
0
41
1
10
41.2711141051832
20
3.82159464191531
30
0
41
1
10
41.6285597688222
20
3.80905130289159
30
0
0
SPLINE
5
10E
100
AcDbEntity
8
1
62
256
6
ByLayer
370
18
48
1
60
0
100
AcDbSpline
70
4
71
3
72
11
73
7
40
0
40
0
40
0
40
0
40
0.236875148664304
40
0.49453809384745
40
0.748645938076522
40
1
40
1
40
1
40
1
41
1
10
17.8020017454033
20
3.68233719814486
30
0
41
1
10
18.2759394349732
20
3.75134070599998
30
0
41
1
10
19.2659240721286
20
3.83557356595176
30
0
41
1
10
20.7661817829709
20
3.76786235003718
30
0
41
1
10
22.297268280001
20
3.51179182314425
30
0
41
1
10
23.3120402333364
20
3.23345737399279
30
0
41
1
10
23.816866144601
20
3.06703408095595
30
0
0
SPLINE
5
10F
100
AcDbEntity
8
1
62
256
6
ByLayer
370
18
48
1
60
0
100
AcDbSpline
70
4
71
3
72
9
73
5
40
0
40
0
40
0
40
0
40
0.685595913761131
40
1
40
1
40
1
40
1
41
1
10
35.1058473806985
20
-2.36591836729147
30
0
41
1
10
35.0256331952541
20
-2.33018455131102
30
0
41
1
10
34.9091639882265
20
-2.27728242009402
30
0
41
1
10
34.794329345261
20
-2.22318866360922
30
0
41
1
10
34.7583155201368
20
-2.20606785465338
30
0
0
SPLINE
5
110
100
AcDbEntity
8
1
62
256
6
ByLayer
370
18
48
1
60
0
100
AcDbSpline
70
4
71
3
72
18
73
14
40
0
40
0
40
0
40
0
40
0.0906595297730907
40
0.227740150570275
40
0.332542521049024
40
0.405070998448048
40
0.451396370206328
40
0.507840268177445
40
0.580440688979493
40
0.648563952422009
40
0.740623546379061
40
0.857772150093205
40
1
40
1
40
1
40
1
41
1
10
41.6879303527286
20
0.773131660760754
30
0
41
1
10
41.5494413933992
20
0.817616076538059
30
0
41
1
10
41.2020608415563
20
0.930975093404527
30
0
41
1
10
40.697021885954
20
1.10365689199591
30
0
41
1
10
40.2208366105236
20
1.27079088646781
30
0
41
1
10
39.8829566480068
20
1.39217843796118
30
0
41
1
10
39.6186980038812
20
1.48848134825531
30
0
41
1
10
39.354692175106
20
1.58589359903692
30
0
41
1
10
39.0583867130374
20
1.6969035830401
30
0
41
1
10
38.7092443695085
20
1.8298606012489
30
0
41
1
10
38.2942808979482
20
1.9907804446967
30
0
41
1
10
37.7700408068777
20
2.19884192127518
30
0
41
1
10
37.3846143152992
20
2.35609183617672
30
0
41
1
10
37.1737129486862
20
2.44343818204069
30
0
0
SPLINE
5
111
100
AcDbEntity
8
1
62
256
6
ByLayer
370
18
48
1
60
0
100
AcDbSpline
70
4
71
3
72
18
73
14
40
0
40
0
40
0
40
0
40
0.118085937978413
40
0.203718817874934
40
0.264205499274216
40
0.317757174322661
40
0.393041225743499
40
0.466379753113735
40
0.532163168039119
40
0.613893512148314
40
0.721338380812121
40
0.854487615077916
40
1
40
1
40
1
40
1
41
1
10
22.1054969778421
20
0.111080354684759
30
0
41
1
10
21.8415747455604
20
0.18568323520185
30
0
41
1
10
21.3872303333381
20
0.317667196209584
30
0
41
1
10
20.8002575357623
20
0.496173441179991
30
0
41
1
10
20.3576918920609
20
0.635065513976059
30
0
41
1
10
19.9389281597012
20
0.769656313423638
30
0
41
1
10
19.4926937486813
20
0.916883792279066
30
0
41
1
10
19.0207922202696
20
1.07719689974803
30
0
41
1
10
18.5359676182694
20
1.24633531008618
30
0
41
1
10
17.9777796314539
20
1.44644745804933
30
0
41
1
10
17.2747228644058
20
1.70716725003825
30
0
41
1
10
16.436520247423
20
2.03067296897248
30
0
41
1
10
15.8352800698719
20
2.273777139282
30
0
41
1
10
15.5223000422139
20
2.40332255526204
30
0
0
SPLINE
5
112
100
AcDbEntity
8
1
62
256
6
ByLayer
370
18
48
1
60
0
100
AcDbSpline
70
4
71
1
72
4
73
2
40
0
40
0
40
1
40
1
41
1
10
34.7583155201368
20
-2.20606785465338
30
0
41
1
10
34.5957780914661
20
-2.12955984776556
30
0
0
SPLINE
5
113
100
AcDbEntity
8
1
62
256
6
ByLayer
370
18
48
1
60
0
100
AcDbSpline
70
4
71
3
72
31
73
27
40
0
40
0
40
0
40
0
40
0.0719732902825695
40
0.131655151426957
40
0.178834046982845
40
0.218659779498123
40
0.253893936035575
40
0.287237346050387
40
0.321567151779336
40
0.368693075635644
40
0.420119681013172
40
0.463093851281431
40
0.497498236059729
40
0.525736440924357
40
0.550823771341055
40
0.581472693760733
40
0.622199188122504
40
0.677380943861976
40
0.725805259762614
40
0.763258838367757
40
0.80435390957797
40
0.854107118403209
40
0.894650406695115
40
0.931528368769262
40
0.989344073047041
40
1
40
1
40
1
40
1
41
1
10
20.950573630541
20
-3.7396492027313
30
0
41
1
10
21.196374592368
20
-3.73983419983117
30
0
41
1
10
21.646096557045
20
-3.74009186059075
30
0
41
1
10
22.2588651679978
20
-3.74006871203562
30
0
41
1
10
22.7592250117564
20
-3.74016953912582
30
0
41
1
10
23.1778086825806
20
-3.74092525260869
30
0
41
1
10
23.548741794431
20
-3.74166224626714
30
0
41
1
10
23.9009487870886
20
-3.74165037692936
30
0
41
1
10
24.2938205582151
20
-3.74140194700692
30
0
41
1
10
24.7485998751349
20
-3.74083083145624
30
0
41
1
10
25.2329590343478
20
-3.74098345611691
30
0
41
1
10
25.6737753177663
20
-3.74178769992207
30
0
41
1
10
26.0352338215628
20
-3.74227485178955
30
0
41
1
10
26.335476651514
20
-3.74240688046106
30
0
41
1
10
26.6228601682894
20
-3.74329161154643
30
0
41
1
10
26.9529391002831
20
-3.74346955790017
30
0
41
1
10
27.3860843123251
20
-3.74248944541691
30
0
41
1
10
27.8800323773488
20
-3.74167431430504
30
0
41
1
10
28.3627805910487
20
-3.74132409191211
30
0
41
1
10
28.797331670268
20
-3.74253863256968
30
0
41
1
10
29.236419507076
20
-3.74561887610304
30
0
41
1
10
29.6860924044586
20
-3.74459029438643
30
0
41
1
10
30.1213266051204
20
-3.74368878212277
30
0
41
1
10
30.5841434526876
20
-3.74256779241591
30
0
41
1
10
30.9446887472483
20
-3.74334814344664
30
0
41
1
10
31.1790242135541
20
-3.74388210382887
30
0
41
1
10
31.2154928306792
20
-3.74397417001322
30
0
0
SPLINE
5
114
100
AcDbEntity
8
1
62
256
6
ByLayer
370
18
48
1
60
0
100
AcDbSpline
70
4
71
3
72
21
73
17
40
0
40
0
40
0
40
0
40
0.0407857932027945
40
0.15642845571813
40
0.24621980818925
40
0.31470110280893
40
0.377264091876286
40
0.441272474743472
40
0.50035648200484
40
0.571170094055193
40
0.649520289088765
40
0.720911788993108
40
0.784319185770587
40
0.846492143432594
40
0.931165099473366
40
1
40
1
40
1
40
1
41
1
10
9.55969701197466
20
3.73259483033769
30
0
41
1
10
9.48081916313637
20
3.73250373460809
30
0
41
1
10
9.17825409741664
20
3.73220593099404
30
0
41
1
10
8.70034546276685
20
3.73343325538178
30
0
41
1
10
8.17115545404215
20
3.73251707951823
30
0
41
1
10
7.74280437090457
20
3.73137679138586
30
0
41
1
10
7.36479272433021
20
3.73146117651629
30
0
41
1
10
7.00484798819025
20
3.73154535389918
30
0
41
1
10
6.62923754697567
20
3.7313606318763
30
0
41
1
10
6.22629241997123
20
3.73119391935873
30
0
41
1
10
5.79985397569774
20
3.73023817721654
30
0
41
1
10
5.38649371345278
20
3.72922957686575
30
0
41
1
10
5.0047463967247
20
3.72959274470892
30
0
41
1
10
4.59964572876245
20
3.73020071247112
30
0
41
1
10
4.18138862014243
20
3.73003563472722
30
0
41
1
10
3.88395707896933
20
3.7295069402484
30
0
41
1
10
3.75047472605476
20
3.72917462961431
30
0
0
SPLINE
5
115
100
AcDbEntity
8
1
62
256
6
ByLayer
370
18
48
1
60
0
100
AcDbSpline
70
4
71
3
72
26
73
22
40
0
40
0
40
0
40
0
40
0.0021402082588215
40
0.0694440276436781
40
0.131942075661608
40
0.18090024736945
40
0.224943507435963
40
0.285987071926588
40
0.345919606126051
40
0.399193175644797
40
0.444863385047319
40
0.484855083166524
40
0.538642883111722
40
0.619988573303231
40
0.696014770646735
40
0.758155503274374
40
0.807418439052678
40
0.854148584841519
40
0.905938159896651
40
0.963538560880625
40
1
40
1
40
1
40
1
41
1
10
31.3686053404796
20
3.74399814391947
30
0
41
1
10
31.3626365338856
20
3.74398054479482
30
0
41
1
10
31.1689434043313
20
3.74341690533692
30
0
41
1
10
30.7926748786892
20
3.74142924776714
30
0
41
1
10
30.2976963898342
20
3.74348063073398
30
0
41
1
10
29.8583582470819
20
3.74409890124014
30
0
41
1
10
29.4250563578679
20
3.74531301801701
30
0
41
1
10
28.9597295483345
20
3.74414394935502
30
0
41
1
10
28.4687333523447
20
3.74116509852274
30
0
41
1
10
28.0209668281099
20
3.74159879579179
30
0
41
1
10
27.6294198547422
20
3.74207884630562
30
0
41
1
10
27.2364167238436
20
3.74283929839208
30
0
41
1
10
26.7428731772157
20
3.74381802718381
30
0
41
1
10
26.147778534851
20
3.7421120446588
30
0
41
1
10
25.5291397189975
20
3.74160497320858
30
0
41
1
10
25.0009192628431
20
3.74073683431234
30
0
41
1
10
24.5552571769198
20
3.74109817339601
30
0
41
1
10
24.1387894135174
20
3.74151915580981
30
0
41
1
10
23.6987991504642
20
3.74175773346812
30
0
41
1
10
23.2877808204187
20
3.74119113777186
30
0
41
1
10
23.0226463385837
20
3.74061533077821
30
0
41
1
10
22.919918991837
20
3.74045549607996
30
0
0
SPLINE
5
116
100
AcDbEntity
8
1
62
256
6
ByLayer
370
18
48
1
60
0
100
AcDbSpline
70
4
71
3
72
21
73
17
40
0
40
0
40
0
40
0
40
0.0688349005266296
40
0.153507856567398
40
0.215680814229407
40
0.279088211006883
40
0.350479710911228
40
0.428829905944804
40
0.499643517995151
40
0.558727525256519
40
0.622735908123705
40
0.685298897191067
40
0.753780191810745
40
0.843571544281865
40
0.959214206797203
40
1
40
1
40
1
40
1
41
1
10
3.75047472605479
20
-3.72917462961431
30
0
41
1
10
3.88395707896936
20
-3.7295069402484
30
0
41
1
10
4.18138862014246
20
-3.73003563472722
30
0
41
1
10
4.59964572876243
20
-3.73020071247112
30
0
41
1
10
5.0047463967247
20
-3.72959274470892
30
0
41
1
10
5.38649371345275
20
-3.72922957686575
30
0
41
1
10
5.79985397569774
20
-3.73023817721654
30
0
41
1
10
6.22629241997123
20
-3.73119391935873
30
0
41
1
10
6.62923754697567
20
-3.7313606318763
30
0
41
1
10
7.00484798819019
20
-3.73154535389918
30
0
41
1
10
7.36479272433021
20
-3.73146117651629
30
0
41
1
10
7.74280437090457
20
-3.73137679138586
30
0
41
1
10
8.17115545404215
20
-3.73251707951823
30
0
41
1
10
8.70034546276682
20
-3.73343325538178
30
0
41
1
10
9.17825409741673
20
-3.73220593099404
30
0
41
1
10
9.48081916313635
20
-3.73250373460809
30
0
41
1
10
9.55969701197469
20
-3.73259483033769
30
0
0
SPLINE
5
117
100
AcDbEntity
8
1
62
256
6
ByLayer
370
18
48
1
60
0
100
AcDbSpline
70
4
71
2
72
6
73
3
40
0
40
0
40
0
40
1
40
1
40
1
41
1
10
31.6244849313492
20
9.75752820409E-05
30
0
41
1
10
31.6244939396979
20
0.0001021761395634
30
0
41
1
10
31.6245029480862
20
0.0001066434332699
30
0
0
SPLINE
5
118
100
AcDbEntity
8
1
62
256
6
ByLayer
370
18
48
1
60
0
100
AcDbSpline
70
4
71
2
72
6
73
3
40
0
40
0
40
0
40
1
40
1
40
1
41
1
10
31.6245029480861
20
-0.0001066434332131
30
0
41
1
10
31.6244939396979
20
-0.000102176139535
30
0
41
1
10
31.6244849313492
20
-9.75752820409E-05
30
0
0
LINE
5
82
100
AcDbEntity
8
81
62
256
6
ByLayer
370
18
48
1
60
0
100
AcDbLine
10
43
20
0
30
0
11
46
21
0
31
0
39
0
210
0
220
0
230
1
0
LINE
5
83
100
AcDbEntity
8
80
62
256
6
ByLayer
370
18
48
1
60
0
100
AcDbLine
10
0
20
0
30
0
11
-3
21
0
31
0
39
0
210
0
220
0
230
1
0
LINE
5
84
100
AcDbEntity
8
SK4
62
256
6
ByLayer
370
18
48
0.05
60
0
100
AcDbLine
10
-39
20
0
30
0
11
46
21
0
31
0
39
0
210
0
220
0
230
1
0
LINE
5
86
100
AcDbEntity
8
4
62
256
6
ByLayer
370
18
48
0.05
60
0
100
AcDbLine
10
0
20
0
30
0
11
43
21
0
31
0
39
0
210
0
220
0
230
1
0
LINE
5
88
100
AcDbEntity
8
1
62
256
6
ByLayer
370
13
48
1
60
0
100
AcDbLine
10
42.944917
20
0.047551
30
0
11
41.984202
21
1.108014
31
0
39
0
210
0
220
0
230
1
0
LINE
5
89
100
AcDbEntity
8
1
62
256
6
ByLayer
370
18
48
1
60
0
100
AcDbLine
10
17.8
20
-3.778069
30
0
11
17.8
21
-3.825393
31
0
39
0
210
0
220
0
230
1
0
LINE
5
8A
100
AcDbEntity
8
1
62
256
6
ByLayer
370
13
48
1
60
0
100
AcDbLine
10
0.234676
20
3.924169
30
0
11
0.234676
21
-3.924169
31
0
39
0
210
0
220
0
230
1
0
LINE
5
8B
100
AcDbEntity
8
1
62
256
6
ByLayer
370
13
48
1
60
0
100
AcDbLine
10
0.121399
20
3.959256
30
0
11
0.121399
21
-3.959256
31
0
39
0
210
0
220
0
230
1
0
LINE
5
8C
100
AcDbEntity
8
1
62
256
6
ByLayer
370
18
48
1
60
0
100
AcDbLine
10
0
20
4
30
0
11
0
21
-4
31
0
39
0
210
0
220
0
230
1
0
LINE
5
8D
100
AcDbEntity
8
1
62
256
6
ByLayer
370
13
48
1
60
0
100
AcDbLine
10
0.113153
20
3.964913
30
0
11
0.113153
21
-3.964913
31
0
39
0
210
0
220
0
230
1
0
LINE
5
8E
100
AcDbEntity
8
SK1
62
256
6
ByLayer
370
18
48
1
60
0
100
AcDbLine
10
-36
20
2.698411
30
0
11
-36
21
1.996574
31
0
39
0
210
0
220
0
230
1
0
LINE
5
90
100
AcDbEntity
8
SK1
62
256
6
ByLayer
370
13
48
1
60
0
100
AcDbLine
10
-35.5
20
2.453047
30
0
11
-35.5
21
3.154819
31
0
39
0
210
0
220
0
230
1
0
LINE
5
91
100
AcDbEntity
8
SK1
62
256
6
ByLayer
370
18
48
1
60
0
100
AcDbLine
10
-35.4
20
2.609403
30
0
11
-35.4
21
3.217604
31
0
39
0
210
0
220
0
230
1
0
LINE
5
92
100
AcDbEntity
8
SK1
62
256
6
ByLayer
370
18
48
1
60
0
100
AcDbLine
10
-36
20
-2.76
30
0
11
-36
21
1.996641
31
0
39
0
210
0
220
0
230
1
0
LINE
5
93
100
AcDbEntity
8
SK1
62
256
6
ByLayer
370
18
48
1
60
0
100
AcDbLine
10
-36
20
2.698411
30
0
11
-36
21
2.76
31
0
39
0
210
0
220
0
230
1
0
LINE
5
94
100
AcDbEntity
8
SK1
62
256
6
ByLayer
370
18
48
1
60
0
100
AcDbLine
10
-34.76
20
-4
30
0
11
-34.76
21
4
31
0
39
0
210
0
220
0
230
1
0
LINE
5
95
100
AcDbEntity
8
SK1
62
256
6
ByLayer
370
18
48
1
60
0
100
AcDbLine
10
0
20
4
30
0
11
0
21
-4
31
0
39
0
210
0
220
0
230
1
0
LINE
5
96
100
AcDbEntity
8
1
62
256
6
ByLayer
370
18
48
1
60
0
100
AcDbLine
10
22.105493
20
0.111081
30
0
11
22.105474
21
0.111087
31
0
39
0
210
0
220
0
230
1
0
LINE
5
97
100
AcDbEntity
8
1
62
256
6
ByLayer
370
18
48
1
60
0
100
AcDbLine
10
0.234676
20
-3.924169
30
0
11
3.505698
21
-3.926214
31
0
39
0
210
0
220
0
230
1
0
LINE
5
98
100
AcDbEntity
8
1
62
256
6
ByLayer
370
18
48
1
60
0
100
AcDbLine
10
19.762704
20
-3.936374
30
0
11
20.749021
21
-3.936991
31
0
39
0
210
0
220
0
230
1
0
LINE
5
99
100
AcDbEntity
8
1
62
256
6
ByLayer
370
18
48
1
60
0
100
AcDbLine
10
20.749021
20
3.936991
30
0
11
19.762704
21
3.936374
31
0
39
0
210
0
220
0
230
1
0
LINE
5
9A
100
AcDbEntity
8
1
62
256
6
ByLayer
370
18
48
1
60
0
100
AcDbLine
10
3.505698
20
3.926214
30
0
11
0.234676
21
3.924169
31
0
39
0
210
0
220
0
230
1
0
LINE
5
9B
100
AcDbEntity
8
1
62
256
6
ByLayer
370
18
48
1
60
0
100
AcDbLine
10
0.121399
20
3.959256
30
0
11
0.113153
21
3.964913
31
0
39
0
210
0
220
0
230
1
0
LINE
5
9C
100
AcDbEntity
8
1
62
256
6
ByLayer
370
18
48
1
60
0
100
AcDbLine
10
0.113153
20
-3.964913
30
0
11
0.121399
21
-3.959256
31
0
39
0
210
0
220
0
230
1
0
LINE
5
9D
100
AcDbEntity
8
SK1
62
256
6
ByLayer
370
18
48
1
60
0
100
AcDbLine
10
-36
20
-2.76
30
0
11
-34.76
21
-4
31
0
39
0
210
0
220
0
230
1
0
LINE
5
9E
100
AcDbEntity
8
SK1
62
256
6
ByLayer
370
18
48
1
60
0
100
AcDbLine
10
-34.76
20
4
30
0
11
-36
21
2.76
31
0
39
0
210
0
220
0
230
1
0
LINE
5
9F
100
AcDbEntity
8
SK1
62
256
6
ByLayer
370
18
48
1
60
0
100
AcDbLine
10
-34.76
20
-4
30
0
11
0
21
-4
31
0
39
0
210
0
220
0
230
1
0
LINE
5
A0
100
AcDbEntity
8
SK1
62
256
6
ByLayer
370
18
48
1
60
0
100
AcDbLine
10
0
20
4
30
0
11
-34.76
21
4
31
0
39
0
210
0
220
0
230
1
0
LINE
5
A1
100
AcDbEntity
8
2
62
256
6
ByLayer
370
13
48
1
60
0
100
AcDbLine
10
56.75
20
-3.95
30
0
11
56.75
21
20.298932
31
0
39
0
210
0
220
0
230
1
0
LINE
5
A3
100
AcDbEntity
8
2
62
256
6
ByLayer
370
13
48
1
60
0
100
AcDbLine
10
44.5875
20
3.95
30
0
11
58.75
21
3.95
31
0
39
0
210
0
220
0
230
1
0
LINE
5
A4
100
AcDbEntity
8
2
62
256
6
ByLayer
370
13
48
1
60
0
100
AcDbLine
10
44.5875
20
-3.95
30
0
11
58.75
21
-3.95
31
0
39
0
210
0
220
0
230
1
0
LINE
5
A5
100
AcDbEntity
8
1
62
256
6
ByLayer
370
18
48
1
60
1
100
AcDbLine
10
56.75
20
3.95
30
0
11
57.210784
21
0.450002
31
0
39
0
210
0
220
0
230
1
0
LINE
5
A6
100
AcDbEntity
8
1
62
256
6
ByLayer
370
18
48
1
60
1
100
AcDbLine
10
57.210784
20
0.450002
30
0
11
56.289216
21
0.449998
31
0
39
0
210
0
220
0
230
1
0
LINE
5
A7
100
AcDbEntity
8
1
62
256
6
ByLayer
370
18
48
1
60
1
100
AcDbLine
10
56.289216
20
0.449998
30
0
11
56.75
21
3.95
31
0
39
0
210
0
220
0
230
1
0
LINE
5
A8
100
AcDbEntity
8
1
62
256
6
ByLayer
370
18
48
1
60
1
100
AcDbLine
10
56.75
20
-3.95
30
0
11
56.289216
21
-0.450002
31
0
39
0
210
0
220
0
230
1
0
LINE
5
A9
100
AcDbEntity
8
1
62
256
6
ByLayer
370
18
48
1
60
1
100
AcDbLine
10
56.289216
20
-0.450002
30
0
11
57.210784
21
-0.449998
31
0
39
0
210
0
220
0
230
1
0
LINE
5
AA
100
AcDbEntity
8
1
62
256
6
ByLayer
370
18
48
1
60
1
100
AcDbLine
10
57.210784
20
-0.449998
30
0
11
56.75
21
-3.95
31
0
39
0
210
0
220
0
230
1
0
LINE
5
AB
100
AcDbEntity
8
SK2
62
256
6
ByLayer
370
13
48
1
60
0
100
AcDbLine
10
-44.25
20
-4
30
0
11
-44.25
21
20.315466
31
0
39
0
210
0
220
0
230
1
0
LINE
5
AD
100
AcDbEntity
8
SK2
62
256
6
ByLayer
370
13
48
1
60
0
100
AcDbLine
10
-37.5875
20
4
30
0
11
-46.25
21
4
31
0
39
0
210
0
220
0
230
1
0
LINE
5
AE
100
AcDbEntity
8
SK2
62
256
6
ByLayer
370
13
48
1
60
0
100
AcDbLine
10
-37.5875
20
-4
30
0
11
-46.25
21
-4
31
0
39
0
210
0
220
0
230
1
0
LINE
5
AF
100
AcDbEntity
8
1
62
256
6
ByLayer
370
18
48
1
60
1
100
AcDbLine
10
-44.25
20
4
30
0
11
-43.789216
21
0.500002
31
0
39
0
210
0
220
0
230
1
0
LINE
5
B0
100
AcDbEntity
8
1
62
256
6
ByLayer
370
18
48
1
60
1
100
AcDbLine
10
-43.789216
20
0.500002
30
0
11
-44.710784
21
0.499998
31
0
39
0
210
0
220
0
230
1
0
LINE
5
B1
100
AcDbEntity
8
1
62
256
6
ByLayer
370
18
48
1
60
1
100
AcDbLine
10
-44.710784
20
0.499998
30
0
11
-44.25
21
4
31
0
39
0
210
0
220
0
230
1
0
LINE
5
B2
100
AcDbEntity
8
1
62
256
6
ByLayer
370
18
48
1
60
1
100
AcDbLine
10
-44.25
20
-4
30
0
11
-44.710784
21
-0.500002
31
0
39
0
210
0
220
0
230
1
0
LINE
5
B3
100
AcDbEntity
8
1
62
256
6
ByLayer
370
18
48
1
60
1
100
AcDbLine
10
-44.710784
20
-0.500002
30
0
11
-43.789216
21
-0.499998
31
0
39
0
210
0
220
0
230
1
0
LINE
5
B4
100
AcDbEntity
8
1
62
256
6
ByLayer
370
18
48
1
60
1
100
AcDbLine
10
-43.789216
20
-0.499998
30
0
11
-44.25
21
-4
31
0
39
0
210
0
220
0
230
1
0
LINE
5
B5
100
AcDbEntity
8
SK2
62
256
6
ByLayer
370
13
48
1
60
0
100
AcDbLine
10
43.543063
20
1.491723
30
0
11
54.66166
21
32.03307
31
0
39
0
210
0
220
0
230
1
0
LINE
5
B6
100
AcDbEntity
8
SK2
62
256
6
ByLayer
370
13
48
1
60
0
100
AcDbLine
10
43.543063
20
-1.491723
30
0
11
54.66166
21
-32.03307
31
0
39
0
210
0
220
0
230
1
0
LINE
5
B7
100
AcDbEntity
8
1
62
256
6
ByLayer
370
18
48
1
60
1
100
AcDbLine
10
53.977486
20
30.153734
30
0
11
57.401855
21
29.295827
31
0
39
0
210
0
220
0
230
1
0
LINE
5
B8
100
AcDbEntity
8
1
62
256
6
ByLayer
370
18
48
1
60
1
100
AcDbLine
10
57.401855
20
29.295827
30
0
11
57.063133
21
28.438766
31
0
39
0
210
0
220
0
230
1
0
LINE
5
B9
100
AcDbEntity
8
1
62
256
6
ByLayer
370
18
48
1
60
1
100
AcDbLine
10
57.063133
20
28.438766
30
0
11
53.977486
21
30.153734
31
0
39
0
210
0
220
0
230
1
0
LINE
5
BA
100
AcDbEntity
8
1
62
256
6
ByLayer
370
18
48
1
60
1
100
AcDbLine
10
53.977486
20
-30.153734
30
0
11
57.06313
21
-28.438767
31
0
39
0
210
0
220
0
230
1
0
LINE
5
BB
100
AcDbEntity
8
1
62
256
6
ByLayer
370
18
48
1
60
1
100
AcDbLine
10
57.06313
20
-28.438767
30
0
11
57.401858
21
-29.295826
31
0
39
0
210
0
220
0
230
1
0
LINE
5
BC
100
AcDbEntity
8
1
62
256
6
ByLayer
370
18
48
1
60
1
100
AcDbLine
10
57.401858
20
-29.295826
30
0
11
53.977486
21
-30.153734
31
0
39
0
210
0
220
0
230
1
0
LINE
5
119
100
AcDbEntity
8
1
62
256
6
ByLayer
370
13
48
0.05
60
0
100
AcDbLine
10
-42.5
20
0
30
0
11
48.107619
21
0
31
0
39
0
210
0
220
0
230
1
0
LINE
5
11E
100
AcDbEntity
8
1
62
256
6
ByLayer
370
18
48
1
60
1
100
AcDbLine
10
56.75
20
3.95
30
0
11
57.210784
21
0.450002
31
0
39
0
210
0
220
0
230
1
0
LINE
5
11F
100
AcDbEntity
8
1
62
256
6
ByLayer
370
18
48
1
60
1
100
AcDbLine
10
57.210784
20
0.450002
30
0
11
56.289216
21
0.449998
31
0
39
0
210
0
220
0
230
1
0
LINE
5
120
100
AcDbEntity
8
1
62
256
6
ByLayer
370
18
48
1
60
1
100
AcDbLine
10
56.289216
20
0.449998
30
0
11
56.75
21
3.95
31
0
39
0
210
0
220
0
230
1
0
LINE
5
122
100
AcDbEntity
8
1
62
256
6
ByLayer
370
18
48
1
60
1
100
AcDbLine
10
56.75
20
-3.95
30
0
11
56.289216
21
-0.450002
31
0
39
0
210
0
220
0
230
1
0
LINE
5
123
100
AcDbEntity
8
1
62
256
6
ByLayer
370
18
48
1
60
1
100
AcDbLine
10
56.289216
20
-0.450002
30
0
11
57.210784
21
-0.449998
31
0
39
0
210
0
220
0
230
1
0
LINE
5
124
100
AcDbEntity
8
1
62
256
6
ByLayer
370
18
48
1
60
1
100
AcDbLine
10
57.210784
20
-0.449998
30
0
11
56.75
21
-3.95
31
0
39
0
210
0
220
0
230
1
0
LINE
5
128
100
AcDbEntity
8
1
62
256
6
ByLayer
370
18
48
1
60
1
100
AcDbLine
10
-44.25
20
4
30
0
11
-43.789216
21
0.500002
31
0
39
0
210
0
220
0
230
1
0
LINE
5
129
100
AcDbEntity
8
1
62
256
6
ByLayer
370
18
48
1
60
1
100
AcDbLine
10
-43.789216
20
0.500002
30
0
11
-44.710784
21
0.499998
31
0
39
0
210
0
220
0
230
1
0
LINE
5
12A
100
AcDbEntity
8
1
62
256
6
ByLayer
370
18
48
1
60
1
100
AcDbLine
10
-44.710784
20
0.499998
30
0
11
-44.25
21
4
31
0
39
0
210
0
220
0
230
1
0
LINE
5
12C
100
AcDbEntity
8
1
62
256
6
ByLayer
370
18
48
1
60
1
100
AcDbLine
10
-44.25
20
-4
30
0
11
-44.710784
21
-0.500002
31
0
39
0
210
0
220
0
230
1
0
LINE
5
12D
100
AcDbEntity
8
1
62
256
6
ByLayer
370
18
48
1
60
1
100
AcDbLine
10
-44.710784
20
-0.500002
30
0
11
-43.789216
21
-0.499998
31
0
39
0
210
0
220
0
230
1
0
LINE
5
12E
100
AcDbEntity
8
1
62
256
6
ByLayer
370
18
48
1
60
1
100
AcDbLine
10
-43.789216
20
-0.499998
30
0
11
-44.25
21
-4
31
0
39
0
210
0
220
0
230
1
0
LINE
5
131
100
AcDbEntity
8
1
62
256
6
ByLayer
370
18
48
1
60
1
100
AcDbLine
10
53.977486
20
30.153734
30
0
11
57.401855
21
29.295827
31
0
39
0
210
0
220
0
230
1
0
LINE
5
132
100
AcDbEntity
8
1
62
256
6
ByLayer
370
18
48
1
60
1
100
AcDbLine
10
57.401855
20
29.295827
30
0
11
57.063133
21
28.438766
31
0
39
0
210
0
220
0
230
1
0
LINE
5
133
100
AcDbEntity
8
1
62
256
6
ByLayer
370
18
48
1
60
1
100
AcDbLine
10
57.063133
20
28.438766
30
0
11
53.977486
21
30.153734
31
0
39
0
210
0
220
0
230
1
0
LINE
5
135
100
AcDbEntity
8
1
62
256
6
ByLayer
370
18
48
1
60
1
100
AcDbLine
10
53.977486
20
-30.153734
30
0
11
57.06313
21
-28.438767
31
0
39
0
210
0
220
0
230
1
0
LINE
5
136
100
AcDbEntity
8
1
62
256
6
ByLayer
370
18
48
1
60
1
100
AcDbLine
10
57.06313
20
-28.438767
30
0
11
57.401858
21
-29.295826
31
0
39
0
210
0
220
0
230
1
0
LINE
5
137
100
AcDbEntity
8
1
62
256
6
ByLayer
370
18
48
1
60
1
100
AcDbLine
10
57.401858
20
-29.295826
30
0
11
53.977486
21
-30.153734
31
0
39
0
210
0
220
0
230
1
0
MTEXT
5
11A
100
AcDbEntity
8
2
62
256
6
ByLayer
370
18
48
1
60
0
100
AcDbMText
10
55.185366
20
7.884844
30
0
210
0
220
0
230
1
1
%%c
40
3.5
41
0
44
1.084337
50
90
71
7
72
5
7
iso_b_vert
0
MTEXT
5
11D
100
AcDbEntity
8
2
62
256
6
ByLayer
370
18
48
1
60
0
100
AcDbMText
10
55.185366
20
14.8575
30
0
210
0
220
0
230
1
1
\W0.7276;7.9
40
3.5
41
0
44
1.084337
50
90
71
7
72
5
7
iso_b_vert
0
MTEXT
5
126
100
AcDbEntity
8
SK2
62
256
6
ByLayer
370
18
48
1
60
0
100
AcDbMText
10
-45.814634
20
11.934844
30
0
210
0
220
0
230
1
1
%%c
40
3.5
41
0
44
1.084337
50
90
71
7
72
5
7
iso_b_vert
0
MTEXT
5
127
100
AcDbEntity
8
SK2
62
256
6
ByLayer
370
18
48
1
60
0
100
AcDbMText
10
-45.814634
20
18.9075
30
0
210
0
220
0
230
1
1
\W0.5404;8
40
3.5
41
0
44
1.084337
50
90
71
7
72
5
7
iso_b_vert
0
MTEXT
5
130
100
AcDbEntity
8
SK2
62
256
6
ByLayer
370
18
48
1
60
0
100
AcDbMText
10
71.018113
20
-2.467366
30
0
210
0
220
0
230
1
1
\W0.7825;140%%d
40
3.5
41
0
44
1.084337
50
0
71
7
72
5
7
iso_b_vert
0
MTEXT
5
139
100
AcDbEntity
8
SK6
62
256
6
ByLayer
370
18
48
1
60
0
100
AcDbMText
10
-26.220214
20
-73.974953
30
0
210
0
220
0
230
1
1
\W0.7501;860.1-0790-029A1-MM M2BM
40
3.5
41
0
44
1.084337
50
0
71
7
72
5
7
iso_b_vert
0
HATCH
5
121
100
AcDbEntity
8
2
62
256
6
ByLayer
370
13
48
1
60
0
100
AcDbHatch
10
0
20
0
30
0
210
0
220
0
230
1
2
ANSI31
70
0
71
0
91
1
92
5
93
3
72
1
10
56.75
20
3.94999999999999
11
57.2107837415528
21
0.450001692553173
72
1
10
57.2107837415528
20
0.450001692553173
11
56.2892162584472
21
0.449998307446805
72
1
10
56.2892162584472
20
0.449998307446805
11
56.75
21
3.94999999999999
97
0
75
0
76
1
52
0
41
0.0062
77
0
78
1
53
45
43
0
44
0
45
-0.0139193969876572
46
0.0139193969876572
79
0
47
0
98
1
10
0
20
0
0
HATCH
5
125
100
AcDbEntity
8
2
62
256
6
ByLayer
370
13
48
1
60
0
100
AcDbHatch
10
0
20
0
30
0
210
0
220
0
230
1
2
ANSI31
70
0
71
0
91
1
92
5
93
3
72
1
10
56.75
20
-3.95000000000002
11
56.2892162584472
21
-0.450001692553201
72
1
10
56.2892162584472
20
-0.450001692553201
11
57.2107837415528
21
-0.449998307446833
72
1
10
57.2107837415528
20
-0.449998307446833
11
56.75
21
-3.95000000000002
97
0
75
0
76
1
52
0
41
0.0062
77
0
78
1
53
45
43
0
44
0
45
-0.0139193969876572
46
0.0139193969876572
79
0
47
0
98
1
10
0
20
0
0
HATCH
5
12B
100
AcDbEntity
8
SK2
62
256
6
ByLayer
370
13
48
1
60
0
100
AcDbHatch
10
0
20
0
30
0
210
0
220
0
230
1
2
ANSI31
70
0
71
0
91
1
92
5
93
3
72
1
10
-44.25
20
4
11
-43.7892162584472
21
0.500001692553184
72
1
10
-43.7892162584472
20
0.500001692553184
11
-44.7107837415528
21
0.499998307446816
72
1
10
-44.7107837415528
20
0.499998307446816
11
-44.25
21
4
97
0
75
0
76
1
52
0
41
0.0062
77
0
78
1
53
45
43
0
44
0
45
-0.0139193969876572
46
0.0139193969876572
79
0
47
0
98
1
10
0
20
0
0
HATCH
5
12F
100
AcDbEntity
8
SK2
62
256
6
ByLayer
370
13
48
1
60
0
100
AcDbHatch
10
0
20
0
30
0
210
0
220
0
230
1
2
ANSI31
70
0
71
0
91
1
92
5
93
3
72
1
10
-44.25
20
-4
11
-44.7107837415528
21
-0.500001692553184
72
1
10
-44.7107837415528
20
-0.500001692553184
11
-43.7892162584472
21
-0.499998307446816
72
1
10
-43.7892162584472
20
-0.499998307446816
11
-44.25
21
-4
97
0
75
0
76
1
52
0
41
0.0062
77
0
78
1
53
45
43
0
44
0
45
-0.0139193969876572
46
0.0139193969876572
79
0
47
0
98
1
10
0
20
0
0
HATCH
5
134
100
AcDbEntity
8
SK2
62
256
6
ByLayer
370
13
48
1
60
0
100
AcDbHatch
10
0
20
0
30
0
210
0
220
0
230
1
2
ANSI31
70
0
71
0
91
1
92
5
93
3
72
1
10
53.977485871083
20
30.153733790525
11
57.4018552035271
21
29.2958267538214
72
1
10
57.4018552035271
20
29.2958267538214
11
57.0631329015288
21
28.4387655961098
72
1
10
57.0631329015288
20
28.4387655961098
11
53.977485871083
21
30.153733790525
97
0
75
0
76
1
52
0
41
0.0062
77
0
78
1
53
45
43
0
44
0
45
-0.0139193969876572
46
0.0139193969876572
79
0
47
0
98
1
10
0
20
0
0
HATCH
5
138
100
AcDbEntity
8
SK2
62
256
6
ByLayer
370
13
48
1
60
0
100
AcDbHatch
10
0
20
0
30
0
210
0
220
0
230
1
2
ANSI31
70
0
71
0
91
1
92
5
93
3
72
1
10
53.9774858710826
20
-30.1537337905251
11
57.0631297533716
21
-28.4387668403181
72
1
10
57.0631297533716
20
-28.4387668403181
11
57.4018583516837
21
-29.2958255096135
72
1
10
57.4018583516837
20
-29.2958255096135
11
53.9774858710826
21
-30.1537337905251
97
0
75
0
76
1
52
0
41
0.0062
77
0
78
1
53
45
43
0
44
0
45
-0.0139193969876572
46
0.0139193969876572
79
0
47
0
98
1
10
0
20
0
0
DIMENSION
5
13C
100
AcDbEntity
8
2
62
256
6
ByLayer
370
18
48
1
60
0
100
AcDbDimension
2
_U0
10
43
20
-57.908498
30
0
11
3.5
21
-57.908498
31
0
70
32
71
1
72
1
41
1
210
0
220
0
230
1
3
Standard
100
AcDbAlignedDimension
13
-36
23
-4
33
0
14
43
24
-3.95
34
0
50
0
100
AcDbRotatedDimension
1001
ACAD
1000
DSTYLE
1002
{
1070
   371
1070
    13
1070
   372
1070
    13
1070
     3
1000

1070
   170
1070
     0
1070
   144
1040
1.0
1070
   277
1070
     2
1070
   284
1070
     8
1070
   278
1070
    46
1070
   146
1040
1.0
1070
   345
1005
16
1070
   347
1005
16
1070
   346
1005
16
1070
   344
1005
0
1070
   343
1005
0
1070
   172
1070
     1
1070
    76
1070
     0
1070
    75
1070
     0
1070
   282
1070
     0
1070
   281
1070
     0
1070
    71
1070
     0
1070
    74
1070
     0
1070
   279
1070
     0
1070
   173
1070
     1
1070
   340
1005
11B
1070
   271
1070
     2
1070
   272
1070
     2
1070
    77
1070
     1
1070
    73
1070
     1
1070
   171
1070
     3
1070
   274
1070
     4
1070
   177
1070
     2
1070
   176
1070
     2
1070
   178
1070
     2
1070
    78
1070
     8
1070
    48
1040
-0.1
1070
    41
1040
3.5
1070
   147
1040
1.75
1070
    42
1040
1.5875
1070
    44
1040
2.0
1070
   140
1040
3.5
1002
}
1001
ACAD_DSTYLE_DIM_LINETYPE
1070
   380
1005
16
1001
ACAD_DSTYLE_DIM_EXT1_LINETYPE
1070
   381
1005
16
1001
ACAD_DSTYLE_DIM_EXT2_LINETYPE
1070
   382
1005
16
0
DIMENSION
5
155
100
AcDbEntity
8
SK2
62
256
6
ByLayer
370
18
48
1
60
0
100
AcDbDimension
2
_U1
10
2
20
-37.908498
30
0
11
22.5
21
-37.908498
31
0
70
32
71
1
72
1
41
1
210
0
220
0
230
1
3
Standard
100
AcDbAlignedDimension
13
43
23
-3.95
33
0
14
2
24
-3.95
34
0
50
0
100
AcDbRotatedDimension
1001
ACAD
1000
DSTYLE
1002
{
1070
   371
1070
    13
1070
   372
1070
    13
1070
     3
1000

1070
   170
1070
     0
1070
   144
1040
1.0
1070
   277
1070
     2
1070
   284
1070
     8
1070
   278
1070
    46
1070
   146
1040
1.0
1070
   345
1005
16
1070
   347
1005
16
1070
   346
1005
16
1070
   344
1005
0
1070
   343
1005
0
1070
   172
1070
     1
1070
    76
1070
     0
1070
    75
1070
     0
1070
   282
1070
     0
1070
   281
1070
     0
1070
    71
1070
     0
1070
    74
1070
     0
1070
   279
1070
     0
1070
   173
1070
     1
1070
   340
1005
11B
1070
   271
1070
     2
1070
   272
1070
     2
1070
    77
1070
     1
1070
    73
1070
     1
1070
   171
1070
     3
1070
   274
1070
     4
1070
   177
1070
     2
1070
   176
1070
     2
1070
   178
1070
     2
1070
    78
1070
     8
1070
    48
1040
-0.1
1070
    41
1040
3.5
1070
   147
1040
1.75
1070
    42
1040
1.5875
1070
    44
1040
2.0
1070
   140
1040
3.5
1002
}
1001
ACAD_DSTYLE_DIM_LINETYPE
1070
   380
1005
16
1001
ACAD_DSTYLE_DIM_EXT1_LINETYPE
1070
   381
1005
16
1001
ACAD_DSTYLE_DIM_EXT2_LINETYPE
1070
   382
1005
16
0
DIMENSION
5
16D
100
AcDbEntity
8
SK2
62
256
6
ByLayer
370
18
48
1
60
0
100
AcDbDimension
2
_U2
10
14
20
-27.908498
30
0
11
28.5
21
-27.908498
31
0
70
32
71
1
72
1
41
1
210
0
220
0
230
1
3
Standard
100
AcDbAlignedDimension
13
43
23
-3.95
33
0
14
14
24
-3.95
34
0
50
0
100
AcDbRotatedDimension
1001
ACAD
1000
DSTYLE
1002
{
1070
   371
1070
    13
1070
   372
1070
    13
1070
     3
1000

1070
   170
1070
     0
1070
   144
1040
1.0
1070
   277
1070
     2
1070
   284
1070
     8
1070
   278
1070
    46
1070
   146
1040
1.0
1070
   345
1005
16
1070
   347
1005
16
1070
   346
1005
16
1070
   344
1005
0
1070
   343
1005
0
1070
   172
1070
     1
1070
    76
1070
     0
1070
    75
1070
     0
1070
   282
1070
     0
1070
   281
1070
     0
1070
    71
1070
     0
1070
    74
1070
     0
1070
   279
1070
     0
1070
   173
1070
     1
1070
   340
1005
11B
1070
   271
1070
     2
1070
   272
1070
     2
1070
    77
1070
     1
1070
    73
1070
     1
1070
   171
1070
     3
1070
   274
1070
     4
1070
   177
1070
     2
1070
   176
1070
     2
1070
   178
1070
     2
1070
    78
1070
     8
1070
    48
1040
-0.1
1070
    41
1040
3.5
1070
   147
1040
1.75
1070
    42
1040
1.5875
1070
    44
1040
2.0
1070
   140
1040
3.5
1002
}
1001
ACAD_DSTYLE_DIM_LINETYPE
1070
   380
1005
16
1001
ACAD_DSTYLE_DIM_EXT1_LINETYPE
1070
   381
1005
16
1001
ACAD_DSTYLE_DIM_EXT2_LINETYPE
1070
   382
1005
16
0
DIMENSION
5
187
100
AcDbEntity
8
SK2
62
256
6
ByLayer
370
18
48
1
60
0
100
AcDbDimension
2
_U3
10
0
20
-37.908498
30
0
11
-18
21
-37.908498
31
0
70
32
71
1
72
1
41
1
210
0
220
0
230
1
3
Standard
100
AcDbAlignedDimension
13
-36
23
-4
33
0
14
0
24
-4
34
0
50
0
100
AcDbRotatedDimension
1001
ACAD
1000
DSTYLE
1002
{
1070
   371
1070
    13
1070
   372
1070
    13
1070
     3
1000

1070
   170
1070
     0
1070
   144
1040
1.0
1070
   277
1070
     2
1070
   284
1070
     8
1070
   278
1070
    46
1070
   146
1040
1.0
1070
   345
1005
16
1070
   347
1005
16
1070
   346
1005
16
1070
   344
1005
0
1070
   343
1005
0
1070
   172
1070
     1
1070
    76
1070
     0
1070
    75
1070
     0
1070
   282
1070
     0
1070
   281
1070
     0
1070
    71
1070
     0
1070
    74
1070
     0
1070
   279
1070
     0
1070
   173
1070
     1
1070
   340
1005
11B
1070
   271
1070
     2
1070
   272
1070
     2
1070
    77
1070
     1
1070
    73
1070
     1
1070
   171
1070
     3
1070
   274
1070
     4
1070
   177
1070
     2
1070
   176
1070
     2
1070
   178
1070
     2
1070
    78
1070
     8
1070
    48
1040
-0.1
1070
    41
1040
3.5
1070
   147
1040
1.75
1070
    42
1040
1.5875
1070
    44
1040
2.0
1070
   140
1040
3.5
1002
}
1001
ACAD_DSTYLE_DIM_LINETYPE
1070
   380
1005
16
1001
ACAD_DSTYLE_DIM_EXT1_LINETYPE
1070
   381
1005
16
1001
ACAD_DSTYLE_DIM_EXT2_LINETYPE
1070
   382
1005
16
0
DIMENSION
5
19F
100
AcDbEntity
8
SK2
62
256
6
ByLayer
370
18
48
1
60
0
100
AcDbDimension
2
_U4
10
43
20
-47.908498
30
0
11
21.5
21
-47.908498
31
0
70
32
71
1
72
1
41
1
210
0
220
0
230
1
3
Standard
100
AcDbAlignedDimension
13
0
23
-4
33
0
14
43
24
-3.95
34
0
50
0
100
AcDbRotatedDimension
1001
ACAD
1000
DSTYLE
1002
{
1070
   371
1070
    13
1070
   372
1070
    13
1070
     3
1000

1070
   170
1070
     0
1070
   144
1040
1.0
1070
   277
1070
     2
1070
   284
1070
     8
1070
   278
1070
    46
1070
   146
1040
1.0
1070
   345
1005
16
1070
   347
1005
16
1070
   346
1005
16
1070
   344
1005
0
1070
   343
1005
0
1070
   172
1070
     1
1070
    76
1070
     0
1070
    75
1070
     0
1070
   282
1070
     0
1070
   281
1070
     0
1070
    71
1070
     0
1070
    74
1070
     0
1070
   279
1070
     0
1070
   173
1070
     1
1070
   340
1005
11B
1070
   271
1070
     2
1070
   272
1070
     2
1070
    77
1070
     1
1070
    73
1070
     1
1070
   171
1070
     3
1070
   274
1070
     4
1070
   177
1070
     2
1070
   176
1070
     2
1070
   178
1070
     2
1070
    78
1070
     8
1070
    48
1040
-0.1
1070
    41
1040
3.5
1070
   147
1040
1.75
1070
    42
1040
1.5875
1070
    44
1040
2.0
1070
   140
1040
3.5
1002
}
1001
ACAD_DSTYLE_DIM_LINETYPE
1070
   380
1005
16
1001
ACAD_DSTYLE_DIM_EXT1_LINETYPE
1070
   381
1005
16
1001
ACAD_DSTYLE_DIM_EXT2_LINETYPE
1070
   382
1005
16
0
ENDSEC
0
SECTION
2
OBJECTS
0
DICTIONARY
5
227
330
0
100
AcDbDictionary
280
0
281
1
3
ACAD_GROUP
350
228
3
ACAD_MLINESTYLE
350
229
0
DICTIONARY
5
228
330
0
100
AcDbDictionary
280
0
281
1
0
DICTIONARY
5
229
330
0
100
AcDbDictionary
280
0
281
1
3
Standard
350
18
0
MLINESTYLE
5
18
330
229
100
AcDbMlineStyle
2
Standard
70
0
3

62
256
51
90
52
90
71
2
49
-0.5
62
256
6
ByLayer
49
0.5
62
256
6
ByLayer
0
RASTERVARIABLES
5
215
330

100
AcDbRasterVariables
90
0
70
1
71
1
72
1
0
ENDSEC
0
EOF
