0
SECTION
2
HEADER
9
$ACADVER
1
AC1015
9
$DWGCODEPAGE
3
ANSI_1252
9
$HANDSEED
5
27f
9
$ANGBASE
50
0
9
$ANGDIR
70
0
9
$ATTMODE
70
1
9
$AUNITS
70
0
9
$AUPREC
70
0
9
$CECOLOR
62
256
9
$CELTSCALE
40
1
9
$CELTYPE
6
ByLayer
9
$CELWEIGHT
370
18
9
$CLAYER
8
0
9
$CMLJUST
70
0
9
$CMLSCALE
40
1
9
$CMLSTYLE
2
Standard
9
$DIMSTYLE
2
Standard
9
$TEXTSIZE
40
0.2
9
$TEXTSTYLE
7
Standard
9
$LUNITS
70
2
9
$LUPREC
70
4
9
$EXTNAMES
290
1
9
$INSUNITS
70
4
9
$LTSCALE
40
1
9
$LWDISPLAY
290
1
9
$PDMODE
70
0
9
$PDSIZE
40
0
9
$PLINEGEN
70
0
0
ENDSEC
0
SECTION
2
CLASSES
0
CLASS
1
RASTERVARIABLES
2
AcDbRasterVariables
3
ISM
90
0
280
0
281
0
0
ENDSEC
0
SECTION
2
TABLES
0
TABLE
2
VPORT
5
275
100
AcDbSymbolTable
0
VPORT
5
1
100
AcDbSymbolTableRecord
100
AcDbViewportTableRecord
2
*Active
70
0
10
0
20
0
11
1
21
1
12
-1
22
1
13
0
23
0
14
0.5
24
0.5
15
10
25
10
16
0
26
0
36
1
17
0
27
0
37
0
0
ENDTAB
0
TABLE
2
LTYPE
5
276
100
AcDbSymbolTable
0
LTYPE
5
14
100
AcDbSymbolTableRecord
100
AcDbLinetypeTableRecord
70
0
2
ByBlock
3

72
65
73
0
40
0
0
LTYPE
5
15
100
AcDbSymbolTableRecord
100
AcDbLinetypeTableRecord
70
0
2
ByLayer
3

72
65
73
0
40
0
0
LTYPE
5
16
100
AcDbSymbolTableRecord
100
AcDbLinetypeTableRecord
70
0
2
Continuous
3
Solid line
72
65
73
0
40
0
0
LTYPE
5
6E
100
AcDbSymbolTableRecord
100
AcDbLinetypeTableRecord
70
0
2
CENTER
3
____ _ ____ _ ____ _ ____
72
65
73
4
40
47.5
49
22
74
0
49
-8.5
74
0
49
8.5
74
0
49
-8.5
74
0
0
LTYPE
5
6F
100
AcDbSymbolTableRecord
100
AcDbLinetypeTableRecord
70
0
2
DASHED
3
__ __ __ __ __ __ __ __ __
72
65
73
2
40
25.72
49
12.86
74
0
49
-12.86
74
0
0
ENDTAB
0
TABLE
2
LAYER
5
277
100
AcDbSymbolTable
0
LAYER
5
10
100
AcDbSymbolTableRecord
100
AcDbLayerTableRecord
2
0
70
0
62
7
6
Continuous
290
1
370
-3
390
0
0
LAYER
5
71
100
AcDbSymbolTableRecord
100
AcDbLayerTableRecord
2
2
70
0
62
7
6
Continuous
290
1
370
-3
390
0
0
LAYER
5
86
100
AcDbSymbolTableRecord
100
AcDbLayerTableRecord
2
81
70
0
62
-3
6
Continuous
290
1
370
-3
390
0
0
LAYER
5
88
100
AcDbSymbolTableRecord
100
AcDbLayerTableRecord
2
80
70
0
62
-6
6
Continuous
290
1
370
-3
390
0
0
LAYER
5
8A
100
AcDbSymbolTableRecord
100
AcDbLayerTableRecord
2
1
70
0
62
4
6
Continuous
290
1
370
-3
390
0
0
LAYER
5
8F
100
AcDbSymbolTableRecord
100
AcDbLayerTableRecord
2
4
70
0
62
-2
6
CENTER
290
1
370
-3
390
0
0
LAYER
5
1ED
100
AcDbSymbolTableRecord
100
AcDbLayerTableRecord
2
Defpoints
70
0
62
7
6
Continuous
290
0
370
-3
390
0
0
LAYER
5
262
100
AcDbSymbolTableRecord
100
AcDbLayerTableRecord
2
SK1
70
0
62
4
6
Continuous
290
1
370
-3
390
0
0
LAYER
5
263
100
AcDbSymbolTableRecord
100
AcDbLayerTableRecord
2
SK2
70
0
62
7
6
Continuous
290
1
370
-3
390
0
0
LAYER
5
264
100
AcDbSymbolTableRecord
100
AcDbLayerTableRecord
2
SK6
70
0
62
5
6
Continuous
290
1
370
-3
390
0
0
ENDTAB
0
TABLE
2
STYLE
5
278
100
AcDbSymbolTable
0
STYLE
5
11
100
AcDbSymbolTableRecord
100
AcDbTextStyleTableRecord
2
Standard
3
txt
70
0
71
0
40
0
41
1
42
0
50
0
0
STYLE
5
1B7
100
AcDbSymbolTableRecord
100
AcDbTextStyleTableRecord
2
iso_b_vert
3
simplex.shx
70
0
71
0
40
0
41
1
42
0
50
0
0
STYLE
5
1B8
100
AcDbSymbolTableRecord
100
AcDbTextStyleTableRecord
2
DWGDirectTextStyle
3
simplex
70
0
71
0
40
0
41
1
42
0
50
0
0
ENDTAB
0
TABLE
2
DIMSTYLE
5
279
100
AcDbSymbolTable
100
AcDbDimStyleTable
0
DIMSTYLE
105
27
100
AcDbSymbolTableRecord
100
AcDbDimStyleTableRecord
2
Standard
70
0
3
<>
41
0.18
42
0.0625
44
0.18
140
0.18
147
0.09
73
0
74
0
77
1
271
2
275
0
278
52
280
0
340
11
0
ENDTAB
0
TABLE
2
VIEW
5
27a
100
AcDbSymbolTable
0
ENDTAB
0
TABLE
2
UCS
5
27b
100
AcDbSymbolTable
0
ENDTAB
0
TABLE
2
APPID
5
27c
100
AcDbSymbolTable
0
APPID
5
12
100
AcDbSymbolTableRecord
100
AcDbRegAppTableRecord
2
ACAD
70
0
0
APPID
5
1E9
100
AcDbSymbolTableRecord
100
AcDbRegAppTableRecord
2
ACAD_DSTYLE_DIMBREAK
70
0
0
APPID
5
221
100
AcDbSymbolTableRecord
100
AcDbRegAppTableRecord
2
ACAD_DSTYLE_DIM_LINETYPE
70
0
0
APPID
5
222
100
AcDbSymbolTableRecord
100
AcDbRegAppTableRecord
2
ACAD_DSTYLE_DIM_EXT1_LINETYPE
70
0
0
APPID
5
223
100
AcDbSymbolTableRecord
100
AcDbRegAppTableRecord
2
ACAD_DSTYLE_DIM_EXT2_LINETYPE
70
0
0
APPID
5
25E
100
AcDbSymbolTableRecord
100
AcDbRegAppTableRecord
2
ACAD_MLEADERVER
70
0
0
ENDTAB
0
TABLE
2
BLOCK_RECORD
5
27d
100
AcDbSymbolTable
0
BLOCK_RECORD
5
1F
100
AcDbSymbolTableRecord
100
AcDbBlockTableRecord
2
*Model_Space
340
0
70
0
0
BLOCK_RECORD
5
1B
100
AcDbSymbolTableRecord
100
AcDbBlockTableRecord
2
*Paper_Space
340
0
70
0
0
BLOCK_RECORD
5
23
100
AcDbSymbolTableRecord
100
AcDbBlockTableRecord
2
*Paper_Space0
340
0
70
0
0
BLOCK_RECORD
5
1EE
100
AcDbSymbolTableRecord
100
AcDbBlockTableRecord
2
*D1
340
0
70
0
0
BLOCK_RECORD
5
1FA
100
AcDbSymbolTableRecord
100
AcDbBlockTableRecord
2
_U0
340
0
70
0
0
ENDTAB
0
ENDSEC
0
SECTION
2
BLOCKS
0
BLOCK
5
20
100
AcDbEntity
8
0
100
AcDbBlockBegin
2
*Model_Space
70
0
10
0
20
0
30
0
3
*Model_Space
0
ENDBLK
5
21
100
AcDbEntity
8
0
100
AcDbBlockEnd
0
BLOCK
5
1C
100
AcDbEntity
8
0
100
AcDbBlockBegin
2
*Paper_Space
70
0
10
0
20
0
30
0
3
*Paper_Space
0
ENDBLK
5
1D
100
AcDbEntity
8
0
100
AcDbBlockEnd
0
BLOCK
5
24
100
AcDbEntity
8
0
100
AcDbBlockBegin
2
*Paper_Space0
70
0
10
0
20
0
30
0
3
*Paper_Space0
0
ENDBLK
5
25
100
AcDbEntity
8
0
100
AcDbBlockEnd
0
BLOCK
5
1EF
100
AcDbEntity
8
0
100
AcDbBlockBegin
2
*D1
70
1
10
0
20
0
30
0
3
*D1
0
LINE
5
1F1
100
AcDbEntity
8
0
62
256
6
ByLayer
370
-2
48
1
60
0
100
AcDbLine
10
0
20
-32.5575
30
0
11
0
21
-49.35
31
0
39
0
210
0
220
0
230
1
0
LINE
5
1F2
100
AcDbEntity
8
0
62
256
6
ByLayer
370
-2
48
1
60
0
100
AcDbLine
10
42.25
20
29.9125
30
0
11
42.25
21
-49.35
31
0
39
0
210
0
220
0
230
1
0
LINE
5
1F3
100
AcDbEntity
8
0
62
256
6
ByLayer
370
-2
48
1
60
0
100
AcDbLine
10
3.5
20
-47.35
30
0
11
38.75
21
-47.35
31
0
39
0
210
0
220
0
230
1
0
SOLID
5
1F4
100
AcDbEntity
8
0
62
256
6
ByLayer
370
-1
48
1
60
0
100
AcDbTrace
10
3.5
20
-46.766667
30
0
11
3.5
21
-47.933333
31
0
12
0
22
-47.35
32
0
13
0
23
-47.35
33
0
39
0
210
0
220
0
230
1
0
SOLID
5
1F5
100
AcDbEntity
8
0
62
256
6
ByLayer
370
-1
48
1
60
0
100
AcDbTrace
10
38.75
20
-47.933333
30
0
11
38.75
21
-46.766667
31
0
12
42.25
22
-47.35
32
0
13
42.25
23
-47.35
33
0
39
0
210
0
220
0
230
1
0
MTEXT
5
1F6
100
AcDbEntity
8
0
62
256
6
ByLayer
370
18
48
1
60
0
100
AcDbMText
10
21.125
20
-40.35
30
0
210
0
220
0
230
1
1
\A1;42.3
40
3.5
41
0
44
1
50
0
71
5
72
5
7
iso_b_vert
0
POINT
5
1F7
100
AcDbEntity
8
Defpoints
62
0
6
ByLayer
370
-1
48
1
60
0
100
AcDbPoint
10
0
20
-30.97
30
0
39
0
210
0
220
0
230
1
50
360
0
POINT
5
1F8
100
AcDbEntity
8
Defpoints
62
0
6
ByLayer
370
-1
48
1
60
0
100
AcDbPoint
10
42.25
20
31.5
30
0
39
0
210
0
220
0
230
1
50
360
0
POINT
5
1F9
100
AcDbEntity
8
Defpoints
62
0
6
ByLayer
370
-1
48
1
60
0
100
AcDbPoint
10
42.25
20
-47.35
30
0
39
0
210
0
220
0
230
1
50
360
0
ENDBLK
5
1F0
100
AcDbEntity
8
0
100
AcDbBlockEnd
0
BLOCK
5
201
100
AcDbEntity
8
0
100
AcDbBlockBegin
2
_U0
70
0
10
0
20
0
30
0
3
_U0
0
MTEXT
5
1FB
100
AcDbEntity
8
SK2
62
256
6
ByLayer
370
18
48
1
60
0
100
AcDbMText
10
17.019034
20
-46.317366
30
0
210
0
220
0
230
1
1
\W0.7640;42.2
40
3.5
41
0
44
1.084337
50
0
71
7
72
5
7
iso_b_vert
0
LINE
5
1FC
100
AcDbEntity
8
SK2
62
256
6
ByLayer
370
13
48
1
60
0
100
AcDbLine
10
0
20
-32.5575
30
0
11
0
21
-49.35
31
0
39
0
210
0
220
0
230
1
0
LINE
5
1FD
100
AcDbEntity
8
SK2
62
256
6
ByLayer
370
13
48
1
60
0
100
AcDbLine
10
42.25
20
29.9125
30
0
11
42.25
21
-49.35
31
0
39
0
210
0
220
0
230
1
0
LINE
5
1FE
100
AcDbEntity
8
SK2
62
256
6
ByLayer
370
13
48
1
60
0
100
AcDbLine
10
0
20
-47.35
30
0
11
42.25
21
-47.35
31
0
39
0
210
0
220
0
230
1
0
SOLID
5
1FF
100
AcDbEntity
8
SK2
62
256
6
ByLayer
370
18
48
1
60
0
100
AcDbTrace
10
0
20
-47.35
30
0
11
3.499998
21
-46.889216
31
0
12
3.500002
22
-47.810784
32
0
13
3.500002
23
-47.810784
33
0
39
0
210
0
220
0
230
1
0
SOLID
5
200
100
AcDbEntity
8
SK2
62
256
6
ByLayer
370
18
48
1
60
0
100
AcDbTrace
10
42.25
20
-47.35
30
0
11
38.750002
21
-47.810784
31
0
12
38.749998
22
-46.889216
32
0
13
38.749998
23
-46.889216
33
0
39
0
210
0
220
0
230
1
0
ENDBLK
5
202
100
AcDbEntity
8
0
100
AcDbBlockEnd
0
ENDSEC
0
SECTION
2
ENTITIES
0
ARC
5
11A
100
AcDbEntity
8
SK2
62
256
6
ByLayer
370
18
48
1
60
0
100
AcDbCircle
39
0
10
61
20
0
30
0
40
5.77350269189593
210
0
220
0
230
1
100
AcDbArc
50
150
51
210
0
ARC
5
11B
100
AcDbEntity
8
SK2
62
256
6
ByLayer
370
18
48
1
60
0
100
AcDbCircle
39
0
10
61
20
0
30
0
40
5.77350269189593
210
0
220
0
230
1
100
AcDbArc
50
330
51
30
0
ARC
5
11C
100
AcDbEntity
8
SK2
62
256
6
ByLayer
370
18
48
1
60
0
100
AcDbCircle
39
0
10
61
20
0
30
0
40
5.77350269189593
210
0
220
0
230
1
100
AcDbArc
50
30
51
90
0
ARC
5
11D
100
AcDbEntity
8
SK2
62
256
6
ByLayer
370
18
48
1
60
0
100
AcDbCircle
39
0
10
61
20
0
30
0
40
5.77350269189593
210
0
220
0
230
1
100
AcDbArc
50
210
51
270
0
ARC
5
11E
100
AcDbEntity
8
SK2
62
256
6
ByLayer
370
18
48
1
60
0
100
AcDbCircle
39
0
10
61
20
0
30
0
40
5.77350269189593
210
0
220
0
230
1
100
AcDbArc
50
90
51
150
0
ARC
5
11F
100
AcDbEntity
8
SK2
62
256
6
ByLayer
370
18
48
1
60
0
100
AcDbCircle
39
0
10
61
20
0
30
0
40
5.77350269189593
210
0
220
0
230
1
100
AcDbArc
50
270
51
330
0
ARC
5
121
100
AcDbEntity
8
SK2
62
256
6
ByLayer
370
18
48
1
60
0
100
AcDbCircle
39
0
10
86
20
0
30
0
40
5.77350269189593
210
0
220
0
230
1
100
AcDbArc
50
150
51
210
0
ARC
5
122
100
AcDbEntity
8
SK2
62
256
6
ByLayer
370
18
48
1
60
0
100
AcDbCircle
39
0
10
86
20
0
30
0
40
5.77350269189593
210
0
220
0
230
1
100
AcDbArc
50
330
51
30
0
ARC
5
123
100
AcDbEntity
8
SK2
62
256
6
ByLayer
370
18
48
1
60
0
100
AcDbCircle
39
0
10
86
20
0
30
0
40
5.77350269189593
210
0
220
0
230
1
100
AcDbArc
50
30
51
90
0
ARC
5
124
100
AcDbEntity
8
SK2
62
256
6
ByLayer
370
18
48
1
60
0
100
AcDbCircle
39
0
10
86
20
0
30
0
40
5.77350269189593
210
0
220
0
230
1
100
AcDbArc
50
210
51
270
0
ARC
5
125
100
AcDbEntity
8
SK2
62
256
6
ByLayer
370
18
48
1
60
0
100
AcDbCircle
39
0
10
86
20
0
30
0
40
5.77350269189593
210
0
220
0
230
1
100
AcDbArc
50
90
51
150
0
ARC
5
126
100
AcDbEntity
8
SK2
62
256
6
ByLayer
370
18
48
1
60
0
100
AcDbCircle
39
0
10
86
20
0
30
0
40
5.77350269189593
210
0
220
0
230
1
100
AcDbArc
50
270
51
330
0
ARC
5
127
100
AcDbEntity
8
1
62
256
6
ByLayer
370
18
48
1
60
0
100
AcDbCircle
39
0
10
41.25
20
-27.25
30
0
40
1
210
0
220
0
230
1
100
AcDbArc
50
0
51
90
0
ARC
5
128
100
AcDbEntity
8
1
62
256
6
ByLayer
370
18
48
1
60
0
100
AcDbCircle
39
0
10
41.25
20
27.25
30
0
40
1
210
0
220
0
230
1
100
AcDbArc
50
270
51
0
0
ARC
5
129
100
AcDbEntity
8
1
62
256
6
ByLayer
370
18
48
1
60
0
100
AcDbCircle
39
0
10
26.95
20
-27.25
30
0
40
1
210
0
220
0
230
1
100
AcDbArc
50
90
51
121.782398
0
ARC
5
12A
100
AcDbEntity
8
1
62
256
6
ByLayer
370
18
48
1
60
0
100
AcDbCircle
39
0
10
26.95
20
27.25
30
0
40
1
210
0
220
0
230
1
100
AcDbArc
50
238.237561
51
270
0
ARC
5
12B
100
AcDbEntity
8
1
62
256
6
ByLayer
370
18
48
1
60
0
100
AcDbCircle
39
0
10
43.25
20
-31.5
30
0
40
0.999999999999997
210
0
220
0
230
1
100
AcDbArc
50
180
51
270
0
ARC
5
12C
100
AcDbEntity
8
1
62
256
6
ByLayer
370
18
48
1
60
0
100
AcDbCircle
39
0
10
43.25
20
31.5
30
0
40
0.999999999999997
210
0
220
0
230
1
100
AcDbArc
50
90
51
180
0
ARC
5
12D
100
AcDbEntity
8
SK1
62
256
6
ByLayer
370
18
48
1
60
0
100
AcDbCircle
39
0
10
-27.2
20
22.245
30
0
40
1.4
210
0
220
0
230
1
100
AcDbArc
50
270
51
304.922922
0
ARC
5
12E
100
AcDbEntity
8
SK1
62
256
6
ByLayer
370
18
48
1
60
0
100
AcDbCircle
39
0
10
-23.2
20
-22.245
30
0
40
1.4
210
0
220
0
230
1
100
AcDbArc
50
40.841223
51
90
0
ARC
5
12F
100
AcDbEntity
8
SK1
62
256
6
ByLayer
370
18
48
1
60
0
100
AcDbCircle
39
0
10
-0.45
20
24.570431
30
0
40
0.600000000000001
210
0
220
0
230
1
100
AcDbArc
50
270
51
318.590378
0
ARC
5
130
100
AcDbEntity
8
SK1
62
256
6
ByLayer
370
18
48
1
60
0
100
AcDbCircle
39
0
10
-0.45
20
-24.570431
30
0
40
0.600000000000001
210
0
220
0
230
1
100
AcDbArc
50
41.409622
51
90
0
ARC
5
131
100
AcDbEntity
8
1
62
256
6
ByLayer
370
18
48
1
60
0
100
AcDbCircle
39
0
10
53.5
20
21.285613
30
0
40
1.9
210
0
220
0
230
1
100
AcDbArc
50
33.738742
51
146.255621
0
CIRCLE
5
119
100
AcDbEntity
8
SK2
62
256
6
ByLayer
370
18
48
1
60
0
100
AcDbCircle
10
61
20
0
30
0
40
7.5
39
0
210
0
220
0
230
1
0
CIRCLE
5
120
100
AcDbEntity
8
SK2
62
256
6
ByLayer
370
18
48
1
60
0
100
AcDbCircle
10
86
20
0
30
0
40
7.5
39
0
210
0
220
0
230
1
0
ELLIPSE
5
132
100
AcDbEntity
8
1
62
256
6
ByLayer
370
18
48
1
60
0
100
AcDbEllipse
10
53.5
20
23.162742
30
0
11
2.50000000000001
21
0
31
0
210
0
220
0
230
1
40
0.694658
41
-1.3080805246513
42
0
0
ELLIPSE
5
133
100
AcDbEntity
8
1
62
256
6
ByLayer
370
18
48
1
60
0
100
AcDbEllipse
10
53.5
20
23.162742
30
0
11
2.50000000000001
21
0
31
0
210
0
220
0
230
1
40
0.694658
41
0
42
-1.83351184011357
0
ELLIPSE
5
134
100
AcDbEntity
8
1
62
256
6
ByLayer
370
18
48
1
60
0
100
AcDbEllipse
10
53.5
20
-23.162742
30
0
11
-2.50000000000001
21
-8.04071436169565E-16
31
0
210
0
220
0
230
1
40
0.694658
41
-1.30817865153785
42
0
0
ELLIPSE
5
135
100
AcDbEntity
8
1
62
256
6
ByLayer
370
18
48
1
60
0
100
AcDbEllipse
10
53.5
20
-23.162742
30
0
11
-2.50000000000001
21
-8.04071436169565E-16
31
0
210
0
220
0
230
1
40
0.694658
41
0
42
1.57079626866498
0
ELLIPSE
5
136
100
AcDbEntity
8
1
62
256
6
ByLayer
370
18
48
1
60
0
100
AcDbEllipse
10
53.5
20
-23.162742
30
0
11
-2.50000000000001
21
-8.04071436169565E-16
31
0
210
0
220
0
230
1
40
0.694658
41
1.57079650118457
42
-1.83341347654756
0
ELLIPSE
5
137
100
AcDbEntity
8
1
62
256
6
ByLayer
370
18
48
1
60
0
100
AcDbEllipse
10
18
20
8.677456
30
0
11
-1.75
21
-5.62850005318694E-16
31
0
210
0
220
0
230
1
40
0.909961
41
-1.57079643071357
42
-1.03289677078831
0
ELLIPSE
5
138
100
AcDbEntity
8
1
62
256
6
ByLayer
370
18
48
1
60
0
100
AcDbEllipse
10
18
20
8.677456
30
0
11
-1.75
21
-5.62850005318694E-16
31
0
210
0
220
0
230
1
40
0.909961
41
-2.10525981430568
42
-1.57079643071357
0
ELLIPSE
5
139
100
AcDbEntity
8
1
62
256
6
ByLayer
370
18
48
1
60
0
100
AcDbEllipse
10
18
20
-8.677456
30
0
11
1.75
21
0
31
0
210
0
220
0
230
1
40
0.909961
41
-2.11291715535362
42
-1.02838029489243
0
ELLIPSE
5
13A
100
AcDbEntity
8
1
62
256
6
ByLayer
370
18
48
1
60
0
100
AcDbEllipse
10
18
20
3.992678
30
0
11
-1.75
21
-5.62850005318694E-16
31
0
210
0
220
0
230
1
40
0.981627
41
-1.57079652902395
42
-0.377187843517458
0
ELLIPSE
5
13B
100
AcDbEntity
8
1
62
256
6
ByLayer
370
18
48
1
60
0
100
AcDbEllipse
10
18
20
3.992678
30
0
11
-1.75
21
-5.62850005318694E-16
31
0
210
0
220
0
230
1
40
0.981627
41
-2.78777063552699
42
-1.57079595759539
0
ELLIPSE
5
13C
100
AcDbEntity
8
1
62
256
6
ByLayer
370
18
48
1
60
0
100
AcDbEllipse
10
18
20
-3.992678
30
0
11
1.75
21
0
31
0
210
0
220
0
230
1
40
0.981627
41
-2.77775696100372
42
-0.372278977560744
0
ELLIPSE
5
13D
100
AcDbEntity
8
1
62
256
6
ByLayer
370
18
48
1
60
0
100
AcDbEllipse
10
53.5
20
-20.848056
30
0
11
-1.8
21
-5.78931434042085E-16
31
0
210
0
220
0
230
1
40
0.694658
41
0.990877700286416
42
1.57079616785122
0
ELLIPSE
5
13E
100
AcDbEntity
8
1
62
256
6
ByLayer
370
18
48
1
60
0
100
AcDbEllipse
10
53.5
20
-20.848056
30
0
11
-1.8
21
-5.78931434042085E-16
31
0
210
0
220
0
230
1
40
0.694658
41
1.57079616785121
42
2.15071460741237
0
ELLIPSE
5
13F
100
AcDbEntity
8
1
62
256
6
ByLayer
370
18
48
1
60
0
100
AcDbEllipse
10
53.5
20
-21.723171
30
0
11
1.8
21
0
31
0
210
0
220
0
230
1
40
0.694658
41
-2.63334182166332
42
-0.508250968146129
0
ELLIPSE
5
140
100
AcDbEntity
8
1
62
256
6
ByLayer
370
18
48
1
60
0
100
AcDbEllipse
10
53.5
20
-22.940095
30
0
11
-1.8
21
-5.78931434042085E-16
31
0
210
0
220
0
230
1
40
0.694658
41
0
42
6.28318530717959
0
ELLIPSE
5
141
100
AcDbEntity
8
1
62
256
6
ByLayer
370
18
48
1
60
0
100
AcDbEllipse
10
53.5
20
-22.796774
30
0
11
-2.43803518639975
21
-7.84141781504149E-16
31
0
210
0
220
0
230
1
40
0.694658
41
-0.0110938648770605
42
0
0
ELLIPSE
5
142
100
AcDbEntity
8
1
62
256
6
ByLayer
370
18
48
1
60
0
100
AcDbEllipse
10
53.5
20
-22.796774
30
0
11
-2.43803518639975
21
-7.84141781504149E-16
31
0
210
0
220
0
230
1
40
0.694658
41
0
42
1.5707961696827
0
ELLIPSE
5
143
100
AcDbEntity
8
1
62
256
6
ByLayer
370
18
48
1
60
0
100
AcDbEllipse
10
53.5
20
-22.796774
30
0
11
-2.43803518639975
21
-7.84141781504149E-16
31
0
210
0
220
0
230
1
40
0.694658
41
1.57079638796506
42
-3.13049892681761
0
ELLIPSE
5
144
100
AcDbEntity
8
1
62
256
6
ByLayer
370
18
48
1
60
0
100
AcDbEllipse
10
53.5
20
-22.940095
30
0
11
2.22060403785022
21
0
31
0
210
0
220
0
230
1
40
0.694658
41
-1.57079634899828
42
0
0
ELLIPSE
5
145
100
AcDbEntity
8
1
62
256
6
ByLayer
370
18
48
1
60
0
100
AcDbEllipse
10
53.5
20
-22.940095
30
0
11
2.22060403785022
21
0
31
0
210
0
220
0
230
1
40
0.694658
41
0
42
1.02445351208806
0
ELLIPSE
5
146
100
AcDbEntity
8
1
62
256
6
ByLayer
370
18
48
1
60
0
100
AcDbEllipse
10
53.5
20
-22.940095
30
0
11
2.22060403785022
21
0
31
0
210
0
220
0
230
1
40
0.694658
41
2.11713909362545
42
-1.57079634899832
0
ELLIPSE
5
147
100
AcDbEntity
8
1
62
256
6
ByLayer
370
18
48
1
60
0
100
AcDbEllipse
10
53.5
20
22.940095
30
0
11
1.8
21
0
31
0
210
0
220
0
230
1
40
0.694658
41
0
42
6.28318530717959
0
ELLIPSE
5
148
100
AcDbEntity
8
1
62
256
6
ByLayer
370
18
48
1
60
0
100
AcDbEllipse
10
53.5
20
22.796774
30
0
11
2.43803518639975
21
0
31
0
210
0
220
0
230
1
40
0.694658
41
-0.0109958553162461
42
0
0
ELLIPSE
5
149
100
AcDbEntity
8
1
62
256
6
ByLayer
370
18
48
1
60
0
100
AcDbEllipse
10
53.5
20
22.796774
30
0
11
2.43803518639975
21
0
31
0
210
0
220
0
230
1
40
0.694658
41
0
42
-3.130597250588
0
ELLIPSE
5
14A
100
AcDbEntity
8
1
62
256
6
ByLayer
370
18
48
1
60
0
100
AcDbEllipse
10
53.5
20
22.940095
30
0
11
-2.22060403785022
21
-7.14209711151262E-16
31
0
210
0
220
0
230
1
40
0.694658
41
2.11723716836254
42
0
0
ELLIPSE
5
14B
100
AcDbEntity
8
1
62
256
6
ByLayer
370
18
48
1
60
0
100
AcDbEllipse
10
53.5
20
22.940095
30
0
11
-2.22060403785022
21
-7.14209711151262E-16
31
0
210
0
220
0
230
1
40
0.694658
41
0
42
1.02435543734973
0
ELLIPSE
5
14C
100
AcDbEntity
8
1
62
256
6
ByLayer
370
18
48
1
60
0
100
AcDbEllipse
10
53.5
20
-20.848056
30
0
11
-1.8
21
-5.78931434042085E-16
31
0
210
0
220
0
230
1
40
0.694658
41
0.990877700286416
42
1.57079616785122
0
ELLIPSE
5
14D
100
AcDbEntity
8
1
62
256
6
ByLayer
370
18
48
1
60
0
100
AcDbEllipse
10
53.5
20
-20.848056
30
0
11
-1.8
21
-5.78931434042085E-16
31
0
210
0
220
0
230
1
40
0.694658
41
1.57079616785121
42
2.15071460741237
0
ELLIPSE
5
14E
100
AcDbEntity
8
1
62
256
6
ByLayer
370
18
48
1
60
0
100
AcDbEllipse
10
53.5
20
-21.723171
30
0
11
1.8
21
0
31
0
210
0
220
0
230
1
40
0.694658
41
-2.63334182166332
42
-0.508250968146129
0
ELLIPSE
5
14F
100
AcDbEntity
8
1
62
256
6
ByLayer
370
18
48
1
60
0
100
AcDbEllipse
10
53.5
20
-22.940095
30
0
11
-1.8
21
-5.78931434042085E-16
31
0
210
0
220
0
230
1
40
0.694658
41
0
42
6.28318530717959
0
ELLIPSE
5
150
100
AcDbEntity
8
1
62
256
6
ByLayer
370
18
48
1
60
0
100
AcDbEllipse
10
53.5
20
-22.940095
30
0
11
2.22060403785022
21
0
31
0
210
0
220
0
230
1
40
0.694658
41
-1.57079634899828
42
0
0
ELLIPSE
5
151
100
AcDbEntity
8
1
62
256
6
ByLayer
370
18
48
1
60
0
100
AcDbEllipse
10
53.5
20
-22.940095
30
0
11
2.22060403785022
21
0
31
0
210
0
220
0
230
1
40
0.694658
41
0
42
1.02445351208806
0
ELLIPSE
5
152
100
AcDbEntity
8
1
62
256
6
ByLayer
370
18
48
1
60
0
100
AcDbEllipse
10
53.5
20
-22.940095
30
0
11
2.22060403785022
21
0
31
0
210
0
220
0
230
1
40
0.694658
41
2.11713909362545
42
-1.57079634899832
0
ELLIPSE
5
153
100
AcDbEntity
8
1
62
256
6
ByLayer
370
18
48
1
60
0
100
AcDbEllipse
10
53.5
20
-22.796774
30
0
11
-2.43803518639975
21
-7.84141781504149E-16
31
0
210
0
220
0
230
1
40
0.694658
41
-0.0110938648770605
42
0
0
ELLIPSE
5
154
100
AcDbEntity
8
1
62
256
6
ByLayer
370
18
48
1
60
0
100
AcDbEllipse
10
53.5
20
-22.796774
30
0
11
-2.43803518639975
21
-7.84141781504149E-16
31
0
210
0
220
0
230
1
40
0.694658
41
0
42
1.5707961696827
0
ELLIPSE
5
155
100
AcDbEntity
8
1
62
256
6
ByLayer
370
18
48
1
60
0
100
AcDbEllipse
10
53.5
20
-22.796774
30
0
11
-2.43803518639975
21
-7.84141781504149E-16
31
0
210
0
220
0
230
1
40
0.694658
41
1.57079638796506
42
-3.13049892681761
0
ELLIPSE
5
156
100
AcDbEntity
8
1
62
256
6
ByLayer
370
18
48
1
60
0
100
AcDbEllipse
10
53.5
20
22.940095
30
0
11
1.8
21
0
31
0
210
0
220
0
230
1
40
0.694658
41
0
42
6.28318530717959
0
ELLIPSE
5
157
100
AcDbEntity
8
1
62
256
6
ByLayer
370
18
48
1
60
0
100
AcDbEllipse
10
53.5
20
22.940095
30
0
11
-2.22060403785022
21
-7.14209711151262E-16
31
0
210
0
220
0
230
1
40
0.694658
41
2.11723716836254
42
0
0
ELLIPSE
5
158
100
AcDbEntity
8
1
62
256
6
ByLayer
370
18
48
1
60
0
100
AcDbEllipse
10
53.5
20
22.940095
30
0
11
-2.22060403785022
21
-7.14209711151262E-16
31
0
210
0
220
0
230
1
40
0.694658
41
0
42
1.02435543734973
0
ELLIPSE
5
159
100
AcDbEntity
8
1
62
256
6
ByLayer
370
18
48
1
60
0
100
AcDbEllipse
10
53.5
20
22.796774
30
0
11
2.43803518639975
21
0
31
0
210
0
220
0
230
1
40
0.694658
41
-0.0109958553162461
42
0
0
ELLIPSE
5
15A
100
AcDbEntity
8
1
62
256
6
ByLayer
370
18
48
1
60
0
100
AcDbEllipse
10
53.5
20
22.796774
30
0
11
2.43803518639975
21
0
31
0
210
0
220
0
230
1
40
0.694658
41
0
42
-3.130597250588
0
ELLIPSE
5
15B
100
AcDbEntity
8
SK1
62
256
6
ByLayer
370
13
48
1
60
0
100
AcDbEllipse
10
-23.2
20
-21.778508
30
0
11
1.4
21
0
31
0
210
0
220
0
230
1
40
0.891007
41
1.10550655851978
42
1.5707963267949
0
ELLIPSE
5
15C
100
AcDbEntity
8
1
62
256
6
ByLayer
370
18
48
1
60
0
100
AcDbEllipse
10
110
20
-11.293635
30
0
11
-0.047087363096731
21
1.49926074457934
31
0
210
0
220
0
230
1
40
0.030301
41
-3.08913582354412
42
-2.37412431934956
0
ELLIPSE
5
15D
100
AcDbEntity
8
1
62
256
6
ByLayer
370
18
48
1
60
0
100
AcDbEllipse
10
110
20
-11.293635
30
0
11
-0.047087363096731
21
1.49926074457934
31
0
210
0
220
0
230
1
40
0.030301
41
-2.3741233596451
42
-0.803326891834251
0
ELLIPSE
5
15E
100
AcDbEntity
8
1
62
256
6
ByLayer
370
18
48
1
60
0
100
AcDbEllipse
10
53.5
20
22.940095
30
0
11
1.8
21
0
31
0
210
0
220
0
230
1
40
0.694658
41
0
42
6.28318530717959
0
ELLIPSE
5
15F
100
AcDbEntity
8
1
62
256
6
ByLayer
370
18
48
1
60
0
100
AcDbEllipse
10
53.5
20
22.796774
30
0
11
2.43803518639975
21
0
31
0
210
0
220
0
230
1
40
0.694658
41
-0.0109958553162461
42
0
0
ELLIPSE
5
160
100
AcDbEntity
8
1
62
256
6
ByLayer
370
18
48
1
60
0
100
AcDbEllipse
10
53.5
20
22.796774
30
0
11
2.43803518639975
21
0
31
0
210
0
220
0
230
1
40
0.694658
41
0
42
-3.130597250588
0
ELLIPSE
5
161
100
AcDbEntity
8
1
62
256
6
ByLayer
370
18
48
1
60
0
100
AcDbEllipse
10
53.5
20
22.940095
30
0
11
-2.22060403785022
21
-7.14209711151262E-16
31
0
210
0
220
0
230
1
40
0.694658
41
2.11723716836253
42
0
0
ELLIPSE
5
162
100
AcDbEntity
8
1
62
256
6
ByLayer
370
18
48
1
60
0
100
AcDbEllipse
10
53.5
20
22.940095
30
0
11
-2.22060403785022
21
-7.14209711151262E-16
31
0
210
0
220
0
230
1
40
0.694658
41
0
42
1.02435543734973
0
ELLIPSE
5
163
100
AcDbEntity
8
1
62
256
6
ByLayer
370
18
48
1
60
0
100
AcDbEllipse
10
110
20
11.293635
30
0
11
0.0470873630967275
21
1.49926074457934
31
0
210
0
220
0
230
1
40
0.030301
41
-2.33826497253348
42
-0.767468475956468
0
ELLIPSE
5
164
100
AcDbEntity
8
1
62
256
6
ByLayer
370
18
48
1
60
0
100
AcDbEllipse
10
110
20
11.293635
30
0
11
0.0470873630967275
21
1.49926074457934
31
0
210
0
220
0
230
1
40
0.030301
41
-0.767469435660907
42
-0.0524694675211621
0
ELLIPSE
5
165
100
AcDbEntity
8
1
62
256
6
ByLayer
370
18
48
1
60
0
100
AcDbEllipse
10
110
20
11.293635
30
0
11
0.0470873630967275
21
1.49926074457934
31
0
210
0
220
0
230
1
40
0.030301
41
-2.33826497253348
42
-0.767468475956468
0
ELLIPSE
5
166
100
AcDbEntity
8
1
62
256
6
ByLayer
370
18
48
1
60
0
100
AcDbEllipse
10
110
20
11.293635
30
0
11
0.0470873630967275
21
1.49926074457934
31
0
210
0
220
0
230
1
40
0.030301
41
-0.767469435660907
42
-0.0524694675211621
0
POINT
5
70
100
AcDbEntity
8
2
62
256
6
ByLayer
370
18
48
1
60
0
100
AcDbPoint
10
86
20
0
30
0
39
0
210
0
220
0
230
1
50
360
0
POINT
5
72
100
AcDbEntity
8
2
62
256
6
ByLayer
370
18
48
1
60
0
100
AcDbPoint
10
50
20
0
30
0
39
0
210
0
220
0
230
1
50
360
0
POINT
5
73
100
AcDbEntity
8
2
62
256
6
ByLayer
370
18
48
1
60
0
100
AcDbPoint
10
110
20
0
30
0
39
0
210
0
220
0
230
1
50
360
0
POINT
5
74
100
AcDbEntity
8
2
62
256
6
ByLayer
370
18
48
1
60
0
100
AcDbPoint
10
61
20
0
30
0
39
0
210
0
220
0
230
1
50
360
0
POINT
5
75
100
AcDbEntity
8
2
62
256
6
ByLayer
370
18
48
1
60
0
100
AcDbPoint
10
53.5
20
23.378544
30
0
39
0
210
0
220
0
230
1
50
360
0
POINT
5
76
100
AcDbEntity
8
2
62
256
6
ByLayer
370
18
48
1
60
0
100
AcDbPoint
10
0
20
0
30
0
39
0
210
0
220
0
230
1
50
360
0
POINT
5
77
100
AcDbEntity
8
2
62
256
6
ByLayer
370
18
48
1
60
0
100
AcDbPoint
10
61
20
0
30
0
39
0
210
0
220
0
230
1
50
360
0
POINT
5
78
100
AcDbEntity
8
2
62
256
6
ByLayer
370
18
48
1
60
0
100
AcDbPoint
10
110
20
0
30
0
39
0
210
0
220
0
230
1
50
360
0
POINT
5
79
100
AcDbEntity
8
2
62
256
6
ByLayer
370
18
48
1
60
0
100
AcDbPoint
10
110
20
0
30
0
39
0
210
0
220
0
230
1
50
360
0
POINT
5
7A
100
AcDbEntity
8
2
62
256
6
ByLayer
370
18
48
1
60
0
100
AcDbPoint
10
110
20
0
30
0
39
0
210
0
220
0
230
1
50
360
0
POINT
5
7B
100
AcDbEntity
8
2
62
256
6
ByLayer
370
18
48
1
60
0
100
AcDbPoint
10
86
20
0
30
0
39
0
210
0
220
0
230
1
50
360
0
POINT
5
7C
100
AcDbEntity
8
2
62
256
6
ByLayer
370
18
48
1
60
0
100
AcDbPoint
10
110
20
0
30
0
39
0
210
0
220
0
230
1
50
360
0
POINT
5
7D
100
AcDbEntity
8
2
62
256
6
ByLayer
370
18
48
1
60
0
100
AcDbPoint
10
86
20
0
30
0
39
0
210
0
220
0
230
1
50
360
0
POINT
5
7E
100
AcDbEntity
8
2
62
256
6
ByLayer
370
18
48
1
60
0
100
AcDbPoint
10
110
20
0
30
0
39
0
210
0
220
0
230
1
50
360
0
POINT
5
7F
100
AcDbEntity
8
2
62
256
6
ByLayer
370
18
48
1
60
0
100
AcDbPoint
10
86
20
0
30
0
39
0
210
0
220
0
230
1
50
360
0
POINT
5
80
100
AcDbEntity
8
2
62
256
6
ByLayer
370
18
48
1
60
0
100
AcDbPoint
10
53.5
20
23.378544
30
0
39
0
210
0
220
0
230
1
50
360
0
POINT
5
81
100
AcDbEntity
8
2
62
256
6
ByLayer
370
18
48
1
60
0
100
AcDbPoint
10
53.5
20
24.817223
30
0
39
0
210
0
220
0
230
1
50
360
0
POINT
5
82
100
AcDbEntity
8
2
62
256
6
ByLayer
370
18
48
1
60
0
100
AcDbPoint
10
50
20
0
30
0
39
0
210
0
220
0
230
1
50
360
0
POINT
5
83
100
AcDbEntity
8
2
62
256
6
ByLayer
370
18
48
1
60
0
100
AcDbPoint
10
110
20
11.293635
30
0
39
0
210
0
220
0
230
1
50
360
0
POINT
5
84
100
AcDbEntity
8
2
62
256
6
ByLayer
370
18
48
1
60
0
100
AcDbPoint
10
110
20
0
30
0
39
0
210
0
220
0
230
1
50
360
0
POINT
5
85
100
AcDbEntity
8
81
62
256
6
ByLayer
370
18
48
1
60
0
100
AcDbPoint
10
110
20
0
30
0
39
0
210
0
220
0
230
1
50
360
0
POINT
5
87
100
AcDbEntity
8
80
62
256
6
ByLayer
370
18
48
1
60
0
100
AcDbPoint
10
0
20
0
30
0
39
0
210
0
220
0
230
1
50
360
0
POINT
5
89
100
AcDbEntity
8
1
62
256
6
ByLayer
370
18
48
1
60
1
100
AcDbPoint
10
0
20
-30.97
30
0
39
0
210
0
220
0
230
1
50
360
0
POINT
5
8B
100
AcDbEntity
8
1
62
256
6
ByLayer
370
18
48
1
60
1
100
AcDbPoint
10
42.25
20
31.5
30
0
39
0
210
0
220
0
230
1
50
360
0
SPLINE
5
167
100
AcDbEntity
8
1
62
256
6
ByLayer
370
18
48
1
60
0
100
AcDbSpline
70
4
71
3
72
8
73
4
40
0
40
0
40
0
40
0
40
1
40
1
40
1
40
1
41
1
10
16.075
20
27.8272318284485
30
0
41
1
10
15.5930118860063
20
28.6960191551286
30
0
41
1
10
15.1097064852051
20
29.5640826443993
30
0
41
1
10
14.6253876765866
20
30.4315723180713
30
0
0
SPLINE
5
168
100
AcDbEntity
8
1
62
256
6
ByLayer
370
18
48
1
60
0
100
AcDbSpline
70
4
71
3
72
8
73
4
40
0
40
0
40
0
40
0
40
1
40
1
40
1
40
1
41
1
10
25.95
20
29.9142205940586
30
0
41
1
10
25.783382336586
20
30.086718788344
30
0
41
1
10
25.6167148649415
20
30.2591685807661
30
0
41
1
10
25.45
20
30.4315723180713
30
0
0
SPLINE
5
169
100
AcDbEntity
8
1
62
256
6
ByLayer
370
18
48
1
60
0
100
AcDbSpline
70
4
71
3
72
8
73
4
40
0
40
0
40
0
40
0
40
1
40
1
40
1
40
1
41
1
10
25.95
20
23.7722190802626
30
0
41
1
10
25.7839428389179
20
23.9885552271468
30
0
41
1
10
25.6172335326702
20
24.2045278276533
30
0
41
1
10
25.4499999999999
20
24.4200409500067
30
0
0
SPLINE
5
16A
100
AcDbEntity
8
1
62
256
6
ByLayer
370
18
48
1
60
0
100
AcDbSpline
70
4
71
3
72
12
73
8
40
0
40
0
40
0
40
0
40
0.25
40
0.25
40
0.499999999999999
40
0.499999999999999
40
1
40
1
40
1
40
1
41
1
10
16.075
20
21.0858397386545
30
0
41
1
10
15.9575543463047
20
21.3652183811887
30
0
41
1
10
15.8391567902152
20
21.6442532423245
30
0
41
1
10
15.6006785184763
20
22.2014716575895
30
0
41
1
10
15.4805909149784
20
22.4796718922849
30
0
41
1
10
15.1179575685047
20
23.3131299657863
30
0
41
1
10
14.8730455409432
20
23.8672472232375
30
0
41
1
10
14.6253876765866
20
24.4200409500067
30
0
0
SPLINE
5
16B
100
AcDbEntity
8
1
62
256
6
ByLayer
370
18
48
1
60
0
100
AcDbSpline
70
4
71
3
72
8
73
4
40
0
40
0
40
0
40
0
40
1
40
1
40
1
40
1
41
1
10
21.3746123234133
20
30.4315723180713
30
0
41
1
10
20.8902935147949
20
29.5640826443993
30
0
41
1
10
20.4069881139936
20
28.6960191551286
30
0
41
1
10
19.925
20
27.8272318284485
30
0
0
SPLINE
5
16C
100
AcDbEntity
8
1
62
256
6
ByLayer
370
18
48
1
60
0
100
AcDbSpline
70
4
71
3
72
12
73
8
40
0
40
0
40
0
40
0
40
0.5
40
0.5
40
0.75
40
0.75
40
1
40
1
40
1
40
1
41
1
10
21.3746123234134
20
24.4200409500068
30
0
41
1
10
21.1269480166304
20
23.8672328431859
30
0
41
1
10
20.8820296891945
20
23.313101136971
30
0
41
1
10
20.5193871561882
20
22.47962126342
30
0
41
1
10
20.3992965345052
20
22.2014137408366
30
0
41
1
10
20.1608123241297
20
21.6441807026864
30
0
41
1
10
20.0424022933999
20
21.3651152361162
30
0
41
1
10
19.925
20
21.0858397386545
30
0
0
SPLINE
5
16D
100
AcDbEntity
8
1
62
256
6
ByLayer
370
18
48
1
60
0
100
AcDbSpline
70
4
71
3
72
52
73
48
40
0
40
0
40
0
40
0
40
0.0625000000000011
40
0.0625000000000011
40
0.125000000000002
40
0.125000000000002
40
0.156250000000002
40
0.156250000000002
40
0.171875000000002
40
0.171875000000002
40
0.187500000000002
40
0.187500000000002
40
0.250000000000013
40
0.312500000000023
40
0.312500000000023
40
0.328125000000024
40
0.328125000000024
40
0.343750000000026
40
0.375000000000028
40
0.375000000000028
40
0.437500000000032
40
0.437500000000032
40
0.468750000000034
40
0.468750000000034
40
0.484375000000035
40
0.484375000000035
40
0.500000000000036
40
0.500000000000036
40
0.562500000000034
40
0.625000000000033
40
0.625000000000033
40
0.65625000000003
40
0.65625000000003
40
0.687500000000028
40
0.687500000000028
40
0.750000000000023
40
0.750000000000023
40
0.78125000000002
40
0.78125000000002
40
0.812500000000017
40
0.812500000000017
40
0.875000000000011
40
0.937500000000005
40
0.937500000000005
40
0.968750000000002
40
0.968750000000002
40
1
40
1
40
1
40
1
41
1
10
16.475
20
17.5834806976042
30
0
41
1
10
16.5131913232135
20
17.6356400010525
30
0
41
1
10
16.555455160368
20
17.6851012200768
30
0
41
1
10
16.6478009638929
20
17.7789189868855
30
0
41
1
10
16.6978839475418
20
17.8232746435516
30
0
41
1
10
16.7789435239476
20
17.8859940289633
30
0
41
1
10
16.8069557155953
20
17.9062628011664
30
0
41
1
10
16.8505015589457
20
17.935692316367
30
0
41
1
10
16.8652488722836
20
17.9453230710113
30
0
41
1
10
16.8950371680023
20
17.9641221469431
30
0
41
1
10
16.910101924586
20
17.9733067015478
30
0
41
1
10
16.9862682240961
20
18.0181710676171
30
0
41
1
10
17.1135048019649
20
18.083208317781
30
0
41
1
10
17.2513051323545
20
18.1351304202462
30
0
41
1
10
17.340852835611
20
18.1633757378614
30
0
41
1
10
17.3589510261372
20
18.1688174006424
30
0
41
1
10
17.3952241179028
20
18.1791975883318
30
0
41
1
10
17.4498427753161
20
18.1940439799827
30
0
41
1
10
17.5050795190822
20
18.2067537936931
30
0
41
1
10
17.6163637965048
20
18.2293796390629
30
0
41
1
10
17.691630903465
20
18.2407510129894
30
0
41
1
10
17.8061588831876
20
18.2522263132465
30
0
41
1
10
17.844606956195
20
18.2551180074906
30
0
41
1
10
17.9026967272745
20
18.2580243290622
30
0
41
1
10
17.9221663084688
20
18.2587548948534
30
0
41
1
10
17.9610107977542
20
18.2597262135564
30
0
41
1
10
17.9803927501871
20
18.2599684300752
30
0
41
1
10
18.0771038623368
20
18.2599793960362
30
0
41
1
10
18.2305754564871
20
18.2523491052793
30
0
41
1
10
18.3815722297398
20
18.2297489735089
30
0
41
1
10
18.4938641285014
20
18.2069930234637
30
0
41
1
10
18.53118989199
20
18.1984144688029
30
0
41
1
10
18.6044182748904
20
18.179554176381
30
0
41
1
10
18.6404572010122
20
18.1692486073201
30
0
41
1
10
18.7468816355557
20
18.1357460199801
30
0
41
1
10
18.8155819965158
20
18.1099745989849
30
0
41
1
10
18.9152578724162
20
18.0661113512754
30
0
41
1
10
18.9479189224545
20
18.0506197251854
30
0
41
1
10
19.012089924821
20
18.017850795655
30
0
41
1
10
19.0436842374209
20
18.0005169079059
30
0
41
1
10
19.1354026811123
20
17.9465252426151
30
0
41
1
10
19.250303463002
20
17.8689160540892
30
0
41
1
10
19.3508323679639
20
17.7802152843766
30
0
41
1
10
19.420705897915
20
17.7093648178742
30
0
41
1
10
19.4431211599626
20
17.6849649636698
30
0
41
1
10
19.4857083394232
20
17.6350705152685
30
0
41
1
10
19.5059044140918
20
17.609560245944
30
0
41
1
10
19.525
20
17.5834806976043
30
0
0
SPLINE
5
16E
100
AcDbEntity
8
1
62
256
6
ByLayer
370
18
48
1
60
0
100
AcDbSpline
70
4
71
3
72
52
73
48
40
0
40
0
40
0
40
0
40
0.0625000000000009
40
0.0625000000000009
40
0.125000000000002
40
0.125000000000002
40
0.156250000000003
40
0.156250000000003
40
0.171875000000004
40
0.171875000000004
40
0.187500000000005
40
0.187500000000005
40
0.250000000000013
40
0.312500000000022
40
0.312500000000022
40
0.328125000000024
40
0.328125000000024
40
0.343750000000026
40
0.375000000000028
40
0.375000000000028
40
0.437500000000033
40
0.437500000000033
40
0.468750000000037
40
0.468750000000037
40
0.484375000000038
40
0.484375000000038
40
0.500000000000039
40
0.500000000000039
40
0.562500000000039
40
0.625000000000039
40
0.625000000000039
40
0.656250000000038
40
0.656250000000038
40
0.687500000000037
40
0.687500000000037
40
0.750000000000031
40
0.750000000000031
40
0.781250000000028
40
0.781250000000028
40
0.812500000000025
40
0.812500000000025
40
0.875000000000018
40
0.937500000000011
40
0.937500000000011
40
0.968750000000005
40
0.968750000000005
40
1
40
1
40
1
40
1
41
1
10
19.525
20
-17.5834806976042
30
0
41
1
10
19.4868086767864
20
-17.6356400010525
30
0
41
1
10
19.444544839632
20
-17.6851012200768
30
0
41
1
10
19.3521990361071
20
-17.7789189868855
30
0
41
1
10
19.3021160524582
20
-17.8232746435515
30
0
41
1
10
19.2210564760524
20
-17.8859940289633
30
0
41
1
10
19.1930442844047
20
-17.9062628011664
30
0
41
1
10
19.1494984410543
20
-17.9356923163669
30
0
41
1
10
19.1347511277164
20
-17.9453230710112
30
0
41
1
10
19.1049628319977
20
-17.964122146943
30
0
41
1
10
19.0898980754139
20
-17.9733067015478
30
0
41
1
10
19.0137317759039
20
-18.0181710676171
30
0
41
1
10
18.8864951980351
20
-18.0832083177809
30
0
41
1
10
18.7486948676454
20
-18.1351304202462
30
0
41
1
10
18.659147164389
20
-18.1633757378613
30
0
41
1
10
18.6410489738628
20
-18.1688174006424
30
0
41
1
10
18.6047758820972
20
-18.1791975883318
30
0
41
1
10
18.5501572246839
20
-18.1940439799827
30
0
41
1
10
18.4949204809177
20
-18.206753793693
30
0
41
1
10
18.3836362034952
20
-18.2293796390628
30
0
41
1
10
18.308369096535
20
-18.2407510129894
30
0
41
1
10
18.1938411168124
20
-18.2522263132465
30
0
41
1
10
18.155393043805
20
-18.2551180074906
30
0
41
1
10
18.0973032727255
20
-18.2580243290621
30
0
41
1
10
18.0778336915312
20
-18.2587548948533
30
0
41
1
10
18.0389892022457
20
-18.2597262135563
30
0
41
1
10
18.0196072498129
20
-18.2599684300752
30
0
41
1
10
17.9228961376632
20
-18.2599793960361
30
0
41
1
10
17.7694245435129
20
-18.2523491052792
30
0
41
1
10
17.6184277702602
20
-18.2297489735088
30
0
41
1
10
17.5061358714986
20
-18.2069930234636
30
0
41
1
10
17.46881010801
20
-18.1984144688028
30
0
41
1
10
17.3955817251096
20
-18.1795541763809
30
0
41
1
10
17.3595427989878
20
-18.16924860732
30
0
41
1
10
17.2531183644443
20
-18.13574601998
30
0
41
1
10
17.1844180034842
20
-18.1099745989848
30
0
41
1
10
17.0847421275838
20
-18.0661113512754
30
0
41
1
10
17.0520810775455
20
-18.0506197251853
30
0
41
1
10
16.987910075179
20
-18.0178507956549
30
0
41
1
10
16.9563157625791
20
-18.0005169079058
30
0
41
1
10
16.8645973188877
20
-17.946525242615
30
0
41
1
10
16.749696536998
20
-17.8689160540891
30
0
41
1
10
16.6491676320361
20
-17.7802152843765
30
0
41
1
10
16.579294102085
20
-17.7093648178741
30
0
41
1
10
16.5568788400374
20
-17.6849649636697
30
0
41
1
10
16.5142916605768
20
-17.6350705152684
30
0
41
1
10
16.4940955859082
20
-17.6095602459439
30
0
41
1
10
16.475
20
-17.5834806976042
30
0
0
SPLINE
5
16F
100
AcDbEntity
8
1
62
256
6
ByLayer
370
18
48
1
60
0
100
AcDbSpline
70
4
71
3
72
52
73
48
40
0
40
0
40
0
40
0
40
0.0624999999999974
40
0.0624999999999974
40
0.124999999999995
40
0.124999999999995
40
0.156249999999995
40
0.156249999999995
40
0.171874999999996
40
0.171874999999996
40
0.187499999999996
40
0.187499999999996
40
0.24999999999999
40
0.312499999999984
40
0.312499999999984
40
0.328124999999982
40
0.328124999999982
40
0.34374999999998
40
0.374999999999979
40
0.374999999999979
40
0.437499999999978
40
0.437499999999978
40
0.468749999999977
40
0.468749999999977
40
0.484374999999977
40
0.484374999999977
40
0.499999999999977
40
0.499999999999977
40
0.562499999999978
40
0.62499999999998
40
0.62499999999998
40
0.65624999999998
40
0.65624999999998
40
0.687499999999981
40
0.687499999999981
40
0.749999999999985
40
0.749999999999985
40
0.781249999999986
40
0.781249999999986
40
0.812499999999987
40
0.812499999999987
40
0.874999999999992
40
0.937499999999997
40
0.937499999999997
40
0.968749999999998
40
0.968749999999998
40
1
40
1
40
1
40
1
41
1
10
19.525
20
16.230601400091
30
0
41
1
10
19.4868086767864
20
16.175830651572
30
0
41
1
10
19.4445448396319
20
16.1235765324235
30
0
41
1
10
19.3521990361071
20
16.0239672420608
30
0
41
1
10
19.3021160524582
20
15.9766125032621
30
0
41
1
10
19.2210564760524
20
15.9093546103711
30
0
41
1
10
19.1930442844046
20
15.8875663672026
30
0
41
1
10
19.1494984410542
20
15.8558626405861
30
0
41
1
10
19.1347511277164
20
15.8454759050084
30
0
41
1
10
19.1049628319977
20
15.8251800306268
30
0
41
1
10
19.0898980754139
20
15.8152534092799
30
0
41
1
10
19.0137317759039
20
15.7667160545081
30
0
41
1
10
18.8864951980351
20
15.6960418033308
30
0
41
1
10
18.7486948676454
20
15.6392420148952
30
0
41
1
10
18.6591471643889
20
15.6082748474798
30
0
41
1
10
18.6410489738628
20
15.6023047874346
30
0
41
1
10
18.6047758820971
20
15.5909101826729
30
0
41
1
10
18.5501572246839
20
15.5746027417
30
0
41
1
10
18.4949204809177
20
15.5606184533738
30
0
41
1
10
18.3836362034951
20
15.5357049532121
30
0
41
1
10
18.3083690965349
20
15.5231568310926
30
0
41
1
10
18.1938411168124
20
15.5104882763165
30
0
41
1
10
18.1553930438049
20
15.5072941418848
30
0
41
1
10
18.0973032727254
20
15.5040834803131
30
0
41
1
10
18.0778336915312
20
15.5032762999706
30
0
41
1
10
18.0389892022457
20
15.5022030884862
30
0
41
1
10
18.0196072498129
20
15.501935440669
30
0
41
1
10
17.9228961376632
20
15.5019233236847
30
0
41
1
10
17.7694245064372
20
15.5103577906519
30
0
41
1
10
17.6184277702601
20
15.5352979119201
30
0
41
1
10
17.5061358714986
20
15.5603552125928
30
0
41
1
10
17.4688101080099
20
15.5697940766895
30
0
41
1
10
17.3955817251096
20
15.5905211866752
30
0
41
1
10
17.3595427989878
20
15.6018357051644
30
0
41
1
10
17.2531183644443
20
15.6385677492125
30
0
41
1
10
17.1844180034841
20
15.6667623225412
30
0
41
1
10
17.0847421275837
20
15.7145716614806
30
0
41
1
10
17.0520810775454
20
15.7314305538862
30
0
41
1
10
16.9879100751789
20
15.7670218060773
30
0
41
1
10
16.956315762579
20
15.785815182398
30
0
41
1
10
16.8645973188877
20
15.8442281361304
30
0
41
1
10
16.7496966354992
20
15.927876137977
30
0
41
1
10
16.649167632036
20
16.0225872482432
30
0
41
1
10
16.579294102085
20
16.0978168840039
30
0
41
1
10
16.5568788400374
20
16.1236581486908
30
0
41
1
10
16.5142916605768
20
16.1763492687084
30
0
41
1
10
16.4940955859081
20
16.2032161343921
30
0
41
1
10
16.475
20
16.230601400091
30
0
0
SPLINE
5
170
100
AcDbEntity
8
1
62
256
6
ByLayer
370
18
48
1
60
0
100
AcDbSpline
70
4
71
3
72
52
73
48
40
0
40
0
40
0
40
0
40
0.0625000000000082
40
0.0625000000000082
40
0.125000000000016
40
0.125000000000016
40
0.156250000000021
40
0.156250000000021
40
0.171875000000022
40
0.171875000000022
40
0.187500000000024
40
0.187500000000024
40
0.250000000000028
40
0.312500000000032
40
0.312500000000032
40
0.328125000000033
40
0.328125000000033
40
0.343750000000034
40
0.375000000000035
40
0.375000000000035
40
0.437500000000036
40
0.437500000000036
40
0.468750000000037
40
0.468750000000037
40
0.484375000000037
40
0.484375000000037
40
0.500000000000037
40
0.500000000000037
40
0.562500000000033
40
0.625000000000028
40
0.625000000000028
40
0.656250000000025
40
0.656250000000025
40
0.687500000000023
40
0.687500000000023
40
0.750000000000017
40
0.750000000000017
40
0.781250000000015
40
0.781250000000015
40
0.812500000000012
40
0.812500000000012
40
0.875000000000008
40
0.937500000000004
40
0.937500000000004
40
0.968750000000002
40
0.968750000000002
40
1
40
1
40
1
40
1
41
1
10
16.475
20
-16.230601400091
30
0
41
1
10
16.5131913232136
20
-16.1758306515719
30
0
41
1
10
16.5554551603681
20
-16.1235765324235
30
0
41
1
10
16.6478009638929
20
-16.0239672420608
30
0
41
1
10
16.6978839475418
20
-15.9766125032621
30
0
41
1
10
16.7789435239476
20
-15.9093546103711
30
0
41
1
10
16.8069557155954
20
-15.8875663672025
30
0
41
1
10
16.8505015589458
20
-15.8558626405861
30
0
41
1
10
16.8652488722836
20
-15.8454759050084
30
0
41
1
10
16.8950371680023
20
-15.8251800306267
30
0
41
1
10
16.9101019245861
20
-15.8152534092798
30
0
41
1
10
16.9862682240961
20
-15.7667160545081
30
0
41
1
10
17.1135048019649
20
-15.6960418033308
30
0
41
1
10
17.2513051323546
20
-15.6392420148952
30
0
41
1
10
17.340852835611
20
-15.6082748474797
30
0
41
1
10
17.3589510261372
20
-15.6023047874346
30
0
41
1
10
17.3952241179028
20
-15.5909101826728
30
0
41
1
10
17.4498427753161
20
-15.5746027417
30
0
41
1
10
17.5050795190823
20
-15.5606184533737
30
0
41
1
10
17.6163637965048
20
-15.535704953212
30
0
41
1
10
17.6916309034651
20
-15.5231568310926
30
0
41
1
10
17.8061588831876
20
-15.5104882763164
30
0
41
1
10
17.844606956195
20
-15.5072941418847
30
0
41
1
10
17.9026967272745
20
-15.504083480313
30
0
41
1
10
17.9221663084688
20
-15.5032762999705
30
0
41
1
10
17.9610107977543
20
-15.5022030884861
30
0
41
1
10
17.9803927501871
20
-15.5019354406689
30
0
41
1
10
18.0771038623368
20
-15.5019233236846
30
0
41
1
10
18.2305754564871
20
-15.5103579761503
30
0
41
1
10
18.3815722297399
20
-15.53529791192
30
0
41
1
10
18.4938641285014
20
-15.5603552125928
30
0
41
1
10
18.53118989199
20
-15.5697940766894
30
0
41
1
10
18.6044182748904
20
-15.5905211866751
30
0
41
1
10
18.6404572010122
20
-15.6018357051643
30
0
41
1
10
18.7468816355557
20
-15.6385677492124
30
0
41
1
10
18.8155819965159
20
-15.6667623225411
30
0
41
1
10
18.9152578724163
20
-15.7145716614805
30
0
41
1
10
18.9479189224545
20
-15.7314305538861
30
0
41
1
10
19.0120899248211
20
-15.7670218060772
30
0
41
1
10
19.0436842374209
20
-15.7858151823979
30
0
41
1
10
19.1354026811123
20
-15.8442281361302
30
0
41
1
10
19.2503034630021
20
-15.9278758442662
30
0
41
1
10
19.350832367964
20
-16.022587248243
30
0
41
1
10
19.420705897915
20
-16.0978168840038
30
0
41
1
10
19.4431211599626
20
-16.1236581486907
30
0
41
1
10
19.4857083394232
20
-16.1763492687083
30
0
41
1
10
19.5059044140919
20
-16.203216134392
30
0
41
1
10
19.525
20
-16.2306014000909
30
0
0
SPLINE
5
171
100
AcDbEntity
8
1
62
256
6
ByLayer
370
18
48
1
60
0
100
AcDbSpline
70
4
71
3
72
52
73
48
40
0
40
0
40
0
40
0
40
0.0625000000000093
40
0.0625000000000093
40
0.125000000000019
40
0.125000000000019
40
0.156250000000024
40
0.156250000000024
40
0.171875000000026
40
0.171875000000026
40
0.187500000000028
40
0.187500000000028
40
0.250000000000028
40
0.312500000000029
40
0.312500000000029
40
0.32812500000003
40
0.32812500000003
40
0.34375000000003
40
0.375000000000028
40
0.375000000000028
40
0.437500000000024
40
0.437500000000024
40
0.468750000000022
40
0.468750000000022
40
0.484375000000021
40
0.484375000000021
40
0.50000000000002
40
0.50000000000002
40
0.562500000000019
40
0.625000000000018
40
0.625000000000018
40
0.656250000000017
40
0.656250000000017
40
0.687500000000016
40
0.687500000000016
40
0.750000000000015
40
0.750000000000015
40
0.781250000000013
40
0.781250000000013
40
0.812500000000011
40
0.812500000000011
40
0.875000000000007
40
0.937500000000003
40
0.937500000000003
40
0.968750000000002
40
0.968750000000002
40
1
40
1
40
1
40
1
41
1
10
16.475
20
12.1692581906231
30
0
41
1
10
16.5131913232136
20
12.2301178264302
30
0
41
1
10
16.555455160368
20
12.2879054858374
30
0
41
1
10
16.6478009638929
20
12.3976356429975
30
0
41
1
10
16.6978839475418
20
12.4495772220851
30
0
41
1
10
16.7789435239476
20
12.5230948267255
30
0
41
1
10
16.8069557155953
20
12.546865914497
30
0
41
1
10
16.8505015589457
20
12.5813970227831
30
0
41
1
10
16.8652488722836
20
12.5927000911883
30
0
41
1
10
16.8950371680023
20
12.6147685814487
30
0
41
1
10
16.910101924586
20
12.6255530494013
30
0
41
1
10
16.9862682240961
20
12.6782442009625
30
0
41
1
10
17.1135048019649
20
12.7547026658694
30
0
41
1
10
17.2513051323546
20
12.8158336314504
30
0
41
1
10
17.340852835611
20
12.8491049769813
30
0
41
1
10
17.3589510261372
20
12.8555159056377
30
0
41
1
10
17.3952241179028
20
12.8677465650791
30
0
41
1
10
17.4498427753161
20
12.8852420628534
30
0
41
1
10
17.5050795190823
20
12.9002254430041
30
0
41
1
10
17.6163637965048
20
12.9269031973855
30
0
41
1
10
17.691630903465
20
12.9403174920613
30
0
41
1
10
17.8061588831876
20
12.9538557677287
30
0
41
1
10
17.844606956195
20
12.9572677378175
30
0
41
1
10
17.9026967272745
20
12.960697056001
30
0
41
1
10
17.9221663084688
20
12.961559115121
30
0
41
1
10
17.9610107977543
20
12.9627052671934
30
0
41
1
10
17.9803927501871
20
12.9629910870839
30
0
41
1
10
18.0771038623368
20
12.9630040270357
30
0
41
1
10
18.2305754564871
20
12.9539993691372
30
0
41
1
10
18.3815722297398
20
12.9273387610449
30
0
41
1
10
18.4938641285014
20
12.900507472215
30
0
41
1
10
18.53118989199
20
12.8903943389558
30
0
41
1
10
18.6044182748904
20
12.8681661348699
30
0
41
1
10
18.6404572010122
20
12.8560229573153
30
0
41
1
10
18.7468816355557
20
12.8165586143721
30
0
41
1
10
18.8155819965158
20
12.7862158835516
30
0
41
1
10
18.9152578724162
20
12.7346150745764
30
0
41
1
10
18.9479189224545
20
12.7163970509795
30
0
41
1
10
19.012089924821
20
12.6778778580254
30
0
41
1
10
19.0436842374209
20
12.6575102811593
30
0
41
1
10
19.1354026811123
20
12.5940992781155
30
0
41
1
10
19.250303463002
20
12.5030266718522
30
0
41
1
10
19.3508323679639
20
12.3991526888183
30
0
41
1
10
19.420705897915
20
12.3162839933899
30
0
41
1
10
19.4431211599626
20
12.2877612887184
30
0
41
1
10
19.4857083394232
20
12.2294724470794
30
0
41
1
10
19.5059044140918
20
12.1996878878974
30
0
41
1
10
19.525
20
12.1692581906231
30
0
0
SPLINE
5
172
100
AcDbEntity
8
1
62
256
6
ByLayer
370
18
48
1
60
0
100
AcDbSpline
70
4
71
3
72
52
73
48
40
0
40
0
40
0
40
0
40
0.06250000000001
40
0.06250000000001
40
0.12500000000002
40
0.12500000000002
40
0.156250000000023
40
0.156250000000023
40
0.171875000000025
40
0.171875000000025
40
0.187500000000027
40
0.187500000000027
40
0.25000000000003
40
0.312500000000032
40
0.312500000000032
40
0.328125000000033
40
0.328125000000033
40
0.343750000000034
40
0.375000000000034
40
0.375000000000034
40
0.437500000000034
40
0.437500000000034
40
0.468750000000035
40
0.468750000000035
40
0.484375000000035
40
0.484375000000035
40
0.500000000000035
40
0.500000000000035
40
0.56250000000003
40
0.625000000000024
40
0.625000000000024
40
0.656250000000022
40
0.656250000000022
40
0.687500000000019
40
0.687500000000019
40
0.750000000000016
40
0.750000000000016
40
0.781250000000014
40
0.781250000000014
40
0.812500000000012
40
0.812500000000012
40
0.875000000000008
40
0.937500000000003
40
0.937500000000003
40
0.968750000000002
40
0.968750000000002
40
1
40
1
40
1
40
1
41
1
10
19.525
20
-12.169258190623
30
0
41
1
10
19.4868086767864
20
-12.2301178264301
30
0
41
1
10
19.444544839632
20
-12.2879054858373
30
0
41
1
10
19.3521990361071
20
-12.3976356429974
30
0
41
1
10
19.3021160524582
20
-12.449577222085
30
0
41
1
10
19.2210564760524
20
-12.5230948267254
30
0
41
1
10
19.1930442844047
20
-12.5468659144969
30
0
41
1
10
19.1494984410542
20
-12.5813970227831
30
0
41
1
10
19.1347511277164
20
-12.5927000911883
30
0
41
1
10
19.1049628319977
20
-12.6147685814487
30
0
41
1
10
19.0898980754139
20
-12.6255530494012
30
0
41
1
10
19.0137317759039
20
-12.6782442009625
30
0
41
1
10
18.8864951980351
20
-12.7547026658694
30
0
41
1
10
18.7486948676454
20
-12.8158336314504
30
0
41
1
10
18.659147164389
20
-12.8491049769813
30
0
41
1
10
18.6410489738628
20
-12.8555159056377
30
0
41
1
10
18.6047758820972
20
-12.8677465650791
30
0
41
1
10
18.5501572246839
20
-12.8852420628533
30
0
41
1
10
18.4949204809177
20
-12.900225443004
30
0
41
1
10
18.3836362034952
20
-12.9269031973855
30
0
41
1
10
18.3083690965349
20
-12.9403174920612
30
0
41
1
10
18.1938411168124
20
-12.9538557677286
30
0
41
1
10
18.155393043805
20
-12.9572677378174
30
0
41
1
10
18.0973032727254
20
-12.9606970560009
30
0
41
1
10
18.0778336915312
20
-12.9615591151209
30
0
41
1
10
18.0389892022457
20
-12.9627052671933
30
0
41
1
10
18.0196072498129
20
-12.9629910870838
30
0
41
1
10
17.9228961376632
20
-12.9630040270356
30
0
41
1
10
17.7694245435129
20
-12.9539993691371
30
0
41
1
10
17.6184277702601
20
-12.9273387610448
30
0
41
1
10
17.5061358714986
20
-12.9005074722149
30
0
41
1
10
17.46881010801
20
-12.8903943389558
30
0
41
1
10
17.3955817251096
20
-12.8681661348698
30
0
41
1
10
17.3595427989878
20
-12.8560229573152
30
0
41
1
10
17.2531183644443
20
-12.816558614372
30
0
41
1
10
17.1844180034842
20
-12.7862158835515
30
0
41
1
10
17.0847421275838
20
-12.7346150745763
30
0
41
1
10
17.0520810775455
20
-12.7163970509793
30
0
41
1
10
16.987910075179
20
-12.6778778580253
30
0
41
1
10
16.9563157625791
20
-12.6575102811592
30
0
41
1
10
16.8645973188877
20
-12.5940992781154
30
0
41
1
10
16.7496966354993
20
-12.503026754619
30
0
41
1
10
16.649167632036
20
-12.3991526888182
30
0
41
1
10
16.579294102085
20
-12.3162839933898
30
0
41
1
10
16.5568788400374
20
-12.2877612887183
30
0
41
1
10
16.5142916605768
20
-12.2294724470793
30
0
41
1
10
16.4940955859082
20
-12.1996878878973
30
0
41
1
10
16.475
20
-12.169258190623
30
0
0
SPLINE
5
173
100
AcDbEntity
8
1
62
256
6
ByLayer
370
18
48
1
60
0
100
AcDbSpline
70
4
71
3
72
52
73
48
40
0
40
0
40
0
40
0
40
0.0625000000000012
40
0.0625000000000012
40
0.125000000000002
40
0.125000000000002
40
0.156250000000002
40
0.156250000000002
40
0.171875000000001
40
0.171875000000001
40
0.1875
40
0.1875
40
0.250000000000003
40
0.312500000000005
40
0.312500000000005
40
0.328125000000005
40
0.328125000000005
40
0.343750000000006
40
0.375000000000004
40
0.375000000000004
40
0.437500000000001
40
0.437500000000001
40
0.46875
40
0.46875
40
0.484374999999999
40
0.484374999999999
40
0.499999999999998
40
0.499999999999998
40
0.562499999999998
40
0.624999999999998
40
0.624999999999998
40
0.656249999999998
40
0.656249999999998
40
0.687499999999998
40
0.687499999999998
40
0.750000000000001
40
0.750000000000001
40
0.781250000000002
40
0.781250000000002
40
0.812500000000002
40
0.812500000000002
40
0.875
40
0.937499999999999
40
0.937499999999999
40
0.96875
40
0.96875
40
1
40
1
40
1
40
1
41
1
10
19.525
20
10.6070107729665
30
0
41
1
10
19.4868086767864
20
10.5443921370143
30
0
41
1
10
19.4445448396319
20
10.4847232541501
30
0
41
1
10
19.3521990361071
20
10.3710920803132
30
0
41
1
10
19.3021160524582
20
10.3171303990357
30
0
41
1
10
19.2210564760524
20
10.2405557761169
30
0
41
1
10
19.1930442844046
20
10.2157612129988
30
0
41
1
10
19.1494984410542
20
10.1796982562142
30
0
41
1
10
19.1347511277164
20
10.1678859791006
30
0
41
1
10
19.1049628319977
20
10.144809285099
30
0
41
1
10
19.0898980754139
20
10.1335249806683
30
0
41
1
10
19.0137317759039
20
10.0783598013234
30
0
41
1
10
18.8864951980351
20
9.99810440202509
30
0
41
1
10
18.7486948676454
20
9.93368795652896
30
0
41
1
10
18.6591471643889
20
9.89858324515504
30
0
41
1
10
18.6410489738628
20
9.89181640211447
30
0
41
1
10
18.6047758820972
20
9.8789024582351
30
0
41
1
10
18.5501572246839
20
9.86042283638412
30
0
41
1
10
18.4949204809177
20
9.84458100393078
30
0
41
1
10
18.3836362034951
20
9.81636234594927
30
0
41
1
10
18.3083690965349
20
9.80215542489776
30
0
41
1
10
18.1938411168124
20
9.78781340463104
30
0
41
1
10
18.1553930438049
20
9.7841977188524
30
0
41
1
10
18.0973032727254
20
9.78056340531583
30
0
41
1
10
18.0778336915312
20
9.77964974066586
30
0
41
1
10
18.0389892022457
20
9.77843495631808
30
0
41
1
10
18.0196072498129
20
9.77813200657945
30
0
41
1
10
17.9228961376632
20
9.77811829132881
30
0
41
1
10
17.7694245064372
20
9.78766450496718
30
0
41
1
10
17.6184277702601
20
9.8159013839585
30
0
41
1
10
17.5061358714986
20
9.84428280154012
30
0
41
1
10
17.4688101080099
20
9.8549754164201
30
0
41
1
10
17.3955817251096
20
9.87846105930973
30
0
41
1
10
17.3595427989878
20
9.89128383844226
30
0
41
1
10
17.2531183644443
20
9.93292345777999
30
0
41
1
10
17.1844180034841
20
9.96489835975117
30
0
41
1
10
17.0847421275837
20
10.0191571511299
30
0
41
1
10
17.0520810775454
20
10.0382961290576
30
0
41
1
10
16.9879100751789
20
10.0787163637089
30
0
41
1
10
16.956315762579
20
10.1000670133718
30
0
41
1
10
16.8645973188877
20
10.1664560790588
30
0
41
1
10
16.7496966354992
20
10.2615963001118
30
0
41
1
10
16.649167632036
20
10.3695186588664
30
0
41
1
10
16.579294102085
20
10.4553370465733
30
0
41
1
10
16.5568788400374
20
10.4848306471201
30
0
41
1
10
16.5142916605768
20
10.5450032525931
30
0
41
1
10
16.4940955859081
20
10.5757015791062
30
0
41
1
10
16.475
20
10.6070107729665
30
0
0
SPLINE
5
174
100
AcDbEntity
8
1
62
256
6
ByLayer
370
18
48
1
60
0
100
AcDbSpline
70
4
71
3
72
52
73
48
40
0
40
0
40
0
40
0
40
0.062500000000008
40
0.062500000000008
40
0.125000000000016
40
0.125000000000016
40
0.15625000000002
40
0.15625000000002
40
0.171875000000024
40
0.171875000000024
40
0.187500000000027
40
0.187500000000027
40
0.250000000000033
40
0.31250000000004
40
0.31250000000004
40
0.328125000000042
40
0.328125000000042
40
0.343750000000044
40
0.375000000000044
40
0.375000000000044
40
0.437500000000045
40
0.437500000000045
40
0.468750000000046
40
0.468750000000046
40
0.484375000000046
40
0.484375000000046
40
0.500000000000047
40
0.500000000000047
40
0.562500000000043
40
0.625000000000038
40
0.625000000000038
40
0.656250000000036
40
0.656250000000036
40
0.687500000000034
40
0.687500000000034
40
0.750000000000029
40
0.750000000000029
40
0.781250000000026
40
0.781250000000026
40
0.812500000000022
40
0.812500000000022
40
0.875000000000015
40
0.937500000000007
40
0.937500000000007
40
0.968750000000004
40
0.968750000000004
40
1
40
1
40
1
40
1
41
1
10
16.475
20
-10.6070107729664
30
0
41
1
10
16.5131913232136
20
-10.5443921370143
30
0
41
1
10
16.5554551603681
20
-10.4847232541501
30
0
41
1
10
16.6478009638929
20
-10.3710920803132
30
0
41
1
10
16.6978839475418
20
-10.3171303990357
30
0
41
1
10
16.7789435239476
20
-10.2405557761168
30
0
41
1
10
16.8069557155953
20
-10.2157612129988
30
0
41
1
10
16.8505015589457
20
-10.1796982562142
30
0
41
1
10
16.8652488722836
20
-10.1678859791006
30
0
41
1
10
16.8950371680023
20
-10.1448092850989
30
0
41
1
10
16.9101019245861
20
-10.1335249806682
30
0
41
1
10
16.9862682240961
20
-10.0783598013233
30
0
41
1
10
17.1135048019649
20
-9.99810440202504
30
0
41
1
10
17.2513051323546
20
-9.93368795652893
30
0
41
1
10
17.340852835611
20
-9.89858324515498
30
0
41
1
10
17.3589510261372
20
-9.89181640211442
30
0
41
1
10
17.3952241179028
20
-9.87890245823505
30
0
41
1
10
17.4498427753161
20
-9.86042283638409
30
0
41
1
10
17.5050795190823
20
-9.84458100393073
30
0
41
1
10
17.6163637965048
20
-9.81636234594922
30
0
41
1
10
17.691630903465
20
-9.80215542489771
30
0
41
1
10
17.8061588831876
20
-9.78781340463095
30
0
41
1
10
17.844606956195
20
-9.78419771885234
30
0
41
1
10
17.9026967272745
20
-9.78056340531575
30
0
41
1
10
17.9221663084688
20
-9.77964974066578
30
0
41
1
10
17.9610107977543
20
-9.77843495631799
30
0
41
1
10
17.9803927501871
20
-9.7781320065794
30
0
41
1
10
18.0771038623368
20
-9.77811829132872
30
0
41
1
10
18.2305754564871
20
-9.78766474594286
30
0
41
1
10
18.3815722297399
20
-9.81590138395842
30
0
41
1
10
18.4938641285014
20
-9.84428280154003
30
0
41
1
10
18.53118989199
20
-9.85497541642002
30
0
41
1
10
18.6044182748904
20
-9.87846105930961
30
0
41
1
10
18.6404572010122
20
-9.89128383844218
30
0
41
1
10
18.7468816355557
20
-9.93292345777991
30
0
41
1
10
18.8155819965158
20
-9.96489835975109
30
0
41
1
10
18.9152578724162
20
-10.0191571511298
30
0
41
1
10
18.9479189224545
20
-10.0382961290575
30
0
41
1
10
19.0120899248211
20
-10.0787163637088
30
0
41
1
10
19.0436842374209
20
-10.1000670133716
30
0
41
1
10
19.1354026811123
20
-10.1664560790587
30
0
41
1
10
19.2503034630021
20
-10.261596071992
30
0
41
1
10
19.350832367964
20
-10.3695186588663
30
0
41
1
10
19.420705897915
20
-10.4553370465732
30
0
41
1
10
19.4431211599626
20
-10.48483064712
30
0
41
1
10
19.4857083394232
20
-10.545003252593
30
0
41
1
10
19.5059044140919
20
-10.5757015791061
30
0
41
1
10
19.525
20
-10.6070107729664
30
0
0
SPLINE
5
175
100
AcDbEntity
8
1
62
256
6
ByLayer
370
18
48
1
60
0
100
AcDbSpline
70
4
71
3
72
26
73
22
40
0
40
0
40
0
40
0
40
0.0167757947709087
40
0.0167757947709087
40
0.178476305703591
40
0.178476305703591
40
0.340176816636274
40
0.340176816636274
40
0.501877327568957
40
0.501877327568957
40
0.66357783850164
40
0.66357783850164
40
0.825278349434322
40
0.825278349434322
40
0.906128604900664
40
0.906128604900664
40
0.986978860367005
40
0.986978860367005
40
0.997085142300298
40
0.997085142300298
40
1
40
1
40
1
40
1
41
1
10
26.0128739870841
20
26.4
30
0
41
1
10
26.0149415435348
20
26.4
30
0
41
1
10
26.0170483983685
20
26.4
30
0
41
1
10
26.0398624962686
20
26.4
30
0
41
1
10
26.0640379551167
20
26.4
30
0
41
1
10
26.1165706114057
20
26.4
30
0
41
1
10
26.1449434197019
20
26.4
30
0
41
1
10
26.2028914229431
20
26.4
30
0
41
1
10
26.2324845019649
20
26.4
30
0
41
1
10
26.2893289033437
20
26.4
30
0
41
1
10
26.3165838654073
20
26.4
30
0
41
1
10
26.3642555441594
20
26.4
30
0
41
1
10
26.3846245440938
20
26.4
30
0
41
1
10
26.406326258514
20
26.4
30
0
41
1
10
26.4120859800701
20
26.4
30
0
41
1
10
26.4202019522251
20
26.4
30
0
41
1
10
26.4225550329099
20
26.4
30
0
41
1
10
26.4231632316226
20
26.4
30
0
41
1
10
26.4232026749922
20
26.4
30
0
41
1
10
26.4232171244961
20
26.4
30
0
41
1
10
26.4232190641889
20
26.4
30
0
41
1
10
26.4232165536525
20
26.4
30
0
0
SPLINE
5
176
100
AcDbEntity
8
1
62
256
6
ByLayer
370
18
48
1
60
0
100
AcDbSpline
70
4
71
3
72
26
73
22
40
0
40
0
40
0
40
0
40
0.0169208896789557
40
0.0169208896789557
40
0.178845046280825
40
0.178845046280825
40
0.340769202882694
40
0.340769202882694
40
0.502693359484563
40
0.502693359484563
40
0.664617516086431
40
0.664617516086431
40
0.8265416726883
40
0.8265416726883
40
0.907503750989235
40
0.907503750989235
40
0.988465829290169
40
0.988465829290169
40
0.998586089077786
40
0.998586089077786
40
1
40
1
40
1
40
1
41
1
10
26.012828987084
20
-26.4
30
0
41
1
10
26.0149109710794
20
-26.4
30
0
41
1
10
26.0170328387255
20
-26.4
30
0
41
1
10
26.0398624962686
20
-26.4
30
0
41
1
10
26.0640379551168
20
-26.4
30
0
41
1
10
26.1165706114058
20
-26.4
30
0
41
1
10
26.144943419702
20
-26.4
30
0
41
1
10
26.2028914229431
20
-26.4
30
0
41
1
10
26.232484501965
20
-26.4
30
0
41
1
10
26.2893289033437
20
-26.4
30
0
41
1
10
26.3165838654074
20
-26.4
30
0
41
1
10
26.3642555441595
20
-26.4
30
0
41
1
10
26.3846245440939
20
-26.4
30
0
41
1
10
26.406326258514
20
-26.3999999999999
30
0
41
1
10
26.4120859800702
20
-26.4
30
0
41
1
10
26.4202019522252
20
-26.4
30
0
41
1
10
26.42255503291
20
-26.4
30
0
41
1
10
26.4231632316226
20
-26.4
30
0
41
1
10
26.4232026749922
20
-26.4
30
0
41
1
10
26.4232152485716
20
-26.4
30
0
41
1
10
26.4232162486716
20
-26.4
30
0
41
1
10
26.4232172487716
20
-26.4
30
0
0
SPLINE
5
177
100
AcDbEntity
8
1
62
256
6
ByLayer
370
18
48
1
60
0
100
AcDbSpline
70
4
71
3
72
52
73
48
40
0
40
0
40
0
40
0
40
0.062500000000011
40
0.062500000000011
40
0.125000000000022
40
0.125000000000022
40
0.156250000000027
40
0.156250000000027
40
0.171875000000029
40
0.171875000000029
40
0.18750000000003
40
0.18750000000003
40
0.250000000000031
40
0.312500000000033
40
0.312500000000033
40
0.328125000000033
40
0.328125000000033
40
0.343750000000033
40
0.375000000000031
40
0.375000000000031
40
0.437500000000026
40
0.437500000000026
40
0.468750000000024
40
0.468750000000024
40
0.484375000000022
40
0.484375000000022
40
0.500000000000021
40
0.500000000000021
40
0.562500000000019
40
0.625000000000017
40
0.625000000000017
40
0.656250000000016
40
0.656250000000016
40
0.687500000000015
40
0.687500000000015
40
0.750000000000013
40
0.750000000000013
40
0.781250000000011
40
0.781250000000011
40
0.81250000000001
40
0.81250000000001
40
0.875000000000006
40
0.937500000000003
40
0.937500000000003
40
0.968750000000001
40
0.968750000000001
40
1
40
1
40
1
40
1
41
1
10
16.475
20
6.08256053862559
30
0
41
1
10
16.5131913232136
20
6.14875739362768
30
0
41
1
10
16.5554551603681
20
6.21167813815893
30
0
41
1
10
16.6478009638929
20
6.33125697971621
30
0
41
1
10
16.6978839475418
20
6.38791418129557
30
0
41
1
10
16.7789435239476
20
6.46816741062787
30
0
41
1
10
16.8069557155953
20
6.49412721987309
30
0
41
1
10
16.8505015589457
20
6.53185172670342
30
0
41
1
10
16.8652488722836
20
6.54420249950999
30
0
41
1
10
16.8950371680023
20
6.5683208958138
30
0
41
1
10
16.910101924586
20
6.58010932569815
30
0
41
1
10
16.9862682240961
20
6.63771554132742
30
0
41
1
10
17.1135048019649
20
6.72137011403404
30
0
41
1
10
17.2513051323546
20
6.78833183584044
30
0
41
1
10
17.340852835611
20
6.82479062943611
30
0
41
1
10
17.3589510261372
20
6.83181655502966
30
0
41
1
10
17.3952241179028
20
6.84522181803516
30
0
41
1
10
17.4498427753161
20
6.86439961794036
30
0
41
1
10
17.5050795190823
20
6.88082858055878
30
0
41
1
10
17.6163637965048
20
6.91008402699762
30
0
41
1
10
17.691630903465
20
6.92479996636314
30
0
41
1
10
17.8061588831876
20
6.93965309017213
30
0
41
1
10
17.844606956195
20
6.94339679009536
30
0
41
1
10
17.9026967272745
20
6.94715960022205
30
0
41
1
10
17.9221663084688
20
6.94810551514655
30
0
41
1
10
17.9610107977543
20
6.94936316404238
30
0
41
1
10
17.9803927501871
20
6.94967679285188
30
0
41
1
10
18.0771038623368
20
6.94969099173079
30
0
41
1
10
18.2305754564871
20
6.93980956551974
30
0
41
1
10
18.3815722297398
20
6.91056175055311
30
0
41
1
10
18.4938641285014
20
6.88113782423093
30
0
41
1
10
18.53118989199
20
6.87004896572745
30
0
41
1
10
18.6044182748904
20
6.84568118407398
30
0
41
1
10
18.6404572010122
20
6.83237143195063
30
0
41
1
10
18.7468816355557
20
6.78912613927818
30
0
41
1
10
18.8155819965158
20
6.75588884276834
30
0
41
1
10
18.9152578724162
20
6.69940194144635
30
0
41
1
10
18.9479189224545
20
6.67946425122693
30
0
41
1
10
19.012089924821
20
6.63732337158424
30
0
41
1
10
19.0436842374209
20
6.61504762114134
30
0
41
1
10
19.1354026811123
20
6.54572138246812
30
0
41
1
10
19.250303463002
20
6.44621804518863
30
0
41
1
10
19.350832367964
20
6.33291094167322
30
0
41
1
10
19.420705897915
20
6.24260335462122
30
0
41
1
10
19.4431211599626
20
6.21153396868371
30
0
41
1
10
19.4857083394232
20
6.14807178447586
30
0
41
1
10
19.5059044140918
20
6.11565883491855
30
0
41
1
10
19.525
20
6.08256053862564
30
0
0
SPLINE
5
178
100
AcDbEntity
8
1
62
256
6
ByLayer
370
18
48
1
60
0
100
AcDbSpline
70
4
71
3
72
52
73
48
40
0
40
0
40
0
40
0
40
0.0624999999999944
40
0.0624999999999944
40
0.124999999999989
40
0.124999999999989
40
0.156249999999985
40
0.156249999999985
40
0.171874999999983
40
0.171874999999983
40
0.187499999999981
40
0.187499999999981
40
0.249999999999976
40
0.312499999999971
40
0.312499999999971
40
0.32812499999997
40
0.32812499999997
40
0.343749999999969
40
0.374999999999968
40
0.374999999999968
40
0.437499999999968
40
0.437499999999968
40
0.468749999999968
40
0.468749999999968
40
0.484374999999968
40
0.484374999999968
40
0.499999999999968
40
0.499999999999968
40
0.56249999999997
40
0.624999999999973
40
0.624999999999973
40
0.656249999999974
40
0.656249999999974
40
0.687499999999976
40
0.687499999999976
40
0.749999999999981
40
0.749999999999981
40
0.781249999999983
40
0.781249999999983
40
0.812499999999984
40
0.812499999999984
40
0.874999999999988
40
0.937499999999993
40
0.937499999999993
40
0.968749999999996
40
0.968749999999996
40
1
40
1
40
1
40
1
41
1
10
19.525
20
-6.08256053862556
30
0
41
1
10
19.4868086767864
20
-6.14875739362765
30
0
41
1
10
19.4445448396319
20
-6.2116781381589
30
0
41
1
10
19.3521990361071
20
-6.33125697971619
30
0
41
1
10
19.3021160524582
20
-6.38791418129554
30
0
41
1
10
19.2210564760524
20
-6.46816741062784
30
0
41
1
10
19.1930442844047
20
-6.49412721987304
30
0
41
1
10
19.1494984410542
20
-6.53185172670337
30
0
41
1
10
19.1347511277164
20
-6.54420249950994
30
0
41
1
10
19.1049628319977
20
-6.56832089581377
30
0
41
1
10
19.0898980754139
20
-6.58010932569809
30
0
41
1
10
19.0137317759039
20
-6.63771554132737
30
0
41
1
10
18.8864951980351
20
-6.72137011403402
30
0
41
1
10
18.7486948676454
20
-6.78833183584038
30
0
41
1
10
18.659147164389
20
-6.82479062943605
30
0
41
1
10
18.6410489738628
20
-6.8318165550296
30
0
41
1
10
18.6047758820972
20
-6.8452218180351
30
0
41
1
10
18.5501572246839
20
-6.86439961794031
30
0
41
1
10
18.4949204809177
20
-6.88082858055873
30
0
41
1
10
18.3836362034952
20
-6.91008402699757
30
0
41
1
10
18.3083690965349
20
-6.92479996636305
30
0
41
1
10
18.1938411168124
20
-6.93965309017207
30
0
41
1
10
18.155393043805
20
-6.94339679009531
30
0
41
1
10
18.0973032727254
20
-6.94715960022197
30
0
41
1
10
18.0778336915312
20
-6.94810551514649
30
0
41
1
10
18.0389892022457
20
-6.9493631640423
30
0
41
1
10
18.0196072498129
20
-6.94967679285179
30
0
41
1
10
17.9228961376632
20
-6.94969099173073
30
0
41
1
10
17.7694245435129
20
-6.93980956551965
30
0
41
1
10
17.6184277702601
20
-6.91056175055303
30
0
41
1
10
17.5061358714986
20
-6.88113782423085
30
0
41
1
10
17.46881010801
20
-6.87004896572736
30
0
41
1
10
17.3955817251096
20
-6.8456811840739
30
0
41
1
10
17.3595427989878
20
-6.83237143195052
30
0
41
1
10
17.2531183644443
20
-6.7891261392781
30
0
41
1
10
17.1844180034842
20
-6.75588884276823
30
0
41
1
10
17.0847421275837
20
-6.69940194144627
30
0
41
1
10
17.0520810775454
20
-6.67946425122682
30
0
41
1
10
16.9879100751789
20
-6.63732337158413
30
0
41
1
10
16.9563157625791
20
-6.61504762114123
30
0
41
1
10
16.8645973188877
20
-6.545721382468
30
0
41
1
10
16.7496965369979
20
-6.44621804518854
30
0
41
1
10
16.649167632036
20
-6.33291094167311
30
0
41
1
10
16.579294102085
20
-6.24260335462111
30
0
41
1
10
16.5568788400374
20
-6.2115339686836
30
0
41
1
10
16.5142916605768
20
-6.14807178447575
30
0
41
1
10
16.4940955859082
20
-6.11565883491843
30
0
41
1
10
16.475
20
-6.08256053862553
30
0
0
SPLINE
5
179
100
AcDbEntity
8
1
62
256
6
ByLayer
370
18
48
1
60
0
100
AcDbSpline
70
4
71
3
72
52
73
48
40
0
40
0
40
0
40
0
40
0.0624999999999995
40
0.0624999999999995
40
0.124999999999999
40
0.124999999999999
40
0.156249999999998
40
0.156249999999998
40
0.171874999999997
40
0.171874999999997
40
0.187499999999997
40
0.187499999999997
40
0.249999999999999
40
0.312500000000001
40
0.312500000000001
40
0.328125000000002
40
0.328125000000002
40
0.343750000000003
40
0.375000000000001
40
0.375000000000001
40
0.437499999999998
40
0.437499999999998
40
0.468749999999996
40
0.468749999999996
40
0.484374999999995
40
0.484374999999995
40
0.499999999999994
40
0.499999999999994
40
0.562499999999994
40
0.624999999999994
40
0.624999999999994
40
0.656249999999993
40
0.656249999999993
40
0.687499999999993
40
0.687499999999993
40
0.749999999999995
40
0.749999999999995
40
0.781249999999995
40
0.781249999999995
40
0.812499999999995
40
0.812499999999995
40
0.874999999999996
40
0.937499999999997
40
0.937499999999997
40
0.968749999999999
40
0.968749999999999
40
1
40
1
40
1
40
1
41
1
10
19.525
20
4.39727504184239
30
0
41
1
10
19.4868086767864
20
4.33026883424901
30
0
41
1
10
19.4445448396319
20
4.2664824996358
30
0
41
1
10
19.3521990361071
20
4.14510871908146
30
0
41
1
10
19.3021160524582
20
4.08752202642347
30
0
41
1
10
19.2210564760524
20
4.00586219933035
30
0
41
1
10
19.1930442844047
20
3.97943146776817
30
0
41
1
10
19.1494984410542
20
3.94100212554869
30
0
41
1
10
19.1347511277164
20
3.92841705521303
30
0
41
1
10
19.1049628319977
20
3.90383476337578
30
0
41
1
10
19.0898980754139
20
3.89181634832062
30
0
41
1
10
19.0137317759039
20
3.8330717809958
30
0
41
1
10
18.8864951980351
20
3.74767015971875
30
0
41
1
10
18.7486948676454
20
3.67919672019565
30
0
41
1
10
18.6591471643889
20
3.64189435680262
30
0
41
1
10
18.6410489738628
20
3.63470466759034
30
0
41
1
10
18.6047758820972
20
3.62098501118811
30
0
41
1
10
18.5501572246839
20
3.6013543953045
30
0
41
1
10
18.4949204809177
20
3.58453044090757
30
0
41
1
10
18.3836362034951
20
3.55456599263886
30
0
41
1
10
18.3083690965349
20
3.53948534937439
30
0
41
1
10
18.1938411168124
20
3.52426240594025
30
0
41
1
10
18.155393043805
20
3.52042497218653
30
0
41
1
10
18.0973032727254
20
3.51656783942963
30
0
41
1
10
18.0778336915312
20
3.51559817972628
30
0
41
1
10
18.0389892022457
20
3.51430895169156
30
0
41
1
10
18.0196072498129
20
3.51398744108229
30
0
41
1
10
17.9228961376632
20
3.51397288547221
30
0
41
1
10
17.7694245435129
20
3.52410360363302
30
0
41
1
10
17.6184277702601
20
3.55407658278222
30
0
41
1
10
17.5061358714986
20
3.58421375561872
30
0
41
1
10
17.46881010801
20
3.59556924568148
30
0
41
1
10
17.3955817251096
20
3.62051560110993
30
0
41
1
10
17.3595427989878
20
3.63413805206946
30
0
41
1
10
17.2531183644443
20
3.678384234703
30
0
41
1
10
17.1844180034841
20
3.71237252714314
30
0
41
1
10
17.0847421275837
20
3.77008242151149
30
0
41
1
10
17.0520810775454
20
3.79044386199391
30
0
41
1
10
16.9879100751789
20
3.83345945050354
30
0
41
1
10
16.9563157625791
20
3.85618753320904
30
0
41
1
10
16.8645973188877
20
3.9268840405114
30
0
41
1
10
16.7496965369979
20
4.02825886708578
30
0
41
1
10
16.649167632036
20
4.14342881752521
30
0
41
1
10
16.579294102085
20
4.23509361941078
30
0
41
1
10
16.5568788400374
20
4.26660973475578
30
0
41
1
10
16.5142916605768
20
4.33093867792599
30
0
41
1
10
16.4940955859081
20
4.36377207085809
30
0
41
1
10
16.475
20
4.39727504184245
30
0
0
SPLINE
5
17A
100
AcDbEntity
8
1
62
256
6
ByLayer
370
18
48
1
60
0
100
AcDbSpline
70
4
71
3
72
52
73
48
40
0
40
0
40
0
40
0
40
0.0625000000000139
40
0.0625000000000139
40
0.125000000000028
40
0.125000000000028
40
0.156250000000035
40
0.156250000000035
40
0.171875000000037
40
0.171875000000037
40
0.18750000000004
40
0.18750000000004
40
0.250000000000046
40
0.312500000000051
40
0.312500000000051
40
0.328125000000053
40
0.328125000000053
40
0.343750000000054
40
0.375000000000054
40
0.375000000000054
40
0.437500000000054
40
0.437500000000054
40
0.468750000000054
40
0.468750000000054
40
0.484375000000054
40
0.484375000000054
40
0.500000000000054
40
0.500000000000054
40
0.562500000000049
40
0.625000000000043
40
0.625000000000043
40
0.656250000000041
40
0.656250000000041
40
0.687500000000038
40
0.687500000000038
40
0.750000000000032
40
0.750000000000032
40
0.781250000000028
40
0.781250000000028
40
0.812500000000024
40
0.812500000000024
40
0.875000000000016
40
0.937500000000008
40
0.937500000000008
40
0.968750000000004
40
0.968750000000004
40
1
40
1
40
1
40
1
41
1
10
16.475
20
-4.39727504184236
30
0
41
1
10
16.5131913232136
20
-4.33026883424898
30
0
41
1
10
16.5554551603681
20
-4.26648249963577
30
0
41
1
10
16.6478009638929
20
-4.14510871908143
30
0
41
1
10
16.6978839475418
20
-4.08752202642344
30
0
41
1
10
16.7789435239476
20
-4.00586219933032
30
0
41
1
10
16.8069557155953
20
-3.97943146776814
30
0
41
1
10
16.8505015589457
20
-3.94100212554866
30
0
41
1
10
16.8652488722836
20
-3.928417055213
30
0
41
1
10
16.8950371680023
20
-3.90383476337575
30
0
41
1
10
16.9101019245861
20
-3.89181634832059
30
0
41
1
10
16.9862682240961
20
-3.83307178099574
30
0
41
1
10
17.1135048019649
20
-3.74767015971872
30
0
41
1
10
17.2513051323546
20
-3.67919672019559
30
0
41
1
10
17.340852835611
20
-3.6418943568026
30
0
41
1
10
17.3589510261372
20
-3.63470466759029
30
0
41
1
10
17.3952241179028
20
-3.62098501118805
30
0
41
1
10
17.4498427753161
20
-3.60135439530444
30
0
41
1
10
17.5050795190823
20
-3.58453044090751
30
0
41
1
10
17.6163637965048
20
-3.55456599263877
30
0
41
1
10
17.691630903465
20
-3.5394853493743
30
0
41
1
10
17.8061588831876
20
-3.52426240594019
30
0
41
1
10
17.844606956195
20
-3.52042497218645
30
0
41
1
10
17.9026967272745
20
-3.51656783942957
30
0
41
1
10
17.9221663084688
20
-3.5155981797262
30
0
41
1
10
17.9610107977543
20
-3.5143089516915
30
0
41
1
10
17.9803927501871
20
-3.51398744108221
30
0
41
1
10
18.0771038623368
20
-3.51397288547213
30
0
41
1
10
18.2305754564871
20
-3.52410360363294
30
0
41
1
10
18.3815722297399
20
-3.55407658278213
30
0
41
1
10
18.4938641285014
20
-3.58421375561863
30
0
41
1
10
18.53118989199
20
-3.59556924568136
30
0
41
1
10
18.6044182748904
20
-3.62051560110982
30
0
41
1
10
18.6404572010122
20
-3.63413805206938
30
0
41
1
10
18.7468816355557
20
-3.67838423470289
30
0
41
1
10
18.8155819965158
20
-3.71237252714303
30
0
41
1
10
18.9152578724162
20
-3.77008242151138
30
0
41
1
10
18.9479189224545
20
-3.79044386199379
30
0
41
1
10
19.0120899248211
20
-3.83345945050345
30
0
41
1
10
19.0436842374209
20
-3.85618753320892
30
0
41
1
10
19.1354026811123
20
-3.92688404051128
30
0
41
1
10
19.250303463002
20
-4.02825886708567
30
0
41
1
10
19.350832367964
20
-4.14342881752509
30
0
41
1
10
19.420705897915
20
-4.23509361941066
30
0
41
1
10
19.4431211599626
20
-4.26660973475566
30
0
41
1
10
19.4857083394232
20
-4.33093867792584
30
0
41
1
10
19.5059044140919
20
-4.36377207085798
30
0
41
1
10
19.525
20
-4.39727504184234
30
0
0
SPLINE
5
17B
100
AcDbEntity
8
1
62
256
6
ByLayer
370
18
48
1
60
0
100
AcDbSpline
70
4
71
3
72
18
73
14
40
0
40
0
40
0
40
0
40
0.250000000000004
40
0.250000000000004
40
0.375000000000004
40
0.375000000000004
40
0.500000000000003
40
0.500000000000003
40
0.625000000000002
40
0.625000000000002
40
0.750000000000001
40
0.750000000000001
40
1
40
1
40
1
40
1
41
1
10
19.925
20
26.697103190234
30
0
41
1
10
19.925
20
26.6698685852525
30
0
41
1
10
19.9224731220319
20
26.6428008079355
30
0
41
1
10
19.9148171455652
20
26.6024543576674
30
0
41
1
10
19.9115996570472
20
26.589007869633
30
0
41
1
10
19.9039472157243
20
26.5626603688927
30
0
41
1
10
19.8995068479357
20
26.5497093197238
30
0
41
1
10
19.8893945845804
20
26.5242537963244
30
0
41
1
10
19.8837052336603
20
26.5117157078946
30
0
41
1
10
19.8711326634775
20
26.4872501038809
30
0
41
1
10
19.8643009268049
20
26.4754142610501
30
0
41
1
10
19.8422015430664
20
26.4410741899467
30
0
41
1
10
19.8253462606135
20
26.4197253830844
30
0
41
1
10
19.8062602725373
20
26.4
30
0
0
SPLINE
5
17C
100
AcDbEntity
8
1
62
256
6
ByLayer
370
18
48
1
60
0
100
AcDbSpline
70
4
71
3
72
26
73
22
40
0
40
0
40
0
40
0
40
0.250000000000024
40
0.250000000000024
40
0.375000000000036
40
0.375000000000036
40
0.500000000000048
40
0.500000000000048
40
0.625000000000056
40
0.625000000000056
40
0.750000000000063
40
0.750000000000063
40
0.812500000000062
40
0.812500000000062
40
0.875000000000061
40
0.875000000000061
40
0.906250000000051
40
0.906250000000051
40
0.93750000000004
40
0.93750000000004
40
1
40
1
40
1
40
1
41
1
10
19.8062602725373
20
26.4
30
0
41
1
10
19.7940965948292
20
26.4
30
0
41
1
10
19.7805948871375
20
26.4
30
0
41
1
10
19.7573398153967
20
26.4
30
0
41
1
10
19.749101730686
20
26.4
30
0
41
1
10
19.7314550314071
20
26.4
30
0
41
1
10
19.7220419248778
20
26.4
30
0
41
1
10
19.7015999939951
20
26.4
30
0
41
1
10
19.6905668771768
20
26.4
30
0
41
1
10
19.6661255684364
20
26.4
30
0
41
1
10
19.6528645548572
20
26.4
30
0
41
1
10
19.6303061592548
20
26.4
30
0
41
1
10
19.6224072259904
20
26.4
30
0
41
1
10
19.6056945143669
20
26.4
30
0
41
1
10
19.5968739568959
20
26.4
30
0
41
1
10
19.5826568687739
20
26.4
30
0
41
1
10
19.577721121873
20
26.4
30
0
41
1
10
19.5676852979551
20
26.4
30
0
41
1
10
19.5625702138709
20
26.4
30
0
41
1
10
19.5468992171813
20
26.4
30
0
41
1
10
19.5358590822777
20
26.4
30
0
41
1
10
19.5249999999999
20
26.4
30
0
0
SPLINE
5
17D
100
AcDbEntity
8
1
62
256
6
ByLayer
370
18
48
1
60
0
100
AcDbSpline
70
4
71
3
72
32
73
28
40
0
40
0
40
0
40
0
40
0.124999999999992
40
0.124999999999992
40
0.249999999999985
40
0.249999999999985
40
0.281249999999983
40
0.281249999999983
40
0.312499999999981
40
0.312499999999981
40
0.374999999999977
40
0.374999999999977
40
0.49999999999997
40
0.49999999999997
40
0.562499999999969
40
0.562499999999969
40
0.593749999999971
40
0.593749999999971
40
0.624999999999972
40
0.624999999999972
40
0.749999999999983
40
0.749999999999983
40
0.874999999999994
40
0.874999999999994
40
0.937499999999997
40
0.937499999999997
40
1
40
1
40
1
40
1
41
1
10
19.525
20
17.5834806976043
30
0
41
1
10
19.5622257722493
20
17.5326400828398
30
0
41
1
10
19.5945540477172
20
17.4837709145101
30
0
41
1
10
19.6502751353692
20
17.385809564816
30
0
41
1
10
19.6736593922955
20
17.3367730980134
30
0
41
1
10
19.6973388066952
20
17.2733476112501
30
0
41
1
10
19.7017954531887
20
17.260556318764
30
0
41
1
10
19.7101445492717
20
17.2347100837203
30
0
41
1
10
19.7140405161275
20
17.2216387005083
30
0
41
1
10
19.7248000309275
20
17.1822265904381
30
0
41
1
10
19.7307633876758
20
17.1556115350388
30
0
41
1
10
19.7450941258959
20
17.0743282741437
30
0
41
1
10
19.7499173582746
20
17.0181632092858
30
0
41
1
10
19.75003974825
20
16.9301110113541
30
0
41
1
10
19.7488912538172
20
16.9001401020892
30
0
41
1
10
19.7453483394831
20
16.8542877881334
30
0
41
1
10
19.7438637724502
20
16.838855392939
30
0
41
1
10
19.7402785478741
20
16.8077116819231
30
0
41
1
10
19.7381740269327
20
16.7919827488977
30
0
41
1
10
19.7261954023969
20
16.7133571248931
30
0
41
1
10
19.7119380543277
20
16.6500117336235
30
0
41
1
10
19.6743437734414
20
16.5245006582798
30
0
41
1
10
19.6510085472785
20
16.4623315712261
30
0
41
1
10
19.6088439545667
20
16.3718879296942
30
0
41
1
10
19.5936282036746
20
16.3423092294412
30
0
41
1
10
19.561007612055
20
16.2850154421057
30
0
41
1
10
19.5435796738199
20
16.2572467885351
30
0
41
1
10
19.5250000000015
20
16.2306014000895
30
0
0
SPLINE
5
17E
100
AcDbEntity
8
1
62
256
6
ByLayer
370
18
48
1
60
0
100
AcDbSpline
70
4
71
3
72
32
73
28
40
0
40
0
40
0
40
0
40
0.124999999999998
40
0.124999999999998
40
0.249999999999996
40
0.249999999999996
40
0.281249999999996
40
0.281249999999996
40
0.312499999999995
40
0.312499999999995
40
0.374999999999995
40
0.374999999999995
40
0.499999999999999
40
0.499999999999999
40
0.562499999999999
40
0.562499999999999
40
0.593750000000001
40
0.593750000000001
40
0.625000000000002
40
0.625000000000002
40
0.750000000000001
40
0.750000000000001
40
0.875
40
0.875
40
0.9375
40
0.9375
40
1
40
1
40
1
40
1
41
1
10
19.525
20
12.1692581906231
30
0
41
1
10
19.5622257722493
20
12.1099372048311
30
0
41
1
10
19.5945540477172
20
12.0514555137903
30
0
41
1
10
19.6502751353693
20
11.9332132340508
30
0
41
1
10
19.6736593922955
20
11.8734925654131
30
0
41
1
10
19.6973388066952
20
11.7965822670498
30
0
41
1
10
19.7017954531887
20
11.7810872439873
30
0
41
1
10
19.7101445492717
20
11.7498328466777
30
0
41
1
10
19.7140405161275
20
11.7340537908139
30
0
41
1
10
19.7248000309276
20
11.6865918658699
30
0
41
1
10
19.7307633876758
20
11.6546927954511
30
0
41
1
10
19.7450941258959
20
11.5579345614434
30
0
41
1
10
19.7499173582746
20
11.4919739496654
30
0
41
1
10
19.7500397482501
20
11.3902680493042
30
0
41
1
10
19.7488912538172
20
11.3559148251436
30
0
41
1
10
19.7453483394831
20
11.3037312093318
30
0
41
1
10
19.7438637724502
20
11.2862284197144
30
0
41
1
10
19.7402785478741
20
11.2510184083222
30
0
41
1
10
19.7381740269327
20
11.2332915725756
30
0
41
1
10
19.7261954023969
20
11.1449220122847
30
0
41
1
10
19.7119380543277
20
11.0745080404172
30
0
41
1
10
19.6743437734414
20
10.935418858235
30
0
41
1
10
19.6510085472785
20
10.8667414663276
30
0
41
1
10
19.6088439545667
20
10.7661926607265
30
0
41
1
10
19.5936282036746
20
10.733197290257
30
0
41
1
10
19.561007612055
20
10.668867196194
30
0
41
1
10
19.5435796738199
20
10.6374740754395
30
0
41
1
10
19.5250000000015
20
10.6070107729652
30
0
0
SPLINE
5
17F
100
AcDbEntity
8
1
62
256
6
ByLayer
370
18
48
1
60
0
100
AcDbSpline
70
4
71
3
72
32
73
28
40
0
40
0
40
0
40
0
40
0.124999999999995
40
0.124999999999995
40
0.24999999999999
40
0.24999999999999
40
0.281249999999991
40
0.281249999999991
40
0.312499999999991
40
0.312499999999991
40
0.374999999999991
40
0.374999999999991
40
0.499999999999991
40
0.499999999999991
40
0.56249999999999
40
0.56249999999999
40
0.59374999999999
40
0.59374999999999
40
0.62499999999999
40
0.62499999999999
40
0.749999999999993
40
0.749999999999993
40
0.874999999999996
40
0.874999999999996
40
0.937499999999998
40
0.937499999999998
40
1
40
1
40
1
40
1
41
1
10
19.525
20
6.08256053862564
30
0
41
1
10
19.5622257722493
20
6.01803726892518
30
0
41
1
10
19.5945540477172
20
5.95317476273078
30
0
41
1
10
19.6502751353693
20
5.82118564014885
30
0
41
1
10
19.6736593922955
20
5.75408094333287
30
0
41
1
10
19.6973388066952
20
5.66793590870156
30
0
41
1
10
19.7017954531887
20
5.65059341250409
30
0
41
1
10
19.7101445492718
20
5.61565797589981
30
0
41
1
10
19.7140405161275
20
5.59804320052314
30
0
41
1
10
19.7248000309276
20
5.54515421423409
30
0
41
1
10
19.7307633876758
20
5.50973387650564
30
0
41
1
10
19.7450941258959
20
5.40284754480078
30
0
41
1
10
19.7499173582746
20
5.3307363800107
30
0
41
1
10
19.7500397482501
20
5.22099706146614
30
0
41
1
10
19.7488912538172
20
5.18415988704615
30
0
41
1
10
19.7453483394831
20
5.12852864429595
30
0
41
1
10
19.7438637724502
20
5.10992266719632
30
0
41
1
10
19.7402785478741
20
5.07259206626298
30
0
41
1
10
19.7381740269327
20
5.05384691556071
30
0
41
1
10
19.7261954023969
20
4.96061673495407
30
0
41
1
10
19.7119380543277
20
4.8870252697844
30
0
41
1
10
19.6743437734414
20
4.74204407111463
30
0
41
1
10
19.6510085472785
20
4.67065349796411
30
0
41
1
10
19.6088439545667
20
4.56555587129904
30
0
41
1
10
19.5936282036746
20
4.53096716003833
30
0
41
1
10
19.561007612055
20
4.46315565048744
30
0
41
1
10
19.5435796738199
20
4.42987285139978
30
0
41
1
10
19.5250000000015
20
4.39727504184151
30
0
0
SPLINE
5
180
100
AcDbEntity
8
1
62
256
6
ByLayer
370
18
48
1
60
0
100
AcDbSpline
70
4
71
3
72
32
73
28
40
0
40
0
40
0
40
0
40
0.125000000000005
40
0.125000000000005
40
0.250000000000011
40
0.250000000000011
40
0.281250000000012
40
0.281250000000012
40
0.312500000000013
40
0.312500000000013
40
0.375000000000014
40
0.375000000000014
40
0.500000000000016
40
0.500000000000016
40
0.562500000000017
40
0.562500000000017
40
0.593750000000016
40
0.593750000000016
40
0.625000000000016
40
0.625000000000016
40
0.75000000000001
40
0.75000000000001
40
0.875000000000004
40
0.875000000000004
40
0.937500000000002
40
0.937500000000002
40
1
40
1
40
1
40
1
41
1
10
19.525
20
-4.39727504184231
30
0
41
1
10
19.5622257722493
20
-4.46258720212572
30
0
41
1
10
19.5945540477172
20
-4.53009002909832
30
0
41
1
10
19.6502751353693
20
-4.66867550134617
30
0
41
1
10
19.6736593922956
20
-4.73976768015046
30
0
41
1
10
19.6973388066952
20
-4.8306393556951
30
0
41
1
10
19.7017954531887
20
-4.84891472825549
30
0
41
1
10
19.7101445492718
20
-4.88566426077159
30
0
41
1
10
19.7140405161275
20
-4.90416115310475
30
0
41
1
10
19.7248000309276
20
-4.9595627272837
30
0
41
1
10
19.7307633876759
20
-4.99648396900861
30
0
41
1
10
19.7450941258959
20
-5.10710058564638
30
0
41
1
10
19.7499173582746
20
-5.18063336510286
30
0
41
1
10
19.7500397482501
20
-5.29040742678771
30
0
41
1
10
19.7488912538173
20
-5.32691494893038
30
0
41
1
10
19.7453483394831
20
-5.38156114250992
30
0
41
1
10
19.7438637724502
20
-5.39975762939505
30
0
41
1
10
19.7402785478741
20
-5.43611769128913
30
0
41
1
10
19.7381740269327
20
-5.45430085327988
30
0
41
1
10
19.726195402397
20
-5.54440853907869
30
0
41
1
10
19.7119380543278
20
-5.61447736777072
30
0
41
1
10
19.6743437734414
20
-5.75192831278738
30
0
41
1
10
19.6510085472785
20
-5.81930901699786
30
0
41
1
10
19.6088439545667
20
-5.91939349294728
30
0
41
1
10
19.5936282036747
20
-5.95248681896439
30
0
41
1
10
19.561007612055
20
-6.0179405353457
30
0
41
1
10
19.5435796738199
20
-6.0503564705221
30
0
41
1
10
19.5250000000015
20
-6.08256053862587
30
0
0
SPLINE
5
181
100
AcDbEntity
8
1
62
256
6
ByLayer
370
18
48
1
60
0
100
AcDbSpline
70
4
71
3
72
32
73
28
40
0
40
0
40
0
40
0
40
0.124999999999992
40
0.124999999999992
40
0.249999999999984
40
0.249999999999984
40
0.281249999999984
40
0.281249999999984
40
0.312499999999983
40
0.312499999999983
40
0.374999999999986
40
0.374999999999986
40
0.49999999999999
40
0.49999999999999
40
0.56249999999999
40
0.56249999999999
40
0.593749999999992
40
0.593749999999992
40
0.624999999999994
40
0.624999999999994
40
0.749999999999997
40
0.749999999999997
40
0.875000000000001
40
0.875000000000001
40
0.937500000000001
40
0.937500000000001
40
1
40
1
40
1
40
1
41
1
10
19.525
20
-10.6070107729664
30
0
41
1
10
19.5622257722493
20
-10.6680462879571
30
0
41
1
10
19.5945540477172
20
-10.7322662995786
30
0
41
1
10
19.6502751353693
20
-10.864844704443
30
0
41
1
10
19.6736593922956
20
-10.9332315359755
30
0
41
1
10
19.6973388066952
20
-11.0204144425216
30
0
41
1
10
19.7017954531887
20
-11.0379369251551
30
0
41
1
10
19.7101445492718
20
-11.0731339736729
30
0
41
1
10
19.7140405161275
20
-11.0908301715477
30
0
41
1
10
19.7248000309276
20
-11.1437528097954
30
0
41
1
10
19.7307633876759
20
-11.1789138582146
30
0
41
1
10
19.7450941258959
20
-11.283779277902
30
0
41
1
10
19.7499173582746
20
-11.3528295448331
30
0
41
1
10
19.7500397482501
20
-11.4546109539273
30
0
41
1
10
19.7488912538173
20
-11.4882477308808
30
0
41
1
10
19.7453483394831
20
-11.5382904977565
30
0
41
1
10
19.7438637724502
20
-11.5549033250084
30
0
41
1
10
19.7402785478741
20
-11.5880040229454
30
0
41
1
10
19.7381740269327
20
-11.6045094649068
30
0
41
1
10
19.726195402397
20
-11.6860927754484
30
0
41
1
10
19.7119380543278
20
-11.7488508527877
30
0
41
1
10
19.6743437734414
20
-11.8715742168949
30
0
41
1
10
19.6510085472786
20
-11.9315367914003
30
0
41
1
10
19.6088439545667
20
-12.0211903049734
30
0
41
1
10
19.5936282036747
20
-12.0509356915809
30
0
41
1
10
19.5610076120551
20
-12.1101414942389
30
0
41
1
10
19.5435796738199
20
-12.1396506230695
30
0
41
1
10
19.5250000000015
20
-12.1692581906229
30
0
0
SPLINE
5
182
100
AcDbEntity
8
1
62
256
6
ByLayer
370
18
48
1
60
0
100
AcDbSpline
70
4
71
3
72
32
73
28
40
0
40
0
40
0
40
0
40
0.125000000000018
40
0.125000000000018
40
0.250000000000035
40
0.250000000000035
40
0.281250000000037
40
0.281250000000037
40
0.312500000000039
40
0.312500000000039
40
0.375000000000043
40
0.375000000000043
40
0.500000000000045
40
0.500000000000045
40
0.562500000000047
40
0.562500000000047
40
0.593750000000047
40
0.593750000000047
40
0.625000000000046
40
0.625000000000046
40
0.750000000000033
40
0.750000000000033
40
0.87500000000002
40
0.87500000000002
40
0.93750000000001
40
0.93750000000001
40
1
40
1
40
1
40
1
41
1
10
19.525
20
-16.2306014000909
30
0
41
1
10
19.5622257722493
20
-16.2839874375133
30
0
41
1
10
19.5945540477172
20
-16.3413758257175
30
0
41
1
10
19.6502751353693
20
-16.4606208594385
30
0
41
1
10
19.6736593922956
20
-16.5225232765014
30
0
41
1
10
19.6973388066952
20
-16.6011996727531
30
0
41
1
10
19.7017954531887
20
-16.6170009702799
30
0
41
1
10
19.7101445492718
20
-16.6487005402947
30
0
41
1
10
19.7140405161275
20
-16.6646181489992
30
0
41
1
10
19.7248000309276
20
-16.7121373379005
30
0
41
1
10
19.7307633876759
20
-16.7435951878805
30
0
41
1
10
19.7450941258959
20
-16.8369145308307
30
0
41
1
10
19.7499173582746
20
-16.8976665564927
30
0
41
1
10
19.7500397482501
20
-16.9858308561256
30
0
41
1
10
19.7488912538173
20
-17.0147381142403
30
0
41
1
10
19.7453483394831
20
-17.0574120831477
30
0
41
1
10
19.7438637724502
20
-17.0715232232874
30
0
41
1
10
19.7402785478741
20
-17.0995354074297
30
0
41
1
10
19.7381740269327
20
-17.1134510360111
30
0
41
1
10
19.726195402397
20
-17.1820016645665
30
0
41
1
10
19.7119380543278
20
-17.2339809692081
30
0
41
1
10
19.6743437734414
20
-17.335195039767
30
0
41
1
10
19.6510085472785
20
-17.3844259431538
30
0
41
1
10
19.6088439545667
20
-17.4586942269172
30
0
41
1
10
19.5936282036747
20
-17.4834479393156
30
0
41
1
10
19.5610076120551
20
-17.5331341061696
30
0
41
1
10
19.5435796738199
20
-17.5581057494972
30
0
41
1
10
19.5250000000015
20
-17.5834806976038
30
0
0
SPLINE
5
183
100
AcDbEntity
8
1
62
256
6
ByLayer
370
18
48
1
60
0
100
AcDbSpline
70
4
71
3
72
28
73
24
40
0
40
0
40
0
40
0
40
0.0748212973439963
40
0.0748212973439963
40
0.190468635176
40
0.190468635176
40
0.306115973008005
40
0.306115973008005
40
0.421763310840009
40
0.421763310840009
40
0.537410648672013
40
0.537410648672013
40
0.653057986504017
40
0.653057986504017
40
0.768705324336018
40
0.768705324336018
40
0.826528993252014
40
0.826528993252014
40
0.884352662168009
40
0.884352662168009
40
0.942176331084005
40
0.942176331084005
40
1
40
1
40
1
40
1
41
1
10
19.8677200000029
20
-26.3999999999999
30
0
41
1
10
19.8642337517226
20
-26.4
30
0
41
1
10
19.8605607994633
20
-26.4
30
0
41
1
10
19.8507055228471
20
-26.4
30
0
41
1
10
19.8442344836365
20
-26.4
30
0
41
1
10
19.8302256509178
20
-26.4
30
0
41
1
10
19.822703201059
20
-26.4
30
0
41
1
10
19.8064372623682
20
-26.4
30
0
41
1
10
19.7976959923051
20
-26.4
30
0
41
1
10
19.7787004633519
20
-26.4
30
0
41
1
10
19.7684515593262
20
-26.4
30
0
41
1
10
19.7459364641738
20
-26.4
30
0
41
1
10
19.7336864060722
20
-26.4
30
0
41
1
10
19.7061726787183
20
-26.4
30
0
41
1
10
19.6909725350734
20
-26.4
30
0
41
1
10
19.6640406321409
20
-26.4
30
0
41
1
10
19.6545107395918
20
-26.4
30
0
41
1
10
19.6338830913967
20
-26.4
30
0
41
1
10
19.6228019250377
20
-26.4
30
0
41
1
10
19.598147986261
20
-26.4
30
0
41
1
10
19.5849441081097
20
-26.4
30
0
41
1
10
19.5558575509739
20
-26.4
30
0
41
1
10
19.5407541033155
20
-26.4
30
0
41
1
10
19.525
20
-26.4
30
0
0
SPLINE
5
184
100
AcDbEntity
8
1
62
256
6
ByLayer
370
18
48
1
60
0
100
AcDbSpline
70
4
71
3
72
28
73
24
40
0
40
0
40
0
40
0
40
0.0312499999999977
40
0.0312499999999977
40
0.0624999999999953
40
0.0624999999999953
40
0.124999999999989
40
0.124999999999989
40
0.187499999999983
40
0.187499999999983
40
0.249999999999977
40
0.249999999999977
40
0.374999999999961
40
0.374999999999961
40
0.437499999999959
40
0.437499999999959
40
0.499999999999956
40
0.499999999999956
40
0.624999999999966
40
0.624999999999966
40
0.749999999999975
40
0.749999999999975
40
1
40
1
40
1
40
1
41
1
10
16.475
20
26.4
30
0
41
1
10
16.4695218117318
20
26.4
30
0
41
1
10
16.4639592722497
20
26.4
30
0
41
1
10
16.4531012812887
20
26.4
30
0
41
1
10
16.4477658912545
20
26.4
30
0
41
1
10
16.4320152361729
20
26.4
30
0
41
1
10
16.4218199762314
20
26.4
30
0
41
1
10
16.4028703180138
20
26.4
30
0
41
1
10
16.393970377898
20
26.4
30
0
41
1
10
16.3770195476013
20
26.4
30
0
41
1
10
16.3690789387687
20
26.4
30
0
41
1
10
16.3466671821829
20
26.4
30
0
41
1
10
16.333431755631
20
26.4
30
0
41
1
10
16.3151061332821
20
26.4
30
0
41
1
10
16.3092743290003
20
26.4
30
0
41
1
10
16.2981587768623
20
26.4
30
0
41
1
10
16.2928571530061
20
26.4
30
0
41
1
10
16.2775791502382
20
26.4
30
0
41
1
10
16.2682224046901
20
26.4
30
0
41
1
10
16.2507042143624
20
26.4
30
0
41
1
10
16.2425476678602
20
26.4
30
0
41
1
10
16.2194851817064
20
26.4
30
0
41
1
10
16.2059660040617
20
26.4
30
0
41
1
10
16.1937397274626
20
26.4
30
0
0
SPLINE
5
185
100
AcDbEntity
8
1
62
256
6
ByLayer
370
18
48
1
60
0
100
AcDbSpline
70
4
71
3
72
20
73
16
40
0
40
0
40
0
40
0
40
0.125000000000004
40
0.125000000000004
40
0.250000000000008
40
0.250000000000008
40
0.375000000000012
40
0.375000000000012
40
0.500000000000016
40
0.500000000000016
40
0.750000000000024
40
0.750000000000024
40
0.875000000000012
40
0.875000000000012
40
1
40
1
40
1
40
1
41
1
10
16.1937397274627
20
26.3999999999999
30
0
41
1
10
16.1842797092231
20
26.4097769359917
30
0
41
1
10
16.1752865639471
20
26.4200440728326
30
0
41
1
10
16.1582472360248
20
26.4415726253043
30
0
41
1
10
16.1502374972282
20
26.4527970849149
30
0
41
1
10
16.1354195864134
20
26.4758754239811
30
0
41
1
10
16.1285798508723
20
26.4877681435603
30
0
41
1
10
16.1160373835992
20
26.5122597909401
30
0
41
1
10
16.1103918987635
20
26.5247523636766
30
0
41
1
10
16.0953550131521
20
26.5627233580421
30
0
41
1
10
16.0877979661197
20
26.5887831485574
30
0
41
1
10
16.080138445853
20
26.6289838896701
30
0
41
1
10
16.0781975852373
20
26.6426443681837
30
0
41
1
10
16.0756328445336
20
26.669914771911
30
0
41
1
10
16.075
20
26.6835224093342
30
0
41
1
10
16.075
20
26.697103190234
30
0
0
SPLINE
5
186
100
AcDbEntity
8
1
62
256
6
ByLayer
370
18
48
1
60
0
100
AcDbSpline
70
4
71
3
72
40
73
36
40
0
40
0
40
0
40
0
40
0.015646573489509
40
0.015646573489509
40
0.031293146979018
40
0.031293146979018
40
0.0469397204685269
40
0.0469397204685269
40
0.0625862939580359
40
0.0625862939580359
40
0.0782328674475449
40
0.0782328674475449
40
0.0938794409370539
40
0.0938794409370539
40
0.125172587916068
40
0.125172587916068
40
0.156465734895083
40
0.156465734895083
40
0.187758881874098
40
0.187758881874098
40
0.250345175832122
40
0.250345175832122
40
0.312931469790146
40
0.312931469790146
40
0.37551776374817
40
0.37551776374817
40
0.438104057706195
40
0.438104057706195
40
0.500690351664219
40
0.500690351664219
40
0.625862939580266
40
0.625862939580266
40
0.751035527496312
40
0.751035527496312
40
1
40
1
40
1
40
1
41
1
10
16.475
20
-26.4
30
0
41
1
10
16.4673226919549
20
-26.4
30
0
41
1
10
16.4596313914733
20
-26.4
30
0
41
1
10
16.4443522436319
20
-26.4
30
0
41
1
10
16.4369772923286
20
-26.4
30
0
41
1
10
16.4226671530006
20
-26.4
30
0
41
1
10
16.4156891178927
20
-26.4
30
0
41
1
10
16.4024395960546
20
-26.4
30
0
41
1
10
16.3961337977332
20
-26.4
30
0
41
1
10
16.3840205954807
20
-26.4
30
0
41
1
10
16.3782140529183
20
-26.4
30
0
41
1
10
16.367007662028
20
-26.4
30
0
41
1
10
16.36160864823
20
-26.4
30
0
41
1
10
16.3461431413254
20
-26.4
30
0
41
1
10
16.336700018815
20
-26.4
30
0
41
1
10
16.3189863257432
20
-26.4
30
0
41
1
10
16.3107230075456
20
-26.4
30
0
41
1
10
16.295078277987
20
-26.4
30
0
41
1
10
16.2876895460749
20
-26.4
30
0
41
1
10
16.2667934398
20
-26.4
30
0
41
1
10
16.2544360687867
20
-26.4
30
0
41
1
10
16.2317610364964
20
-26.4
30
0
41
1
10
16.2214615373228
20
-26.4
30
0
41
1
10
16.2023941560714
20
-26.4
30
0
41
1
10
16.1936321375888
20
-26.4
30
0
41
1
10
16.1773412140386
20
-26.4
30
0
41
1
10
16.1698146974544
20
-26.4
30
0
41
1
10
16.1558069562402
20
-26.4
30
0
41
1
10
16.149320560564
20
-26.4
30
0
41
1
10
16.1313301316802
20
-26.4
30
0
41
1
10
16.1212477874993
20
-26.4
30
0
41
1
10
16.1041941300891
20
-26.4
30
0
41
1
10
16.0972316710737
20
-26.4
30
0
41
1
10
16.0806251380175
20
-26.4
30
0
41
1
10
16.0750506601843
20
-26.3999999999999
30
0
41
1
10
16.0750050000023
20
-26.3999999999999
30
0
0
SPLINE
5
187
100
AcDbEntity
8
1
62
256
6
ByLayer
370
18
48
1
60
0
100
AcDbSpline
70
4
71
3
72
32
73
28
40
0
40
0
40
0
40
0
40
0.125000000000002
40
0.125000000000002
40
0.250000000000004
40
0.250000000000004
40
0.281250000000004
40
0.281250000000004
40
0.312500000000004
40
0.312500000000004
40
0.375
40
0.375
40
0.499999999999992
40
0.499999999999992
40
0.56249999999999
40
0.56249999999999
40
0.593749999999991
40
0.593749999999991
40
0.624999999999993
40
0.624999999999993
40
0.749999999999994
40
0.749999999999994
40
0.874999999999996
40
0.874999999999996
40
0.937499999999998
40
0.937499999999998
40
1
40
1
40
1
40
1
41
1
10
16.475
20
-17.5834806976042
30
0
41
1
10
16.4377742277507
20
-17.5326400828397
30
0
41
1
10
16.4054459522828
20
-17.48377091451
30
0
41
1
10
16.3497248646308
20
-17.3858095648159
30
0
41
1
10
16.3263406077045
20
-17.3367730980134
30
0
41
1
10
16.3026611933048
20
-17.27334761125
30
0
41
1
10
16.2982045468113
20
-17.260556318764
30
0
41
1
10
16.2898554507283
20
-17.2347100837202
30
0
41
1
10
16.2859594838726
20
-17.2216387005082
30
0
41
1
10
16.2751999690725
20
-17.182226590438
30
0
41
1
10
16.2692366123242
20
-17.1556115350387
30
0
41
1
10
16.2549058741042
20
-17.0743282741437
30
0
41
1
10
16.2500826417255
20
-17.0181632092857
30
0
41
1
10
16.24996025175
20
-16.9301110113541
30
0
41
1
10
16.2511087461828
20
-16.9001401020891
30
0
41
1
10
16.2546516605169
20
-16.8542877881334
30
0
41
1
10
16.2561362275498
20
-16.838855392939
30
0
41
1
10
16.259721452126
20
-16.807711681923
30
0
41
1
10
16.2618259730674
20
-16.7919827488977
30
0
41
1
10
16.2738045976031
20
-16.7133571248931
30
0
41
1
10
16.2880619456723
20
-16.6500117336234
30
0
41
1
10
16.3256562265586
20
-16.5245006582798
30
0
41
1
10
16.3489914527215
20
-16.4623315712261
30
0
41
1
10
16.3911560454333
20
-16.3718879296943
30
0
41
1
10
16.4063717963254
20
-16.3423092294412
30
0
41
1
10
16.438992387945
20
-16.2850154421057
30
0
41
1
10
16.4564203261801
20
-16.2572467885351
30
0
41
1
10
16.4749999999985
20
-16.2306014000895
30
0
0
SPLINE
5
188
100
AcDbEntity
8
1
62
256
6
ByLayer
370
18
48
1
60
0
100
AcDbSpline
70
4
71
3
72
32
73
28
40
0
40
0
40
0
40
0
40
0.125000000000005
40
0.125000000000005
40
0.250000000000011
40
0.250000000000011
40
0.281250000000011
40
0.281250000000011
40
0.312500000000011
40
0.312500000000011
40
0.375000000000008
40
0.375000000000008
40
0.500000000000003
40
0.500000000000003
40
0.562500000000001
40
0.562500000000001
40
0.593750000000001
40
0.593750000000001
40
0.625
40
0.625
40
0.750000000000001
40
0.750000000000001
40
0.875000000000001
40
0.875000000000001
40
0.9375
40
0.9375
40
1
40
1
40
1
40
1
41
1
10
16.475
20
-12.169258190623
30
0
41
1
10
16.4377742277507
20
-12.109937204831
30
0
41
1
10
16.4054459522828
20
-12.0514555137902
30
0
41
1
10
16.3497248646307
20
-11.9332132340506
30
0
41
1
10
16.3263406077045
20
-11.873492565413
30
0
41
1
10
16.3026611933048
20
-11.7965822670497
30
0
41
1
10
16.2982045468113
20
-11.7810872439872
30
0
41
1
10
16.2898554507283
20
-11.7498328466777
30
0
41
1
10
16.2859594838726
20
-11.7340537908138
30
0
41
1
10
16.2751999690725
20
-11.6865918658698
30
0
41
1
10
16.2692366123242
20
-11.654692795451
30
0
41
1
10
16.2549058741042
20
-11.5579345614433
30
0
41
1
10
16.2500826417254
20
-11.4919739496652
30
0
41
1
10
16.24996025175
20
-11.3902680493041
30
0
41
1
10
16.2511087461828
20
-11.3559148251435
30
0
41
1
10
16.2546516605169
20
-11.3037312093317
30
0
41
1
10
16.2561362275498
20
-11.2862284197143
30
0
41
1
10
16.259721452126
20
-11.2510184083221
30
0
41
1
10
16.2618259730674
20
-11.2332915725756
30
0
41
1
10
16.2738045976031
20
-11.1449220122846
30
0
41
1
10
16.2880619456723
20
-11.0745080404172
30
0
41
1
10
16.3256562265586
20
-10.935418858235
30
0
41
1
10
16.3489914527215
20
-10.8667414663275
30
0
41
1
10
16.3911560454333
20
-10.7661926607264
30
0
41
1
10
16.4063717963254
20
-10.733197290257
30
0
41
1
10
16.438992387945
20
-10.668867196194
30
0
41
1
10
16.4564203261801
20
-10.6374740754395
30
0
41
1
10
16.4749999999985
20
-10.6070107729652
30
0
0
SPLINE
5
189
100
AcDbEntity
8
1
62
256
6
ByLayer
370
18
48
1
60
0
100
AcDbSpline
70
4
71
3
72
32
73
28
40
0
40
0
40
0
40
0
40
0.124999999999998
40
0.124999999999998
40
0.249999999999996
40
0.249999999999996
40
0.281249999999998
40
0.281249999999998
40
0.312499999999999
40
0.312499999999999
40
0.374999999999999
40
0.374999999999999
40
0.499999999999999
40
0.499999999999999
40
0.562499999999999
40
0.562499999999999
40
0.59375
40
0.59375
40
0.625
40
0.625
40
0.750000000000001
40
0.750000000000001
40
0.875000000000001
40
0.875000000000001
40
0.937500000000001
40
0.937500000000001
40
1
40
1
40
1
40
1
41
1
10
16.475
20
-6.0825605386255
30
0
41
1
10
16.4377742277507
20
-6.01803726892504
30
0
41
1
10
16.4054459522828
20
-5.95317476273067
30
0
41
1
10
16.3497248646307
20
-5.82118564014874
30
0
41
1
10
16.3263406077045
20
-5.75408094333275
30
0
41
1
10
16.3026611933048
20
-5.66793590870145
30
0
41
1
10
16.2982045468113
20
-5.65059341250398
30
0
41
1
10
16.2898554507283
20
-5.61565797589969
30
0
41
1
10
16.2859594838726
20
-5.59804320052305
30
0
41
1
10
16.2751999690725
20
-5.545154214234
30
0
41
1
10
16.2692366123242
20
-5.50973387650552
30
0
41
1
10
16.2549058741042
20
-5.40284754480069
30
0
41
1
10
16.2500826417254
20
-5.33073638001062
30
0
41
1
10
16.24996025175
20
-5.22099706146605
30
0
41
1
10
16.2511087461828
20
-5.18415988704606
30
0
41
1
10
16.2546516605169
20
-5.1285286442959
30
0
41
1
10
16.2561362275498
20
-5.10992266719623
30
0
41
1
10
16.259721452126
20
-5.0725920662629
30
0
41
1
10
16.2618259730674
20
-5.05384691556065
30
0
41
1
10
16.2738045976031
20
-4.96061673495399
30
0
41
1
10
16.2880619456723
20
-4.88702526978434
30
0
41
1
10
16.3256562265586
20
-4.74204407111458
30
0
41
1
10
16.3489914527215
20
-4.67065349796405
30
0
41
1
10
16.3911560454333
20
-4.56555587129901
30
0
41
1
10
16.4063717963254
20
-4.5309671600383
30
0
41
1
10
16.438992387945
20
-4.46315565048741
30
0
41
1
10
16.4564203261801
20
-4.42987285139975
30
0
41
1
10
16.4749999999985
20
-4.39727504184148
30
0
0
SPLINE
5
18A
100
AcDbEntity
8
1
62
256
6
ByLayer
370
18
48
1
60
0
100
AcDbSpline
70
4
71
3
72
32
73
28
40
0
40
0
40
0
40
0
40
0.124999999999998
40
0.124999999999998
40
0.249999999999997
40
0.249999999999997
40
0.281249999999997
40
0.281249999999997
40
0.312499999999997
40
0.312499999999997
40
0.374999999999998
40
0.374999999999998
40
0.5
40
0.5
40
0.5625
40
0.5625
40
0.593750000000001
40
0.593750000000001
40
0.625000000000001
40
0.625000000000001
40
0.750000000000002
40
0.750000000000002
40
0.875000000000002
40
0.875000000000002
40
0.937500000000001
40
0.937500000000001
40
1
40
1
40
1
40
1
41
1
10
16.475
20
4.39727504184245
30
0
41
1
10
16.4377742277507
20
4.46258720212586
30
0
41
1
10
16.4054459522828
20
4.53009002909846
30
0
41
1
10
16.3497248646307
20
4.66867550134629
30
0
41
1
10
16.3263406077045
20
4.73976768015055
30
0
41
1
10
16.3026611933048
20
4.83063935569521
30
0
41
1
10
16.2982045468113
20
4.84891472825561
30
0
41
1
10
16.2898554507283
20
4.88566426077168
30
0
41
1
10
16.2859594838726
20
4.90416115310484
30
0
41
1
10
16.2751999690725
20
4.95956272728378
30
0
41
1
10
16.2692366123242
20
4.99648396900869
30
0
41
1
10
16.2549058741041
20
5.10710058564646
30
0
41
1
10
16.2500826417254
20
5.18063336510292
30
0
41
1
10
16.24996025175
20
5.29040742678777
30
0
41
1
10
16.2511087461828
20
5.32691494893044
30
0
41
1
10
16.2546516605169
20
5.38156114251001
30
0
41
1
10
16.2561362275498
20
5.39975762939511
30
0
41
1
10
16.2597214521259
20
5.43611769128918
30
0
41
1
10
16.2618259730673
20
5.45430085327993
30
0
41
1
10
16.2738045976031
20
5.54440853907875
30
0
41
1
10
16.2880619456723
20
5.61447736777075
30
0
41
1
10
16.3256562265586
20
5.75192831278741
30
0
41
1
10
16.3489914527215
20
5.81930901699792
30
0
41
1
10
16.3911560454333
20
5.91939349294731
30
0
41
1
10
16.4063717963254
20
5.95248681896445
30
0
41
1
10
16.438992387945
20
6.01794053534573
30
0
41
1
10
16.4564203261801
20
6.0503564705221
30
0
41
1
10
16.4749999999985
20
6.0825605386259
30
0
0
SPLINE
5
18B
100
AcDbEntity
8
1
62
256
6
ByLayer
370
18
48
1
60
0
100
AcDbSpline
70
4
71
3
72
32
73
28
40
0
40
0
40
0
40
0
40
0.125000000000004
40
0.125000000000004
40
0.250000000000008
40
0.250000000000008
40
0.281250000000009
40
0.281250000000009
40
0.312500000000009
40
0.312500000000009
40
0.375000000000008
40
0.375000000000008
40
0.500000000000005
40
0.500000000000005
40
0.562500000000004
40
0.562500000000004
40
0.593750000000005
40
0.593750000000005
40
0.625000000000005
40
0.625000000000005
40
0.750000000000005
40
0.750000000000005
40
0.875000000000005
40
0.875000000000005
40
0.937500000000003
40
0.937500000000003
40
1
40
1
40
1
40
1
41
1
10
16.475
20
10.6070107729665
30
0
41
1
10
16.4377742277507
20
10.6680462879572
30
0
41
1
10
16.4054459522828
20
10.7322662995787
30
0
41
1
10
16.3497248646307
20
10.8648447044431
30
0
41
1
10
16.3263406077045
20
10.9332315359757
30
0
41
1
10
16.3026611933048
20
11.0204144425217
30
0
41
1
10
16.2982045468113
20
11.0379369251552
30
0
41
1
10
16.2898554507283
20
11.073133973673
30
0
41
1
10
16.2859594838725
20
11.0908301715478
30
0
41
1
10
16.2751999690725
20
11.1437528097954
30
0
41
1
10
16.2692366123242
20
11.1789138582146
30
0
41
1
10
16.2549058741041
20
11.2837792779021
30
0
41
1
10
16.2500826417254
20
11.3528295448332
30
0
41
1
10
16.2499602517499
20
11.4546109539274
30
0
41
1
10
16.2511087461828
20
11.4882477308808
30
0
41
1
10
16.2546516605169
20
11.5382904977566
30
0
41
1
10
16.2561362275498
20
11.5549033250084
30
0
41
1
10
16.2597214521259
20
11.5880040229455
30
0
41
1
10
16.2618259730673
20
11.6045094649068
30
0
41
1
10
16.2738045976031
20
11.6860927754484
30
0
41
1
10
16.2880619456723
20
11.7488508527878
30
0
41
1
10
16.3256562265586
20
11.8715742168949
30
0
41
1
10
16.3489914527215
20
11.9315367914003
30
0
41
1
10
16.3911560454333
20
12.0211903049734
30
0
41
1
10
16.4063717963254
20
12.0509356915809
30
0
41
1
10
16.438992387945
20
12.1101414942389
30
0
41
1
10
16.4564203261801
20
12.1396506230695
30
0
41
1
10
16.4749999999985
20
12.169258190623
30
0
0
SPLINE
5
18C
100
AcDbEntity
8
1
62
256
6
ByLayer
370
18
48
1
60
0
100
AcDbSpline
70
4
71
3
72
32
73
28
40
0
40
0
40
0
40
0
40
0.124999999999988
40
0.124999999999988
40
0.249999999999975
40
0.249999999999975
40
0.281249999999978
40
0.281249999999978
40
0.312499999999981
40
0.312499999999981
40
0.374999999999988
40
0.374999999999988
40
0.500000000000006
40
0.500000000000006
40
0.562500000000015
40
0.562500000000015
40
0.593750000000015
40
0.593750000000015
40
0.625000000000015
40
0.625000000000015
40
0.750000000000012
40
0.750000000000012
40
0.875000000000009
40
0.875000000000009
40
0.937500000000005
40
0.937500000000005
40
1
40
1
40
1
40
1
41
1
10
16.475
20
16.230601400091
30
0
41
1
10
16.4377742277507
20
16.2839874375134
30
0
41
1
10
16.4054459522829
20
16.3413758257175
30
0
41
1
10
16.3497248646308
20
16.4606208594385
30
0
41
1
10
16.3263406077045
20
16.5225232765014
30
0
41
1
10
16.3026611933048
20
16.6011996727532
30
0
41
1
10
16.2982045468113
20
16.6170009702799
30
0
41
1
10
16.2898554507283
20
16.6487005402947
30
0
41
1
10
16.2859594838725
20
16.6646181489993
30
0
41
1
10
16.2751999690725
20
16.7121373379005
30
0
41
1
10
16.2692366123242
20
16.7435951878805
30
0
41
1
10
16.2549058741041
20
16.8369145308305
30
0
41
1
10
16.2500826417254
20
16.8976665564926
30
0
41
1
10
16.2499602517499
20
16.9858308561256
30
0
41
1
10
16.2511087461828
20
17.0147381142403
30
0
41
1
10
16.2546516605169
20
17.0574120831477
30
0
41
1
10
16.2561362275498
20
17.0715232232876
30
0
41
1
10
16.2597214521259
20
17.0995354074298
30
0
41
1
10
16.2618259730674
20
17.1134510360113
30
0
41
1
10
16.2738045976031
20
17.1820016645665
30
0
41
1
10
16.2880619456723
20
17.2339809692081
30
0
41
1
10
16.3256562265586
20
17.335195039767
30
0
41
1
10
16.3489914527215
20
17.3844259431538
30
0
41
1
10
16.3911560454333
20
17.4586942269173
30
0
41
1
10
16.4063717963254
20
17.4834479393157
30
0
41
1
10
16.438992387945
20
17.5331341061697
30
0
41
1
10
16.45642032618
20
17.5581057494973
30
0
41
1
10
16.4749999999984
20
17.5834806976038
30
0
0
SPLINE
5
18D
100
AcDbEntity
8
1
62
256
6
ByLayer
370
18
48
1
60
0
100
AcDbSpline
70
4
71
3
72
8
73
4
40
0
40
0
40
0
40
0
40
1
40
1
40
1
40
1
41
1
10
16.075
20
-27.5194446025754
30
0
41
1
10
15.5933771502786
20
-28.3972829993793
30
0
41
1
10
15.1100404143129
20
-29.2741992018061
30
0
41
1
10
14.6253876765867
20
-30.1503829784963
30
0
0
SPLINE
5
18E
100
AcDbEntity
8
1
62
256
6
ByLayer
370
18
48
1
60
0
100
AcDbSpline
70
4
71
3
72
12
73
8
40
0
40
0
40
0
40
0
40
0.25
40
0.25
40
0.499999999999999
40
0.499999999999999
40
1
40
1
40
1
40
1
41
1
10
16.075
20
19.85
30
0
41
1
10
15.9575543463047
20
19.85
30
0
41
1
10
15.8391567902152
20
19.85
30
0
41
1
10
15.6006785184763
20
19.85
30
0
41
1
10
15.4805909149784
20
19.85
30
0
41
1
10
15.1179575685047
20
19.85
30
0
41
1
10
14.8730455409432
20
19.85
30
0
41
1
10
14.6253876765866
20
19.85
30
0
0
SPLINE
5
18F
100
AcDbEntity
8
1
62
256
6
ByLayer
370
18
48
1
60
0
100
AcDbSpline
70
4
71
3
72
8
73
4
40
0
40
0
40
0
40
0
40
1
40
1
40
1
40
1
41
1
10
25.95
20
-29.6281216709733
30
0
41
1
10
25.7833972320879
20
-29.8022699946348
30
0
41
1
10
25.6167293283391
20
-29.9763562682361
30
0
41
1
10
25.45
20
-30.1503829784963
30
0
0
SPLINE
5
190
100
AcDbEntity
8
1
62
256
6
ByLayer
370
18
48
1
60
0
100
AcDbSpline
70
4
71
3
72
8
73
4
40
0
40
0
40
0
40
0
40
1
40
1
40
1
40
1
41
1
10
25.95
20
19.85
30
0
41
1
10
25.7839428389179
20
19.85
30
0
41
1
10
25.6172335326703
20
19.85
30
0
41
1
10
25.45
20
19.85
30
0
0
SPLINE
5
191
100
AcDbEntity
8
1
62
256
6
ByLayer
370
18
48
1
60
0
100
AcDbSpline
70
4
71
3
72
53
73
49
40
0
40
0
40
0
40
0
40
0.0624999999999989
40
0.0624999999999989
40
0.124999999999998
40
0.124999999999998
40
0.187499999999997
40
0.187499999999997
40
0.203124999999996
40
0.203124999999996
40
0.218749999999996
40
0.218749999999996
40
0.249999999999996
40
0.249999999999996
40
0.312499999999996
40
0.312499999999996
40
0.374999999999995
40
0.374999999999995
40
0.406249999999995
40
0.406249999999995
40
0.421874999999995
40
0.421874999999995
40
0.437499999999995
40
0.437499999999995
40
0.499999999999996
40
0.499999999999996
40
0.562499999999997
40
0.562499999999997
40
0.624999999999997
40
0.624999999999997
40
0.640624999999997
40
0.640624999999997
40
0.656249999999997
40
0.687499999999998
40
0.687499999999998
40
0.749999999999998
40
0.749999999999998
40
0.812499999999998
40
0.812499999999998
40
0.843749999999998
40
0.843749999999998
40
0.859374999999998
40
0.859374999999998
40
0.874999999999999
40
0.874999999999999
40
0.937499999999999
40
0.937499999999999
40
1
40
1
40
1
40
1
41
1
10
12.95
20
-30.1503829784963
30
0
41
1
10
12.6841313593866
20
-30.1503829784963
30
0
41
1
10
12.420647498405
20
-30.1543453879131
30
0
41
1
10
11.8982638705436
20
-30.1697869707438
30
0
41
1
10
11.6393646026073
20
-30.1812667142531
30
0
41
1
10
11.1260959657866
20
-30.2113619657957
30
0
41
1
10
10.8717264718108
20
-30.2299778939183
30
0
41
1
10
10.5566391253125
20
-30.2574763990119
30
0
41
1
10
10.4937656966584
20
-30.2631875405795
30
0
41
1
10
10.3683093033381
20
-30.2750269307959
30
0
41
1
10
10.305721937442
20
-30.2811564366936
30
0
41
1
10
10.1194618268705
20
-30.3000493570683
30
0
41
1
10
9.99692951457199
20
-30.3133501209502
30
0
41
1
10
9.63413312205712
20
-30.3551895350746
30
0
41
1
10
9.39865793344256
20
-30.3856634558139
30
0
41
1
10
8.940131299683
20
-30.4508771444522
30
0
41
1
10
8.71708027746823
20
-30.4856182415107
30
0
41
1
10
8.3918343568463
20
-30.5402922027968
30
0
41
1
10
8.28497698908885
20
-30.5589441303185
30
0
41
1
10
8.12705594765475
20
-30.5874838229592
30
0
41
1
10
8.07474052483529
20
-30.5971038147968
30
0
41
1
10
7.97132476718414
20
-30.616438827492
30
0
41
1
10
7.92022166488198
20
-30.6261537581164
30
0
41
1
10
7.66769106088231
20
-30.674925228277
30
0
41
1
10
7.47519443651626
20
-30.7145691260908
30
0
41
1
10
7.10865483934174
20
-30.7941358726583
30
0
41
1
10
6.93461315369417
20
-30.8340604486317
30
0
41
1
10
6.60496316861747
20
-30.913266496599
30
0
41
1
10
6.4493532968248
20
-30.9525496389802
30
0
41
1
10
6.2667101868977
20
-31.0006744484451
30
0
41
1
10
6.23077961689896
20
-31.0102499429787
30
0
41
1
10
6.16050409576219
20
-31.0291838688348
30
0
41
1
10
6.05731623933843
20
-31.0572994179036
30
0
41
1
10
5.96073307416356
20
-31.0845086951601
30
0
41
1
10
5.77624844381894
20
-31.1375890198019
30
0
41
1
10
5.66481288123558
20
-31.1711913504447
30
0
41
1
10
5.46492163805175
20
-31.2341535567076
30
0
41
1
10
5.37646500709751
20
-31.2635146855691
30
0
41
1
10
5.26144287268468
20
-31.3038663020077
30
0
41
1
10
5.22605148530563
20
-31.3167016610253
30
0
41
1
10
5.177495584958
20
-31.3349653649219
30
0
41
1
10
5.16207042207303
20
-31.340887023016
30
0
41
1
10
5.13289039673249
20
-31.3523337498622
30
0
41
1
10
5.11911462028147
20
-31.3578665960225
30
0
41
1
10
5.05428379043079
20
-31.3845694043971
30
0
41
1
10
5.01534301301413
20
-31.4028553327579
30
0
41
1
10
4.96320171145767
20
-31.433046335086
30
0
41
1
10
4.95000000000004
20
-31.4449518407133
30
0
41
1
10
4.95000000000003
20
-31.4535466005028
30
0
0
SPLINE
5
192
100
AcDbEntity
8
1
62
256
6
ByLayer
370
18
48
1
60
0
100
AcDbSpline
70
4
71
3
72
45
73
41
40
0
40
0
40
0
40
0
40
0.0624999999999973
40
0.0624999999999973
40
0.124999999999995
40
0.124999999999995
40
0.187499999999992
40
0.187499999999992
40
0.203124999999991
40
0.203124999999991
40
0.218749999999991
40
0.218749999999991
40
0.249999999999989
40
0.249999999999989
40
0.312499999999988
40
0.312499999999988
40
0.374999999999986
40
0.374999999999986
40
0.406249999999985
40
0.421874999999985
40
0.421874999999985
40
0.437499999999985
40
0.437499999999985
40
0.499999999999986
40
0.499999999999986
40
0.562499999999987
40
0.562499999999987
40
0.624999999999989
40
0.624999999999989
40
0.640624999999989
40
0.640624999999989
40
0.65624999999999
40
0.65624999999999
40
0.687499999999992
40
0.687499999999992
40
0.749999999999994
40
0.749999999999994
40
0.874999999999997
40
0.874999999999997
40
1
40
1
40
1
40
1
41
1
10
12.1956203456892
20
24.4200409500066
30
0
41
1
10
11.9759339284872
20
24.4200409500066
30
0
41
1
10
11.7583248060651
20
24.4127074179386
30
0
41
1
10
11.3270848993938
20
24.3839386530956
30
0
41
1
10
11.1134547056098
20
24.3625011198197
30
0
41
1
10
10.6901035240453
20
24.3056038437389
30
0
41
1
10
10.4803827549287
20
24.2701435456968
30
0
41
1
10
10.220690132804
20
24.2168315972934
30
0
41
1
10
10.1688747482696
20
24.2057188174181
30
0
41
1
10
10.0654915217627
20
24.1825826465595
30
0
41
1
10
10.0138582555167
20
24.1705425488761
30
0
41
1
10
9.86011701382465
20
24.1332343953866
30
0
41
1
10
9.75899909269462
20
24.1067468964487
30
0
41
1
10
9.45963651748903
20
24.0225304764548
30
0
41
1
10
9.26537564622198
20
23.9600575830852
30
0
41
1
10
8.88695628215879
20
23.8226742810017
30
0
41
1
10
8.70279973502871
20
23.7477618111635
30
0
41
1
10
8.43391201880758
20
23.6260043199279
30
0
41
1
10
8.30130718635604
20
23.5627752021059
30
0
41
1
10
8.17143577115013
20
23.49598276546
30
0
41
1
10
8.08546060652209
20
23.450656686642
30
0
41
1
10
8.04288957259081
20
23.4276543776726
30
0
41
1
10
7.83231360064805
20
23.311091922816
30
0
41
1
10
7.67087988193623
20
23.212752963373
30
0
41
1
10
7.36101732450726
20
23.006176053876
30
0
41
1
10
7.212591550095
20
22.8979363634043
30
0
41
1
10
6.92796256802127
20
22.6716713696083
30
0
41
1
10
6.79176136423069
20
22.5536449583075
30
0
41
1
10
6.62877486055859
20
22.3999925415235
30
0
41
1
10
6.59654118645173
20
22.3689558373227
30
0
41
1
10
6.53279309131621
20
22.3062689833205
30
0
41
1
10
6.50131318166939
20
22.2746516436256
30
0
41
1
10
6.4082738883651
20
22.179234275698
30
0
41
1
10
6.34801389290462
20
22.1147708752695
30
0
41
1
10
6.17226321560696
20
21.9188742079098
30
0
41
1
10
6.06179410768455
20
21.7849365427041
30
0
41
1
10
5.74865705723415
20
21.3734069993164
30
0
41
1
10
5.56418709064178
20
21.0861176330193
30
0
41
1
10
5.2365249073159
20
20.4866364512197
30
0
41
1
10
5.09337039057023
20
20.1744346090999
30
0
41
1
10
4.9682154922603
20
19.85
30
0
0
SPLINE
5
193
100
AcDbEntity
8
1
62
256
6
ByLayer
370
18
48
1
60
0
100
AcDbSpline
70
4
71
3
72
53
73
49
40
0
40
0
40
0
40
0
40
0.062499999999999
40
0.062499999999999
40
0.124999999999998
40
0.124999999999998
40
0.187499999999997
40
0.187499999999997
40
0.203124999999997
40
0.203124999999997
40
0.218749999999996
40
0.218749999999996
40
0.249999999999996
40
0.249999999999996
40
0.312499999999995
40
0.312499999999995
40
0.374999999999995
40
0.374999999999995
40
0.406249999999995
40
0.406249999999995
40
0.421874999999994
40
0.421874999999994
40
0.437499999999994
40
0.437499999999994
40
0.499999999999995
40
0.499999999999995
40
0.562499999999995
40
0.562499999999995
40
0.624999999999996
40
0.624999999999996
40
0.640624999999996
40
0.640624999999996
40
0.656249999999996
40
0.687499999999996
40
0.687499999999996
40
0.749999999999997
40
0.749999999999997
40
0.812499999999998
40
0.812499999999998
40
0.843749999999998
40
0.843749999999998
40
0.859374999999998
40
0.859374999999998
40
0.874999999999998
40
0.874999999999998
40
0.937499999999999
40
0.937499999999999
40
1
40
1
40
1
40
1
41
1
10
4.94999999999996
20
31.4699951342545
30
0
41
1
10
4.94999999999996
20
31.4698476089309
30
0
41
1
10
4.96316148456387
20
31.4663482437805
30
0
41
1
10
5.014833262539
20
31.4529824401189
30
0
41
1
10
5.05334632259851
20
31.443115398359
30
0
41
1
10
5.15552174838172
20
31.4173251944318
30
0
41
1
10
5.21918321366853
20
31.4014014637225
30
0
41
1
10
5.31481265858466
20
31.3779016832463
30
0
41
1
10
5.33474305466233
20
31.373021977824
30
0
41
1
10
5.37622898172658
20
31.3629078986405
30
0
41
1
10
5.39780590833239
20
31.3576684102907
30
0
41
1
10
5.46462463571699
20
31.3415165236844
30
0
41
1
10
5.51204881427505
20
31.3301472965835
30
0
41
1
10
5.66277602046246
20
31.2943892951813
30
0
41
1
10
5.77451273201857
20
31.2683509878206
30
0
41
1
10
6.02006473104039
20
31.2126594055855
30
0
41
1
10
6.15388041729031
20
31.1830046977939
30
0
41
1
10
6.37134836873922
20
31.1363910865799
30
0
41
1
10
6.44663359836225
20
31.1204980223429
30
0
41
1
10
6.56382727681553
20
31.0962003530904
30
0
41
1
10
6.60363097354943
20
31.0880191489026
30
0
41
1
10
6.68455656030858
20
31.071541452173
30
0
41
1
10
6.72557231063075
20
31.0632664878015
30
0
41
1
10
6.93338647885227
20
31.0217492547395
30
0
41
1
10
7.10836961999721
20
30.9880811451731
30
0
41
1
10
7.4754039610805
20
30.9207839071198
30
0
41
1
10
7.66745608423184
20
30.8871531261034
30
0
41
1
10
8.06876163464801
20
30.8208678222671
30
0
41
1
10
8.27801337795111
20
30.7882116103006
30
0
41
1
10
8.55074524405741
20
30.7486137736258
30
0
41
1
10
8.60592716662772
20
30.7407450951663
30
0
41
1
10
8.71690520462974
20
30.72521871645
30
0
41
1
10
8.88436668666481
20
30.7022336947395
30
0
41
1
10
9.05478427646676
20
30.6802165246349
30
0
41
1
10
9.39951696413301
20
30.6376146650815
30
0
41
1
10
9.634526230725
20
30.6111232682603
30
0
41
1
10
10.1149153789438
20
30.5627093850563
30
0
41
1
10
10.3602948471897
20
30.5407858131469
30
0
41
1
10
10.736364153485
20
30.5119001269116
30
0
41
1
10
10.8630563144907
20
30.5029384070804
30
0
41
1
10
11.0551489977476
20
30.4905711455268
30
0
41
1
10
11.1195899808493
20
30.4866243994951
30
0
41
1
10
11.2485709831097
20
30.4791355756795
30
0
41
1
10
11.3131637273305
20
30.4755896793322
30
0
41
1
10
11.6366359254661
20
30.4588636800731
30
0
41
1
10
11.8970373100373
20
30.4486945546454
30
0
41
1
10
12.4210740916657
20
30.4350490385152
30
0
41
1
10
12.6847093748942
20
30.4315723180713
30
0
41
1
10
12.95
20
30.4315723180713
30
0
0
SPLINE
5
194
100
AcDbEntity
8
1
62
256
6
ByLayer
370
18
48
1
60
0
100
AcDbSpline
70
4
71
3
72
8
73
4
40
0
40
0
40
0
40
0
40
1
40
1
40
1
40
1
41
1
10
21.3746123234134
20
-30.1503829784963
30
0
41
1
10
20.8899595856872
20
-29.2741992018061
30
0
41
1
10
20.4066228497215
20
-28.3972829993793
30
0
41
1
10
19.925
20
-27.5194446025754
30
0
0
SPLINE
5
195
100
AcDbEntity
8
1
62
256
6
ByLayer
370
18
48
1
60
0
100
AcDbSpline
70
4
71
3
72
12
73
8
40
0
40
0
40
0
40
0
40
0.5
40
0.5
40
0.75
40
0.75
40
1
40
1
40
1
40
1
41
1
10
21.3746123234133
20
19.85
30
0
41
1
10
21.1269480166304
20
19.85
30
0
41
1
10
20.8820296891945
20
19.85
30
0
41
1
10
20.5193871561882
20
19.85
30
0
41
1
10
20.3992965345052
20
19.85
30
0
41
1
10
20.1608123241297
20
19.85
30
0
41
1
10
20.0424022933999
20
19.85
30
0
41
1
10
19.925
20
19.85
30
0
0
SPLINE
5
196
100
AcDbEntity
8
1
62
256
6
ByLayer
370
18
48
1
60
0
100
AcDbSpline
70
2053
71
3
72
157
73
153
40
0
40
0
40
0
40
0
40
0.015624999999999
40
0.031249999999998
40
0.046874999999997
40
0.046874999999997
40
0.0507812499999967
40
0.0507812499999967
40
0.0546874999999964
40
0.0624999999999962
40
0.0624999999999962
40
0.0781249999999959
40
0.0937499999999955
40
0.0937499999999955
40
0.0976562499999951
40
0.0976562499999951
40
0.101562499999995
40
0.101562499999995
40
0.109374999999994
40
0.109374999999994
40
0.124999999999991
40
0.140624999999989
40
0.140624999999989
40
0.148437499999987
40
0.148437499999987
40
0.152343749999987
40
0.152343749999987
40
0.156249999999986
40
0.171874999999985
40
0.187499999999983
40
0.203124999999982
40
0.203124999999982
40
0.21874999999998
40
0.21874999999998
40
0.234374999999979
40
0.249999999999978
40
0.249999999999978
40
0.257812499999978
40
0.257812499999978
40
0.261718749999977
40
0.261718749999977
40
0.265624999999976
40
0.281249999999972
40
0.296874999999969
40
0.312499999999965
40
0.312499999999965
40
0.316406249999964
40
0.316406249999964
40
0.320312499999964
40
0.328124999999963
40
0.328124999999963
40
0.343749999999962
40
0.359374999999962
40
0.359374999999962
40
0.367187499999961
40
0.371093749999961
40
0.371093749999961
40
0.37499999999996
40
0.37499999999996
40
0.390624999999956
40
0.406249999999952
40
0.421874999999948
40
0.421874999999948
40
0.425781249999947
40
0.425781249999947
40
0.429687499999946
40
0.429687499999946
40
0.437499999999945
40
0.437499999999945
40
0.453124999999943
40
0.468749999999941
40
0.468749999999941
40
0.47656249999994
40
0.47656249999994
40
0.484374999999939
40
0.484374999999939
40
0.499999999999937
40
0.515624999999935
40
0.515624999999935
40
0.531249999999932
40
0.531249999999932
40
0.535156249999932
40
0.535156249999932
40
0.539062499999932
40
0.546874999999933
40
0.546874999999933
40
0.562499999999936
40
0.578124999999938
40
0.578124999999938
40
0.585937499999939
40
0.585937499999939
40
0.59374999999994
40
0.59374999999994
40
0.609374999999943
40
0.624999999999945
40
0.624999999999945
40
0.632812499999946
40
0.632812499999946
40
0.640624999999946
40
0.640624999999946
40
0.656249999999947
40
0.671874999999947
40
0.671874999999947
40
0.679687499999947
40
0.683593749999947
40
0.683593749999947
40
0.687499999999947
40
0.687499999999947
40
0.703124999999949
40
0.71874999999995
40
0.734374999999952
40
0.734374999999952
40
0.738281249999952
40
0.738281249999952
40
0.742187499999952
40
0.742187499999952
40
0.749999999999952
40
0.749999999999952
40
0.765624999999955
40
0.781249999999957
40
0.79687499999996
40
0.79687499999996
40
0.804687499999962
40
0.804687499999962
40
0.812499999999964
40
0.812499999999964
40
0.828124999999968
40
0.843749999999972
40
0.843749999999972
40
0.851562499999973
40
0.851562499999973
40
0.855468749999975
40
0.855468749999975
40
0.859374999999976
40
0.874999999999978
40
0.890624999999981
40
0.906249999999984
40
0.906249999999984
40
0.914062499999985
40
0.914062499999985
40
0.921874999999986
40
0.921874999999986
40
0.937499999999989
40
0.953124999999992
40
0.953124999999992
40
0.960937499999993
40
0.960937499999993
40
0.968749999999994
40
0.968749999999994
40
0.984374999999997
40
0.984374999999997
40
1
40
1
40
1
40
1
41
1
10
50.707017482118
20
23.2460979561103
30
0
41
1
10
50.7003292080518
20
23.3093337793059
30
0
41
1
10
50.6965859318208
20
23.4346649357028
30
0
41
1
10
50.7189196666745
20
23.6193435774617
30
0
41
1
10
50.7523655266849
20
23.7402843502842
30
0
41
1
10
50.7792224705905
20
23.8151914246939
30
0
41
1
10
50.784895101771
20
23.8301431984194
30
0
41
1
10
50.7967712938834
20
23.8598079222996
30
0
41
1
10
50.8154047967192
20
23.9040110335155
30
0
41
1
10
50.8364622426574
20
23.9473471520853
30
0
41
1
10
50.8817474283913
20
24.032894020512
30
0
41
1
10
50.9505662186077
20
24.143960989381
30
0
41
1
10
51.035997959011
20
24.2492390237607
30
0
41
1
10
51.0946574618353
20
24.3132445479592
30
0
41
1
10
51.1066532127742
20
24.3259558055621
30
0
41
1
10
51.1311767685209
20
24.3511982708818
30
0
41
1
10
51.1436960617051
20
24.3637195707958
30
0
41
1
10
51.1818428395417
20
24.4008108989958
30
0
41
1
10
51.2081229526108
20
24.4249754754015
30
0
41
1
10
51.2894502001246
20
24.4958340099537
30
0
41
1
10
51.4045041635932
20
24.5859614948247
30
0
41
1
10
51.5324695137321
20
24.6677532299125
30
0
41
1
10
51.633306112955
20
24.7260170457284
30
0
41
1
10
51.6677301993846
20
24.7449240612587
30
0
41
1
10
51.7206002746241
20
24.7725104720458
30
0
41
1
10
51.7384388973307
20
24.7815809192751
30
0
41
1
10
51.7743400041653
20
24.7993707501791
30
0
41
1
10
51.8647672121045
20
24.843022528767
30
0
41
1
10
52.0334895472607
20
24.9143641897173
30
0
41
1
10
52.2707654969814
20
24.9947461423433
30
0
41
1
10
52.4371323223487
20
25.0386680997825
30
0
41
1
10
52.6076958513333
20
25.0776903027176
30
0
41
1
10
52.6938359341204
20
25.0944653821369
30
0
41
1
10
52.8675065968591
20
25.122738560999
30
0
41
1
10
53.0426564354885
20
25.1457534416552
30
0
41
1
10
53.2207322340676
20
25.1584292967809
30
0
41
1
10
53.3554045927541
20
25.1640078332436
30
0
41
1
10
53.4004816128287
20
25.1652113995952
30
0
41
1
10
53.4683817868873
20
25.1660148328927
30
0
41
1
10
53.4910440029437
20
25.1661148684298
30
0
41
1
10
53.5362310511462
20
25.1659808861214
30
0
41
1
10
53.6489916582151
20
25.1648086489461
30
0
41
1
10
53.8501265308676
20
25.155282856704
30
0
41
1
10
54.1144738619579
20
25.1270512624137
30
0
41
1
10
54.2881355612872
20
25.0977649266414
30
0
41
1
10
54.3958432197672
20
25.0760518143179
30
0
41
1
10
54.4173712329601
20
25.0715320475435
30
0
41
1
10
54.4601906681536
20
25.0621792512886
30
0
41
1
10
54.5240327982634
20
25.0476884351572
30
0
41
1
10
54.5867260561398
20
25.0318237961283
30
0
41
1
10
54.7106013960083
20
24.9982773264617
30
0
41
1
10
54.871744613212
20
24.9487098450181
30
0
41
1
10
55.0248878307258
20
24.889400282057
30
0
41
1
10
55.1366768400612
20
24.841128399321
30
0
41
1
10
55.1918030197412
20
24.8160434340486
30
0
41
1
10
55.2457502567144
20
24.7894914001979
30
0
41
1
10
55.2814493410918
20
24.7714581111413
30
0
41
1
10
55.2991476547074
20
24.7622840561982
30
0
41
1
10
55.3864832397576
20
24.7158352247672
30
0
41
1
10
55.5195831145244
20
24.6374529779473
30
0
41
1
10
55.699706335787
20
24.5076886513199
30
0
41
1
10
55.8066590091504
20
24.4128267421423
30
0
41
1
10
55.8692394478506
20
24.3507764822405
30
0
41
1
10
55.8815417570983
20
24.3382280100924
30
0
41
1
10
55.9057125503831
20
24.3128489997599
30
0
41
1
10
55.9175911421976
20
24.3000061797002
30
0
41
1
10
55.9523660973154
20
24.2612738453589
30
0
41
1
10
55.974466644391
20
24.2351157186541
30
0
41
1
10
56.0375691923506
20
24.155634346606
30
0
41
1
10
56.1131902771916
20
24.0469779551098
30
0
41
1
10
56.1719171304096
20
23.9328845129773
30
0
41
1
10
56.209487851447
20
23.8451944551878
30
0
41
1
10
56.2209303657202
20
23.8156105447187
30
0
41
1
10
56.2416044530105
20
23.7557140597522
30
0
41
1
10
56.2508553656046
20
23.725312958891
30
0
41
1
10
56.2749533502485
20
23.6339659027671
30
0
41
1
10
56.2975340581056
20
23.5114505846838
30
0
41
1
10
56.3015236208473
20
23.3874974471567
30
0
41
1
10
56.2961905023747
20
23.2628199553592
30
0
41
1
10
56.2888634520185
20
23.2001190582554
30
0
41
1
10
56.2736830930519
20
23.1212830220153
30
0
41
1
10
56.2703452186253
20
23.1054987348657
30
0
41
1
10
56.2631069309449
20
23.0740731217363
30
0
41
1
10
56.2513919766696
20
23.0270788240105
30
0
41
1
10
56.2371380980851
20
22.9805129054487
30
0
41
1
10
56.2053055348129
20
22.887947780831
30
0
41
1
10
56.1540121112955
20
22.7660353981528
30
0
41
1
10
56.0852532569532
20
22.6471786144711
30
0
41
1
10
56.027025355015
20
22.5592407837204
30
0
41
1
10
56.0064434810571
20
22.5300534115978
30
0
41
1
10
55.9634456108779
20
22.4726559229952
30
0
41
1
10
55.9410114269578
20
22.4444073484229
30
0
41
1
10
55.8709683309207
20
22.3609924673545
30
0
41
1
10
55.7702831655683
20
22.2533147218565
30
0
41
1
10
55.655355383161
20
22.1526845865604
30
0
41
1
10
55.5637894226699
20
22.0799224276306
30
0
41
1
10
55.5323707952742
20
22.0561209525845
30
0
41
1
10
55.4677153006331
20
22.0094449722707
30
0
41
1
10
55.4346436538767
20
21.9866928792179
30
0
41
1
10
55.3336613783359
20
21.9204548075991
30
0
41
1
10
55.1939681674868
20
21.8372580830071
30
0
41
1
10
55.0444817875072
20
21.7641260151992
30
0
41
1
10
54.9287022970071
20
21.7130911795679
30
0
41
1
10
54.8698948926509
20
21.6885287896685
30
0
41
1
10
54.8096971104725
20
21.6654218711552
30
0
41
1
10
54.7692538838719
20
21.6503441152482
30
0
41
1
10
54.7488497324792
20
21.6429594112914
30
0
41
1
10
54.6464340561077
20
21.6069991225159
30
0
41
1
10
54.4801386850657
20
21.5556144083827
30
0
41
1
10
54.2236713625702
20
21.496461439939
30
0
41
1
10
54.048055336655
20
21.4689365770824
30
0
41
1
10
53.9368195554555
20
21.4555407819799
30
0
41
1
10
53.9144984491616
20
21.4530523757345
30
0
41
1
10
53.8697070114841
20
21.4484608048224
30
0
41
1
10
53.8472076338447
20
21.4463553173591
30
0
41
1
10
53.7797266746831
20
21.4406431379038
30
0
41
1
10
53.7347911431342
20
21.4376402052775
30
0
41
1
10
53.6001367922655
20
21.4310013482688
30
0
41
1
10
53.4210028103421
20
21.4284573501765
30
0
41
1
10
53.1534949455005
20
21.4432238613774
30
0
41
1
10
52.9759580302726
20
21.465534562984
30
0
41
1
10
52.8431170265342
20
21.4870972316994
30
0
41
1
10
52.7991657761026
20
21.4950475643694
30
0
41
1
10
52.7121385746324
20
21.5124038300611
30
0
41
1
10
52.6690250579376
20
21.5218158465806
30
0
41
1
10
52.5408702408275
20
21.5522200857624
30
0
41
1
10
52.3731547449541
20
21.5985330167114
30
0
41
1
10
52.2117329318283
20
21.6562668658208
30
0
41
1
10
52.0930862726895
20
21.7039174790527
30
0
41
1
10
52.0539413779136
20
21.7205272552396
30
0
41
1
10
51.9958443739277
20
21.746551340718
30
0
41
1
10
51.9765555803437
20
21.7554238189999
30
0
41
1
10
51.9383541825338
20
21.7734631430726
30
0
41
1
10
51.8437767238901
20
21.8193051141343
30
0
41
1
10
51.6817504395899
20
21.9083924299089
30
0
41
1
10
51.4829568952301
20
22.0407703937208
30
0
41
1
10
51.3620576701375
20
22.1380534438477
30
0
41
1
10
51.2759309507965
20
22.2144929295463
30
0
41
1
10
51.2479258110031
20
22.240614081829
30
0
41
1
10
51.1940739465612
20
22.2934448907563
30
0
41
1
10
51.1681584449625
20
22.320210076058
30
0
41
1
10
51.0934041832972
20
22.4015285427479
30
0
41
1
10
51.0016970880398
20
22.5126756138318
30
0
41
1
10
50.9258606097957
20
22.6291203925035
30
0
41
1
10
50.8750916586132
20
22.7184507468137
30
0
41
1
10
50.8591886292645
20
22.7485610058058
30
0
41
1
10
50.8294731910156
20
22.8094588615583
30
0
41
1
10
50.8156488474775
20
22.8402901473361
30
0
41
1
10
50.7777705988836
20
22.9328693555447
30
0
41
1
10
50.7571495159823
20
22.9949859273849
30
0
41
1
10
50.7251180273661
20
23.1199750367727
30
0
41
1
10
50.7137057561841
20
23.1828621329146
30
0
41
1
10
50.707017482118
20
23.2460979561103
30
0
0
SPLINE
5
197
100
AcDbEntity
8
1
62
256
6
ByLayer
370
18
48
1
60
0
100
AcDbSpline
70
2053
71
3
72
161
73
157
40
0
40
0
40
0
40
0
40
0.0156250000000018
40
0.0312500000000036
40
0.0312500000000036
40
0.0468750000000054
40
0.0468750000000054
40
0.0546875000000065
40
0.0546875000000065
40
0.0625000000000076
40
0.0625000000000076
40
0.0781250000000091
40
0.0937500000000106
40
0.0937500000000106
40
0.0976562500000108
40
0.0976562500000108
40
0.101562500000011
40
0.101562500000011
40
0.109375000000012
40
0.109375000000012
40
0.125000000000014
40
0.140625000000016
40
0.140625000000016
40
0.148437500000017
40
0.148437500000017
40
0.152343750000017
40
0.152343750000017
40
0.156250000000018
40
0.17187500000002
40
0.187500000000023
40
0.187500000000023
40
0.195312500000024
40
0.199218750000025
40
0.199218750000025
40
0.203125000000027
40
0.203125000000027
40
0.21875000000003
40
0.21875000000003
40
0.234375000000033
40
0.250000000000036
40
0.250000000000036
40
0.253906250000037
40
0.253906250000037
40
0.257812500000038
40
0.26562500000004
40
0.26562500000004
40
0.281250000000043
40
0.296875000000046
40
0.296875000000046
40
0.304687500000048
40
0.304687500000048
40
0.308593750000049
40
0.308593750000049
40
0.312500000000049
40
0.328125000000052
40
0.343750000000055
40
0.359375000000058
40
0.359375000000058
40
0.363281250000058
40
0.363281250000058
40
0.367187500000058
40
0.375000000000056
40
0.375000000000056
40
0.390625000000054
40
0.406250000000052
40
0.406250000000052
40
0.414062500000051
40
0.414062500000051
40
0.42187500000005
40
0.42187500000005
40
0.437500000000049
40
0.453125000000047
40
0.468750000000045
40
0.468750000000045
40
0.472656250000045
40
0.472656250000045
40
0.476562500000044
40
0.476562500000044
40
0.484375000000044
40
0.484375000000044
40
0.500000000000043
40
0.515625000000042
40
0.515625000000042
40
0.523437500000041
40
0.527343750000041
40
0.527343750000041
40
0.531250000000041
40
0.531250000000041
40
0.546875000000041
40
0.56250000000004
40
0.57812500000004
40
0.57812500000004
40
0.58203125000004
40
0.58203125000004
40
0.58593750000004
40
0.58593750000004
40
0.59375000000004
40
0.59375000000004
40
0.609375000000042
40
0.625000000000043
40
0.625000000000043
40
0.632812500000044
40
0.632812500000044
40
0.636718750000044
40
0.636718750000044
40
0.640625000000045
40
0.656250000000046
40
0.671875000000046
40
0.671875000000046
40
0.679687500000047
40
0.683593750000046
40
0.683593750000046
40
0.687500000000046
40
0.687500000000046
40
0.703125000000046
40
0.703125000000046
40
0.718750000000045
40
0.734375000000045
40
0.734375000000045
40
0.738281250000045
40
0.738281250000045
40
0.742187500000045
40
0.750000000000043
40
0.750000000000043
40
0.76562500000004
40
0.781250000000037
40
0.781250000000037
40
0.789062500000035
40
0.789062500000035
40
0.796875000000033
40
0.796875000000033
40
0.812500000000028
40
0.828125000000023
40
0.828125000000023
40
0.843750000000018
40
0.843750000000018
40
0.859375000000013
40
0.875000000000008
40
0.890625000000003
40
0.890625000000003
40
0.898437500000001
40
0.898437500000001
40
0.90234375
40
0.90234375
40
0.906249999999999
40
0.921874999999999
40
0.937499999999999
40
0.953124999999998
40
0.953124999999998
40
0.960937499999998
40
0.960937499999998
40
0.968749999999998
40
0.968749999999998
40
0.984374999999999
40
0.984374999999999
40
1
40
1
40
1
40
1
41
1
10
51.366352776161
20
-24.5539096490302
30
0
41
1
10
51.306309180312
20
-24.5093889937269
30
0
41
1
10
51.1938897535267
20
-24.4167951267854
30
0
41
1
10
51.0965219849287
20
-24.3170748667773
30
0
41
1
10
51.0067625393091
20
-24.2136802402493
30
0
41
1
10
50.9656859854515
20
-24.1601463215355
30
0
41
1
10
50.9100158997888
20
-24.0769249797681
30
0
41
1
10
50.8925720047439
20
-24.0488718735594
30
0
41
1
10
50.8599878528905
20
-23.9923227068335
30
0
41
1
10
50.8448282039317
20
-23.9637977412283
30
0
41
1
10
50.8027089274017
20
-23.8774708217403
30
0
41
1
10
50.7554932513118
20
-23.760365558732
30
0
41
1
10
50.7261632394249
20
-23.6391772466231
30
0
41
1
10
50.7135919218605
20
-23.5621038506009
30
0
41
1
10
50.7113663583715
20
-23.5466225086355
30
0
41
1
10
50.7074998245323
20
-23.5155245945708
30
0
41
1
10
50.7058574989706
20
-23.4998861188524
30
0
41
1
10
50.7018387721885
20
-23.4530188803318
30
0
41
1
10
50.7003603477742
20
-23.4217891972108
30
0
41
1
10
50.6994539250122
20
-23.3281437117726
30
0
41
1
10
50.7076381501996
20
-23.2033980879581
30
0
41
1
10
50.7342701062501
20
-23.0788917904873
30
0
41
1
10
50.7612434569878
20
-22.9856195575688
30
0
41
1
10
50.7714032803761
20
-22.9545468771407
30
0
41
1
10
50.78842652928
20
-22.9079686063768
30
0
41
1
10
50.7944071658333
20
-22.8924271039664
30
0
41
1
10
50.8069021893494
20
-22.8615162964512
30
0
41
1
10
50.8394990594367
20
-22.7846100273505
30
0
41
1
10
50.9101749510656
20
-22.649464100903
30
0
41
1
10
50.9895219879691
20
-22.5339523622717
30
0
41
1
10
51.0552129601228
20
-22.4490892599101
30
0
41
1
10
51.0896062167533
20
-22.4071012109279
30
0
41
1
10
51.1263451148691
20
-22.3657944845471
30
0
41
1
10
51.1513631425046
20
-22.3384103579037
30
0
41
1
10
51.1641457517093
20
-22.3247847363968
30
0
41
1
10
51.2290277360566
20
-22.2574095437236
30
0
41
1
10
51.2842659315181
20
-22.2056404072162
30
0
41
1
10
51.4011356320411
20
-22.1062586937084
30
0
41
1
10
51.5244004365269
20
-22.0110345899593
30
0
41
1
10
51.6603057305127
20
-21.9241684111047
30
0
41
1
10
51.7492661234941
20
-21.8725794902178
30
0
41
1
10
51.7672835491198
20
-21.8623842252428
30
0
41
1
10
51.8035677660926
20
-21.842353640907
30
0
41
1
10
51.8583841978176
20
-21.8128367089217
30
0
41
1
10
51.9143545339247
20
-21.7848891822221
30
0
41
1
10
52.0278030210872
20
-21.7310569619299
30
0
41
1
10
52.1830813733791
20
-21.6647723297184
30
0
41
1
10
52.3462402808067
20
-21.6093879249872
30
0
41
1
10
52.4715936163507
20
-21.5720165106078
30
0
41
1
10
52.5138762825888
20
-21.5602549936772
30
0
41
1
10
52.5780593116136
20
-21.5436768323566
30
0
41
1
10
52.5995781806478
20
-21.5383294510301
30
0
41
1
10
52.6426455779095
20
-21.5280445122789
30
0
41
1
10
52.7505281752536
20
-21.503324057617
30
0
41
1
10
52.9466119577087
20
-21.4676238541336
30
0
41
1
10
53.2119952839202
20
-21.4383968126225
30
0
41
1
10
53.3915461592766
20
-21.4312144132621
30
0
41
1
10
53.5046109731248
20
-21.4306870834161
30
0
41
1
10
53.5272901631037
20
-21.4307807903773
30
0
41
1
10
53.5725144179009
20
-21.4313654733171
30
0
41
1
10
53.6402114089166
20
-21.4328373376136
30
0
41
1
10
53.7074949017432
20
-21.4360736213241
30
0
41
1
10
53.8415187306614
20
-21.4448622391815
30
0
41
1
10
54.0187711546387
20
-21.4627469846722
30
0
41
1
10
54.1931579739681
20
-21.4928168573232
30
0
41
1
10
54.3228535957193
20
-21.5200007956366
30
0
41
1
10
54.3659027432671
20
-21.529835255543
30
0
41
1
10
54.4516282884762
20
-21.5510764656713
30
0
41
1
10
54.4943914294124
20
-21.5625115044459
30
0
41
1
10
54.6208264008808
20
-21.5988431476315
30
0
41
1
10
54.7851663637474
20
-21.6528248030818
30
0
41
1
10
55.0192268786997
20
-21.7499103847392
30
0
41
1
10
55.1669138130275
20
-21.825328965361
30
0
41
1
10
55.2565139195603
20
-21.875886388962
30
0
41
1
10
55.2742984066539
20
-21.8861693027272
30
0
41
1
10
55.3095926140187
20
-21.9070815781412
30
0
41
1
10
55.3271214321536
20
-21.9177233523143
30
0
41
1
10
55.3790146536932
20
-21.9500007617332
30
0
41
1
10
55.4127601029642
20
-21.9720297131152
30
0
41
1
10
55.5114836692132
20
-22.0396128024211
30
0
41
1
10
55.6364260873652
20
-22.1337063965758
30
0
41
1
10
55.7480908475902
20
-22.2355649591497
30
0
41
1
10
55.8267507436087
20
-22.3148824358568
30
0
41
1
10
55.8648064315238
20
-22.3552732892779
30
0
41
1
10
55.9009069729849
20
-22.3967779023368
30
0
41
1
10
55.9245332813883
20
-22.4246976642812
30
0
41
1
10
55.9361427248267
20
-22.4388036629216
30
0
41
1
10
55.9928407375819
20
-22.5096763090685
30
0
41
1
10
56.0748047661587
20
-22.6250375079283
30
0
41
1
10
56.1721401693246
20
-22.8036505644757
30
0
41
1
10
56.2198784174288
20
-22.9263583581399
30
0
41
1
10
56.2441655536929
20
-23.004201870368
30
0
41
1
10
56.2487448300679
20
-23.0198283000207
30
0
41
1
10
56.2573394721941
20
-23.0511977203596
30
0
41
1
10
56.2613551337872
20
-23.0669465367907
30
0
41
1
10
56.2724805385485
20
-23.1140780799083
30
0
41
1
10
56.2786970219493
20
-23.1454413834351
30
0
41
1
10
56.293811072583
20
-23.2393573700572
30
0
41
1
10
56.3045526773631
20
-23.364114771595
30
0
41
1
10
56.2967381402145
20
-23.4879393394397
30
0
41
1
10
56.2838084501915
20
-23.5804574304575
30
0
41
1
10
56.2783182529408
20
-23.6112384188
30
0
41
1
10
56.2682780173566
20
-23.6573224025617
30
0
41
1
10
56.2646253201972
20
-23.6726856805576
30
0
41
1
10
56.2567585332265
20
-23.7032100635051
30
0
41
1
10
56.2356640729992
20
-23.7791039045679
30
0
41
1
10
56.1850918462697
20
-23.9120379572816
30
0
41
1
10
56.1227436259839
20
-24.0252029205422
30
0
41
1
10
56.0694608884659
20
-24.1082404778631
30
0
41
1
10
56.0411863885952
20
-24.1492995623746
30
0
41
1
10
56.0104338270709
20
-24.1896696091869
30
0
41
1
10
55.9893766733241
20
-24.2164295424184
30
0
41
1
10
55.9785667506904
20
-24.2297357070304
30
0
41
1
10
55.9234359150442
20
-24.2955117475739
30
0
41
1
10
55.8756475397361
20
-24.3460265228394
30
0
41
1
10
55.7729987718864
20
-24.4430831079329
30
0
41
1
10
55.6632756231556
20
-24.5361656976758
30
0
41
1
10
55.5395574106825
20
-24.6215366672309
30
0
41
1
10
55.4577779311339
20
-24.6724885332965
30
0
41
1
10
55.44118907643
20
-24.682563391544
30
0
41
1
10
55.4077406546715
20
-24.7023674340492
30
0
41
1
10
55.3570995696124
20
-24.7315941485602
30
0
41
1
10
55.3050727379665
20
-24.7594086205553
30
0
41
1
10
55.1992078332348
20
-24.8132062473975
30
0
41
1
10
55.0532337881635
20
-24.8800631819372
30
0
41
1
10
54.8977881428883
20
-24.9374928013653
30
0
41
1
10
54.7776139801331
20
-24.9770437570563
30
0
41
1
10
54.7369345169456
20
-24.989645843703
30
0
41
1
10
54.6544480207148
20
-25.0136366877779
30
0
41
1
10
54.6129193633479
20
-25.0249453737073
30
0
41
1
10
54.4874968420526
20
-25.0568694353273
30
0
41
1
10
54.3180406262977
20
-25.0941085086459
30
0
41
1
10
54.1442410542928
20
-25.1210523992335
30
0
41
1
10
53.9682638706958
20
-25.1428712449955
30
0
41
1
10
53.8791725125745
20
-25.1512193991623
30
0
41
1
10
53.6988016458283
20
-25.1626517833969
30
0
41
1
10
53.5190083890405
20
-25.1686495527254
30
0
41
1
10
53.2509931261357
20
-25.1619144636154
30
0
41
1
10
53.0734247726104
20
-25.1469988018152
30
0
41
1
10
52.9406727600368
20
-25.1318060780585
30
0
41
1
10
52.8964929184125
20
-25.1260729235068
30
0
41
1
10
52.8303316321639
20
-25.1164457095335
30
0
41
1
10
52.8082847178424
20
-25.1130629882864
30
0
41
1
10
52.7644594975119
20
-25.1059895934688
30
0
41
1
10
52.655428903811
20
-25.0875130520618
30
0
41
1
10
52.4638946595444
20
-25.0472118797198
30
0
41
1
10
52.2184038371342
20
-24.9785826358112
30
0
41
1
10
52.0613926750082
20
-24.9226984183274
30
0
41
1
10
51.9462235847004
20
-24.8767879057842
30
0
41
1
10
51.9082086729146
20
-24.8607875550873
30
0
41
1
10
51.8337754892304
20
-24.8277295196285
30
0
41
1
10
51.7972752519962
20
-24.8106418997599
30
0
41
1
10
51.6899082893798
20
-24.7577008628126
30
0
41
1
10
51.6211701447927
20
-24.7201734788002
30
0
41
1
10
51.4894163234202
20
-24.6405392151833
30
0
41
1
10
51.4263963720101
20
-24.5984303043336
30
0
41
1
10
51.366352776161
20
-24.5539096490302
30
0
0
SPLINE
5
198
100
AcDbEntity
8
1
62
256
6
ByLayer
370
18
48
1
60
0
100
AcDbSpline
70
2053
71
3
72
211
73
207
40
0
40
0
40
0
40
0
40
0.0156249999999938
40
0.0156249999999938
40
0.0312499999999875
40
0.0312499999999875
40
0.0468749999999813
40
0.0468749999999813
40
0.062499999999975
40
0.062499999999975
40
0.0781249999999688
40
0.0781249999999688
40
0.0937499999999625
40
0.0937499999999625
40
0.097656249999961
40
0.0996093749999602
40
0.0996093749999602
40
0.101562499999959
40
0.101562499999959
40
0.109374999999956
40
0.109374999999956
40
0.12499999999995
40
0.12499999999995
40
0.140624999999944
40
0.140624999999944
40
0.144531249999943
40
0.144531249999943
40
0.146484374999942
40
0.146484374999942
40
0.148437499999941
40
0.156249999999938
40
0.156249999999938
40
0.171874999999933
40
0.171874999999933
40
0.17968749999993
40
0.17968749999993
40
0.183593749999928
40
0.183593749999928
40
0.187499999999927
40
0.187499999999927
40
0.203124999999921
40
0.203124999999921
40
0.218749999999914
40
0.218749999999914
40
0.226562499999911
40
0.226562499999911
40
0.23046874999991
40
0.23046874999991
40
0.232421874999909
40
0.232421874999909
40
0.234374999999908
40
0.249999999999902
40
0.249999999999902
40
0.265624999999896
40
0.265624999999896
40
0.281249999999891
40
0.281249999999891
40
0.296874999999885
40
0.296874999999885
40
0.312499999999879
40
0.312499999999879
40
0.328124999999873
40
0.328124999999873
40
0.335937499999871
40
0.335937499999871
40
0.339843749999869
40
0.339843749999869
40
0.343749999999868
40
0.343749999999868
40
0.359374999999863
40
0.359374999999863
40
0.374999999999857
40
0.374999999999857
40
0.390624999999852
40
0.390624999999852
40
0.398437499999849
40
0.398437499999849
40
0.400390624999849
40
0.400390624999849
40
0.402343749999848
40
0.406249999999848
40
0.406249999999848
40
0.42187499999985
40
0.437499999999852
40
0.437499999999852
40
0.453124999999853
40
0.453124999999853
40
0.460937499999854
40
0.460937499999854
40
0.462890624999854
40
0.462890624999854
40
0.464843749999854
40
0.468749999999855
40
0.468749999999855
40
0.484374999999858
40
0.484374999999858
40
0.499999999999861
40
0.499999999999861
40
0.515624999999864
40
0.515624999999864
40
0.519531249999865
40
0.519531249999865
40
0.523437499999866
40
0.523437499999866
40
0.531249999999867
40
0.531249999999867
40
0.546874999999872
40
0.546874999999872
40
0.562499999999876
40
0.562499999999876
40
0.570312499999878
40
0.570312499999878
40
0.572265624999879
40
0.572265624999879
40
0.574218749999879
40
0.57812499999988
40
0.57812499999988
40
0.593749999999886
40
0.593749999999886
40
0.609374999999891
40
0.609374999999891
40
0.617187499999894
40
0.617187499999894
40
0.619140624999894
40
0.619140624999894
40
0.621093749999895
40
0.621093749999895
40
0.624999999999896
40
0.624999999999896
40
0.640624999999902
40
0.640624999999902
40
0.656249999999907
40
0.656249999999907
40
0.660156249999908
40
0.662109374999909
40
0.662109374999909
40
0.664062499999909
40
0.664062499999909
40
0.671874999999911
40
0.671874999999911
40
0.687499999999915
40
0.687499999999915
40
0.703124999999919
40
0.703124999999919
40
0.70703124999992
40
0.70703124999992
40
0.710937499999921
40
0.718749999999922
40
0.718749999999922
40
0.734374999999926
40
0.734374999999926
40
0.749999999999929
40
0.749999999999929
40
0.751953124999929
40
0.751953124999929
40
0.75390624999993
40
0.757812499999931
40
0.765624999999933
40
0.765624999999933
40
0.781249999999937
40
0.781249999999937
40
0.796874999999941
40
0.796874999999941
40
0.800781249999942
40
0.802734374999942
40
0.802734374999942
40
0.804687499999943
40
0.804687499999943
40
0.812499999999945
40
0.812499999999945
40
0.82812499999995
40
0.82812499999995
40
0.843749999999955
40
0.85937499999996
40
0.85937499999996
40
0.863281249999961
40
0.863281249999961
40
0.867187499999962
40
0.874999999999965
40
0.874999999999965
40
0.89062499999997
40
0.906249999999975
40
0.906249999999975
40
0.921874999999981
40
0.921874999999981
40
0.923828124999981
40
0.923828124999981
40
0.925781249999982
40
0.925781249999982
40
0.929687499999983
40
0.937499999999985
40
0.937499999999985
40
0.953124999999989
40
0.953124999999989
40
0.968749999999993
40
0.968749999999993
40
0.984374999999996
40
0.984374999999996
40
0.988281249999997
40
0.988281249999997
40
0.992187499999998
40
0.996093749999999
40
0.998046875
40
0.9990234375
40
0.9990234375
40
1
40
1
40
1
40
1
41
1
10
53.589014704737
20
-6.76926711410609
30
0
41
1
10
53.3350501995845
20
-6.55795238346067
30
0
41
1
10
53.092965107439
20
-6.33605336138825
30
0
41
1
10
52.632716789774
20
-5.8707182937024
30
0
41
1
10
52.4145503741586
20
-5.62728554184261
30
0
41
1
10
52.0031030201432
20
-5.11779496302572
30
0
41
1
10
51.8098136390578
20
-4.85174525069269
30
0
41
1
10
51.4500506149177
20
-4.29504909062319
30
0
41
1
10
51.2869612143462
20
-4.00960158970378
30
0
41
1
10
50.9944576842698
20
-3.42466184016342
30
0
41
1
10
50.8650168742046
20
-3.1251324090756
30
0
41
1
10
50.640823827072
20
-2.51142372634445
30
0
41
1
10
50.5460627107661
20
-2.19724830124218
30
0
41
1
10
50.4507491907721
20
-1.79471715220362
30
0
41
1
10
50.4238957196927
20
-1.67321975582865
30
0
41
1
10
50.3997120098571
20
-1.55058944657267
30
0
41
1
10
50.3841900203219
20
-1.46858100447349
30
0
41
1
10
50.37673714804
20
-1.42748752017459
30
0
41
1
10
50.3411214511461
20
-1.22218720179416
30
0
41
1
10
50.3177919279054
20
-1.0579118983184
30
0
41
1
10
50.2630214744317
20
-0.564982579846799
30
0
41
1
10
50.2467584244224
20
-0.236225415973593
30
0
41
1
10
50.2543046512697
20
0.421561421982687
30
0
41
1
10
50.2781126960972
20
0.750591088089692
30
0
41
1
10
50.3334686290193
20
1.16205205913312
30
0
41
1
10
50.3458229222733
20
1.24435296910107
30
0
41
1
10
50.366299637752
20
1.3678175408991
30
0
41
1
10
50.3734538759201
20
1.4089958879662
30
0
41
1
10
50.388359625932
20
1.49106624221298
30
0
41
1
10
50.4271453514118
20
1.69569177854848
30
0
41
1
10
50.4734497248808
20
1.89759817886892
30
0
41
1
10
50.5985467373794
20
2.37713059894591
30
0
41
1
10
50.7005274477958
20
2.69010861836284
30
0
41
1
10
50.8802816159023
20
3.14994707630734
30
0
41
1
10
50.9446737239274
20
3.30161824848977
30
0
41
1
10
51.0479237075546
20
3.52673695592839
30
0
41
1
10
51.0834512536052
20
3.60137831604993
30
0
41
1
10
51.1567268419948
20
3.74986630174857
30
0
41
1
10
51.1945016577814
20
3.82376335444997
30
0
41
1
10
51.3886466192759
20
4.19071809885307
30
0
41
1
10
51.5589478249197
20
4.47282146570331
30
0
41
1
10
51.92735742812
20
5.01592649893189
30
0
41
1
10
52.1254749687464
20
5.27692089171509
30
0
41
1
10
52.4427200177634
20
5.65331850693701
30
0
41
1
10
52.5518208266406
20
5.77626295514142
30
0
41
1
10
52.7204658949856
20
5.95694175787986
30
0
41
1
10
52.7775136604429
20
6.01654472587626
30
0
41
1
10
52.8643339342935
20
6.10501690780382
30
0
41
1
10
52.8934846011301
20
6.13435411650073
30
0
41
1
10
52.9520581960362
20
6.19257789270478
30
0
41
1
10
53.2170308733406
20
6.4527077295219
30
0
41
1
10
53.4943129809029
20
6.69625696640975
30
0
41
1
10
54.0056383008827
20
7.10474504972893
30
0
41
1
10
54.2704951581127
20
7.2967383269374
30
0
41
1
10
54.8181620055563
20
7.6570640819622
30
0
41
1
10
55.1009924374777
20
7.82540446629946
30
0
41
1
10
55.68464817666
20
8.13847775913246
30
0
41
1
10
55.9815552514118
20
8.28111523734177
30
0
41
1
10
56.585093984915
20
8.54004616228616
30
0
41
1
10
56.8917274611053
20
8.65633415291256
30
0
41
1
10
57.5145697369368
20
8.86319674378868
30
0
41
1
10
57.8307790889457
20
8.95376955785383
30
0
41
1
10
58.3123453606503
20
9.07029246400961
30
0
41
1
10
58.4740780195973
20
9.10590539093656
30
0
41
1
10
58.7185186721985
20
9.1544280108553
30
0
41
1
10
58.8003950052597
20
9.16980042973987
30
0
41
1
10
58.964107082574
20
9.19878639080372
30
0
41
1
10
59.0459858704549
20
9.21241053664306
30
0
41
1
10
59.455492430679
20
9.27623492311056
30
0
41
1
10
59.7834574000068
20
9.31357400992147
30
0
41
1
10
60.4400890306243
20
9.36157283193089
30
0
41
1
10
60.7687557376389
20
9.37223066627251
30
0
41
1
10
61.4267892094474
20
9.36695308462853
30
0
41
1
10
61.7561559506765
20
9.35101863026617
30
0
41
1
10
62.2507415501332
20
9.30674755824663
30
0
41
1
10
62.4156927885492
20
9.28859044231729
30
0
41
1
10
62.6219956406538
20
9.2615578363266
30
0
41
1
10
62.663279747067
20
9.25593165621018
30
0
41
1
10
62.7456705231106
20
9.24427039408351
30
0
41
1
10
62.8690493088367
20
9.22615787421694
30
0
41
1
10
62.9918091661391
20
9.20619218410897
30
0
41
1
10
63.3996452798807
20
9.13555333955637
30
0
41
1
10
64.0434730727773
20
8.99642664406926
30
0
41
1
10
64.6702220851815
20
8.8058255849019
30
0
41
1
10
65.2883917812101
20
8.58917227712189
30
0
41
1
10
65.5931880198784
20
8.46782308499769
30
0
41
1
10
66.043749579258
20
8.26547508270167
30
0
41
1
10
66.1928294475668
20
8.19463232699042
30
0
41
1
10
66.3777587599208
20
8.10170379136682
30
0
41
1
10
66.4146654151493
20
8.08290286481028
30
0
41
1
10
66.4881457844505
20
8.04495932111763
30
0
41
1
10
66.5979374192764
20
7.98749610563607
30
0
41
1
10
66.7064469785429
20
7.92839313113467
30
0
41
1
10
67.0653116293739
20
7.72774950800056
30
0
41
1
10
67.3433557706468
20
7.55563407274772
30
0
41
1
10
67.8814030791582
20
7.1880262352536
30
0
41
1
10
68.1414079193463
20
6.99253644563285
30
0
41
1
10
68.6428807080447
20
6.57727645530636
30
0
41
1
10
68.8843535227421
20
6.35751318971535
30
0
41
1
10
69.1738972354977
20
6.0665291060993
30
0
41
1
10
69.2311892943565
20
6.00751582790889
30
0
41
1
10
69.3445143145628
20
5.88781795236321
30
0
41
1
10
69.4005802104656
20
5.82709671049142
30
0
41
1
10
69.5666350052575
20
5.64259502669168
30
0
41
1
10
69.6737844194276
20
5.51726110311989
30
0
41
1
10
69.984566235782
20
5.13422479838428
30
0
41
1
10
70.1775629166997
20
4.86950791973763
30
0
41
1
10
70.5344306131841
20
4.32069894522255
30
0
41
1
10
70.6983084119758
20
4.03661164442818
30
0
41
1
10
70.9209317549916
20
3.59493756269464
30
0
41
1
10
70.9912651002142
20
3.44511648775361
30
0
41
1
10
71.0741200097806
20
3.25443733970494
30
0
41
1
10
71.0904479864402
20
3.21610546370485
30
0
41
1
10
71.122485701228
20
3.13935279316743
30
0
41
1
10
71.1696487479406
20
3.02401497203567
30
0
41
1
10
71.2141393277393
20
2.90805217376874
30
0
41
1
10
71.3565252581776
20
2.52012426303514
30
0
41
1
10
71.4515510458028
20
2.20535991721701
30
0
41
1
10
71.6036431565509
20
1.56690561962517
30
0
41
1
10
71.6607132934353
20
1.24321660282044
30
0
41
1
10
71.7167514761866
20
0.750713973540257
30
0
41
1
10
71.7304927999682
20
0.585382607920565
30
0
41
1
10
71.7412968018558
20
0.377215601181717
30
0
41
1
10
71.7431387237952
20
0.335507004180556
30
0
41
1
10
71.7461787946181
20
0.251937988445746
30
0
41
1
10
71.7473761249755
20
0.210076312185492
30
0
41
1
10
71.7499875041865
20
0.0847580192067028
30
0
41
1
10
71.750428026079
20
0.0014028973135112
30
0
41
1
10
71.7462188436732
20
-0.414433867413095
30
0
41
1
10
71.7223888184832
20
-0.7441066545571
30
0
41
1
10
71.6351936471656
20
-1.39766836783272
30
0
41
1
10
71.5718250291104
20
-1.72155677851498
30
0
41
1
10
71.4679407209703
20
-2.12281734999979
30
0
41
1
10
71.4349202680175
20
-2.24292488171162
30
0
41
1
10
71.3991035609417
20
-2.36262486510304
30
0
41
1
10
71.3746023710888
20
-2.44233404300678
30
0
41
1
10
71.3620388353788
20
-2.48214490229577
30
0
41
1
10
71.2978778238368
20
-2.6803111051324
30
0
41
1
10
71.2420929233216
20
-2.836538661216
30
0
41
1
10
71.0618838445273
20
-3.29858736310368
30
0
41
1
10
70.9246431821757
20
-3.59779358258223
30
0
41
1
10
70.617666449932
20
-4.17953675390729
30
0
41
1
10
70.4479247580602
20
-4.46207062442519
30
0
41
1
10
70.2157736242761
20
-4.80506825596234
30
0
41
1
10
70.1683079719497
20
-4.87320053950458
30
0
41
1
10
70.0718900672581
20
-5.00774487247773
30
0
41
1
10
69.9248610693782
20
-5.20723716682426
30
0
41
1
10
69.7707824095991
20
-5.3999239698496
30
0
41
1
10
69.4535385753679
20
-5.77656705280171
30
0
41
1
10
69.2299529014562
20
-6.01604630094897
30
0
41
1
10
68.7595820941823
20
-6.47293753156794
30
0
41
1
10
68.5127935850306
20
-6.69034585919803
30
0
41
1
10
68.2222121640638
20
-6.92274660990032
30
0
41
1
10
68.1897322479212
20
-6.94840896821944
30
0
41
1
10
68.1245572096297
20
-6.9992818810334
30
0
41
1
10
68.0264260228028
20
-7.07495164611092
30
0
41
1
10
67.7948912020651
20
-7.24707505758593
30
0
41
1
10
67.5921130510438
20
-7.38714567676334
30
0
41
1
10
67.1809367091883
20
-7.65763028718791
30
0
41
1
10
66.8993394952083
20
-7.8251022824083
30
0
41
1
10
66.3215666300445
20
-8.13526686954054
30
0
41
1
10
66.0253895530385
20
-8.27795659377176
30
0
41
1
10
65.6460265804803
20
-8.44093341784406
30
0
41
1
10
65.531530596454
20
-8.4886699838105
30
0
41
1
10
65.4159985901033
20
-8.53466676222985
30
0
41
1
10
65.3387462758469
20
-8.56494383558714
30
0
41
1
10
65.2999839392209
20
-8.57989636213605
30
0
41
1
10
65.1059734000488
20
-8.65354482866826
30
0
41
1
10
64.9499739931747
20
-8.70896563740143
30
0
41
1
10
64.4796533065926
20
-8.86500083481951
30
0
41
1
10
64.1630143405198
20
-8.95541074310253
30
0
41
1
10
63.5236956627583
20
-9.10982406059617
30
0
41
1
10
62.8783347005049
20
-9.23782384763999
30
0
41
1
10
62.2208798694045
20
-9.31323416558621
30
0
41
1
10
61.8060988197275
20
-9.34358251985614
30
0
41
1
10
61.7229115745223
20
-9.34881326475482
30
0
41
1
10
61.5563023873216
20
-9.35756962276886
30
0
41
1
10
61.3066920055531
20
-9.36811233467813
30
0
41
1
10
61.05798178019
20
-9.37096830445421
30
0
41
1
10
60.5617425307631
20
-9.36659526757998
30
0
41
1
10
59.9032357651939
20
-9.33391136386905
30
0
41
1
10
59.2509269883472
20
-9.24824344632844
30
0
41
1
10
58.601740836967
20
-9.13578485735178
30
0
41
1
10
58.2787087419302
20
-9.06616336975839
30
0
41
1
10
57.9171093122984
20
-8.97220712405718
30
0
41
1
10
57.8769568129501
20
-8.96154993146072
30
0
41
1
10
57.7967025308871
20
-8.93979748144528
30
0
41
1
10
57.7565840720348
20
-8.92869728561459
30
0
41
1
10
57.6365874702092
20
-8.89481647152647
30
0
41
1
10
57.3977881219416
20
-8.82466766362353
30
0
41
1
10
57.1625356568109
20
-8.7474142647356
30
0
41
1
10
56.6967017267834
20
-8.58351441480698
30
0
41
1
10
56.392363537017
20
-8.46174553137692
30
0
41
1
10
55.7960600694803
20
-8.19310482983752
30
0
41
1
10
55.5040937367794
20
-8.04623554568056
30
0
41
1
10
54.9328111767325
20
-7.72657076580381
30
0
41
1
10
54.653492015711
20
-7.55378188523105
30
0
41
1
10
54.3126705513688
20
-7.32054224053996
30
0
41
1
10
54.2448693183699
20
-7.27298920751809
30
0
41
1
10
54.1104831435325
20
-7.1763826540442
30
0
41
1
10
53.977280342975
20
-7.07825743507988
30
0
41
1
10
53.8137518248862
20
-6.95177232730367
30
0
41
1
10
53.7008557894161
20
-6.86120153896743
30
0
41
1
10
53.6528106213792
20
-6.82194757844695
30
0
41
1
10
53.6208559975134
20
-6.79568064621117
30
0
41
1
10
53.604887486309
20
-6.78247428477144
30
0
41
1
10
53.589014704737
20
-6.76926711410609
30
0
0
SPLINE
5
199
100
AcDbEntity
8
1
62
256
6
ByLayer
370
18
48
1
60
0
100
AcDbSpline
70
2053
71
3
72
211
73
207
40
0
40
0
40
0
40
0
40
0.0156249999999993
40
0.0156249999999993
40
0.0312499999999986
40
0.0312499999999986
40
0.0468749999999979
40
0.0468749999999979
40
0.0624999999999972
40
0.0624999999999972
40
0.0781249999999965
40
0.0781249999999965
40
0.0937499999999958
40
0.0937499999999958
40
0.0976562499999956
40
0.0996093749999955
40
0.0996093749999955
40
0.101562499999995
40
0.101562499999995
40
0.109374999999995
40
0.109374999999995
40
0.124999999999995
40
0.124999999999995
40
0.140624999999994
40
0.140624999999994
40
0.144531249999994
40
0.144531249999994
40
0.146484374999994
40
0.146484374999994
40
0.148437499999994
40
0.156249999999993
40
0.156249999999993
40
0.171874999999993
40
0.171874999999993
40
0.179687499999993
40
0.179687499999993
40
0.183593749999993
40
0.183593749999993
40
0.187499999999993
40
0.187499999999993
40
0.203124999999993
40
0.203124999999993
40
0.218749999999992
40
0.218749999999992
40
0.226562499999992
40
0.226562499999992
40
0.230468749999992
40
0.230468749999992
40
0.232421874999992
40
0.232421874999992
40
0.234374999999992
40
0.249999999999992
40
0.249999999999992
40
0.265624999999993
40
0.265624999999993
40
0.281249999999993
40
0.281249999999993
40
0.296874999999994
40
0.296874999999994
40
0.312499999999994
40
0.312499999999994
40
0.328124999999994
40
0.328124999999994
40
0.335937499999995
40
0.335937499999995
40
0.339843749999994
40
0.339843749999994
40
0.343749999999994
40
0.343749999999994
40
0.359374999999993
40
0.359374999999993
40
0.374999999999993
40
0.374999999999993
40
0.390624999999992
40
0.390624999999992
40
0.398437499999991
40
0.398437499999991
40
0.400390624999992
40
0.400390624999992
40
0.402343749999992
40
0.406249999999992
40
0.406249999999992
40
0.421874999999993
40
0.437499999999994
40
0.437499999999994
40
0.453124999999995
40
0.453124999999995
40
0.460937499999995
40
0.460937499999995
40
0.462890624999995
40
0.462890624999995
40
0.464843749999995
40
0.468749999999995
40
0.468749999999995
40
0.484374999999994
40
0.484374999999994
40
0.499999999999994
40
0.499999999999994
40
0.515624999999993
40
0.515624999999993
40
0.519531249999993
40
0.519531249999993
40
0.523437499999993
40
0.523437499999993
40
0.531249999999993
40
0.531249999999993
40
0.546874999999994
40
0.546874999999994
40
0.562499999999995
40
0.562499999999995
40
0.570312499999995
40
0.570312499999995
40
0.572265624999995
40
0.572265624999995
40
0.574218749999996
40
0.578124999999996
40
0.578124999999996
40
0.593749999999998
40
0.593749999999998
40
0.609375
40
0.609375
40
0.617187500000001
40
0.617187500000001
40
0.619140625000001
40
0.619140625000001
40
0.621093750000002
40
0.621093750000002
40
0.625000000000002
40
0.625000000000002
40
0.640625000000004
40
0.640625000000004
40
0.656250000000006
40
0.656250000000006
40
0.660156250000007
40
0.662109375000007
40
0.662109375000007
40
0.664062500000007
40
0.664062500000007
40
0.671875000000007
40
0.671875000000007
40
0.687500000000008
40
0.687500000000008
40
0.703125000000009
40
0.703125000000009
40
0.707031250000009
40
0.707031250000009
40
0.71093750000001
40
0.718750000000011
40
0.718750000000011
40
0.734375000000013
40
0.734375000000013
40
0.750000000000015
40
0.750000000000015
40
0.751953125000015
40
0.751953125000015
40
0.753906250000015
40
0.757812500000015
40
0.765625000000014
40
0.765625000000014
40
0.781250000000012
40
0.781250000000012
40
0.79687500000001
40
0.79687500000001
40
0.80078125000001
40
0.80273437500001
40
0.80273437500001
40
0.804687500000009
40
0.804687500000009
40
0.812500000000009
40
0.812500000000009
40
0.828125000000009
40
0.828125000000009
40
0.843750000000008
40
0.859375000000008
40
0.859375000000008
40
0.863281250000007
40
0.863281250000007
40
0.867187500000007
40
0.875000000000006
40
0.875000000000006
40
0.890625000000005
40
0.906250000000004
40
0.906250000000004
40
0.921875000000003
40
0.921875000000003
40
0.923828125000002
40
0.923828125000002
40
0.925781250000002
40
0.925781250000002
40
0.929687500000002
40
0.937500000000001
40
0.937500000000001
40
0.953125000000001
40
0.953125000000001
40
0.968750000000001
40
0.968750000000001
40
0.984375000000001
40
0.984375000000001
40
0.988281250000001
40
0.988281250000001
40
0.9921875
40
0.99609375
40
0.998046875
40
0.9990234375
40
0.9990234375
40
1
40
1
40
1
40
1
41
1
10
78.5890147047371
20
-6.76926711410607
30
0
41
1
10
78.3350501995845
20
-6.55795238346062
30
0
41
1
10
78.092965107439
20
-6.33605336138822
30
0
41
1
10
77.6327167897739
20
-5.87071829370237
30
0
41
1
10
77.4145503741586
20
-5.62728554184258
30
0
41
1
10
77.0031030201432
20
-5.11779496302566
30
0
41
1
10
76.8098136390578
20
-4.85174525069266
30
0
41
1
10
76.4500506149177
20
-4.29504909062317
30
0
41
1
10
76.2869612143462
20
-4.00960158970375
30
0
41
1
10
75.9944576842699
20
-3.42466184016339
30
0
41
1
10
75.8650168742046
20
-3.12513240907558
30
0
41
1
10
75.640823827072
20
-2.51142372634442
30
0
41
1
10
75.5460627107661
20
-2.19724830124215
30
0
41
1
10
75.4507491907721
20
-1.79471715220359
30
0
41
1
10
75.4238957196928
20
-1.67321975582865
30
0
41
1
10
75.3997120098572
20
-1.55058944657264
30
0
41
1
10
75.3841900203219
20
-1.46858100447349
30
0
41
1
10
75.37673714804
20
-1.42748752017457
30
0
41
1
10
75.3411214511461
20
-1.22218720179413
30
0
41
1
10
75.3177919279055
20
-1.05791189831837
30
0
41
1
10
75.2630214744317
20
-0.56498257984677
30
0
41
1
10
75.2467584244224
20
-0.236225415973564
30
0
41
1
10
75.2543046512697
20
0.421561421982716
30
0
41
1
10
75.2781126960972
20
0.750591088089692
30
0
41
1
10
75.3334686290193
20
1.16205205913315
30
0
41
1
10
75.3458229222733
20
1.2443529691011
30
0
41
1
10
75.366299637752
20
1.3678175408991
30
0
41
1
10
75.3734538759201
20
1.40899588796623
30
0
41
1
10
75.388359625932
20
1.49106624221301
30
0
41
1
10
75.4271453514118
20
1.69569177854848
30
0
41
1
10
75.4734497248808
20
1.89759817886895
30
0
41
1
10
75.5985467373794
20
2.37713059894591
30
0
41
1
10
75.7005274477958
20
2.69010861836284
30
0
41
1
10
75.8802816159023
20
3.14994707630737
30
0
41
1
10
75.9446737239273
20
3.3016182484898
30
0
41
1
10
76.0479237075546
20
3.52673695592839
30
0
41
1
10
76.0834512536052
20
3.60137831604993
30
0
41
1
10
76.1567268419948
20
3.74986630174857
30
0
41
1
10
76.1945016577814
20
3.82376335444999
30
0
41
1
10
76.3886466192758
20
4.1907180988531
30
0
41
1
10
76.5589478249197
20
4.47282146570333
30
0
41
1
10
76.92735742812
20
5.01592649893189
30
0
41
1
10
77.1254749687464
20
5.27692089171512
30
0
41
1
10
77.4427200177635
20
5.65331850693704
30
0
41
1
10
77.5518208266406
20
5.77626295514145
30
0
41
1
10
77.7204658949856
20
5.95694175787986
30
0
41
1
10
77.7775136604429
20
6.01654472587626
30
0
41
1
10
77.8643339342936
20
6.10501690780382
30
0
41
1
10
77.89348460113
20
6.13435411650076
30
0
41
1
10
77.9520581960361
20
6.19257789270478
30
0
41
1
10
78.2170308733407
20
6.4527077295219
30
0
41
1
10
78.4943129809029
20
6.69625696640978
30
0
41
1
10
79.0056383008826
20
7.10474504972893
30
0
41
1
10
79.2704951581127
20
7.2967383269374
30
0
41
1
10
79.8181620055563
20
7.6570640819622
30
0
41
1
10
80.1009924374777
20
7.82540446629946
30
0
41
1
10
80.6846481766601
20
8.13847775913246
30
0
41
1
10
80.9815552514118
20
8.28111523734179
30
0
41
1
10
81.5850939849149
20
8.54004616228619
30
0
41
1
10
81.8917274611052
20
8.65633415291259
30
0
41
1
10
82.5145697369368
20
8.86319674378868
30
0
41
1
10
82.8307790889457
20
8.95376955785383
30
0
41
1
10
83.3123453606502
20
9.07029246400964
30
0
41
1
10
83.4740780195973
20
9.10590539093658
30
0
41
1
10
83.7185186721984
20
9.15442801085533
30
0
41
1
10
83.8003950052597
20
9.16980042973987
30
0
41
1
10
83.964107082574
20
9.19878639080375
30
0
41
1
10
84.0459858704549
20
9.21241053664309
30
0
41
1
10
84.4554924306791
20
9.27623492311056
30
0
41
1
10
84.7834574000068
20
9.3135740099215
30
0
41
1
10
85.4400890306243
20
9.36157283193091
30
0
41
1
10
85.7687557376389
20
9.37223066627254
30
0
41
1
10
86.4267892094474
20
9.36695308462853
30
0
41
1
10
86.7561559506765
20
9.35101863026617
30
0
41
1
10
87.2507415501332
20
9.30674755824666
30
0
41
1
10
87.4156927885493
20
9.28859044231729
30
0
41
1
10
87.6219956406539
20
9.26155783632663
30
0
41
1
10
87.663279747067
20
9.25593165621018
30
0
41
1
10
87.7456705231106
20
9.24427039408354
30
0
41
1
10
87.8690493088367
20
9.22615787421699
30
0
41
1
10
87.9918091661391
20
9.206192184109
30
0
41
1
10
88.3996452798807
20
9.1355533395564
30
0
41
1
10
89.0434730727773
20
8.99642664406926
30
0
41
1
10
89.6702220851816
20
8.80582558490192
30
0
41
1
10
90.28839178121
20
8.58917227712192
30
0
41
1
10
90.5931880198784
20
8.46782308499772
30
0
41
1
10
91.043749579258
20
8.2654750827017
30
0
41
1
10
91.1928294475668
20
8.19463232699042
30
0
41
1
10
91.3777587599208
20
8.10170379136684
30
0
41
1
10
91.4146654151493
20
8.08290286481031
30
0
41
1
10
91.4881457844505
20
8.04495932111766
30
0
41
1
10
91.5979374192764
20
7.9874961056361
30
0
41
1
10
91.7064469785428
20
7.9283931311347
30
0
41
1
10
92.0653116293738
20
7.72774950800058
30
0
41
1
10
92.3433557706467
20
7.55563407274775
30
0
41
1
10
92.8814030791582
20
7.18802623525363
30
0
41
1
10
93.1414079193463
20
6.99253644563291
30
0
41
1
10
93.6428807080447
20
6.57727645530639
30
0
41
1
10
93.8843535227422
20
6.35751318971538
30
0
41
1
10
94.1738972354977
20
6.0665291060993
30
0
41
1
10
94.2311892943565
20
6.00751582790892
30
0
41
1
10
94.3445143145627
20
5.88781795236326
30
0
41
1
10
94.4005802104657
20
5.82709671049145
30
0
41
1
10
94.5666350052576
20
5.64259502669171
30
0
41
1
10
94.6737844194276
20
5.51726110311992
30
0
41
1
10
94.9845662357819
20
5.13422479838431
30
0
41
1
10
95.1775629166997
20
4.86950791973766
30
0
41
1
10
95.5344306131841
20
4.32069894522257
30
0
41
1
10
95.6983084119758
20
4.03661164442821
30
0
41
1
10
95.9209317549916
20
3.59493756269467
30
0
41
1
10
95.9912651002143
20
3.44511648775364
30
0
41
1
10
96.0741200097806
20
3.25443733970496
30
0
41
1
10
96.0904479864402
20
3.21610546370488
30
0
41
1
10
96.122485701228
20
3.13935279316746
30
0
41
1
10
96.1696487479406
20
3.02401497203573
30
0
41
1
10
96.2141393277393
20
2.90805217376877
30
0
41
1
10
96.3565252581776
20
2.5201242630352
30
0
41
1
10
96.4515510458029
20
2.20535991721704
30
0
41
1
10
96.6036431565509
20
1.5669056196252
30
0
41
1
10
96.6607132934354
20
1.2432166028205
30
0
41
1
10
96.7167514761866
20
0.750713973540314
30
0
41
1
10
96.7304927999681
20
0.585382607920593
30
0
41
1
10
96.7412968018559
20
0.377215601181774
30
0
41
1
10
96.7431387237951
20
0.335507004180613
30
0
41
1
10
96.746178794618
20
0.251937988445803
30
0
41
1
10
96.7473761249755
20
0.210076312185549
30
0
41
1
10
96.7499875041866
20
0.0847580192067596
30
0
41
1
10
96.750428026079
20
0.001402897313568
30
0
41
1
10
96.7462188436732
20
-0.414433867413038
30
0
41
1
10
96.7223888184832
20
-0.744106654557044
30
0
41
1
10
96.6351936471656
20
-1.39766836783269
30
0
41
1
10
96.5718250291105
20
-1.72155677851492
30
0
41
1
10
96.4679407209703
20
-2.12281734999976
30
0
41
1
10
96.4349202680175
20
-2.24292488171156
30
0
41
1
10
96.3991035609417
20
-2.36262486510299
30
0
41
1
10
96.3746023710887
20
-2.44233404300672
30
0
41
1
10
96.3620388353787
20
-2.48214490229574
30
0
41
1
10
96.2978778238368
20
-2.68031110513235
30
0
41
1
10
96.2420929233216
20
-2.83653866121594
30
0
41
1
10
96.0618838445273
20
-3.29858736310362
30
0
41
1
10
95.9246431821757
20
-3.59779358258217
30
0
41
1
10
95.617666449932
20
-4.17953675390723
30
0
41
1
10
95.4479247580603
20
-4.46207062442517
30
0
41
1
10
95.2157736242761
20
-4.80506825596228
30
0
41
1
10
95.1683079719498
20
-4.87320053950455
30
0
41
1
10
95.0718900672582
20
-5.0077448724777
30
0
41
1
10
94.9248610693783
20
-5.2072371668242
30
0
41
1
10
94.7707824095991
20
-5.39992396984957
30
0
41
1
10
94.4535385753679
20
-5.77656705280168
30
0
41
1
10
94.2299529014562
20
-6.01604630094891
30
0
41
1
10
93.7595820941822
20
-6.47293753156788
30
0
41
1
10
93.5127935850307
20
-6.69034585919798
30
0
41
1
10
93.2222121640638
20
-6.92274660990026
30
0
41
1
10
93.1897322479213
20
-6.94840896821938
30
0
41
1
10
93.1245572096297
20
-6.99928188103334
30
0
41
1
10
93.0264260228028
20
-7.07495164611089
30
0
41
1
10
92.7948912020651
20
-7.2470750575859
30
0
41
1
10
92.5921130510438
20
-7.38714567676328
30
0
41
1
10
92.1809367091884
20
-7.65763028718786
30
0
41
1
10
91.8993394952083
20
-7.82510228240824
30
0
41
1
10
91.3215666300446
20
-8.13526686954052
30
0
41
1
10
91.0253895530385
20
-8.27795659377173
30
0
41
1
10
90.6460265804803
20
-8.44093341784404
30
0
41
1
10
90.531530596454
20
-8.4886699838105
30
0
41
1
10
90.4159985901033
20
-8.53466676222979
30
0
41
1
10
90.3387462758469
20
-8.56494383558709
30
0
41
1
10
90.299983939221
20
-8.579896362136
30
0
41
1
10
90.1059734000488
20
-8.65354482866823
30
0
41
1
10
89.9499739931747
20
-8.70896563740138
30
0
41
1
10
89.4796533065926
20
-8.86500083481945
30
0
41
1
10
89.1630143405199
20
-8.95541074310248
30
0
41
1
10
88.5236955311086
20
-9.10982355389206
30
0
41
1
10
87.8783347005049
20
-9.23782384763996
30
0
41
1
10
87.2208798694046
20
-9.31323416558615
30
0
41
1
10
86.8060988197275
20
-9.34358251985611
30
0
41
1
10
86.7229115745223
20
-9.34881326475477
30
0
41
1
10
86.5563023873217
20
-9.35756962276881
30
0
41
1
10
86.3066920055531
20
-9.36811233467807
30
0
41
1
10
86.05798178019
20
-9.37096830445418
30
0
41
1
10
85.5617425389119
20
-9.36659513915268
30
0
41
1
10
84.9032357651939
20
-9.33391136386902
30
0
41
1
10
84.2509269883473
20
-9.24824344632839
30
0
41
1
10
83.6017408369669
20
-9.13578485735175
30
0
41
1
10
83.2787087419303
20
-9.06616336975836
30
0
41
1
10
82.9171093122985
20
-8.97220712405715
30
0
41
1
10
82.8769568129501
20
-8.96154993146067
30
0
41
1
10
82.7967025308871
20
-8.93979748144525
30
0
41
1
10
82.7565840720349
20
-8.92869728561453
30
0
41
1
10
82.6365874702092
20
-8.89481647152644
30
0
41
1
10
82.3977881219417
20
-8.82466766362347
30
0
41
1
10
82.1625356568109
20
-8.74741426473554
30
0
41
1
10
81.6967017267833
20
-8.58351441480693
30
0
41
1
10
81.392363537017
20
-8.46174553137689
30
0
41
1
10
80.7960600694803
20
-8.19310482983749
30
0
41
1
10
80.5040937367795
20
-8.0462355456805
30
0
41
1
10
79.9328111767325
20
-7.72657076580379
30
0
41
1
10
79.6534920157111
20
-7.55378188523102
30
0
41
1
10
79.3126705513688
20
-7.32054224053994
30
0
41
1
10
79.24486931837
20
-7.27298920751807
30
0
41
1
10
79.1104831466985
20
-7.17638264944284
30
0
41
1
10
78.977280342975
20
-7.07825743507982
30
0
41
1
10
78.8137518248863
20
-6.95177232730367
30
0
41
1
10
78.7008557894161
20
-6.86120153896738
30
0
41
1
10
78.6528106213792
20
-6.82194757844692
30
0
41
1
10
78.6208559975135
20
-6.79568064621114
30
0
41
1
10
78.6048874863091
20
-6.78247428477141
30
0
41
1
10
78.589014704737
20
-6.76926711410607
30
0
0
SPLINE
5
19A
100
AcDbEntity
8
SK2
62
256
6
ByLayer
370
18
48
1
60
0
100
AcDbSpline
70
4
71
3
72
28
73
24
40
0
40
0
40
0
40
0
40
0.124999999999999
40
0.124999999999999
40
0.156249999999999
40
0.156249999999999
40
0.187499999999999
40
0.25
40
0.25
40
0.375
40
0.375
40
0.500000000000001
40
0.500000000000001
40
0.625000000000001
40
0.625000000000001
40
0.656250000000001
40
0.656250000000001
40
0.687500000000001
40
0.750000000000001
40
0.750000000000001
40
0.875
40
0.875
40
1
40
1
40
1
40
1
41
1
10
56
20
-2.88675134594828
30
0
41
1
10
56
20
-2.65221904826029
30
0
41
1
10
56
20
-2.41557006562971
30
0
41
1
10
56
20
-2.11641922368602
30
0
41
1
10
56
20
-2.05638703215544
30
0
41
1
10
56
20
-1.93612762286966
30
0
41
1
10
56
20
-1.75564603469024
30
0
41
1
10
56
20
-1.57487575709826
30
0
41
1
10
56
20
-1.21292207956228
30
0
41
1
10
56
20
-0.971067172785951
30
0
41
1
10
56
20
-0.486130329323714
30
0
41
1
10
56
20
-0.243047512392934
30
0
41
1
10
56
20
0.24440611469322
30
0
41
1
10
56
20
0.488777132152052
30
0
41
1
10
56
20
0.79503316042323
30
0
41
1
10
56
20
0.856366764760537
30
0
41
1
10
56
20
0.978919544658453
30
0
41
1
10
56
20
1.1622391663725
30
0
41
1
10
56
20
1.34408632372157
30
0
41
1
10
56
20
1.70597478505803
30
0
41
1
10
56
20
1.94482750453361
30
0
41
1
10
56
20
2.4185672669052
30
0
41
1
10
56
20
2.65345676163267
30
0
41
1
10
56
20
2.88675134594755
30
0
0
SPLINE
5
19B
100
AcDbEntity
8
SK2
62
256
6
ByLayer
370
18
48
1
60
0
100
AcDbSpline
70
4
71
3
72
28
73
24
40
0
40
0
40
0
40
0
40
0.125000000000001
40
0.125000000000001
40
0.156250000000001
40
0.156250000000001
40
0.187500000000001
40
0.25
40
0.25
40
0.375
40
0.375
40
0.5
40
0.5
40
0.625
40
0.625
40
0.65625
40
0.65625
40
0.6875
40
0.75
40
0.75
40
0.875
40
0.875
40
1
40
1
40
1
40
1
41
1
10
66
20
-2.88675134594737
30
0
41
1
10
66
20
-2.65221904825896
30
0
41
1
10
66
20
-2.41557006562766
30
0
41
1
10
66
20
-2.11641922368258
30
0
41
1
10
66
20
-2.05638703215138
30
0
41
1
10
66
20
-1.93612762286602
30
0
41
1
10
66
20
-1.75564603468737
30
0
41
1
10
66
20
-1.57487575709638
30
0
41
1
10
66
20
-1.21292207956282
30
0
41
1
10
66
20
-0.971067172788622
30
0
41
1
10
66
20
-0.486130329331814
30
0
41
1
10
66
20
-0.243047512404331
30
0
41
1
10
66
20
0.244406114673922
30
0
41
1
10
66
20
0.488777132128149
30
0
41
1
10
66
20
0.795033160392848
30
0
41
1
10
66
20
0.856366764726857
30
0
41
1
10
66
20
0.978919544628297
30
0
41
1
10
66
20
1.16223916634743
30
0
41
1
10
66
20
1.34408632370085
30
0
41
1
10
66
20
1.70597478504507
30
0
41
1
10
66
20
1.94482750452465
30
0
41
1
10
66
20
2.41856726690244
30
0
41
1
10
66
20
2.6534567616321
30
0
41
1
10
66
20
2.88675134594848
30
0
0
SPLINE
5
19C
100
AcDbEntity
8
SK2
62
256
6
ByLayer
370
18
48
1
60
0
100
AcDbSpline
70
4
71
3
72
22
73
18
40
0
40
0
40
0
40
0
40
0.250000000000014
40
0.250000000000014
40
0.375000000000021
40
0.375000000000021
40
0.437500000000021
40
0.437500000000021
40
0.468750000000022
40
0.468750000000022
40
0.500000000000022
40
0.500000000000022
40
0.625000000000017
40
0.625000000000017
40
0.750000000000011
40
0.750000000000011
40
1
40
1
40
1
40
1
41
1
10
65.9999999999995
20
2.88675134594854
30
0
41
1
10
65.5912889637254
20
3.12272077276211
30
0
41
1
10
65.1791616003532
20
3.36066261694549
30
0
41
1
10
64.5535222715925
20
3.72187565182114
30
0
41
1
10
64.3437308096306
20
3.84299880885848
30
0
41
1
10
64.0269193101153
20
4.02591001338601
30
0
41
1
10
63.9209620455693
20
4.08708446859421
30
0
41
1
10
63.7614720200222
20
4.17916607777693
30
0
41
1
10
63.7081770285368
20
4.20993595545747
30
0
41
1
10
63.6015783236678
20
4.27148074640888
30
0
41
1
10
63.5483607058459
20
4.30220595238399
30
0
41
1
10
63.2826783312042
20
4.45559774290231
30
0
41
1
10
63.0714363751955
20
4.57755834306806
30
0
41
1
10
62.6513886515022
20
4.82007300941484
30
0
41
1
10
62.442580782273
20
4.94062828892325
30
0
41
1
10
61.8193808846491
20
5.30043291757536
30
0
41
1
10
61.4082022821818
20
5.53782699439486
30
0
41
1
10
61.0000000000005
20
5.77350269189608
30
0
0
SPLINE
5
19D
100
AcDbEntity
8
SK2
62
256
6
ByLayer
370
18
48
1
60
0
100
AcDbSpline
70
4
71
3
72
22
73
18
40
0
40
0
40
0
40
0
40
0.250000000000002
40
0.250000000000002
40
0.375000000000003
40
0.375000000000003
40
0.437500000000005
40
0.437500000000005
40
0.468750000000004
40
0.468750000000004
40
0.500000000000004
40
0.500000000000004
40
0.625000000000002
40
0.625000000000002
40
0.750000000000001
40
0.750000000000001
40
1
40
1
40
1
40
1
41
1
10
61.0000000000003
20
-5.77350269189634
30
0
41
1
10
60.5912889637262
20
-5.53753326508271
30
0
41
1
10
60.1791616003539
20
-5.2995914208993
30
0
41
1
10
59.5535222715931
20
-4.9383783860236
30
0
41
1
10
59.3437308096312
20
-4.81725522898623
30
0
41
1
10
59.0269193101158
20
-4.63434402445867
30
0
41
1
10
58.9209620455698
20
-4.57316956925044
30
0
41
1
10
58.7614720200227
20
-4.48108796006773
30
0
41
1
10
58.7081770285373
20
-4.45031808238718
30
0
41
1
10
58.6015783236682
20
-4.38877329143577
30
0
41
1
10
58.5483607058463
20
-4.35804808546067
30
0
41
1
10
58.2826783312046
20
-4.20465629494231
30
0
41
1
10
58.0714363751958
20
-4.08269569477653
30
0
41
1
10
57.6513886515025
20
-3.84018102842973
30
0
41
1
10
57.4425807822733
20
-3.71962574892129
30
0
41
1
10
56.8193808846493
20
-3.35982112026912
30
0
41
1
10
56.4082022821819
20
-3.12242704344956
30
0
41
1
10
56.0000000000005
20
-2.88675134594831
30
0
0
SPLINE
5
19E
100
AcDbEntity
8
SK2
62
256
6
ByLayer
370
18
48
1
60
0
100
AcDbSpline
70
4
71
3
72
22
73
18
40
0
40
0
40
0
40
0
40
0.249999999999996
40
0.249999999999996
40
0.374999999999995
40
0.374999999999995
40
0.437499999999996
40
0.437499999999996
40
0.468749999999999
40
0.468749999999999
40
0.500000000000001
40
0.500000000000001
40
0.625000000000001
40
0.625000000000001
40
0.75
40
0.75
40
1
40
1
40
1
40
1
41
1
10
55.9999999999997
20
2.88675134594806
30
0
41
1
10
56.4087110362738
20
3.12272077276171
30
0
41
1
10
56.8208383996462
20
3.36066261694515
30
0
41
1
10
57.4464777284072
20
3.72187565182091
30
0
41
1
10
57.6562691903691
20
3.84299880885831
30
0
41
1
10
57.9730806898845
20
4.02591001338592
30
0
41
1
10
58.0790379544305
20
4.08708446859413
30
0
41
1
10
58.2385279799777
20
4.17916607777687
30
0
41
1
10
58.2918229714631
20
4.20993595545744
30
0
41
1
10
58.3984216763322
20
4.27148074640888
30
0
41
1
10
58.4516392941541
20
4.30220595238399
30
0
41
1
10
58.7173216687959
20
4.45559774290234
30
0
41
1
10
58.9285636248047
20
4.57755834306815
30
0
41
1
10
59.3486113484981
20
4.82007300941501
30
0
41
1
10
59.5574192177273
20
4.94062828892345
30
0
41
1
10
60.1806191153514
20
5.30043291757568
30
0
41
1
10
60.5917977178189
20
5.53782699439526
30
0
41
1
10
61.0000000000003
20
5.77350269189654
30
0
0
SPLINE
5
19F
100
AcDbEntity
8
SK2
62
256
6
ByLayer
370
18
48
1
60
0
100
AcDbSpline
70
4
71
3
72
22
73
18
40
0
40
0
40
0
40
0
40
0.250000000000006
40
0.250000000000006
40
0.37500000000001
40
0.37500000000001
40
0.437500000000012
40
0.437500000000012
40
0.46875000000001
40
0.46875000000001
40
0.500000000000008
40
0.500000000000008
40
0.625000000000006
40
0.625000000000006
40
0.750000000000004
40
0.750000000000004
40
1
40
1
40
1
40
1
41
1
10
61.0000000000005
20
-5.77350269189586
30
0
41
1
10
61.4087110362746
20
-5.53753326508223
30
0
41
1
10
61.8208383996469
20
-5.29959142089882
30
0
41
1
10
62.4464777284078
20
-4.93837838602312
30
0
41
1
10
62.6562691903697
20
-4.81725522898574
30
0
41
1
10
62.9730806898851
20
-4.63434402445816
30
0
41
1
10
63.0790379544311
20
-4.57316956924996
30
0
41
1
10
63.2385279799782
20
-4.48108796006724
30
0
41
1
10
63.2918229714636
20
-4.45031808238667
30
0
41
1
10
63.3984216763327
20
-4.38877329143526
30
0
41
1
10
63.4516392941546
20
-4.35804808546015
30
0
41
1
10
63.7173216687963
20
-4.2046562949418
30
0
41
1
10
63.9285636248051
20
-4.08269569477602
30
0
41
1
10
64.3486113484983
20
-3.84018102842921
30
0
41
1
10
64.5574192177275
20
-3.71962574892081
30
0
41
1
10
65.1806191153516
20
-3.35982112026863
30
0
41
1
10
65.5917977178189
20
-3.12242704344908
30
0
41
1
10
66.0000000000003
20
-2.88675134594783
30
0
0
SPLINE
5
1A0
100
AcDbEntity
8
SK2
62
256
6
ByLayer
370
18
48
1
60
0
100
AcDbSpline
70
4
71
3
72
28
73
24
40
0
40
0
40
0
40
0
40
0.125
40
0.125
40
0.15625
40
0.15625
40
0.1875
40
0.25
40
0.25
40
0.375
40
0.375
40
0.5
40
0.5
40
0.625
40
0.625
40
0.65625
40
0.65625
40
0.687499999999999
40
0.75
40
0.75
40
0.875
40
0.875
40
1
40
1
40
1
40
1
41
1
10
81
20
-2.88675134594826
30
0
41
1
10
81
20
-2.65221904826026
30
0
41
1
10
81
20
-2.41557006562968
30
0
41
1
10
81
20
-2.116419223686
30
0
41
1
10
81
20
-2.05638703215541
30
0
41
1
10
81
20
-1.93612762286963
30
0
41
1
10
81
20
-1.75564603469022
30
0
41
1
10
81
20
-1.57487575709823
30
0
41
1
10
81
20
-1.21292207956225
30
0
41
1
10
81
20
-0.971067172785922
30
0
41
1
10
81
20
-0.486130329323686
30
0
41
1
10
81
20
-0.243047512392906
30
0
41
1
10
81
20
0.244406114693248
30
0
41
1
10
81
20
0.48877713215208
30
0
41
1
10
81
20
0.795033160423259
30
0
41
1
10
81
20
0.856366764760566
30
0
41
1
10
81
20
0.978919544658481
30
0
41
1
10
81
20
1.16223916637253
30
0
41
1
10
81
20
1.3440863237216
30
0
41
1
10
81
20
1.70597478505806
30
0
41
1
10
81
20
1.94482750453363
30
0
41
1
10
81
20
2.41856726690523
30
0
41
1
10
81
20
2.6534567616327
30
0
41
1
10
81
20
2.88675134594757
30
0
0
SPLINE
5
1A1
100
AcDbEntity
8
SK2
62
256
6
ByLayer
370
18
48
1
60
0
100
AcDbSpline
70
4
71
3
72
28
73
24
40
0
40
0
40
0
40
0
40
0.125
40
0.125
40
0.15625
40
0.15625
40
0.1875
40
0.25
40
0.25
40
0.374999999999999
40
0.374999999999999
40
0.499999999999999
40
0.499999999999999
40
0.624999999999999
40
0.624999999999999
40
0.656249999999999
40
0.656249999999999
40
0.687499999999999
40
0.749999999999999
40
0.749999999999999
40
0.875
40
0.875
40
1
40
1
40
1
40
1
41
1
10
91
20
-2.88675134594735
30
0
41
1
10
91
20
-2.65221904825893
30
0
41
1
10
91
20
-2.41557006562763
30
0
41
1
10
91
20
-2.11641922368256
30
0
41
1
10
91
20
-2.05638703215135
30
0
41
1
10
91
20
-1.936127622866
30
0
41
1
10
91
20
-1.75564603468735
30
0
41
1
10
91
20
-1.57487575709635
30
0
41
1
10
91
20
-1.21292207956279
30
0
41
1
10
91
20
-0.971067172788594
30
0
41
1
10
91
20
-0.486130329331786
30
0
41
1
10
91
20
-0.243047512404303
30
0
41
1
10
91
20
0.24440611467395
30
0
41
1
10
91
20
0.488777132128178
30
0
41
1
10
91
20
0.795033160392876
30
0
41
1
10
91
20
0.856366764726886
30
0
41
1
10
91
20
0.978919544628326
30
0
41
1
10
91
20
1.16223916634749
30
0
41
1
10
91
20
1.34408632370088
30
0
41
1
10
91
20
1.7059747850451
30
0
41
1
10
91
20
1.94482750452468
30
0
41
1
10
91
20
2.41856726690247
30
0
41
1
10
91
20
2.65345676163213
30
0
41
1
10
91
20
2.88675134594851
30
0
0
SPLINE
5
1A2
100
AcDbEntity
8
SK2
62
256
6
ByLayer
370
18
48
1
60
0
100
AcDbSpline
70
4
71
3
72
22
73
18
40
0
40
0
40
0
40
0
40
0.249999999999994
40
0.249999999999994
40
0.374999999999991
40
0.374999999999991
40
0.437499999999993
40
0.437499999999993
40
0.468749999999993
40
0.468749999999993
40
0.499999999999994
40
0.499999999999994
40
0.624999999999997
40
0.624999999999997
40
0.75
40
0.75
40
1
40
1
40
1
40
1
41
1
10
90.9999999999995
20
2.88675134594857
30
0
41
1
10
90.5912889637255
20
3.12272077276214
30
0
41
1
10
90.1791616003532
20
3.36066261694552
30
0
41
1
10
89.5535222715925
20
3.72187565182116
30
0
41
1
10
89.3437308096306
20
3.84299880885851
30
0
41
1
10
89.0269193101153
20
4.02591001338607
30
0
41
1
10
88.9209620455693
20
4.08708446859427
30
0
41
1
10
88.7614720200222
20
4.17916607777696
30
0
41
1
10
88.7081770285368
20
4.2099359554575
30
0
41
1
10
88.6015783236677
20
4.27148074640891
30
0
41
1
10
88.5483607058459
20
4.30220595238401
30
0
41
1
10
88.2826783312042
20
4.45559774290234
30
0
41
1
10
88.0714363751955
20
4.57755834306809
30
0
41
1
10
87.6513886515023
20
4.82007300941487
30
0
41
1
10
87.442580782273
20
4.94062828892328
30
0
41
1
10
86.8193808846491
20
5.30043291757539
30
0
41
1
10
86.4082022821818
20
5.53782699439492
30
0
41
1
10
86.0000000000005
20
5.77350269189611
30
0
0
SPLINE
5
1A3
100
AcDbEntity
8
SK2
62
256
6
ByLayer
370
18
48
1
60
0
100
AcDbSpline
70
4
71
3
72
22
73
18
40
0
40
0
40
0
40
0
40
0.24999999999997
40
0.24999999999997
40
0.374999999999958
40
0.374999999999958
40
0.437499999999952
40
0.437499999999952
40
0.468749999999952
40
0.468749999999952
40
0.499999999999952
40
0.499999999999952
40
0.624999999999964
40
0.624999999999964
40
0.749999999999976
40
0.749999999999976
40
1
40
1
40
1
40
1
41
1
10
86.0000000000003
20
-5.77350269189631
30
0
41
1
10
85.5912889637262
20
-5.53753326508269
30
0
41
1
10
85.1791616003539
20
-5.29959142089928
30
0
41
1
10
84.553522271593
20
-4.93837838602357
30
0
41
1
10
84.3437308096312
20
-4.8172552289862
30
0
41
1
10
84.0269193101158
20
-4.63434402445864
30
0
41
1
10
83.9209620455698
20
-4.57316956925041
30
0
41
1
10
83.7614720200227
20
-4.4810879600677
30
0
41
1
10
83.7081770285373
20
-4.45031808238716
30
0
41
1
10
83.6015783236682
20
-4.38877329143574
30
0
41
1
10
83.5483607058463
20
-4.35804808546061
30
0
41
1
10
83.2826783312046
20
-4.20465629494228
30
0
41
1
10
83.0714363751958
20
-4.0826956947765
30
0
41
1
10
82.6513886515025
20
-3.8401810284297
30
0
41
1
10
82.4425807822733
20
-3.71962574892126
30
0
41
1
10
81.8193808846493
20
-3.35982112026909
30
0
41
1
10
81.4082022821819
20
-3.12242704344953
30
0
41
1
10
81.0000000000005
20
-2.88675134594828
30
0
0
SPLINE
5
1A4
100
AcDbEntity
8
SK2
62
256
6
ByLayer
370
18
48
1
60
0
100
AcDbSpline
70
4
71
3
72
22
73
18
40
0
40
0
40
0
40
0
40
0.250000000000003
40
0.250000000000003
40
0.375000000000004
40
0.375000000000004
40
0.437500000000005
40
0.437500000000005
40
0.468750000000008
40
0.468750000000008
40
0.500000000000012
40
0.500000000000012
40
0.625000000000007
40
0.625000000000007
40
0.750000000000003
40
0.750000000000003
40
1
40
1
40
1
40
1
41
1
10
80.9999999999997
20
2.88675134594806
30
0
41
1
10
81.4087110362739
20
3.12272077276174
30
0
41
1
10
81.8208383996462
20
3.36066261694518
30
0
41
1
10
82.4464777284072
20
3.72187565182094
30
0
41
1
10
82.6562691903692
20
3.84299880885834
30
0
41
1
10
82.9730806898846
20
4.02591001338595
30
0
41
1
10
83.0790379544306
20
4.08708446859416
30
0
41
1
10
83.2385279799777
20
4.1791660777769
30
0
41
1
10
83.2918229714631
20
4.20993595545747
30
0
41
1
10
83.3984216763322
20
4.27148074640891
30
0
41
1
10
83.4516392941541
20
4.30220595238401
30
0
41
1
10
83.717321668796
20
4.45559774290237
30
0
41
1
10
83.9285636248047
20
4.57755834306818
30
0
41
1
10
84.3486113484981
20
4.82007300941504
30
0
41
1
10
84.5574192177273
20
4.94062828892348
30
0
41
1
10
85.1806191153514
20
5.30043291757571
30
0
41
1
10
85.5917977178189
20
5.53782699439529
30
0
41
1
10
86.0000000000003
20
5.77350269189657
30
0
0
SPLINE
5
1A5
100
AcDbEntity
8
SK2
62
256
6
ByLayer
370
18
48
1
60
0
100
AcDbSpline
70
4
71
3
72
22
73
18
40
0
40
0
40
0
40
0
40
0.25
40
0.25
40
0.375
40
0.375
40
0.437499999999999
40
0.437499999999999
40
0.468750000000002
40
0.468750000000002
40
0.500000000000005
40
0.500000000000005
40
0.625000000000004
40
0.625000000000004
40
0.750000000000003
40
0.750000000000003
40
1
40
1
40
1
40
1
41
1
10
86.0000000000005
20
-5.77350269189583
30
0
41
1
10
86.4087110362747
20
-5.5375332650822
30
0
41
1
10
86.8208383996469
20
-5.29959142089879
30
0
41
1
10
87.4464777284078
20
-4.93837838602309
30
0
41
1
10
87.6562691903697
20
-4.81725522898572
30
0
41
1
10
87.9730806898851
20
-4.63434402445813
30
0
41
1
10
88.0790379544311
20
-4.57316956924993
30
0
41
1
10
88.2385279799782
20
-4.48108796006721
30
0
41
1
10
88.2918229714636
20
-4.45031808238664
30
0
41
1
10
88.3984216763327
20
-4.38877329143523
30
0
41
1
10
88.4516392941546
20
-4.35804808546013
30
0
41
1
10
88.7173216687964
20
-4.20465629494177
30
0
41
1
10
88.928563624805
20
-4.08269569477599
30
0
41
1
10
89.3486113484983
20
-3.84018102842919
30
0
41
1
10
89.5574192177276
20
-3.71962574892078
30
0
41
1
10
90.1806191153516
20
-3.35982112026861
30
0
41
1
10
90.591797717819
20
-3.12242704344905
30
0
41
1
10
91.0000000000003
20
-2.8867513459478
30
0
0
SPLINE
5
1A6
100
AcDbEntity
8
SK1
62
256
6
ByLayer
370
18
48
1
60
0
100
AcDbSpline
70
4
71
3
72
18
73
14
40
0
40
0
40
0
40
0
40
0.250000000000001
40
0.250000000000001
40
0.500000000000003
40
0.500000000000003
40
0.750000000000004
40
0.750000000000004
40
0.875000000000002
40
0.875000000000002
40
0.937500000000001
40
0.937500000000001
40
1
40
1
40
1
40
1
41
1
10
-30.7600449304189
20
20.8343104848551
30
0
41
1
10
-30.8005304154139
20
20.7918881709064
30
0
41
1
10
-30.8391903531166
20
20.7469260607629
30
0
41
1
10
-30.9108217653087
20
20.6529591687477
30
0
41
1
10
-30.9438142152931
20
20.6039429118275
30
0
41
1
10
-31.0007051058619
20
20.5035329740631
30
0
41
1
10
-31.0245900063635
20
20.452152121693
30
0
41
1
10
-31.0497392711237
20
20.3751260478415
30
0
41
1
10
-31.0563287210784
20
20.3494639101468
30
0
41
1
10
-31.063030146255
20
20.3111943706256
30
0
41
1
10
-31.0647340784536
20
20.2984745440864
30
0
41
1
10
-31.0670149104397
20
20.2731305676871
30
0
41
1
10
-31.0675855446075
20
20.2605639218972
30
0
41
1
10
-31.0675798041817
20
20.2481331121862
30
0
0
SPLINE
5
1A7
100
AcDbEntity
8
SK1
62
256
6
ByLayer
370
18
48
1
60
0
100
AcDbSpline
70
4
71
3
72
86
73
82
40
0
40
0
40
0
40
0
40
0.0624999999999945
40
0.0624999999999945
40
0.093749999999991
40
0.093749999999991
40
0.124999999999987
40
0.124999999999987
40
0.18749999999998
40
0.18749999999998
40
0.249999999999972
40
0.249999999999972
40
0.312499999999964
40
0.312499999999964
40
0.343749999999959
40
0.343749999999959
40
0.374999999999954
40
0.374999999999954
40
0.406249999999949
40
0.406249999999949
40
0.421874999999947
40
0.421874999999947
40
0.437499999999944
40
0.437499999999944
40
0.453124999999941
40
0.453124999999941
40
0.468749999999938
40
0.468749999999938
40
0.476562499999937
40
0.476562499999937
40
0.484374999999937
40
0.484374999999937
40
0.488281249999937
40
0.488281249999937
40
0.492187499999938
40
0.492187499999938
40
0.496093749999938
40
0.496093749999938
40
0.499999999999939
40
0.499999999999939
40
0.503906249999939
40
0.503906249999939
40
0.507812499999939
40
0.507812499999939
40
0.51171874999994
40
0.51171874999994
40
0.51562499999994
40
0.51562499999994
40
0.519531249999941
40
0.519531249999941
40
0.523437499999941
40
0.523437499999941
40
0.531249999999943
40
0.531249999999943
40
0.539062499999944
40
0.539062499999944
40
0.546874999999946
40
0.546874999999946
40
0.562499999999949
40
0.562499999999949
40
0.57031249999995
40
0.57031249999995
40
0.57812499999995
40
0.57812499999995
40
0.593749999999952
40
0.593749999999952
40
0.624999999999956
40
0.624999999999956
40
0.656249999999959
40
0.656249999999959
40
0.687499999999963
40
0.687499999999963
40
0.74999999999997
40
0.74999999999997
40
0.812499999999978
40
0.812499999999978
40
0.874999999999985
40
0.874999999999985
40
0.937499999999993
40
0.937499999999993
40
1
40
1
40
1
40
1
41
1
10
-31.067579804184
20
20.2481331121841
30
0
41
1
10
-31.0675534944618
20
20.1911597856753
30
0
41
1
10
-31.0690558583241
20
20.1327741063364
30
0
41
1
10
-31.0736621072266
20
20.0430219075264
30
0
41
1
10
-31.0755906353231
20
20.0127413090277
30
0
41
1
10
-31.0802571154676
20
19.9514322792556
30
0
41
1
10
-31.0829974034256
20
19.9203812011913
30
0
41
1
10
-31.0924642131351
20
19.826239197435
30
0
41
1
10
-31.1004220625196
20
19.7622140214972
30
0
41
1
10
-31.1199565860123
20
19.6313861300773
30
0
41
1
10
-31.1315271698419
20
19.5645880890381
30
0
41
1
10
-31.1589046603601
20
19.4277405219718
30
0
41
1
10
-31.1746938353416
20
19.3577046054785
30
0
41
1
10
-31.2024758774279
20
19.2495051974342
30
0
41
1
10
-31.2124252963353
20
19.2129101040809
30
0
41
1
10
-31.2339927105697
20
19.1384392427516
30
0
41
1
10
-31.2456060572184
20
19.1005670427538
30
0
41
1
10
-31.2709792540053
20
19.0231751470159
30
0
41
1
10
-31.2847256462683
20
18.9836657805355
30
0
41
1
10
-31.3076349170296
20
18.9226443416617
30
0
41
1
10
-31.3156569641315
20
18.9020078862319
30
0
41
1
10
-31.3326874790758
20
18.859977872494
30
0
41
1
10
-31.341701164681
20
18.8385743913988
30
0
41
1
10
-31.3608233426831
20
18.7952713494676
30
0
41
1
10
-31.3709464893781
20
18.7733230470749
30
0
41
1
10
-31.3927919059663
20
18.7285820626645
30
0
41
1
10
-31.4044944590442
20
18.7057997916502
30
0
41
1
10
-31.4239883582009
20
18.6706019767578
30
0
41
1
10
-31.4308149321345
20
18.6586949934504
30
0
41
1
10
-31.4453956080378
20
18.6343947370949
30
0
41
1
10
-31.4530557654096
20
18.6221549387512
30
0
41
1
10
-31.4653492412449
20
18.6036004795754
30
0
41
1
10
-31.4695822857496
20
18.5973828732257
30
0
41
1
10
-31.4783891894126
20
18.5848650231499
30
0
41
1
10
-31.4829727634802
20
18.5785532873023
30
0
41
1
10
-31.4924136602903
20
18.566043656097
30
0
41
1
10
-31.4972860781519
20
18.5598227499319
30
0
41
1
10
-31.5074175429104
20
18.5474672073922
30
0
41
1
10
-31.5127238662876
20
18.5412803972509
30
0
41
1
10
-31.5235957862032
20
18.5292996144482
30
0
41
1
10
-31.5291348980287
20
18.523529821249
30
0
41
1
10
-31.5404573490384
20
18.5125125338402
30
0
41
1
10
-31.5462755116749
20
18.5072469611451
30
0
41
1
10
-31.5575913831422
20
18.497818766136
30
0
41
1
10
-31.5631580932629
20
18.4935838229719
30
0
41
1
10
-31.5741148986058
20
18.4860415905397
30
0
41
1
10
-31.5793792463082
20
18.4828239231665
30
0
41
1
10
-31.5893645662356
20
18.4774067133031
30
0
41
1
10
-31.5941222968211
20
18.4751824829452
30
0
41
1
10
-31.6032525606001
20
18.4715282175916
30
0
41
1
10
-31.6075274015997
20
18.4701359167857
30
0
41
1
10
-31.6196906075381
20
18.4669401985274
30
0
41
1
10
-31.6269330534931
20
18.466100003416
30
0
41
1
10
-31.6403110922464
20
18.4660680710014
30
0
41
1
10
-31.6463256675157
20
18.4668859982832
30
0
41
1
10
-31.6574282757023
20
18.4695940233431
30
0
41
1
10
-31.6625218827957
20
18.4714926148467
30
0
41
1
10
-31.6768223458771
20
18.4783548432816
30
0
41
1
10
-31.6850668922222
20
18.4844634595283
30
0
41
1
10
-31.6962705838447
20
18.4950103016331
30
0
41
1
10
-31.6998078881761
20
18.4987699724355
30
0
41
1
10
-31.7065166064257
20
18.5066358998743
30
0
41
1
10
-31.7096928259576
20
18.5107463788809
30
0
41
1
10
-31.7187824019298
20
18.5235153597214
30
0
41
1
10
-31.7242614259409
20
18.532606671829
30
0
41
1
10
-31.7394468363423
20
18.5611278832271
30
0
41
1
10
-31.747924482385
20
18.5817822166385
30
0
41
1
10
-31.7628981589617
20
18.625065554227
30
0
41
1
10
-31.7693720151981
20
18.64771665499
30
0
41
1
10
-31.7809369288604
20
18.6943968091887
30
0
41
1
10
-31.786021053383
20
18.7184327712306
30
0
41
1
10
-31.7997362280606
20
18.7920724690002
30
0
41
1
10
-31.8068581343075
20
18.8432018313593
30
0
41
1
10
-31.8186080933067
20
18.9475497247691
30
0
41
1
10
-31.8232228848856
20
19.0008439746506
30
0
41
1
10
-31.830741184381
20
19.1089538003139
30
0
41
1
10
-31.833636252087
20
19.1637768794168
30
0
41
1
10
-31.8381282453342
20
19.2745770820052
30
0
41
1
10
-31.8397219190265
20
19.3305570963742
30
0
41
1
10
-31.8418206354993
20
19.4434849146371
30
0
41
1
10
-31.842324491531
20
19.5004337735467
30
0
41
1
10
-31.8423156651183
20
19.5578384055689
30
0
0
SPLINE
5
1A8
100
AcDbEntity
8
SK1
62
256
6
ByLayer
370
18
48
1
60
0
100
AcDbSpline
70
4
71
3
72
18
73
14
40
0
40
0
40
0
40
0
40
0.166666958714327
40
0.166666958714327
40
0.333333917428654
40
0.333333917428654
40
0.416667396785818
40
0.416667396785818
40
0.500000876142982
40
0.500000876142982
40
0.666667834857301
40
0.666667834857301
40
1
40
1
40
1
40
1
41
1
10
-31.8423156651183
20
19.5578384055689
30
0
41
1
10
-31.8423124272907
20
19.5788963723869
30
0
41
1
10
-31.8431055341368
20
19.5975685905954
30
0
41
1
10
-31.8461332488021
20
19.6302930095945
30
0
41
1
10
-31.8483658607326
20
19.6443467555886
30
0
41
1
10
-31.8525270681002
20
19.6621382086598
30
0
41
1
10
-31.8540411937332
20
19.6674890511835
30
0
41
1
10
-31.8572417896358
20
19.677060393639
30
0
41
1
10
-31.8589305375732
20
19.6812911054726
30
0
41
1
10
-31.8641630878528
20
19.6924445631542
30
0
41
1
10
-31.8678718502193
20
19.6978331558005
30
0
41
1
10
-31.8789048309216
20
19.7086925976542
30
0
41
1
10
-31.8861179583105
20
19.7089022512623
30
0
41
1
10
-31.8914145245955
20
19.7035854342923
30
0
0
SPLINE
5
1A9
100
AcDbEntity
8
SK1
62
256
6
ByLayer
370
18
48
1
60
0
100
AcDbSpline
70
4
71
3
72
18
73
14
40
0
40
0
40
0
40
0
40
0.16666666666667
40
0.16666666666667
40
0.333333333333339
40
0.333333333333339
40
0.416666666666671
40
0.416666666666671
40
0.500000000000003
40
0.500000000000003
40
0.666666666666667
40
0.666666666666667
40
1
40
1
40
1
40
1
41
1
10
-31.8423156651183
20
-19.557838405569
30
0
41
1
10
-31.8423124272776
20
-19.5788964574041
30
0
41
1
10
-31.8431055401534
20
-19.5975686520516
30
0
41
1
10
-31.8461332411618
20
-19.6302929305892
30
0
41
1
10
-31.8483658328874
20
-19.6443465600596
30
0
41
1
10
-31.8525269753938
20
-19.6621378505255
30
0
41
1
10
-31.8540411331186
20
-19.6674888528559
30
0
41
1
10
-31.8572417503739
20
-19.6770602932875
30
0
41
1
10
-31.8589305081703
20
-19.6812910376212
30
0
41
1
10
-31.8641630823175
20
-19.6924445617111
30
0
41
1
10
-31.86787185249
20
-19.6978331581021
30
0
41
1
10
-31.8789048656756
20
-19.7086926317288
30
0
41
1
10
-31.886117982338
20
-19.7089022277163
30
0
41
1
10
-31.8914145256276
20
-19.7035854332563
30
0
0
SPLINE
5
1AA
100
AcDbEntity
8
SK1
62
256
6
ByLayer
370
18
48
1
60
0
100
AcDbSpline
70
4
71
3
72
86
73
82
40
0
40
0
40
0
40
0
40
0.0625000000000013
40
0.0625000000000013
40
0.0937500000000023
40
0.0937500000000023
40
0.125000000000003
40
0.125000000000003
40
0.187500000000006
40
0.187500000000006
40
0.250000000000009
40
0.250000000000009
40
0.312500000000012
40
0.312500000000012
40
0.343750000000013
40
0.343750000000013
40
0.375000000000014
40
0.375000000000014
40
0.406250000000015
40
0.406250000000015
40
0.421875000000015
40
0.421875000000015
40
0.437500000000015
40
0.437500000000015
40
0.453125000000015
40
0.453125000000015
40
0.468750000000015
40
0.468750000000015
40
0.476562500000016
40
0.476562500000016
40
0.484375000000017
40
0.484375000000017
40
0.488281250000016
40
0.488281250000016
40
0.492187500000014
40
0.492187500000014
40
0.496093750000013
40
0.496093750000013
40
0.500000000000012
40
0.500000000000012
40
0.503906250000011
40
0.503906250000011
40
0.50781250000001
40
0.50781250000001
40
0.511718750000009
40
0.511718750000009
40
0.515625000000008
40
0.515625000000008
40
0.519531250000007
40
0.519531250000007
40
0.523437500000005
40
0.523437500000005
40
0.531250000000005
40
0.531250000000005
40
0.539062500000004
40
0.539062500000004
40
0.546875000000003
40
0.546875000000003
40
0.562500000000002
40
0.562500000000002
40
0.570312500000002
40
0.570312500000002
40
0.578125000000002
40
0.578125000000002
40
0.593750000000001
40
0.593750000000001
40
0.625000000000001
40
0.625000000000001
40
0.656250000000001
40
0.656250000000001
40
0.687500000000001
40
0.687500000000001
40
0.750000000000001
40
0.750000000000001
40
0.812500000000001
40
0.812500000000001
40
0.875
40
0.875
40
0.9375
40
0.9375
40
1
40
1
40
1
40
1
41
1
10
-31.067579804184
20
-20.2481331121841
30
0
41
1
10
-31.0675534944799
20
-20.1911598250595
30
0
41
1
10
-31.0690558562391
20
-20.1327741785481
30
0
41
1
10
-31.0736621007992
20
-20.0430220169691
30
0
41
1
10
-31.0755906272496
20
-20.0127414288743
30
0
41
1
10
-31.080257104053
20
-19.9514324154455
30
0
41
1
10
-31.0829973921192
20
-19.9203813292838
30
0
41
1
10
-31.0924641772114
20
-19.8262395233602
30
0
41
1
10
-31.1004220038533
20
-19.7622144791398
30
0
41
1
10
-31.1199564688366
20
-19.6313868500957
30
0
41
1
10
-31.1315270169387
20
-19.5645889397036
30
0
41
1
10
-31.1589044208934
20
-19.4277416325859
30
0
41
1
10
-31.1746935451899
20
-19.3577058453324
30
0
41
1
10
-31.2024754952608
20
-19.249506630899
30
0
41
1
10
-31.2124248807956
20
-19.2129116020516
30
0
41
1
10
-31.2339922209399
20
-19.1384408702742
30
0
41
1
10
-31.2456055269337
20
-19.1005687352884
30
0
41
1
10
-31.2709786311793
20
-19.0231769716377
30
0
41
1
10
-31.2847249717861
20
-18.9836676720971
30
0
41
1
10
-31.3076341494912
20
-18.9226463385897
30
0
41
1
10
-31.3156561629301
20
-18.9020099191336
30
0
41
1
10
-31.3326866023336
20
-18.8599799806347
30
0
41
1
10
-31.3417002622533
20
-18.8385764999576
30
0
41
1
10
-31.3608223753418
20
-18.795273475092
30
0
41
1
10
-31.370945482876
20
-18.7733251884508
30
0
41
1
10
-31.3927907938228
20
-18.7285842604351
30
0
41
1
10
-31.4044932816839
20
-18.7058020292678
30
0
41
1
10
-31.4239870332909
20
-18.6706043130993
30
0
41
1
10
-31.4308135055292
20
-18.6586974427097
30
0
41
1
10
-31.4453941233629
20
-18.6343971398105
30
0
41
1
10
-31.4530542422572
20
-18.6221573264868
30
0
41
1
10
-31.4653476313892
20
-18.6036028649064
30
0
41
1
10
-31.4695806420625
20
-18.5973852611451
30
0
41
1
10
-31.4783874629759
20
-18.5848674254359
30
0
41
1
10
-31.4829710051466
20
-18.5785556772672
30
0
41
1
10
-31.4924118347877
20
-18.5660460149061
30
0
41
1
10
-31.4972842123301
20
-18.5598250962613
30
0
41
1
10
-31.5074155755053
20
-18.5474695357936
30
0
41
1
10
-31.5127218227737
20
-18.5412827337066
30
0
41
1
10
-31.5235937264868
20
-18.5293017997566
30
0
41
1
10
-31.5291328199055
20
-18.5235319382213
30
0
41
1
10
-31.5404552063013
20
-18.5125145240027
30
0
41
1
10
-31.5462733934337
20
-18.507248824971
30
0
41
1
10
-31.5575893391612
20
-18.4978203702405
30
0
41
1
10
-31.5631560757221
20
-18.4935853099655
30
0
41
1
10
-31.5741129152169
20
-18.486042857664
30
0
41
1
10
-31.5793773870245
20
-18.4828250180028
30
0
41
1
10
-31.5893628312426
20
-18.4774075684557
30
0
41
1
10
-31.5941206124759
20
-18.4751832342692
30
0
41
1
10
-31.6032509622766
20
-18.4715287801371
30
0
41
1
10
-31.6075259110808
20
-18.4701363725631
30
0
41
1
10
-31.6196892919796
20
-18.4669404158795
30
0
41
1
10
-31.6269318176932
20
-18.4661001055432
30
0
41
1
10
-31.6403099849975
20
-18.4660679744845
30
0
41
1
10
-31.6463246677905
20
-18.4668858294531
30
0
41
1
10
-31.6574273993908
20
-18.469593734604
30
0
41
1
10
-31.6625210547537
20
-18.4714922786135
30
0
41
1
10
-31.6768216409588
20
-18.4783543828115
30
0
41
1
10
-31.685066241096
20
-18.4844629399589
30
0
41
1
10
-31.6962699976865
20
-18.4950097031547
30
0
41
1
10
-31.6998073256464
20
-18.4987693542863
30
0
41
1
10
-31.7065160959733
20
-18.506635259966
30
0
41
1
10
-31.7096923384171
20
-18.5107457302965
30
0
41
1
10
-31.7187819764966
20
-18.5235146894653
30
0
41
1
10
-31.7242610332235
20
-18.5326059928097
30
0
41
1
10
-31.7394465274052
20
-18.561127185825
30
0
41
1
10
-31.7479242105625
20
-18.5817815172251
30
0
41
1
10
-31.7628979469376
20
-18.6250648550229
30
0
41
1
10
-31.7693718252074
20
-18.6477159585411
30
0
41
1
10
-31.780936775267
20
-18.694396118811
30
0
41
1
10
-31.7860209140009
20
-18.7184320842855
30
0
41
1
10
-31.7997361246821
20
-18.7920717910878
30
0
41
1
10
-31.80685805216
20
-18.8432011946924
30
0
41
1
10
-31.8186080449852
20
-18.9475492027825
30
0
41
1
10
-31.8232228476894
20
-19.0008435080291
30
0
41
1
10
-31.8307411640382
20
-19.1089534395517
30
0
41
1
10
-31.8336362373556
20
-19.1637765692049
30
0
41
1
10
-31.8381282388223
20
-19.2745768682289
30
0
41
1
10
-31.8397219150848
20
-19.3305569284987
30
0
41
1
10
-31.8418206348239
20
-19.4434848340782
30
0
41
1
10
-31.842324491537
20
-19.5004337344101
30
0
41
1
10
-31.8423156651183
20
-19.557838405569
30
0
0
SPLINE
5
1AB
100
AcDbEntity
8
SK1
62
256
6
ByLayer
370
18
48
1
60
0
100
AcDbSpline
70
4
71
3
72
18
73
14
40
0
40
0
40
0
40
0
40
0.250000000000001
40
0.250000000000001
40
0.500000000000002
40
0.500000000000002
40
0.750000000000003
40
0.750000000000003
40
0.875000000000004
40
0.875000000000004
40
0.937500000000002
40
0.937500000000002
40
1
40
1
40
1
40
1
41
1
10
-30.7600449304182
20
-20.8343104848559
30
0
41
1
10
-30.8005304147289
20
-20.7918881716243
30
0
41
1
10
-30.8391903518072
20
-20.7469260622845
30
0
41
1
10
-30.9108217629842
20
-20.6529591719931
30
0
41
1
10
-30.9438142125759
20
-20.6039429159936
30
0
41
1
10
-31.0007051028079
20
-20.5035329800827
30
0
41
1
10
-31.0245900033694
20
-20.4521521286422
30
0
41
1
10
-31.0497392687941
20
-20.3751260560866
30
0
41
1
10
-31.0563287190667
20
-20.3494639188074
30
0
41
1
10
-31.0630301448817
20
-20.3111943798816
30
0
41
1
10
-31.0647340773198
20
-20.2984745535365
30
0
41
1
10
-31.0670149098383
20
-20.2731305775175
30
0
41
1
10
-31.0675855446106
20
-20.2605639288718
30
0
41
1
10
-31.0675798041817
20
-20.2481331121862
30
0
0
SPLINE
5
1AC
100
AcDbEntity
8
SK1
62
256
6
ByLayer
370
18
48
1
60
0
100
AcDbSpline
70
4
71
3
72
88
73
84
40
0
40
0
40
0
40
0
40
0.0056328832828738
40
0.0056328832828738
40
0.0368806016505166
40
0.0368806016505166
40
0.0681283200181593
40
0.0681283200181593
40
0.0993760383858021
40
0.0993760383858021
40
0.130623756753445
40
0.130623756753445
40
0.146247615937266
40
0.154059545529177
40
0.154059545529177
40
0.161871475121087
40
0.161871475121087
40
0.19311919348873
40
0.19311919348873
40
0.224366911856373
40
0.255614630224015
40
0.255614630224015
40
0.286862348591658
40
0.286862348591658
40
0.3181100669593
40
0.349357785326943
40
0.349357785326943
40
0.357169714918854
40
0.357169714918854
40
0.364981644510765
40
0.364981644510765
40
0.380605503694586
40
0.380605503694586
40
0.411853222062229
40
0.443100940429871
40
0.474348658797514
40
0.474348658797514
40
0.482160588389424
40
0.482160588389424
40
0.489972517981335
40
0.505596377165156
40
0.505596377165156
40
0.536844095532798
40
0.56809181390044
40
0.56809181390044
40
0.58371567308426
40
0.591527602676171
40
0.591527602676171
40
0.599339532268081
40
0.599339532268081
40
0.630587250635722
40
0.661834969003362
40
0.661834969003362
40
0.693082687371004
40
0.693082687371004
40
0.708706546554824
40
0.708706546554824
40
0.716518476146734
40
0.716518476146734
40
0.724330405738644
40
0.755578124106285
40
0.786825842473926
40
0.786825842473926
40
0.818073560841566
40
0.818073560841566
40
0.825885490433476
40
0.825885490433476
40
0.833697420025386
40
0.833697420025386
40
0.849321279209207
40
0.849321279209207
40
0.880568997576847
40
0.880568997576847
40
0.911816715944488
40
0.911816715944488
40
0.927440575128308
40
0.927440575128308
40
0.935252504720219
40
0.935252504720219
40
0.943064434312129
40
0.943064434312129
40
0.97431215267977
40
1
40
1
40
1
40
1
41
1
10
-4.30168640693695
20
24.1051159176803
30
0
41
1
10
-4.30169287327173
20
24.1051146981997
30
0
41
1
10
-4.30195741399213
20
24.1050605500389
30
0
41
1
10
-4.30536782734261
20
24.1043613496406
30
0
41
1
10
-4.31614758031967
20
24.1021487344219
30
0
41
1
10
-4.35340135419196
20
24.0945493849193
30
0
41
1
10
-4.37987586635512
20
24.0891622982116
30
0
41
1
10
-4.44891908335143
20
24.0752540951658
30
0
41
1
10
-4.49082342534541
20
24.0668680204953
30
0
41
1
10
-4.58858282604818
20
24.0475686672465
30
0
41
1
10
-4.64444078155667
20
24.0366546474642
30
0
41
1
10
-4.73844404924647
20
24.0186053787488
30
0
41
1
10
-4.78800454267861
20
24.0091607772998
30
0
41
1
10
-4.84140347098595
20
23.9991239778133
30
0
41
1
10
-4.87785826413317
20
23.9923052546659
30
0
41
1
10
-4.89653960027903
20
23.9888272932572
30
0
41
1
10
-4.99173167448069
20
23.9711959322813
30
0
41
1
10
-5.07345418982887
20
23.9563429896812
30
0
41
1
10
-5.24740476227412
20
23.9255231932856
30
0
41
1
10
-5.43186504620503
20
23.8935884692672
30
0
41
1
10
-5.63680740863747
20
23.860102163332
30
0
41
1
10
-5.8520397693638
20
23.8261603582413
30
0
41
1
10
-5.96329638868777
20
23.8092009654145
30
0
41
1
10
-6.19248673236713
20
23.7756466629153
30
0
41
1
10
-6.42843812096746
20
23.7424444263185
30
0
41
1
10
-6.67763908592315
20
23.7104975621619
30
0
41
1
10
-6.83756376255465
20
23.6910903973563
30
0
41
1
10
-6.8697578623145
20
23.6872369385211
30
0
41
1
10
-6.93456709288282
20
23.6795901478982
30
0
41
1
10
-6.96722049481698
20
23.6757924910873
30
0
41
1
10
-7.06542972331471
20
23.6645400714811
30
0
41
1
10
-7.13127877974433
20
23.6572200536679
30
0
41
1
10
-7.32993264071047
20
23.6358334985277
30
0
41
1
10
-7.59774955390748
20
23.6088486303023
30
0
41
1
10
-8.00814620129329
20
23.5734005827058
30
0
41
1
10
-8.28756103674436
20
23.5534012244308
30
0
41
1
10
-8.46407198051794
20
23.5421243095026
30
0
41
1
10
-8.49947362982947
20
23.5399299494132
30
0
41
1
10
-8.57011605624487
20
23.5356859859621
30
0
41
1
10
-8.67596912924523
20
23.5295286298487
30
0
41
1
10
-8.78149389774403
20
23.5239938959418
30
0
41
1
10
-8.99211137104625
20
23.5137463672139
30
0
41
1
10
-9.27178423802962
20
23.5022744878207
30
0
41
1
10
-9.54916793577307
20
23.495097301709
30
0
41
1
10
-9.75632742419704
20
23.4912897893956
30
0
41
1
10
-9.85968725372067
20
23.4897798453114
30
0
41
1
10
-9.96270970268506
20
23.4888535724898
30
0
41
1
10
-10.0313153038411
20
23.4883649467269
30
0
41
1
10
-10.0656252034762
20
23.4881849823938
30
0
41
1
10
-10.2363031957403
20
23.4876073519397
30
0
41
1
10
-10.5038418468566
20
23.4887333733928
30
0
41
1
10
-10.7605101095889
20
23.4934823130593
30
0
41
1
10
-11.0117058741089
20
23.4998104833313
30
0
41
1
10
-11.1345680915786
20
23.5037645043528
30
0
41
1
10
-11.3146131107252
20
23.5107053328383
30
0
41
1
10
-11.3739188052124
20
23.5131872031446
30
0
41
1
10
-11.4617826957789
20
23.5171398196357
30
0
41
1
10
-11.4909139860094
20
23.5184969051107
30
0
41
1
10
-11.548690092314
20
23.5212781537709
30
0
41
1
10
-11.6915745504052
20
23.5283836560045
30
0
41
1
10
-11.9349352689428
20
23.5424044329511
30
0
41
1
10
-12.1317688860196
20
23.5559372766504
30
0
41
1
10
-12.3186581544296
20
23.5696743005681
30
0
41
1
10
-12.4071325015711
20
23.5766454521324
30
0
41
1
10
-12.5111847229628
20
23.5852786082452
30
0
41
1
10
-12.5316672485766
20
23.5870011677319
30
0
41
1
10
-12.5719645232395
20
23.5904327471602
30
0
41
1
10
-12.5918036439564
20
23.5921439390935
30
0
41
1
10
-12.649958032955
20
23.5972189430162
30
0
41
1
10
-12.6870041217728
20
23.6005318083987
30
0
41
1
10
-12.793029641511
20
23.610202809527
30
0
41
1
10
-12.856909343449
20
23.6162927534537
30
0
41
1
10
-12.9710489508254
20
23.62747803454
30
0
41
1
10
-13.0213099416692
20
23.6325738325079
30
0
41
1
10
-13.0861551596527
20
23.6392727492728
30
0
41
1
10
-13.1060090734278
20
23.6413483233522
30
0
41
1
10
-13.1330725294575
20
23.6442008161261
30
0
41
1
10
-13.1416405258964
20
23.6451081679137
30
0
41
1
10
-13.1578543559826
20
23.6468317534131
30
0
41
1
10
-13.1654843884349
20
23.6476463125307
30
0
41
1
10
-13.2010817699801
20
23.6514592160886
30
0
41
1
10
-13.2384655566052
20
23.6555344914631
30
0
41
1
10
-13.2500534772273
20
23.6568087808624
30
0
41
1
10
-13.2500009605637
20
23.6568035077565
30
0
0
SPLINE
5
1AD
100
AcDbEntity
8
SK1
62
256
6
ByLayer
370
18
48
1
60
0
100
AcDbSpline
70
4
71
3
72
99
73
95
40
0
40
0
40
0
40
0
40
0.0087722597899861
40
0.0087722597899861
40
0.0165824366643668
40
0.0165824366643668
40
0.0243926135387474
40
0.0243926135387474
40
0.0556333210362701
40
0.0556333210362701
40
0.0868740285337927
40
0.0868740285337927
40
0.102494382282554
40
0.102494382282554
40
0.110304559156935
40
0.110304559156935
40
0.118114736031316
40
0.118114736031316
40
0.149355443528838
40
0.149355443528838
40
0.180596151026361
40
0.180596151026361
40
0.196216504775123
40
0.196216504775123
40
0.204026681649503
40
0.204026681649503
40
0.211836858523884
40
0.211836858523884
40
0.243077566021406
40
0.243077566021406
40
0.274318273518929
40
0.274318273518929
40
0.28993862726769
40
0.29774880414207
40
0.29774880414207
40
0.305558981016451
40
0.305558981016451
40
0.336799688513974
40
0.336799688513974
40
0.368040396011497
40
0.39928110350902
40
0.39928110350902
40
0.414901457257781
40
0.414901457257781
40
0.430521811006543
40
0.430521811006543
40
0.461762518504067
40
0.493003226001591
40
0.493003226001591
40
0.508623579750352
40
0.516433756624733
40
0.516433756624733
40
0.524243933499114
40
0.524243933499114
40
0.555484640996636
40
0.586725348494159
40
0.617966055991681
40
0.617966055991681
40
0.633586409740443
40
0.633586409740443
40
0.649206763489204
40
0.649206763489204
40
0.680447470986726
40
0.711688178484249
40
0.711688178484249
40
0.742928885981771
40
0.742928885981771
40
0.758549239730533
40
0.758549239730533
40
0.766359416604913
40
0.766359416604913
40
0.774169593479294
40
0.805410300976817
40
0.836651008474339
40
0.836651008474339
40
0.867891715971862
40
0.867891715971862
40
0.875701892846242
40
0.875701892846242
40
0.883512069720623
40
0.883512069720623
40
0.899132423469384
40
0.899132423469384
40
0.930373130966907
40
0.930373130966907
40
0.961613838464429
40
0.961613838464429
40
0.977234192213191
40
0.977234192213191
40
0.985044369087571
40
0.985044369087571
40
0.992854545961952
40
0.992854545961952
40
1
40
1
40
1
40
1
41
1
10
-13.2500000074636
20
-23.6568035702644
30
0
41
1
10
-13.2499853037228
20
-23.6568019482744
30
0
41
1
10
-13.2493451883681
20
-23.6567316733479
30
0
41
1
10
-13.2469365039879
20
-23.6564673089889
30
0
41
1
10
-13.2452991642845
20
-23.6562876585973
30
0
41
1
10
-13.2410429449998
20
-23.6558212498927
30
0
41
1
10
-13.238422655649
20
-23.6555343371857
30
0
41
1
10
-13.2228904369507
20
-23.6538365505641
30
0
41
1
10
-13.2027059118385
20
-23.6516353933438
30
0
41
1
10
-13.1472632100579
20
-23.6456924894018
30
0
41
1
10
-13.1120040591079
20
-23.6419504904621
30
0
41
1
10
-13.0477814830663
20
-23.6353053849914
30
0
41
1
10
-13.0244813481594
20
-23.6329185076143
30
0
41
1
10
-12.9866550651022
20
-23.629097813993
30
0
41
1
10
-12.9735673760034
20
-23.6277843087307
30
0
41
1
10
-12.9465940156617
20
-23.6250971100961
30
0
41
1
10
-12.9326897576672
20
-23.6237215317615
30
0
41
1
10
-12.8611124023998
20
-23.6166960900214
30
0
41
1
10
-12.7972883829372
20
-23.6106036598319
30
0
41
1
10
-12.6570409007133
20
-23.5977871756569
30
0
41
1
10
-12.5806158295878
20
-23.5910625891893
30
0
41
1
10
-12.4566140370219
20
-23.5807407804376
30
0
41
1
10
-12.4137163910493
20
-23.5772611251988
30
0
41
1
10
-12.3470080832681
20
-23.5720144807512
30
0
41
1
10
-12.3243587430964
20
-23.5702596739445
30
0
41
1
10
-12.2785103065266
20
-23.5667647000925
30
0
41
1
10
-12.2552856904668
20
-23.5650224806888
30
0
41
1
10
-12.1376841190669
20
-23.5563507829001
30
0
41
1
10
-12.0388838172258
20
-23.5495398741343
30
0
41
1
10
-11.8322424541654
20
-23.5364971188834
30
0
41
1
10
-11.7244000562005
20
-23.5302647562708
30
0
41
1
10
-11.5559397289975
20
-23.5215939255662
30
0
41
1
10
-11.4700325268677
20
-23.5174279856823
30
0
41
1
10
-11.3815971444373
20
-23.5135634252246
30
0
41
1
10
-11.3220754526997
20
-23.5110593916302
30
0
41
1
10
-11.292040288245
20
-23.5098440427786
30
0
41
1
10
-11.1412090975778
20
-23.5039896941272
30
0
41
1
10
-11.0178624240849
20
-23.4999929024078
30
0
41
1
10
-10.7660399087142
20
-23.4935952418476
30
0
41
1
10
-10.5090870676334
20
-23.4887940776504
30
0
41
1
10
-10.2420386902451
20
-23.4876189889922
30
0
41
1
10
-10.0379253701214
20
-23.4882641360031
30
0
41
1
10
-9.96909745915053
20
-23.4887360245954
30
0
41
1
10
-9.83135291982146
20
-23.4902017560846
30
0
41
1
10
-9.76234395534391
20
-23.4911947338096
30
0
41
1
10
-9.55491657989549
20
-23.4949624386458
30
0
41
1
10
-9.27728095010185
20
-23.5020900472767
30
0
41
1
10
-8.99756793694368
20
-23.5135091808747
30
0
41
1
10
-8.78700252968954
20
-23.5237125008811
30
0
41
1
10
-8.68152435641585
20
-23.5292238822118
30
0
41
1
10
-8.57574943133041
20
-23.5353553168573
30
0
41
1
10
-8.50516629236199
20
-23.5395813403766
30
0
41
1
10
-8.46980183964928
20
-23.5417661028801
30
0
41
1
10
-8.29331585260806
20
-23.5530052448838
30
0
41
1
10
-8.01401881209088
20
-23.5729390326172
30
0
41
1
10
-7.60401258929518
20
-23.6082658901943
30
0
41
1
10
-7.3365835574412
20
-23.6351503889625
30
0
41
1
10
-7.13826597722017
20
-23.6564527074369
30
0
41
1
10
-7.07253642101861
20
-23.6637432476213
30
0
41
1
10
-6.9418441646939
20
-23.6786844046452
30
0
41
1
10
-6.87677097778635
20
-23.6863493221285
30
0
41
1
10
-6.68462051554097
20
-23.709619843392
30
0
41
1
10
-6.43547363472474
20
-23.741501597346
30
0
41
1
10
-6.20019551432104
20
-23.7745513711411
30
0
41
1
10
-5.97193167710208
20
-23.8079061106606
30
0
41
1
10
-5.86130586018855
20
-23.824736486798
30
0
41
1
10
-5.70084746445249
20
-23.8499869407451
30
0
41
1
10
-5.64827648052713
20
-23.8584043682081
30
0
41
1
10
-5.57083822625768
20
-23.8710008366057
30
0
41
1
10
-5.54527212997708
20
-23.8751931570183
30
0
41
1
10
-5.49491518416578
20
-23.8835134163765
30
0
41
1
10
-5.37077862375376
20
-23.9041842467823
30
0
41
1
10
-5.162978688686
20
-23.9401092886478
30
0
41
1
10
-5.00050606880194
20
-23.9695954701138
30
0
41
1
10
-4.84949796142111
20
-23.9975184722948
30
0
41
1
10
-4.77972332880707
20
-24.0106992370933
30
0
41
1
10
-4.70013346056197
20
-24.0259579533634
30
0
41
1
10
-4.68459802487293
20
-24.0289486829332
30
0
41
1
10
-4.65430866683162
20
-24.0348014035447
30
0
41
1
10
-4.63961951812659
20
-24.0376508796205
30
0
41
1
10
-4.59697075937375
20
-24.0459525421521
30
0
41
1
10
-4.57040176631843
20
-24.0511632490484
30
0
41
1
10
-4.49623484469878
20
-24.0657907722911
30
0
41
1
10
-4.45416284893422
20
-24.074203866331
30
0
41
1
10
-4.38483973098327
20
-24.0881571163304
30
0
41
1
10
-4.35758717148457
20
-24.0936977199571
30
0
41
1
10
-4.32823260598512
20
-24.0996826801603
30
0
41
1
10
-4.32037224999968
20
-24.101289709509
30
0
41
1
10
-4.31155750899617
20
-24.1030935224463
30
0
41
1
10
-4.30911679194929
20
-24.1035933832659
30
0
41
1
10
-4.30526526658649
20
-24.1043824412738
30
0
41
1
10
-4.30384855157045
20
-24.104672847056
30
0
41
1
10
-4.30209930134744
20
-24.105031451553
30
0
41
1
10
-4.3016836844082
20
-24.1051165319546
30
0
41
1
10
-4.30168573447776
20
-24.1051159820174
30
0
0
SPLINE
5
1AE
100
AcDbEntity
8
SK1
62
256
6
ByLayer
370
18
48
1
60
0
100
AcDbSpline
70
4
71
3
72
48
73
44
40
0
40
0
40
0
40
0
40
0.125000000000003
40
0.125000000000003
40
0.187500000000005
40
0.187500000000005
40
0.250000000000006
40
0.250000000000006
40
0.375000000000009
40
0.375000000000009
40
0.500000000000012
40
0.500000000000012
40
0.562500000000014
40
0.562500000000014
40
0.593750000000014
40
0.625000000000014
40
0.625000000000014
40
0.687500000000016
40
0.687500000000016
40
0.750000000000018
40
0.750000000000018
40
0.812500000000019
40
0.812500000000019
40
0.84375000000002
40
0.84375000000002
40
0.87500000000002
40
0.87500000000002
40
0.90625000000002
40
0.90625000000002
40
0.92187500000002
40
0.92187500000002
40
0.937500000000019
40
0.937500000000019
40
0.945312500000017
40
0.945312500000017
40
0.953125000000015
40
0.953125000000015
40
0.96875000000001
40
0.984375000000005
40
0.984375000000005
40
0.992187500000003
40
0.992187500000003
40
1
40
1
40
1
40
1
41
1
10
-25.8
20
21.8338164768251
30
0
41
1
10
-25.8
20
21.7915616932458
30
0
41
1
10
-25.8090351025927
20
21.7478886231866
30
0
41
1
10
-25.8346249276201
20
21.6803274915862
30
0
41
1
10
-25.8451736895935
20
21.6574593703769
30
0
41
1
10
-25.8701328331009
20
21.6110688835369
30
0
41
1
10
-25.8844279552089
20
21.5877568927844
30
0
41
1
10
-25.9323193271322
20
21.5174811379225
30
0
41
1
10
-25.9708950458691
20
21.4701766351094
30
0
41
1
10
-26.0597609446709
20
21.3747376968518
30
0
41
1
10
-26.110046951095
20
21.3266019341388
30
0
41
1
10
-26.1937594442119
20
21.2538676785148
30
0
41
1
10
-26.2230510956807
20
21.2295349064355
30
0
41
1
10
-26.2691019693368
20
21.1929233351457
30
0
41
1
10
-26.3005081848897
20
21.1684781899147
30
0
41
1
10
-26.333365133678
20
21.143967917257
30
0
41
1
10
-26.3836133703914
20
21.1072837145488
30
0
41
1
10
-26.4184363723703
20
21.0828939039856
30
0
41
1
10
-26.4910775441697
20
21.0343527408063
30
0
41
1
10
-26.5289288892006
20
21.0101707773758
30
0
41
1
10
-26.6081703997843
20
20.9624296091495
30
0
41
1
10
-26.64952079047
20
20.9388574261358
30
0
41
1
10
-26.7155571452228
20
20.9043825860995
30
0
41
1
10
-26.7381850495635
20
20.8930763850153
30
0
41
1
10
-26.7849643407706
20
20.8710565078676
30
0
41
1
10
-26.8091240203117
20
20.8603320584472
30
0
41
1
10
-26.8596629929598
20
20.8397526331818
30
0
41
1
10
-26.8860248460639
20
20.8298902068594
30
0
41
1
10
-26.9281901973078
20
20.8161652083245
30
0
41
1
10
-26.9425890117265
20
20.8118063042743
30
0
41
1
10
-26.9720526096038
20
20.8036833762741
30
0
41
1
10
-26.9871413088019
20
20.7999110001801
30
0
41
1
10
-27.0104414007835
20
20.7947971843858
30
0
41
1
10
-27.0183196500098
20
20.793183683286
30
0
41
1
10
-27.034326472393
20
20.7901617507431
30
0
41
1
10
-27.0424360016077
20
20.7887581757635
30
0
41
1
10
-27.0667844525407
20
20.7849461963152
30
0
41
1
10
-27.0995297022306
20
20.7808835265937
30
0
41
1
10
-27.1328814273506
20
20.7790296636822
30
0
41
1
10
-27.1581348648263
20
20.778512286374
30
0
41
1
10
-27.1666027794188
20
20.7784864100351
30
0
41
1
10
-27.1833765602225
20
20.7787216300466
30
0
41
1
10
-27.1917124319091
20
20.7789815897089
30
0
41
1
10
-27.2000000000002
20
20.7793761248439
30
0
0
SPLINE
5
1AF
100
AcDbEntity
8
SK1
62
256
6
ByLayer
370
18
48
1
60
0
100
AcDbSpline
70
4
71
3
72
16
73
12
40
0
40
0
40
0
40
0
40
0.125
40
0.125
40
0.25
40
0.25
40
0.5
40
0.5
40
0.75
40
0.75
40
1
40
1
40
1
40
1
41
1
10
-27.2
20
20.7793761248443
30
0
41
1
10
-27.3465084704316
20
20.7863507570322
30
0
41
1
10
-27.4933392710782
20
20.7923486729526
30
0
41
1
10
-27.7874608596438
20
20.8029531916225
30
0
41
1
10
-27.9347534192272
20
20.8075544019376
30
0
41
1
10
-28.3771606158457
20
20.819759502092
30
0
41
1
10
-28.6727964516897
20
20.825790183271
30
0
41
1
10
-29.264977486922
20
20.8351189775986
30
0
41
1
10
-29.5615295006588
20
20.8383963493286
30
0
41
1
10
-30.1552999798452
20
20.842957994204
30
0
41
1
10
-30.4525208487845
20
20.8442349515119
30
0
41
1
10
-30.75
20
20.8447435124634
30
0
0
SPLINE
5
1B0
100
AcDbEntity
8
SK1
62
256
6
ByLayer
370
18
48
1
60
0
100
AcDbSpline
70
4
71
3
72
8
73
4
40
0
40
0
40
0
40
0
40
1
40
1
40
1
40
1
41
1
10
-30.7600449304189
20
20.8343104848551
30
0
41
1
10
-30.7567195771121
20
20.8377949233395
30
0
41
1
10
-30.7533711052716
20
20.8412726012232
30
0
41
1
10
-30.7500000000001
20
20.8447435124634
30
0
0
SPLINE
5
1B1
100
AcDbEntity
8
SK1
62
256
6
ByLayer
370
18
48
1
60
0
100
AcDbSpline
70
4
71
3
72
8
73
4
40
0
40
0
40
0
40
0
40
1
40
1
40
1
40
1
41
1
10
-30.7600449304182
20
-20.8343104848559
30
0
41
1
10
-30.7567195771116
20
-20.83779492334
30
0
41
1
10
-30.7533711052713
20
-20.8412726012235
30
0
41
1
10
-30.75
20
-20.8447435124635
30
0
0
SPLINE
5
1B2
100
AcDbEntity
8
SK1
62
256
6
ByLayer
370
18
48
1
60
0
100
AcDbSpline
70
4
71
3
72
48
73
44
40
0
40
0
40
0
40
0
40
0.0078125000000016
40
0.0078125000000016
40
0.011718750000002
40
0.011718750000002
40
0.0156250000000023
40
0.0156250000000023
40
0.0234375000000031
40
0.0234375000000031
40
0.0273437500000029
40
0.0273437500000029
40
0.0312500000000027
40
0.0312500000000027
40
0.0468750000000026
40
0.0468750000000026
40
0.0546875000000023
40
0.0546875000000023
40
0.062500000000002
40
0.062500000000002
40
0.0781250000000013
40
0.0781250000000013
40
0.0937500000000006
40
0.0937500000000006
40
0.125000000000001
40
0.125000000000001
40
0.156250000000001
40
0.156250000000001
40
0.187500000000001
40
0.187500000000001
40
0.250000000000002
40
0.250000000000002
40
0.312500000000003
40
0.312500000000003
40
0.375000000000003
40
0.375000000000003
40
0.500000000000003
40
0.500000000000003
40
0.625000000000002
40
0.625000000000002
40
0.750000000000001
40
0.750000000000001
40
1
40
1
40
1
40
1
41
1
10
-25.5425277000733
20
-20.5310987896625
30
0
41
1
10
-25.5424866524493
20
-20.5377595157758
30
0
41
1
10
-25.5443996177116
20
-20.5441621349729
30
0
41
1
10
-25.5498260363247
20
-20.5534283165569
30
0
41
1
10
-25.5520760790828
20
-20.5564759113347
30
0
41
1
10
-25.5573101036937
20
-20.5623915967856
30
0
41
1
10
-25.5602721094709
20
-20.5652422340536
30
0
41
1
10
-25.5700357633368
20
-20.5735214268276
30
0
41
1
10
-25.5777075299035
20
-20.5786795995787
30
0
41
1
10
-25.5905272785955
20
-20.5860091477294
30
0
41
1
10
-25.5950327425297
20
-20.5883884875389
30
0
41
1
10
-25.6043172552082
20
-20.5929713908391
30
0
41
1
10
-25.6091076136298
20
-20.5951821780027
30
0
41
1
10
-25.6336877859025
20
-20.6058938697355
30
0
41
1
10
-25.65530483524
20
-20.6133995829618
30
0
41
1
10
-25.6894552907457
20
-20.6237187962718
30
0
41
1
10
-25.7011675499744
20
-20.6270034036479
30
0
41
1
10
-25.7248910903239
20
-20.6332595576441
30
0
41
1
10
-25.736907523363
20
-20.6362337758315
30
0
41
1
10
-25.7733299679822
20
-20.6447852445169
30
0
41
1
10
-25.7981045047198
20
-20.6499959064268
30
0
41
1
10
-25.8483407330244
20
-20.6597337696669
30
0
41
1
10
-25.8738055279616
20
-20.6642578831378
30
0
41
1
10
-25.9509783769488
20
-20.6770560493819
30
0
41
1
10
-26.0034518762886
20
-20.6845688821774
30
0
41
1
10
-26.1096994215092
20
-20.6983016062924
30
0
41
1
10
-26.1635670288404
20
-20.7045185894087
30
0
41
1
10
-26.2717116976341
20
-20.7159696930635
30
0
41
1
10
-26.3260167846636
20
-20.7212054554966
30
0
41
1
10
-26.4894487871299
20
-20.7358258109984
30
0
41
1
10
-26.5990835328444
20
-20.7441422469167
30
0
41
1
10
-26.8192048384954
20
-20.7589852207331
30
0
41
1
10
-26.9296992743999
20
-20.7654951651218
30
0
41
1
10
-27.1512979175437
20
-20.7772351363017
30
0
41
1
10
-27.2624047508887
20
-20.7824596302222
30
0
41
1
10
-27.5964205203508
20
-20.7966754914719
30
0
41
1
10
-27.8200133978856
20
-20.8042331062643
30
0
41
1
10
-28.2683752278496
20
-20.8168899057133
30
0
41
1
10
-28.4932076423442
20
-20.821969912551
30
0
41
1
10
-28.943448072148
20
-20.8303447229384
30
0
41
1
10
-29.1688306799268
20
-20.8336327789899
30
0
41
1
10
-29.8455774169519
20
-20.8414517215489
30
0
41
1
10
-30.2975310572492
20
-20.8439699858667
30
0
41
1
10
-30.7499999999995
20
-20.8447435124654
30
0
0
SPLINE
5
1B3
100
AcDbEntity
8
SK1
62
256
6
ByLayer
370
18
48
1
60
0
100
AcDbSpline
70
4
71
3
72
39
73
35
40
0
40
0
40
0
40
0
40
0.125000000000001
40
0.125000000000001
40
0.250000000000003
40
0.250000000000003
40
0.312500000000003
40
0.312500000000003
40
0.375000000000004
40
0.375000000000004
40
0.500000000000006
40
0.500000000000006
40
0.562500000000007
40
0.562500000000007
40
0.625000000000007
40
0.625000000000007
40
0.687500000000008
40
0.687500000000008
40
0.750000000000009
40
0.750000000000009
40
0.765625000000008
40
0.765625000000008
40
0.781250000000007
40
0.812500000000005
40
0.812500000000005
40
0.875000000000004
40
0.875000000000004
40
0.890625000000003
40
0.890625000000003
40
0.906250000000002
40
0.906250000000002
40
0.9375
40
0.9375
40
1
40
1
40
1
40
1
41
1
10
-23.2
20
-19.4725065681035
30
0
41
1
10
-23.3288822760823
20
-19.5016611109117
30
0
41
1
10
-23.4566085328625
20
-19.5317405045092
30
0
41
1
10
-23.709213430336
20
-19.5941774716457
30
0
41
1
10
-23.8340962494108
20
-19.6265317023516
30
0
41
1
10
-24.01870828378
20
-19.677232886736
30
0
41
1
10
-24.0797913868924
20
-19.694496688762
30
0
41
1
10
-24.200915979195
20
-19.7298576158014
30
0
41
1
10
-24.2609773696519
20
-19.7479623878937
30
0
41
1
10
-24.438487808556
20
-19.8034487178427
30
0
41
1
10
-24.5535683637336
20
-19.8420607367676
30
0
41
1
10
-24.7196027575472
20
-19.9032543323204
30
0
41
1
10
-24.773842202661
20
-19.9242019114612
30
0
41
1
10
-24.8796917387139
20
-19.9674046998997
30
0
41
1
10
-24.9313039673144
20
-19.9896588460959
30
0
41
1
10
-25.0313347407062
20
-20.0357554210027
30
0
41
1
10
-25.0797571435845
20
-20.0595959310099
30
0
41
1
10
-25.1726098615666
20
-20.1092622957197
30
0
41
1
10
-25.2170477986618
20
-20.1350843598542
30
0
41
1
10
-25.2693535347922
20
-20.1689740946029
30
0
41
1
10
-25.2796684139004
20
-20.1758452837683
30
0
41
1
10
-25.2998506982645
20
-20.1896964353786
30
0
41
1
10
-25.3294396013906
20
-20.2106251900732
30
0
41
1
10
-25.3568842676044
20
-20.2320301629567
30
0
41
1
10
-25.4086340830928
20
-20.2755373707948
30
0
41
1
10
-25.4389691743767
20
-20.3054671422381
30
0
41
1
10
-25.4704822938726
20
-20.3443020221435
30
0
41
1
10
-25.476462972097
20
-20.3521404997321
30
0
41
1
10
-25.4877430528608
20
-20.3679687608919
30
0
41
1
10
-25.4930447669561
20
-20.3759653754049
30
0
41
1
10
-25.5077499298599
20
-20.3999871517767
30
0
41
1
10
-25.5160024518013
20
-20.4161081023829
30
0
41
1
10
-25.5359144945262
20
-20.4648034817868
30
0
41
1
10
-25.5427334623993
20
-20.4977100970871
30
0
41
1
10
-25.5425277000733
20
-20.5310987896625
30
0
0
SPLINE
5
1B4
100
AcDbEntity
8
SK1
62
256
6
ByLayer
370
18
48
1
60
0
100
AcDbSpline
70
4
71
3
72
47
73
43
40
0
40
0
40
0
40
0
40
0.0156249999999988
40
0.0156249999999988
40
0.0234374999999986
40
0.0234374999999986
40
0.0312499999999983
40
0.0390624999999981
40
0.0390624999999981
40
0.0468749999999979
40
0.0468749999999979
40
0.0546874999999976
40
0.0546874999999976
40
0.0624999999999974
40
0.0624999999999974
40
0.0781249999999969
40
0.0781249999999969
40
0.0937499999999964
40
0.0937499999999964
40
0.124999999999997
40
0.124999999999997
40
0.156249999999998
40
0.156249999999998
40
0.187499999999999
40
0.187499999999999
40
0.249999999999998
40
0.249999999999998
40
0.312499999999998
40
0.312499999999998
40
0.374999999999997
40
0.374999999999997
40
0.437499999999997
40
0.437499999999997
40
0.499999999999996
40
0.499999999999996
40
0.624999999999997
40
0.624999999999997
40
0.749999999999998
40
0.749999999999998
40
0.874999999999999
40
0.874999999999999
40
1
40
1
40
1
40
1
41
1
10
-23.2
20
-19.4725065681035
30
0
41
1
10
-23.1876502058549
20
-19.4697129132037
30
0
41
1
10
-23.1748847628704
20
-19.4677095952295
30
0
41
1
10
-23.1549749737367
20
-19.466157639329
30
0
41
1
10
-23.1481913924222
20
-19.4658835478517
30
0
41
1
10
-23.1344191007228
20
-19.4658826701871
30
0
41
1
10
-23.1207360257474
20
-19.466426835575
30
0
41
1
10
-23.1072250219997
20
-19.4680222298313
30
0
41
1
10
-23.0937973918534
20
-19.4701267885901
30
0
41
1
10
-23.087121379511
20
-19.4714388483733
30
0
41
1
10
-23.0742011186608
20
-19.4744591367796
30
0
41
1
10
-23.0679075323669
20
-19.4761738220355
30
0
41
1
10
-23.055611409666
20
-19.4799600039438
30
0
41
1
10
-23.0495832603172
20
-19.4820417325072
30
0
41
1
10
-23.0320849540334
20
-19.4886830221184
30
0
41
1
10
-23.0212468954272
20
-19.4936013220225
30
0
41
1
10
-23.0007372116292
20
-19.5041240369258
30
0
41
1
10
-22.9910708411293
20
-19.5097315965184
30
0
41
1
10
-22.9634130695384
20
-19.5273350722551
30
0
41
1
10
-22.9472402693794
20
-19.5397543365688
30
0
41
1
10
-22.9175875502966
20
-19.565252644424
30
0
41
1
10
-22.9041214995746
20
-19.5783630327019
30
0
41
1
10
-22.8790263084779
20
-19.6050439254086
30
0
41
1
10
-22.8673842425326
20
-19.6186491846309
30
0
41
1
10
-22.8347029279809
20
-19.6597296361821
30
0
41
1
10
-22.8159778532693
20
-19.6872751764782
30
0
41
1
10
-22.7821753639825
20
-19.7424251458119
30
0
41
1
10
-22.7671474854473
20
-19.770034592822
30
0
41
1
10
-22.7397133648155
20
-19.8252022723899
30
0
41
1
10
-22.7273210218034
20
-19.8527619238739
30
0
41
1
10
-22.7045649261451
20
-19.9077647027789
30
0
41
1
10
-22.6942063909283
20
-19.9352083672446
30
0
41
1
10
-22.6751447135572
20
-19.9899367440811
30
0
41
1
10
-22.6664374888591
20
-20.0172441643864
30
0
41
1
10
-22.642472352795
20
-20.0987162767482
30
0
41
1
10
-22.6293619628606
20
-20.1523533009539
30
0
41
1
10
-22.6075152914703
20
-20.25827682567
30
0
41
1
10
-22.5987947413251
20
-20.3105632252964
30
0
41
1
10
-22.5850628252629
20
-20.4137845853807
30
0
41
1
10
-22.5800572202371
20
-20.4647195203596
30
0
41
1
10
-22.5734309866201
20
-20.5652333068998
30
0
41
1
10
-22.5718123036207
20
-20.6148121662063
30
0
41
1
10
-22.571845502751
20
-20.6637088720743
30
0
0
SPLINE
5
1B5
100
AcDbEntity
8
SK1
62
256
6
ByLayer
370
18
48
1
60
0
100
AcDbSpline
70
4
71
3
72
32
73
28
40
0
40
0
40
0
40
0
40
0.0312499999999991
40
0.0312499999999991
40
0.0624999999999982
40
0.124999999999998
40
0.124999999999998
40
0.187499999999997
40
0.187499999999997
40
0.249999999999997
40
0.249999999999997
40
0.312499999999996
40
0.312499999999996
40
0.374999999999996
40
0.374999999999996
40
0.499999999999997
40
0.499999999999997
40
0.624999999999999
40
0.624999999999999
40
0.687499999999999
40
0.718749999999999
40
0.718749999999999
40
0.749999999999999
40
0.749999999999999
40
0.875
40
0.875
40
1
40
1
40
1
40
1
41
1
10
-22.5718455027507
20
-20.6637088720744
30
0
41
1
10
-22.5718561699141
20
-20.6794198001792
30
0
41
1
10
-22.5707069976313
20
-20.6952545580683
30
0
41
1
10
-22.5661848882145
20
-20.7266036490614
30
0
41
1
10
-22.5560980856071
20
-20.7732489028711
30
0
41
1
10
-22.5371368339948
20
-20.8188378574837
30
0
41
1
10
-22.5062120999328
20
-20.8788303309107
30
0
41
1
10
-22.4879468028426
20
-20.9084310154558
30
0
41
1
10
-22.4478950273711
20
-20.9669643221895
30
0
41
1
10
-22.4260976476506
20
-20.9959133431427
30
0
41
1
10
-22.3806910139218
20
-21.053139258797
30
0
41
1
10
-22.357080376793
20
-21.081417168411
30
0
41
1
10
-22.309202230497
20
-21.137418456526
30
0
41
1
10
-22.284930410253
20
-21.1651413111397
30
0
41
1
10
-22.2123773774188
20
-21.2475918157347
30
0
41
1
10
-22.1644141108179
20
-21.3016087266559
30
0
41
1
10
-22.0738164746222
20
-21.4080818281547
30
0
41
1
10
-22.0311367098062
20
-21.4605332412429
30
0
41
1
10
-21.9734283630935
20
-21.5381443266205
30
0
41
1
10
-21.9461426455466
20
-21.5766818028347
30
0
41
1
10
-21.9216111145438
20
-21.6148274767515
30
0
41
1
10
-21.9059132654255
20
-21.6401715074986
30
0
41
1
10
-21.8983866812794
20
-21.6528109985588
30
0
41
1
10
-21.8625911451137
20
-21.7156478281075
30
0
41
1
10
-21.8398505722067
20
-21.7647068671358
30
0
41
1
10
-21.8085681732411
20
-21.860310758369
30
0
41
1
10
-21.8
20
-21.9068562324133
30
0
41
1
10
-21.8
20
-21.9520839046692
30
0
0
LINE
5
8C
100
AcDbEntity
8
81
62
256
6
ByLayer
370
18
48
1
60
0
100
AcDbLine
10
110
20
0
30
0
11
115
21
0
31
0
39
0
210
0
220
0
230
1
0
LINE
5
8D
100
AcDbEntity
8
80
62
256
6
ByLayer
370
18
48
1
60
0
100
AcDbLine
10
0
20
0
30
0
11
-5
21
0
31
0
39
0
210
0
220
0
230
1
0
LINE
5
8E
100
AcDbEntity
8
4
62
256
6
ByLayer
370
18
48
0.05
60
0
100
AcDbLine
10
0
20
0
30
0
11
110
21
0
31
0
39
0
210
0
220
0
230
1
0
LINE
5
90
100
AcDbEntity
8
1
62
256
6
ByLayer
370
18
48
1
60
0
100
AcDbLine
10
25.45
20
30.431572
30
0
11
21.374612
21
30.431572
31
0
39
0
210
0
220
0
230
1
0
LINE
5
91
100
AcDbEntity
8
1
62
256
6
ByLayer
370
18
48
1
60
0
100
AcDbLine
10
16.075
20
27.827232
30
0
11
16.075
21
21.08584
31
0
39
0
210
0
220
0
230
1
0
LINE
5
92
100
AcDbEntity
8
1
62
256
6
ByLayer
370
18
48
1
60
0
100
AcDbLine
10
25.95
20
19.85
30
0
11
25.95
21
23.772219
31
0
39
0
210
0
220
0
230
1
0
LINE
5
93
100
AcDbEntity
8
1
62
256
6
ByLayer
370
18
48
1
60
0
100
AcDbLine
10
19.925
20
21.08584
30
0
11
19.925
21
19.85
31
0
39
0
210
0
220
0
230
1
0
LINE
5
94
100
AcDbEntity
8
1
62
256
6
ByLayer
370
18
48
1
60
0
100
AcDbLine
10
25.45
20
24.420041
30
0
11
21.374612
21
24.420041
31
0
39
0
210
0
220
0
230
1
0
LINE
5
95
100
AcDbEntity
8
1
62
256
6
ByLayer
370
18
48
1
60
0
100
AcDbLine
10
25.95
20
29.914221
30
0
11
25.95
21
23.772219
31
0
39
0
210
0
220
0
230
1
0
LINE
5
96
100
AcDbEntity
8
1
62
256
6
ByLayer
370
18
48
1
60
0
100
AcDbLine
10
25.45
20
24.420041
30
0
11
25.45
21
30.431572
31
0
39
0
210
0
220
0
230
1
0
LINE
5
97
100
AcDbEntity
8
1
62
256
6
ByLayer
370
18
48
1
60
0
100
AcDbLine
10
16.075
20
19.85
30
0
11
16.075
21
21.08584
31
0
39
0
210
0
220
0
230
1
0
LINE
5
98
100
AcDbEntity
8
1
62
256
6
ByLayer
370
18
48
1
60
0
100
AcDbLine
10
19.925
20
27.827232
30
0
11
19.925
21
21.08584
31
0
39
0
210
0
220
0
230
1
0
LINE
5
99
100
AcDbEntity
8
1
62
256
6
ByLayer
370
18
48
1
60
0
100
AcDbLine
10
21.374612
20
30.431572
30
0
11
21.374612
21
24.420041
31
0
39
0
210
0
220
0
230
1
0
LINE
5
9A
100
AcDbEntity
8
1
62
256
6
ByLayer
370
18
48
1
60
0
100
AcDbLine
10
19.525
20
26.4
30
0
11
16.475
21
26.4
31
0
39
0
210
0
220
0
230
1
0
LINE
5
9B
100
AcDbEntity
8
1
62
256
6
ByLayer
370
18
48
1
60
0
100
AcDbLine
10
19.525
20
-26.4
30
0
11
16.475
21
-26.4
31
0
39
0
210
0
220
0
230
1
0
LINE
5
9C
100
AcDbEntity
8
1
62
256
6
ByLayer
370
13
48
1
60
0
100
AcDbLine
10
12.19562
20
24.420041
30
0
11
12.19562
21
19.85
31
0
39
0
210
0
220
0
230
1
0
LINE
5
9D
100
AcDbEntity
8
1
62
256
6
ByLayer
370
13
48
1
60
0
100
AcDbLine
10
41.25
20
26.25
30
0
11
41.25
21
-26.25
31
0
39
0
210
0
220
0
230
1
0
LINE
5
9E
100
AcDbEntity
8
1
62
256
6
ByLayer
370
13
48
1
60
0
100
AcDbLine
10
26.95
20
26.25
30
0
11
26.95
21
-26.25
31
0
39
0
210
0
220
0
230
1
0
LINE
5
9F
100
AcDbEntity
8
1
62
256
6
ByLayer
370
13
48
1
60
0
100
AcDbLine
10
19.525
20
26.4
30
0
11
19.525
21
17.583481
31
0
39
0
210
0
220
0
230
1
0
LINE
5
A0
100
AcDbEntity
8
1
62
256
6
ByLayer
370
13
48
1
60
0
100
AcDbLine
10
19.525
20
16.230601
30
0
11
19.525
21
12.169258
31
0
39
0
210
0
220
0
230
1
0
LINE
5
A1
100
AcDbEntity
8
1
62
256
6
ByLayer
370
13
48
1
60
0
100
AcDbLine
10
19.525
20
10.607011
30
0
11
19.525
21
6.082561
31
0
39
0
210
0
220
0
230
1
0
LINE
5
A2
100
AcDbEntity
8
1
62
256
6
ByLayer
370
13
48
1
60
0
100
AcDbLine
10
19.525
20
4.397275
30
0
11
19.525
21
-4.397275
31
0
39
0
210
0
220
0
230
1
0
LINE
5
A3
100
AcDbEntity
8
1
62
256
6
ByLayer
370
13
48
1
60
0
100
AcDbLine
10
19.525
20
-6.082561
30
0
11
19.525
21
-10.607011
31
0
39
0
210
0
220
0
230
1
0
LINE
5
A4
100
AcDbEntity
8
1
62
256
6
ByLayer
370
13
48
1
60
0
100
AcDbLine
10
19.525
20
-12.169258
30
0
11
19.525
21
-16.230601
31
0
39
0
210
0
220
0
230
1
0
LINE
5
A5
100
AcDbEntity
8
1
62
256
6
ByLayer
370
13
48
1
60
0
100
AcDbLine
10
19.525
20
-17.583481
30
0
11
19.525
21
-26.4
31
0
39
0
210
0
220
0
230
1
0
LINE
5
A6
100
AcDbEntity
8
1
62
256
6
ByLayer
370
13
48
1
60
0
100
AcDbLine
10
16.475
20
-17.583481
30
0
11
16.475
21
-26.4
31
0
39
0
210
0
220
0
230
1
0
LINE
5
A7
100
AcDbEntity
8
1
62
256
6
ByLayer
370
13
48
1
60
0
100
AcDbLine
10
16.475
20
-12.169258
30
0
11
16.475
21
-16.230601
31
0
39
0
210
0
220
0
230
1
0
LINE
5
A8
100
AcDbEntity
8
1
62
256
6
ByLayer
370
13
48
1
60
0
100
AcDbLine
10
16.475
20
-6.082561
30
0
11
16.475
21
-10.607011
31
0
39
0
210
0
220
0
230
1
0
LINE
5
A9
100
AcDbEntity
8
1
62
256
6
ByLayer
370
13
48
1
60
0
100
AcDbLine
10
16.475
20
4.397275
30
0
11
16.475
21
-4.397275
31
0
39
0
210
0
220
0
230
1
0
LINE
5
AA
100
AcDbEntity
8
1
62
256
6
ByLayer
370
13
48
1
60
0
100
AcDbLine
10
16.475
20
10.607011
30
0
11
16.475
21
6.082561
31
0
39
0
210
0
220
0
230
1
0
LINE
5
AB
100
AcDbEntity
8
1
62
256
6
ByLayer
370
13
48
1
60
0
100
AcDbLine
10
16.475
20
16.230601
30
0
11
16.475
21
12.169258
31
0
39
0
210
0
220
0
230
1
0
LINE
5
AC
100
AcDbEntity
8
1
62
256
6
ByLayer
370
13
48
1
60
0
100
AcDbLine
10
16.475
20
26.4
30
0
11
16.475
21
17.583481
31
0
39
0
210
0
220
0
230
1
0
LINE
5
AD
100
AcDbEntity
8
1
62
256
6
ByLayer
370
18
48
1
60
0
100
AcDbLine
10
16.075
20
19.85
30
0
11
16.075
21
-27.519445
31
0
39
0
210
0
220
0
230
1
0
LINE
5
AE
100
AcDbEntity
8
1
62
256
6
ByLayer
370
18
48
1
60
0
100
AcDbLine
10
0
20
-30.97
30
0
11
0
21
30.97
31
0
39
0
210
0
220
0
230
1
0
LINE
5
AF
100
AcDbEntity
8
1
62
256
6
ByLayer
370
18
48
1
60
0
100
AcDbLine
10
25.95
20
19.85
30
0
11
25.95
21
-29.628122
31
0
39
0
210
0
220
0
230
1
0
LINE
5
B0
100
AcDbEntity
8
1
62
256
6
ByLayer
370
18
48
1
60
0
100
AcDbLine
10
0.5
20
-31.47
30
0
11
0.5
21
31.47
31
0
39
0
210
0
220
0
230
1
0
LINE
5
B1
100
AcDbEntity
8
1
62
256
6
ByLayer
370
18
48
1
60
0
100
AcDbLine
10
4.95
20
-31.453547
30
0
11
4.95
21
-31.47
31
0
39
0
210
0
220
0
230
1
0
LINE
5
B2
100
AcDbEntity
8
1
62
256
6
ByLayer
370
18
48
1
60
0
100
AcDbLine
10
14.625388
20
-30.150383
30
0
11
12.95
21
-30.150383
31
0
39
0
210
0
220
0
230
1
0
LINE
5
B3
100
AcDbEntity
8
1
62
256
6
ByLayer
370
18
48
1
60
0
100
AcDbLine
10
14.625388
20
-30.150383
30
0
11
14.625388
21
19.85
31
0
39
0
210
0
220
0
230
1
0
LINE
5
B4
100
AcDbEntity
8
1
62
256
6
ByLayer
370
18
48
1
60
0
100
AcDbLine
10
14.625388
20
19.85
30
0
11
4.968215
21
19.85
31
0
39
0
210
0
220
0
230
1
0
LINE
5
B5
100
AcDbEntity
8
1
62
256
6
ByLayer
370
18
48
1
60
0
100
AcDbLine
10
14.625388
20
24.420041
30
0
11
12.19562
21
24.420041
31
0
39
0
210
0
220
0
230
1
0
LINE
5
B6
100
AcDbEntity
8
1
62
256
6
ByLayer
370
18
48
1
60
0
100
AcDbLine
10
14.625388
20
24.420041
30
0
11
14.625388
21
30.431572
31
0
39
0
210
0
220
0
230
1
0
LINE
5
B7
100
AcDbEntity
8
1
62
256
6
ByLayer
370
18
48
1
60
0
100
AcDbLine
10
14.625388
20
30.431572
30
0
11
12.95
21
30.431572
31
0
39
0
210
0
220
0
230
1
0
LINE
5
B8
100
AcDbEntity
8
1
62
256
6
ByLayer
370
18
48
1
60
0
100
AcDbLine
10
25.45
20
-30.150383
30
0
11
21.374612
21
-30.150383
31
0
39
0
210
0
220
0
230
1
0
LINE
5
B9
100
AcDbEntity
8
1
62
256
6
ByLayer
370
18
48
1
60
0
100
AcDbLine
10
25.45
20
-30.150383
30
0
11
25.45
21
19.85
31
0
39
0
210
0
220
0
230
1
0
LINE
5
BA
100
AcDbEntity
8
1
62
256
6
ByLayer
370
18
48
1
60
0
100
AcDbLine
10
25.45
20
19.85
30
0
11
21.374612
21
19.85
31
0
39
0
210
0
220
0
230
1
0
LINE
5
BB
100
AcDbEntity
8
1
62
256
6
ByLayer
370
18
48
1
60
0
100
AcDbLine
10
21.374612
20
19.85
30
0
11
21.374612
21
-30.150383
31
0
39
0
210
0
220
0
230
1
0
LINE
5
BC
100
AcDbEntity
8
1
62
256
6
ByLayer
370
18
48
1
60
0
100
AcDbLine
10
19.925
20
19.85
30
0
11
19.925
21
-27.519445
31
0
39
0
210
0
220
0
230
1
0
LINE
5
BD
100
AcDbEntity
8
1
62
256
6
ByLayer
370
18
48
1
60
0
100
AcDbLine
10
110
20
24.5
30
0
11
110
21
-24.5
31
0
39
0
210
0
220
0
230
1
0
LINE
5
BE
100
AcDbEntity
8
1
62
256
6
ByLayer
370
18
48
1
60
0
100
AcDbLine
10
42.25
20
31.5
30
0
11
42.25
21
-31.5
31
0
39
0
210
0
220
0
230
1
0
LINE
5
BF
100
AcDbEntity
8
1
62
256
6
ByLayer
370
18
48
1
60
0
100
AcDbLine
10
102
20
-32.5
30
0
11
102
21
32.5
31
0
39
0
210
0
220
0
230
1
0
LINE
5
C0
100
AcDbEntity
8
1
62
256
6
ByLayer
370
13
48
1
60
0
100
AcDbLine
10
43.25
20
32.5
30
0
11
43.25
21
-32.5
31
0
39
0
210
0
220
0
230
1
0
LINE
5
C1
100
AcDbEntity
8
SK1
62
256
6
ByLayer
370
13
48
1
60
0
100
AcDbLine
10
-27.2
20
20.845
30
0
11
-27.2
21
20.779376
31
0
39
0
210
0
220
0
230
1
0
LINE
5
C3
100
AcDbEntity
8
SK1
62
256
6
ByLayer
370
18
48
1
60
0
100
AcDbLine
10
-30.75
20
20.845
30
0
11
-30.75
21
20.844744
31
0
39
0
210
0
220
0
230
1
0
LINE
5
C4
100
AcDbEntity
8
SK1
62
256
6
ByLayer
370
18
48
1
60
0
100
AcDbLine
10
-30.75
20
-20.845
30
0
11
-30.75
21
-20.844744
31
0
39
0
210
0
220
0
230
1
0
LINE
5
C5
100
AcDbEntity
8
SK1
62
256
6
ByLayer
370
13
48
1
60
0
100
AcDbLine
10
-23.2
20
-20.531099
30
0
11
-23.2
21
-20.845
31
0
39
0
210
0
220
0
230
1
0
LINE
5
C6
100
AcDbEntity
8
SK1
62
256
6
ByLayer
370
13
48
1
60
0
100
AcDbLine
10
-23.2
20
-20.531099
30
0
11
-25.542528
21
-20.531099
31
0
39
0
210
0
220
0
230
1
0
LINE
5
C7
100
AcDbEntity
8
SK1
62
256
6
ByLayer
370
13
48
1
60
0
100
AcDbLine
10
-23.2
20
-20.531099
30
0
11
-23.2
21
-19.472507
31
0
39
0
210
0
220
0
230
1
0
LINE
5
C8
100
AcDbEntity
8
SK1
62
256
6
ByLayer
370
13
48
1
60
0
100
AcDbLine
10
-31.842316
20
19.557838
30
0
11
-31.06758
21
20.248133
31
0
39
0
210
0
220
0
230
1
0
LINE
5
C9
100
AcDbEntity
8
SK1
62
256
6
ByLayer
370
13
48
1
60
0
100
AcDbLine
10
-31.842316
20
-19.557838
30
0
11
-31.06758
21
-20.248133
31
0
39
0
210
0
220
0
230
1
0
LINE
5
CA
100
AcDbEntity
8
SK1
62
256
6
ByLayer
370
18
48
1
60
0
100
AcDbLine
10
-31.9
20
-19.672662
30
0
11
-31.9
21
19.672662
31
0
39
0
210
0
220
0
230
1
0
LINE
5
CB
100
AcDbEntity
8
SK1
62
256
6
ByLayer
370
13
48
1
60
0
100
AcDbLine
10
-0.45
20
-23.970431
30
0
11
-0.45
21
23.970431
31
0
39
0
210
0
220
0
230
1
0
LINE
5
CC
100
AcDbEntity
8
SK1
62
256
6
ByLayer
370
18
48
1
60
0
100
AcDbLine
10
-1.566987
20
-23.970431
30
0
11
-1.566987
21
23.970431
31
0
39
0
210
0
220
0
230
1
0
LINE
5
CD
100
AcDbEntity
8
SK1
62
256
6
ByLayer
370
18
48
1
60
0
100
AcDbLine
10
-2
20
-24.220431
30
0
11
-2
21
24.220431
31
0
39
0
210
0
220
0
230
1
0
LINE
5
CE
100
AcDbEntity
8
SK1
62
256
6
ByLayer
370
18
48
1
60
0
100
AcDbLine
10
-25.8
20
21.833816
30
0
11
-25.8
21
23.028046
31
0
39
0
210
0
220
0
230
1
0
LINE
5
CF
100
AcDbEntity
8
SK1
62
256
6
ByLayer
370
13
48
1
60
0
100
AcDbLine
10
-30.760045
20
20.83431
30
0
11
-30.760045
21
-20.83431
31
0
39
0
210
0
220
0
230
1
0
LINE
5
D0
100
AcDbEntity
8
SK1
62
256
6
ByLayer
370
18
48
1
60
0
100
AcDbLine
10
-21.8
20
-21.952084
30
0
11
-21.8
21
-23.228447
31
0
39
0
210
0
220
0
230
1
0
LINE
5
D1
100
AcDbEntity
8
1
62
256
6
ByLayer
370
18
48
1
60
0
100
AcDbLine
10
26.95
20
-26.25
30
0
11
41.25
21
-26.25
31
0
39
0
210
0
220
0
230
1
0
LINE
5
D2
100
AcDbEntity
8
1
62
256
6
ByLayer
370
18
48
1
60
0
100
AcDbLine
10
41.25
20
26.25
30
0
11
26.95
21
26.25
31
0
39
0
210
0
220
0
230
1
0
LINE
5
D3
100
AcDbEntity
8
1
62
256
6
ByLayer
370
18
48
1
60
0
100
AcDbLine
10
0
20
-30.97
30
0
11
0.5
21
-31.47
31
0
39
0
210
0
220
0
230
1
0
LINE
5
D4
100
AcDbEntity
8
1
62
256
6
ByLayer
370
18
48
1
60
0
100
AcDbLine
10
0.5
20
31.47
30
0
11
0
21
30.97
31
0
39
0
210
0
220
0
230
1
0
LINE
5
D5
100
AcDbEntity
8
1
62
256
6
ByLayer
370
18
48
1
60
0
100
AcDbLine
10
4.948964
20
31.47
30
0
11
4.948569
21
31.47
31
0
39
0
210
0
220
0
230
1
0
LINE
5
D6
100
AcDbEntity
8
1
62
256
6
ByLayer
370
18
48
1
60
0
100
AcDbLine
10
4.948569
20
31.47
30
0
11
0.5
21
31.47
31
0
39
0
210
0
220
0
230
1
0
LINE
5
D7
100
AcDbEntity
8
1
62
256
6
ByLayer
370
18
48
1
60
0
100
AcDbLine
10
0.5
20
-31.47
30
0
11
4.95
21
-31.47
31
0
39
0
210
0
220
0
230
1
0
LINE
5
D8
100
AcDbEntity
8
1
62
256
6
ByLayer
370
18
48
1
60
0
100
AcDbLine
10
110
20
24.5
30
0
11
102
21
32.5
31
0
39
0
210
0
220
0
230
1
0
LINE
5
D9
100
AcDbEntity
8
1
62
256
6
ByLayer
370
18
48
1
60
0
100
AcDbLine
10
102
20
-32.5
30
0
11
110
21
-24.5
31
0
39
0
210
0
220
0
230
1
0
LINE
5
DA
100
AcDbEntity
8
1
62
256
6
ByLayer
370
18
48
1
60
0
100
AcDbLine
10
43.25
20
-32.5
30
0
11
102
21
-32.5
31
0
39
0
210
0
220
0
230
1
0
LINE
5
DB
100
AcDbEntity
8
1
62
256
6
ByLayer
370
18
48
1
60
0
100
AcDbLine
10
102
20
32.5
30
0
11
43.25
21
32.5
31
0
39
0
210
0
220
0
230
1
0
LINE
5
DC
100
AcDbEntity
8
SK1
62
256
6
ByLayer
370
18
48
1
60
0
100
AcDbLine
10
-27.2
20
20.845
30
0
11
-30.75
21
20.845
31
0
39
0
210
0
220
0
230
1
0
LINE
5
DD
100
AcDbEntity
8
SK1
62
256
6
ByLayer
370
18
48
1
60
0
100
AcDbLine
10
-30.75
20
20.845
30
0
11
-31.892663
21
19.702337
31
0
39
0
210
0
220
0
230
1
0
LINE
5
DE
100
AcDbEntity
8
SK1
62
256
6
ByLayer
370
18
48
1
60
0
100
AcDbLine
10
-31.892671
20
-19.702329
30
0
11
-30.75
21
-20.845
31
0
39
0
210
0
220
0
230
1
0
LINE
5
DF
100
AcDbEntity
8
SK1
62
256
6
ByLayer
370
18
48
1
60
0
100
AcDbLine
10
-30.75
20
-20.845
30
0
11
-23.2
21
-20.845
31
0
39
0
210
0
220
0
230
1
0
LINE
5
E0
100
AcDbEntity
8
SK1
62
256
6
ByLayer
370
18
48
1
60
0
100
AcDbLine
10
-0.45
20
23.970431
30
0
11
-1.566987
21
23.970431
31
0
39
0
210
0
220
0
230
1
0
LINE
5
E1
100
AcDbEntity
8
SK1
62
256
6
ByLayer
370
18
48
1
60
0
100
AcDbLine
10
-1.566987
20
-23.970431
30
0
11
-0.45
21
-23.970431
31
0
39
0
210
0
220
0
230
1
0
LINE
5
E2
100
AcDbEntity
8
SK1
62
256
6
ByLayer
370
18
48
1
60
0
100
AcDbLine
10
-1.566987
20
23.970431
30
0
11
-2
21
24.220431
31
0
39
0
210
0
220
0
230
1
0
LINE
5
E3
100
AcDbEntity
8
SK1
62
256
6
ByLayer
370
18
48
1
60
0
100
AcDbLine
10
-2
20
-24.220431
30
0
11
-1.566987
21
-23.970431
31
0
39
0
210
0
220
0
230
1
0
LINE
5
E4
100
AcDbEntity
8
SK1
62
256
6
ByLayer
370
18
48
1
60
0
100
AcDbLine
10
-21.8
20
-23.228447
30
0
11
-13.239771
21
-23.657316
31
0
39
0
210
0
220
0
230
1
0
LINE
5
E5
100
AcDbEntity
8
SK1
62
256
6
ByLayer
370
18
48
1
60
0
100
AcDbLine
10
-4.314641
20
-24.104467
30
0
11
-2
21
-24.220431
31
0
39
0
210
0
220
0
230
1
0
LINE
5
E6
100
AcDbEntity
8
SK1
62
256
6
ByLayer
370
18
48
1
60
0
100
AcDbLine
10
-2
20
24.220431
30
0
11
-4.314784
21
24.10446
31
0
39
0
210
0
220
0
230
1
0
LINE
5
E7
100
AcDbEntity
8
SK1
62
256
6
ByLayer
370
18
48
1
60
0
100
AcDbLine
10
-13.237585
20
23.657426
30
0
11
-25.8
21
23.028046
31
0
39
0
210
0
220
0
230
1
0
LINE
5
E8
100
AcDbEntity
8
1
62
256
6
ByLayer
370
18
48
1
60
0
100
AcDbLine
10
109.999997
20
-12.883075
30
0
11
110.049408
21
-12.790753
31
0
39
0
210
0
220
0
230
1
0
LINE
5
E9
100
AcDbEntity
8
1
62
256
6
ByLayer
370
18
48
1
60
0
100
AcDbLine
10
110.049408
20
12.790753
30
0
11
109.999997
21
12.883075
31
0
39
0
210
0
220
0
230
1
0
LINE
5
EA
100
AcDbEntity
8
1
62
256
6
ByLayer
370
18
48
1
60
0
100
AcDbLine
10
110.049408
20
12.790753
30
0
11
109.999997
21
12.883075
31
0
39
0
210
0
220
0
230
1
0
LINE
5
EB
100
AcDbEntity
8
SK2
62
256
6
ByLayer
370
18
48
1
60
0
100
AcDbLine
10
136.87201
20
32.5
30
0
11
136.87201
21
-32.5
31
0
39
0
210
0
220
0
230
1
0
LINE
5
ED
100
AcDbEntity
8
SK2
62
256
6
ByLayer
370
18
48
1
60
0
100
AcDbLine
10
103.5875
20
-32.5
30
0
11
138.87201
21
-32.5
31
0
39
0
210
0
220
0
230
1
0
LINE
5
EE
100
AcDbEntity
8
SK2
62
256
6
ByLayer
370
18
48
1
60
0
100
AcDbLine
10
103.5875
20
32.5
30
0
11
138.87201
21
32.5
31
0
39
0
210
0
220
0
230
1
0
LINE
5
EF
100
AcDbEntity
8
1
62
256
6
ByLayer
370
18
48
1
60
1
100
AcDbLine
10
136.87201
20
-32.5
30
0
11
136.411226
21
-29.000002
31
0
39
0
210
0
220
0
230
1
0
LINE
5
F0
100
AcDbEntity
8
1
62
256
6
ByLayer
370
18
48
1
60
1
100
AcDbLine
10
136.411226
20
-29.000002
30
0
11
137.332794
21
-28.999998
31
0
39
0
210
0
220
0
230
1
0
LINE
5
F1
100
AcDbEntity
8
1
62
256
6
ByLayer
370
18
48
1
60
1
100
AcDbLine
10
137.332794
20
-28.999998
30
0
11
136.87201
21
-32.5
31
0
39
0
210
0
220
0
230
1
0
LINE
5
F2
100
AcDbEntity
8
1
62
256
6
ByLayer
370
18
48
1
60
1
100
AcDbLine
10
136.87201
20
32.5
30
0
11
137.332794
21
29.000002
31
0
39
0
210
0
220
0
230
1
0
LINE
5
F3
100
AcDbEntity
8
1
62
256
6
ByLayer
370
18
48
1
60
1
100
AcDbLine
10
137.332794
20
29.000002
30
0
11
136.411226
21
28.999998
31
0
39
0
210
0
220
0
230
1
0
LINE
5
F4
100
AcDbEntity
8
1
62
256
6
ByLayer
370
18
48
1
60
1
100
AcDbLine
10
136.411226
20
28.999998
30
0
11
136.87201
21
32.5
31
0
39
0
210
0
220
0
230
1
0
LINE
5
F5
100
AcDbEntity
8
SK2
62
256
6
ByLayer
370
18
48
1
60
0
100
AcDbLine
10
-48.875025
20
-31.47
30
0
11
-48.875025
21
31.47
31
0
39
0
210
0
220
0
230
1
0
LINE
5
F6
100
AcDbEntity
8
SK2
62
256
6
ByLayer
370
18
48
1
60
0
100
AcDbLine
10
-1.0875
20
31.47
30
0
11
-50.875025
21
31.47
31
0
39
0
210
0
220
0
230
1
0
LINE
5
F7
100
AcDbEntity
8
SK2
62
256
6
ByLayer
370
18
48
1
60
0
100
AcDbLine
10
-1.0875
20
-31.47
30
0
11
-50.875025
21
-31.47
31
0
39
0
210
0
220
0
230
1
0
LINE
5
F8
100
AcDbEntity
8
1
62
256
6
ByLayer
370
18
48
1
60
1
100
AcDbLine
10
-48.875025
20
31.47
30
0
11
-48.414241
21
27.970002
31
0
39
0
210
0
220
0
230
1
0
LINE
5
F9
100
AcDbEntity
8
1
62
256
6
ByLayer
370
18
48
1
60
1
100
AcDbLine
10
-48.414241
20
27.970002
30
0
11
-49.335809
21
27.969998
31
0
39
0
210
0
220
0
230
1
0
LINE
5
FA
100
AcDbEntity
8
1
62
256
6
ByLayer
370
18
48
1
60
1
100
AcDbLine
10
-49.335809
20
27.969998
30
0
11
-48.875025
21
31.47
31
0
39
0
210
0
220
0
230
1
0
LINE
5
FB
100
AcDbEntity
8
1
62
256
6
ByLayer
370
18
48
1
60
1
100
AcDbLine
10
-48.875025
20
-31.47
30
0
11
-49.335809
21
-27.970002
31
0
39
0
210
0
220
0
230
1
0
LINE
5
FC
100
AcDbEntity
8
1
62
256
6
ByLayer
370
18
48
1
60
1
100
AcDbLine
10
-49.335809
20
-27.970002
30
0
11
-48.414241
21
-27.969998
31
0
39
0
210
0
220
0
230
1
0
LINE
5
FD
100
AcDbEntity
8
1
62
256
6
ByLayer
370
18
48
1
60
1
100
AcDbLine
10
-48.414241
20
-27.969998
30
0
11
-48.875025
21
-31.47
31
0
39
0
210
0
220
0
230
1
0
LINE
5
FE
100
AcDbEntity
8
2
62
256
6
ByLayer
370
18
48
1
60
0
100
AcDbLine
10
25.95
20
45.35
30
0
11
110
21
45.35
31
0
39
0
210
0
220
0
230
1
0
LINE
5
FF
100
AcDbEntity
8
2
62
256
6
ByLayer
370
18
48
1
60
0
100
AcDbLine
10
110
20
26.0875
30
0
11
110
21
47.35
31
0
39
0
210
0
220
0
230
1
0
LINE
5
100
100
AcDbEntity
8
2
62
256
6
ByLayer
370
18
48
1
60
0
100
AcDbLine
10
25.95
20
31.501721
30
0
11
25.95
21
47.35
31
0
39
0
210
0
220
0
230
1
0
LINE
5
101
100
AcDbEntity
8
1
62
256
6
ByLayer
370
18
48
1
60
1
100
AcDbLine
10
110
20
45.35
30
0
11
106.500002
21
44.889216
31
0
39
0
210
0
220
0
230
1
0
LINE
5
102
100
AcDbEntity
8
1
62
256
6
ByLayer
370
18
48
1
60
1
100
AcDbLine
10
106.500002
20
44.889216
30
0
11
106.499998
21
45.810784
31
0
39
0
210
0
220
0
230
1
0
LINE
5
103
100
AcDbEntity
8
1
62
256
6
ByLayer
370
18
48
1
60
1
100
AcDbLine
10
106.499998
20
45.810784
30
0
11
110
21
45.35
31
0
39
0
210
0
220
0
230
1
0
LINE
5
104
100
AcDbEntity
8
1
62
256
6
ByLayer
370
18
48
1
60
1
100
AcDbLine
10
25.95
20
45.35
30
0
11
29.449998
21
45.810784
31
0
39
0
210
0
220
0
230
1
0
LINE
5
105
100
AcDbEntity
8
1
62
256
6
ByLayer
370
18
48
1
60
1
100
AcDbLine
10
29.449998
20
45.810784
30
0
11
29.450002
21
44.889216
31
0
39
0
210
0
220
0
230
1
0
LINE
5
106
100
AcDbEntity
8
1
62
256
6
ByLayer
370
18
48
1
60
1
100
AcDbLine
10
29.450002
20
44.889216
30
0
11
25.95
21
45.35
31
0
39
0
210
0
220
0
230
1
0
LINE
5
107
100
AcDbEntity
8
SK2
62
256
6
ByLayer
370
18
48
1
60
0
100
AcDbLine
10
110
20
55.35
30
0
11
0
21
55.35
31
0
39
0
210
0
220
0
230
1
0
LINE
5
108
100
AcDbEntity
8
SK2
62
256
6
ByLayer
370
18
48
1
60
0
100
AcDbLine
10
0
20
32.5575
30
0
11
0
21
57.35
31
0
39
0
210
0
220
0
230
1
0
LINE
5
109
100
AcDbEntity
8
SK2
62
256
6
ByLayer
370
18
48
1
60
0
100
AcDbLine
10
110
20
26.0875
30
0
11
110
21
57.35
31
0
39
0
210
0
220
0
230
1
0
LINE
5
10A
100
AcDbEntity
8
1
62
256
6
ByLayer
370
18
48
1
60
1
100
AcDbLine
10
0
20
55.35
30
0
11
3.499998
21
55.810784
31
0
39
0
210
0
220
0
230
1
0
LINE
5
10B
100
AcDbEntity
8
1
62
256
6
ByLayer
370
18
48
1
60
1
100
AcDbLine
10
3.499998
20
55.810784
30
0
11
3.500002
21
54.889216
31
0
39
0
210
0
220
0
230
1
0
LINE
5
10C
100
AcDbEntity
8
1
62
256
6
ByLayer
370
18
48
1
60
1
100
AcDbLine
10
3.500002
20
54.889216
30
0
11
0
21
55.35
31
0
39
0
210
0
220
0
230
1
0
LINE
5
10D
100
AcDbEntity
8
1
62
256
6
ByLayer
370
18
48
1
60
1
100
AcDbLine
10
110
20
55.35
30
0
11
106.500002
21
54.889216
31
0
39
0
210
0
220
0
230
1
0
LINE
5
10E
100
AcDbEntity
8
1
62
256
6
ByLayer
370
18
48
1
60
1
100
AcDbLine
10
106.500002
20
54.889216
30
0
11
106.499998
21
55.810784
31
0
39
0
210
0
220
0
230
1
0
LINE
5
10F
100
AcDbEntity
8
1
62
256
6
ByLayer
370
18
48
1
60
1
100
AcDbLine
10
106.499998
20
55.810784
30
0
11
110
21
55.35
31
0
39
0
210
0
220
0
230
1
0
LINE
5
110
100
AcDbEntity
8
SK2
62
256
6
ByLayer
370
18
48
1
60
0
100
AcDbLine
10
-31.9
20
55.35
30
0
11
0
21
55.35
31
0
39
0
210
0
220
0
230
1
0
LINE
5
111
100
AcDbEntity
8
SK2
62
256
6
ByLayer
370
18
48
1
60
0
100
AcDbLine
10
0
20
32.5575
30
0
11
0
21
57.35
31
0
39
0
210
0
220
0
230
1
0
LINE
5
112
100
AcDbEntity
8
SK2
62
256
6
ByLayer
370
18
48
1
60
0
100
AcDbLine
10
-31.9
20
21.260162
30
0
11
-31.9
21
57.35
31
0
39
0
210
0
220
0
230
1
0
LINE
5
113
100
AcDbEntity
8
1
62
256
6
ByLayer
370
18
48
1
60
1
100
AcDbLine
10
0
20
55.35
30
0
11
-3.499998
21
54.889216
31
0
39
0
210
0
220
0
230
1
0
LINE
5
114
100
AcDbEntity
8
1
62
256
6
ByLayer
370
18
48
1
60
1
100
AcDbLine
10
-3.499998
20
54.889216
30
0
11
-3.500002
21
55.810784
31
0
39
0
210
0
220
0
230
1
0
LINE
5
115
100
AcDbEntity
8
1
62
256
6
ByLayer
370
18
48
1
60
1
100
AcDbLine
10
-3.500002
20
55.810784
30
0
11
0
21
55.35
31
0
39
0
210
0
220
0
230
1
0
LINE
5
116
100
AcDbEntity
8
1
62
256
6
ByLayer
370
18
48
1
60
1
100
AcDbLine
10
-31.9
20
55.35
30
0
11
-28.400002
21
55.810784
31
0
39
0
210
0
220
0
230
1
0
LINE
5
117
100
AcDbEntity
8
1
62
256
6
ByLayer
370
18
48
1
60
1
100
AcDbLine
10
-28.400002
20
55.810784
30
0
11
-28.399998
21
54.889216
31
0
39
0
210
0
220
0
230
1
0
LINE
5
118
100
AcDbEntity
8
1
62
256
6
ByLayer
370
18
48
1
60
1
100
AcDbLine
10
-28.399998
20
54.889216
30
0
11
-31.9
21
55.35
31
0
39
0
210
0
220
0
230
1
0
LINE
5
1BA
100
AcDbEntity
8
1
62
256
6
ByLayer
370
18
48
1
60
1
100
AcDbLine
10
136.87201
20
-32.5
30
0
11
136.411226
21
-29.000002
31
0
39
0
210
0
220
0
230
1
0
LINE
5
1BB
100
AcDbEntity
8
1
62
256
6
ByLayer
370
18
48
1
60
1
100
AcDbLine
10
136.411226
20
-29.000002
30
0
11
137.332794
21
-28.999998
31
0
39
0
210
0
220
0
230
1
0
LINE
5
1BC
100
AcDbEntity
8
1
62
256
6
ByLayer
370
18
48
1
60
1
100
AcDbLine
10
137.332794
20
-28.999998
30
0
11
136.87201
21
-32.5
31
0
39
0
210
0
220
0
230
1
0
LINE
5
1BE
100
AcDbEntity
8
1
62
256
6
ByLayer
370
18
48
1
60
1
100
AcDbLine
10
136.87201
20
32.5
30
0
11
137.332794
21
29.000002
31
0
39
0
210
0
220
0
230
1
0
LINE
5
1BF
100
AcDbEntity
8
1
62
256
6
ByLayer
370
18
48
1
60
1
100
AcDbLine
10
137.332794
20
29.000002
30
0
11
136.411226
21
28.999998
31
0
39
0
210
0
220
0
230
1
0
LINE
5
1C0
100
AcDbEntity
8
1
62
256
6
ByLayer
370
18
48
1
60
1
100
AcDbLine
10
136.411226
20
28.999998
30
0
11
136.87201
21
32.5
31
0
39
0
210
0
220
0
230
1
0
LINE
5
1C4
100
AcDbEntity
8
1
62
256
6
ByLayer
370
18
48
1
60
1
100
AcDbLine
10
-48.875025
20
31.47
30
0
11
-48.414241
21
27.970002
31
0
39
0
210
0
220
0
230
1
0
LINE
5
1C5
100
AcDbEntity
8
1
62
256
6
ByLayer
370
18
48
1
60
1
100
AcDbLine
10
-48.414241
20
27.970002
30
0
11
-49.335809
21
27.969998
31
0
39
0
210
0
220
0
230
1
0
LINE
5
1C6
100
AcDbEntity
8
1
62
256
6
ByLayer
370
18
48
1
60
1
100
AcDbLine
10
-49.335809
20
27.969998
30
0
11
-48.875025
21
31.47
31
0
39
0
210
0
220
0
230
1
0
LINE
5
1C8
100
AcDbEntity
8
1
62
256
6
ByLayer
370
18
48
1
60
1
100
AcDbLine
10
-48.875025
20
-31.47
30
0
11
-49.335809
21
-27.970002
31
0
39
0
210
0
220
0
230
1
0
LINE
5
1C9
100
AcDbEntity
8
1
62
256
6
ByLayer
370
18
48
1
60
1
100
AcDbLine
10
-49.335809
20
-27.970002
30
0
11
-48.414241
21
-27.969998
31
0
39
0
210
0
220
0
230
1
0
LINE
5
1CA
100
AcDbEntity
8
1
62
256
6
ByLayer
370
18
48
1
60
1
100
AcDbLine
10
-48.414241
20
-27.969998
30
0
11
-48.875025
21
-31.47
31
0
39
0
210
0
220
0
230
1
0
LINE
5
1CD
100
AcDbEntity
8
1
62
256
6
ByLayer
370
18
48
1
60
1
100
AcDbLine
10
110
20
45.35
30
0
11
106.500002
21
44.889216
31
0
39
0
210
0
220
0
230
1
0
LINE
5
1CE
100
AcDbEntity
8
1
62
256
6
ByLayer
370
18
48
1
60
1
100
AcDbLine
10
106.500002
20
44.889216
30
0
11
106.499998
21
45.810784
31
0
39
0
210
0
220
0
230
1
0
LINE
5
1CF
100
AcDbEntity
8
1
62
256
6
ByLayer
370
18
48
1
60
1
100
AcDbLine
10
106.499998
20
45.810784
30
0
11
110
21
45.35
31
0
39
0
210
0
220
0
230
1
0
LINE
5
1D1
100
AcDbEntity
8
1
62
256
6
ByLayer
370
18
48
1
60
1
100
AcDbLine
10
25.95
20
45.35
30
0
11
29.449998
21
45.810784
31
0
39
0
210
0
220
0
230
1
0
LINE
5
1D2
100
AcDbEntity
8
1
62
256
6
ByLayer
370
18
48
1
60
1
100
AcDbLine
10
29.449998
20
45.810784
30
0
11
29.450002
21
44.889216
31
0
39
0
210
0
220
0
230
1
0
LINE
5
1D3
100
AcDbEntity
8
1
62
256
6
ByLayer
370
18
48
1
60
1
100
AcDbLine
10
29.450002
20
44.889216
30
0
11
25.95
21
45.35
31
0
39
0
210
0
220
0
230
1
0
LINE
5
1D6
100
AcDbEntity
8
1
62
256
6
ByLayer
370
18
48
1
60
1
100
AcDbLine
10
0
20
55.35
30
0
11
3.499998
21
55.810784
31
0
39
0
210
0
220
0
230
1
0
LINE
5
1D7
100
AcDbEntity
8
1
62
256
6
ByLayer
370
18
48
1
60
1
100
AcDbLine
10
3.499998
20
55.810784
30
0
11
3.500002
21
54.889216
31
0
39
0
210
0
220
0
230
1
0
LINE
5
1D8
100
AcDbEntity
8
1
62
256
6
ByLayer
370
18
48
1
60
1
100
AcDbLine
10
3.500002
20
54.889216
30
0
11
0
21
55.35
31
0
39
0
210
0
220
0
230
1
0
LINE
5
1DA
100
AcDbEntity
8
1
62
256
6
ByLayer
370
18
48
1
60
1
100
AcDbLine
10
110
20
55.35
30
0
11
106.500002
21
54.889216
31
0
39
0
210
0
220
0
230
1
0
LINE
5
1DB
100
AcDbEntity
8
1
62
256
6
ByLayer
370
18
48
1
60
1
100
AcDbLine
10
106.500002
20
54.889216
30
0
11
106.499998
21
55.810784
31
0
39
0
210
0
220
0
230
1
0
LINE
5
1DC
100
AcDbEntity
8
1
62
256
6
ByLayer
370
18
48
1
60
1
100
AcDbLine
10
106.499998
20
55.810784
30
0
11
110
21
55.35
31
0
39
0
210
0
220
0
230
1
0
LINE
5
1DF
100
AcDbEntity
8
1
62
256
6
ByLayer
370
18
48
1
60
1
100
AcDbLine
10
0
20
55.35
30
0
11
-3.499998
21
54.889216
31
0
39
0
210
0
220
0
230
1
0
LINE
5
1E0
100
AcDbEntity
8
1
62
256
6
ByLayer
370
18
48
1
60
1
100
AcDbLine
10
-3.499998
20
54.889216
30
0
11
-3.500002
21
55.810784
31
0
39
0
210
0
220
0
230
1
0
LINE
5
1E1
100
AcDbEntity
8
1
62
256
6
ByLayer
370
18
48
1
60
1
100
AcDbLine
10
-3.500002
20
55.810784
30
0
11
0
21
55.35
31
0
39
0
210
0
220
0
230
1
0
LINE
5
1E3
100
AcDbEntity
8
1
62
256
6
ByLayer
370
18
48
1
60
1
100
AcDbLine
10
-31.9
20
55.35
30
0
11
-28.400002
21
55.810784
31
0
39
0
210
0
220
0
230
1
0
LINE
5
1E4
100
AcDbEntity
8
1
62
256
6
ByLayer
370
18
48
1
60
1
100
AcDbLine
10
-28.400002
20
55.810784
30
0
11
-28.399998
21
54.889216
31
0
39
0
210
0
220
0
230
1
0
LINE
5
1E5
100
AcDbEntity
8
1
62
256
6
ByLayer
370
18
48
1
60
1
100
AcDbLine
10
-28.399998
20
54.889216
30
0
11
-31.9
21
55.35
31
0
39
0
210
0
220
0
230
1
0
MTEXT
5
1B6
100
AcDbEntity
8
SK2
62
256
6
ByLayer
370
18
48
1
60
0
100
AcDbMText
10
135.307377
20
-4.530622
30
0
210
0
220
0
230
1
1
%%c
40
3.5
41
0
44
1.084337
50
90
71
7
72
5
7
iso_b_vert
0
MTEXT
5
1B9
100
AcDbEntity
8
SK2
62
256
6
ByLayer
370
18
48
1
60
0
100
AcDbMText
10
135.307377
20
2.442034
30
0
210
0
220
0
230
1
1
\W0.6740;65
40
3.5
41
0
44
1.084337
50
90
71
7
72
5
7
iso_b_vert
0
MTEXT
5
1C2
100
AcDbEntity
8
SK2
62
256
6
ByLayer
370
18
48
1
60
0
100
AcDbMText
10
-50.439659
20
-4.530622
30
0
210
0
220
0
230
1
1
%%c
40
3.5
41
0
44
1.084337
50
90
71
7
72
5
7
iso_b_vert
0
MTEXT
5
1C3
100
AcDbEntity
8
SK2
62
256
6
ByLayer
370
18
48
1
60
0
100
AcDbMText
10
-50.439659
20
2.442034
30
0
210
0
220
0
230
1
1
\W0.6740;63
40
3.5
41
0
44
1.084337
50
90
71
7
72
5
7
iso_b_vert
0
MTEXT
5
1CC
100
AcDbEntity
8
2
62
256
6
ByLayer
370
18
48
1
60
0
100
AcDbMText
10
65.885767
20
46.382634
30
0
210
0
220
0
230
1
1
\W0.7167;84
40
3.5
41
0
44
1.084337
50
0
71
7
72
5
7
iso_b_vert
0
MTEXT
5
1D5
100
AcDbEntity
8
SK2
62
256
6
ByLayer
370
18
48
1
60
0
100
AcDbMText
10
52.662167
20
56.382634
30
0
210
0
220
0
230
1
1
\W0.5296;110
40
3.5
41
0
44
1.084337
50
0
71
7
72
5
7
iso_b_vert
0
MTEXT
5
1DE
100
AcDbEntity
8
SK2
62
256
6
ByLayer
370
18
48
1
60
0
100
AcDbMText
10
-19.434266
20
56.382634
30
0
210
0
220
0
230
1
1
\W0.6662;31.9
40
3.5
41
0
44
1.084337
50
0
71
7
72
5
7
iso_b_vert
0
MTEXT
5
1E7
100
AcDbEntity
8
SK6
62
256
6
ByLayer
370
18
48
1
60
0
100
AcDbMText
10
68.983324
20
-92.114886
30
0
210
0
220
0
230
1
1
\W0.7498;HA06-WE25-B065-110
40
3
41
0
44
1.084337
50
0
71
7
72
5
7
iso_b_vert
0
HATCH
5
1BD
100
AcDbEntity
8
SK2
62
256
6
ByLayer
370
13
48
1
60
0
100
AcDbHatch
10
0
20
0
30
0
210
0
220
0
230
1
2
ANSI31
70
0
71
0
91
1
92
5
93
3
72
1
10
136.872010088274
20
-32.4999999999999
11
136.411226346722
21
-29.000001692553
72
1
10
136.411226346722
20
-29.000001692553
11
137.332793829827
21
-28.9999983074467
72
1
10
137.332793829827
20
-28.9999983074467
11
136.872010088274
21
-32.4999999999999
97
0
75
0
76
1
52
0
41
0.0062
77
0
78
1
53
45
43
0
44
0
45
-0.0139193969876572
46
0.0139193969876572
79
0
47
0
98
1
10
0
20
0
0
HATCH
5
1C1
100
AcDbEntity
8
SK2
62
256
6
ByLayer
370
13
48
1
60
0
100
AcDbHatch
10
0
20
0
30
0
210
0
220
0
230
1
2
ANSI31
70
0
71
0
91
1
92
5
93
3
72
1
10
136.872010088274
20
32.5000000000001
11
137.332793829827
21
29.0000016925533
72
1
10
137.332793829827
20
29.0000016925533
11
136.411226346722
21
28.999998307447
72
1
10
136.411226346722
20
28.999998307447
11
136.872010088274
21
32.5000000000001
97
0
75
0
76
1
52
0
41
0.0062
77
0
78
1
53
45
43
0
44
0
45
-0.0139193969876572
46
0.0139193969876572
79
0
47
0
98
1
10
0
20
0
0
HATCH
5
1C7
100
AcDbEntity
8
SK2
62
256
6
ByLayer
370
13
48
1
60
0
100
AcDbHatch
10
0
20
0
30
0
210
0
220
0
230
1
2
ANSI31
70
0
71
0
91
1
92
5
93
3
72
1
10
-48.8750250000001
20
31.47
11
-48.4142412584473
21
27.9700016925532
72
1
10
-48.4142412584473
20
27.9700016925532
11
-49.3358087415528
21
27.9699983074468
72
1
10
-49.3358087415528
20
27.9699983074468
11
-48.8750250000001
21
31.47
97
0
75
0
76
1
52
0
41
0.0062
77
0
78
1
53
45
43
0
44
0
45
-0.0139193969876572
46
0.0139193969876572
79
0
47
0
98
1
10
0
20
0
0
HATCH
5
1CB
100
AcDbEntity
8
SK2
62
256
6
ByLayer
370
13
48
1
60
0
100
AcDbHatch
10
0
20
0
30
0
210
0
220
0
230
1
2
ANSI31
70
0
71
0
91
1
92
5
93
3
72
1
10
-48.8750250000001
20
-31.47
11
-49.3358087415528
21
-27.9700016925532
72
1
10
-49.3358087415528
20
-27.9700016925532
11
-48.4142412584473
21
-27.9699983074468
72
1
10
-48.4142412584473
20
-27.9699983074468
11
-48.8750250000001
21
-31.47
97
0
75
0
76
1
52
0
41
0.0062
77
0
78
1
53
45
43
0
44
0
45
-0.0139193969876572
46
0.0139193969876572
79
0
47
0
98
1
10
0
20
0
0
HATCH
5
1D0
100
AcDbEntity
8
2
62
256
6
ByLayer
370
13
48
1
60
0
100
AcDbHatch
10
0
20
0
30
0
210
0
220
0
230
1
2
ANSI31
70
0
71
0
91
1
92
5
93
3
72
1
10
110
20
45.3500000000001
11
106.500001692553
21
44.8892162584474
72
1
10
106.500001692553
20
44.8892162584474
11
106.499998307447
21
45.8107837415529
72
1
10
106.499998307447
20
45.8107837415529
11
110
21
45.3500000000001
97
0
75
0
76
1
52
0
41
0.0062
77
0
78
1
53
45
43
0
44
0
45
-0.0139193969876572
46
0.0139193969876572
79
0
47
0
98
1
10
0
20
0
0
HATCH
5
1D4
100
AcDbEntity
8
2
62
256
6
ByLayer
370
13
48
1
60
0
100
AcDbHatch
10
0
20
0
30
0
210
0
220
0
230
1
2
ANSI31
70
0
71
0
91
1
92
5
93
3
72
1
10
25.95
20
45.3500000000001
11
29.4499983074468
21
45.8107837415529
72
1
10
29.4499983074468
20
45.8107837415529
11
29.4500016925532
21
44.8892162584474
72
1
10
29.4500016925532
20
44.8892162584474
11
25.95
21
45.3500000000001
97
0
75
0
76
1
52
0
41
0.0062
77
0
78
1
53
45
43
0
44
0
45
-0.0139193969876572
46
0.0139193969876572
79
0
47
0
98
1
10
0
20
0
0
HATCH
5
1D9
100
AcDbEntity
8
SK2
62
256
6
ByLayer
370
13
48
1
60
0
100
AcDbHatch
10
0
20
0
30
0
210
0
220
0
230
1
2
ANSI31
70
0
71
0
91
1
92
5
93
3
72
1
10
0
20
55.3500000000001
11
3.4999983074468
21
55.8107837415529
72
1
10
3.4999983074468
20
55.8107837415529
11
3.5000016925532
21
54.8892162584474
72
1
10
3.5000016925532
20
54.8892162584474
11
0
21
55.3500000000001
97
0
75
0
76
1
52
0
41
0.0062
77
0
78
1
53
45
43
0
44
0
45
-0.0139193969876572
46
0.0139193969876572
79
0
47
0
98
1
10
0
20
0
0
HATCH
5
1DD
100
AcDbEntity
8
SK2
62
256
6
ByLayer
370
13
48
1
60
0
100
AcDbHatch
10
0
20
0
30
0
210
0
220
0
230
1
2
ANSI31
70
0
71
0
91
1
92
5
93
3
72
1
10
110
20
55.3500000000001
11
106.500001692553
21
54.8892162584474
72
1
10
106.500001692553
20
54.8892162584474
11
106.499998307447
21
55.8107837415529
72
1
10
106.499998307447
20
55.8107837415529
11
110
21
55.3500000000001
97
0
75
0
76
1
52
0
41
0.0062
77
0
78
1
53
45
43
0
44
0
45
-0.0139193969876572
46
0.0139193969876572
79
0
47
0
98
1
10
0
20
0
0
HATCH
5
1E2
100
AcDbEntity
8
SK2
62
256
6
ByLayer
370
13
48
1
60
0
100
AcDbHatch
10
0
20
0
30
0
210
0
220
0
230
1
2
ANSI31
70
0
71
0
91
1
92
5
93
3
72
1
10
0
20
55.3500000000001
11
-3.4999983074468
21
54.8892162584474
72
1
10
-3.4999983074468
20
54.8892162584474
11
-3.5000016925532
21
55.8107837415529
72
1
10
-3.5000016925532
20
55.8107837415529
11
0
21
55.3500000000001
97
0
75
0
76
1
52
0
41
0.0062
77
0
78
1
53
45
43
0
44
0
45
-0.0139193969876572
46
0.0139193969876572
79
0
47
0
98
1
10
0
20
0
0
HATCH
5
1E6
100
AcDbEntity
8
SK2
62
256
6
ByLayer
370
13
48
1
60
0
100
AcDbHatch
10
0
20
0
30
0
210
0
220
0
230
1
2
ANSI31
70
0
71
0
91
1
92
5
93
3
72
1
10
-31.9
20
55.3500000000001
11
-28.4000016925532
21
55.8107837415529
72
1
10
-28.4000016925532
20
55.8107837415529
11
-28.3999983074468
21
54.8892162584474
72
1
10
-28.3999983074468
20
54.8892162584474
11
-31.9
21
55.3500000000001
97
0
75
0
76
1
52
0
41
0.0062
77
0
78
1
53
45
43
0
44
0
45
-0.0139193969876572
46
0.0139193969876572
79
0
47
0
98
1
10
0
20
0
0
DIMENSION
5
1EA
100
AcDbEntity
8
SK2
62
256
6
ByLayer
370
18
48
1
60
0
100
AcDbDimension
2
_U0
10
42.25
20
-47.35
30
0
11
21.125
21
-47.35
31
0
70
32
71
1
72
1
41
1
210
0
220
0
230
1
3
Standard
100
AcDbAlignedDimension
13
0
23
-30.97
33
0
14
42.25
24
31.5
34
0
50
0
100
AcDbRotatedDimension
1001
ACAD
1000
DSTYLE
1002
{
1070
   371
1070
    13
1070
   372
1070
    13
1070
   170
1070
     0
1070
   144
1040
1.0
1070
   277
1070
     2
1070
   284
1070
     8
1070
   278
1070
    46
1070
   146
1040
1.0
1070
   345
1005
16
1070
   347
1005
16
1070
   346
1005
16
1070
   344
1005
0
1070
   343
1005
0
1070
   172
1070
     1
1070
    76
1070
     0
1070
    75
1070
     0
1070
   282
1070
     0
1070
   281
1070
     0
1070
    71
1070
     0
1070
    74
1070
     0
1070
   279
1070
     0
1070
   173
1070
     1
1070
   340
1005
1B7
1070
   271
1070
     1
1070
   272
1070
     2
1070
    77
1070
     1
1070
    73
1070
     1
1070
   171
1070
     3
1070
   274
1070
     4
1070
   177
1070
     2
1070
   176
1070
     2
1070
   178
1070
     2
1070
    78
1070
     8
1070
    48
1040
-0.1
1070
    41
1040
3.5
1070
   147
1040
1.75
1070
    42
1040
1.5875
1070
    44
1040
2.0
1070
   140
1040
3.5
1002
}
1001
ACAD_DSTYLE_DIM_LINETYPE
1070
   380
1005
16
1001
ACAD_DSTYLE_DIM_EXT1_LINETYPE
1070
   381
1005
16
1001
ACAD_DSTYLE_DIM_EXT2_LINETYPE
1070
   382
1005
16
0
ENDSEC
0
SECTION
2
OBJECTS
0
DICTIONARY
5
272
330
0
100
AcDbDictionary
280
0
281
1
3
ACAD_GROUP
350
273
3
ACAD_MLINESTYLE
350
274
0
DICTIONARY
5
273
330
0
100
AcDbDictionary
280
0
281
1
0
DICTIONARY
5
274
330
0
100
AcDbDictionary
280
0
281
1
3
Standard
350
18
0
MLINESTYLE
5
18
330
274
100
AcDbMlineStyle
2
Standard
70
0
3

62
256
51
90
52
90
71
2
49
-0.5
62
256
6
ByLayer
49
0.5
62
256
6
ByLayer
0
RASTERVARIABLES
5
261
330

100
AcDbRasterVariables
90
0
70
1
71
1
72
1
0
ENDSEC
0
EOF
