0
SECTION
2
HEADER
9
$ACADVER
1
AC1015
9
$DWGCODEPAGE
3
ANSI_1252
9
$HANDSEED
5
234
9
$ANGBASE
50
0
9
$ANGDIR
70
0
9
$ATTMODE
70
1
9
$AUNITS
70
0
9
$AUPREC
70
0
9
$CECOLOR
62
256
9
$CELTSCALE
40
1
9
$CELTYPE
6
ByLayer
9
$CELWEIGHT
370
18
9
$CLAYER
8
0
9
$CMLJUST
70
0
9
$CMLSCALE
40
1
9
$CMLSTYLE
2
Standard
9
$DIMSTYLE
2
Standard
9
$TEXTSIZE
40
0.2
9
$TEXTSTYLE
7
Standard
9
$LUNITS
70
2
9
$LUPREC
70
4
9
$EXTNAMES
290
1
9
$INSUNITS
70
4
9
$LTSCALE
40
1
9
$LWDISPLAY
290
1
9
$PDMODE
70
0
9
$PDSIZE
40
0
9
$PLINEGEN
70
0
0
ENDSEC
0
SECTION
2
CLASSES
0
CLASS
1
RASTERVARIABLES
2
AcDbRasterVariables
3
ISM
90
0
280
0
281
0
0
ENDSEC
0
SECTION
2
TABLES
0
TABLE
2
VPORT
5
22a
100
AcDbSymbolTable
0
VPORT
5
1
100
AcDbSymbolTableRecord
100
AcDbViewportTableRecord
2
*Active
70
0
10
0
20
0
11
1
21
1
12
-1
22
1
13
0
23
0
14
0.5
24
0.5
15
10
25
10
16
0
26
0
36
1
17
0
27
0
37
0
0
ENDTAB
0
TABLE
2
LTYPE
5
22b
100
AcDbSymbolTable
0
LTYPE
5
14
100
AcDbSymbolTableRecord
100
AcDbLinetypeTableRecord
70
0
2
ByBlock
3

72
65
73
0
40
0
0
LTYPE
5
15
100
AcDbSymbolTableRecord
100
AcDbLinetypeTableRecord
70
0
2
ByLayer
3

72
65
73
0
40
0
0
LTYPE
5
16
100
AcDbSymbolTableRecord
100
AcDbLinetypeTableRecord
70
0
2
Continuous
3
Solid line
72
65
73
0
40
0
0
LTYPE
5
6E
100
AcDbSymbolTableRecord
100
AcDbLinetypeTableRecord
70
0
2
CENTER
3
____ _ ____ _ ____ _ ____
72
65
73
4
40
47.5
49
22
74
0
49
-8.5
74
0
49
8.5
74
0
49
-8.5
74
0
0
LTYPE
5
6F
100
AcDbSymbolTableRecord
100
AcDbLinetypeTableRecord
70
0
2
DASHED
3
__ __ __ __ __ __ __ __ __
72
65
73
2
40
25.72
49
12.86
74
0
49
-12.86
74
0
0
ENDTAB
0
TABLE
2
LAYER
5
22c
100
AcDbSymbolTable
0
LAYER
5
10
100
AcDbSymbolTableRecord
100
AcDbLayerTableRecord
2
0
70
0
62
7
6
Continuous
290
1
370
-3
390
0
0
LAYER
5
71
100
AcDbSymbolTableRecord
100
AcDbLayerTableRecord
2
80
70
0
62
-6
6
Continuous
290
1
370
-3
390
0
0
LAYER
5
73
100
AcDbSymbolTableRecord
100
AcDbLayerTableRecord
2
81
70
0
62
-3
6
Continuous
290
1
370
-3
390
0
0
LAYER
5
75
100
AcDbSymbolTableRecord
100
AcDbLayerTableRecord
2
1
70
0
62
4
6
Continuous
290
1
370
-3
390
0
0
LAYER
5
87
100
AcDbSymbolTableRecord
100
AcDbLayerTableRecord
2
4
70
0
62
-2
6
CENTER
290
1
370
-3
390
0
0
LAYER
5
AA
100
AcDbSymbolTableRecord
100
AcDbLayerTableRecord
2
2
70
0
62
7
6
Continuous
290
1
370
-3
390
0
0
LAYER
5
13F
100
AcDbSymbolTableRecord
100
AcDbLayerTableRecord
2
Defpoints
70
0
62
7
6
Continuous
290
0
370
-3
390
0
0
LAYER
5
216
100
AcDbSymbolTableRecord
100
AcDbLayerTableRecord
2
SK4
70
0
62
2
6
CENTER
290
1
370
-3
390
0
0
LAYER
5
217
100
AcDbSymbolTableRecord
100
AcDbLayerTableRecord
2
SK1
70
0
62
4
6
Continuous
290
1
370
-3
390
0
0
LAYER
5
218
100
AcDbSymbolTableRecord
100
AcDbLayerTableRecord
2
SK2
70
0
62
7
6
Continuous
290
1
370
-3
390
0
0
LAYER
5
219
100
AcDbSymbolTableRecord
100
AcDbLayerTableRecord
2
SK6
70
0
62
5
6
Continuous
290
1
370
-3
390
0
0
ENDTAB
0
TABLE
2
STYLE
5
22d
100
AcDbSymbolTable
0
STYLE
5
11
100
AcDbSymbolTableRecord
100
AcDbTextStyleTableRecord
2
Standard
3
txt
70
0
71
0
40
0
41
1
42
0
50
0
0
STYLE
5
11B
100
AcDbSymbolTableRecord
100
AcDbTextStyleTableRecord
2
iso_b_vert
3
simplex.shx
70
0
71
0
40
0
41
1
42
0
50
0
0
STYLE
5
11C
100
AcDbSymbolTableRecord
100
AcDbTextStyleTableRecord
2
DWGDirectTextStyle
3
simplex
70
0
71
0
40
0
41
1
42
0
50
0
0
ENDTAB
0
TABLE
2
DIMSTYLE
5
22e
100
AcDbSymbolTable
100
AcDbDimStyleTable
0
DIMSTYLE
105
27
100
AcDbSymbolTableRecord
100
AcDbDimStyleTableRecord
2
Standard
70
0
3
<>
41
0.18
42
0.0625
44
0.18
140
0.18
147
0.09
73
0
74
0
77
1
271
2
275
0
278
52
280
0
340
11
0
ENDTAB
0
TABLE
2
VIEW
5
22f
100
AcDbSymbolTable
0
ENDTAB
0
TABLE
2
UCS
5
230
100
AcDbSymbolTable
0
ENDTAB
0
TABLE
2
APPID
5
231
100
AcDbSymbolTable
0
APPID
5
12
100
AcDbSymbolTableRecord
100
AcDbRegAppTableRecord
2
ACAD
70
0
0
APPID
5
13B
100
AcDbSymbolTableRecord
100
AcDbRegAppTableRecord
2
ACAD_DSTYLE_DIMBREAK
70
0
0
APPID
5
1D5
100
AcDbSymbolTableRecord
100
AcDbRegAppTableRecord
2
ACAD_DSTYLE_DIM_LINETYPE
70
0
0
APPID
5
1D6
100
AcDbSymbolTableRecord
100
AcDbRegAppTableRecord
2
ACAD_DSTYLE_DIM_EXT1_LINETYPE
70
0
0
APPID
5
1D7
100
AcDbSymbolTableRecord
100
AcDbRegAppTableRecord
2
ACAD_DSTYLE_DIM_EXT2_LINETYPE
70
0
0
APPID
5
212
100
AcDbSymbolTableRecord
100
AcDbRegAppTableRecord
2
ACAD_MLEADERVER
70
0
0
ENDTAB
0
TABLE
2
BLOCK_RECORD
5
232
100
AcDbSymbolTable
0
BLOCK_RECORD
5
1F
100
AcDbSymbolTableRecord
100
AcDbBlockTableRecord
2
*Model_Space
340
0
70
0
0
BLOCK_RECORD
5
1B
100
AcDbSymbolTableRecord
100
AcDbBlockTableRecord
2
*Paper_Space
340
0
70
0
0
BLOCK_RECORD
5
23
100
AcDbSymbolTableRecord
100
AcDbBlockTableRecord
2
*Paper_Space0
340
0
70
0
0
BLOCK_RECORD
5
140
100
AcDbSymbolTableRecord
100
AcDbBlockTableRecord
2
*D1
340
0
70
0
0
BLOCK_RECORD
5
14C
100
AcDbSymbolTableRecord
100
AcDbBlockTableRecord
2
_U0
340
0
70
0
0
BLOCK_RECORD
5
15A
100
AcDbSymbolTableRecord
100
AcDbBlockTableRecord
2
*D3
340
0
70
0
0
BLOCK_RECORD
5
166
100
AcDbSymbolTableRecord
100
AcDbBlockTableRecord
2
_U1
340
0
70
0
0
BLOCK_RECORD
5
172
100
AcDbSymbolTableRecord
100
AcDbBlockTableRecord
2
*D5
340
0
70
0
0
BLOCK_RECORD
5
17E
100
AcDbSymbolTableRecord
100
AcDbBlockTableRecord
2
_U2
340
0
70
0
0
BLOCK_RECORD
5
18A
100
AcDbSymbolTableRecord
100
AcDbBlockTableRecord
2
*D7
340
0
70
0
0
BLOCK_RECORD
5
196
100
AcDbSymbolTableRecord
100
AcDbBlockTableRecord
2
_U3
340
0
70
0
0
BLOCK_RECORD
5
1A2
100
AcDbSymbolTableRecord
100
AcDbBlockTableRecord
2
*D9
340
0
70
0
0
BLOCK_RECORD
5
1AE
100
AcDbSymbolTableRecord
100
AcDbBlockTableRecord
2
_U4
340
0
70
0
0
ENDTAB
0
ENDSEC
0
SECTION
2
BLOCKS
0
BLOCK
5
20
100
AcDbEntity
8
0
100
AcDbBlockBegin
2
*Model_Space
70
0
10
0
20
0
30
0
3
*Model_Space
0
ENDBLK
5
21
100
AcDbEntity
8
0
100
AcDbBlockEnd
0
BLOCK
5
1C
100
AcDbEntity
8
0
100
AcDbBlockBegin
2
*Paper_Space
70
0
10
0
20
0
30
0
3
*Paper_Space
0
ENDBLK
5
1D
100
AcDbEntity
8
0
100
AcDbBlockEnd
0
BLOCK
5
24
100
AcDbEntity
8
0
100
AcDbBlockBegin
2
*Paper_Space0
70
0
10
0
20
0
30
0
3
*Paper_Space0
0
ENDBLK
5
25
100
AcDbEntity
8
0
100
AcDbBlockEnd
0
BLOCK
5
141
100
AcDbEntity
8
0
100
AcDbBlockBegin
2
*D1
70
1
10
0
20
0
30
0
3
*D1
0
LINE
5
143
100
AcDbEntity
8
0
62
256
6
ByLayer
370
-2
48
1
60
0
100
AcDbLine
10
179
20
-9.5875
30
0
11
179
21
-28.415559
31
0
39
0
210
0
220
0
230
1
0
LINE
5
144
100
AcDbEntity
8
0
62
256
6
ByLayer
370
-2
48
1
60
0
100
AcDbLine
10
48.1
20
-9.5875
30
0
11
48.1
21
-28.415559
31
0
39
0
210
0
220
0
230
1
0
LINE
5
145
100
AcDbEntity
8
0
62
256
6
ByLayer
370
-2
48
1
60
0
100
AcDbLine
10
175.5
20
-26.415559
30
0
11
51.6
21
-26.415559
31
0
39
0
210
0
220
0
230
1
0
SOLID
5
146
100
AcDbEntity
8
0
62
256
6
ByLayer
370
-1
48
1
60
0
100
AcDbTrace
10
175.5
20
-26.998892
30
0
11
175.5
21
-25.832225
31
0
12
179
22
-26.415559
32
0
13
179
23
-26.415559
33
0
39
0
210
0
220
0
230
1
0
SOLID
5
147
100
AcDbEntity
8
0
62
256
6
ByLayer
370
-1
48
1
60
0
100
AcDbTrace
10
51.6
20
-25.832225
30
0
11
51.6
21
-26.998892
31
0
12
48.1
22
-26.415559
32
0
13
48.1
23
-26.415559
33
0
39
0
210
0
220
0
230
1
0
MTEXT
5
148
100
AcDbEntity
8
0
62
256
6
ByLayer
370
18
48
1
60
0
100
AcDbMText
10
113.55
20
-20.415559
30
0
210
0
220
0
230
1
1
\A1;130.9
40
3
41
0
44
1
50
0
71
5
72
5
7
iso_b_vert
0
POINT
5
149
100
AcDbEntity
8
Defpoints
62
0
6
ByLayer
370
-1
48
1
60
0
100
AcDbPoint
10
179
20
-8
30
0
39
0
210
0
220
0
230
1
50
360
0
POINT
5
14A
100
AcDbEntity
8
Defpoints
62
0
6
ByLayer
370
-1
48
1
60
0
100
AcDbPoint
10
48.1
20
-8
30
0
39
0
210
0
220
0
230
1
50
360
0
POINT
5
14B
100
AcDbEntity
8
Defpoints
62
0
6
ByLayer
370
-1
48
1
60
0
100
AcDbPoint
10
48.1
20
-26.415559
30
0
39
0
210
0
220
0
230
1
50
360
0
ENDBLK
5
142
100
AcDbEntity
8
0
100
AcDbBlockEnd
0
BLOCK
5
155
100
AcDbEntity
8
0
100
AcDbBlockBegin
2
_U0
70
0
10
0
20
0
30
0
3
_U0
0
MTEXT
5
14D
100
AcDbEntity
8
SK2
62
256
6
ByLayer
370
18
48
1
60
0
100
AcDbMText
10
109.442572
20
-24.217944
30
0
210
0
220
0
230
1
1
\W0.6944;130.9
40
3
41
0
44
1.084337
50
0
71
7
72
5
7
iso_b_vert
0
MTEXT
5
14E
100
AcDbEntity
8
SK2
62
256
6
ByLayer
370
18
48
1
60
0
100
AcDbMText
10
107.342572
20
-24.217944
30
0
210
0
220
0
230
1
1
\W1.1313;{\H1.88x;(}
40
3
41
0
44
1.084337
50
0
71
7
72
5
7
iso_b_vert
0
MTEXT
5
14F
100
AcDbEntity
8
SK2
62
256
6
ByLayer
370
18
48
1
60
0
100
AcDbMText
10
117.975428
20
-24.217944
30
0
210
0
220
0
230
1
1
\W1.1313;{\H1.88x;)}
40
3
41
0
44
1.084337
50
0
71
7
72
5
7
iso_b_vert
0
LINE
5
150
100
AcDbEntity
8
SK2
62
256
6
ByLayer
370
13
48
1
60
0
100
AcDbLine
10
179
20
-9.5875
30
0
11
179
21
-28.415559
31
0
39
0
210
0
220
0
230
1
0
LINE
5
151
100
AcDbEntity
8
SK2
62
256
6
ByLayer
370
13
48
1
60
0
100
AcDbLine
10
48.1
20
-9.5875
30
0
11
48.1
21
-28.415559
31
0
39
0
210
0
220
0
230
1
0
LINE
5
152
100
AcDbEntity
8
SK2
62
256
6
ByLayer
370
13
48
1
60
0
100
AcDbLine
10
179
20
-26.415559
30
0
11
48.1
21
-26.415559
31
0
39
0
210
0
220
0
230
1
0
SOLID
5
153
100
AcDbEntity
8
SK2
62
256
6
ByLayer
370
18
48
1
60
0
100
AcDbTrace
10
179
20
-26.415559
30
0
11
175.500002
21
-26.876343
31
0
12
175.499998
22
-25.954775
32
0
13
175.499998
23
-25.954775
33
0
39
0
210
0
220
0
230
1
0
SOLID
5
154
100
AcDbEntity
8
SK2
62
256
6
ByLayer
370
18
48
1
60
0
100
AcDbTrace
10
48.1
20
-26.415559
30
0
11
51.599998
21
-25.954775
31
0
12
51.600002
22
-26.876343
32
0
13
51.600002
23
-26.876343
33
0
39
0
210
0
220
0
230
1
0
ENDBLK
5
156
100
AcDbEntity
8
0
100
AcDbBlockEnd
0
BLOCK
5
15B
100
AcDbEntity
8
0
100
AcDbBlockBegin
2
*D3
70
1
10
0
20
0
30
0
3
*D3
0
LINE
5
15D
100
AcDbEntity
8
0
62
256
6
ByLayer
370
-2
48
1
60
0
100
AcDbLine
10
179
20
-9.5875
30
0
11
179
21
-38.415559
31
0
39
0
210
0
220
0
230
1
0
LINE
5
15E
100
AcDbEntity
8
0
62
256
6
ByLayer
370
-2
48
1
60
0
100
AcDbLine
10
7
20
-9.5875
30
0
11
7
21
-38.415559
31
0
39
0
210
0
220
0
230
1
0
LINE
5
15F
100
AcDbEntity
8
0
62
256
6
ByLayer
370
-2
48
1
60
0
100
AcDbLine
10
175.5
20
-36.415559
30
0
11
10.5
21
-36.415559
31
0
39
0
210
0
220
0
230
1
0
SOLID
5
160
100
AcDbEntity
8
0
62
256
6
ByLayer
370
-1
48
1
60
0
100
AcDbTrace
10
175.5
20
-36.998892
30
0
11
175.5
21
-35.832225
31
0
12
179
22
-36.415559
32
0
13
179
23
-36.415559
33
0
39
0
210
0
220
0
230
1
0
SOLID
5
161
100
AcDbEntity
8
0
62
256
6
ByLayer
370
-1
48
1
60
0
100
AcDbTrace
10
10.5
20
-35.832225
30
0
11
10.5
21
-36.998892
31
0
12
7
22
-36.415559
32
0
13
7
23
-36.415559
33
0
39
0
210
0
220
0
230
1
0
MTEXT
5
162
100
AcDbEntity
8
0
62
256
6
ByLayer
370
18
48
1
60
0
100
AcDbMText
10
93
20
-30.415559
30
0
210
0
220
0
230
1
1
\A1;172
40
3
41
0
44
1
50
0
71
5
72
5
7
iso_b_vert
0
POINT
5
163
100
AcDbEntity
8
Defpoints
62
0
6
ByLayer
370
-1
48
1
60
0
100
AcDbPoint
10
179
20
-8
30
0
39
0
210
0
220
0
230
1
50
360
0
POINT
5
164
100
AcDbEntity
8
Defpoints
62
0
6
ByLayer
370
-1
48
1
60
0
100
AcDbPoint
10
7
20
-8
30
0
39
0
210
0
220
0
230
1
50
360
0
POINT
5
165
100
AcDbEntity
8
Defpoints
62
0
6
ByLayer
370
-1
48
1
60
0
100
AcDbPoint
10
7
20
-36.415559
30
0
39
0
210
0
220
0
230
1
50
360
0
ENDBLK
5
15C
100
AcDbEntity
8
0
100
AcDbBlockEnd
0
BLOCK
5
16D
100
AcDbEntity
8
0
100
AcDbBlockBegin
2
_U1
70
0
10
0
20
0
30
0
3
_U1
0
MTEXT
5
167
100
AcDbEntity
8
SK2
62
256
6
ByLayer
370
18
48
1
60
0
100
AcDbMText
10
90.621201
20
-35.530444
30
0
210
0
220
0
230
1
1
\W0.6217;172
40
3
41
0
44
1.084337
50
0
71
7
72
5
7
iso_b_vert
0
LINE
5
168
100
AcDbEntity
8
SK2
62
256
6
ByLayer
370
13
48
1
60
0
100
AcDbLine
10
179
20
-9.5875
30
0
11
179
21
-38.415559
31
0
39
0
210
0
220
0
230
1
0
LINE
5
169
100
AcDbEntity
8
SK2
62
256
6
ByLayer
370
13
48
1
60
0
100
AcDbLine
10
7
20
-9.5875
30
0
11
7
21
-38.415559
31
0
39
0
210
0
220
0
230
1
0
LINE
5
16A
100
AcDbEntity
8
SK2
62
256
6
ByLayer
370
13
48
1
60
0
100
AcDbLine
10
179
20
-36.415559
30
0
11
7
21
-36.415559
31
0
39
0
210
0
220
0
230
1
0
SOLID
5
16B
100
AcDbEntity
8
SK2
62
256
6
ByLayer
370
18
48
1
60
0
100
AcDbTrace
10
179
20
-36.415559
30
0
11
175.500002
21
-36.876343
31
0
12
175.499998
22
-35.954775
32
0
13
175.499998
23
-35.954775
33
0
39
0
210
0
220
0
230
1
0
SOLID
5
16C
100
AcDbEntity
8
SK2
62
256
6
ByLayer
370
18
48
1
60
0
100
AcDbTrace
10
7
20
-36.415559
30
0
11
10.499998
21
-35.954775
31
0
12
10.500002
22
-36.876343
32
0
13
10.500002
23
-36.876343
33
0
39
0
210
0
220
0
230
1
0
ENDBLK
5
16E
100
AcDbEntity
8
0
100
AcDbBlockEnd
0
BLOCK
5
173
100
AcDbEntity
8
0
100
AcDbBlockBegin
2
*D5
70
1
10
0
20
0
30
0
3
*D5
0
LINE
5
175
100
AcDbEntity
8
0
62
256
6
ByLayer
370
-2
48
1
60
0
100
AcDbLine
10
-48
20
-9.5875
30
0
11
-48
21
-46.415559
31
0
39
0
210
0
220
0
230
1
0
LINE
5
176
100
AcDbEntity
8
0
62
256
6
ByLayer
370
-2
48
1
60
0
100
AcDbLine
10
0
20
-9.5875
30
0
11
0
21
-46.415559
31
0
39
0
210
0
220
0
230
1
0
LINE
5
177
100
AcDbEntity
8
0
62
256
6
ByLayer
370
-2
48
1
60
0
100
AcDbLine
10
-44.5
20
-44.415559
30
0
11
-3.5
21
-44.415559
31
0
39
0
210
0
220
0
230
1
0
SOLID
5
178
100
AcDbEntity
8
0
62
256
6
ByLayer
370
-1
48
1
60
0
100
AcDbTrace
10
-44.5
20
-43.832225
30
0
11
-44.5
21
-44.998892
31
0
12
-48
22
-44.415559
32
0
13
-48
23
-44.415559
33
0
39
0
210
0
220
0
230
1
0
SOLID
5
179
100
AcDbEntity
8
0
62
256
6
ByLayer
370
-1
48
1
60
0
100
AcDbTrace
10
-3.5
20
-44.998892
30
0
11
-3.5
21
-43.832225
31
0
12
0
22
-44.415559
32
0
13
0
23
-44.415559
33
0
39
0
210
0
220
0
230
1
0
MTEXT
5
17A
100
AcDbEntity
8
0
62
256
6
ByLayer
370
18
48
1
60
0
100
AcDbMText
10
-24
20
-38.415559
30
0
210
0
220
0
230
1
1
\A1;48
40
3
41
0
44
1
50
0
71
5
72
5
7
iso_b_vert
0
POINT
5
17B
100
AcDbEntity
8
Defpoints
62
0
6
ByLayer
370
-1
48
1
60
0
100
AcDbPoint
10
-48
20
-8
30
0
39
0
210
0
220
0
230
1
50
360
0
POINT
5
17C
100
AcDbEntity
8
Defpoints
62
0
6
ByLayer
370
-1
48
1
60
0
100
AcDbPoint
10
0
20
-8
30
0
39
0
210
0
220
0
230
1
50
360
0
POINT
5
17D
100
AcDbEntity
8
Defpoints
62
0
6
ByLayer
370
-1
48
1
60
0
100
AcDbPoint
10
0
20
-44.415559
30
0
39
0
210
0
220
0
230
1
50
360
0
ENDBLK
5
174
100
AcDbEntity
8
0
100
AcDbBlockEnd
0
BLOCK
5
185
100
AcDbEntity
8
0
100
AcDbBlockBegin
2
_U2
70
0
10
0
20
0
30
0
3
_U2
0
MTEXT
5
17F
100
AcDbEntity
8
SK2
62
256
6
ByLayer
370
18
48
1
60
0
100
AcDbMText
10
-25.790771
20
-43.530444
30
0
210
0
220
0
230
1
1
\W0.7361;48
40
3
41
0
44
1.084337
50
0
71
7
72
5
7
iso_b_vert
0
LINE
5
180
100
AcDbEntity
8
SK2
62
256
6
ByLayer
370
13
48
1
60
0
100
AcDbLine
10
-48
20
-9.5875
30
0
11
-48
21
-46.415559
31
0
39
0
210
0
220
0
230
1
0
LINE
5
181
100
AcDbEntity
8
SK2
62
256
6
ByLayer
370
13
48
1
60
0
100
AcDbLine
10
0
20
-9.5875
30
0
11
0
21
-46.415559
31
0
39
0
210
0
220
0
230
1
0
LINE
5
182
100
AcDbEntity
8
SK2
62
256
6
ByLayer
370
13
48
1
60
0
100
AcDbLine
10
-48
20
-44.415559
30
0
11
0
21
-44.415559
31
0
39
0
210
0
220
0
230
1
0
SOLID
5
183
100
AcDbEntity
8
SK2
62
256
6
ByLayer
370
18
48
1
60
0
100
AcDbTrace
10
-48
20
-44.415559
30
0
11
-44.500002
21
-43.954775
31
0
12
-44.499998
22
-44.876343
32
0
13
-44.499998
23
-44.876343
33
0
39
0
210
0
220
0
230
1
0
SOLID
5
184
100
AcDbEntity
8
SK2
62
256
6
ByLayer
370
18
48
1
60
0
100
AcDbTrace
10
0
20
-44.415559
30
0
11
-3.499998
21
-44.876343
31
0
12
-3.500002
22
-43.954775
32
0
13
-3.500002
23
-43.954775
33
0
39
0
210
0
220
0
230
1
0
ENDBLK
5
186
100
AcDbEntity
8
0
100
AcDbBlockEnd
0
BLOCK
5
18B
100
AcDbEntity
8
0
100
AcDbBlockBegin
2
*D7
70
1
10
0
20
0
30
0
3
*D7
0
LINE
5
18D
100
AcDbEntity
8
0
62
256
6
ByLayer
370
-2
48
1
60
0
100
AcDbLine
10
-48
20
-9.5875
30
0
11
-48
21
-54.415559
31
0
39
0
210
0
220
0
230
1
0
LINE
5
18E
100
AcDbEntity
8
0
62
256
6
ByLayer
370
-2
48
1
60
0
100
AcDbLine
10
179
20
-9.5875
30
0
11
179
21
-54.415559
31
0
39
0
210
0
220
0
230
1
0
LINE
5
18F
100
AcDbEntity
8
0
62
256
6
ByLayer
370
-2
48
1
60
0
100
AcDbLine
10
-44.5
20
-52.415559
30
0
11
175.5
21
-52.415559
31
0
39
0
210
0
220
0
230
1
0
SOLID
5
190
100
AcDbEntity
8
0
62
256
6
ByLayer
370
-1
48
1
60
0
100
AcDbTrace
10
-44.5
20
-51.832225
30
0
11
-44.5
21
-52.998892
31
0
12
-48
22
-52.415559
32
0
13
-48
23
-52.415559
33
0
39
0
210
0
220
0
230
1
0
SOLID
5
191
100
AcDbEntity
8
0
62
256
6
ByLayer
370
-1
48
1
60
0
100
AcDbTrace
10
175.5
20
-52.998892
30
0
11
175.5
21
-51.832225
31
0
12
179
22
-52.415559
32
0
13
179
23
-52.415559
33
0
39
0
210
0
220
0
230
1
0
MTEXT
5
192
100
AcDbEntity
8
0
62
256
6
ByLayer
370
18
48
1
60
0
100
AcDbMText
10
65.5
20
-46.415559
30
0
210
0
220
0
230
1
1
\A1;227
40
3
41
0
44
1
50
0
71
5
72
5
7
iso_b_vert
0
POINT
5
193
100
AcDbEntity
8
Defpoints
62
0
6
ByLayer
370
-1
48
1
60
0
100
AcDbPoint
10
-48
20
-8
30
0
39
0
210
0
220
0
230
1
50
360
0
POINT
5
194
100
AcDbEntity
8
Defpoints
62
0
6
ByLayer
370
-1
48
1
60
0
100
AcDbPoint
10
179
20
-8
30
0
39
0
210
0
220
0
230
1
50
360
0
POINT
5
195
100
AcDbEntity
8
Defpoints
62
0
6
ByLayer
370
-1
48
1
60
0
100
AcDbPoint
10
179
20
-52.415559
30
0
39
0
210
0
220
0
230
1
50
360
0
ENDBLK
5
18C
100
AcDbEntity
8
0
100
AcDbBlockEnd
0
BLOCK
5
19D
100
AcDbEntity
8
0
100
AcDbBlockBegin
2
_U3
70
0
10
0
20
0
30
0
3
_U3
0
MTEXT
5
197
100
AcDbEntity
8
SK2
62
256
6
ByLayer
370
18
48
1
60
0
100
AcDbMText
10
62.746258
20
-51.530444
30
0
210
0
220
0
230
1
1
\W0.7138;227
40
3
41
0
44
1.084337
50
0
71
7
72
5
7
iso_b_vert
0
LINE
5
198
100
AcDbEntity
8
SK2
62
256
6
ByLayer
370
13
48
1
60
0
100
AcDbLine
10
-48
20
-9.5875
30
0
11
-48
21
-54.415559
31
0
39
0
210
0
220
0
230
1
0
LINE
5
199
100
AcDbEntity
8
SK2
62
256
6
ByLayer
370
13
48
1
60
0
100
AcDbLine
10
179
20
-9.5875
30
0
11
179
21
-54.415559
31
0
39
0
210
0
220
0
230
1
0
LINE
5
19A
100
AcDbEntity
8
SK2
62
256
6
ByLayer
370
13
48
1
60
0
100
AcDbLine
10
-48
20
-52.415559
30
0
11
179
21
-52.415559
31
0
39
0
210
0
220
0
230
1
0
SOLID
5
19B
100
AcDbEntity
8
SK2
62
256
6
ByLayer
370
18
48
1
60
0
100
AcDbTrace
10
-48
20
-52.415559
30
0
11
-44.500002
21
-51.954775
31
0
12
-44.499998
22
-52.876343
32
0
13
-44.499998
23
-52.876343
33
0
39
0
210
0
220
0
230
1
0
SOLID
5
19C
100
AcDbEntity
8
SK2
62
256
6
ByLayer
370
18
48
1
60
0
100
AcDbTrace
10
179
20
-52.415559
30
0
11
175.500002
21
-52.876343
31
0
12
175.499998
22
-51.954775
32
0
13
175.499998
23
-51.954775
33
0
39
0
210
0
220
0
230
1
0
ENDBLK
5
19E
100
AcDbEntity
8
0
100
AcDbBlockEnd
0
BLOCK
5
1A3
100
AcDbEntity
8
0
100
AcDbBlockBegin
2
*D9
70
1
10
0
20
0
30
0
3
*D9
0
LINE
5
1A5
100
AcDbEntity
8
0
62
256
6
ByLayer
370
-2
48
1
60
0
100
AcDbLine
10
179
20
-9.5875
30
0
11
179
21
-46.415559
31
0
39
0
210
0
220
0
230
1
0
LINE
5
1A6
100
AcDbEntity
8
0
62
256
6
ByLayer
370
-2
48
1
60
0
100
AcDbLine
10
0
20
-9.5875
30
0
11
0
21
-46.415559
31
0
39
0
210
0
220
0
230
1
0
LINE
5
1A7
100
AcDbEntity
8
0
62
256
6
ByLayer
370
-2
48
1
60
0
100
AcDbLine
10
175.5
20
-44.415559
30
0
11
3.5
21
-44.415559
31
0
39
0
210
0
220
0
230
1
0
SOLID
5
1A8
100
AcDbEntity
8
0
62
256
6
ByLayer
370
-1
48
1
60
0
100
AcDbTrace
10
175.5
20
-44.998892
30
0
11
175.5
21
-43.832225
31
0
12
179
22
-44.415559
32
0
13
179
23
-44.415559
33
0
39
0
210
0
220
0
230
1
0
SOLID
5
1A9
100
AcDbEntity
8
0
62
256
6
ByLayer
370
-1
48
1
60
0
100
AcDbTrace
10
3.5
20
-43.832225
30
0
11
3.5
21
-44.998892
31
0
12
0
22
-44.415559
32
0
13
0
23
-44.415559
33
0
39
0
210
0
220
0
230
1
0
MTEXT
5
1AA
100
AcDbEntity
8
0
62
256
6
ByLayer
370
18
48
1
60
0
100
AcDbMText
10
89.5
20
-38.415559
30
0
210
0
220
0
230
1
1
\A1;179
40
3
41
0
44
1
50
0
71
5
72
5
7
iso_b_vert
0
POINT
5
1AB
100
AcDbEntity
8
Defpoints
62
0
6
ByLayer
370
-1
48
1
60
0
100
AcDbPoint
10
179
20
-8
30
0
39
0
210
0
220
0
230
1
50
360
0
POINT
5
1AC
100
AcDbEntity
8
Defpoints
62
0
6
ByLayer
370
-1
48
1
60
0
100
AcDbPoint
10
0
20
-8
30
0
39
0
210
0
220
0
230
1
50
360
0
POINT
5
1AD
100
AcDbEntity
8
Defpoints
62
0
6
ByLayer
370
-1
48
1
60
0
100
AcDbPoint
10
0
20
-44.415559
30
0
39
0
210
0
220
0
230
1
50
360
0
ENDBLK
5
1A4
100
AcDbEntity
8
0
100
AcDbBlockEnd
0
BLOCK
5
1B5
100
AcDbEntity
8
0
100
AcDbBlockBegin
2
_U4
70
0
10
0
20
0
30
0
3
_U4
0
MTEXT
5
1AF
100
AcDbEntity
8
2
62
256
6
ByLayer
370
18
48
1
60
0
100
AcDbMText
10
87.121201
20
-43.530444
30
0
210
0
220
0
230
1
1
\W0.6328;179
40
3
41
0
44
1.084337
50
0
71
7
72
5
7
iso_b_vert
0
LINE
5
1B0
100
AcDbEntity
8
2
62
256
6
ByLayer
370
13
48
1
60
0
100
AcDbLine
10
179
20
-9.5875
30
0
11
179
21
-46.415559
31
0
39
0
210
0
220
0
230
1
0
LINE
5
1B1
100
AcDbEntity
8
2
62
256
6
ByLayer
370
13
48
1
60
0
100
AcDbLine
10
0
20
-9.5875
30
0
11
0
21
-46.415559
31
0
39
0
210
0
220
0
230
1
0
LINE
5
1B2
100
AcDbEntity
8
2
62
256
6
ByLayer
370
13
48
1
60
0
100
AcDbLine
10
179
20
-44.415559
30
0
11
0
21
-44.415559
31
0
39
0
210
0
220
0
230
1
0
SOLID
5
1B3
100
AcDbEntity
8
2
62
256
6
ByLayer
370
18
48
1
60
0
100
AcDbTrace
10
179
20
-44.415559
30
0
11
175.500002
21
-44.876343
31
0
12
175.499998
22
-43.954775
32
0
13
175.499998
23
-43.954775
33
0
39
0
210
0
220
0
230
1
0
SOLID
5
1B4
100
AcDbEntity
8
2
62
256
6
ByLayer
370
18
48
1
60
0
100
AcDbTrace
10
0
20
-44.415559
30
0
11
3.499998
21
-43.954775
31
0
12
3.500002
22
-44.876343
32
0
13
3.500002
23
-44.876343
33
0
39
0
210
0
220
0
230
1
0
ENDBLK
5
1B6
100
AcDbEntity
8
0
100
AcDbBlockEnd
0
ENDSEC
0
SECTION
2
ENTITIES
0
ARC
5
C5
100
AcDbEntity
8
SK2
62
256
6
ByLayer
370
13
48
1
60
0
100
AcDbCircle
39
0
10
179
20
0
30
0
40
25.5738876068414
210
0
220
0
230
1
100
AcDbArc
50
6.736716
51
69.998494
0
ARC
5
C6
100
AcDbEntity
8
SK2
62
256
6
ByLayer
370
13
48
1
60
0
100
AcDbCircle
39
0
10
179
20
0
30
0
40
25.5738876068414
210
0
220
0
230
1
100
AcDbArc
50
290.001506
51
353.263284
0
ELLIPSE
5
C7
100
AcDbEntity
8
1
62
256
6
ByLayer
370
18
48
1
60
0
100
AcDbEllipse
10
99.100238
20
7.657663
30
0
11
-0.1
21
1.22460635382238E-17
31
0
210
0
220
0
230
1
40
0.999999
41
0.00174242010948032
42
1.57649805574727
0
ELLIPSE
5
C8
100
AcDbEntity
8
1
62
256
6
ByLayer
370
18
48
1
60
0
100
AcDbEllipse
10
99.100238
20
-7.657663
30
0
11
-0.1
21
1.22460635382238E-17
31
0
210
0
220
0
230
1
40
0.999999
41
-1.57128752023076
42
-0.00174242010977341
0
POINT
5
70
100
AcDbEntity
8
80
62
256
6
ByLayer
370
18
48
1
60
0
100
AcDbPoint
10
0
20
0
30
0
39
0
210
0
220
0
230
1
50
360
0
POINT
5
72
100
AcDbEntity
8
81
62
256
6
ByLayer
370
18
48
1
60
0
100
AcDbPoint
10
179
20
0
30
0
39
0
210
0
220
0
230
1
50
360
0
POINT
5
74
100
AcDbEntity
8
1
62
256
6
ByLayer
370
18
48
1
60
0
100
AcDbPoint
10
-149.888056
20
-200
30
0
39
0
210
0
220
0
230
1
50
360
0
POINT
5
76
100
AcDbEntity
8
1
62
256
6
ByLayer
370
13
48
1
60
1
100
AcDbPoint
10
-49.5
20
0
30
0
39
0
210
0
220
0
230
1
50
360
0
POINT
5
77
100
AcDbEntity
8
1
62
256
6
ByLayer
370
13
48
1
60
1
100
AcDbPoint
10
177.570254
20
0
30
0
39
0
210
0
220
0
230
1
50
360
0
POINT
5
78
100
AcDbEntity
8
1
62
256
6
ByLayer
370
18
48
1
60
1
100
AcDbPoint
10
179
20
-8
30
0
39
0
210
0
220
0
230
1
50
360
0
POINT
5
79
100
AcDbEntity
8
1
62
256
6
ByLayer
370
18
48
1
60
1
100
AcDbPoint
10
48.1
20
-8
30
0
39
0
210
0
220
0
230
1
50
360
0
POINT
5
7A
100
AcDbEntity
8
1
62
256
6
ByLayer
370
18
48
1
60
1
100
AcDbPoint
10
179
20
-8
30
0
39
0
210
0
220
0
230
1
50
360
0
POINT
5
7B
100
AcDbEntity
8
1
62
256
6
ByLayer
370
18
48
1
60
1
100
AcDbPoint
10
7
20
-8
30
0
39
0
210
0
220
0
230
1
50
360
0
POINT
5
7C
100
AcDbEntity
8
1
62
256
6
ByLayer
370
18
48
1
60
1
100
AcDbPoint
10
-48
20
-8
30
0
39
0
210
0
220
0
230
1
50
360
0
POINT
5
7D
100
AcDbEntity
8
1
62
256
6
ByLayer
370
18
48
1
60
1
100
AcDbPoint
10
0
20
-8
30
0
39
0
210
0
220
0
230
1
50
360
0
POINT
5
7E
100
AcDbEntity
8
1
62
256
6
ByLayer
370
18
48
1
60
1
100
AcDbPoint
10
-48
20
-8
30
0
39
0
210
0
220
0
230
1
50
360
0
POINT
5
7F
100
AcDbEntity
8
1
62
256
6
ByLayer
370
18
48
1
60
1
100
AcDbPoint
10
179
20
-8
30
0
39
0
210
0
220
0
230
1
50
360
0
POINT
5
80
100
AcDbEntity
8
1
62
256
6
ByLayer
370
18
48
1
60
1
100
AcDbPoint
10
179
20
-8
30
0
39
0
210
0
220
0
230
1
50
360
0
POINT
5
81
100
AcDbEntity
8
1
62
256
6
ByLayer
370
18
48
1
60
1
100
AcDbPoint
10
0
20
-8
30
0
39
0
210
0
220
0
230
1
50
360
0
SPLINE
5
C9
100
AcDbEntity
8
1
62
256
6
ByLayer
370
18
48
1
60
0
100
AcDbSpline
70
4
71
3
72
40
73
36
40
0
40
0
40
0
40
0
40
1.50366801613E-05
40
2.35856527723E-05
40
3.09104331025E-05
40
3.74986334401E-05
40
4.37703861066E-05
40
9.24004314587E-05
40
0.0001245603518609
40
0.0001821347173684
40
0.0002855965697467
40
0.0004724359067535
40
0.0008127941778122
40
0.0077545333409173
40
0.0214132872172821
40
0.0515964080514964
40
0.0868439610270868
40
0.125724452101381
40
0.198873767139861
40
0.258082244338135
40
0.321221256988918
40
0.391764790247707
40
0.466619678687671
40
0.538727348514797
40
0.599426079462522
40
0.643805655960629
40
0.69700447180098
40
0.750215698496259
40
0.801957184088829
40
0.850682714016885
40
0.885005822259703
40
0.915807909169423
40
0.946709336064217
40
0.990220918344621
40
1
40
1
40
1
40
1
41
1
10
93.2581310709027
20
0.641372237498075
30
0
41
1
10
93.2581480277071
20
0.641368690197282
30
0
41
1
10
93.2581663339128
20
0.641365288803939
30
0
41
1
10
93.2581528871938
20
0.641371190753745
30
0
41
1
10
93.2581298552677
20
0.641377867377287
30
0
41
1
10
93.2580885217379
20
0.641388933299822
30
0
41
1
10
93.2579094894335
20
0.641435234298484
30
0
41
1
10
93.2574818905466
20
0.641540621423331
30
0
41
1
10
93.2571046377996
20
0.641638938575426
30
0
41
1
10
93.2564924991553
20
0.641795730057055
30
0
41
1
10
93.2554361677922
20
0.642067581012412
30
0
41
1
10
93.2534721189528
20
0.642571676107877
30
0
41
1
10
93.2299637645701
20
0.648599421608424
30
0
41
1
10
93.1530609323659
20
0.668087305827356
30
0
41
1
10
92.9375566160633
20
0.722051769306319
30
0
41
1
10
92.6025138244487
20
0.807349627757503
30
0
41
1
10
92.1594123165209
20
0.922848128879707
30
0
41
1
10
91.5353146436555
20
1.08993249008395
30
0
41
1
10
90.811208928311
20
1.29147985086706
30
0
41
1
10
89.986759771675
20
1.53132978239248
30
0
41
1
10
89.1755767513347
20
1.77677370129231
30
0
41
1
10
88.3016127143302
20
2.05236141845322
30
0
41
1
10
87.3935830189896
20
2.35130702703205
30
0
41
1
10
86.5302251191006
20
2.64768285757671
30
0
41
1
10
85.7963695261832
20
2.90893477863583
30
0
41
1
10
85.1431724904873
20
3.14805409201424
30
0
41
1
10
84.5228829908365
20
3.38093995189271
30
0
41
1
10
83.8746050082773
20
3.63096541880518
30
0
41
1
10
83.2469392873796
20
3.87938070636139
30
0
41
1
10
82.6983503084311
20
4.10180510381454
30
0
41
1
10
82.2363320465392
20
4.29285381555749
30
0
41
1
10
81.8475338616279
20
4.45599411882796
30
0
41
1
10
81.4226120173807
20
4.63712511401079
30
0
41
1
10
81.0830448894599
20
4.78321352823895
30
0
41
1
10
80.8691255445035
20
4.87795705890525
30
0
41
1
10
80.8298922703114
20
4.89539298370042
30
0
0
SPLINE
5
CA
100
AcDbEntity
8
1
62
256
6
ByLayer
370
18
48
1
60
0
100
AcDbSpline
70
4
71
3
72
20
73
16
40
0
40
0
40
0
40
0
40
0.0905661497404213
40
0.188141681658228
40
0.266614063680576
40
0.327819241011439
40
0.404133765032587
40
0.484228181300498
40
0.554939844156342
40
0.616249682089565
40
0.66487606402028
40
0.730035447650633
40
0.812266130733053
40
0.911573853344988
40
1
40
1
40
1
40
1
41
1
10
175.264339174045
20
2.09866016823577
30
0
41
1
10
175.027433463338
20
2.17538801245732
30
0
41
1
10
174.536117269762
20
2.33724023144177
30
0
41
1
10
173.842354436139
20
2.57403795663708
30
0
41
1
10
173.226976675262
20
2.79045996738958
30
0
41
1
10
172.668270588933
20
2.99165342119923
30
0
41
1
10
172.106893295749
20
3.19843873656666
30
0
41
1
10
171.522821079469
20
3.41907493353509
30
0
41
1
10
170.979034476778
20
3.62942440522781
30
0
41
1
10
170.517232560578
20
3.81172723911706
30
0
41
1
10
170.070695903431
20
3.99096435222418
30
0
41
1
10
169.571940205298
20
4.19456940213095
30
0
41
1
10
168.946230474887
20
4.45566595283773
30
0
41
1
10
168.264014405423
20
4.74736137302614
30
0
41
1
10
167.792008878934
20
4.95565726616624
30
0
41
1
10
167.570173351197
20
5.05488912465765
30
0
0
SPLINE
5
CB
100
AcDbEntity
8
1
62
256
6
ByLayer
370
18
48
1
60
0
100
AcDbSpline
70
4
71
3
72
33
73
29
40
0
40
0
40
0
40
0
40
3.95916618255E-05
40
7.12033342059E-05
40
0.0001278238198861
40
0.0002294844287703
40
0.0004128230151926
40
0.000746177692307
40
0.0013616474902243
40
0.002531089302593
40
0.0049336826048427
40
0.0102286342731001
40
0.029373407901982
40
0.0558375241044049
40
0.100892715783556
40
0.213203095981321
40
0.316553906923784
40
0.426018291704733
40
0.533358639090471
40
0.634987863562916
40
0.683659661891241
40
0.725990367786785
40
0.770561272210333
40
0.821544023186932
40
0.868133669541809
40
0.921217731923502
40
0.985745086308507
40
1
40
1
40
1
40
1
41
1
10
49.7429023390099
20
0.632955977624903
30
0
41
1
10
49.7428018180648
20
0.632983069546697
30
0
41
1
10
49.7425034701087
20
0.63306021377673
30
0
41
1
10
49.7423718823341
20
0.633102027905807
30
0
41
1
10
49.7420298304273
20
0.633199172221083
30
0
41
1
10
49.741489722954
20
0.633355805854734
30
0
41
1
10
49.7404182628239
20
0.633661337355818
30
0
41
1
10
49.7383656910523
20
0.634240952822239
30
0
41
1
10
49.7341063598931
20
0.635419920396714
30
0
41
1
10
49.7244941402976
20
0.638013577541784
30
0
41
1
10
49.6998595395203
20
0.644419781118415
30
0
41
1
10
49.5910319642787
20
0.671529769804408
30
0
41
1
10
49.378783291623
20
0.724688559449476
30
0
41
1
10
48.9957917692577
20
0.822279995100359
30
0
41
1
10
48.2236082421523
20
1.02422854503925
30
0
41
1
10
47.1304659929011
20
1.32629297300704
30
0
41
1
10
45.7749548706657
20
1.7283992592389
30
0
41
1
10
44.4484599452362
20
2.14853574069681
30
0
41
1
10
43.1373004641147
20
2.5906799009812
30
0
41
1
10
42.083308068092
20
2.96694384221621
30
0
41
1
10
41.2990152536362
20
3.25809171869702
30
0
41
1
10
40.7486459834572
20
3.46716010339335
30
0
41
1
10
40.1903920931044
20
3.68382726819323
30
0
41
1
10
39.6166237707097
20
3.91177406313926
30
0
41
1
10
39.0103266784549
20
4.15813653120208
30
0
41
1
10
38.3519254174886
20
4.43260081226231
30
0
41
1
10
37.8246415207426
20
4.65609797751671
30
0
41
1
10
37.5117246960983
20
4.79413521957304
30
0
41
1
10
37.45515182869
20
4.81921113067872
30
0
0
SPLINE
5
CC
100
AcDbEntity
8
1
62
256
6
ByLayer
370
18
48
1
60
0
100
AcDbSpline
70
4
71
3
72
36
73
32
40
0
40
0
40
0
40
0
40
8.9082835934E-06
40
2.09616653223E-05
40
3.11157156552E-05
40
4.05347092391E-05
40
5.96864909033E-05
40
0.0002203873688071
40
0.0003441801668678
40
0.000568680954775
40
0.0009806271848739
40
0.0017518808865747
40
0.0032446694553394
40
0.0062927693169542
40
0.0131200114473982
40
0.0300270880520959
40
0.0709434888010135
40
0.168907941956005
40
0.247587071709291
40
0.333721367791429
40
0.423310044388392
40
0.505421013495366
40
0.573584506340948
40
0.631834890706938
40
0.699105569656366
40
0.768458050094383
40
0.801554615115842
40
0.841999824413435
40
0.894088601395781
40
0.95782589655871
40
1
40
1
40
1
40
1
41
1
10
136.82282173323
20
0.637904871839055
30
0
41
1
10
136.822827045593
20
0.637903952312911
30
0
41
1
10
136.822834763955
20
0.637902958543236
30
0
41
1
10
136.822820997035
20
0.637907646621841
30
0
41
1
10
136.822765249954
20
0.63792248812095
30
0
41
1
10
136.822650368138
20
0.637951750336867
30
0
41
1
10
136.821871161466
20
0.638144949445291
30
0
41
1
10
136.820806021096
20
0.63841181369267
30
0
41
1
10
136.819015187305
20
0.638860589424212
30
0
41
1
10
136.816320613796
20
0.639535396044039
30
0
41
1
10
136.811275588388
20
0.640797871602871
30
0
41
1
10
136.801509159095
20
0.643238910708362
30
0
41
1
10
136.781592188608
20
0.648210087599779
30
0
41
1
10
136.73746217506
20
0.659215718699272
30
0
41
1
10
136.626947237009
20
0.686818327671148
30
0
41
1
10
136.349728277637
20
0.756565862594243
30
0
41
1
10
135.675993104001
20
0.929749813446364
30
0
41
1
10
134.74141561633
20
1.18261040654832
30
0
41
1
10
133.616046269323
20
1.5062098468166
30
0
41
1
10
132.531247494381
20
1.83543884487472
30
0
41
1
10
131.437191241431
20
2.18609090797617
30
0
41
1
10
130.424927604922
20
2.52736916278519
30
0
41
1
10
129.548373344467
20
2.83566091471238
30
0
41
1
10
128.737214520039
20
3.13092210509964
30
0
41
1
10
127.92481177825
20
3.43656401416874
30
0
41
1
10
127.220043527046
20
3.71109137750403
30
0
41
1
10
126.628471960683
20
3.94745282912007
30
0
41
1
10
126.109689345967
20
4.15842602622666
30
0
41
1
10
125.466615064231
20
4.42600487130792
30
0
41
1
10
124.818729417331
20
4.70194124322146
30
0
41
1
10
124.386894104435
20
4.89241194492226
30
0
41
1
10
124.215263989067
20
4.96899961599775
30
0
0
SPLINE
5
CD
100
AcDbEntity
8
1
62
256
6
ByLayer
370
18
48
1
60
0
100
AcDbSpline
70
4
71
2
72
6
73
3
40
0
40
0
40
0
40
1
40
1
40
1
41
1
10
155.948167500254
20
0.0007557085098142
30
0
41
1
10
155.948100997519
20
0.0007922266948697
30
0
41
1
10
155.948034495096
20
0.0008301657565255
30
0
0
SPLINE
5
CE
100
AcDbEntity
8
1
62
256
6
ByLayer
370
18
48
1
60
0
100
AcDbSpline
70
4
71
3
72
37
73
33
40
0
40
0
40
0
40
0
40
0.0398498520293685
40
0.0699241010190579
40
0.0907855675053687
40
0.111457459855867
40
0.135177653423315
40
0.168083007826727
40
0.194402413323257
40
0.216540434166435
40
0.241500650503939
40
0.271319233287368
40
0.307977785132967
40
0.340676245221577
40
0.365218576079346
40
0.403440749991987
40
0.452039256498935
40
0.500696893762986
40
0.537871696632571
40
0.582300367804754
40
0.631913676146297
40
0.66321050011966
40
0.689512840753224
40
0.719777032854777
40
0.757711491542253
40
0.804858190375582
40
0.849139295442635
40
0.886134017204352
40
0.917550927244999
40
0.957993502356681
40
0.998730670342207
40
1
40
1
40
1
40
1
41
1
10
134.172745200213
20
-7.62035757353732
30
0
41
1
10
134.376756505196
20
-7.62073444134566
30
0
41
1
10
134.734773248299
20
-7.62140408874475
30
0
41
1
10
135.199945522331
20
-7.62228503133423
30
0
41
1
10
135.566569688524
20
-7.62300089665212
30
0
41
1
10
135.900563721148
20
-7.62362263742793
30
0
41
1
10
136.296518581138
20
-7.62440202060932
30
0
41
1
10
136.721435073856
20
-7.62530566252897
30
0
41
1
10
137.138243921026
20
-7.62611578412643
30
0
41
1
10
137.514316364808
20
-7.62676614408136
30
0
41
1
10
137.908362869998
20
-7.6273739308929
30
0
41
1
10
138.376774785236
20
-7.62817991015592
30
0
41
1
10
138.884822017085
20
-7.62929672718278
30
0
41
1
10
139.365872447021
20
-7.63015636194768
30
0
41
1
10
139.854871473927
20
-7.63096852038981
30
0
41
1
10
140.425389665962
20
-7.63180368815199
30
0
41
1
10
141.119393443925
20
-7.63331397503379
30
0
41
1
10
141.808091614847
20
-7.63483883809633
30
0
41
1
10
142.475336355161
20
-7.63556520650741
30
0
41
1
10
143.147575213502
20
-7.63649308109902
30
0
41
1
10
143.789609461809
20
-7.63829056658187
30
0
41
1
10
144.338868402571
20
-7.63906278090795
30
0
41
1
10
144.788917689331
20
-7.6396063962533
30
0
41
1
10
145.273048166209
20
-7.64009486770888
30
0
41
1
10
145.863939997643
20
-7.64181550992217
30
0
41
1
10
146.526649060289
20
-7.64310825179302
30
0
41
1
10
147.184535901871
20
-7.64366317127369
30
0
41
1
10
147.761861571481
20
-7.64441900397028
30
0
41
1
10
148.319429473984
20
-7.64616029449374
30
0
41
1
10
148.896267668271
20
-7.64715744606158
30
0
41
1
10
149.318618067014
20
-7.64755770713003
30
0
41
1
10
149.53381279378
20
-7.64780017254219
30
0
41
1
10
149.540315443063
20
-7.64780754152983
30
0
0
SPLINE
5
CF
100
AcDbEntity
8
1
62
256
6
ByLayer
370
18
48
1
60
0
100
AcDbSpline
70
4
71
3
72
28
73
24
40
0
40
0
40
0
40
0
40
0.0585044924191361
40
0.102233777033221
40
0.131127493769687
40
0.149863504868401
40
0.171293212346946
40
0.237492042875761
40
0.295867001195794
40
0.342766538171445
40
0.388203569474508
40
0.448711712926202
40
0.509838127856227
40
0.567230773238762
40
0.618338562514775
40
0.68498717013966
40
0.751957289061614
40
0.782814221368301
40
0.809422544058809
40
0.832427472454542
40
0.869651961292878
40
0.92856411846772
40
1
40
1
40
1
40
1
41
1
10
109.76722054304
20
7.57886850692793
30
0
41
1
10
109.559209067429
20
7.57860388544367
30
0
41
1
10
109.195714470708
20
7.57805120067877
30
0
41
1
10
108.729468047067
20
7.57719511286413
30
0
41
1
10
108.404630960654
20
7.57643473846963
30
0
41
1
10
108.159113921564
20
7.57586415486415
30
0
41
1
10
107.780912657711
20
7.57500813537823
30
0
41
1
10
107.261788763221
20
7.57418718757808
30
0
41
1
10
106.652087543305
20
7.57351363654254
30
0
41
1
10
106.116212626975
20
7.57250986838687
30
0
41
1
10
105.572803066603
20
7.57125947769066
30
0
41
1
10
104.97874951261
20
7.57015683931536
30
0
41
1
10
104.342216718704
20
7.5693776270287
30
0
41
1
10
103.739065547585
20
7.56770041216066
30
0
41
1
10
103.116376746623
20
7.56596263200956
30
0
41
1
10
102.459543611765
20
7.565308510417
30
0
41
1
10
101.874750933997
20
7.56451731416934
30
0
41
1
10
101.432301475125
20
7.56386917813188
30
0
41
1
10
101.146177075356
20
7.56340351144408
30
0
41
1
10
100.837467434404
20
7.56284206607523
30
0
41
1
10
100.413835792335
20
7.56195561438179
30
0
41
1
10
99.8180092754686
20
7.56041314031563
30
0
41
1
10
99.3545525898387
20
7.55868916407044
30
0
41
1
10
99.1005638092155
20
7.55760677902387
30
0
0
SPLINE
5
D0
100
AcDbEntity
8
1
62
256
6
ByLayer
370
18
48
1
60
0
100
AcDbSpline
70
4
71
3
72
37
73
33
40
0
40
0
40
0
40
0
40
0.0448219617854715
40
0.0784111338949003
40
0.105820538638163
40
0.134848169238708
40
0.163783173464529
40
0.187949616937641
40
0.210221310403319
40
0.238144212564889
40
0.269375229337822
40
0.303519484646918
40
0.333895319452009
40
0.358549247893825
40
0.395928837733884
40
0.440972969827885
40
0.488267073367578
40
0.526355652601134
40
0.556710061127617
40
0.583079978139311
40
0.614426817568496
40
0.657052059808004
40
0.696361150024884
40
0.730049985718164
40
0.76379842282265
40
0.809033069261727
40
0.847672729116132
40
0.87952889431395
40
0.910966239217728
40
0.954995511361044
40
0.98883026359193
40
1
40
1
40
1
40
1
41
1
10
153.325072592793
20
7.65476645973931
30
0
41
1
10
153.095949975678
20
7.65411190470527
30
0
41
1
10
152.694996657767
20
7.65314411933389
30
0
41
1
10
152.152176848767
20
7.65195835842008
30
0
41
1
10
151.692348340735
20
7.65168735460912
30
0
41
1
10
151.25495841569
20
7.65130381023724
30
0
41
1
10
150.834202573517
20
7.65073009488512
30
0
41
1
10
150.448032457887
20
7.64966682179482
30
0
41
1
10
150.067116927382
20
7.64854833043572
30
0
41
1
10
149.649922271395
20
7.64789625978031
30
0
41
1
10
149.171922588611
20
7.64742159096096
30
0
41
1
10
148.681390121104
20
7.64684219729278
30
0
41
1
10
148.224486166093
20
7.6458494779487
30
0
41
1
10
147.751118317866
20
7.64442607898974
30
0
41
1
10
147.202494736298
20
7.64367127245671
30
0
41
1
10
146.537906143449
20
7.64312544515903
30
0
41
1
10
145.869673519015
20
7.64183410929954
30
0
41
1
10
145.27671367719
20
7.64010042145148
30
0
41
1
10
144.790934874051
20
7.63960792390751
30
0
41
1
10
144.339774272998
20
7.6390655670611
30
0
41
1
10
143.825659652261
20
7.63833402682914
30
0
41
1
10
143.245325749204
20
7.63682444297621
30
0
41
1
10
142.652931537591
20
7.63571406123864
30
0
41
1
10
142.106039758126
20
7.63521683860876
30
0
41
1
10
141.528801473546
20
7.63427397715691
30
0
41
1
10
140.926180667932
20
7.63284027588665
30
0
41
1
10
140.333259700563
20
7.63168207789994
30
0
41
1
10
139.81100608822
20
7.63089558547631
30
0
41
1
10
139.261191665314
20
7.62999105792406
30
0
41
1
10
138.701180615247
20
7.62890227548854
30
0
41
1
10
138.24504017283
20
7.62794489364188
30
0
41
1
10
138.01446660269
20
7.62755647174922
30
0
41
1
10
137.957239958554
20
7.62746309745984
30
0
0
SPLINE
5
D1
100
AcDbEntity
8
1
62
256
6
ByLayer
370
18
48
1
60
0
100
AcDbSpline
70
4
71
3
72
23
73
19
40
0
40
0
40
0
40
0
40
0.0748075179482727
40
0.144806683362735
40
0.195958771052184
40
0.24389136470592
40
0.296372898146817
40
0.352397605252256
40
0.402542099814563
40
0.444568961984673
40
0.508270628440065
40
0.581306046855176
40
0.664872466548036
40
0.751477657255136
40
0.826852779259066
40
0.901260226692685
40
0.989021614841241
40
1
40
1
40
1
40
1
41
1
10
99.1005588872566
20
-7.55762611137314
30
0
41
1
10
99.2714910458108
20
-7.55836187211622
30
0
41
1
10
99.6023688802883
20
-7.55965309961059
30
0
41
1
10
100.050125557215
20
-7.56101103014981
30
0
41
1
10
100.436479278813
20
-7.56199246908673
30
0
41
1
10
100.78279448948
20
-7.56273987599232
30
0
41
1
10
101.140152880393
20
-7.56339406079618
30
0
41
1
10
101.502290763747
20
-7.56392393263997
30
0
41
1
10
101.841024126364
20
-7.56438301078791
30
0
41
1
10
102.19697054687
20
-7.56491678828996
30
0
41
1
10
102.604859117723
20
-7.56547036941896
30
0
41
1
10
103.108681018995
20
-7.5660244408343
30
0
41
1
10
103.663257610633
20
-7.56745092582128
30
0
41
1
10
104.223509102455
20
-7.56860190449677
30
0
41
1
10
104.761554634596
20
-7.56993508246302
30
0
41
1
10
105.303341824142
20
-7.57068464845744
30
0
41
1
10
105.699239595418
20
-7.57158060663093
30
0
41
1
10
105.92480348524
20
-7.57206026949837
30
0
41
1
10
105.949880891373
20
-7.57211312639626
30
0
0
SPLINE
5
D2
100
AcDbEntity
8
SK1
62
256
6
ByLayer
370
18
48
1
60
0
100
AcDbSpline
70
4
71
4
72
13
73
8
40
0
40
0
40
0
40
0
40
0
40
0.583758603461522
40
0.583758603461522
40
0.583758603461522
40
1
40
1
40
1
40
1
40
1
41
0.994813616998192
10
-48.0000007107436
20
-0.49733087953768
30
0
41
0.995039424910167
10
-48.0000004174831
20
-0.647456142569474
30
0
41
1.0023791670374
10
-48.0000001261651
20
-0.757474382644707
30
0
41
1.0166117137858
10
-47.9999998785873
20
-0.807784433688283
30
0
41
1.0166117137858
10
-47.9999995631621
20
-0.821432519671894
30
0
41
1.00937558028862
10
-47.9999994411619
20
-0.80671857580032
30
0
41
1.00256174543074
10
-47.9999993476897
20
-0.764130271104809
30
0
41
0.998425057347898
10
-47.9999992903372
20
-0.695744840998976
30
0
0
SPLINE
5
D3
100
AcDbEntity
8
SK1
62
256
6
ByLayer
370
18
48
1
60
0
100
AcDbSpline
70
4
71
3
72
54
73
50
40
0
40
0
40
0
40
0
40
0.125000000000001
40
0.125000000000001
40
0.187500000000001
40
0.187500000000001
40
0.218750000000001
40
0.218750000000001
40
0.250000000000002
40
0.250000000000002
40
0.312500000000002
40
0.312500000000002
40
0.343750000000003
40
0.343750000000003
40
0.375000000000003
40
0.375000000000003
40
0.406250000000004
40
0.406250000000004
40
0.421875000000005
40
0.421875000000005
40
0.437500000000005
40
0.437500000000005
40
0.468750000000005
40
0.468750000000005
40
0.484375000000006
40
0.484375000000006
40
0.500000000000006
40
0.500000000000006
40
0.531250000000006
40
0.531250000000006
40
0.546875000000007
40
0.546875000000007
40
0.562500000000007
40
0.562500000000007
40
0.593750000000007
40
0.593750000000007
40
0.609375000000007
40
0.609375000000007
40
0.625000000000007
40
0.625000000000007
40
0.687500000000005
40
0.687500000000005
40
0.750000000000004
40
0.750000000000004
40
0.812500000000003
40
0.812500000000003
40
0.875000000000002
40
0.875000000000002
40
1
40
1
40
1
40
1
41
1
10
-48.0000000000012
20
-0.694447614922808
30
0
41
1
10
-47.9229354855438
20
-0.689476455467656
30
0
41
1
10
-47.8469037130083
20
-0.684103712934927
30
0
41
1
10
-47.7352352483834
20
-0.67511944629706
30
0
41
1
10
-47.698413747537
20
-0.671968636661774
30
0
41
1
10
-47.6439776269352
20
-0.666932845734067
30
0
41
1
10
-47.6259658053664
20
-0.665202316898103
30
0
41
1
10
-47.5902570349211
20
-0.661618820558203
30
0
41
1
10
-47.5725244740101
20
-0.659761786164069
30
0
41
1
10
-47.5203321129615
20
-0.654019170715429
30
0
41
1
10
-47.4867670081487
20
-0.649958407160568
30
0
41
1
10
-47.4390604777831
20
-0.643368259429963
30
0
41
1
10
-47.4236026960215
20
-0.641087581560129
30
0
41
1
10
-47.393797027617
20
-0.63631652732704
30
0
41
1
10
-47.3794254399096
20
-0.633822433084219
30
0
41
1
10
-47.35221452665
20
-0.628579097663334
30
0
41
1
10
-47.3395305021628
20
-0.625860178355452
30
0
41
1
10
-47.3222292615507
20
-0.621599757580697
30
0
41
1
10
-47.3167509294208
20
-0.620149141707174
30
0
41
1
10
-47.3064497778872
20
-0.617178724551025
30
0
41
1
10
-47.3016124889349
20
-0.615653839258556
30
0
41
1
10
-47.2883302142932
20
-0.61099515888975
30
0
41
1
10
-47.2812108629967
20
-0.607816573727121
30
0
41
1
10
-47.2735313354505
20
-0.60292287720506
30
0
41
1
10
-47.2714725792814
20
-0.601270626167803
30
0
41
1
10
-47.2684408500607
20
-0.597920579186734
30
0
41
1
10
-47.2674664482835
20
-0.596215070907846
30
0
41
1
10
-47.266329653442
20
-0.591075587461631
30
0
41
1
10
-47.2679480344217
20
-0.587702800430407
30
0
41
1
10
-47.2736804199955
20
-0.582718075237182
30
0
41
1
10
-47.2761428192942
20
-0.581068927461473
30
0
41
1
10
-47.2821362723424
20
-0.57779470801313
30
0
41
1
10
-47.2856758500236
20
-0.576169366829731
30
0
41
1
10
-47.2975397734026
20
-0.571434739379242
30
0
41
1
10
-47.3071638585533
20
-0.568426357699821
30
0
41
1
10
-47.3236513168388
20
-0.564090873780657
30
0
41
1
10
-47.3294914267459
20
-0.562675434606803
30
0
41
1
10
-47.341796388152
20
-0.559898489358005
30
0
41
1
10
-47.3482676229514
20
-0.558536365508132
30
0
41
1
10
-47.3816021071686
20
-0.551932322937859
30
0
41
1
10
-47.4116386464892
20
-0.547216772533659
30
0
41
1
10
-47.4759272632836
20
-0.538496008985049
30
0
41
1
10
-47.5103958848899
20
-0.534483883264869
30
0
41
1
10
-47.5808423995982
20
-0.527132269505728
30
0
41
1
10
-47.616997750039
20
-0.523769075259906
30
0
41
1
10
-47.6906522243428
20
-0.517493371956988
30
0
41
1
10
-47.7281569407205
20
-0.514582738561018
30
0
41
1
10
-47.8422525900502
20
-0.506381254217558
30
0
41
1
10
-47.9204025697934
20
-0.501613288516808
30
0
41
1
10
-47.9999999999999
20
-0.497330780017705
30
0
0
SPLINE
5
D4
100
AcDbEntity
8
SK1
62
256
6
ByLayer
370
18
48
1
60
0
100
AcDbSpline
70
4
71
3
72
8
73
4
40
0
40
0
40
0
40
0
40
1
40
1
40
1
40
1
41
1
10
-46.5
20
0.119876837422623
30
0
41
1
10
-47.0011331999874
20
0.201626478157522
30
0
41
1
10
-47.5014465367835
20
0.283503661506387
30
0
41
1
10
-48
20
0.365654620869293
30
0
0
SPLINE
5
D5
100
AcDbEntity
8
SK1
62
256
6
ByLayer
370
18
48
1
60
0
100
AcDbSpline
70
4
71
3
72
20
73
16
40
0
40
0
40
0
40
0
40
0.0625000000000008
40
0.0625000000000008
40
0.125000000000002
40
0.125000000000002
40
0.250000000000004
40
0.250000000000004
40
0.375000000000007
40
0.375000000000007
40
0.500000000000009
40
0.500000000000009
40
0.750000000000005
40
0.750000000000005
40
1
40
1
40
1
40
1
41
1
10
-46.4
20
0.0021314281944456
30
0
41
1
10
-46.4
20
0.0063210552282555
30
0
41
1
10
-46.400255320285
20
0.0104818327619114
30
0
41
1
10
-46.401238720026
20
0.018749954220624
30
0
41
1
10
-46.4019736794312
20
0.0228686825112163
30
0
41
1
10
-46.4047525178022
20
0.0347623491411184
30
0
41
1
10
-46.407386820202
20
0.0422563578174504
30
0
41
1
10
-46.4138324199078
20
0.0563431479922656
30
0
41
1
10
-46.4175513092506
20
0.0627513901374641
30
0
41
1
10
-46.4257576562687
20
0.0745864407799957
30
0
41
1
10
-46.4302902765822
20
0.0800455733460694
30
0
41
1
10
-46.444519757331
20
0.0947086815379521
30
0
41
1
10
-46.454862846528
20
0.102363135241404
30
0
41
1
10
-46.4769795344452
20
0.114112503213676
30
0
41
1
10
-46.4883400853171
20
0.117974760616818
30
0
41
1
10
-46.5
20
0.119876837422652
30
0
0
SPLINE
5
D6
100
AcDbEntity
8
SK1
62
256
6
ByLayer
370
18
48
1
60
0
100
AcDbSpline
70
4
71
3
72
20
73
16
40
0
40
0
40
0
40
0
40
0.250000000000009
40
0.250000000000009
40
0.375000000000007
40
0.375000000000007
40
0.500000000000006
40
0.500000000000006
40
0.625000000000004
40
0.625000000000004
40
0.750000000000003
40
0.750000000000003
40
0.875000000000001
40
0.875000000000001
40
1
40
1
40
1
40
1
41
1
10
-46.5
20
-2.34769449450675
30
0
41
1
10
-46.4883382808638
20
-2.34959686567225
30
0
41
1
10
-46.4769899849393
20
-2.34955264942408
30
0
41
1
10
-46.4604389640725
20
-2.34650853193881
30
0
41
1
10
-46.4550533753258
20
-2.34498882679077
30
0
41
1
10
-46.4447632897779
20
-2.34095732249426
30
0
41
1
10
-46.4398264111653
20
-2.33844151442506
30
0
41
1
10
-46.4304188308979
20
-2.3322836740264
30
0
41
1
10
-46.4259311640916
20
-2.32863025457308
30
0
41
1
10
-46.4176087338257
20
-2.3199591853641
30
0
41
1
10
-46.4138727961238
20
-2.31505195828368
30
0
41
1
10
-46.4074449634846
20
-2.30382975754361
30
0
41
1
10
-46.4047607228177
20
-2.29747260330188
30
0
41
1
10
-46.40105390221
20
-2.28363775066197
30
0
41
1
10
-46.4
20
-2.27596206709953
30
0
41
1
10
-46.4
20
-2.26803419718058
30
0
0
SPLINE
5
D7
100
AcDbEntity
8
SK1
62
256
6
ByLayer
370
18
48
1
60
0
100
AcDbSpline
70
4
71
3
72
8
73
4
40
0
40
0
40
0
40
0
40
1
40
1
40
1
40
1
41
1
10
-48
20
-2.10191671106006
30
0
41
1
10
-47.5014487973593
20
-2.18406729792838
30
0
41
1
10
-47.0011349800739
20
-2.26594456338711
30
0
41
1
10
-46.5
20
-2.34769449450673
30
0
0
SPLINE
5
D8
100
AcDbEntity
8
SK1
62
256
6
ByLayer
370
18
48
1
60
0
100
AcDbSpline
70
4
71
3
72
8
73
4
40
0
40
0
40
0
40
0
40
1
40
1
40
1
40
1
41
1
10
-46.5
20
-0.119876837422595
30
0
41
1
10
-47.0011331999874
20
-0.201626478157493
30
0
41
1
10
-47.5014465367835
20
-0.283503661506359
30
0
41
1
10
-48
20
-0.365654620869293
30
0
0
SPLINE
5
D9
100
AcDbEntity
8
SK1
62
256
6
ByLayer
370
18
48
1
60
0
100
AcDbSpline
70
4
71
3
72
20
73
16
40
0
40
0
40
0
40
0
40
0.0625000000000015
40
0.0625000000000015
40
0.125000000000003
40
0.125000000000003
40
0.250000000000005
40
0.250000000000005
40
0.375000000000007
40
0.375000000000007
40
0.50000000000001
40
0.50000000000001
40
0.750000000000005
40
0.750000000000005
40
1
40
1
40
1
40
1
41
1
10
-46.4
20
-0.0021314281944171
30
0
41
1
10
-46.4
20
-0.0063210552282555
30
0
41
1
10
-46.400255320285
20
-0.0104818327619114
30
0
41
1
10
-46.401238720026
20
-0.018749954220624
30
0
41
1
10
-46.4019736794312
20
-0.0228686825112163
30
0
41
1
10
-46.4047525178022
20
-0.03476234914109
30
0
41
1
10
-46.407386820202
20
-0.042256357817422
30
0
41
1
10
-46.4138324199078
20
-0.0563431479922372
30
0
41
1
10
-46.4175513092506
20
-0.0627513901374357
30
0
41
1
10
-46.4257576562687
20
-0.0745864407799672
30
0
41
1
10
-46.4302902765822
20
-0.080045573346041
30
0
41
1
10
-46.444519757331
20
-0.0947086815379237
30
0
41
1
10
-46.454862846528
20
-0.102363135241404
30
0
41
1
10
-46.4769795344452
20
-0.114112503213676
30
0
41
1
10
-46.4883400853171
20
-0.117974760616789
30
0
41
1
10
-46.5
20
-0.119876837422623
30
0
0
SPLINE
5
DA
100
AcDbEntity
8
1
62
256
6
ByLayer
370
18
48
1
60
0
100
AcDbSpline
70
4
71
3
72
8
73
4
40
0
40
0
40
0
40
0
40
1
40
1
40
1
40
1
41
1
10
178.224763162095
20
2.51184649998413
30
0
41
1
10
178.425869142976
20
1.94863536794645
30
0
41
1
10
178.625373061565
20
1.38486119245957
30
0
41
1
10
178.823244026568
20
0.820513116804875
30
0
0
SPLINE
5
DB
100
AcDbEntity
8
1
62
256
6
ByLayer
370
18
48
1
60
0
100
AcDbSpline
70
4
71
3
72
8
73
4
40
0
40
0
40
0
40
0
40
1
40
1
40
1
40
1
41
1
10
178.823244026568
20
0.820513116804875
30
0
41
1
10
178.880008481808
20
0.658615128995166
30
0
41
1
10
178.93789125398
20
0.497339405309475
30
0
41
1
10
178.996889889319
20
0.336663739718801
30
0
0
SPLINE
5
DC
100
AcDbEntity
8
1
62
256
6
ByLayer
370
18
48
1
60
0
100
AcDbSpline
70
4
71
3
72
24
73
20
40
0
40
0
40
0
40
0
40
0.500000000000099
40
0.500000000000099
40
0.750000000000143
40
0.750000000000143
40
0.875000000000166
40
0.875000000000166
40
0.937500000000177
40
0.937500000000177
40
0.968750000000183
40
0.968750000000183
40
0.984375000000183
40
0.984375000000183
40
0.992187500000138
40
0.992187500000138
40
0.996093750000069
40
0.996093750000069
40
1
40
1
40
1
40
1
41
1
10
175.95677320435
20
7.99955090053928
30
0
41
1
10
175.990832459687
20
7.94431113095666
30
0
41
1
10
176.02490980038
20
7.88884275750939
30
0
41
1
10
176.0760596832
20
7.80528797751313
30
0
41
1
10
176.093116840243
20
7.77737433759631
30
0
41
1
10
176.11868110608
20
7.73547969426716
30
0
41
1
10
176.127201924404
20
7.72150429024302
30
0
41
1
10
176.140016238551
20
7.70045334036544
30
0
41
1
10
176.144297266334
20
7.69341305338153
30
0
41
1
10
176.150716790599
20
7.68285272782228
30
0
41
1
10
176.152853123961
20
7.67933950445868
30
0
41
1
10
176.156027931819
20
7.6741310920834
30
0
41
1
10
176.157078046065
20
7.67241196239124
30
0
41
1
10
176.158676537335
20
7.66978378438327
30
0
41
1
10
176.159213374801
20
7.66889922972979
30
0
41
1
10
176.160026684098
20
7.66755495164867
30
0
41
1
10
176.160299814992
20
7.6671024404493
30
0
41
1
10
176.160845347464
20
7.66619893853255
30
0
41
1
10
176.161140694114
20
7.6657065764926
30
0
41
1
10
176.161340713097
20
7.66539837858525
30
0
0
SPLINE
5
DD
100
AcDbEntity
8
1
62
256
6
ByLayer
370
18
48
1
60
0
100
AcDbSpline
70
4
71
3
72
24
73
20
40
0
40
0
40
0
40
0
40
0.500000000000087
40
0.500000000000087
40
0.750000000000174
40
0.750000000000174
40
0.875000000000174
40
0.875000000000174
40
0.937500000000174
40
0.937500000000174
40
0.968750000000128
40
0.968750000000128
40
0.984375000000103
40
0.984375000000103
40
0.992187500000049
40
0.992187500000049
40
0.996093750000025
40
0.996093750000025
40
1
40
1
40
1
40
1
41
1
10
175.95677320435
20
-7.99955090053922
30
0
41
1
10
175.990832459687
20
-7.94431113095618
30
0
41
1
10
176.024909800381
20
-7.8888427575084
30
0
41
1
10
176.076059683201
20
-7.80528797751151
30
0
41
1
10
176.093116840244
20
-7.77737433759449
30
0
41
1
10
176.118681106081
20
-7.73547969426494
30
0
41
1
10
176.127201924405
20
-7.72150429024066
30
0
41
1
10
176.140016238553
20
-7.70045334036291
30
0
41
1
10
176.144297266335
20
-7.69341305337889
30
0
41
1
10
176.150716790601
20
-7.68285272781961
30
0
41
1
10
176.152853123962
20
-7.67933950445598
30
0
41
1
10
176.156027931821
20
-7.6741310920807
30
0
41
1
10
176.157078046066
20
-7.67241196238857
30
0
41
1
10
176.158676537336
20
-7.66978378438054
30
0
41
1
10
176.159213374803
20
-7.66889922972703
30
0
41
1
10
176.1600266841
20
-7.66755495164586
30
0
41
1
10
176.160299814993
20
-7.66710244044648
30
0
41
1
10
176.160845347466
20
-7.66619893852979
30
0
41
1
10
176.161140694116
20
-7.66570657648944
30
0
41
1
10
176.161340713099
20
-7.66539837858329
30
0
0
SPLINE
5
DE
100
AcDbEntity
8
1
62
256
6
ByLayer
370
18
48
1
60
0
100
AcDbSpline
70
4
71
3
72
10
73
6
40
0
40
0
40
0
40
0
40
0.5
40
0.5
40
1
40
1
40
1
40
1
41
1
10
178.224763162095
20
2.51184649998416
30
0
41
1
10
178.06228794216
20
2.49015891526378
30
0
41
1
10
177.899429811657
20
2.47081260936451
30
0
41
1
10
177.573246505374
20
2.43497571194718
30
0
41
1
10
177.409918572991
20
2.4185019754801
30
0
41
1
10
177.246375294021
20
2.40334496005622
30
0
0
SPLINE
5
DF
100
AcDbEntity
8
1
62
256
6
ByLayer
370
18
48
1
60
0
100
AcDbSpline
70
4
71
3
72
32
73
28
40
0
40
0
40
0
40
0
40
0.124999999999957
40
0.124999999999957
40
0.156249999999948
40
0.156249999999948
40
0.187499999999939
40
0.187499999999939
40
0.249999999999921
40
0.249999999999921
40
0.281249999999915
40
0.281249999999915
40
0.312499999999909
40
0.312499999999909
40
0.343749999999903
40
0.343749999999903
40
0.359374999999902
40
0.359374999999902
40
0.374999999999901
40
0.374999999999901
40
0.499999999999922
40
0.499999999999922
40
0.749999999999964
40
0.749999999999964
40
0.874999999999982
40
0.874999999999982
40
1
40
1
40
1
40
1
41
1
10
178.224763162095
20
2.51184649998413
30
0
41
1
10
178.131364069711
20
2.68126849951656
30
0
41
1
10
178.040443626932
20
2.85922414188195
30
0
41
1
10
177.929480163966
20
3.09259858167442
30
0
41
1
10
177.907421452649
20
3.1398216471859
30
0
41
1
10
177.863559763006
20
3.23537568846629
30
0
41
1
10
177.841726639018
20
3.28377659912775
30
0
41
1
10
177.777006641359
20
3.42971079564811
30
0
41
1
10
177.734791365041
20
3.52819925822314
30
0
41
1
10
177.672722854954
20
3.67764978375672
30
0
41
1
10
177.652243414957
20
3.72775450631136
30
0
41
1
10
177.611683759267
20
3.82853154187714
30
0
41
1
10
177.591591739723
20
3.8792340607493
30
0
41
1
10
177.551841117801
20
3.98104041183666
30
0
41
1
10
177.532186446283
20
4.03213191893008
30
0
41
1
10
177.503037729644
20
4.10897364468994
30
0
41
1
10
177.493378676253
20
4.1346161335899
30
0
41
1
10
177.474169515605
20
4.18595590065831
30
0
41
1
10
177.464611328207
20
4.21164909506356
30
0
41
1
10
177.378541678362
20
4.44286257265378
30
0
41
1
10
177.302642783727
20
4.64876760780697
30
0
41
1
10
177.077001854278
20
5.26686949677568
30
0
41
1
10
176.929422525668
20
5.6792311312652
30
0
41
1
10
176.711912137516
20
6.29762708046161
30
0
41
1
10
176.640037948087
20
6.50373099620305
30
0
41
1
10
176.497346075862
20
6.91574613383489
30
0
41
1
10
176.426540437038
20
7.12165787672544
30
0
41
1
10
176.356161963748
20
7.3273920610041
30
0
0
SPLINE
5
E0
100
AcDbEntity
8
1
62
256
6
ByLayer
370
18
48
1
60
0
100
AcDbSpline
70
4
71
3
72
8
73
4
40
0
40
0
40
0
40
0
40
1
40
1
40
1
40
1
41
1
10
176.356161963748
20
7.3273920610041
30
0
41
1
10
176.291174564122
20
7.4400660258745
30
0
41
1
10
176.226230879639
20
7.55274131726412
30
0
41
1
10
176.161340713098
20
7.66539837858519
30
0
0
SPLINE
5
E1
100
AcDbEntity
8
1
62
256
6
ByLayer
370
18
48
1
60
0
100
AcDbSpline
70
4
71
3
72
28
73
24
40
0
40
0
40
0
40
0
40
0.117357112849784
40
0.117357112849784
40
0.234714225699567
40
0.234714225699567
40
0.352071338549351
40
0.352071338549351
40
0.469428451399134
40
0.498767729611582
40
0.498767729611582
40
0.52810700782403
40
0.52810700782403
40
0.586785564248919
40
0.586785564248919
40
0.704142677098696
40
0.704142677098696
40
0.938856902798253
40
0.968196181010698
40
0.968196181010698
40
0.997535459223143
40
0.997535459223143
40
1
40
1
40
1
40
1
41
1
10
176.161340713117
20
7.66539837851084
30
0
41
1
10
175.762780417829
20
7.66971397369102
30
0
41
1
10
175.364383551762
20
7.66451799592912
30
0
41
1
10
174.567168405468
20
7.63502319626699
30
0
41
1
10
174.168355792071
20
7.61075585214806
30
0
41
1
10
173.369645135201
20
7.5433626526461
30
0
41
1
10
172.96974770478
20
7.50024621201169
30
0
41
1
10
172.168233803602
20
7.39514075986173
30
0
41
1
10
171.66618077623
20
7.31759760395551
30
0
41
1
10
171.162159017959
20
7.2252747273246
30
0
41
1
10
170.960383297849
20
7.18716742562307
30
0
41
1
10
170.859380415885
20
7.1675183569229
30
0
41
1
10
170.556320544906
20
7.10684929781365
30
0
41
1
10
170.354454027785
20
7.0641565245113
30
0
41
1
10
169.749240495438
20
6.92947791868335
30
0
41
1
10
169.346288424033
20
6.83091115046625
30
0
41
1
10
168.137915363191
20
6.50983249979359
30
0
41
1
10
167.232280278089
20
6.23083423197849
30
0
41
1
10
166.323831345127
20
5.91242331246369
30
0
41
1
10
166.121876297259
20
5.84070016430732
30
0
41
1
10
166.020837859609
20
5.80434816193147
30
0
41
1
10
165.91133757589
20
5.76445263800491
30
0
41
1
10
165.902852331011
20
5.7613578632598
30
0
41
1
10
165.89436723087
20
5.75825990076572
30
0
0
SPLINE
5
E2
100
AcDbEntity
8
1
62
256
6
ByLayer
370
18
48
1
60
0
100
AcDbSpline
70
4
71
3
72
38
73
34
40
0
40
0
40
0
40
0
40
0.0522824301631146
40
0.0522824301631146
40
0.131258894316198
40
0.131258894316198
40
0.17074712639274
40
0.17074712639274
40
0.190491242431011
40
0.190491242431011
40
0.210235358469282
40
0.210235358469282
40
0.289211822622353
40
0.289211822622353
40
0.368188286775424
40
0.368188286775424
40
0.447164750928495
40
0.447164750928495
40
0.526141215081566
40
0.526141215081566
40
0.605117679234637
40
0.605117679234637
40
0.684094143387708
40
0.684094143387708
40
0.723582375464243
40
0.723582375464243
40
0.763070607540779
40
0.763070607540779
40
0.802558839617314
40
0.802558839617314
40
0.84204707169385
40
0.84204707169385
40
1
40
1
40
1
40
1
41
1
10
114.29504542007
20
-2.03750412168384
30
0
41
1
10
114.028402621658
20
-1.89534214142981
30
0
41
1
10
113.761816839901
20
-1.75207344139099
30
0
41
1
10
113.092417913613
20
-1.3900746292525
30
0
41
1
10
112.689536727091
20
-1.1701810258441
30
0
41
1
10
112.084550643214
20
-0.838114253278405
30
0
41
1
10
111.882776618866
20
-0.727055688405784
30
0
41
1
10
111.579868049643
20
-0.560047966261095
30
0
41
1
10
111.478820357933
20
-0.504287889995709
30
0
41
1
10
111.276827027909
20
-0.392754827047355
30
0
41
1
10
111.17590115768
20
-0.336992663008005
30
0
41
1
10
110.671597140612
20
-0.0582557036902642
30
0
41
1
10
110.269192289664
20
0.164496303229356
30
0
41
1
10
109.46572983859
20
0.608247781979884
30
0
41
1
10
109.06467533748
20
0.829255464701021
30
0
41
1
10
108.26326565443
20
1.26835945230161
30
0
41
1
10
107.862895731019
20
1.48640998203098
30
0
41
1
10
107.062110779631
20
1.91821820379496
30
0
41
1
10
106.661696839442
20
2.13198823757753
30
0
41
1
10
105.860135897642
20
2.55404804424924
30
0
41
1
10
105.459007727204
20
2.7623742062373
30
0
41
1
10
104.655330494269
20
3.17228584015015
30
0
41
1
10
104.252763610155
20
3.37383485572823
30
0
41
1
10
103.647282178088
20
3.67011105158079
30
0
41
1
10
103.445118577499
20
3.7678955134873
30
0
41
1
10
103.041097642995
20
3.96084667601514
30
0
41
1
10
102.839132808692
20
4.0560676624919
30
0
41
1
10
102.435209983648
20
4.24388197662583
30
0
41
1
10
102.233253851641
20
4.33648092797782
30
0
41
1
10
101.829263569663
20
4.51892031625763
30
0
41
1
10
101.627196387253
20
4.60876575587127
30
0
41
1
10
100.61687517169
20
5.05042181444168
30
0
41
1
10
99.8084769612266
20
5.37950921749081
30
0
41
1
10
99.0002384424106
20
5.67976861162114
30
0
0
SPLINE
5
E3
100
AcDbEntity
8
1
62
256
6
ByLayer
370
18
48
1
60
0
100
AcDbSpline
70
4
71
3
72
8
73
4
40
0
40
0
40
0
40
0
40
1
40
1
40
1
40
1
41
1
10
99.0002384424105
20
5.77705411829481
30
0
41
1
10
99.0002384424105
20
5.74539677293572
30
0
41
1
10
99.0002384424105
20
5.7129661949358
30
0
41
1
10
99.0002384424105
20
5.6797686116212
30
0
0
SPLINE
5
E4
100
AcDbEntity
8
1
62
256
6
ByLayer
370
18
48
1
60
0
100
AcDbSpline
70
4
71
3
72
24
73
20
40
0
40
0
40
0
40
0
40
0.0755959999244047
40
0.0755959999244047
40
0.178307555488338
40
0.178307555488338
40
0.383730666616205
40
0.383730666616205
40
0.486442222180139
40
0.486442222180139
40
0.537797999962118
40
0.537797999962118
40
0.589153777744097
40
0.589153777744097
40
0.691865333308079
40
0.691865333308079
40
0.794576888872061
40
0.794576888872061
40
1
40
1
40
1
40
1
41
1
10
175.256397692131
20
2.10093206990533
30
0
41
1
10
175.296027755329
20
2.08805338839818
30
0
41
1
10
175.336089712827
20
2.07423416514885
30
0
41
1
10
175.431661640796
20
2.03929094020793
30
0
41
1
10
175.48753552637
20
2.01737443594121
30
0
41
1
10
175.657289612442
20
1.94698110447229
30
0
41
1
10
175.773287586612
20
1.89389237446667
30
0
41
1
10
175.950662399516
20
1.80690328872171
30
0
41
1
10
176.010344405666
20
1.77669379157805
30
0
41
1
10
176.100552583974
20
1.72988744438783
30
0
41
1
10
176.130735300651
20
1.71403854173675
30
0
41
1
10
176.191266255042
20
1.68198027915119
30
0
41
1
10
176.221626624551
20
1.66575903249381
30
0
41
1
10
176.312758221157
20
1.61651265445357
30
0
41
1
10
176.37365730964
20
1.58286609153356
30
0
41
1
10
176.495756119027
20
1.51387825400065
30
0
41
1
10
176.556956735063
20
1.47853193338224
30
0
41
1
10
176.740975308712
20
1.370143824878
30
0
41
1
10
176.864207416784
20
1.29476740647087
30
0
41
1
10
176.987914116586
20
1.21671564069143
30
0
0
SPLINE
5
E5
100
AcDbEntity
8
1
62
256
6
ByLayer
370
18
48
1
60
0
100
AcDbSpline
70
4
71
3
72
25
73
21
40
0
40
0
40
0
40
0
40
0.175669781617723
40
0.175669781617723
40
0.351339563235445
40
0.351339563235445
40
0.395257008639864
40
0.395257008639864
40
0.439174454044283
40
0.439174454044283
40
0.527009344853167
40
0.527009344853167
40
0.70267912647098
40
0.70267912647098
40
0.790514017279886
40
0.83443146268436
40
0.83443146268436
40
0.878348908088834
40
0.878348908088834
40
1
40
1
40
1
40
1
41
1
10
177.246375294021
20
2.40334496005613
30
0
41
1
10
177.147972728152
20
2.39422511595117
30
0
41
1
10
177.050783296527
20
2.37988358515327
30
0
41
1
10
176.858725887488
20
2.34136703307175
30
0
41
1
10
176.763858480055
20
2.31718950559693
30
0
41
1
10
176.646559860309
20
2.28166991140745
30
0
41
1
10
176.623164015243
20
2.27430299045739
30
0
41
1
10
176.576494349746
20
2.25907182876782
30
0
41
1
10
176.553172955434
20
2.25119070303924
30
0
41
1
10
176.48381694817
20
2.22700165718103
30
0
41
1
10
176.438379455327
20
2.21015056006928
30
0
41
1
10
176.304262015687
20
2.15797092416111
30
0
41
1
10
176.217771797035
20
2.12102497421415
30
0
41
1
10
176.091667861502
20
2.06443472975158
30
0
41
1
10
176.029526591996
20
2.03584135726393
30
0
41
1
10
175.96862217339
20
2.00717593545585
30
0
41
1
10
175.928279442899
20
1.98809322254533
30
0
41
1
10
175.908243419234
20
1.97856738864365
30
0
41
1
10
175.83370006373
20
1.94304859529075
30
0
41
1
10
175.780648895134
20
1.91764841699833
30
0
41
1
10
175.72903580202
20
1.89337996002325
30
0
0
SPLINE
5
E6
100
AcDbEntity
8
1
62
256
6
ByLayer
370
18
48
1
60
0
100
AcDbSpline
70
4
71
3
72
8
73
4
40
0
40
0
40
0
40
0
40
1
40
1
40
1
40
1
41
1
10
176.356161963748
20
-7.32739206100447
30
0
41
1
10
176.291174564122
20
-7.44006602587413
30
0
41
1
10
176.22623087964
20
-7.55274131726298
30
0
41
1
10
176.161340713099
20
-7.66539837858329
30
0
0
SPLINE
5
E7
100
AcDbEntity
8
1
62
256
6
ByLayer
370
18
48
1
60
0
100
AcDbSpline
70
4
71
3
72
82
73
78
40
0
40
0
40
0
40
0
40
0.0325870476552623
40
0.0325870476552623
40
0.0663560004603958
40
0.0663560004603958
40
0.10012495326553
40
0.10012495326553
40
0.117009429668096
40
0.117009429668096
40
0.133893906070663
40
0.133893906070663
40
0.167662858875798
40
0.167662858875798
40
0.201431811680934
40
0.201431811680934
40
0.235200764486069
40
0.235200764486069
40
0.268969717291205
40
0.268969717291205
40
0.30273867009634
40
0.30273867009634
40
0.336507622901476
40
0.336507622901476
40
0.344949861102759
40
0.344949861102759
40
0.353392099304042
40
0.370276575706609
40
0.370276575706609
40
0.404045528511745
40
0.404045528511745
40
0.43781448131688
40
0.43781448131688
40
0.454698957719448
40
0.454698957719448
40
0.471583434122015
40
0.471583434122015
40
0.505352386927151
40
0.505352386927151
40
0.539121339732286
40
0.539121339732286
40
0.572890292537422
40
0.572890292537422
40
0.606659245342557
40
0.606659245342557
40
0.640428198147693
40
0.640428198147693
40
0.674197150952828
40
0.674197150952828
40
0.682639389154111
40
0.682639389154111
40
0.691081627355394
40
0.707966103757958
40
0.707966103757958
40
0.724850580160523
40
0.724850580160523
40
0.741735056563087
40
0.741735056563087
40
0.758619532965651
40
0.758619532965651
40
0.775504009368216
40
0.775504009368216
40
0.809272962173345
40
0.809272962173345
40
0.843041914978476
40
0.843041914978476
40
0.876810867783606
40
0.876810867783606
40
0.893695344186171
40
0.893695344186171
40
0.902137582387455
40
0.902137582387455
40
0.910579820588738
40
0.910579820588738
40
0.978117726199002
40
0.978117726199002
40
1
40
1
40
1
40
1
41
1
10
158.054534576105
20
-2.14885531784179
30
0
41
1
10
157.669935420072
20
-1.94460994859469
30
0
41
1
10
157.285135277368
20
-1.7378086953569
30
0
41
1
10
156.500552892789
20
-1.31263125428544
30
0
41
1
10
156.100737895344
20
-1.0941039637593
30
0
41
1
10
155.299395681492
20
-0.653839075975839
30
0
41
1
10
154.897842180356
20
-0.432136966098511
30
0
41
1
10
154.293640190565
20
-0.0981285230517983
30
0
41
1
10
154.091928927012
20
0.0134528331949753
30
0
41
1
10
153.687794200849
20
0.236935299276183
30
0
41
1
10
153.486008521793
20
0.348480983703581
30
0
41
1
10
152.881432085837
20
0.682252419659505
30
0
41
1
10
152.479395275653
20
0.903656230313231
30
0
41
1
10
151.676598667106
20
1.34292470637277
30
0
41
1
10
151.275829539723
20
1.56076113353254
30
0
41
1
10
150.474859614266
20
1.99164393049827
30
0
41
1
10
150.074660829414
20
2.20469591237637
30
0
41
1
10
149.274191441418
20
2.62484524615667
30
0
41
1
10
148.873941295934
20
2.83198047497265
30
0
41
1
10
148.07260900751
20
3.23898122793597
30
0
41
1
10
147.671527953691
20
3.43884351893163
30
0
41
1
10
146.867849427078
20
3.83013913350231
30
0
41
1
10
146.465244657914
20
4.02155828469193
30
0
41
1
10
145.960621900485
20
4.25485646238471
30
0
41
1
10
145.859597423269
20
4.30123318391926
30
0
41
1
10
145.657559709546
20
4.39329445275462
30
0
41
1
10
145.354612517046
20
4.53030719021288
30
0
41
1
10
145.05193235505
20
4.66398279003218
30
0
41
1
10
144.446791781374
20
4.92669530874807
30
0
41
1
10
144.043657077286
20
5.09565796851766
30
0
41
1
10
143.237301560622
20
5.42022083510551
30
0
41
1
10
142.834081005828
20
5.57578082115731
30
0
41
1
10
142.228659499124
20
5.79848853683419
30
0
41
1
10
142.026739698448
20
5.87095201388189
30
0
41
1
10
141.622634357837
20
6.0121630775628
30
0
41
1
10
141.420874058525
20
6.08076472831206
30
0
41
1
10
140.816331236265
20
6.28046236010363
30
0
41
1
10
140.414286396376
20
6.40546489495617
30
0
41
1
10
139.611451804578
20
6.63880419884956
30
0
41
1
10
139.210669016469
20
6.74716872147809
30
0
41
1
10
138.40972200716
20
6.94670006727165
30
0
41
1
10
138.009539030069
20
7.03780746705436
30
0
41
1
10
137.209080532495
20
7.20197984462141
30
0
41
1
10
136.808803996541
20
7.27507585409896
30
0
41
1
10
136.007436196536
20
7.40300998628834
30
0
41
1
10
135.606364890213
20
7.45788726564271
30
0
41
1
10
134.802690651586
20
7.54899929706826
30
0
41
1
10
134.400076984306
20
7.58521843001844
30
0
41
1
10
133.895411245619
20
7.61854842037118
30
0
41
1
10
133.794379436682
20
7.62461865377577
30
0
41
1
10
133.592315706673
20
7.63554712375455
30
0
41
1
10
133.289269870981
20
7.65012028671794
30
0
41
1
10
132.986325866389
20
7.65922603654334
30
0
41
1
10
132.582411259941
20
7.66649398835079
30
0
41
1
10
132.380461893914
20
7.66769709122931
30
0
41
1
10
131.976484520502
20
7.6651947526951
30
0
41
1
10
131.774422924914
20
7.66147592128189
30
0
41
1
10
131.370308912402
20
7.64909839828792
30
0
41
1
10
131.168245231987
20
7.64044303913849
30
0
41
1
10
130.764113732346
20
7.61824415075102
30
0
41
1
10
130.562049861701
20
7.60470257464692
30
0
41
1
10
129.956489585735
20
7.55689354591578
30
0
41
1
10
129.553364067343
20
7.51542721147786
30
0
41
1
10
128.74761973075
20
7.41372461892848
30
0
41
1
10
128.344992042742
20
7.35348722752332
30
0
41
1
10
127.539452826935
20
7.21454571895202
30
0
41
1
10
127.136550857359
20
7.13585209777099
30
0
41
1
10
126.531486990606
20
7.00419328101469
30
0
41
1
10
126.329680002869
20
6.95803479145124
30
0
41
1
10
126.026728892519
20
6.88541280649767
30
0
41
1
10
125.925662069894
20
6.86063127387479
30
0
41
1
10
125.723731827541
20
6.81002789264974
30
0
41
1
10
125.622854359744
20
6.78420322375186
30
0
41
1
10
124.71568565929
20
6.54714304583106
30
0
41
1
10
123.91443814937
20
6.3033662672899
30
0
41
1
10
122.856555637436
20
5.94220681861512
30
0
41
1
10
122.597922203489
20
5.85077752500942
30
0
41
1
10
122.339442529514
20
5.75640127696917
30
0
0
SPLINE
5
E8
100
AcDbEntity
8
1
62
256
6
ByLayer
370
18
48
1
60
0
100
AcDbSpline
70
2053
71
3
72
130
73
126
40
0
40
0
40
0
40
0
40
0.0312499999999936
40
0.0312499999999936
40
0.0624999999999873
40
0.0624999999999873
40
0.078124999999984
40
0.078124999999984
40
0.0937499999999807
40
0.0937499999999807
40
0.124999999999971
40
0.124999999999971
40
0.132812499999968
40
0.132812499999968
40
0.140624999999966
40
0.156249999999961
40
0.156249999999961
40
0.187499999999949
40
0.187499999999949
40
0.195312499999945
40
0.195312499999945
40
0.203124999999941
40
0.218749999999933
40
0.234374999999924
40
0.234374999999924
40
0.242187499999921
40
0.242187499999921
40
0.249999999999917
40
0.249999999999917
40
0.281249999999901
40
0.281249999999901
40
0.296874999999894
40
0.296874999999894
40
0.30468749999989
40
0.30468749999989
40
0.312499999999886
40
0.312499999999886
40
0.34374999999987
40
0.34374999999987
40
0.351562499999867
40
0.351562499999867
40
0.359374999999864
40
0.359374999999864
40
0.374999999999858
40
0.374999999999858
40
0.390624999999852
40
0.390624999999852
40
0.406249999999846
40
0.406249999999846
40
0.42187499999984
40
0.42187499999984
40
0.42968749999984
40
0.42968749999984
40
0.437499999999839
40
0.437499999999839
40
0.468749999999828
40
0.468749999999828
40
0.484374999999822
40
0.484374999999822
40
0.492187499999821
40
0.492187499999821
40
0.499999999999821
40
0.499999999999821
40
0.531249999999819
40
0.531249999999819
40
0.539062499999821
40
0.539062499999821
40
0.546874999999823
40
0.546874999999823
40
0.562499999999823
40
0.562499999999823
40
0.593749999999818
40
0.593749999999818
40
0.601562499999819
40
0.601562499999819
40
0.609374999999819
40
0.609374999999819
40
0.624999999999824
40
0.624999999999824
40
0.656249999999837
40
0.656249999999837
40
0.671874999999843
40
0.671874999999843
40
0.679687499999844
40
0.679687499999844
40
0.687499999999846
40
0.687499999999846
40
0.718749999999857
40
0.718749999999857
40
0.72656249999986
40
0.72656249999986
40
0.734374999999863
40
0.749999999999869
40
0.765624999999875
40
0.765624999999875
40
0.773437499999878
40
0.773437499999878
40
0.78124999999988
40
0.78124999999988
40
0.812499999999889
40
0.812499999999889
40
0.82031249999989
40
0.82031249999989
40
0.828124999999892
40
0.828124999999892
40
0.843749999999895
40
0.859374999999898
40
0.859374999999898
40
0.874999999999901
40
0.874999999999901
40
0.906249999999911
40
0.906249999999911
40
0.914062499999916
40
0.914062499999916
40
0.921874999999921
40
0.937499999999936
40
0.953124999999951
40
0.953124999999951
40
0.968749999999965
40
0.968749999999965
40
0.98437499999998
40
0.98437499999998
40
0.99218749999999
40
0.99218749999999
40
1
40
1
40
1
40
1
41
1
10
177.083582483097
20
-3.01425431617141
30
0
41
1
10
177.058915645614
20
-3.04267229390976
30
0
41
1
10
177.035347687134
20
-3.06566750059298
30
0
41
1
10
176.99017142162
20
-3.10146245035568
30
0
41
1
10
176.968564329941
20
-3.11425937397769
30
0
41
1
10
176.937576007305
20
-3.12548350168035
30
0
41
1
10
176.927601857992
20
-3.12784173814234
30
0
41
1
10
176.908414638927
20
-3.12983065357213
30
0
41
1
10
176.899186907634
20
-3.12946660264504
30
0
41
1
10
176.872568831078
20
-3.12430352341292
30
0
41
1
10
176.856234150057
20
-3.1154719777343
30
0
41
1
10
176.83760669315
20
-3.09718019508367
30
0
41
1
10
176.833979755899
20
-3.09316177145402
30
0
41
1
10
176.826977694738
20
-3.0844700002738
30
0
41
1
10
176.816827712078
20
-3.07042225534491
30
0
41
1
10
176.807716716664
20
-3.05337099886114
30
0
41
1
10
176.790868556184
20
-3.01522307193343
30
0
41
1
10
176.781451745523
20
-2.98444263349958
30
0
41
1
10
176.772130904645
20
-2.93855376801238
30
0
41
1
10
176.770394442119
20
-2.92901371824547
30
0
41
1
10
176.767212742364
20
-2.90940464063991
30
0
41
1
10
176.762861920532
20
-2.87911670422952
30
0
41
1
10
176.757700231244
20
-2.82429153561867
30
0
41
1
10
176.7558327888
20
-2.77572135002311
30
0
41
1
10
176.755324701984
20
-2.73744159488163
30
0
41
1
10
176.755304430414
20
-2.72437237282742
30
0
41
1
10
176.755574112924
20
-2.69759255917029
30
0
41
1
10
176.755865888214
20
-2.68383314249644
30
0
41
1
10
176.758115387087
20
-2.6140334090787
30
0
41
1
10
176.7623877084
20
-2.55527131966113
30
0
41
1
10
176.772656732425
20
-2.46270684090945
30
0
41
1
10
176.77672859647
20
-2.43110953232846
30
0
41
1
10
176.783885395393
20
-2.38253784593206
30
0
41
1
10
176.786448638782
20
-2.36614503424201
30
0
41
1
10
176.791857870151
20
-2.3334394690412
30
0
41
1
10
176.794712184337
20
-2.31706761491108
30
0
41
1
10
176.809729769838
20
-2.2351163486131
30
0
41
1
10
176.824105270662
20
-2.16926375058631
30
0
41
1
10
176.845244406003
20
-2.0866079627439
30
0
41
1
10
176.849631319669
20
-2.0700691554936
30
0
41
1
10
176.858608892157
20
-2.03740379598472
30
0
41
1
10
176.863213742348
20
-2.02122060010063
30
0
41
1
10
176.877372652734
20
-1.97310942373139
30
0
41
1
10
176.887270279941
20
-1.9416187413081
30
0
41
1
10
176.907982227339
20
-1.87977980593865
30
0
41
1
10
176.918797606541
20
-1.84942886769494
30
0
41
1
10
176.941366288007
20
-1.78989129933422
30
0
41
1
10
176.952921081041
20
-1.76122727615905
30
0
41
1
10
176.976551068964
20
-1.70596435884508
30
0
41
1
10
176.988626358359
20
-1.67936604457418
30
0
41
1
10
177.007123575471
20
-1.64096238430832
30
0
41
1
10
177.013353448416
20
-1.62841062185436
30
0
41
1
10
177.025941426393
20
-1.60380222432113
30
0
41
1
10
177.03231052014
20
-1.59172550269821
30
0
41
1
10
177.064352875037
20
-1.53280795453949
30
0
41
1
10
177.090243366383
20
-1.49097705247019
30
0
41
1
10
177.129425371705
20
-1.43536228738048
30
0
41
1
10
177.14254372685
20
-1.41802275203111
30
0
41
1
10
177.162302523421
20
-1.3937880431956
30
0
41
1
10
177.168897697911
20
-1.38601337822982
30
0
41
1
10
177.182000621804
20
-1.37117884737657
30
0
41
1
10
177.188522564233
20
-1.36410126014601
30
0
41
1
10
177.220985803466
20
-1.33036389823897
30
0
41
1
10
177.246492953715
20
-1.30861257107321
30
0
41
1
10
177.277760720916
20
-1.28767029109437
30
0
41
1
10
177.283983138516
20
-1.2837968143883
30
0
41
1
10
177.296363449586
20
-1.2766826696305
30
0
41
1
10
177.302532925539
20
-1.27343717140994
30
0
41
1
10
177.320807205339
20
-1.26471977457089
30
0
41
1
10
177.332705067329
20
-1.26024447438723
30
0
41
1
10
177.367544733129
20
-1.25069871438069
30
0
41
1
10
177.389640503275
20
-1.24947534315103
30
0
41
1
10
177.415733020405
20
-1.25445868654688
30
0
41
1
10
177.42087453179
20
-1.25578364539919
30
0
41
1
10
177.430998025904
20
-1.25910344781252
30
0
41
1
10
177.435991007548
20
-1.26110391747037
30
0
41
1
10
177.450631636053
20
-1.26809301388278
30
0
41
1
10
177.459925055409
20
-1.27405081528906
30
0
41
1
10
177.486389424649
20
-1.2957820396984
30
0
41
1
10
177.502157977002
20
-1.3153755842653
30
0
41
1
10
177.522715908313
20
-1.35291877870571
30
0
41
1
10
177.529049647897
20
-1.3668007389011
30
0
41
1
10
177.537700685818
20
-1.38983553862045
30
0
41
1
10
177.540437332036
20
-1.39787453747834
30
0
41
1
10
177.545559661421
20
-1.41453101852943
30
0
41
1
10
177.547953040208
20
-1.4231681763149
30
0
41
1
10
177.55907208708
20
-1.46790955789129
30
0
41
1
10
177.565280406354
20
-1.50862747502268
30
0
41
1
10
177.569295826766
20
-1.56635327762254
30
0
41
1
10
177.56991070305
20
-1.57826841199216
30
0
41
1
10
177.570741668804
20
-1.60270904439798
30
0
41
1
10
177.571383984214
20
-1.64008782086714
30
0
41
1
10
177.569463348305
20
-1.70594525983378
30
0
41
1
10
177.564713727701
20
-1.76247998891455
30
0
41
1
10
177.559902616657
20
-1.80639243287595
30
0
41
1
10
177.558090386009
20
-1.82128233145406
30
0
41
1
10
177.554036430798
20
-1.85158534242146
30
0
41
1
10
177.551785667638
20
-1.86705064821632
30
0
41
1
10
177.539595895363
20
-1.94465998292253
30
0
41
1
10
177.52682451349
20
-2.00818171716139
30
0
41
1
10
177.50726896754
20
-2.08938089194274
30
0
41
1
10
177.503176522595
20
-2.10571151693128
30
0
41
1
10
177.494626397872
20
-2.13855831759341
30
0
41
1
10
177.49015961384
20
-2.15510331248993
30
0
41
1
10
177.476397339216
20
-2.20435136260269
30
0
41
1
10
177.456981829581
20
-2.26940605395251
30
0
41
1
10
177.435585984347
20
-2.33331428214112
30
0
41
1
10
177.413239848431
20
-2.39666527017488
30
0
41
1
10
177.401536147489
20
-2.42819145610659
30
0
41
1
10
177.365824037351
20
-2.51991609632876
30
0
41
1
10
177.341030909351
20
-2.57789018348447
30
0
41
1
10
177.308981063712
20
-2.64669324941698
30
0
41
1
10
177.302503120556
20
-2.66029777851699
30
0
41
1
10
177.289511536445
20
-2.68699330540403
30
0
41
1
10
177.270014515174
20
-2.72617628583879
30
0
41
1
10
177.237484499407
20
-2.78735889712627
30
0
41
1
10
177.211438616888
20
-2.83211276882099
30
0
41
1
10
177.185384792511
20
-2.87480787239002
30
0
41
1
10
177.172307213551
20
-2.89519095643232
30
0
41
1
10
177.146482386969
20
-2.93338876769027
30
0
41
1
10
177.133712774436
20
-2.95124812032421
30
0
41
1
10
177.114762512147
20
-2.97623037179872
30
0
41
1
10
177.108479820106
20
-2.98425609574687
30
0
41
1
10
177.095981279758
20
-2.99970646681575
30
0
41
1
10
177.089749192468
20
-3.00714982173682
30
0
41
1
10
177.083582483097
20
-3.01425431617141
30
0
0
SPLINE
5
E9
100
AcDbEntity
8
1
62
256
6
ByLayer
370
18
48
1
60
0
100
AcDbSpline
70
4
71
3
72
15
73
11
40
0
40
0
40
0
40
0
40
0.500000000000052
40
0.500000000000052
40
0.62500000000006
40
0.687500000000055
40
0.687500000000055
40
0.75000000000005
40
0.75000000000005
40
1
40
1
40
1
40
1
41
1
10
176.356161963748
20
-7.3273920610047
30
0
41
1
10
176.296172663488
20
-7.41642948879581
30
0
41
1
10
176.24143565774
20
-7.49085256661104
30
0
41
1
10
176.179389306566
20
-7.56413124312888
30
0
41
1
10
176.161253068445
20
-7.58463041327991
30
0
41
1
10
176.143826682472
20
-7.60285046119657
30
0
41
1
10
176.132366051132
20
-7.61448429141262
30
0
41
1
10
176.126713650767
20
-7.62004468033771
30
0
41
1
10
176.098995855301
20
-7.64640829778091
30
0
41
1
10
176.078430528453
20
-7.66303652895257
30
0
41
1
10
176.059312035893
20
-7.67539930483304
30
0
0
SPLINE
5
EA
100
AcDbEntity
8
1
62
256
6
ByLayer
370
18
48
1
60
0
100
AcDbSpline
70
4
71
3
72
32
73
28
40
0
40
0
40
0
40
0
40
0.124999999999993
40
0.124999999999993
40
0.156249999999989
40
0.156249999999989
40
0.187499999999986
40
0.187499999999986
40
0.249999999999972
40
0.249999999999972
40
0.281249999999963
40
0.281249999999963
40
0.312499999999953
40
0.312499999999953
40
0.343749999999943
40
0.343749999999943
40
0.359374999999942
40
0.359374999999942
40
0.37499999999994
40
0.37499999999994
40
0.499999999999952
40
0.499999999999952
40
0.749999999999976
40
0.749999999999976
40
0.874999999999988
40
0.874999999999988
40
1
40
1
40
1
40
1
41
1
10
178.224763162095
20
-2.51184649998413
30
0
41
1
10
178.131364069711
20
-2.68126849951653
30
0
41
1
10
178.040443626932
20
-2.85922414188198
30
0
41
1
10
177.929480163966
20
-3.09259858167468
30
0
41
1
10
177.907421452649
20
-3.13982164718624
30
0
41
1
10
177.863559763006
20
-3.23537568846675
30
0
41
1
10
177.841726639017
20
-3.2837765991282
30
0
41
1
10
177.777006641359
20
-3.42971079564853
30
0
41
1
10
177.734791365041
20
-3.52819925822357
30
0
41
1
10
177.672722854954
20
-3.67764978375717
30
0
41
1
10
177.652243414957
20
-3.72775450631187
30
0
41
1
10
177.611683759266
20
-3.82853154187771
30
0
41
1
10
177.591591739723
20
-3.87923406074987
30
0
41
1
10
177.551841117801
20
-3.98104041183723
30
0
41
1
10
177.532186446283
20
-4.0321319189307
30
0
41
1
10
177.503037729644
20
-4.10897364469054
30
0
41
1
10
177.493378676253
20
-4.1346161335905
30
0
41
1
10
177.474169515604
20
-4.18595590065891
30
0
41
1
10
177.464611328207
20
-4.21164909506413
30
0
41
1
10
177.378541678362
20
-4.44286257265435
30
0
41
1
10
177.302642783727
20
-4.64876760780751
30
0
41
1
10
177.077001854278
20
-5.26686949677614
30
0
41
1
10
176.929422525668
20
-5.67923113126565
30
0
41
1
10
176.711912137516
20
-6.29762708046201
30
0
41
1
10
176.640037948087
20
-6.50373099620344
30
0
41
1
10
176.497346075862
20
-6.91574613383528
30
0
41
1
10
176.426540437037
20
-7.12165787672583
30
0
41
1
10
176.356161963748
20
-7.32739206100453
30
0
0
SPLINE
5
EB
100
AcDbEntity
8
1
62
256
6
ByLayer
370
18
48
1
60
0
100
AcDbSpline
70
4
71
3
72
8
73
4
40
0
40
0
40
0
40
0
40
1
40
1
40
1
40
1
41
1
10
178.224763162094
20
-2.51184649998419
30
0
41
1
10
178.425869142976
20
-1.94863536794651
30
0
41
1
10
178.625373061565
20
-1.38486119245962
30
0
41
1
10
178.823244026568
20
-0.82051311680496
30
0
0
SPLINE
5
EC
100
AcDbEntity
8
1
62
256
6
ByLayer
370
18
48
1
60
0
100
AcDbSpline
70
4
71
3
72
8
73
4
40
0
40
0
40
0
40
0
40
1
40
1
40
1
40
1
41
1
10
178.823244026568
20
-0.820513116804989
30
0
41
1
10
178.880008481808
20
-0.658615128995251
30
0
41
1
10
178.93789125398
20
-0.497339405309532
30
0
41
1
10
178.996889889319
20
-0.33666373971883
30
0
0
SPLINE
5
ED
100
AcDbEntity
8
1
62
256
6
ByLayer
370
18
48
1
60
0
100
AcDbSpline
70
4
71
3
72
8
73
4
40
0
40
0
40
0
40
0
40
1
40
1
40
1
40
1
41
1
10
178.996889889319
20
0.336663739718887
30
0
41
1
10
179.001027196279
20
0.112735819643944
30
0
41
1
10
179.001046254646
20
-0.111704303138282
30
0
41
1
10
178.996889889319
20
-0.33666373971883
30
0
0
SPLINE
5
EE
100
AcDbEntity
8
1
62
256
6
ByLayer
370
18
48
1
60
0
100
AcDbSpline
70
4
71
3
72
60
73
56
40
0
40
0
40
0
40
0
40
0.062499999999981
40
0.062499999999981
40
0.0937499999999714
40
0.0937499999999714
40
0.109374999999967
40
0.109374999999967
40
0.124999999999962
40
0.124999999999962
40
0.18749999999995
40
0.18749999999995
40
0.249999999999939
40
0.249999999999939
40
0.281249999999937
40
0.281249999999937
40
0.296874999999941
40
0.296874999999941
40
0.312499999999944
40
0.312499999999944
40
0.374999999999941
40
0.374999999999941
40
0.437499999999937
40
0.437499999999937
40
0.453124999999935
40
0.453124999999935
40
0.468749999999932
40
0.468749999999932
40
0.499999999999926
40
0.499999999999926
40
0.562499999999923
40
0.562499999999923
40
0.593749999999917
40
0.593749999999917
40
0.609374999999918
40
0.609374999999918
40
0.624999999999919
40
0.624999999999919
40
0.687499999999929
40
0.687499999999929
40
0.718749999999933
40
0.718749999999933
40
0.734374999999936
40
0.734374999999936
40
0.749999999999938
40
0.749999999999938
40
0.812499999999953
40
0.812499999999953
40
0.874999999999967
40
0.874999999999967
40
0.906249999999975
40
0.906249999999975
40
0.937499999999982
40
0.937499999999982
40
1
40
1
40
1
40
1
41
1
10
178.996889889319
20
0.336663739718801
30
0
41
1
10
178.96772081254
20
0.252128278512942
30
0
41
1
10
178.936992684108
20
0.168329593378957
30
0
41
1
10
178.888567545794
20
0.0437486288923026
30
0
41
1
10
178.872036049464
20
0.0024082777380272
30
0
41
1
10
178.84664508803
20
-0.0593160945644797
30
0
41
1
10
178.83808240758
20
-0.0798431570489129
30
0
41
1
10
178.820756521513
20
-0.120800321827147
30
0
41
1
10
178.811978322392
20
-0.141264730140648
30
0
41
1
10
178.767768189792
20
-0.242904238090944
30
0
41
1
10
178.731569943336
20
-0.321628663325015
30
0
41
1
10
178.657640950134
20
-0.473923257619731
30
0
41
1
10
178.619910439829
20
-0.547494772541398
30
0
41
1
10
178.562184651193
20
-0.653811649511766
30
0
41
1
10
178.542753574846
20
-0.688575121479317
30
0
41
1
10
178.513317355002
20
-0.739662945169073
30
0
41
1
10
178.503456951433
20
-0.75651581782688
30
0
41
1
10
178.483637677042
20
-0.78985911950835
30
0
41
1
10
178.473687697264
20
-0.806333138485655
30
0
41
1
10
178.424139932466
20
-0.887047855676741
30
0
41
1
10
178.384800196899
20
-0.946934385339318
30
0
41
1
10
178.306724359289
20
-1.05738998839979
30
0
41
1
10
178.267988365588
20
-1.10796100652874
30
0
41
1
10
178.21993291137
20
-1.16505696193323
30
0
41
1
10
178.210339974358
20
-1.17616885647743
30
0
41
1
10
178.191189774292
20
-1.19776465357944
30
0
41
1
10
178.181614136606
20
-1.20826720632573
30
0
41
1
10
178.153182188551
20
-1.23855575669657
30
0
41
1
10
178.134561484857
20
-1.25719541868938
30
0
41
1
10
178.079653949578
20
-1.30856038062296
30
0
41
1
10
178.044319141752
20
-1.33675145937747
30
0
41
1
10
177.993086957227
20
-1.36999474892738
30
0
41
1
10
177.976305241281
20
-1.37956360317702
30
0
41
1
10
177.951564879495
20
-1.39160726714084
30
0
41
1
10
177.943373926607
20
-1.39524273748015
30
0
41
1
10
177.927221014749
20
-1.40169907651517
30
0
41
1
10
177.919266419097
20
-1.40451878310941
30
0
41
1
10
177.880081290379
20
-1.41661658669202
30
0
41
1
10
177.85060659006
20
-1.41991850621096
30
0
41
1
10
177.808894104727
20
-1.41576934945888
30
0
41
1
10
177.795408074154
20
-1.41286412248897
30
0
41
1
10
177.775779489817
20
-1.40623852490484
30
0
41
1
10
177.769336780177
20
-1.4036517604786
30
0
41
1
10
177.756648066886
20
-1.3977211478435
30
0
41
1
10
177.750391292279
20
-1.39437026167997
30
0
41
1
10
177.719753529744
20
-1.37581956287963
30
0
41
1
10
177.6972916776
20
-1.35528287741727
30
0
41
1
10
177.655917525418
20
-1.30372839769086
30
0
41
1
10
177.637007778929
20
-1.27270527268368
30
0
41
1
10
177.611057782809
20
-1.21861527230723
30
0
41
1
10
177.602797104622
20
-1.19927769687749
30
0
41
1
10
177.58718800658
20
-1.15846346740776
30
0
41
1
10
177.579824352522
20
-1.13696356040816
30
0
41
1
10
177.558977075887
20
-1.0693103812761
30
0
41
1
10
177.546732090816
20
-1.02001311547468
30
0
41
1
10
177.535999964138
20
-0.966723039078374
30
0
0
SPLINE
5
EF
100
AcDbEntity
8
1
62
256
6
ByLayer
370
18
48
1
60
0
100
AcDbSpline
70
4
71
3
72
8
73
4
40
0
40
0
40
0
40
0
40
1
40
1
40
1
40
1
41
1
10
177.535999964138
20
-0.966723039078374
30
0
41
1
10
177.39440917528
20
-0.263657916790351
30
0
41
1
10
177.211883687181
20
0.464052748388014
30
0
41
1
10
176.987914116586
20
1.21671564069141
30
0
0
SPLINE
5
F0
100
AcDbEntity
8
1
62
256
6
ByLayer
370
18
48
1
60
0
100
AcDbSpline
70
4
71
3
72
16
73
12
40
0
40
0
40
0
40
0
40
0.250000000000003
40
0.250000000000003
40
0.500000000000006
40
0.500000000000006
40
0.625000000000008
40
0.625000000000008
40
0.75000000000001
40
0.75000000000001
40
1
40
1
40
1
40
1
41
1
10
176.070229463603
20
0.564390693945256
30
0
41
1
10
176.144748341089
20
0.639673240604935
30
0
41
1
10
176.219986693294
20
0.709728582972531
30
0
41
1
10
176.371562121322
20
0.839416084925261
30
0
41
1
10
176.447899778894
20
0.89904687050435
30
0
41
1
10
176.562955702731
20
0.980448674331342
30
0
41
1
10
176.601398152088
20
1.00622654440821
30
0
41
1
10
176.678423108401
20
1.05514783573605
30
0
41
1
10
176.717004184422
20
1.07827318876801
30
0
41
1
10
176.832932143582
20
1.14431358797248
30
0
41
1
10
176.91044308326
20
1.18348322203016
30
0
41
1
10
176.987914116586
20
1.21671564069141
30
0
0
SPLINE
5
F1
100
AcDbEntity
8
1
62
256
6
ByLayer
370
18
48
1
60
0
100
AcDbSpline
70
4
71
3
72
59
73
55
40
0
40
0
40
0
40
0
40
0.0215650960165144
40
0.0215650960165144
40
0.0760224279186116
40
0.0760224279186116
40
0.130479759820709
40
0.130479759820709
40
0.184937091722807
40
0.184937091722807
40
0.212165757673854
40
0.239394423624901
40
0.239394423624901
40
0.293851755526993
40
0.293851755526993
40
0.32108042147804
40
0.32108042147804
40
0.348309087429087
40
0.375537753380134
40
0.375537753380134
40
0.389152086355658
40
0.389152086355658
40
0.402766419331181
40
0.402766419331181
40
0.429995085282226
40
0.429995085282226
40
0.45722375123327
40
0.45722375123327
40
0.511681083135356
40
0.511681083135356
40
0.538909749086397
40
0.538909749086397
40
0.566138415037439
40
0.566138415037439
40
0.620595746939522
40
0.620595746939522
40
0.647824412890563
40
0.647824412890563
40
0.675053078841604
40
0.675053078841604
40
0.729510410743687
40
0.729510410743687
40
0.78396774264577
40
0.79758207562129
40
0.79758207562129
40
0.81119640859681
40
0.81119640859681
40
0.838425074547853
40
0.838425074547853
40
0.892882406449936
40
0.892882406449936
40
0.947339738352019
40
0.947339738352019
40
1
40
1
40
1
40
1
41
1
10
134.479076627901
20
-7.62907441885372
30
0
41
1
10
134.319655107214
20
-7.63071057721638
30
0
41
1
10
134.160406318814
20
-7.63083741693688
30
0
41
1
10
133.59954811361
20
-7.62600633030735
30
0
41
1
10
133.198734301249
20
-7.61289219049542
30
0
41
1
10
132.398294537541
20
-7.56768722352399
30
0
41
1
10
131.998687720347
20
-7.53568503501828
30
0
41
1
10
131.200033808375
20
-7.45317817514848
30
0
41
1
10
130.80097062668
20
-7.40261282192111
30
0
41
1
10
130.202202947233
20
-7.31297307135148
30
0
41
1
10
129.802971051039
20
-7.248627957161
30
0
41
1
10
129.40356656813
20
-7.17541405743529
30
0
41
1
10
128.804135458532
20
-7.05882383735704
30
0
41
1
10
128.404083699353
20
-6.97207272130288
30
0
41
1
10
127.802767719185
20
-6.82870696303675
30
0
41
1
10
127.602122486582
20
-6.77870957449247
30
0
41
1
10
127.200421605425
20
-6.67445482765919
30
0
41
1
10
126.798310178759
20
-6.56594327198141
30
0
41
1
10
126.395062445691
20
-6.44877085194003
30
0
41
1
10
126.092125212585
20
-6.3576931368676
30
0
41
1
10
125.99100973861
20
-6.3267843238562
30
0
41
1
10
125.788870697208
20
-6.26399301065561
30
0
41
1
10
125.687881674147
20
-6.23212188333696
30
0
41
1
10
125.385137264617
20
-6.1351077464999
30
0
41
1
10
125.183605276482
20
-6.06856418140606
30
0
41
1
10
124.781094032895
20
-5.93192264231041
30
0
41
1
10
124.580113448395
20
-5.86182408339673
30
0
41
1
10
123.97782276025
20
-5.64628919977025
30
0
41
1
10
123.577164431231
20
-5.49562152212965
30
0
41
1
10
122.976896652765
20
-5.26000743384654
30
0
41
1
10
122.776928909248
20
-5.17986580827369
30
0
41
1
10
122.37720373719
20
-5.01651073239441
30
0
41
1
10
122.177444544517
20
-4.93329738120917
30
0
41
1
10
121.578299415847
20
-4.67919399650057
30
0
41
1
10
121.179047790122
20
-4.5038460969989
30
0
41
1
10
120.579855205824
20
-4.23276869375365
30
0
41
1
10
120.380073488072
20
-4.14106513559759
30
0
41
1
10
119.980384400916
20
-3.95507594320506
30
0
41
1
10
119.780474989933
20
-3.86079122673277
30
0
41
1
10
119.180374510669
20
-3.57424427234344
30
0
41
1
10
118.779814449988
20
-3.37829243470219
30
0
41
1
10
117.976945523557
20
-2.97773401585144
30
0
41
1
10
117.474062912784
20
-2.72196942022293
30
0
41
1
10
116.969336847866
20
-2.46018341175557
30
0
41
1
10
116.767285577887
20
-2.35500788028321
30
0
41
1
10
116.666130161533
20
-2.30216324797522
30
0
41
1
10
116.362769720719
20
-2.14315748364487
30
0
41
1
10
116.16087491834
20
-2.03663292186087
30
0
41
1
10
115.556081623801
20
-1.71576957874299
30
0
41
1
10
115.154076416599
20
-1.50013666851208
30
0
41
1
10
114.35179658455
20
-1.06663177105298
30
0
41
1
10
113.951517759684
20
-0.848767678858991
30
0
41
1
10
113.165133809385
20
-0.419404535104775
30
0
41
1
10
112.779001011571
20
-0.207924655778783
30
0
41
1
10
112.393049404581
20
0.003431612262375
30
0
0
SPLINE
5
F2
100
AcDbEntity
8
1
62
256
6
ByLayer
370
18
48
1
60
0
100
AcDbSpline
70
4
71
3
72
64
73
60
40
0
40
0
40
0
40
0
40
0.0269157866160462
40
0.0269157866160462
40
0.0810722989117916
40
0.0810722989117916
40
0.135228811207537
40
0.135228811207537
40
0.189385323503282
40
0.189385323503282
40
0.243541835799028
40
0.243541835799028
40
0.297698348094773
40
0.297698348094773
40
0.324776604242646
40
0.324776604242646
40
0.338315732316583
40
0.338315732316583
40
0.351854860390519
40
0.351854860390519
40
0.406011372686262
40
0.406011372686262
40
0.460167884982004
40
0.460167884982004
40
0.487246141129876
40
0.487246141129876
40
0.514324397277747
40
0.514324397277747
40
0.56848090957349
40
0.56848090957349
40
0.595559165721363
40
0.595559165721363
40
0.622637421869236
40
0.622637421869236
40
0.676793934164981
40
0.676793934164981
40
0.703872190312853
40
0.703872190312853
40
0.730950446460724
40
0.730950446460724
40
0.744489574534658
40
0.744489574534658
40
0.758028702608592
40
0.758028702608592
40
0.78510695875646
40
0.78510695875646
40
0.812185214904329
40
0.812185214904329
40
0.839263471052197
40
0.839263471052197
40
0.893419983347931
40
0.893419983347931
40
0.920498239495798
40
0.920498239495798
40
0.947576495643665
40
0.947576495643665
40
0.974654751791532
40
0.974654751791532
40
1
40
1
40
1
40
1
41
1
10
109.390399896149
20
7.58550093223604
30
0
41
1
10
109.589008660163
20
7.58874460601382
30
0
41
1
10
109.787454117708
20
7.58963456978725
30
0
41
1
10
110.384745471628
20
7.58549362572336
30
0
41
1
10
110.783119923466
20
7.57364137735482
30
0
41
1
10
111.57974385728
20
7.5307534860016
30
0
41
1
10
111.978022980425
20
7.49963119400357
30
0
41
1
10
112.774694379368
20
7.41933603632063
30
0
41
1
10
113.173052860625
20
7.37024515607942
30
0
41
1
10
113.971030824436
20
7.2532742640212
30
0
41
1
10
114.370686452658
20
7.18531203127091
30
0
41
1
10
115.171454652987
20
7.03161617620111
30
0
41
1
10
115.572532934842
20
6.94594822831132
30
0
41
1
10
116.176129754545
20
6.80375938511003
30
0
41
1
10
116.377665678139
20
6.7540696586218
30
0
41
1
10
116.680487713779
20
6.67618343353061
30
0
41
1
10
116.781439894958
20
6.64968181910737
30
0
41
1
10
116.983094487022
20
6.59569667647673
30
0
41
1
10
117.083839079159
20
6.5682023467694
30
0
41
1
10
117.587166497746
20
6.42828475813488
30
0
41
1
10
117.98855521918
20
6.30855527980836
30
0
41
1
10
118.789906438629
20
6.05369690751553
30
0
41
1
10
119.189878108564
20
5.91853524152466
30
0
41
1
10
119.788772836074
20
5.70560848140212
30
0
41
1
10
119.98822297943
20
5.63294438029024
30
0
41
1
10
120.38703517611
20
5.48412177158389
30
0
41
1
10
120.586400549891
20
5.40795504594982
30
0
41
1
10
121.184463722022
20
5.17447101334866
30
0
41
1
10
121.583132057536
20
5.01217126784411
30
0
41
1
10
122.181050609525
20
4.75968042603776
30
0
41
1
10
122.38033747332
20
4.67401501807271
30
0
41
1
10
122.779195993754
20
4.49969203565291
30
0
41
1
10
122.9787732086
20
4.41102841261363
30
0
41
1
10
123.57796751948
20
4.14079685338865
30
0
41
1
10
123.978048261097
20
3.95499300292184
30
0
41
1
10
124.579022188551
20
3.66848603178155
30
0
41
1
10
124.779481045531
20
3.57168599302869
30
0
41
1
10
125.181105235967
20
3.37563438617332
30
0
41
1
10
125.382279600247
20
3.27637928201929
30
0
41
1
10
125.684531921582
20
3.12575722562332
30
0
41
1
10
125.785364252228
20
3.07526034267974
30
0
41
1
10
125.987188168971
20
2.97369675863223
30
0
41
1
10
126.088149829055
20
2.9226448067721
30
0
41
1
10
126.390622262182
20
2.76897869326382
30
0
41
1
10
126.591929952407
20
2.66574917292971
30
0
41
1
10
126.993896320055
20
2.45779685134514
30
0
41
1
10
127.194553890145
20
2.35307294016391
30
0
41
1
10
127.595520013991
20
2.14261337846503
30
0
41
1
10
127.795829604256
20
2.03687854120025
30
0
41
1
10
128.396215692284
20
1.71817627819365
30
0
41
1
10
128.795749250268
20
1.50371181898922
30
0
41
1
10
129.394106103344
20
1.17936452753366
30
0
41
1
10
129.593398884971
20
1.07080362419731
30
0
41
1
10
129.991985427807
20
0.853327832237653
30
0
41
1
10
130.191282596518
20
0.7444179720693
30
0
41
1
10
130.589850386843
20
0.526220426735591
30
0
41
1
10
130.789120469958
20
0.416932045030222
30
0
41
1
10
131.174885801175
20
0.205004817067731
30
0
41
1
10
131.361380990874
20
0.102385716762001
30
0
41
1
10
131.547917250886
20
-0.0002985947156731
30
0
0
SPLINE
5
F3
100
AcDbEntity
8
1
62
256
6
ByLayer
370
18
48
1
60
0
100
AcDbSpline
70
4
71
3
72
14
73
10
40
0
40
0
40
0
40
0
40
0.25
40
0.25
40
0.5
40
0.5
40
0.75
40
0.75
40
1
40
1
40
1
40
1
41
1
10
176.071183417879
20
-7.63995883606054
30
0
41
1
10
176.071348669359
20
-7.64012786774495
30
0
41
1
10
176.071444505601
20
-7.64048201117316
30
0
41
1
10
176.071453373939
20
-7.64166896384697
30
0
41
1
10
176.071360828913
20
-7.64249695166546
30
0
41
1
10
176.070949085573
20
-7.644573330311
30
0
41
1
10
176.070623102498
20
-7.64583921455005
30
0
41
1
10
176.069811120312
20
-7.64847750780456
30
0
41
1
10
176.069329530958
20
-7.64984119413268
30
0
41
1
10
176.06883608835
20
-7.65109973203923
30
0
0
SPLINE
5
F4
100
AcDbEntity
8
1
62
256
6
ByLayer
370
18
48
1
60
0
100
AcDbSpline
70
4
71
3
72
8
73
4
40
0
40
0
40
0
40
0
40
1
40
1
40
1
40
1
41
1
10
175.898906272293
20
-7.93039715983565
30
0
41
1
10
175.952305670198
20
-7.84581487008523
30
0
41
1
10
176.005771565741
20
-7.76081489255483
30
0
41
1
10
176.059312035893
20
-7.67539930483289
30
0
0
SPLINE
5
F5
100
AcDbEntity
8
1
62
256
6
ByLayer
370
18
48
1
60
0
100
AcDbSpline
70
4
71
3
72
8
73
4
40
0
40
0
40
0
40
0
40
1
40
1
40
1
40
1
41
1
10
176.06883608835
20
-7.65109973203928
30
0
41
1
10
176.065659908971
20
-7.65920065822232
30
0
41
1
10
176.062485221941
20
-7.66730051327659
30
0
41
1
10
176.059312035893
20
-7.67539930483284
30
0
0
SPLINE
5
F6
100
AcDbEntity
8
1
62
256
6
ByLayer
370
18
48
1
60
0
100
AcDbSpline
70
4
71
3
72
43
73
39
40
0
40
0
40
0
40
0
40
0.0595131812649418
40
0.0892697718974125
40
0.104148067213648
40
0.104148067213648
40
0.119026362529884
40
0.119026362529884
40
0.178539543794816
40
0.178539543794816
40
0.208296134427284
40
0.208296134427284
40
0.238052725059752
40
0.238052725059752
40
0.357079087589623
40
0.357079087589623
40
0.41659226885456
40
0.41659226885456
40
0.476105450119497
40
0.476105450119497
40
0.535618631384434
40
0.535618631384434
40
0.595131812649371
40
0.610010107965603
40
0.610010107965603
40
0.624888403281836
40
0.624888403281836
40
0.654644993914298
40
0.654644993914298
40
0.71415817517922
40
0.71415817517922
40
0.83318453770906
40
0.83318453770906
40
0.89269771897398
40
0.89269771897398
40
0.9522109002389
40
0.9522109002389
40
1
40
1
40
1
40
1
41
1
10
176.06883608835
20
-7.65109973203923
30
0
41
1
10
175.665770469742
20
-7.6238344623772
30
0
41
1
10
175.061496356877
20
-7.56830865881443
30
0
41
1
10
174.356236174301
20
-7.47833922951943
30
0
41
1
10
174.053828074727
20
-7.43442360145997
30
0
41
1
10
173.85217776907
20
-7.40396040188779
30
0
41
1
10
173.751300110979
20
-7.38813053755121
30
0
41
1
10
173.247490872667
20
-7.30614686576001
30
0
41
1
10
172.845851833589
20
-7.23142687811418
30
0
41
1
10
172.244946653951
20
-7.10630173639956
30
0
41
1
10
172.044901164672
20
-7.06241735731905
30
0
41
1
10
171.64526694682
20
-6.97042069009959
30
0
41
1
10
171.445683486458
20
-6.92231466683626
30
0
41
1
10
170.448653559782
20
-6.67137517765892
30
0
41
1
10
169.653780420639
20
-6.43722368104338
30
0
41
1
10
168.461449819187
20
-6.04063875822203
30
0
41
1
10
168.06400202945
20
-5.90085815062471
30
0
41
1
10
167.268485109616
20
-5.60692645455202
30
0
41
1
10
166.870423592896
20
-5.45278135601103
30
0
41
1
10
166.072968879479
20
-5.13086594783849
30
0
41
1
10
165.673570761762
20
-4.96307957652505
30
0
41
1
10
164.87271701967
20
-4.61477448928503
30
0
41
1
10
164.370896077167
20
-4.38914970077289
30
0
41
1
10
163.866903133518
20
-4.15417260352947
30
0
41
1
10
163.665120315775
20
-4.05944415592677
30
0
41
1
10
163.564297377372
20
-4.0117873100148
30
0
41
1
10
163.262118453582
20
-3.86801984108456
30
0
41
1
10
163.06100750482
20
-3.77109139838564
30
0
41
1
10
162.45855799514
20
-3.47731325357449
30
0
41
1
10
162.058101992746
20
-3.27747254681708
30
0
41
1
10
160.859163565116
20
-2.66797270807896
30
0
41
1
10
160.063098256481
20
-2.24836591811024
30
0
41
1
10
158.870027205368
20
-1.60593219885001
30
0
41
1
10
158.47250619975
20
-1.38962564083039
30
0
41
1
10
157.677016981046
20
-0.954108717584091
30
0
41
1
10
157.279036103054
20
-0.734918748268854
30
0
41
1
10
156.560507027392
20
-0.338116110516751
30
0
41
1
10
156.240156627251
20
-0.160804078780188
30
0
41
1
10
155.919277192333
20
0.0167417869891722
30
0
0
SPLINE
5
F7
100
AcDbEntity
8
1
62
256
6
ByLayer
370
18
48
1
60
0
100
AcDbSpline
70
4
71
3
72
8
73
4
40
0
40
0
40
0
40
0
40
1
40
1
40
1
40
1
41
1
10
175.925505052891
20
-0.475392415796563
30
0
41
1
10
175.959559312876
20
-0.489223028822522
30
0
41
1
10
175.993628901491
20
-0.502333333131617
30
0
41
1
10
176.027728829847
20
-0.51472855139022
30
0
0
SPLINE
5
F8
100
AcDbEntity
8
1
62
256
6
ByLayer
370
18
48
1
60
0
100
AcDbSpline
70
4
71
3
72
57
73
53
40
0
40
0
40
0
40
0
40
0.0146312317098975
40
0.0146312317098975
40
0.0686210815090474
40
0.0686210815090474
40
0.0956160064086226
40
0.0956160064086226
40
0.122610931308198
40
0.122610931308198
40
0.176600781107348
40
0.176600781107348
40
0.230590630906499
40
0.230590630906499
40
0.244088093356287
40
0.244088093356287
40
0.257585555806075
40
0.257585555806075
40
0.284580480705654
40
0.284580480705654
40
0.311575405605234
40
0.311575405605234
40
0.338570330504813
40
0.338570330504813
40
0.392560180303969
40
0.392560180303969
40
0.446550030103125
40
0.446550030103125
40
0.500539879902281
40
0.500539879902281
40
0.554529729701437
40
0.554529729701437
40
0.608519579500593
40
0.608519579500593
40
0.662509429299748
40
0.662509429299748
40
0.689504354199328
40
0.703001816649118
40
0.703001816649118
40
0.716499279098907
40
0.716499279098907
40
0.770489128898057
40
0.770489128898057
40
0.824478978697208
40
0.824478978697208
40
0.851473903596783
40
0.851473903596783
40
0.878468828496358
40
0.878468828496358
40
0.932458678295511
40
0.932458678295511
40
1
40
1
40
1
40
1
41
1
10
152.93890552251
20
7.66094060663244
30
0
41
1
10
153.046506598299
20
7.66287622974133
30
0
41
1
10
153.154102860132
20
7.66409859418295
30
0
41
1
10
153.6588042521
20
7.66628769952271
30
0
41
1
10
154.056003166027
20
7.65802109658901
30
0
41
1
10
154.651912477691
20
7.63229550557384
30
0
41
1
10
154.850561330473
20
7.62149658780319
30
0
41
1
10
155.24798230386
20
7.59539101238752
30
0
41
1
10
155.446794662664
20
7.58000616042295
30
0
41
1
10
156.044043276324
20
7.52602752309375
30
0
41
1
10
156.443137226137
20
7.47992493074648
30
0
41
1
10
157.242727863394
20
7.36994093216401
30
0
41
1
10
157.643335108182
20
7.30586377380826
30
0
41
1
10
158.145978111695
20
7.21362520778695
30
0
41
1
10
158.246595074152
20
7.19457963219759
30
0
41
1
10
158.447999706537
20
7.15531956768308
30
0
41
1
10
158.548838065907
20
7.13509422169167
30
0
41
1
10
158.850957708928
20
7.07284070027103
30
0
41
1
10
159.051990499404
20
7.02921805123754
30
0
41
1
10
159.453348404528
20
6.93795847125213
30
0
41
1
10
159.653673657872
20
6.89030428978083
30
0
41
1
10
160.053753681504
20
6.79086777822812
30
0
41
1
10
160.25352588868
20
6.73905527282329
30
0
41
1
10
160.852344449436
20
6.57710776834105
30
0
41
1
10
161.250837844698
20
6.46061383482529
30
0
41
1
10
162.046841191381
20
6.21229392385777
30
0
41
1
10
162.444346338978
20
6.08042821022408
30
0
41
1
10
163.238734152387
20
5.8023576650634
30
0
41
1
10
163.635604355775
20
5.656161575639
30
0
41
1
10
164.429142056156
20
5.35046242158901
30
0
41
1
10
164.825889624115
20
5.1909043152175
30
0
41
1
10
165.620827855655
20
4.85844076991236
30
0
41
1
10
166.018941514269
20
4.6856027713263
30
0
41
1
10
166.816723956373
20
4.32801477873795
30
0
41
1
10
167.216423695112
20
4.14324365004384
30
0
41
1
10
167.817747331285
20
3.85775195837849
30
0
41
1
10
168.118844944143
20
3.71292336820451
30
0
41
1
10
168.420647977919
20
3.56510279436677
30
0
41
1
10
168.622012467572
20
3.46590583680541
30
0
41
1
10
168.722758575065
20
3.41599006840184
30
0
41
1
10
169.225878500896
20
3.16535121627109
30
0
41
1
10
169.627254672091
20
2.96105537819042
30
0
41
1
10
170.428674583962
20
2.5462602837714
30
0
41
1
10
170.828689552259
20
2.33573983469122
30
0
41
1
10
171.428041597132
20
2.01610978935918
30
0
41
1
10
171.627726704249
20
1.90893600294527
30
0
41
1
10
172.027064291669
20
1.69354622569509
30
0
41
1
10
172.226709081767
20
1.58532441198889
30
0
41
1
10
172.825656715973
20
1.25928494528137
30
0
41
1
10
173.224974116899
20
1.04009160280137
30
0
41
1
10
174.124405628161
20
0.543677553946168
30
0
41
1
10
174.62467783133
20
0.265722877164563
30
0
41
1
10
175.12600165484
20
-0.0131347705521705
30
0
0
SPLINE
5
F9
100
AcDbEntity
8
1
62
256
6
ByLayer
370
18
48
1
60
0
100
AcDbSpline
70
4
71
3
72
8
73
4
40
0
40
0
40
0
40
0
40
1
40
1
40
1
40
1
41
1
10
176.027728829847
20
-0.514728551390164
30
0
41
1
10
176.029644656627
20
-0.51542494848627
30
0
41
1
10
176.030609532753
20
-0.520774211382644
30
0
41
1
10
176.029900077446
20
-0.526646642708499
30
0
0
SPLINE
5
FA
100
AcDbEntity
8
1
62
256
6
ByLayer
370
18
48
1
60
0
100
AcDbSpline
70
4
71
3
72
75
73
71
40
0
40
0
40
0
40
0
40
0.0037686795462156
40
0.0037686795462156
40
0.0114914029605865
40
0.0114914029605865
40
0.0732731902755502
40
0.0732731902755502
40
0.104164083933033
40
0.104164083933033
40
0.119609530761774
40
0.119609530761774
40
0.135054977590515
40
0.135054977590515
40
0.196836764905481
40
0.196836764905481
40
0.227727658562964
40
0.227727658562964
40
0.243173105391704
40
0.243173105391704
40
0.250895828806075
40
0.250895828806075
40
0.258618552220446
40
0.258618552220446
40
0.320400339535416
40
0.320400339535416
40
0.351291233192902
40
0.351291233192902
40
0.359013956607272
40
0.359013956607272
40
0.366736680021644
40
0.366736680021644
40
0.382182126850385
40
0.382182126850385
40
0.443963914165354
40
0.443963914165354
40
0.474854807822838
40
0.474854807822838
40
0.490300254651579
40
0.490300254651579
40
0.505745701480321
40
0.505745701480321
40
0.536636595137802
40
0.536636595137802
40
0.567527488795283
40
0.567527488795283
40
0.598418382452764
40
0.598418382452764
40
0.606141105867135
40
0.606141105867135
40
0.613863829281505
40
0.629309276110247
40
0.629309276110247
40
0.691091063425211
40
0.691091063425211
40
0.752872850740174
40
0.752872850740174
40
0.814654638055138
40
0.814654638055138
40
0.845545531712619
40
0.845545531712619
40
0.853268255126989
40
0.853268255126989
40
0.860990978541359
40
0.876436425370097
40
0.907327319027573
40
0.907327319027573
40
0.938218212685049
40
0.938218212685049
40
1
40
1
40
1
40
1
41
1
10
137.956110114961
20
-7.63801123554009
30
0
41
1
10
137.90711735146
20
-7.64547895020391
30
0
41
1
10
137.858114827701
20
-7.65280478703886
30
0
41
1
10
137.708665029026
20
-7.67470846932181
30
0
41
1
10
137.608180210677
20
-7.68883089869675
30
0
41
1
10
136.704442574108
20
-7.81037767488525
30
0
41
1
10
135.903728088927
20
-7.87922694010601
30
0
41
1
10
134.702027899612
20
-7.92305589580985
30
0
41
1
10
134.301368666018
20
-7.92776147987607
30
0
41
1
10
133.699688004732
20
-7.91988470046292
30
0
41
1
10
133.499009286091
20
-7.91476988714197
30
0
41
1
10
133.097311926729
20
-7.89955196199037
30
0
41
1
10
132.896247305957
20
-7.88944284705335
30
0
41
1
10
131.892241135847
20
-7.82657358066797
30
0
41
1
10
131.091492420185
20
-7.73676336157246
30
0
41
1
10
129.889326609071
20
-7.54485750863287
30
0
41
1
10
129.488493732799
20
-7.47133017503839
30
0
41
1
10
128.886474872651
20
-7.34696406926898
30
0
41
1
10
128.685669183872
20
-7.30316598464506
30
0
41
1
10
128.384185456143
20
-7.23399236694408
30
0
41
1
10
128.283656286022
20
-7.2103572881559
30
0
41
1
10
128.082731036565
20
-7.16199413084058
30
0
41
1
10
127.98230551215
20
-7.1372598077929
30
0
41
1
10
127.078767330362
20
-6.90972161601684
30
0
41
1
10
126.277978227957
20
-6.6721589290012
30
0
41
1
10
125.075331327508
20
-6.26771456265107
30
0
41
1
10
124.674288900398
20
-6.12480376373529
30
0
41
1
10
124.172290213406
20
-5.93652625170154
30
0
41
1
10
124.071854309016
20
-5.89839047239255
30
0
41
1
10
123.870897619866
20
-5.82117110796867
30
0
41
1
10
123.770348201423
20
-5.78207620690614
30
0
41
1
10
123.468782119788
20
-5.66347941352032
30
0
41
1
10
123.267900584565
20
-5.58268943918887
30
0
41
1
10
122.264072288937
20
-5.1704453246644
30
0
41
1
10
121.46313052428
20
-4.8137477592729
30
0
41
1
10
120.259995119768
20
-4.24524355936919
30
0
41
1
10
119.858731194597
20
-4.05007101569453
30
0
41
1
10
119.255938305757
20
-3.74960111057666
30
0
41
1
10
119.054739303204
20
-3.64810689566289
30
0
41
1
10
118.652739257409
20
-3.44311904193833
30
0
41
1
10
118.451893124909
20
-3.33960549588619
30
0
41
1
10
117.849670498815
20
-3.02625147741054
30
0
41
1
10
117.448616173995
20
-2.81358779360033
30
0
41
1
10
116.64668526475
20
-2.38187840987595
30
0
41
1
10
116.245800368023
20
-2.16284566986002
30
0
41
1
10
115.443403386162
20
-1.71975187047042
30
0
41
1
10
115.041899650523
20
-1.49567725852157
30
0
41
1
10
114.539201734879
20
-1.21315792791705
30
0
41
1
10
114.438576195239
20
-1.15650824145692
30
0
41
1
10
114.23750494559
20
-1.04314381421654
30
0
41
1
10
113.936158018557
20
-0.872993801590695
30
0
41
1
10
113.635532781629
20
-0.70263684667475
30
0
41
1
10
112.634813796801
20
-0.134741414430579
30
0
41
1
10
111.838658344896
20
0.319793845717925
30
0
41
1
10
110.249321149841
20
1.21896711095013
30
0
41
1
10
109.456180287609
20
1.66367874832721
30
0
41
1
10
107.86724868207
20
2.5333256854662
30
0
41
1
10
107.071503162848
20
2.95833941734924
30
0
41
1
10
105.87161518607
20
3.57351497669538
30
0
41
1
10
105.470600174214
20
3.7748371453545
30
0
41
1
10
104.967552901111
20
4.0210092650361
30
0
41
1
10
104.866889122126
20
4.06995215419946
30
0
41
1
10
104.665753161239
20
4.16708618915322
30
0
41
1
10
104.364204027561
20
4.31172488097229
30
0
41
1
10
103.661546406309
20
4.64161312430471
30
0
41
1
10
103.060497072134
20
4.91081591786758
30
0
41
1
10
102.259552626584
20
5.25687691789449
30
0
41
1
10
101.859295985961
20
5.42344965680752
30
0
41
1
10
100.657900158874
20
5.90215210205329
30
0
41
1
10
99.8561361802022
20
6.19329560441636
30
0
41
1
10
99.0508960758796
20
6.45300471652237
30
0
0
SPLINE
5
FB
100
AcDbEntity
8
1
62
256
6
ByLayer
370
18
48
1
60
0
100
AcDbSpline
70
4
71
3
72
16
73
12
40
0
40
0
40
0
40
0
40
0.249999999999987
40
0.249999999999987
40
0.374999999999987
40
0.374999999999987
40
0.499999999999987
40
0.499999999999987
40
0.749999999999994
40
0.749999999999994
40
1
40
1
40
1
40
1
41
1
10
99.0508960758796
20
6.4530047165224
30
0
41
1
10
99.0431802489206
20
6.45549325448511
30
0
41
1
10
99.0362085729117
20
6.45850054803668
30
0
41
1
10
99.0268349088841
20
6.46376025732104
30
0
41
1
10
99.0238767297337
20
6.46565437858192
30
0
41
1
10
99.0184886516957
20
6.46960038485622
30
0
41
1
10
99.0160427305253
20
6.47165808267997
30
0
41
1
10
99.0094362993347
20
6.47807917608378
30
0
41
1
10
99.0059798171864
20
6.4827567024717
30
0
41
1
10
99.0014138107629
20
6.49229912626456
30
0
41
1
10
99.0002384424106
20
6.49722617799796
30
0
41
1
10
99.0002384424106
20
6.50221181898002
30
0
0
SPLINE
5
FC
100
AcDbEntity
8
1
62
256
6
ByLayer
370
18
48
1
60
0
100
AcDbSpline
70
4
71
3
72
148
73
144
40
0
40
0
40
0
40
0
40
0.0081863324168563
40
0.0081863324168563
40
0.0335310202958249
40
0.0335310202958249
40
0.0588757081747936
40
0.0588757081747936
40
0.0842203960537622
40
0.0842203960537622
40
0.0968927399932466
40
0.0968927399932466
40
0.109565083932731
40
0.109565083932731
40
0.1349097718117
40
0.1349097718117
40
0.160254459690668
40
0.160254459690668
40
0.185599147569637
40
0.185599147569637
40
0.19193531953938
40
0.19193531953938
40
0.198271491509123
40
0.198271491509123
40
0.210943835448609
40
0.210943835448609
40
0.236288523327581
40
0.236288523327581
40
0.261633211206552
40
0.261633211206552
40
0.286977899085523
40
0.286977899085523
40
0.293314071055267
40
0.293314071055267
40
0.299650243025011
40
0.299650243025011
40
0.312322586964498
40
0.312322586964498
40
0.337667274843474
40
0.337667274843474
40
0.350339618782961
40
0.350339618782961
40
0.363011962722448
40
0.375684306661934
40
0.375684306661934
40
0.382020478631679
40
0.382020478631679
40
0.388356650601423
40
0.388356650601423
40
0.401028994540912
40
0.401028994540912
40
0.413701338480402
40
0.413701338480402
40
0.439046026359381
40
0.439046026359381
40
0.451718370298872
40
0.451718370298872
40
0.464390714238362
40
0.464390714238362
40
0.477063058177852
40
0.477063058177852
40
0.489735402117342
40
0.489735402117342
40
0.502407746056833
40
0.502407746056833
40
0.515080089996323
40
0.515080089996323
40
0.527752433935813
40
0.527752433935813
40
0.540424777875303
40
0.540424777875303
40
0.553097121814794
40
0.553097121814794
40
0.565769465754284
40
0.565769465754284
40
0.578441809693774
40
0.578441809693774
40
0.591114153633264
40
0.603786497572755
40
0.603786497572755
40
0.616458841512245
40
0.616458841512245
40
0.629131185451735
40
0.629131185451735
40
0.641803529391226
40
0.641803529391226
40
0.654475873330716
40
0.654475873330716
40
0.667148217270206
40
0.667148217270206
40
0.679820561209696
40
0.679820561209696
40
0.692492905149187
40
0.692492905149187
40
0.717837593028167
40
0.717837593028167
40
0.730509936967657
40
0.730509936967657
40
0.743182280907148
40
0.743182280907148
40
0.755854624846638
40
0.755854624846638
40
0.768526968786128
40
0.768526968786128
40
0.774863140755874
40
0.774863140755874
40
0.78119931272562
40
0.78119931272562
40
0.79387165666511
40
0.79387165666511
40
0.819216344544091
40
0.819216344544091
40
0.831888688483581
40
0.831888688483581
40
0.844561032423071
40
0.844561032423071
40
0.857233376362561
40
0.857233376362561
40
0.863569548332307
40
0.863569548332307
40
0.869905720302052
40
0.869905720302052
40
0.882578064241544
40
0.882578064241544
40
0.895250408181035
40
0.895250408181035
40
0.920595096060018
40
0.920595096060018
40
0.93326743999951
40
0.93326743999951
40
0.945939783939002
40
0.945939783939002
40
0.958612127878494
40
0.958612127878494
40
0.96494829984824
40
0.96494829984824
40
0.971284471817987
40
0.971284471817987
40
0.98395681575748
40
0.98395681575748
40
0.996629159696973
40
0.996629159696973
40
1
40
1
40
1
40
1
41
1
10
105.951022803395
20
7.57700708095803
30
0
41
1
10
106.079091457363
20
7.59702162144382
30
0
41
1
10
106.207165286532
20
7.61606478565829
30
0
41
1
10
106.731860456379
20
7.69004218295348
30
0
41
1
10
107.128739228142
20
7.73655970053966
30
0
41
1
10
107.923145655482
20
7.8106838582016
30
0
41
1
10
108.320633657272
20
7.83827165868775
30
0
41
1
10
109.117485456221
20
7.8739894353109
30
0
41
1
10
109.516892126141
20
7.88214202895213
30
0
41
1
10
110.117633755185
20
7.87959026036833
30
0
41
1
10
110.31814476418
20
7.87627189684738
30
0
41
1
10
110.719841630804
20
7.86464866751166
30
0
41
1
10
110.920557566386
20
7.85635704012668
30
0
41
1
10
111.522313669964
20
7.82412029546742
30
0
41
1
10
111.923104741755
20
7.79283422874366
30
0
41
1
10
112.72413151411
20
7.71082500669658
30
0
41
1
10
113.124327579009
20
7.66006228887875
30
0
41
1
10
113.925354842255
20
7.53949016417087
30
0
41
1
10
114.326220849858
20
7.46972356293591
30
0
41
1
10
114.827882656722
20
7.37067315791228
30
0
41
1
10
114.928243104584
20
7.35026958955964
30
0
41
1
10
115.129035547154
20
7.30828078215686
30
0
41
1
10
115.229448843407
20
7.28669967351397
30
0
41
1
10
115.530484905506
20
7.22027820850343
30
0
41
1
10
115.731011121808
20
7.17373743410693
30
0
41
1
10
116.33231889423
20
7.02752812527243
30
0
41
1
10
116.732854326666
20
6.9213043159067
30
0
41
1
10
117.533511428942
20
6.69162605082076
30
0
41
1
10
117.933610702003
20
6.56812737228987
30
0
41
1
10
118.734718167684
20
6.30510142959045
30
0
41
1
10
119.135750007576
20
6.1656329644884
30
0
41
1
10
119.637512494166
20
5.98111754064735
30
0
41
1
10
119.737900043278
20
5.94369601891324
30
0
41
1
10
119.93852720721
20
5.86795505732098
30
0
41
1
10
120.038794978517
20
5.82962704753825
30
0
41
1
10
120.339524193627
20
5.71334948158429
30
0
41
1
10
120.539923398162
20
5.63412162619071
30
0
41
1
10
121.140930967204
20
5.39143144408527
30
0
41
1
10
121.541345027102
20
5.22296756767474
30
0
41
1
10
122.141577798046
20
4.9602577172615
30
0
41
1
10
122.341581480294
20
4.87100130014531
30
0
41
1
10
122.741779298058
20
4.6895772219398
30
0
41
1
10
123.14219053842
20
4.50527958871297
30
0
41
1
10
123.543043618219
20
4.3152670084306
30
0
41
1
10
123.843848163696
20
4.17060404978713
30
0
41
1
10
123.944143970063
20
4.12202423552824
30
0
41
1
10
124.144792469353
20
4.02414625026515
30
0
41
1
10
124.24517356157
20
3.9748339301031
30
0
41
1
10
124.54611575738
20
3.82596414263188
30
0
41
1
10
124.746500027047
20
3.72543647369619
30
0
41
1
10
125.147176066392
20
3.5224431563945
30
0
41
1
10
125.347481442225
20
3.42000100440097
30
0
41
1
10
125.948222350716
20
3.10973565996699
30
0
41
1
10
126.348465755033
20
2.89895028167504
30
0
41
1
10
126.948470048392
20
2.57685945816323
30
0
41
1
10
127.148400490526
20
2.46848918565252
30
0
41
1
10
127.548563062132
20
2.25047414529118
30
0
41
1
10
127.748811781957
20
2.14085977052645
30
0
41
1
10
128.149551908439
20
1.92026554696793
30
0
41
1
10
128.350039295234
20
1.8092783515585
30
0
41
1
10
128.751260204177
20
1.58593429106981
30
0
41
1
10
128.952035253813
20
1.4735538384148
30
0
41
1
10
129.35293353
20
1.24798271967964
30
0
41
1
10
129.553158270627
20
1.13471054749851
30
0
41
1
10
129.953544075443
20
0.907867513823618
30
0
41
1
10
130.153718666517
20
0.794320557355775
30
0
41
1
10
130.553969183543
20
0.566868214427387
30
0
41
1
10
130.754042461485
20
0.452958149532549
30
0
41
1
10
131.1540911422
20
0.224780776418527
30
0
41
1
10
131.35406287918
20
0.110506961210603
30
0
41
1
10
131.754046470895
20
-0.1181559764469
30
0
41
1
10
131.954057055776
20
-0.232547356312438
30
0
41
1
10
132.354308336285
20
-0.461111043390019
30
0
41
1
10
132.55455283145
20
-0.575276585069702
30
0
41
1
10
132.9553301181
20
-0.803285974118097
30
0
41
1
10
133.15587136772
20
-0.917128533451375
30
0
41
1
10
133.557180158578
20
-1.14454743145828
30
0
41
1
10
133.958025034369
20
-1.37133557677032
30
0
41
1
10
134.358315197841
20
-1.59621225943371
30
0
41
1
10
134.758520214083
20
-1.81980703288863
30
0
41
1
10
134.958583906525
20
-1.93095765527812
30
0
41
1
10
135.358647053655
20
-2.1519481322228
30
0
41
1
10
135.55864704798
20
-2.26178714251307
30
0
41
1
10
135.958576692703
20
-2.4801627553361
30
0
41
1
10
136.158478127169
20
-2.58874586978672
30
0
41
1
10
136.558361552386
20
-2.80435027320945
30
0
41
1
10
136.758389548193
20
-2.91129580158381
30
0
41
1
10
137.158731925043
20
-3.1232878450146
30
0
41
1
10
137.359047300105
20
-3.22833312775097
30
0
41
1
10
137.759974785572
20
-3.43650612621806
30
0
41
1
10
137.960698324638
20
-3.53968754297819
30
0
41
1
10
138.361584992701
20
-3.74379946156762
30
0
41
1
10
138.561794298569
20
-3.84476100956206
30
0
41
1
10
139.162202221481
20
-4.14362354151439
30
0
41
1
10
139.562185272281
20
-4.33750814972427
30
0
41
1
10
140.161993070027
20
-4.61995839379091
30
0
41
1
10
140.361902439793
20
-4.71270963122979
30
0
41
1
10
140.761699203218
20
-4.89536335248573
30
0
41
1
10
140.961586815683
20
-4.9852642732659
30
0
41
1
10
141.361542676267
20
-5.16192879778546
30
0
41
1
10
141.561610538686
20
-5.24869350983869
30
0
41
1
10
141.962048363407
20
-5.41892288543423
30
0
41
1
10
142.162417305997
20
-5.50238966435532
30
0
41
1
10
142.463209507672
20
-5.62509304646869
30
0
41
1
10
142.563517398427
20
-5.66557920344312
30
0
41
1
10
142.763973842268
20
-5.74563019480166
30
0
41
1
10
142.864151490756
20
-5.78520704162474
30
0
41
1
10
143.16452758094
20
-5.90259729162986
30
0
41
1
10
143.364574608321
20
-5.97906114327455
30
0
41
1
10
143.964591958442
20
-6.20251072673031
30
0
41
1
10
144.364410372147
20
-6.34360496334256
30
0
41
1
10
144.964081589331
20
-6.54325551507691
30
0
41
1
10
145.163961059129
20
-6.60780789017906
30
0
41
1
10
145.563665711447
20
-6.7329299851815
30
0
41
1
10
145.763502750001
20
-6.7934845926757
30
0
41
1
10
146.163484975329
20
-6.91026007110011
30
0
41
1
10
146.363620236855
20
-6.96649307260102
30
0
41
1
10
146.664054201711
20
-7.04759621863511
30
0
41
1
10
146.764237479953
20
-7.07408930239544
30
0
41
1
10
146.964685152802
20
-7.12598775259971
30
0
41
1
10
147.064974941291
20
-7.15139912827593
30
0
41
1
10
147.365656187942
20
-7.22591457155826
30
0
41
1
10
147.565926261846
20
-7.27332337595362
30
0
41
1
10
147.966080565526
20
-7.36361724456674
30
0
41
1
10
148.165981256793
20
-7.40648669886988
30
0
41
1
10
148.765658682151
20
-7.52795766187413
30
0
41
1
10
149.165349236642
20
-7.59948554262147
30
0
41
1
10
149.764855279603
20
-7.69259140639286
30
0
41
1
10
149.964683563179
20
-7.72126090566505
30
0
41
1
10
150.364328500126
20
-7.77383961325395
30
0
41
1
10
150.564165652647
20
-7.79773639119162
30
0
41
1
10
150.964227647921
20
-7.84061016439517
30
0
41
1
10
151.164434469448
20
-7.85959748434919
30
0
41
1
10
151.464999290978
20
-7.88440447954343
30
0
41
1
10
151.565258383188
20
-7.89206276018646
30
0
41
1
10
151.765711123467
20
-7.90614061271654
30
0
41
1
10
151.865892444278
20
-7.91255972639479
30
0
41
1
10
152.166303442753
20
-7.92995986624001
30
0
41
1
10
152.366396957069
20
-7.93908486912758
30
0
41
1
10
152.766244833009
20
-7.95237644641901
30
0
41
1
10
152.966020974145
20
-7.95653692804325
30
0
41
1
10
153.218966313549
20
-7.95865697326411
30
0
41
1
10
153.272112774929
20
-7.95892714368279
30
0
41
1
10
153.325259143681
20
-7.9590220554546
30
0
0
SPLINE
5
FD
100
AcDbEntity
8
1
62
256
6
ByLayer
370
18
48
1
60
0
100
AcDbSpline
70
4
71
3
72
127
73
123
40
0
40
0
40
0
40
0
40
0.0093600754040325
40
0.0093600754040325
40
0.0212989484097428
40
0.0212989484097428
40
0.033237821415453
40
0.033237821415453
40
0.0571155674268741
40
0.0571155674268741
40
0.0809933134382952
40
0.0809933134382952
40
0.104871059449716
40
0.104871059449716
40
0.128748805461137
40
0.128748805461137
40
0.134718241963993
40
0.134718241963993
40
0.140687678466848
40
0.140687678466848
40
0.152626551472558
40
0.152626551472558
40
0.176504297483979
40
0.176504297483979
40
0.200382043495399
40
0.200382043495399
40
0.212320916501109
40
0.212320916501109
40
0.224259789506819
40
0.224259789506819
40
0.248137535518239
40
0.248137535518239
40
0.26007640852395
40
0.26007640852395
40
0.27201528152966
40
0.27201528152966
40
0.29589302754108
40
0.29589302754108
40
0.307831900546791
40
0.307831900546791
40
0.313801337049646
40
0.313801337049646
40
0.319770773552502
40
0.319770773552502
40
0.331709646558212
40
0.331709646558212
40
0.343648519563922
40
0.343648519563922
40
0.367526265575342
40
0.367526265575342
40
0.391404011586762
40
0.391404011586762
40
0.415281757598182
40
0.415281757598182
40
0.439159503609601
40
0.439159503609601
40
0.463037249621021
40
0.463037249621021
40
0.486914995632441
40
0.486914995632441
40
0.492884432135296
40
0.492884432135296
40
0.498853868638151
40
0.498853868638151
40
0.510792741643862
40
0.510792741643862
40
0.522731614649573
40
0.522731614649573
40
0.534670487655284
40
0.534670487655284
40
0.558548233666705
40
0.558548233666705
40
0.570487106672416
40
0.570487106672416
40
0.582425979678127
40
0.582425979678127
40
0.606303725689548
40
0.606303725689548
40
0.630181471700969
40
0.630181471700969
40
0.642120344706679
40
0.642120344706679
40
0.65405921771239
40
0.65405921771239
40
0.6659980907181
40
0.6659980907181
40
0.671967527220955
40
0.671967527220955
40
0.67793696372381
40
0.67793696372381
40
0.701814709735231
40
0.701814709735231
40
0.725692455746652
40
0.725692455746652
40
0.749570201758074
40
0.749570201758074
40
0.773447947769495
40
0.773447947769495
40
0.797325693780916
40
0.797325693780916
40
0.821203439792337
40
0.821203439792337
40
0.833142312798048
40
0.833142312798048
40
0.845081185803758
40
0.845081185803758
40
0.851050622306613
40
0.851050622306613
40
0.857020058809468
40
0.868958931815179
40
0.868958931815179
40
0.892836677826599
40
0.892836677826599
40
0.91671442383802
40
0.91671442383802
40
0.94059216984944
40
0.94059216984944
40
0.964469915860861
40
0.964469915860861
40
0.988347661872281
40
0.988347661872281
40
1
40
1
40
1
40
1
41
1
10
25.0124002730172
20
7.72805823544945
30
0
41
1
10
25.1794707188624
20
7.72835660618725
30
0
41
1
10
25.3464198335566
20
7.72696140224579
30
0
41
1
10
25.7260938691564
20
7.71994309317913
30
0
41
1
10
25.9387508552053
20
7.7132582592194
30
0
41
1
10
26.3639901768308
20
7.69443662276447
30
0
41
1
10
26.5765654778949
20
7.68230193587928
30
0
41
1
10
27.2141970998327
20
7.63776099663713
30
0
41
1
10
27.6391435518211
20
7.59721220780943
30
0
41
1
10
28.4894985985987
20
7.49456911859937
30
0
41
1
10
28.9148664796116
20
7.43244878557908
30
0
41
1
10
29.7670832394723
20
7.28693477458603
30
0
41
1
10
30.1940924883072
20
7.20365382762927
30
0
41
1
10
31.0502826676195
20
7.01603827780042
30
0
41
1
10
31.4795013127264
20
6.91172020734669
30
0
41
1
10
32.0179359613045
20
6.76828426985281
30
0
41
1
10
32.1256747410275
20
6.73895551790051
30
0
41
1
10
32.340824299721
20
6.6791565775238
30
0
41
1
10
32.4482978551607
20
6.64866926611541
30
0
41
1
10
32.7704451051052
20
6.55548036911085
30
0
41
1
10
32.9848794078703
20
6.49108579357707
30
0
41
1
10
33.6273479024149
20
6.29132599315079
30
0
41
1
10
34.0544699549288
20
6.14930636324422
30
0
41
1
10
34.9070034305258
20
5.84851175526629
30
0
41
1
10
35.3324159036674
20
5.68973373658736
30
0
41
1
10
35.9699085079623
20
5.43985138868689
30
0
41
1
10
36.1823165503833
20
5.35462302728678
30
0
41
1
10
36.6071556533328
20
5.18057613692088
30
0
41
1
10
36.8195642926581
20
5.09172915189666
30
0
41
1
10
37.4568117462782
20
4.8197961816887
30
0
41
1
10
37.8816859519007
20
4.63133636997765
30
0
41
1
10
38.5196314522719
20
4.33864574259954
30
0
41
1
10
38.7323824888849
20
4.23941014392864
30
0
41
1
10
39.1582087219611
20
4.03775509499138
30
0
41
1
10
39.3712760099018
20
3.93532202203971
30
0
41
1
10
40.0113200314873
20
3.62378335618897
30
0
41
1
10
40.4390502628238
20
3.4103074724456
30
0
41
1
10
41.0825828451757
20
3.08188928203569
30
0
41
1
10
41.2974246700796
20
2.97106150046531
30
0
41
1
10
41.6202617589631
20
2.80289058169004
30
0
41
1
10
41.7279901828718
20
2.74650114235467
30
0
41
1
10
41.9431063289453
20
2.6333838403871
30
0
41
1
10
42.0505602847561
20
2.57662038390373
30
0
41
1
10
42.3726347103809
20
2.4057607208247
30
0
41
1
10
42.5869570789419
20
2.29107596166474
30
0
41
1
10
43.0150427974412
20
2.06056389047058
30
0
41
1
10
43.2288185958967
20
1.9447591178666
30
0
41
1
10
43.8693953686141
20
1.59579189403706
30
0
41
1
10
44.2954243070865
20
1.36103780611214
30
0
41
1
10
45.14618291616
20
0.888664229423483
30
0
41
1
10
45.5708880552373
20
0.651000144876349
30
0
41
1
10
46.4199347196667
20
0.174504059679663
30
0
41
1
10
46.8444671340847
20
-0.0639810903122964
30
0
41
1
10
47.6939610122627
20
-0.540678209698513
30
0
41
1
10
48.1189443076816
20
-0.77885068950502
30
0
41
1
10
48.970148648097
20
-1.25345528655689
30
0
41
1
10
49.3963224085179
20
-1.48997404196507
30
0
41
1
10
50.2512560987512
20
-1.95881759727979
30
0
41
1
10
50.6799085194332
20
-2.19133824714837
30
0
41
1
10
51.2176148614294
20
-2.47887146816191
30
0
41
1
10
51.3253036118061
20
-2.53624711738158
30
0
41
1
10
51.5403722969472
20
-2.65038558432639
30
0
41
1
10
51.6478034470507
20
-2.70717596822044
30
0
41
1
10
51.9698061866989
20
-2.87668305522362
30
0
41
1
10
52.1840834519061
20
-2.98854191714034
30
0
41
1
10
52.6119845453809
20
-3.20977079985227
30
0
41
1
10
52.8256059072945
20
-3.31914404495194
30
0
41
1
10
53.2524299863463
20
-3.53503618060572
30
0
41
1
10
53.4656136352411
20
-3.64158864098331
30
0
41
1
10
54.1045379165964
20
-3.95700879967561
30
0
41
1
10
54.5296564145264
20
-4.16163090519595
30
0
41
1
10
55.1666625230123
20
-4.4592464963076
30
0
41
1
10
55.3788838385859
20
-4.55690158100887
30
0
41
1
10
55.8032059398592
20
-4.74895300695326
30
0
41
1
10
56.0152971968716
20
-4.84336206884799
30
0
41
1
10
56.6517169578803
20
-5.12123629064575
30
0
41
1
10
57.0761718859887
20
-5.29938717670771
30
0
41
1
10
57.9258842532114
20
-5.64084753266573
30
0
41
1
10
58.3511744187623
20
-5.80410929222839
30
0
41
1
10
58.9903412044881
20
-6.03694492512793
30
0
41
1
10
59.2035997677204
20
-6.11254906743611
30
0
41
1
10
59.6306938369056
20
-6.25951467627021
30
0
41
1
10
59.8445624474874
20
-6.33083962794492
30
0
41
1
10
60.2730009869345
20
-6.46908684090147
30
0
41
1
10
60.4875641583769
20
-6.53601623793563
30
0
41
1
10
60.8099836888141
20
-6.63302822919107
30
0
41
1
10
60.9176179114141
20
-6.66481921318598
30
0
41
1
10
61.1326211721892
20
-6.72711832286998
30
0
41
1
10
61.2400199047273
20
-6.75763625756107
30
0
41
1
10
61.7765312339515
20
-6.90705448520097
30
0
41
1
10
62.2041814147081
20
-7.01645331579664
30
0
41
1
10
63.05729492134
20
-7.21452820889999
30
0
41
1
10
63.4829450989625
20
-7.30307331429998
30
0
41
1
10
64.3329999670962
20
-7.45910734679575
30
0
41
1
10
64.7573986198434
20
-7.52659374962658
30
0
41
1
10
65.6056999061942
20
-7.64018852348224
30
0
41
1
10
66.0295388346039
20
-7.68630633404848
30
0
41
1
10
66.8779953358101
20
-7.75669029037161
30
0
41
1
10
67.3025523293828
20
-7.78099490870139
30
0
41
1
10
68.152894314664
20
-7.80758649518179
30
0
41
1
10
68.5786980710297
20
-7.80986552748843
30
0
41
1
10
69.2189670104437
20
-7.79649077125231
30
0
41
1
10
69.4326439623621
20
-7.78923076981215
30
0
41
1
10
69.8607486318155
20
-7.76909020399361
30
0
41
1
10
70.0751710741395
20
-7.7562117029529
30
0
41
1
10
70.3973948051307
20
-7.73265135794381
30
0
41
1
10
70.5049685839754
20
-7.72408423112969
30
0
41
1
10
70.7198865464182
20
-7.70556870713045
30
0
41
1
10
71.0419575515228
20
-7.67572420279183
30
0
41
1
10
71.363167005853
20
-7.63971406640468
30
0
41
1
10
72.0045894743699
20
-7.55959649473098
30
0
41
1
10
72.4308331814999
20
-7.4953636998539
30
0
41
1
10
73.2816915523958
20
-7.34606240595667
30
0
41
1
10
73.706442297126
20
-7.2610886625769
30
0
41
1
10
74.5550374762734
20
-7.07099264867517
30
0
41
1
10
74.9789120744877
20
-6.96588434540041
30
0
41
1
10
75.8265711059503
20
-6.73614798081076
30
0
41
1
10
76.2503311450942
20
-6.61148385351481
30
0
41
1
10
77.0990762842752
20
-6.34379973555593
30
0
41
1
10
77.5239470333822
20
-6.20068064282029
30
0
41
1
10
78.1573962202846
20
-5.97430926153638
30
0
41
1
10
78.3653396337032
20
-5.89792268628702
30
0
41
1
10
78.5735334518632
20
-5.81943098609167
30
0
0
SPLINE
5
FE
100
AcDbEntity
8
1
62
256
6
ByLayer
370
18
48
1
60
0
100
AcDbSpline
70
4
71
3
72
130
73
126
40
0
40
0
40
0
40
0
40
0.0099876950714492
40
0.0099876950714492
40
0.0218214543438063
40
0.0218214543438063
40
0.0336552136161631
40
0.0336552136161631
40
0.0573227321608783
40
0.0573227321608783
40
0.0809902507055935
40
0.0809902507055935
40
0.104657769250309
40
0.104657769250309
40
0.116491528522666
40
0.116491528522666
40
0.122408408158844
40
0.122408408158844
40
0.128325287795023
40
0.128325287795023
40
0.151992806339733
40
0.151992806339733
40
0.175660324884444
40
0.175660324884444
40
0.199327843429155
40
0.199327843429155
40
0.21116160270151
40
0.21116160270151
40
0.222995361973865
40
0.222995361973865
40
0.246662880518575
40
0.246662880518575
40
0.258496639790931
40
0.258496639790931
40
0.270330399063287
40
0.270330399063287
40
0.293997917607998
40
0.293997917607998
40
0.299914797244175
40
0.299914797244175
40
0.305831676880353
40
0.317665436152709
40
0.317665436152709
40
0.341332954697422
40
0.341332954697422
40
0.365000473242136
40
0.365000473242136
40
0.388667991786849
40
0.388667991786849
40
0.400501751059206
40
0.400501751059206
40
0.412335510331563
40
0.412335510331563
40
0.436003028876277
40
0.436003028876277
40
0.447836788148634
40
0.447836788148634
40
0.459670547420992
40
0.459670547420992
40
0.47150430669335
40
0.47150430669335
40
0.483338065965707
40
0.483338065965707
40
0.507005584510421
40
0.507005584510421
40
0.518839343782778
40
0.518839343782778
40
0.530673103055135
40
0.530673103055135
40
0.554340621599848
40
0.554340621599848
40
0.578008140144561
40
0.578008140144561
40
0.601675658689274
40
0.601675658689274
40
0.625343177233987
40
0.625343177233987
40
0.637176936506344
40
0.637176936506344
40
0.643093816142523
40
0.643093816142523
40
0.649010695778702
40
0.649010695778702
40
0.672678214323417
40
0.672678214323417
40
0.696345732868133
40
0.696345732868133
40
0.70817949214049
40
0.70817949214049
40
0.720013251412847
40
0.720013251412847
40
0.743680769957561
40
0.743680769957561
40
0.767348288502275
40
0.767348288502275
40
0.79101580704699
40
0.79101580704699
40
0.814683325591704
40
0.814683325591704
40
0.820600205227883
40
0.820600205227883
40
0.826517084864062
40
0.826517084864062
40
0.838350844136421
40
0.838350844136421
40
0.862018362681139
40
0.862018362681139
40
0.885685881225856
40
0.885685881225856
40
0.897519640498216
40
0.897519640498216
40
0.909353399770575
40
0.909353399770575
40
0.933020918315295
40
0.933020918315295
40
0.944854677587656
40
0.944854677587656
40
0.956688436860016
40
0.956688436860016
40
0.980355955404736
40
0.980355955404736
40
0.992189714677095
40
0.998106594313275
40
0.998106594313275
40
1
40
1
40
1
40
1
41
1
10
111.886918790391
20
7.88443254133398
30
0
41
1
10
112.065728933136
20
7.8847683461897
30
0
41
1
10
112.244429841393
20
7.8831258484617
30
0
41
1
10
112.634687057109
20
7.87522446602702
30
0
41
1
10
112.846203741284
20
7.86816603240177
30
0
41
1
10
113.269202880187
20
7.84853341326434
30
0
41
1
10
113.480696212964
20
7.83596288000635
30
0
41
1
10
114.115245244484
20
7.7900221435537
30
0
41
1
10
114.538346040894
20
7.74841757846386
30
0
41
1
10
115.385428254843
20
7.64337556165623
30
0
41
1
10
115.809392166352
20
7.57992656402237
30
0
41
1
10
116.659093261522
20
7.43133135313209
30
0
41
1
10
117.084995472278
20
7.34628799067687
30
0
41
1
10
117.725881327536
20
7.20265450920556
30
0
41
1
10
117.939850912601
20
7.15209835442823
30
0
41
1
10
118.261392875495
20
7.07225635455549
30
0
41
1
10
118.368668951863
20
7.04497401273136
30
0
41
1
10
118.582879111976
20
6.98922310278127
30
0
41
1
10
118.689882080361
20
6.9607376993909
30
0
41
1
10
119.224417065267
20
6.81529981518847
30
0
41
1
10
119.650462695663
20
6.68926270727928
30
0
41
1
10
120.500776796312
20
6.4194250190028
30
0
41
1
10
120.924978390721
20
6.27557021762061
30
0
41
1
10
121.772137409352
20
5.97088148341939
30
0
41
1
10
122.195103471789
20
5.81005441208265
30
0
41
1
10
122.829234343503
20
5.55683448897923
30
0
41
1
10
123.040554743455
20
5.47042551938821
30
0
41
1
10
123.463306817717
20
5.293892929713
30
0
41
1
10
123.674729667638
20
5.20375939581245
30
0
41
1
10
124.3092173708
20
4.9278609940512
30
0
41
1
10
124.73249886715
20
4.73659464002327
30
0
41
1
10
125.368432601386
20
4.43941294592849
30
0
41
1
10
125.580578229371
20
4.33863701277681
30
0
41
1
10
126.005307301913
20
4.1337792738646
30
0
41
1
10
126.217883098097
20
4.02968472319188
30
0
41
1
10
126.856544268814
20
3.71282691813951
30
0
41
1
10
127.28360504515
20
3.49556602932293
30
0
41
1
10
127.819415835731
20
3.21689982663534
30
0
41
1
10
127.926588330345
20
3.16086090164714
30
0
41
1
10
128.140633177845
20
3.04836753624093
30
0
41
1
10
128.461400849959
20
2.87892534893683
30
0
41
1
10
128.781329738299
20
2.70748309273787
30
0
41
1
10
129.420216211915
20
2.36219241435319
30
0
41
1
10
129.844831862708
20
2.12876570403265
30
0
41
1
10
130.692772496937
20
1.65778735795507
30
0
41
1
10
131.116001009098
20
1.4200681905692
30
0
41
1
10
131.961690285861
20
0.941441314776853
30
0
41
1
10
132.384149686477
20
0.700530932565272
30
0
41
1
10
133.017880562897
20
0.337865791094771
30
0
41
1
10
133.229144195139
20
0.216783900070936
30
0
41
1
10
133.651897835452
20
-0.025435053818768
30
0
41
1
10
133.863373158823
20
-0.146598179066672
30
0
41
1
10
134.49818299205
20
-0.510092200626445
30
0
41
1
10
134.921913059043
20
-0.752406787519845
30
0
41
1
10
135.558876689591
20
-1.11482485603821
30
0
41
1
10
135.771423779166
20
-1.23545929358343
30
0
41
1
10
136.197084042604
20
-1.47618260979698
30
0
41
1
10
136.410190368503
20
-1.59628403474841
30
0
41
1
10
136.837180993257
20
-1.83556105450387
30
0
41
1
10
137.051089036196
20
-1.95476476442909
30
0
41
1
10
137.479611561063
20
-2.19209043390026
30
0
41
1
10
137.693458760604
20
-2.30978887854698
30
0
41
1
10
138.33391408571
20
-2.65976475229223
30
0
41
1
10
138.75943419488
20
-2.88892700576707
30
0
41
1
10
139.396143020883
20
-3.22554383828651
30
0
41
1
10
139.608109867965
20
-3.33657317977358
30
0
41
1
10
140.031702135092
20
-3.55597309638222
30
0
41
1
10
140.243339236584
20
-3.66432576883079
30
0
41
1
10
140.877880179742
20
-3.98520089104653
30
0
41
1
10
141.300389756828
20
-4.19357855186126
30
0
41
1
10
142.145122553078
20
-4.59815727571976
30
0
41
1
10
142.567330997457
20
-4.79437810093805
30
0
41
1
10
143.412315890683
20
-5.17336049037837
30
0
41
1
10
143.83524931011
20
-5.35590830591835
30
0
41
1
10
144.682643230774
20
-5.70617621096119
30
0
41
1
10
145.10710332325
20
-5.87389502669467
30
0
41
1
10
145.745529341233
20
-6.11345900111505
30
0
41
1
10
145.958625462119
20
-6.19131299676633
30
0
41
1
10
146.27879244236
20
-6.30495822190522
30
0
41
1
10
146.385600592592
20
-6.34231874946221
30
0
41
1
10
146.599425349886
20
-6.41595127802151
30
0
41
1
10
146.706508152707
20
-6.45224556490464
30
0
41
1
10
147.241589929472
20
-6.63065559400735
30
0
41
1
10
147.668086210901
20
-6.76347781651498
30
0
41
1
10
148.518654145076
20
-7.00905035782139
30
0
41
1
10
148.942734715718
20
-7.12178876735194
30
0
41
1
10
149.577658387939
20
-7.27549803816058
30
0
41
1
10
149.78909472207
20
-7.32417013299675
30
0
41
1
10
150.2117765304
20
-7.41625538396326
30
0
41
1
10
150.42301756603
20
-7.45967358355088
30
0
41
1
10
151.056531516331
20
-7.58202961052135
30
0
41
1
10
151.478591277921
20
-7.65307127715681
30
0
41
1
10
152.322907576935
20
-7.7737013757625
30
0
41
1
10
152.745127417025
20
-7.82329901816465
30
0
41
1
10
153.590716592484
20
-7.90053432729329
30
0
41
1
10
154.014201528763
20
-7.92815125799964
30
0
41
1
10
154.863163707948
20
-7.96104743928476
30
0
41
1
10
155.288656075416
20
-7.96632086321753
30
0
41
1
10
155.822286374555
20
-7.95865036010608
30
0
41
1
10
155.929100793855
20
-7.95640292157333
30
0
41
1
10
156.14292206366
20
-7.95047358591495
30
0
41
1
10
156.249971829149
20
-7.94678898477804
30
0
41
1
10
156.570639877412
20
-7.93361020467793
30
0
41
1
10
156.784032099748
20
-7.92198990128495
30
0
41
1
10
157.423251853317
20
-7.87876117531044
30
0
41
1
10
157.848069561908
20
-7.83877846343538
30
0
41
1
10
158.695792127502
20
-7.73704798179406
30
0
41
1
10
159.118698071239
20
-7.67529802308206
30
0
41
1
10
159.752236549324
20
-7.56673780225452
30
0
41
1
10
159.963285667412
20
-7.5278970819478
30
0
41
1
10
160.385322899567
20
-7.4450395841582
30
0
41
1
10
160.596298597614
20
-7.40101694572297
30
0
41
1
10
161.22918982475
20
-7.26124079691371
30
0
41
1
10
161.651079409525
20
-7.15778608711582
30
0
41
1
10
162.28442926237
20
-6.98757190464263
30
0
41
1
10
162.495630006637
20
-6.92832640583089
30
0
41
1
10
162.918305314926
20
-6.80488598079836
30
0
41
1
10
163.12977134269
20
-6.74068194089747
30
0
41
1
10
163.764872818125
20
-6.54087833870713
30
0
41
1
10
164.189200882153
20
-6.39808836154677
30
0
41
1
10
164.827569285199
20
-6.16981499665778
30
0
41
1
10
165.147228828196
20
-6.0521611190747
30
0
41
1
10
165.467717226066
20
-5.92930272819217
30
0
41
1
10
165.608862216835
20
-5.87448646562109
30
0
41
1
10
165.643079790435
20
-5.86114240532484
30
0
41
1
10
165.677292762156
20
-5.84774553898581
30
0
0
SPLINE
5
FF
100
AcDbEntity
8
1
62
256
6
ByLayer
370
18
48
1
60
0
100
AcDbSpline
70
4
71
3
72
90
73
86
40
0
40
0
40
0
40
0
40
0.019118479451012
40
0.019118479451012
40
0.0426634029723001
40
0.0426634029723001
40
0.0897532500148776
40
0.0897532500148776
40
0.113298173536166
40
0.113298173536166
40
0.12507063529681
40
0.12507063529681
40
0.130956866177131
40
0.130956866177131
40
0.136843097057453
40
0.136843097057453
40
0.183932944100024
40
0.183932944100024
40
0.207477867621311
40
0.207477867621311
40
0.231022791142597
40
0.231022791142597
40
0.278112638185169
40
0.278112638185169
40
0.301657561706454
40
0.301657561706454
40
0.313430023467097
40
0.313430023467097
40
0.325202485227741
40
0.325202485227741
40
0.372292332270314
40
0.372292332270314
40
0.395837255791601
40
0.395837255791601
40
0.419382179312887
40
0.419382179312887
40
0.466472026355461
40
0.466472026355461
40
0.490016949876748
40
0.490016949876748
40
0.495903180757069
40
0.495903180757069
40
0.501789411637391
40
0.501789411637391
40
0.513561873398035
40
0.513561873398035
40
0.560651720440608
40
0.560651720440608
40
0.584196643961895
40
0.584196643961895
40
0.607741567483181
40
0.607741567483181
40
0.654831414525755
40
0.654831414525755
40
0.666603876286399
40
0.666603876286399
40
0.672490107166721
40
0.672490107166721
40
0.678376338047043
40
0.678376338047043
40
0.701921261568331
40
0.701921261568331
40
0.749011108610908
40
0.749011108610908
40
0.772556032132197
40
0.772556032132197
40
0.796100955653485
40
0.796100955653485
40
0.843190802696062
40
0.843190802696062
40
0.849077033576384
40
0.849077033576384
40
0.854963264456706
40
0.854963264456706
40
0.86673572621735
40
0.86673572621735
40
0.890280649738638
40
0.890280649738638
40
0.937370496781214
40
0.937370496781214
40
0.960915420302501
40
0.960915420302501
40
0.984460343823789
40
0.984460343823789
40
1
40
1
40
1
40
1
41
1
10
88.6800470197366
20
-7.84265965279852
30
0
41
1
10
88.3391866765523
20
-7.842041158694
30
0
41
1
10
87.9988499037381
20
-7.83429247556202
30
0
41
1
10
87.2399911149951
20
-7.80125101644961
30
0
41
1
10
86.8216265976974
20
-7.77231298268862
30
0
41
1
10
85.5666344026267
20
-7.65378794683534
30
0
41
1
10
84.7301940855363
20
-7.53244011804142
30
0
41
1
10
83.4706679158268
20
-7.28869796765275
30
0
41
1
10
83.0500271925048
20
-7.19716205422614
30
0
41
1
10
82.4172498622005
20
-7.04463913012054
30
0
41
1
10
82.2060243691556
20
-6.99125923044781
30
0
41
1
10
81.8886593796246
20
-6.90740502569648
30
0
41
1
10
81.7827825704615
20
-6.87882344782653
30
0
41
1
10
81.5708342360684
20
-6.82040863282535
30
0
41
1
10
81.4646965291178
20
-6.79055598931819
30
0
41
1
10
80.5104070519496
20
-6.51682413607006
30
0
41
1
10
79.6682256950143
20
-6.23747901657029
30
0
41
1
10
78.4091948315599
20
-5.77114622242573
30
0
41
1
10
77.9902268101382
20
-5.6078092406716
30
0
41
1
10
77.152785333805
20
-5.26661241271896
30
0
41
1
10
76.734327549426
20
-5.08873436826789
30
0
41
1
10
75.4785531965056
20
-4.53491636721029
30
0
41
1
10
74.6409221305024
20
-4.13865468027413
30
0
41
1
10
73.3785952986709
20
-3.51098003589092
30
0
41
1
10
72.9568513264097
20
-3.29619296708935
30
0
41
1
10
72.322159093737
20
-2.96654307351665
30
0
41
1
10
72.1102520852965
20
-2.85540942728025
30
0
41
1
10
71.6856466848825
20
-2.63078746449179
30
0
41
1
10
71.4737029339997
20
-2.51770897464485
30
0
41
1
10
70.4157665004801
20
-1.94921177277794
30
0
41
1
10
69.5747836124799
20
-1.48433626985221
30
0
41
1
10
68.316552197005
20
-0.780607664863112
30
0
41
1
10
67.8976826026409
20
-0.544961475850243
30
0
41
1
10
67.0601108690205
20
-0.0731842192636805
30
0
41
1
10
66.6414241468069
20
0.162974722556754
30
0
41
1
10
65.384473943735
20
0.870112616556639
30
0
41
1
10
64.5454085877652
20
1.33991253396587
30
0
41
1
10
63.2799293953844
20
2.03269868607003
30
0
41
1
10
62.8569673402536
20
2.26166205427054
30
0
41
1
10
62.3263198228691
20
2.54445830664173
30
0
41
1
10
62.2200560253876
20
2.60086707158695
30
0
41
1
10
62.007840729421
20
2.71305144135172
30
0
41
1
10
61.9018304494508
20
2.768859133261
30
0
41
1
10
61.584067508091
20
2.93539231129449
30
0
41
1
10
61.3725809138244
20
3.04522454280664
30
0
41
1
10
60.316616241536
20
3.58798491470458
30
0
41
1
10
59.4765295256484
20
4.00170137184415
30
0
41
1
10
58.2186812882765
20
4.58488048030256
30
0
41
1
10
57.7997766815335
20
4.77303373598778
30
0
41
1
10
56.9618168235136
20
5.13558803876035
30
0
41
1
10
56.5427768388849
20
5.31001246157584
30
0
41
1
10
55.2842880831178
20
5.81107393583173
30
0
41
1
10
54.4435591778855
20
6.11559782140583
30
0
41
1
10
53.3860938868435
20
6.4533370178747
30
0
41
1
10
53.1742767170348
20
6.51874376130735
30
0
41
1
10
52.8559824622106
20
6.61353017284372
30
0
41
1
10
52.7497565315656
20
6.64458114226346
30
0
41
1
10
52.5372458224265
20
6.70551625323739
30
0
41
1
10
52.431088908164
20
6.7353641400901
30
0
41
1
10
51.9007652161631
20
6.8814943264334
30
0
41
1
10
51.4780018809178
20
6.98846522772661
30
0
41
1
10
50.2127507346022
20
7.27894006469629
30
0
41
1
10
49.3732813487782
20
7.43202007242911
30
0
41
1
10
48.115425423961
20
7.5991865591412
30
0
41
1
10
47.6963597637057
20
7.64449181217225
30
0
41
1
10
46.8577693304153
20
7.71397133324155
30
0
41
1
10
46.4382595328249
20
7.73815265500619
30
0
41
1
10
45.1778955989637
20
7.77864036124538
30
0
41
1
10
44.3352969525379
20
7.76287479008653
30
0
41
1
10
43.380747762389
20
7.69590598371704
30
0
41
1
10
43.2745955564617
20
7.6877813443175
30
0
41
1
10
43.0620951201272
20
7.6701609845791
30
0
41
1
10
42.9557229178081
20
7.66066210824386
30
0
41
1
10
42.6370812606187
20
7.63018452487174
30
0
41
1
10
42.425031089447
20
7.60720549043018
30
0
41
1
10
41.7898639357876
20
7.53041811445192
30
0
41
1
10
41.3677510512528
20
7.46874769706673
30
0
41
1
10
40.1039736773398
20
7.25345784454166
30
0
41
1
10
39.2648587270192
20
7.06959214845546
30
0
41
1
10
38.0066347135951
20
6.73741791679078
30
0
41
1
10
37.587292669595
20
6.61729972574483
30
0
41
1
10
36.74784941158
20
6.35908274619865
30
0
41
1
10
36.3277629077583
20
6.22097170638361
30
0
41
1
10
35.6291517149854
20
5.97736460253535
30
0
41
1
10
35.3510635989073
20
5.8767383864099
30
0
41
1
10
35.0725282294463
20
5.77245084432568
30
0
0
SPLINE
5
100
100
AcDbEntity
8
1
62
256
6
ByLayer
370
18
48
1
60
0
100
AcDbSpline
70
4
71
3
72
93
73
89
40
0
40
0
40
0
40
0
40
0.0177913671984126
40
0.0177913671984126
40
0.0289528289347933
40
0.0289528289347933
40
0.040114290671174
40
0.0624372141439341
40
0.0624372141439341
40
0.107083061089454
40
0.107083061089454
40
0.112663791957645
40
0.112663791957645
40
0.118244522825836
40
0.129405984562217
40
0.151728908034979
40
0.151728908034979
40
0.196374754980504
40
0.196374754980504
40
0.218697678453266
40
0.218697678453266
40
0.241020601926029
40
0.241020601926029
40
0.263343525398791
40
0.263343525398791
40
0.274504987135172
40
0.280085718003363
40
0.280085718003363
40
0.285666448871554
40
0.285666448871554
40
0.330312295817081
40
0.330312295817081
40
0.352635219289844
40
0.352635219289844
40
0.363796681026226
40
0.363796681026226
40
0.374958142762607
40
0.374958142762607
40
0.419603989708134
40
0.419603989708134
40
0.441926913180897
40
0.441926913180897
40
0.453088374917279
40
0.453088374917279
40
0.45866910578547
40
0.45866910578547
40
0.464249836653661
40
0.50889568359919
40
0.50889568359919
40
0.531218607071955
40
0.531218607071955
40
0.542380068808337
40
0.542380068808337
40
0.553541530544719
40
0.553541530544719
40
0.598187377490244
40
0.598187377490244
40
0.642833224435769
40
0.642833224435769
40
0.687479071381294
40
0.687479071381294
40
0.709801994854056
40
0.709801994854056
40
0.715382725722247
40
0.715382725722247
40
0.720963456590437
40
0.720963456590437
40
0.73212491832682
40
0.776770765272347
40
0.776770765272347
40
0.799093688745111
40
0.799093688745111
40
0.810255150481493
40
0.810255150481493
40
0.821416612217875
40
0.821416612217875
40
0.866062459163405
40
0.866062459163405
40
0.910708306108936
40
0.910708306108936
40
0.955354153054467
40
0.955354153054467
40
0.977677076527233
40
0.977677076527233
40
0.983257807395425
40
0.983257807395425
40
0.988838538263616
40
1
40
1
40
1
40
1
41
1
10
122.162718333849
20
5.82098157543848
30
0
41
1
10
122.482865966772
20
5.94472680970716
30
0
41
1
10
122.803210305823
20
6.06392822688349
30
0
41
1
10
123.325135507733
20
6.25013747855985
30
0
41
1
10
123.526588083532
20
6.3200719586591
30
0
41
1
10
123.929006612709
20
6.45576363583081
30
0
41
1
10
124.532144349633
20
6.65312683380157
30
0
41
1
10
125.134243616096
20
6.83159848015725
30
0
41
1
10
126.338210588906
20
7.16239187195956
30
0
41
1
10
127.140575504029
20
7.34804062605025
30
0
41
1
10
128.046135116213
20
7.51499727686655
30
0
41
1
10
128.146819405886
20
7.53297015851891
30
0
41
1
10
128.348065087579
20
7.56770556740989
30
0
41
1
10
128.649802342643
20
7.61800388631201
30
0
41
1
10
129.353060474088
20
7.7226972959929
30
0
41
1
10
129.954910523478
20
7.79059318358398
30
0
41
1
10
131.158486930591
20
7.89694547897858
30
0
41
1
10
131.960734541883
20
7.92858171518247
30
0
41
1
10
133.168431839273
20
7.91601273340413
30
0
41
1
10
133.570313147241
20
7.90183422455823
30
0
41
1
10
134.373267272816
20
7.85372262487081
30
0
41
1
10
134.77436307775
20
7.81978798948194
30
0
41
1
10
135.57653282208
20
7.73237869943424
30
0
41
1
10
135.977609645668
20
7.67890402374272
30
0
41
1
10
136.579799733615
20
7.58422446835095
30
0
41
1
10
136.881038657779
20
7.53326820060002
30
0
41
1
10
137.182604108895
20
7.47692554765433
30
0
41
1
10
137.383732581562
20
7.43817123743557
30
0
41
1
10
137.484362931415
20
7.41819271494103
30
0
41
1
10
138.389471083295
20
7.23324869319316
30
0
41
1
10
139.191351532235
20
7.03209150041559
30
0
41
1
10
140.394377686614
20
6.67886957207003
30
0
41
1
10
140.795426823263
20
6.55254959659533
30
0
41
1
10
141.397631732286
20
6.35069283285145
30
0
41
1
10
141.598472155054
20
6.28134477601989
30
0
41
1
10
142.000461284363
20
6.13860943156007
30
0
41
1
10
142.201696949689
20
6.06518786715074
30
0
41
1
10
143.206623138827
20
5.68906770227988
30
0
41
1
10
144.008089538166
20
5.35888492199351
30
0
41
1
10
145.210887145773
20
4.82540199951404
30
0
41
1
10
145.611917086165
20
4.64120153926049
30
0
41
1
10
146.214174333633
20
4.35608968594894
30
0
41
1
10
146.415045145089
20
4.25958345096143
30
0
41
1
10
146.716599054192
20
4.11271331821064
30
0
41
1
10
146.817174847725
20
4.06339651136605
30
0
41
1
10
147.018187113344
20
3.96419131557741
30
0
41
1
10
147.922355782557
20
3.51507865971823
30
0
41
1
10
148.823543250466
20
3.0425617218082
30
0
41
1
10
150.026153582544
20
2.39222563132137
30
0
41
1
10
150.427186653088
20
2.17204884931874
30
0
41
1
10
151.0295096736
20
1.8375450309592
30
0
41
1
10
151.230465441785
20
1.72530891175171
30
0
41
1
10
151.63251273744
20
1.49969938050754
30
0
41
1
10
151.833172321365
20
1.38656895464609
30
0
41
1
10
152.834892212026
20
0.819717116954905
30
0
41
1
10
153.631228484666
20
0.362416316824976
30
0
41
1
10
155.219927543711
20
-0.549047328661231
30
0
41
1
10
156.012254141754
20
-1.00327821745
30
0
41
1
10
157.59829900712
20
-1.89915291106828
30
0
41
1
10
158.392036101201
20
-2.3407608319888
30
0
41
1
10
159.588186602658
20
-2.9858049094172
30
0
41
1
10
159.987831450493
20
-3.19791868512957
30
0
41
1
10
160.489011680696
20
-3.4586188356806
30
0
41
1
10
160.589328706444
20
-3.51053714638712
30
0
41
1
10
160.790136058377
20
-3.61391034919006
30
0
41
1
10
160.890652190659
20
-3.66537814272272
30
0
41
1
10
161.191951424254
20
-3.8187889739452
30
0
41
1
10
162.195418798392
20
-4.3239536925675
30
0
41
1
10
163.195708119954
20
-4.79647823083204
30
0
41
1
10
164.397537684844
20
-5.32577291531078
30
0
41
1
10
164.798395990207
20
-5.49591430968729
30
0
41
1
10
165.400617965289
20
-5.74090226073525
30
0
41
1
10
165.601650403923
20
-5.82091205705009
30
0
41
1
10
166.002764786379
20
-5.97687681135346
30
0
41
1
10
166.202981645461
20
-6.05288903524288
30
0
41
1
10
167.20260002311
20
-6.42292039100633
30
0
41
1
10
167.997615681468
20
-6.68683753494173
30
0
41
1
10
169.584143044847
20
-7.14605993629925
30
0
41
1
10
170.375656147554
20
-7.34136163965982
30
0
41
1
10
171.960949025707
20
-7.65910733163321
30
0
41
1
10
172.754704096912
20
-7.78157492758183
30
0
41
1
10
173.951268489021
20
-7.90750164728001
30
0
41
1
10
174.351119324901
20
-7.93984340041982
30
0
41
1
10
174.852665083537
20
-7.96788427977307
30
0
41
1
10
174.953087631969
20
-7.97287398834567
30
0
41
1
10
175.153857342903
20
-7.98159616732113
30
0
41
1
10
175.454975688057
20
-7.99279888490773
30
0
41
1
10
175.75604065918
20
-7.99835688183381
30
0
41
1
10
175.95677320435
20
-7.99955090053925
30
0
0
SPLINE
5
101
100
AcDbEntity
8
1
62
256
6
ByLayer
370
18
48
1
60
0
100
AcDbSpline
70
4
71
3
72
12
73
8
40
0
40
0
40
0
40
0
40
0.5
40
0.5
40
0.75
40
0.75
40
1
40
1
40
1
40
1
41
1
10
175.898906272292
20
-7.93039715983915
30
0
41
1
10
175.908522374389
20
-7.95218932747443
30
0
41
1
10
175.91814899228
20
-7.96886657761445
30
0
41
1
10
175.932626778708
20
-7.98618148183925
30
0
41
1
10
175.937462269569
20
-7.99067008155086
30
0
41
1
10
175.947123386976
20
-7.99705033800933
30
0
41
1
10
175.951950183234
20
-7.99894548543708
30
0
41
1
10
175.95677320435
20
-7.99955090053925
30
0
0
SPLINE
5
102
100
AcDbEntity
8
1
62
256
6
ByLayer
370
18
48
1
60
0
100
AcDbSpline
70
4
71
3
72
85
73
81
40
0
40
0
40
0
40
0
40
0.0287587714843334
40
0.0287587714843334
40
0.0359484643554171
40
0.0359484643554171
40
0.0431381572265008
40
0.0575175429686682
40
0.0862763144530031
40
0.0862763144530031
40
0.115035085937338
40
0.115035085937338
40
0.129414471679505
40
0.13660416455059
40
0.13660416455059
40
0.143793857421674
40
0.143793857421674
40
0.172552628906012
40
0.172552628906012
40
0.230070171874689
40
0.230070171874689
40
0.244449557616858
40
0.244449557616858
40
0.251639250487942
40
0.251639250487942
40
0.258828943359025
40
0.287587714843357
40
0.287587714843357
40
0.345105257812021
40
0.345105257812021
40
0.359484643554187
40
0.359484643554187
40
0.373864029296352
40
0.402622800780685
40
0.402622800780685
40
0.431381572265017
40
0.431381572265017
40
0.46014034374935
40
0.46014034374935
40
0.488899115233682
40
0.488899115233682
40
0.517657886718015
40
0.517657886718015
40
0.546416658202348
40
0.546416658202348
40
0.57517542968668
40
0.57517542968668
40
0.582365122557764
40
0.582365122557764
40
0.589554815428847
40
0.603934201171014
40
0.603934201171014
40
0.632692972655348
40
0.632692972655348
40
0.690210515624017
40
0.690210515624017
40
0.697400208495099
40
0.697400208495099
40
0.704589901366182
40
0.718969287108349
40
0.718969287108349
40
0.747728058592683
40
0.747728058592683
40
0.776486830077018
40
0.776486830077018
40
0.790866215819187
40
0.790866215819187
40
0.805245601561355
40
0.805245601561355
40
0.862763144530027
40
0.862763144530027
40
0.891521916014364
40
0.905901301756532
40
0.913090994627616
40
0.913090994627616
40
0.9202806874987
40
0.9202806874987
40
0.977798230467373
40
0.977798230467373
40
1
40
1
40
1
40
1
41
1
10
175.898906272296
20
-7.93039715983824
30
0
41
1
10
175.498325691608
20
-7.89929695795689
30
0
41
1
10
175.09771737875
20
-7.85827380527036
30
0
41
1
10
174.596513212474
20
-7.79472767585679
30
0
41
1
10
174.496237981143
20
-7.78140305962663
30
0
41
1
10
174.295805037183
20
-7.75355502509748
30
0
41
1
10
173.995272292988
20
-7.70997768408878
30
0
41
1
10
173.294731154514
20
-7.59574301532936
30
0
41
1
10
172.695074223496
20
-7.47658260632466
30
0
41
1
10
171.895500699772
20
-7.29932774989692
30
0
41
1
10
171.495738352181
20
-7.20148615418509
30
0
41
1
10
170.895551916867
20
-7.0412796314524
30
0
41
1
10
170.595310715159
20
-6.95782544064369
30
0
41
1
10
170.294743705444
20
-6.86941638714219
30
0
41
1
10
170.094281341326
20
-6.80938421942813
30
0
41
1
10
169.99397942187
20
-6.77881271692988
30
0
41
1
10
169.492721550065
20
-6.62339845150251
30
0
41
1
10
169.092363271478
20
-6.49084384185184
30
0
41
1
10
167.892101713411
20
-6.06983219163007
30
0
41
1
10
167.093061664258
20
-5.75797968470215
30
0
41
1
10
166.092049418136
20
-5.33337455693962
30
0
41
1
10
165.891733233849
20
-5.24671771384121
30
0
41
1
10
165.591015491823
20
-5.11421360522928
30
0
41
1
10
165.490708899093
20
-5.06961376469127
30
0
41
1
10
165.290137349808
20
-4.97964995253437
30
0
41
1
10
164.788918142921
20
-4.75287788400013
30
0
41
1
10
164.288586085314
20
-4.51703701840032
30
0
41
1
10
163.088376197408
20
-3.93531046598969
30
0
41
1
10
162.289034931012
20
-3.52652309999138
30
0
41
1
10
161.287111811934
20
-2.99504126115826
30
0
41
1
10
161.086555375981
20
-2.88770324723214
30
0
41
1
10
160.685219866714
20
-2.6711830790357
30
0
41
1
10
160.084266000926
20
-2.34438619690164
30
0
41
1
10
159.48607817525
20
-2.01221704022422
30
0
41
1
10
158.690184001866
20
-1.56591214662049
30
0
41
1
10
158.293079688859
20
-1.34105690038689
30
0
41
1
10
157.49975119395
20
-0.889368326737952
30
0
41
1
10
157.103526266967
20
-0.662536409699868
30
0
41
1
10
156.311329683645
20
-0.208006460000036
30
0
41
1
10
155.915361127462
20
0.0196971443390055
30
0
41
1
10
155.122914411986
20
0.474618104816756
30
0
41
1
10
154.726430075232
20
0.701824429428058
30
0
41
1
10
153.9322912435
20
1.15457966713615
30
0
41
1
10
153.534642793618
20
1.38013940868254
30
0
41
1
10
152.737382453001
20
1.82819460940223
30
0
41
1
10
152.33776494925
20
2.05067998715475
30
0
41
1
10
151.836583530565
20
2.32610492472233
30
0
41
1
10
151.736239537604
20
2.38106984691473
30
0
41
1
10
151.535483135262
20
2.49064954505062
30
0
41
1
10
151.234482128316
20
2.65436512891483
30
0
41
1
10
150.933824187081
20
2.81602825075808
30
0
41
1
10
150.332812216185
20
3.13637878790337
30
0
41
1
10
149.932535838876
20
3.34596778724551
30
0
41
1
10
148.731886259281
20
3.9612350226775
30
0
41
1
10
147.931674421785
20
4.35337895787166
30
0
41
1
10
147.02828140463
20
4.76898558826508
30
0
41
1
10
146.927845978109
20
4.81481768470195
30
0
41
1
10
146.72711232813
20
4.90565051497515
30
0
41
1
10
146.42613597865
20
5.04069071090149
30
0
41
1
10
146.125476003515
20
5.17203561732444
30
0
41
1
10
145.524429124228
20
5.42961930545292
30
0
41
1
10
145.124089519913
20
5.59452697121233
30
0
41
1
10
144.323430168957
20
5.90988512016017
30
0
41
1
10
143.923114245084
20
6.06033874093347
30
0
41
1
10
143.32207838631
20
6.27448558944488
30
0
41
1
10
143.121639036362
20
6.34394528096692
30
0
41
1
10
142.720472472201
20
6.47890266320437
30
0
41
1
10
142.519711866487
20
6.54441252144889
30
0
41
1
10
141.515360279757
20
6.86171334173812
30
0
41
1
10
140.714717112875
20
7.08128769552619
30
0
41
1
10
139.513402270896
20
7.35595071843122
30
0
41
1
10
138.912673150989
20
7.47962246035434
30
0
41
1
10
138.210716640567
20
7.5993136546073
30
0
41
1
10
137.909538580056
20
7.64526801185835
30
0
41
1
10
137.708665029028
20
7.67470846932164
30
0
41
1
10
137.608180210678
20
7.68883089869661
30
0
41
1
10
136.704442574109
20
7.8103776748851
30
0
41
1
10
135.903728088928
20
7.87922694010592
30
0
41
1
10
134.7933571426
20
7.91972489413328
30
0
41
1
10
134.484064525028
20
7.92510087948517
30
0
41
1
10
134.174547136391
20
7.92454995156626
30
0
0
SPLINE
5
103
100
AcDbEntity
8
1
62
256
6
ByLayer
370
18
48
1
60
0
100
AcDbSpline
70
4
71
3
72
28
73
24
40
0
40
0
40
0
40
0
40
0.125000000000255
40
0.125000000000255
40
0.187500000000331
40
0.187500000000331
40
0.250000000000407
40
0.250000000000407
40
0.375000000000567
40
0.375000000000567
40
0.43750000000065
40
0.43750000000065
40
0.500000000000733
40
0.500000000000733
40
0.625000000000552
40
0.625000000000552
40
0.68750000000046
40
0.68750000000046
40
0.750000000000368
40
0.750000000000368
40
0.875000000000184
40
0.875000000000184
40
1
40
1
40
1
40
1
41
1
10
99.0002384424106
20
-5.72308928246673
30
0
41
1
10
99.0002384424106
20
-5.71706036216506
30
0
41
1
10
99.001378569099
20
-5.71115532062495
30
0
41
1
10
99.0047484130095
20
-5.70247965395481
30
0
41
1
10
99.0061657245637
20
-5.69959929778881
30
0
41
1
10
99.0095012673155
20
-5.69404745657144
30
0
41
1
10
99.0114193187827
20
-5.69136519274562
30
0
41
1
10
99.0179101556639
20
-5.68359527370674
30
0
41
1
10
99.0233081651697
20
-5.67872542758161
30
0
41
1
10
99.0325082301727
20
-5.67235465156637
30
0
41
1
10
99.0357625153308
20
-5.67037584338757
30
0
41
1
10
99.042647137121
20
-5.6667094629949
30
0
41
1
10
99.0463047330957
20
-5.66501153043356
30
0
41
1
10
99.0576590255568
20
-5.66046178071213
30
0
41
1
10
99.06566171554
20
-5.65815743513821
30
0
41
1
10
99.0783129979956
20
-5.65579428820203
30
0
41
1
10
99.0826398362019
20
-5.65519504863511
30
0
41
1
10
99.091260244574
20
-5.65440333223381
30
0
41
1
10
99.0955853669321
20
-5.65420405744928
30
0
41
1
10
99.1086052169037
20
-5.65419261598245
30
0
41
1
10
99.11741955665
20
-5.65499119197722
30
0
41
1
10
99.1341877046177
20
-5.65809230096406
30
0
41
1
10
99.1423246521785
20
-5.66040938146551
30
0
41
1
10
99.1499549227406
20
-5.66345158927612
30
0
0
SPLINE
5
104
100
AcDbEntity
8
1
62
256
6
ByLayer
370
18
48
1
60
0
100
AcDbSpline
70
4
71
3
72
28
73
24
40
0
40
0
40
0
40
0
40
0.11263798125622
40
0.11263798125622
40
0.168956971884327
40
0.168956971884327
40
0.225275962512434
40
0.225275962512434
40
0.337913943768642
40
0.337913943768642
40
0.394232934396743
40
0.394232934396743
40
0.450551925024844
40
0.450551925024844
40
0.563189906281047
40
0.563189906281047
40
0.675827887537249
40
0.675827887537249
40
0.788465868793451
40
0.788465868793451
40
0.901103850049653
40
0.901103850049653
40
1
40
1
40
1
40
1
41
1
10
99.1499549227406
20
-5.66345158927612
30
0
41
1
10
99.5508852119409
20
-5.82330349064338
30
0
41
1
10
99.9520198486233
20
-5.97518342289047
30
0
41
1
10
100.554229325657
20
-6.1910393110058
30
0
41
1
10
100.755051147341
20
-6.26099455714544
30
0
41
1
10
101.156909275099
20
-6.3968797898867
30
0
41
1
10
101.358066390031
20
-6.46284599114867
30
0
41
1
10
101.960339240329
20
-6.65413595303778
30
0
41
1
10
102.360633106236
20
-6.77300881191871
30
0
41
1
10
102.95945825493
20
-6.93835138460247
30
0
41
1
10
103.158797916175
20
-6.99130231032839
30
0
41
1
10
103.556930391896
20
-7.09288857997123
30
0
41
1
10
103.755719589994
20
-7.14152197081725
30
0
41
1
10
104.351819035747
20
-7.28053213060542
30
0
41
1
10
104.748891726133
20
-7.36402995270257
30
0
41
1
10
105.5423278145
20
-7.51287880943281
30
0
41
1
10
105.938670437463
20
-7.57820937691281
30
0
41
1
10
106.731860456378
20
-7.69004218295348
30
0
41
1
10
107.128739228142
20
-7.73655970053966
30
0
41
1
10
107.923145655482
20
-7.8106838582016
30
0
41
1
10
108.320633657272
20
-7.83827165868775
30
0
41
1
10
109.068877505
20
-7.87181065131858
30
0
41
1
10
109.419451513536
20
-7.88000832801288
30
0
41
1
10
109.77085398961
20
-7.88062375861486
30
0
0
SPLINE
5
105
100
AcDbEntity
8
1
62
256
6
ByLayer
370
18
48
1
60
0
100
AcDbSpline
70
4
71
3
72
74
73
70
40
0
40
0
40
0
40
0
40
0.0009536206818544
40
0.0009536206818544
40
0.0236592202118169
40
0.0236592202118169
40
0.0463648197417794
40
0.0463648197417794
40
0.069070419271742
40
0.069070419271742
40
0.080423219036722
40
0.080423219036722
40
0.0917760188017019
40
0.0917760188017019
40
0.11448161833166
40
0.11448161833166
40
0.137187217861618
40
0.137187217861618
40
0.182598416921531
40
0.182598416921531
40
0.205304016451486
40
0.205304016451486
40
0.228009615981442
40
0.228009615981442
40
0.250715215511397
40
0.250715215511397
40
0.273420815041353
40
0.273420815041353
40
0.318832014101266
40
0.318832014101266
40
0.364243213161179
40
0.364243213161179
40
0.386948812691135
40
0.386948812691135
40
0.409654412221092
40
0.409654412221092
40
0.432360011751048
40
0.432360011751048
40
0.455065611281004
40
0.455065611281004
40
0.50047681034092
40
0.50047681034092
40
0.545888009400836
40
0.545888009400836
40
0.591299208460751
40
0.591299208460751
40
0.60265200822573
40
0.60265200822573
40
0.614004807990709
40
0.636710407520667
40
0.636710407520667
40
0.682121606580582
40
0.682121606580582
40
0.727532805640498
40
0.727532805640498
40
0.750238405170455
40
0.761591204935433
40
0.761591204935433
40
0.772944004700411
40
0.772944004700411
40
0.818355203760328
40
0.818355203760328
40
0.841060803290288
40
0.841060803290288
40
0.863766402820247
40
0.863766402820247
40
0.909177601880164
40
0.909177601880164
40
1
40
1
40
1
40
1
41
1
10
149.53984103399
20
7.65763322005054
30
0
41
1
10
149.548234009194
20
7.65894502337332
30
0
41
1
10
149.556626974951
20
7.66025265619353
30
0
41
1
10
149.764855279603
20
7.69259140639289
30
0
41
1
10
149.964683563179
20
7.72126090566508
30
0
41
1
10
150.364328500127
20
7.77383961325395
30
0
41
1
10
150.564165652647
20
7.79773639119162
30
0
41
1
10
150.964227647921
20
7.84061016439517
30
0
41
1
10
151.164434469447
20
7.85959748434919
30
0
41
1
10
151.464999290978
20
7.88440447954346
30
0
41
1
10
151.565258383188
20
7.89206276018649
30
0
41
1
10
151.765711123467
20
7.90614061271654
30
0
41
1
10
151.865892444278
20
7.91255972639479
30
0
41
1
10
152.166303442754
20
7.92995986624001
30
0
41
1
10
152.366396957069
20
7.93908486912758
30
0
41
1
10
152.76624483301
20
7.95237644641901
30
0
41
1
10
152.966020974145
20
7.95653692804325
30
0
41
1
10
153.565417632009
20
7.96156073288142
30
0
41
1
10
153.965015852238
20
7.95500131941594
30
0
41
1
10
154.564349741216
20
7.93030854629566
30
0
41
1
10
154.764119403744
20
7.91959754453612
30
0
41
1
10
155.163704189588
20
7.89319190433378
30
0
41
1
10
155.363544586277
20
7.87749835327261
30
0
41
1
10
155.763711003722
20
7.84122685097995
30
0
41
1
10
155.964037786608
20
7.82064409011946
30
0
41
1
10
156.364947151408
20
7.77458042383651
30
0
41
1
10
156.565232113406
20
7.74913299876525
30
0
41
1
10
157.165539336635
20
7.66554403114847
30
0
41
1
10
157.565075932357
20
7.60016279627834
30
0
41
1
10
158.364152054836
20
7.45084965513587
30
0
41
1
10
158.763618299935
20
7.36690757569829
30
0
41
1
10
159.362693009649
20
7.22696850025449
30
0
41
1
10
159.562374611465
20
7.17798694898192
30
0
41
1
10
159.961879529061
20
7.0754422793639
30
0
41
1
10
160.161720039417
20
7.0218908171785
30
0
41
1
10
160.561894976198
20
6.91049074739439
30
0
41
1
10
160.762313349718
20
6.85259619980911
30
0
41
1
10
161.162787464776
20
6.73275956668957
30
0
41
1
10
161.362910061225
20
6.67080093227855
30
0
41
1
10
161.962988158848
20
6.47889208549947
30
0
41
1
10
162.362651299142
20
6.34291102797991
30
0
41
1
10
163.161574540684
20
6.05528105433933
30
0
41
1
10
163.560828141791
20
5.90362191357843
30
0
41
1
10
164.359458620264
20
5.58507826787093
30
0
41
1
10
164.758915360373
20
5.41827063192682
30
0
41
1
10
165.259399565805
20
5.20154764457826
30
0
41
1
10
165.359542666549
20
5.15779075179935
30
0
41
1
10
165.559705496388
20
5.06955455968583
30
0
41
1
10
165.85985230991
20
4.93607992285422
30
0
41
1
10
166.159721421911
20
4.79927428914496
30
0
41
1
10
166.759162307088
20
4.52133741921119
30
0
41
1
10
167.158412827883
20
4.33030481902745
30
0
41
1
10
167.956944447939
20
3.93792123541857
30
0
41
1
10
168.356203385438
20
3.73654072936745
30
0
41
1
10
168.955467077161
20
3.42722903442021
30
0
41
1
10
169.255204284925
20
3.27077946233291
30
0
41
1
10
169.555262511906
20
3.11188515362554
30
0
41
1
10
169.755389136881
20
3.00543792304322
30
0
41
1
10
169.855522390931
20
2.95194211607875
30
0
41
1
10
170.355733340256
20
2.6836082340437
30
0
41
1
10
170.754907385911
20
2.46591840829063
30
0
41
1
10
171.352507127958
20
2.13543133883056
30
0
41
1
10
171.551524171378
20
2.02462800155593
30
0
41
1
10
171.949391565895
20
1.80208252056499
30
0
41
1
10
172.148235360069
20
1.6903294100548
30
0
41
1
10
172.744563757607
20
1.35374799911196
30
0
41
1
10
173.141844029619
20
1.12759573636379
30
0
41
1
10
174.333615026535
20
0.4451379129261
30
0
41
1
10
175.128053717698
20
-0.0151426980991971
30
0
41
1
10
175.92550505289
20
-0.475392415796677
30
0
0
SPLINE
5
106
100
AcDbEntity
8
1
62
256
6
ByLayer
370
18
48
1
60
0
100
AcDbSpline
70
4
71
3
72
8
73
4
40
0
40
0
40
0
40
0
40
1
40
1
40
1
40
1
41
1
10
175.925505052887
20
-0.475392415795426
30
0
41
1
10
175.965762080266
20
-0.12651443045371
30
0
41
1
10
176.013456884012
20
0.220152987321313
30
0
41
1
10
176.070229463603
20
0.564390693945199
30
0
0
SPLINE
5
107
100
AcDbEntity
8
1
62
256
6
ByLayer
370
18
48
1
60
0
100
AcDbSpline
70
4
71
3
72
54
73
50
40
0
40
0
40
0
40
0
40
0.0572606497461069
40
0.0572606497461069
40
0.114521299492214
40
0.114521299492214
40
0.143151624365268
40
0.143151624365268
40
0.171781949238322
40
0.171781949238322
40
0.22904259898443
40
0.22904259898443
40
0.286303248730539
40
0.286303248730539
40
0.314933573603592
40
0.314933573603592
40
0.343563898476646
40
0.343563898476646
40
0.400824548222753
40
0.400824548222753
40
0.429454873095806
40
0.429454873095806
40
0.458085197968859
40
0.458085197968859
40
0.515345847714966
40
0.515345847714966
40
0.572606497461073
40
0.572606497461073
40
0.601236822334126
40
0.601236822334126
40
0.629867147207179
40
0.629867147207179
40
0.687127796953284
40
0.687127796953284
40
0.74438844669939
40
0.74438844669939
40
0.801649096445495
40
0.801649096445495
40
0.858909746191601
40
0.858909746191601
40
0.873224908628127
40
0.873224908628127
40
0.887540071064654
40
0.887540071064654
40
0.916170395937706
40
0.916170395937706
40
0.97343104568381
40
0.97343104568381
40
1
40
1
40
1
40
1
41
1
10
12.6892142636976
20
-4.84317719346177
30
0
41
1
10
13.1208378867858
20
-5.03040458690222
30
0
41
1
10
13.5507643906237
20
-5.21000876544855
30
0
41
1
10
14.4080183060201
20
-5.55313494756032
30
0
41
1
10
14.8352986811622
20
-5.7167091090999
30
0
41
1
10
15.4751161472991
20
-5.9490633475688
30
0
41
1
10
15.6881991843799
20
-6.02435585318406
30
0
41
1
10
16.1141020617941
20
-6.17050985482049
30
0
41
1
10
16.3269654050386
20
-6.24132321052699
30
0
41
1
10
16.9653637945176
20
-6.44693452477929
30
0
41
1
10
17.3906542650742
20
-6.57496056429227
30
0
41
1
10
18.2412861747273
20
-6.81226142019847
30
0
41
1
10
18.6666222661291
20
-6.9215355970035
30
0
41
1
10
19.3053336853661
20
-7.07070833631295
30
0
41
1
10
19.5183833597257
20
-7.11795450793304
30
0
41
1
10
19.9449352270581
20
-7.20736473417597
30
0
41
1
10
20.1584163545212
20
-7.24954480818781
30
0
41
1
10
20.7995378780402
20
-7.36842831396646
30
0
41
1
10
21.22787400167
20
-7.43746302334364
30
0
41
1
10
21.8723594333837
20
-7.52507909140948
30
0
41
1
10
22.0875143358501
20
-7.5516293109448
30
0
41
1
10
22.5186134906667
20
-7.59929997017119
30
0
41
1
10
22.7338027022783
20
-7.62033446149832
30
0
41
1
10
23.3783642144493
20
-7.6749932350622
30
0
41
1
10
23.8067336678041
20
-7.70023993945932
30
0
41
1
10
24.6613546483709
20
-7.72862123717943
30
0
41
1
10
25.0876285317055
20
-7.73174518298887
30
0
41
1
10
25.7260938691564
20
-7.71994309317913
30
0
41
1
10
25.9387508552054
20
-7.7132582592194
30
0
41
1
10
26.3639901768308
20
-7.69443662276447
30
0
41
1
10
26.5765654778949
20
-7.68230193587928
30
0
41
1
10
27.2141970998327
20
-7.63776099663713
30
0
41
1
10
27.6391435518212
20
-7.59721220780943
30
0
41
1
10
28.4894985985987
20
-7.4945691185994
30
0
41
1
10
28.9148664796116
20
-7.43244878557906
30
0
41
1
10
29.7670832394724
20
-7.28693477458606
30
0
41
1
10
30.1940924883072
20
-7.2036538276293
30
0
41
1
10
31.0502826676195
20
-7.01603827780042
30
0
41
1
10
31.4795013127263
20
-6.91172020734669
30
0
41
1
10
32.0179359613045
20
-6.76828426985281
30
0
41
1
10
32.1256747410275
20
-6.73895551790054
30
0
41
1
10
32.340824299721
20
-6.67915657752383
30
0
41
1
10
32.4482978551607
20
-6.64866926611541
30
0
41
1
10
32.7704451051052
20
-6.55548036911085
30
0
41
1
10
32.9848794078703
20
-6.49108579357707
30
0
41
1
10
33.6273479024149
20
-6.29132599315079
30
0
41
1
10
34.0544699549288
20
-6.14930636324422
30
0
41
1
10
34.6785245546062
20
-5.92912467649538
30
0
41
1
10
34.8761284965439
20
-5.85753595764245
30
0
41
1
10
35.0735921598616
20
-5.78419989435724
30
0
0
SPLINE
5
108
100
AcDbEntity
8
1
62
256
6
ByLayer
370
18
48
1
60
0
100
AcDbSpline
70
4
71
3
72
127
73
123
40
0
40
0
40
0
40
0
40
0.0103151626701672
40
0.0103151626701672
40
0.022198986331155
40
0.022198986331155
40
0.0340828099921428
40
0.0340828099921428
40
0.0400247218226364
40
0.0400247218226364
40
0.04596663365313
40
0.0578504573141171
40
0.0578504573141171
40
0.0816181046360908
40
0.0816181046360908
40
0.105385751958065
40
0.105385751958065
40
0.129153399280038
40
0.129153399280038
40
0.152921046602012
40
0.152921046602012
40
0.176688693923985
40
0.176688693923985
40
0.200456341245958
40
0.200456341245958
40
0.212340164906945
40
0.212340164906945
40
0.218282076737438
40
0.218282076737438
40
0.22422398856793
40
0.22422398856793
40
0.2479916358899
40
0.2479916358899
40
0.259875459550885
40
0.259875459550885
40
0.27175928321187
40
0.27175928321187
40
0.29552693053384
40
0.29552693053384
40
0.319294577855809
40
0.319294577855809
40
0.331178401516795
40
0.331178401516795
40
0.34306222517778
40
0.34306222517778
40
0.366829872499751
40
0.366829872499751
40
0.390597519821722
40
0.390597519821722
40
0.396539431652214
40
0.396539431652214
40
0.402481343482707
40
0.402481343482707
40
0.414365167143692
40
0.414365167143692
40
0.438132814465661
40
0.438132814465661
40
0.461900461787631
40
0.461900461787631
40
0.485668109109601
40
0.485668109109601
40
0.50943575643157
40
0.50943575643157
40
0.521319580092555
40
0.521319580092555
40
0.533203403753539
40
0.533203403753539
40
0.556971051075509
40
0.556971051075509
40
0.568854874736494
40
0.568854874736494
40
0.574796786566987
40
0.574796786566987
40
0.58073869839748
40
0.58073869839748
40
0.60450634571945
40
0.60450634571945
40
0.62827399304142
40
0.62827399304142
40
0.652041640363389
40
0.652041640363389
40
0.675809287685359
40
0.675809287685359
40
0.699576935007329
40
0.699576935007329
40
0.711460758668314
40
0.711460758668314
40
0.723344582329299
40
0.723344582329299
40
0.747112229651269
40
0.747112229651269
40
0.753054141481761
40
0.753054141481761
40
0.758996053312253
40
0.758996053312253
40
0.770879876973239
40
0.770879876973239
40
0.794647524295211
40
0.794647524295211
40
0.818415171617184
40
0.818415171617184
40
0.83029899527817
40
0.83029899527817
40
0.842182818939156
40
0.842182818939156
40
0.865950466261129
40
0.865950466261129
40
0.889718113583102
40
0.889718113583102
40
0.913485760905075
40
0.913485760905075
40
0.925369584566062
40
0.925369584566062
40
0.931311496396556
40
0.931311496396556
40
0.937253408227049
40
0.937253408227049
40
0.961021055549019
40
0.961021055549019
40
0.984788702870989
40
0.984788702870989
40
1
40
1
40
1
40
1
41
1
10
68.4503458359774
20
7.80624668625833
30
0
41
1
10
68.6352379090121
20
7.80657980374784
30
0
41
1
10
68.8202928171374
20
7.80481878753557
30
0
41
1
10
69.2189670104437
20
7.79649077125231
30
0
41
1
10
69.4326439623621
20
7.78923076981215
30
0
41
1
10
69.8607486318155
20
7.76909020399361
30
0
41
1
10
70.0751710741395
20
7.7562117029529
30
0
41
1
10
70.3973948051307
20
7.73265135794381
30
0
41
1
10
70.5049685839754
20
7.72408423112969
30
0
41
1
10
70.7198865464181
20
7.70556870713045
30
0
41
1
10
71.0419575515229
20
7.67572420279183
30
0
41
1
10
71.363167005853
20
7.63971406640468
30
0
41
1
10
72.0045894743699
20
7.55959649473098
30
0
41
1
10
72.4308331815
20
7.4953636998539
30
0
41
1
10
73.2816915523959
20
7.34606240595667
30
0
41
1
10
73.706442297126
20
7.2610886625769
30
0
41
1
10
74.5550374762735
20
7.07099264867517
30
0
41
1
10
74.9789120744877
20
6.96588434540038
30
0
41
1
10
75.8265711059504
20
6.73614798081078
30
0
41
1
10
76.2503311450942
20
6.61148385351481
30
0
41
1
10
77.0990762842753
20
6.34379973555593
30
0
41
1
10
77.5239470333822
20
6.20068064282026
30
0
41
1
10
78.3753572769812
20
5.89641801707563
30
0
41
1
10
78.8018994905466
20
5.73527321846643
30
0
41
1
10
79.4436274439951
20
5.48056991626271
30
0
41
1
10
79.6578659978894
20
5.39351641909613
30
0
41
1
10
79.9798759058768
20
5.25988969736687
30
0
41
1
10
80.0873853127678
20
5.21480452735278
30
0
41
1
10
80.3021942099148
20
5.12378976258691
30
0
41
1
10
80.4094995909024
20
5.07785807741891
30
0
41
1
10
80.9455506750168
20
4.84611383890322
30
0
41
1
10
81.3728786503432
20
4.65405872957254
30
0
41
1
10
82.0122016256907
20
4.35698084846678
30
0
41
1
10
82.2250280156818
20
4.25645068912181
30
0
41
1
10
82.6502347014277
20
4.05257107102165
30
0
41
1
10
82.8626071530298
20
3.9492087994098
30
0
41
1
10
83.4993907333685
20
3.63543495294201
30
0
41
1
10
83.9234041306601
20
3.4212413017645
30
0
41
1
10
84.7709479674794
20
2.98374728468787
30
0
41
1
10
85.194503076754
20
2.76048500756974
30
0
41
1
10
85.8300869672807
20
2.41976382388222
30
0
41
1
10
86.0419845898656
20
2.30520867002008
30
0
41
1
10
86.4660471957838
20
2.07446467835237
30
0
41
1
10
86.6782322236932
20
1.95831145012642
30
0
41
1
10
87.3153229321527
20
1.60763218167591
30
0
41
1
10
87.740736672884
20
1.37083786540793
30
0
41
1
10
88.5936878330923
20
0.892465800263892
30
0
41
1
10
89.0212102004383
20
0.65085842535575
30
0
41
1
10
89.5575253374239
20
0.346830388970489
30
0
41
1
10
89.6649584645631
20
0.285897484877921
30
0
41
1
10
89.8796148640137
20
0.164151311898479
30
0
41
1
10
89.9868496879744
20
0.103326322868156
30
0
41
1
10
90.308284922667
20
-0.0789880581280329
30
0
41
1
10
90.5222128917024
20
-0.200323028847521
30
0
41
1
10
91.1630188305112
20
-0.563526483937721
30
0
41
1
10
91.5889335922735
20
-0.804566171735161
30
0
41
1
10
92.4389701478157
20
-1.28309972327202
30
0
41
1
10
92.8630384194368
20
-1.52068504322113
30
0
41
1
10
93.7106631948774
20
-1.99007818782229
30
0
41
1
10
94.134145596793
20
-2.22202244038698
30
0
41
1
10
94.9810709428718
20
-2.67934764439281
30
0
41
1
10
95.4045255738154
20
-2.90470716012652
30
0
41
1
10
96.0402993403469
20
-3.23674391138161
30
0
41
1
10
96.2523181717509
20
-3.34642905371641
30
0
41
1
10
96.6767780649554
20
-3.56342175367485
30
0
41
1
10
96.8892093932316
20
-3.67074597333487
30
0
41
1
10
97.5271803594605
20
-3.98907318901024
30
0
41
1
10
97.9533900612204
20
-4.19644166365305
30
0
41
1
10
98.5946448309393
20
-4.49918629539602
30
0
41
1
10
98.8087191197751
20
-4.59871734133711
30
0
41
1
10
99.1303956257277
20
-4.74579746108711
30
0
41
1
10
99.2377791794174
20
-4.79448155946142
30
0
41
1
10
99.4522709259014
20
-4.89086510073099
30
0
41
1
10
99.5594119146366
20
-4.93858271494969
30
0
41
1
10
100.094694518733
20
-5.17466779730631
30
0
41
1
10
100.521556201099
20
-5.35555690098937
30
0
41
1
10
101.373102176512
20
-5.7009927599513
30
0
41
1
10
101.797811964946
20
-5.86549993194294
30
0
41
1
10
102.645877109391
20
-6.17731240175806
30
0
41
1
10
103.069219580858
20
-6.32461970273198
30
0
41
1
10
103.915844293476
20
-6.60071273669814
30
0
41
1
10
104.339018093504
20
-6.72962359088325
30
0
41
1
10
105.185781237219
20
-6.96848659250728
30
0
41
1
10
105.609369526148
20
-7.07843636468573
30
0
41
1
10
106.245697231121
20
-7.22848471751894
30
0
41
1
10
106.457978027011
20
-7.27600995578987
30
0
41
1
10
106.883072660178
20
-7.36592409888897
30
0
41
1
10
107.095869923714
20
-7.40832576817257
30
0
41
1
10
107.73509580346
20
-7.52776280295055
30
0
41
1
10
108.162370686973
20
-7.59702277643507
30
0
41
1
10
108.698378018219
20
-7.67011507147865
30
0
41
1
10
108.80571893265
20
-7.68406386739119
30
0
41
1
10
109.02007534091
20
-7.71053653590414
30
0
41
1
10
109.127149306283
20
-7.72306872551817
30
0
41
1
10
109.448083394228
20
-7.75855366210016
30
0
41
1
10
109.66164814287
20
-7.77939577003656
30
0
41
1
10
110.301518519547
20
-7.83345960131081
30
0
41
1
10
110.726937140448
20
-7.85825097332847
30
0
41
1
10
111.576057303524
20
-7.88556455000764
30
0
41
1
10
111.999778420088
20
-7.88807920836146
30
0
41
1
10
112.634687057109
20
-7.87522446602702
30
0
41
1
10
112.846203741284
20
-7.86816603240177
30
0
41
1
10
113.269202880187
20
-7.84853341326434
30
0
41
1
10
113.480696212964
20
-7.83596288000635
30
0
41
1
10
114.115245244484
20
-7.79002214355373
30
0
41
1
10
114.538346040894
20
-7.74841757846386
30
0
41
1
10
115.385428254843
20
-7.64337556165623
30
0
41
1
10
115.809392166352
20
-7.5799265640224
30
0
41
1
10
116.659093261522
20
-7.43133135313207
30
0
41
1
10
117.084995472278
20
-7.34628799067687
30
0
41
1
10
117.725881327536
20
-7.20265450920559
30
0
41
1
10
117.939850912601
20
-7.15209835442823
30
0
41
1
10
118.261392875496
20
-7.07225635455552
30
0
41
1
10
118.368668951863
20
-7.04497401273136
30
0
41
1
10
118.582879111976
20
-6.9892231027813
30
0
41
1
10
118.689882080361
20
-6.9607376993909
30
0
41
1
10
119.224417065267
20
-6.81529981518847
30
0
41
1
10
119.650462695663
20
-6.68926270727928
30
0
41
1
10
120.500776796313
20
-6.4194250190028
30
0
41
1
10
120.924978390721
20
-6.27557021762061
30
0
41
1
10
121.619648836665
20
-6.02572543735306
30
0
41
1
10
121.890488505357
20
-5.92475050723223
30
0
41
1
10
122.161182104277
20
-5.82043121302362
30
0
0
SPLINE
5
109
100
AcDbEntity
8
1
62
256
6
ByLayer
370
18
48
1
60
0
100
AcDbSpline
70
4
71
3
72
56
73
52
40
0
40
0
40
0
40
0
40
0.0186457270595604
40
0.0186457270595604
40
0.0339793875742552
40
0.0339793875742552
40
0.0493130480889492
40
0.0493130480889492
40
0.0799803691183372
40
0.0799803691183372
40
0.141315011177112
40
0.141315011177112
40
0.202649653235886
40
0.202649653235886
40
0.233316974265274
40
0.233316974265274
40
0.263984295294663
40
0.263984295294663
40
0.325318937353443
40
0.325318937353443
40
0.355986258382835
40
0.355986258382835
40
0.386653579412225
40
0.386653579412225
40
0.447988221471008
40
0.447988221471008
40
0.4786555425004
40
0.493989203015095
40
0.493989203015095
40
0.509322863529789
40
0.509322863529789
40
0.570657505588566
40
0.570657505588566
40
0.631992147647343
40
0.631992147647343
40
0.69332678970612
40
0.69332678970612
40
0.754661431764896
40
0.754661431764896
40
0.815996073823673
40
0.815996073823673
40
0.84666339485306
40
0.84666339485306
40
0.877330715882447
40
0.877330715882447
40
0.938665357941224
40
0.938665357941224
40
0.953999018455918
40
0.953999018455918
40
0.969332678970612
40
1
40
1
40
1
40
1
41
1
10
155.326603918642
20
7.96262411508599
30
0
41
1
10
155.456133074157
20
7.96286094256425
30
0
41
1
10
155.585781454697
20
7.96204992667225
30
0
41
1
10
155.822286374555
20
7.95865036010608
30
0
41
1
10
155.929100793855
20
7.95640292157333
30
0
41
1
10
156.14292206366
20
7.95047358591495
30
0
41
1
10
156.249971829149
20
7.94678898477804
30
0
41
1
10
156.570639877412
20
7.93361020467793
30
0
41
1
10
156.784032099748
20
7.92198990128495
30
0
41
1
10
157.423251853317
20
7.87876117531044
30
0
41
1
10
157.848069561908
20
7.83877846343538
30
0
41
1
10
158.695792127502
20
7.73704798179406
30
0
41
1
10
159.118698071239
20
7.67529802308209
30
0
41
1
10
159.752236549324
20
7.56673780225452
30
0
41
1
10
159.963285667412
20
7.5278970819478
30
0
41
1
10
160.385322899567
20
7.44503958415817
30
0
41
1
10
160.596298597614
20
7.40101694572297
30
0
41
1
10
161.22918982475
20
7.26124079691371
30
0
41
1
10
161.651079409525
20
7.15778608711585
30
0
41
1
10
162.28442926237
20
6.98757190464261
30
0
41
1
10
162.495630006638
20
6.92832640583089
30
0
41
1
10
162.918305314926
20
6.80488598079836
30
0
41
1
10
163.12977134269
20
6.74068194089745
30
0
41
1
10
163.764872818125
20
6.54087833870716
30
0
41
1
10
164.189200882153
20
6.39808836154683
30
0
41
1
10
164.8275692852
20
6.16981499665781
30
0
41
1
10
165.147228828196
20
6.05216111907473
30
0
41
1
10
165.467717226066
20
5.9293027281922
30
0
41
1
10
165.681573157598
20
5.84624782959915
30
0
41
1
10
165.788506480726
20
5.80418086100158
30
0
41
1
10
166.322413988436
20
5.59152088285521
30
0
41
1
10
166.747900111806
20
5.41363205810961
30
0
41
1
10
167.596886178051
20
5.0442648892178
30
0
41
1
10
168.020297444603
20
4.8526718267594
30
0
41
1
10
168.865721366219
20
4.45687064900571
30
0
41
1
10
169.287726451318
20
4.25265040750315
30
0
41
1
10
170.131159611822
20
3.83285050502138
30
0
41
1
10
170.55273182187
20
3.61749170360338
30
0
41
1
10
171.396328088782
20
3.17703098874924
30
0
41
1
10
171.818337572371
20
2.95190552879586
30
0
41
1
10
172.452243397228
20
2.60775482789651
30
0
41
1
10
172.663691965978
20
2.49195718063476
30
0
41
1
10
173.08699399955
20
2.25837108090448
30
0
41
1
10
173.298845504324
20
2.14057860692901
30
0
41
1
10
173.935318920298
20
1.7847272403981
30
0
41
1
10
174.360803909616
20
1.5441020100815
30
0
41
1
10
174.894561720617
20
1.23974577956071
30
0
41
1
10
175.001441036295
20
1.17867904840512
30
0
41
1
10
175.215253326177
20
1.05629790350807
30
0
41
1
10
175.535923556602
20
0.872430797352052
30
0
41
1
10
175.856499903652
20
0.687764599219548
30
0
41
1
10
176.070229463603
20
0.564390693945256
30
0
0
SPLINE
5
10A
100
AcDbEntity
8
1
62
256
6
ByLayer
370
18
48
1
60
0
100
AcDbSpline
70
4
71
3
72
42
73
38
40
0
40
0
40
0
40
0
40
0.0617131584047605
40
0.0617131584047605
40
0.123426316809521
40
0.123426316809521
40
0.246852633619039
40
0.246852633619039
40
0.308565792023796
40
0.308565792023796
40
0.370278950428554
40
0.370278950428554
40
0.385707240029743
40
0.385707240029743
40
0.401135529630932
40
0.401135529630932
40
0.431992108833311
40
0.431992108833311
40
0.493705267238072
40
0.493705267238072
40
0.555418425642832
40
0.555418425642832
40
0.617131584047593
40
0.617131584047593
40
0.740557900857116
40
0.740557900857116
40
0.802271059261877
40
0.802271059261877
40
0.833127638464257
40
0.833127638464257
40
0.848555928065447
40
0.848555928065447
40
0.863984217666637
40
0.863984217666637
40
0.987410534476158
40
0.987410534476158
40
1
40
1
40
1
40
1
41
1
10
99.0002384424222
20
5.77705411829771
30
0
41
1
10
98.5795671995878
20
5.93848788475614
30
0
41
1
10
98.1599563551062
20
6.09149776494124
30
0
41
1
10
97.3219136649175
20
6.37980619101842
30
0
41
1
10
96.9034979400361
20
6.51512564056566
30
0
41
1
10
95.6488659165273
20
6.89353497078301
30
0
41
1
10
94.8133492326789
20
7.10913590766421
30
0
41
1
10
93.5562408355365
20
7.37302452007376
30
0
41
1
10
93.1365787371272
20
7.45108247447772
30
0
41
1
10
92.2951853516476
20
7.5866833416874
30
0
41
1
10
91.8734835202133
20
7.64423875764371
30
0
41
1
10
91.3444957661059
20
7.70288643570231
30
0
41
1
10
91.2386050842631
20
7.71395126156304
30
0
41
1
10
91.026623656303
20
7.73474022499136
30
0
41
1
10
90.9205510893975
20
7.74446149493559
30
0
41
1
10
90.6028106224928
20
7.77153724878889
30
0
41
1
10
90.3913579507936
20
7.78683056410691
30
0
41
1
10
89.7579673515664
20
7.82448924516103
30
0
41
1
10
89.3369831721009
20
7.83863255336797
30
0
41
1
10
88.4967956751734
20
7.84525087629424
30
0
41
1
10
88.0775835665868
20
7.8377206167925
30
0
41
1
10
87.239991114995
20
7.80125101644958
30
0
41
1
10
86.8216265976972
20
7.77231298268862
30
0
41
1
10
85.5666344026265
20
7.65378794683531
30
0
41
1
10
84.7301940855361
20
7.53244011804134
30
0
41
1
10
83.4706679158265
20
7.28869796765272
30
0
41
1
10
83.0500271925046
20
7.19716205422611
30
0
41
1
10
82.4172498622003
20
7.04463913012046
30
0
41
1
10
82.2060243691556
20
6.99125923044772
30
0
41
1
10
81.8886593796244
20
6.90740502569645
30
0
41
1
10
81.7827825704613
20
6.87882344782648
30
0
41
1
10
81.5708342360683
20
6.82040863282532
30
0
41
1
10
81.4646965291177
20
6.79055598931814
30
0
41
1
10
80.5104070519496
20
6.51682413606997
30
0
41
1
10
79.6682256950141
20
6.23747901657021
30
0
41
1
10
78.743257815115
20
5.89487990446912
30
0
41
1
10
78.6576733470557
20
5.86284085946596
30
0
41
1
10
78.5721144626325
20
5.83047871150293
30
0
0
SPLINE
5
10B
100
AcDbEntity
8
1
62
256
6
ByLayer
370
18
48
1
60
0
100
AcDbSpline
70
4
71
3
72
49
73
45
40
0
40
0
40
0
40
0
40
0.0626171771330084
40
0.0626171771330084
40
0.0743344624188459
40
0.0743344624188459
40
0.0860517477046835
40
0.0860517477046835
40
0.10948631827636
40
0.10948631827636
40
0.15635545941971
40
0.15635545941971
40
0.250093741706411
40
0.250093741706411
40
0.296962882849762
40
0.296962882849762
40
0.343832023993112
40
0.343832023993112
40
0.390701165136462
40
0.390701165136462
40
0.414135735708137
40
0.414135735708137
40
0.437570306279813
40
0.437570306279813
40
0.484439447423163
40
0.484439447423163
40
0.531308588566513
40
0.531308588566513
40
0.625046870853213
40
0.625046870853213
40
0.718785153139912
40
0.718785153139912
40
0.765654294283262
40
0.765654294283262
40
0.789088864854936
40
0.789088864854936
40
0.800806150140774
40
0.800806150140774
40
0.812523435426612
40
0.859392576569959
40
0.859392576569959
40
0.906261717713306
40
0.906261717713306
40
1
40
1
40
1
40
1
41
1
10
45.1803483152382
20
-7.76435695443809
30
0
41
1
10
44.6177610132658
20
-7.76334837396158
30
0
41
1
10
44.0535989217481
20
-7.74311155412829
30
0
41
1
10
43.380747762389
20
-7.69590598371704
30
0
41
1
10
43.2745955564616
20
-7.68778134431747
30
0
41
1
10
43.0620951201272
20
-7.67016098457907
30
0
41
1
10
42.955722917808
20
-7.66066210824386
30
0
41
1
10
42.6370812606187
20
-7.63018452487174
30
0
41
1
10
42.4250310894469
20
-7.60720549043018
30
0
41
1
10
41.7898639357875
20
-7.53041811445192
30
0
41
1
10
41.3677510512527
20
-7.4687476970667
30
0
41
1
10
40.1039736773397
20
-7.25345784454163
30
0
41
1
10
39.2648587270191
20
-7.0695921484554
30
0
41
1
10
38.006634713595
20
-6.73741791679078
30
0
41
1
10
37.587292669595
20
-6.6172997257448
30
0
41
1
10
36.74784941158
20
-6.35908274619862
30
0
41
1
10
36.3277629077581
20
-6.22097170638358
30
0
41
1
10
35.4860628187585
20
-5.92746922158051
30
0
41
1
10
35.0644621601049
20
-5.77206244324987
30
0
41
1
10
34.4303076660422
20
-5.52653782453959
30
0
41
1
10
34.2186238549044
20
-5.44263592325785
30
0
41
1
10
33.7945487931157
20
-5.27081638549038
30
0
41
1
10
33.5821071842681
20
-5.1828781953644
30
0
41
1
10
32.9438738120131
20
-4.91331551636912
30
0
41
1
10
32.51994981496
20
-4.72712391895027
30
0
41
1
10
31.6744007639996
20
-4.3431832331332
30
0
41
1
10
31.2528016880885
20
-4.14539282522423
30
0
41
1
10
29.9901053311301
20
-3.53695299560184
30
0
41
1
10
29.1511069072151
20
-3.11124849781251
30
0
41
1
10
27.4725384994546
20
-2.2302175255623
30
0
41
1
10
26.6328630728372
20
-1.77506432434913
30
0
41
1
10
25.3678405912171
20
-1.07883398830745
30
0
41
1
10
24.9452701472433
20
-0.844467208936209
30
0
41
1
10
24.3094280675586
20
-0.490586325421844
30
0
41
1
10
24.0971435323881
20
-0.372249201818306
30
0
41
1
10
23.7781284354789
20
-0.19432186526592
30
0
41
1
10
23.6716516786005
20
-0.134920005361181
30
0
41
1
10
23.458881218541
20
-0.016217850641425
30
0
41
1
10
22.9272215972517
20
0.280393422565538
30
0
41
1
10
22.3967281525852
20
0.575988845484943
30
0
41
1
10
21.5486162983272
20
1.04619429608871
30
0
41
1
10
21.1249249617135
20
1.27996898798324
30
0
41
1
10
19.8534889141493
20
1.97472231151153
30
0
41
1
10
19.0053955747696
20
2.42916089856712
30
0
41
1
10
18.1536984614999
20
2.8693043292198
30
0
0
SPLINE
5
10C
100
AcDbEntity
8
1
62
256
6
ByLayer
370
18
48
1
60
0
100
AcDbSpline
70
4
71
3
72
62
73
58
40
0
40
0
40
0
40
0
40
0.0180147721200012
40
0.0180147721200012
40
0.0360295442400024
40
0.0720590884800029
40
0.0720590884800029
40
0.144118176960004
40
0.144118176960004
40
0.162132949080003
40
0.162132949080003
40
0.180147721200002
40
0.180147721200002
40
0.216177265440003
40
0.216177265440003
40
0.288236353920006
40
0.288236353920006
40
0.306251126040007
40
0.306251126040007
40
0.315258512100007
40
0.315258512100007
40
0.324265898160006
40
0.360295442400001
40
0.360295442400001
40
0.432354530879991
40
0.432354530879991
40
0.450369302999988
40
0.450369302999988
40
0.468384075119984
40
0.468384075119984
40
0.504413619359977
40
0.504413619359977
40
0.576472707839961
40
0.576472707839961
40
0.585480093899959
40
0.585480093899959
40
0.594487479959957
40
0.594487479959957
40
0.612502252079951
40
0.64853179631994
40
0.64853179631994
40
0.720590884799918
40
0.720590884799918
40
0.738605656919913
40
0.738605656919913
40
0.756620429039907
40
0.792649973279895
40
0.792649973279895
40
0.86470906175987
40
0.86470906175987
40
0.873716447819868
40
0.873716447819868
40
0.882723833879865
40
0.900738605999861
40
0.936768150239852
40
0.936768150239852
40
1
40
1
40
1
40
1
41
1
10
99.0002384424106
20
5.86156111553115
30
0
41
1
10
99.2018328209457
20
5.78571201691602
30
0
41
1
10
99.4034904612427
20
5.70796610405239
30
0
41
1
10
99.8066380906581
20
5.54894626149246
30
0
41
1
10
100.410767707508
20
5.30526154377958
30
0
41
1
10
101.013562729988
20
5.04673858360746
30
0
41
1
10
102.218504474089
20
4.51153435588807
30
0
41
1
10
103.020900407602
20
4.13047331203413
30
0
41
1
10
104.026422995302
20
3.62908331578043
30
0
41
1
10
104.227654833568
20
3.52755362640289
30
0
41
1
10
104.63046674062
20
3.32212638455167
30
0
41
1
10
104.832137527553
20
3.21818070545461
30
0
41
1
10
105.436376673506
20
2.90374737129838
30
0
41
1
10
105.838564741591
20
2.69046155223771
30
0
41
1
10
107.044307993038
20
2.04147610723015
30
0
41
1
10
107.847054455079
20
1.59666648743527
30
0
41
1
10
108.852898859885
20
1.03189612271703
30
0
41
1
10
109.054185642336
20
0.918499586814278
30
0
41
1
10
109.35636007881
20
0.747856090895226
30
0
41
1
10
109.457149537374
20
0.690869983537226
30
0
41
1
10
109.658599836021
20
0.576860376111597
30
0
41
1
10
110.162008752846
20
0.291684170859327
30
0
41
1
10
110.664478588886
20
0.0060032287836691
30
0
41
1
10
111.869742215674
20
-0.67858983942952
30
0
41
1
10
112.672350987726
20
-1.13362348564968
30
0
41
1
10
113.678178645336
20
-1.69420115126781
30
0
41
1
10
113.879474006448
20
-1.80590335962452
30
0
41
1
10
114.28242192066
20
-2.02830931412492
30
0
41
1
10
114.483741713001
20
-2.13882727332197
30
0
41
1
10
115.087256254853
20
-2.46804396545073
30
0
41
1
10
115.489054888651
20
-2.6844387541058
30
0
41
1
10
116.693895516167
20
-3.32262400257699
30
0
41
1
10
117.496390196025
20
-3.73340038287907
30
0
41
1
10
118.401703583452
20
-4.17360256702057
30
0
41
1
10
118.502328647744
20
-4.2222096692295
30
0
41
1
10
118.703659870668
20
-4.31879636999517
30
0
41
1
10
118.804392278448
20
-4.36678825794993
30
0
41
1
10
119.106406671546
20
-4.50964209442969
30
0
41
1
10
119.709913476057
20
-4.79096539994887
30
0
41
1
10
120.312284660356
20
-5.05857010241925
30
0
41
1
10
121.516660420968
20
-5.57399600569238
30
0
41
1
10
122.319111505124
20
-5.89121444512733
30
0
41
1
10
123.325135507733
20
-6.25013747855982
30
0
41
1
10
123.526588083532
20
-6.3200719586591
30
0
41
1
10
123.929006612709
20
-6.45576363583081
30
0
41
1
10
124.532144349633
20
-6.65312683380154
30
0
41
1
10
125.134243616096
20
-6.83159848015725
30
0
41
1
10
126.338210588906
20
-7.16239187195953
30
0
41
1
10
127.140575504029
20
-7.34804062605025
30
0
41
1
10
128.046135116213
20
-7.51499727686655
30
0
41
1
10
128.146819405886
20
-7.53297015851891
30
0
41
1
10
128.348065087579
20
-7.56770556740989
30
0
41
1
10
128.649802342643
20
-7.61800388631198
30
0
41
1
10
129.353060474088
20
-7.7226972959929
30
0
41
1
10
129.954910523478
20
-7.79059318358398
30
0
41
1
10
131.060194853101
20
-7.88826004114645
30
0
41
1
10
131.764181817876
20
-7.9202416121081
30
0
41
1
10
132.470104500712
20
-7.92148172331926
30
0
0
SPLINE
5
10D
100
AcDbEntity
8
1
62
256
6
ByLayer
370
18
48
1
60
0
100
AcDbSpline
70
4
71
3
72
23
73
19
40
0
40
0
40
0
40
0
40
0.0118576809156084
40
0.0118576809156084
40
0.0699836996852797
40
0.0699836996852797
40
0.30248777476396
40
0.30248777476396
40
0.53499184984264
40
0.53499184984264
40
0.76749592492132
40
0.76749592492132
40
0.883747962460663
40
0.883747962460663
40
0.912810971845498
40
0.912810971845498
40
0.941873981230335
40
1
40
1
40
1
40
1
41
1
10
165.679414051048
20
5.85091938953846
30
0
41
1
10
165.720360669047
20
5.86699332384549
30
0
41
1
10
165.761294021002
20
5.88298606537006
30
0
41
1
10
166.002764786379
20
5.97687681135344
30
0
41
1
10
166.202981645461
20
6.05288903524286
30
0
41
1
10
167.202600023109
20
6.4229203910063
30
0
41
1
10
167.997615681468
20
6.6868375349417
30
0
41
1
10
169.584143044847
20
7.14605993629922
30
0
41
1
10
170.375656147554
20
7.34136163965979
30
0
41
1
10
171.960949025707
20
7.65910733163321
30
0
41
1
10
172.754704096912
20
7.78157492758183
30
0
41
1
10
173.951268489021
20
7.90750164728001
30
0
41
1
10
174.351119324901
20
7.93984340041982
30
0
41
1
10
174.852665083537
20
7.96788427977305
30
0
41
1
10
174.953087631969
20
7.97287398834567
30
0
41
1
10
175.153857342903
20
7.9815961673211
30
0
41
1
10
175.454975688057
20
7.99279888490773
30
0
41
1
10
175.756040659179
20
7.99835688183381
30
0
41
1
10
175.95677320435
20
7.99955090053925
30
0
0
SPLINE
5
10E
100
AcDbEntity
8
1
62
256
6
ByLayer
370
18
48
1
60
0
100
AcDbSpline
70
4
71
3
72
65
73
61
40
0
40
0
40
0
40
0
40
0.0227928021887799
40
0.0227928021887799
40
0.0494822438390047
40
0.0494822438390047
40
0.0761716854892299
40
0.0761716854892299
40
0.102861127139455
40
0.102861127139455
40
0.129550568789679
40
0.129550568789679
40
0.182929452090133
40
0.182929452090133
40
0.209618893740359
40
0.209618893740359
40
0.236308335390585
40
0.236308335390585
40
0.262997777040812
40
0.262997777040812
40
0.276342497865925
40
0.276342497865925
40
0.289687218691037
40
0.289687218691037
40
0.316376660341264
40
0.316376660341264
40
0.34306610199149
40
0.34306610199149
40
0.396444985291946
40
0.423134426942172
40
0.423134426942172
40
0.449823868592398
40
0.449823868592398
40
0.503202751892851
40
0.503202751892851
40
0.529892193543078
40
0.529892193543078
40
0.556581635193305
40
0.556581635193305
40
0.609960518493757
40
0.609960518493757
40
0.66333940179421
40
0.66333940179421
40
0.676684122619324
40
0.676684122619324
40
0.690028843444438
40
0.690028843444438
40
0.716718285094666
40
0.716718285094666
40
0.770097168395121
40
0.770097168395121
40
0.823476051695576
40
0.823476051695576
40
0.876854934996032
40
0.876854934996032
40
0.930233818296488
40
0.930233818296488
40
0.983612701596943
40
0.983612701596943
40
1
40
1
40
1
40
1
41
1
10
132.095251262954
20
-0.312550027109637
30
0
41
1
10
131.924903009395
20
-0.218973302317721
30
0
41
1
10
131.754649063321
20
-0.125342557768875
30
0
41
1
10
131.385113937299
20
0.0778218392572398
30
0
41
1
10
131.185847191113
20
0.187339205162232
30
0
41
1
10
130.787288376173
20
0.406018157959096
30
0
41
1
10
130.587998170251
20
0.515182868202089
30
0
41
1
10
130.189390864119
20
0.73314018646758
30
0
41
1
10
129.990074706275
20
0.841934289572492
30
0
41
1
10
129.591451482201
20
1.05918737515358
30
0
41
1
10
129.392139667918
20
1.16763864500686
30
0
41
1
10
128.793725073396
20
1.49166229536715
30
0
41
1
10
128.394155879041
20
1.70592544434467
30
0
41
1
10
127.793719968742
20
2.02434717085435
30
0
41
1
10
127.593394987256
20
2.12999324787802
30
0
41
1
10
127.192400513306
20
2.34028547781384
30
0
41
1
10
126.99172800036
20
2.44492696352978
30
0
41
1
10
126.589731278546
20
2.6527168910068
30
0
41
1
10
126.388409565879
20
2.75586914453922
30
0
41
1
10
126.085917734458
20
2.90942524032312
30
0
41
1
10
125.984950690616
20
2.9604410772632
30
0
41
1
10
125.783108965091
20
3.06193828812189
30
0
41
1
10
125.682267638566
20
3.11240316326698
30
0
41
1
10
125.379988102883
20
3.26293291154539
30
0
41
1
10
125.178795610118
20
3.36213235649865
30
0
41
1
10
124.777134911502
20
3.55808393149567
30
0
41
1
10
124.576656508345
20
3.6548358769943
30
0
41
1
10
123.975621861941
20
3.94120497634089
30
0
41
1
10
123.375440746913
20
4.21980115032957
30
0
41
1
10
122.776649815494
20
4.48572639808077
30
0
41
1
10
122.377752058507
20
4.66001453199422
30
0
41
1
10
122.178444614955
20
4.74566462650733
30
0
41
1
10
121.580463094965
20
4.99811657772125
30
0
41
1
10
121.181754839841
20
5.16040892692089
30
0
41
1
10
120.583633702445
20
5.39390835945875
30
0
41
1
10
120.384249410958
20
5.47008474685717
30
0
41
1
10
119.985400156069
20
5.61893558031295
30
0
41
1
10
119.785930643985
20
5.6916157334345
30
0
41
1
10
119.186977306824
20
5.90459769348601
30
0
41
1
10
118.78697086394
20
6.03981548391167
30
0
41
1
10
117.985555823808
20
6.29482219761795
30
0
41
1
10
117.58413505782
20
6.4146384240473
30
0
41
1
10
117.080770603947
20
6.55468209283666
30
0
41
1
10
116.98001886511
20
6.58220270900546
30
0
41
1
10
116.778350495991
20
6.63624255912845
30
0
41
1
10
116.67739277387
20
6.66277232913038
30
0
41
1
10
116.374545527347
20
6.74074852585497
30
0
41
1
10
116.17299249578
20
6.7905027111216
30
0
41
1
10
115.569342762334
20
6.93289647466131
30
0
41
1
10
115.168226015692
20
7.01871418480386
30
0
41
1
10
114.36737890545
20
7.17273679890383
30
0
41
1
10
113.967684193468
20
7.24087836229057
30
0
41
1
10
113.169626628755
20
7.35823520506878
30
0
41
1
10
112.771226060202
20
7.40753054404232
30
0
41
1
10
111.974470863723
20
7.48825844745789
30
0
41
1
10
111.576151549383
20
7.51961068388064
30
0
41
1
10
110.779448285111
20
7.56298259954502
30
0
41
1
10
110.381033071835
20
7.57508760529404
30
0
41
1
10
109.859498834709
20
7.5790473928223
30
0
41
1
10
109.736940701577
20
7.57911446514436
30
0
41
1
10
109.61432297679
20
7.57829751168177
30
0
0
SPLINE
5
10F
100
AcDbEntity
8
1
62
256
6
ByLayer
370
13
48
1
60
0
100
AcDbSpline
70
4
71
3
72
28
73
24
40
0
40
0
40
0
40
0
40
0.0126553299557723
40
0.0126553299557723
40
0.0909756451841707
40
0.13013580279837
40
0.13013580279837
40
0.169295960412569
40
0.169295960412569
40
0.325936590869365
40
0.325936590869365
40
0.404256906097763
40
0.404256906097763
40
0.482577221326161
40
0.482577221326161
40
0.639217851782957
40
0.639217851782957
40
0.717538167011355
40
0.717538167011355
40
0.795858482239753
40
0.795858482239753
40
0.952499112696548
40
1
40
1
40
1
40
1
41
1
10
99.1006597288977
20
7.55766729833482
30
0
41
1
10
99.1006590056494
20
7.55767273943849
30
0
41
1
10
99.1006582834162
20
7.55761726512208
30
0
41
1
10
99.100653098678
20
7.5567808756492
30
0
41
1
10
99.1006464605216
20
7.55219871985639
30
0
41
1
10
99.1006398967236
20
7.54234173053916
30
0
41
1
10
99.1006355358579
20
7.53459271851168
30
0
41
1
10
99.1006333625322
20
7.5301277547843
30
0
41
1
10
99.1006225550682
20
7.50491095002332
30
0
41
1
10
99.1006140791659
20
7.47546843408588
30
0
41
1
10
99.1006015201814
20
7.41749743998577
30
0
41
1
10
99.1005973594417
20
7.39586935618931
30
0
41
1
10
99.1005890695326
20
7.34798178488273
30
0
41
1
10
99.1005849360219
20
7.32168876315259
30
0
41
1
10
99.1005726029445
20
7.23617572168624
30
0
41
1
10
99.1005644600806
20
7.17028875644539
30
0
41
1
10
99.1005522168237
20
7.05821202798663
30
0
41
1
10
99.1005481307326
20
7.01864233035246
30
0
41
1
10
99.1005399214464
20
6.93505614330772
30
0
41
1
10
99.1005357959829
20
6.89100917966576
30
0
41
1
10
99.1005233852793
20
6.75287612648705
30
0
41
1
10
99.1005125166792
20
6.62220678622165
30
0
41
1
10
99.1005013369335
20
6.47776008666085
30
0
41
1
10
99.1004987151515
20
6.44340011506853
30
0
0
SPLINE
5
110
100
AcDbEntity
8
1
62
256
6
ByLayer
370
18
48
1
60
0
100
AcDbSpline
70
4
71
3
72
61
73
57
40
0
40
0
40
0
40
0
40
0.0238184945380218
40
0.0238184945380218
40
0.0775848262196204
40
0.0775848262196204
40
0.131351157901219
40
0.131351157901219
40
0.185117489582818
40
0.185117489582818
40
0.212000655423618
40
0.212000655423618
40
0.225442238344019
40
0.225442238344019
40
0.238883821264419
40
0.238883821264419
40
0.29265015294602
40
0.29265015294602
40
0.346416484627622
40
0.346416484627622
40
0.373299650468421
40
0.373299650468421
40
0.40018281630922
40
0.40018281630922
40
0.453949147990818
40
0.453949147990818
40
0.480832313831619
40
0.480832313831619
40
0.50771547967242
40
0.50771547967242
40
0.561481811354018
40
0.561481811354018
40
0.588364977194817
40
0.588364977194817
40
0.615248143035616
40
0.628689725956014
40
0.628689725956014
40
0.642131308876413
40
0.642131308876413
40
0.669014474717209
40
0.695897640558006
40
0.695897640558006
40
0.722780806398802
40
0.722780806398802
40
0.776547138080395
40
0.776547138080395
40
0.80343030392119
40
0.830313469761984
40
0.830313469761984
40
0.884079801443577
40
0.884079801443577
40
0.93784613312517
40
0.93784613312517
40
0.991612464806763
40
0.991612464806763
40
1
40
1
40
1
40
1
41
1
10
111.827499858067
20
0.324001783790493
30
0
41
1
10
112.004263811757
20
0.227435990450971
30
0
41
1
10
112.181031012172
20
0.130777384519547
30
0
41
1
10
112.756935091634
20
-0.184181214135208
30
0
41
1
10
113.156220201792
20
-0.40260927994106
30
0
41
1
10
113.955777252989
20
-0.838633656924259
30
0
41
1
10
114.356044792498
20
-1.05623849394081
30
0
41
1
10
115.1582984532
20
-1.48924793585022
30
0
41
1
10
115.560288807351
20
-1.7046445641447
30
0
41
1
10
116.165055405065
20
-2.02517287375329
30
0
41
1
10
116.366940588752
20
-2.13158896340246
30
0
41
1
10
116.670285438101
20
-2.29043678264912
30
0
41
1
10
116.771436612155
20
-2.3432301914178
30
0
41
1
10
116.97347938033
20
-2.44830527246907
30
0
41
1
10
117.074420730058
20
-2.50061302674018
30
0
41
1
10
117.5787582624
20
-2.76095453627661
30
0
41
1
10
117.981051262748
20
-2.96539068324012
30
0
41
1
10
118.783896260589
20
-3.36563321563745
30
0
41
1
10
119.184445539009
20
-3.56144450354648
30
0
41
1
10
119.784532040877
20
-3.84780448220673
30
0
41
1
10
119.984437365271
20
-3.94203048438172
30
0
41
1
10
120.384118279722
20
-4.12791115820147
30
0
41
1
10
120.583895554891
20
-4.21956555943126
30
0
41
1
10
121.183074214527
20
-4.49050903709531
30
0
41
1
10
121.582316703892
20
-4.66578397495786
30
0
41
1
10
122.181448339595
20
-4.9198014054991
30
0
41
1
10
122.381203306258
20
-5.00298964108239
30
0
41
1
10
122.78091926749
20
-5.16630339162629
30
0
41
1
10
122.980881605134
20
-5.24642949578865
30
0
41
1
10
123.581131542317
20
-5.48201039848317
30
0
41
1
10
123.981776837381
20
-5.63267209652548
30
0
41
1
10
124.584046113896
20
-5.84822176083989
30
0
41
1
10
124.785019552452
20
-5.91832876901535
30
0
41
1
10
125.187514835872
20
-6.05499641764158
30
0
41
1
10
125.489798795984
20
-6.15483942680387
30
0
41
1
10
125.792750187045
20
-6.25049062113797
30
0
41
1
10
125.994878318911
20
-6.31330895424429
30
0
41
1
10
126.095989617069
20
-6.34423272999535
30
0
41
1
10
126.398914354164
20
-6.43535836165302
30
0
41
1
10
126.80214680594
20
-6.55260373352007
30
0
41
1
10
127.204246510292
20
-6.66120364154887
30
0
41
1
10
127.605936254126
20
-6.76555626959117
30
0
41
1
10
127.806575560995
20
-6.81560815033353
30
0
41
1
10
128.407874133943
20
-6.95915028179294
30
0
41
1
10
128.807915931908
20
-7.04603456167396
30
0
41
1
10
129.407334172262
20
-7.16284769924351
30
0
41
1
10
129.806731614547
20
-7.23621646900119
30
0
41
1
10
130.205954989106
20
-7.30073542856923
30
0
41
1
10
130.804708929759
20
-7.39064730740517
30
0
41
1
10
131.203763072896
20
-7.44140879727885
30
0
41
1
10
132.002398623584
20
-7.5243368055161
30
0
41
1
10
132.401995611124
20
-7.55656452431884
30
0
41
1
10
133.20241056871
20
-7.60225062814737
30
0
41
1
10
133.603210079854
20
-7.61561981261369
30
0
41
1
10
134.067627616619
20
-7.61993082473387
30
0
41
1
10
134.130323256008
20
-7.6202805762276
30
0
41
1
10
134.193043643681
20
-7.62039757938877
30
0
0
SPLINE
5
111
100
AcDbEntity
8
1
62
256
6
ByLayer
370
18
48
1
60
0
100
AcDbSpline
70
4
71
3
72
8
73
4
40
0
40
0
40
0
40
0
40
1
40
1
40
1
40
1
41
1
10
176.029900077434
20
-0.526646642701934
30
0
41
1
10
176.008193904485
20
-0.514596865515841
30
0
41
1
10
175.986490405108
20
-0.502547421537713
30
0
41
1
10
175.964789527835
20
-0.49049840467967
30
0
0
SPLINE
5
112
100
AcDbEntity
8
1
62
256
6
ByLayer
370
18
48
1
60
0
100
AcDbSpline
70
4
71
3
72
55
73
51
40
0
40
0
40
0
40
0
40
0.08928378408566
40
0.08928378408566
40
0.142972176176255
40
0.142972176176255
40
0.169816372221553
40
0.169816372221553
40
0.196660568266852
40
0.196660568266852
40
0.25034896035745
40
0.25034896035745
40
0.304037352448047
40
0.304037352448047
40
0.317459450470698
40
0.317459450470698
40
0.330881548493349
40
0.357725744538653
40
0.357725744538653
40
0.411414136629262
40
0.411414136629262
40
0.465102528719871
40
0.465102528719871
40
0.51879092081048
40
0.51879092081048
40
0.572479312901088
40
0.572479312901088
40
0.626167704991697
40
0.626167704991697
40
0.679856097082306
40
0.679856097082306
40
0.706700293127609
40
0.706700293127609
40
0.733544489172911
40
0.733544489172911
40
0.760388685218214
40
0.760388685218214
40
0.773810783240866
40
0.773810783240866
40
0.787232881263518
40
0.787232881263518
40
0.840921273354123
40
0.840921273354123
40
0.894609665444729
40
0.894609665444729
40
0.921453861490033
40
0.921453861490033
40
0.948298057535336
40
0.948298057535336
40
1
40
1
40
1
40
1
41
1
10
175.623813080993
20
-0.301110308746189
30
0
41
1
10
174.956311342707
20
0.0697363406318914
30
0
41
1
10
174.291040608765
20
0.439711131797992
30
0
41
1
10
173.226892655394
20
1.02637184304262
30
0
41
1
10
172.82754100548
20
1.24535226053226
30
0
41
1
10
172.228543977277
20
1.57109819139023
30
0
41
1
10
172.028883098329
20
1.67922657625516
30
0
41
1
10
171.629514687037
20
1.89443964157502
30
0
41
1
10
171.429814607218
20
2.00152953610785
30
0
41
1
10
170.830417726639
20
2.32091583633198
30
0
41
1
10
170.430374871383
20
2.53128952359708
30
0
41
1
10
169.628905658853
20
2.94582975599161
30
0
41
1
10
169.227506821642
20
3.15001436991474
30
0
41
1
10
168.724362034795
20
3.40053272324175
30
0
41
1
10
168.623612441189
20
3.4504246826599
30
0
41
1
10
168.422225199462
20
3.54958443506857
30
0
41
1
10
168.120387906044
20
3.69735307200909
30
0
41
1
10
167.819255700332
20
3.8421412614837
30
0
41
1
10
167.217862582661
20
4.12756734244545
30
0
41
1
10
166.818116177911
20
4.31231413364313
30
0
41
1
10
166.020240925761
20
4.66988793592935
30
0
41
1
10
165.622081255607
20
4.84273816973914
30
0
41
1
10
164.827052269494
20
5.17526906223665
30
0
41
1
10
164.430259243407
20
5.33487697109462
30
0
41
1
10
163.636633713351
20
5.64069569629322
30
0
41
1
10
163.239721808908
20
5.7869668730776
30
0
41
1
10
162.445255520094
20
6.06522682290165
30
0
41
1
10
162.047713483851
20
6.19720527790037
30
0
41
1
10
161.251640849536
20
6.44578543487836
30
0
41
1
10
160.853115446978
20
6.56242779257644
30
0
41
1
10
160.254254106194
20
6.72462904118103
30
0
41
1
10
160.054468329201
20
6.77653098522859
30
0
41
1
10
159.654361487953
20
6.87614670071821
30
0
41
1
10
159.454023328828
20
6.92389196910096
30
0
41
1
10
159.052641674505
20
7.0153412563258
30
0
41
1
10
158.851598103707
20
7.0590622322575
30
0
41
1
10
158.549464920393
20
7.12147239958946
30
0
41
1
10
158.448618671629
20
7.14175210088914
30
0
41
1
10
158.247192631956
20
7.18112436476386
30
0
41
1
10
158.14656488415
20
7.20022727675294
30
0
41
1
10
157.643867464582
20
7.29275847913891
30
0
41
1
10
157.243215025677
20
7.35708356355303
30
0
41
1
10
156.443534577425
20
7.46757800000475
30
0
41
1
10
156.044396267995
20
7.51395089876064
30
0
41
1
10
155.447080536452
20
7.56836623999976
30
0
41
1
10
155.248245565498
20
7.58390047586812
30
0
41
1
10
154.850779394519
20
7.61030040939389
30
0
41
1
10
154.652108115036
20
7.62124646271891
30
0
41
1
10
154.070833037675
20
7.64678031714865
30
0
41
1
10
153.688286903354
20
7.65536265033893
30
0
41
1
10
153.305842155727
20
7.65473421018268
30
0
0
SPLINE
5
113
100
AcDbEntity
8
1
62
256
6
ByLayer
370
13
48
1
60
0
100
AcDbSpline
70
4
71
3
72
32
73
28
40
0
40
0
40
0
40
0
40
0.0575410517911792
40
0.0575410517911792
40
0.117045675732698
40
0.146797987703458
40
0.146797987703458
40
0.176550299674217
40
0.176550299674217
40
0.295559547557255
40
0.295559547557255
40
0.414568795440294
40
0.533578043323332
40
0.533578043323332
40
0.593082667264851
40
0.62283497923561
40
0.62283497923561
40
0.65258729120637
40
0.65258729120637
40
0.771596539089407
40
0.771596539089407
40
0.831101163030926
40
0.860853475001685
40
0.860853475001685
40
0.890605786972444
40
0.890605786972444
40
1
40
1
40
1
40
1
41
1
10
99.1008912825813
20
-5.67070735032615
30
0
41
1
10
99.1008876873372
20
-5.74009364479409
30
0
41
1
10
99.1008839661645
20
-5.80778169583186
30
0
41
1
10
99.1008761688205
20
-5.942030594317
30
0
41
1
10
99.1008700423442
20
-6.04169211337222
30
0
41
1
10
99.1008636752195
20
-6.13726917747536
30
0
41
1
10
99.1008593800314
20
-6.20007573168039
30
0
41
1
10
99.1008572055537
20
-6.23104649093824
30
0
41
1
10
99.1008462347702
20
-6.38333110755875
30
0
41
1
10
99.1008371781928
20
-6.49652022157107
30
0
41
1
10
99.1008187040081
20
-6.70615687559504
30
0
41
1
10
99.1007998681656
20
-6.89904941286358
30
0
41
1
10
99.1007806136174
20
-7.05876121375397
30
0
41
1
10
99.1007661000106
20
-7.16594426471875
30
0
41
1
10
99.1007588246215
20
-7.21638130521561
30
0
41
1
10
99.1007515332897
20
-7.26201659148299
30
0
41
1
10
99.1007466699143
20
-7.29136230359706
30
0
41
1
10
99.1007442349276
20
-7.30550736452275
30
0
41
1
10
99.1007320956932
20
-7.37329454217198
30
0
41
1
10
99.1007224821279
20
-7.41826264428275
30
0
41
1
10
99.1007082339333
20
-7.47194759536762
30
0
41
1
10
99.1007011524169
20
-7.49534343962785
30
0
41
1
10
99.1006941354492
20
-7.51354930410707
30
0
41
1
10
99.1006894716075
20
-7.52452795696866
30
0
41
1
10
99.100687145347
20
-7.52944055793105
30
0
41
1
10
99.1006763177336
20
-7.54965821230127
30
0
41
1
10
99.1006679576177
20
-7.55760538894086
30
0
41
1
10
99.1006597289031
20
-7.55766729829341
30
0
0
SPLINE
5
114
100
AcDbEntity
8
1
62
256
6
ByLayer
370
18
48
1
60
0
100
AcDbSpline
70
4
71
3
72
46
73
42
40
0
40
0
40
0
40
0
40
0.0119725856039623
40
0.0119725856039623
40
0.070091845274309
40
0.070091845274309
40
0.128211104944655
40
0.128211104944655
40
0.186330364615002
40
0.186330364615002
40
0.302568883955698
40
0.302568883955698
40
0.360688143626047
40
0.389747773461223
40
0.389747773461223
40
0.404277588378813
40
0.404277588378813
40
0.418807403296403
40
0.418807403296403
40
0.476926662966762
40
0.476926662966762
40
0.53504592263712
40
0.53504592263712
40
0.593165182307479
40
0.593165182307479
40
0.651284441977838
40
0.651284441977838
40
0.767522961318553
40
0.767522961318553
40
0.796582591153732
40
0.796582591153732
40
0.825642220988911
40
0.825642220988911
40
0.883761480659273
40
0.883761480659273
40
0.898291295576864
40
0.898291295576864
40
0.912821110494454
40
0.941880740329635
40
0.941880740329635
40
1
40
1
40
1
40
1
41
1
10
155.43864612288
20
0.293621526750854
30
0
41
1
10
155.521111431764
20
0.24810060203248
30
0
41
1
10
155.603535497214
20
0.202582733094943
30
0
41
1
10
156.085851503991
20
-0.0638475982836155
30
0
41
1
10
156.484889602446
20
-0.284555609153841
30
0
41
1
10
157.281913633891
20
-0.724171815506708
30
0
41
1
10
157.679888937464
20
-0.943103614790658
30
0
41
1
10
158.4753664354
20
-1.37813251657462
30
0
41
1
10
158.87288143727
20
-1.59420894136451
30
0
41
1
10
160.065932295765
20
-2.23599477217189
30
0
41
1
10
160.861980341283
20
-2.65522736113132
30
0
41
1
10
162.060877040523
20
-3.26425877079208
30
0
41
1
10
162.661536888618
20
-3.5638077733629
30
0
41
1
10
163.264838813536
20
-3.85441596694727
30
0
41
1
10
163.567001265621
20
-3.99810020246795
30
0
41
1
10
163.667816078321
20
-4.04572912367175
30
0
41
1
10
163.869592405942
20
-4.14040846108583
30
0
41
1
10
163.970388004398
20
-4.18738075905091
30
0
41
1
10
164.473932133957
20
-4.42037592399043
30
0
41
1
10
164.875380207788
20
-4.60080520662305
30
0
41
1
10
165.67621796284
20
-4.94900819772272
30
0
41
1
10
166.075608894408
20
-5.11676297158388
30
0
41
1
10
166.87305103708
20
-5.4386501026552
30
0
41
1
10
167.271107138461
20
-5.59279851486531
30
0
41
1
10
168.066612620953
20
-5.88677327856055
30
0
41
1
10
168.464054458624
20
-6.02659359447119
30
0
41
1
10
169.656366468826
20
-6.42334828586306
30
0
41
1
10
170.451224522929
20
-6.65768172775679
30
0
41
1
10
171.448226444547
20
-6.90893071709706
30
0
41
1
10
171.647803946645
20
-6.9571025226461
30
0
41
1
10
172.047424218019
20
-7.04924035737477
30
0
41
1
10
172.247461775612
20
-7.0932000830839
30
0
41
1
10
172.84834093744
20
-7.21856375824171
30
0
41
1
10
173.249959583377
20
-7.29345950904477
30
0
41
1
10
173.753739154619
20
-7.37568384083551
30
0
41
1
10
173.854611569125
20
-7.39156304183936
30
0
41
1
10
174.056253462896
20
-7.42212719964024
30
0
41
1
10
174.358649141621
20
-7.46619728877087
30
0
41
1
10
174.660891820303
20
-7.504919262013
30
0
41
1
10
175.265298650198
20
-7.57517755678018
30
0
41
1
10
175.66813296602
20
-7.61243639449862
30
0
41
1
10
176.07118341788
20
-7.63995883606057
30
0
0
SPLINE
5
115
100
AcDbEntity
8
1
62
256
6
ByLayer
370
18
48
1
60
0
100
AcDbSpline
70
4
71
3
72
55
73
51
40
0
40
0
40
0
40
0
40
0.0625000000000001
40
0.0625000000000001
40
0.0937500000000005
40
0.109375000000001
40
0.109375000000001
40
0.125000000000001
40
0.125000000000001
40
0.187500000000001
40
0.187500000000001
40
0.250000000000001
40
0.312500000000002
40
0.312500000000002
40
0.343750000000002
40
0.343750000000002
40
0.359375000000002
40
0.359375000000002
40
0.375000000000002
40
0.375000000000002
40
0.437500000000002
40
0.437500000000002
40
0.468750000000002
40
0.468750000000002
40
0.484375000000002
40
0.484375000000002
40
0.500000000000002
40
0.562500000000001
40
0.562500000000001
40
0.593750000000001
40
0.593750000000001
40
0.625000000000001
40
0.625000000000001
40
0.687500000000001
40
0.687500000000001
40
0.703125000000001
40
0.703125000000001
40
0.718750000000001
40
0.718750000000001
40
0.750000000000001
40
0.750000000000001
40
0.812500000000001
40
0.812500000000001
40
0.843750000000001
40
0.843750000000001
40
0.875
40
0.875
40
0.9375
40
0.9375
40
1
40
1
40
1
40
1
41
1
10
176.029900077447
20
-0.526646642703042
30
0
41
1
10
176.003235132304
20
-0.747362532255153
30
0
41
1
10
175.979864682183
20
-0.966979092894974
30
0
41
1
10
175.948965798781
20
-1.2946833930626
30
0
41
1
10
175.934557549444
20
-1.45810492621411
30
0
41
1
10
175.921580565689
20
-1.62086254020113
30
0
41
1
10
175.913233853117
20
-1.72921774051306
30
0
41
1
10
175.909210581951
20
-1.78335376149911
30
0
41
1
10
175.889889955861
20
-2.05268450619343
30
0
41
1
10
175.876914705038
20
-2.26451637245444
30
0
41
1
10
175.854909533191
20
-2.68106899873175
30
0
41
1
10
175.836851860526
20
-3.09050964646298
30
0
41
1
10
175.825106332567
20
-3.48573331728161
30
0
41
1
10
175.818214438111
20
-3.77670962426626
30
0
41
1
10
175.816238120658
20
-3.87279363453919
30
0
41
1
10
175.813711699017
20
-4.01553241160397
30
0
41
1
10
175.812942247098
20
-4.0629087515878
30
0
41
1
10
175.811545229809
20
-4.15706704913455
30
0
41
1
10
175.810918542793
20
-4.20378341710233
30
0
41
1
10
175.808125125578
20
-4.4355592118155
30
0
41
1
10
175.806969558082
20
-4.61521059246226
30
0
41
1
10
175.806597253067
20
-4.87606247754275
30
0
41
1
10
175.806701761982
20
-4.96157357064973
30
0
41
1
10
175.807184933425
20
-5.08766628079073
30
0
41
1
10
175.807400644378
20
-5.12934698274262
30
0
41
1
10
175.807938133796
20
-5.2117880222865
30
0
41
1
10
175.809549492216
20
-5.4157025126818
30
0
41
1
10
175.812453513162
20
-5.60875249954475
30
0
41
1
10
175.817203939235
20
-5.82999765421462
30
0
41
1
10
175.819000102235
20
-5.90200780013788
30
0
41
1
10
175.823043417413
20
-6.04252441287127
30
0
41
1
10
175.825283421567
20
-6.11078067627935
30
0
41
1
10
175.83270338723
20
-6.30958042125289
30
0
41
1
10
175.838576520345
20
-6.43417076747116
30
0
41
1
10
175.84732911448
20
-6.57997120386995
30
0
41
1
10
175.849150735466
20
-6.60863354513458
30
0
41
1
10
175.852944725281
20
-6.66495900659982
30
0
41
1
10
175.854918288201
20
-6.69263692716382
30
0
41
1
10
175.86106612667
20
-6.77399567876424
30
0
41
1
10
175.865468977677
20
-6.82603689772989
30
0
41
1
10
175.879698101834
20
-6.97561289192535
30
0
41
1
10
175.890538336775
20
-7.0666119380991
30
0
41
1
10
175.909374720098
20
-7.18999975007736
30
0
41
1
10
175.916095130568
20
-7.2289877238226
30
0
41
1
10
175.930431542306
20
-7.3021784623044
30
0
41
1
10
175.938050839005
20
-7.33641767553294
30
0
41
1
10
175.962407670413
20
-7.43214849648345
30
0
41
1
10
175.980638970426
20
-7.48666527484244
30
0
41
1
10
176.021983126474
20
-7.57722774608251
30
0
41
1
10
176.045094874251
20
-7.61327350485564
30
0
41
1
10
176.071183417879
20
-7.63995883606057
30
0
0
SPLINE
5
116
100
AcDbEntity
8
1
62
256
6
ByLayer
370
18
48
1
60
0
100
AcDbSpline
70
4
71
3
72
123
73
119
40
0
40
0
40
0
40
0
40
0.0625000000000261
40
0.0625000000000261
40
0.125000000000052
40
0.125000000000052
40
0.187500000000078
40
0.187500000000078
40
0.218750000000091
40
0.218750000000091
40
0.250000000000103
40
0.250000000000103
40
0.312500000000129
40
0.312500000000129
40
0.343750000000141
40
0.343750000000141
40
0.345703125000141
40
0.345703125000141
40
0.346679687500141
40
0.346679687500141
40
0.347656250000141
40
0.347656250000141
40
0.348632812500142
40
0.348632812500142
40
0.349609375000142
40
0.349609375000142
40
0.350585937500142
40
0.350585937500142
40
0.351562500000142
40
0.351562500000142
40
0.352539062500142
40
0.352539062500142
40
0.353027343750142
40
0.353027343750142
40
0.353515625000142
40
0.355468750000142
40
0.35937500000014
40
0.35937500000014
40
0.375000000000136
40
0.375000000000136
40
0.382812500000134
40
0.382812500000134
40
0.390625000000132
40
0.390625000000132
40
0.406250000000127
40
0.406250000000127
40
0.437500000000118
40
0.437500000000118
40
0.468750000000109
40
0.468750000000109
40
0.484375000000104
40
0.484375000000104
40
0.492187500000102
40
0.492187500000102
40
0.5000000000001
40
0.5000000000001
40
0.531250000000094
40
0.531250000000094
40
0.54687500000009
40
0.54687500000009
40
0.550781250000089
40
0.550781250000089
40
0.554687500000088
40
0.554687500000088
40
0.562500000000086
40
0.562500000000086
40
0.578125000000081
40
0.578125000000081
40
0.593750000000077
40
0.593750000000077
40
0.601562500000074
40
0.601562500000074
40
0.605468750000073
40
0.605468750000073
40
0.609375000000072
40
0.625000000000067
40
0.640625000000063
40
0.640625000000063
40
0.648437500000061
40
0.648437500000061
40
0.656250000000058
40
0.656250000000058
40
0.671875000000054
40
0.671875000000054
40
0.687500000000049
40
0.687500000000049
40
0.695312500000047
40
0.695312500000047
40
0.699218750000046
40
0.699218750000046
40
0.703125000000045
40
0.718750000000043
40
0.718750000000043
40
0.73437500000004
40
0.73437500000004
40
0.750000000000038
40
0.750000000000038
40
0.765625000000035
40
0.765625000000035
40
0.773437500000034
40
0.773437500000034
40
0.781250000000032
40
0.781250000000032
40
0.812500000000028
40
0.812500000000028
40
0.843750000000023
40
0.843750000000023
40
0.875000000000018
40
0.875000000000018
40
0.906250000000014
40
0.906250000000014
40
0.921875000000012
40
0.921875000000012
40
0.937500000000009
40
0.937500000000009
40
0.968750000000005
40
0.968750000000005
40
1
40
1
40
1
40
1
41
1
10
18.153701767816
20
2.86930171375761
30
0
41
1
10
17.7298799526565
20
3.08858985225064
30
0
41
1
10
17.3032553092939
20
3.29779946578699
30
0
41
1
10
16.4417364145897
20
3.69307873636438
30
0
41
1
10
16.0068209314214
20
3.87911568380358
30
0
41
1
10
15.1263446007345
20
4.22601945574218
30
0
41
1
10
14.6819000340095
20
4.3864314774944
30
0
41
1
10
14.0077541293056
20
4.6068467886133
30
0
41
1
10
13.7817841721279
20
4.67696424894262
30
0
41
1
10
13.3271630597396
20
4.81052330898279
30
0
41
1
10
13.0987987403672
20
4.87388044994157
30
0
41
1
10
12.4104662633901
20
5.05384368677844
30
0
41
1
10
11.9472086727301
20
5.16035355516979
30
0
41
1
10
11.2452181066384
20
5.30093465355782
30
0
41
1
10
11.0102271500168
20
5.34456399794939
30
0
41
1
10
10.7595661837669
20
5.3875839828944
30
0
41
1
10
10.7448178662081
20
5.39010227867453
30
0
41
1
10
10.722690468356
20
5.39386133588695
30
0
41
1
10
10.7153139784829
20
5.39511175698146
30
0
41
1
10
10.7005587465465
20
5.39760468143945
30
0
41
1
10
10.6932010899106
20
5.39891327665992
30
0
41
1
10
10.6783645979705
20
5.40114977433575
30
0
41
1
10
10.6708290707058
20
5.40200654239447
30
0
41
1
10
10.655734734158
20
5.40304956118317
30
0
41
1
10
10.648188674467
20
5.40325773368644
30
0
41
1
10
10.6330992498777
20
5.40291247312348
30
0
41
1
10
10.6255068566619
20
5.40235211099349
30
0
41
1
10
10.610555288262
20
5.40035770384733
30
0
41
1
10
10.603277260376
20
5.39892784739459
30
0
41
1
10
10.5891931999126
20
5.39503330254229
30
0
41
1
10
10.5824036535791
20
5.39243828686824
30
0
41
1
10
10.5727707589203
20
5.38795938323182
30
0
41
1
10
10.569598973569
20
5.38642326599296
30
0
41
1
10
10.5632285160334
20
5.38337907418168
30
0
41
1
10
10.5473058632272
20
5.37576181814316
30
0
41
1
10
10.5059521935304
20
5.35586851497175
30
0
41
1
10
10.4678822892599
20
5.33730839355167
30
0
41
1
10
10.3412148190791
20
5.27499446582215
30
0
41
1
10
10.2406439165818
20
5.22372465680007
30
0
41
1
10
10.0910579896894
20
5.14453086968291
30
0
41
1
10
10.0414058360093
20
5.11775014827032
30
0
41
1
10
9.94253733228695
20
5.06338926990054
30
0
41
1
10
9.89330143311429
20
5.03579777233463
30
0
41
1
10
9.74645811389465
20
4.95187544478131
30
0
41
1
10
9.64970433895388
20
4.89439468718911
30
0
41
1
10
9.3631205677886
20
4.71697100193734
30
0
41
1
10
9.17694821199746
20
4.592076165279
30
0
41
1
10
8.81611105236453
20
4.32643126872887
30
0
41
1
10
8.64143126975441
20
4.18570338141586
30
0
41
1
10
8.38994528411425
20
3.9598654754939
30
0
41
1
10
8.30787982902211
20
3.88211728685971
30
0
41
1
10
8.18776219647003
20
3.76129041606168
30
0
41
1
10
8.14822056032025
20
3.72031282958486
30
0
41
1
10
8.07019997724368
20
3.63685315704046
30
0
41
1
10
8.03169883448382
20
3.59434116186441
30
0
41
1
10
7.84318548689418
20
3.3790854689754
30
0
41
1
10
7.70415518529708
20
3.1973937523322
30
0
41
1
10
7.51724711680609
20
2.90723605482083
30
0
41
1
10
7.45856745556671
20
2.80756611696808
30
0
41
1
10
7.39033988984022
20
2.67878711755819
30
0
41
1
10
7.37695110077479
20
2.65282121900131
30
0
41
1
10
7.3507045055859
20
2.60045439063273
30
0
41
1
10
7.33783485950514
20
2.5740282377829
30
0
41
1
10
7.30013437949788
20
2.49425169025582
30
0
41
1
10
7.27628167038836
20
2.44055766789421
30
0
41
1
10
7.20867688724772
20
2.27789903549984
30
0
41
1
10
7.16887293355711
20
2.1673599302643
30
0
41
1
10
7.10049882684112
20
1.94178329657891
30
0
41
1
10
7.07192713656076
20
1.82674640189279
30
0
41
1
10
7.03815778828377
20
1.65053913007674
30
0
41
1
10
7.02841780122182
20
1.5911940351817
30
0
41
1
10
7.01618299488254
20
1.50122068220003
30
0
41
1
10
7.01250007675205
20
1.47104979725958
30
0
41
1
10
7.00598378695491
20
1.41080191106423
30
0
41
1
10
6.99178072049799
20
1.26016730096046
30
0
41
1
10
6.98483074292437
20
0.988889947045294
30
0
41
1
10
7.00446227429686
20
0.747558969718256
30
0
41
1
10
7.02871119175791
20
0.566486766621097
30
0
41
1
10
7.03838262102829
20
0.506117043343863
30
0
41
1
10
7.06088795158166
20
0.385352920911259
30
0
41
1
10
7.07376384480173
20
0.324808555375284
30
0
41
1
10
7.11661549684283
20
0.145115831344668
30
0
41
1
10
7.15086525806561
20
0.0274138360344409
30
0
41
1
10
7.22962840746044
20
-0.204209333382693
30
0
41
1
10
7.27414429484185
20
-0.318129588752754
30
0
41
1
10
7.34797436474599
20
-0.486410909587136
30
0
41
1
10
7.3737620642676
20
-0.542070904608551
30
0
41
1
10
7.41414250320594
20
-0.624935181279568
30
0
41
1
10
7.42790107287232
20
-0.652481602359785
30
0
41
1
10
7.45588778904465
20
-0.707202023238636
30
0
41
1
10
7.52701585889395
20
-0.843049702513042
30
0
41
1
10
7.6037144180909
20
-0.974325205411134
30
0
41
1
10
7.73266573994039
20
-1.17925501141275
30
0
41
1
10
7.8002607231264
20
-1.2791623580215
30
0
41
1
10
7.9410005754934
20
-1.47443272311324
30
0
41
1
10
8.01414704809355
20
-1.56979442620178
30
0
41
1
10
8.16545064685675
20
-1.75642151298519
30
0
41
1
10
8.24360884079306
20
-1.84768602028888
30
0
41
1
10
8.3642789670503
20
-1.98178144062669
30
0
41
1
10
8.40507521369912
20
-2.02601242269617
30
0
41
1
10
8.48776678842142
20
-2.11357836706296
30
0
41
1
10
8.52953463122861
20
-2.15677785439951
30
0
41
1
10
8.74014064548061
20
-2.36980344195075
30
0
41
1
10
8.91447621580716
20
-2.53102859651884
30
0
41
1
10
9.27262347452418
20
-2.83870994553607
30
0
41
1
10
9.45644918112444
20
-2.98514369155134
30
0
41
1
10
9.8321222825528
20
-3.26562721322699
30
0
41
1
10
10.0239767679706
20
-3.39966562145818
30
0
41
1
10
10.4146764964042
20
-3.65706341219086
30
0
41
1
10
10.6135256710324
20
-3.78041648482321
30
0
41
1
10
10.9164718620839
20
-3.95839008668079
30
0
41
1
10
11.0182080177178
20
-4.01651762909822
30
0
41
1
10
11.222579763472
20
-4.13023504745561
30
0
41
1
10
11.3252882798935
20
-4.18586814641441
30
0
41
1
10
11.6348960077297
20
-4.34932380401182
30
0
41
1
10
11.8432745110099
20
-4.45371021281542
30
0
41
1
10
12.2636041424577
20
-4.6543427151768
30
0
41
1
10
12.4755562151621
20
-4.75058636220834
30
0
41
1
10
12.6891495168303
20
-4.84316485773519
30
0
0
SPLINE
5
117
100
AcDbEntity
8
1
62
256
6
ByLayer
370
18
48
1
60
0
100
AcDbSpline
70
4
71
3
72
8
73
4
40
0
40
0
40
0
40
0
40
1
40
1
40
1
40
1
41
1
10
18.1536984615283
20
2.86930432920886
30
0
41
1
10
18.1399145243916
20
2.87461849383817
30
0
41
1
10
18.1260875574765
20
2.87954141444106
30
0
41
1
10
18.1121577768922
20
2.8841066116141
30
0
0
SPLINE
5
118
100
AcDbEntity
8
1
62
256
6
ByLayer
370
18
48
1
60
0
100
AcDbSpline
70
4
71
3
72
79
73
75
40
0
40
0
40
0
40
0
40
0.0031987723756558
40
0.0031987723756558
40
0.0367775196763272
40
0.0367775196763272
40
0.0535668933266629
40
0.0535668933266629
40
0.0703562669769986
40
0.0703562669769986
40
0.0871456406273343
40
0.0871456406273343
40
0.10393501427767
40
0.10393501427767
40
0.120724387928006
40
0.120724387928006
40
0.12492173134059
40
0.12492173134059
40
0.127020403046882
40
0.127545070973454
40
0.127545070973454
40
0.127807404936741
40
0.127807404936741
40
0.127938571918384
40
0.127938571918384
40
0.128069738900027
40
0.128069738900027
40
0.129119074753173
40
0.129119074753173
40
0.133316418165757
40
0.133316418165757
40
0.137513761578341
40
0.137513761578341
40
0.171092508879013
40
0.171092508879013
40
0.238250003480356
40
0.238250003480356
40
0.372564992683041
40
0.372564992683041
40
0.439722487284384
40
0.439722487284384
40
0.473301234585056
40
0.473301234585056
40
0.490090608235391
40
0.490090608235391
40
0.506879981885727
40
0.506879981885727
40
0.511077325298311
40
0.511077325298311
40
0.513175997004603
40
0.513175997004603
40
0.51343833096789
40
0.51343833096789
40
0.513569497949533
40
0.513569497949533
40
0.513700664931176
40
0.513700664931176
40
0.51383183191282
40
0.51383183191282
40
0.513962998894463
40
0.514225332857749
40
0.515274668710895
40
0.523669355536064
40
0.540458729186401
40
0.540458729186401
40
0.574037476487075
40
0.574037476487075
40
0.641194971088422
40
0.641194971088422
40
0.775509960291118
40
0.775509960291118
40
0.909824949493813
40
0.909824949493813
40
1
40
1
40
1
40
1
41
1
10
18.0544068722572
20
2.9008821263761
30
0
41
1
10
18.044334787966
20
2.90345001686174
30
0
41
1
10
18.034171503685
20
2.90586360253386
30
0
41
1
10
17.9160326550422
20
2.93197348169014
30
0
41
1
10
17.799211330294
20
2.93837960330239
30
0
41
1
10
17.6148637567611
20
2.91897443291077
30
0
41
1
10
17.5518522499069
20
2.90766471872331
30
0
41
1
10
17.4231808536562
20
2.87479805889123
30
0
41
1
10
17.3582777027885
20
2.85319045121091
30
0
41
1
10
17.222912096992
20
2.8021740947716
30
0
41
1
10
17.1530005404437
20
2.77247143872231
30
0
41
1
10
17.0095534276418
20
2.7042367652802
30
0
41
1
10
16.9360076303289
20
2.66560067348468
30
0
41
1
10
16.785359064951
20
2.57994800656144
30
0
41
1
10
16.7084075982479
20
2.53288039413829
30
0
41
1
10
16.610604696255
20
2.46850084742147
30
0
41
1
10
16.5909671414713
20
2.45535012475858
30
0
41
1
10
16.5614098011031
20
2.43521239671452
30
0
41
1
10
16.5490726600492
20
2.42673556129063
30
0
41
1
10
16.5367097176538
20
2.41815070414558
30
0
41
1
10
16.5329993515857
20
2.41556879309997
30
0
41
1
10
16.531518431946
20
2.41482636462951
30
0
41
1
10
16.5300535021229
20
2.41334001078755
30
0
41
1
10
16.5311212347303
20
2.41243404942352
30
0
41
1
10
16.5328798925909
20
2.41103153463104
30
0
41
1
10
16.5338441307439
20
2.41035921406711
30
0
41
1
10
16.5426390721896
20
2.40440057658628
30
0
41
1
10
16.5512808681051
20
2.39949338426058
30
0
41
1
10
16.5937836352268
20
2.37476318250003
30
0
41
1
10
16.6285150391029
20
2.35543050825095
30
0
41
1
10
16.6978443909709
20
2.31667282355937
30
0
41
1
10
16.7326036700198
20
2.2973419702985
30
0
41
1
10
17.045753471931
20
2.12345161183862
30
0
41
1
10
17.325785335718
20
1.96901573962057
30
0
41
1
10
18.1655941858937
20
1.50248424229494
30
0
41
1
10
18.7262462338275
20
1.18807119786192
30
0
41
1
10
20.4073259567708
20
0.231248258771188
30
0
41
1
10
21.5265847222643
20
-0.423824743274707
30
0
41
1
10
23.2016676874755
20
-1.4301959695317
30
0
41
1
10
23.7595352365383
20
-1.76961996567641
30
0
41
1
10
24.5954267852958
20
-2.2849724419315
30
0
41
1
10
24.8739279573889
20
-2.45781352347205
30
0
41
1
10
25.2908450250632
20
-2.71917096612938
30
0
41
1
10
25.4296893089312
20
-2.806637092177
30
0
41
1
10
25.7069163940447
20
-2.98261567157485
30
0
41
1
10
25.845443211945
20
-3.07089899524334
30
0
41
1
10
26.0174101155886
20
-3.18340925264371
30
0
41
1
10
26.0517560565041
20
-3.20599505115396
30
0
41
1
10
26.1028309239121
20
-3.24060364071337
30
0
41
1
10
26.1199687473571
20
-3.25198981739942
30
0
41
1
10
26.1382997732723
20
-3.26620129661907
30
0
41
1
10
26.1403203745645
20
-3.26780829180706
30
0
41
1
10
26.1432414755118
20
-3.27034907332168
30
0
41
1
10
26.1442016516453
20
-3.27121728185171
30
0
41
1
10
26.1459990899499
20
-3.2730805507573
30
0
41
1
10
26.1473917854725
20
-3.27414429999149
30
0
41
1
10
26.1466970784951
20
-3.27663010512353
30
0
41
1
10
26.1448445231718
20
-3.27633999011857
30
0
41
1
10
26.1423606053771
20
-3.27671124273593
30
0
41
1
10
26.1386347492849
20
-3.27726809069563
30
0
41
1
10
26.1249735033168
20
-3.27930952586482
30
0
41
1
10
26.0330756722877
20
-3.29303517291487
30
0
41
1
10
25.7848018067542
20
-3.32998269586253
30
0
41
1
10
25.5467191304684
20
-3.36506722105239
30
0
41
1
10
25.0708981637632
20
-3.43471522776653
30
0
41
1
10
24.7541765052833
20
-3.48044765327072
30
0
41
1
10
23.8055176291853
20
-3.61547905623687
30
0
41
1
10
23.1748912690143
20
-3.70263865087483
30
0
41
1
10
21.2900110752729
20
-3.95481498754481
30
0
41
1
10
20.043888322845
20
-4.11039588218682
30
0
41
1
10
17.5713420904955
20
-4.39396481782896
30
0
41
1
10
16.3449226050365
20
-4.5219903485245
30
0
41
1
10
14.3107246033546
20
-4.71132685224552
30
0
41
1
10
13.4975294494055
20
-4.78072050610174
30
0
41
1
10
12.6891862734939
20
-4.84317935620416
30
0
0
LINE
5
82
100
AcDbEntity
8
81
62
256
6
ByLayer
370
18
48
1
60
0
100
AcDbLine
10
179
20
0
30
0
11
182
21
0
31
0
39
0
210
0
220
0
230
1
0
LINE
5
83
100
AcDbEntity
8
80
62
256
6
ByLayer
370
18
48
1
60
0
100
AcDbLine
10
0
20
0
30
0
11
-3
21
0
31
0
39
0
210
0
220
0
230
1
0
LINE
5
84
100
AcDbEntity
8
SK4
62
256
6
ByLayer
370
18
48
0.05
60
0
100
AcDbLine
10
-51
20
0
30
0
11
182
21
0
31
0
39
0
210
0
220
0
230
1
0
LINE
5
86
100
AcDbEntity
8
4
62
256
6
ByLayer
370
18
48
0.05
60
0
100
AcDbLine
10
0
20
0
30
0
11
179
21
0
31
0
39
0
210
0
220
0
230
1
0
LINE
5
88
100
AcDbEntity
8
SK1
62
256
6
ByLayer
370
18
48
1
60
0
100
AcDbLine
10
-48
20
-5.55
30
0
11
-45.55
21
-8
31
0
39
0
210
0
220
0
230
1
0
LINE
5
8A
100
AcDbEntity
8
SK1
62
256
6
ByLayer
370
18
48
1
60
0
100
AcDbLine
10
-45.55
20
8
30
0
11
-48
21
5.55
31
0
39
0
210
0
220
0
230
1
0
LINE
5
8B
100
AcDbEntity
8
SK1
62
256
6
ByLayer
370
18
48
1
60
0
100
AcDbLine
10
-45.55
20
-8
30
0
11
0
21
-8
31
0
39
0
210
0
220
0
230
1
0
LINE
5
8C
100
AcDbEntity
8
SK1
62
256
6
ByLayer
370
18
48
1
60
0
100
AcDbLine
10
0
20
8
30
0
11
-45.55
21
8
31
0
39
0
210
0
220
0
230
1
0
LINE
5
8D
100
AcDbEntity
8
1
62
256
6
ByLayer
370
18
48
1
60
0
100
AcDbLine
10
2
20
7.686636
30
0
11
0
21
8
31
0
39
0
210
0
220
0
230
1
0
LINE
5
8E
100
AcDbEntity
8
1
62
256
6
ByLayer
370
18
48
1
60
0
100
AcDbLine
10
0
20
-8
30
0
11
2
21
-7.686636
31
0
39
0
210
0
220
0
230
1
0
LINE
5
8F
100
AcDbEntity
8
1
62
256
6
ByLayer
370
18
48
1
60
0
100
AcDbLine
10
2
20
-7.686636
30
0
11
25.011361
21
-7.728056
31
0
39
0
210
0
220
0
230
1
0
LINE
5
90
100
AcDbEntity
8
1
62
256
6
ByLayer
370
18
48
1
60
0
100
AcDbLine
10
45.180057
20
-7.76436
30
0
11
68.450106
21
-7.806246
31
0
39
0
210
0
220
0
230
1
0
LINE
5
91
100
AcDbEntity
8
1
62
256
6
ByLayer
370
18
48
1
60
0
100
AcDbLine
10
88.680392
20
-7.84266
30
0
11
99.000238
21
-7.861236
31
0
39
0
210
0
220
0
230
1
0
LINE
5
92
100
AcDbEntity
8
1
62
256
6
ByLayer
370
18
48
1
60
0
100
AcDbLine
10
109.769811
20
-7.880621
30
0
11
111.887744
21
-7.884434
31
0
39
0
210
0
220
0
230
1
0
LINE
5
93
100
AcDbEntity
8
1
62
256
6
ByLayer
370
18
48
1
60
0
100
AcDbLine
10
132.469402
20
-7.921481
30
0
11
134.173653
21
-7.924548
31
0
39
0
210
0
220
0
230
1
0
LINE
5
94
100
AcDbEntity
8
1
62
256
6
ByLayer
370
18
48
1
60
0
100
AcDbLine
10
153.325292
20
-7.959021
30
0
11
155.327052
21
-7.962624
31
0
39
0
210
0
220
0
230
1
0
LINE
5
95
100
AcDbEntity
8
1
62
256
6
ByLayer
370
18
48
1
60
0
100
AcDbLine
10
155.327052
20
7.962624
30
0
11
153.325292
21
7.959021
31
0
39
0
210
0
220
0
230
1
0
LINE
5
96
100
AcDbEntity
8
1
62
256
6
ByLayer
370
18
48
1
60
0
100
AcDbLine
10
134.173653
20
7.924548
30
0
11
132.469402
21
7.921481
31
0
39
0
210
0
220
0
230
1
0
LINE
5
97
100
AcDbEntity
8
1
62
256
6
ByLayer
370
18
48
1
60
0
100
AcDbLine
10
111.887744
20
7.884434
30
0
11
109.769811
21
7.880621
31
0
39
0
210
0
220
0
230
1
0
LINE
5
98
100
AcDbEntity
8
1
62
256
6
ByLayer
370
18
48
1
60
0
100
AcDbLine
10
99.000238
20
7.861236
30
0
11
88.680392
21
7.84266
31
0
39
0
210
0
220
0
230
1
0
LINE
5
99
100
AcDbEntity
8
1
62
256
6
ByLayer
370
18
48
1
60
0
100
AcDbLine
10
68.450106
20
7.806246
30
0
11
45.180057
21
7.76436
31
0
39
0
210
0
220
0
230
1
0
LINE
5
9A
100
AcDbEntity
8
1
62
256
6
ByLayer
370
18
48
1
60
0
100
AcDbLine
10
25.011361
20
7.728056
30
0
11
2
21
7.686636
31
0
39
0
210
0
220
0
230
1
0
LINE
5
9B
100
AcDbEntity
8
SK1
62
256
6
ByLayer
370
18
48
1
60
0
100
AcDbLine
10
-48
20
-0.694448
30
0
11
-48
21
-2.101917
31
0
39
0
210
0
220
0
230
1
0
LINE
5
9C
100
AcDbEntity
8
SK1
62
256
6
ByLayer
370
18
48
1
60
0
100
AcDbLine
10
-48
20
-0.365655
30
0
11
-48
21
-0.497331
31
0
39
0
210
0
220
0
230
1
0
LINE
5
9D
100
AcDbEntity
8
SK1
62
256
6
ByLayer
370
13
48
1
60
0
100
AcDbLine
10
-46.5
20
-2.347694
30
0
11
-46.5
21
-0.119877
31
0
39
0
210
0
220
0
230
1
0
LINE
5
9E
100
AcDbEntity
8
SK1
62
256
6
ByLayer
370
18
48
1
60
0
100
AcDbLine
10
-46.4
20
-2.268034
30
0
11
-46.4
21
0.002131
31
0
39
0
210
0
220
0
230
1
0
LINE
5
9F
100
AcDbEntity
8
SK1
62
256
6
ByLayer
370
18
48
1
60
0
100
AcDbLine
10
-48
20
-5.55
30
0
11
-48
21
-2.101917
31
0
39
0
210
0
220
0
230
1
0
LINE
5
A0
100
AcDbEntity
8
SK1
62
256
6
ByLayer
370
18
48
1
60
0
100
AcDbLine
10
-48
20
5.55
30
0
11
-48
21
0.365655
31
0
39
0
210
0
220
0
230
1
0
LINE
5
A1
100
AcDbEntity
8
SK1
62
256
6
ByLayer
370
18
48
1
60
0
100
AcDbLine
10
-45.55
20
-8
30
0
11
-45.55
21
8
31
0
39
0
210
0
220
0
230
1
0
LINE
5
A2
100
AcDbEntity
8
SK1
62
256
6
ByLayer
370
18
48
1
60
0
100
AcDbLine
10
0
20
8
30
0
11
0
21
-8
31
0
39
0
210
0
220
0
230
1
0
LINE
5
A3
100
AcDbEntity
8
1
62
256
6
ByLayer
370
18
48
1
60
0
100
AcDbLine
10
0
20
8
30
0
11
0
21
-8
31
0
39
0
210
0
220
0
230
1
0
LINE
5
A4
100
AcDbEntity
8
1
62
256
6
ByLayer
370
13
48
1
60
0
100
AcDbLine
10
178.823244
20
0.820513
30
0
11
177.246375
21
2.403345
31
0
39
0
210
0
220
0
230
1
0
LINE
5
A5
100
AcDbEntity
8
1
62
256
6
ByLayer
370
18
48
1
60
0
100
AcDbLine
10
99.000238
20
7.861236
30
0
11
99.000238
21
6.502212
31
0
39
0
210
0
220
0
230
1
0
LINE
5
A6
100
AcDbEntity
8
1
62
256
6
ByLayer
370
18
48
1
60
0
100
AcDbLine
10
99.000238
20
-7.861236
30
0
11
99.000238
21
-5.723089
31
0
39
0
210
0
220
0
230
1
0
LINE
5
A7
100
AcDbEntity
8
1
62
256
6
ByLayer
370
18
48
1
60
0
100
AcDbLine
10
99.000238
20
5.861561
30
0
11
99.000238
21
5.777054
31
0
39
0
210
0
220
0
230
1
0
LINE
5
A8
100
AcDbEntity
8
1
62
256
6
ByLayer
370
18
48
1
60
0
100
AcDbLine
10
2
20
-7.686636
30
0
11
2
21
7.686636
31
0
39
0
210
0
220
0
230
1
0
LINE
5
A9
100
AcDbEntity
8
2
62
256
6
ByLayer
370
13
48
1
60
0
100
AcDbLine
10
186.5
20
-8
30
0
11
186.5
21
30.333771
31
0
39
0
210
0
220
0
230
1
0
LINE
5
AB
100
AcDbEntity
8
2
62
256
6
ByLayer
370
13
48
1
60
0
100
AcDbLine
10
180.5875
20
8
30
0
11
188.5
21
8
31
0
39
0
210
0
220
0
230
1
0
LINE
5
AC
100
AcDbEntity
8
2
62
256
6
ByLayer
370
13
48
1
60
0
100
AcDbLine
10
180.5875
20
-8
30
0
11
188.5
21
-8
31
0
39
0
210
0
220
0
230
1
0
LINE
5
AD
100
AcDbEntity
8
1
62
256
6
ByLayer
370
18
48
1
60
1
100
AcDbLine
10
186.5
20
8
30
0
11
186.960784
21
4.500002
31
0
39
0
210
0
220
0
230
1
0
LINE
5
AE
100
AcDbEntity
8
1
62
256
6
ByLayer
370
18
48
1
60
1
100
AcDbLine
10
186.960784
20
4.500002
30
0
11
186.039216
21
4.499998
31
0
39
0
210
0
220
0
230
1
0
LINE
5
AF
100
AcDbEntity
8
1
62
256
6
ByLayer
370
18
48
1
60
1
100
AcDbLine
10
186.039216
20
4.499998
30
0
11
186.5
21
8
31
0
39
0
210
0
220
0
230
1
0
LINE
5
B0
100
AcDbEntity
8
1
62
256
6
ByLayer
370
18
48
1
60
1
100
AcDbLine
10
186.5
20
-8
30
0
11
186.039216
21
-4.500002
31
0
39
0
210
0
220
0
230
1
0
LINE
5
B1
100
AcDbEntity
8
1
62
256
6
ByLayer
370
18
48
1
60
1
100
AcDbLine
10
186.039216
20
-4.500002
30
0
11
186.960784
21
-4.499998
31
0
39
0
210
0
220
0
230
1
0
LINE
5
B2
100
AcDbEntity
8
1
62
256
6
ByLayer
370
18
48
1
60
1
100
AcDbLine
10
186.960784
20
-4.499998
30
0
11
186.5
21
-8
31
0
39
0
210
0
220
0
230
1
0
LINE
5
B3
100
AcDbEntity
8
SK2
62
256
6
ByLayer
370
13
48
1
60
0
100
AcDbLine
10
-56.5
20
-8
30
0
11
-56.5
21
15.333771
31
0
39
0
210
0
220
0
230
1
0
LINE
5
B5
100
AcDbEntity
8
SK2
62
256
6
ByLayer
370
13
48
1
60
0
100
AcDbLine
10
-49.5875
20
8
30
0
11
-58.5
21
8
31
0
39
0
210
0
220
0
230
1
0
LINE
5
B6
100
AcDbEntity
8
SK2
62
256
6
ByLayer
370
13
48
1
60
0
100
AcDbLine
10
-49.5875
20
-8
30
0
11
-58.5
21
-8
31
0
39
0
210
0
220
0
230
1
0
LINE
5
B7
100
AcDbEntity
8
1
62
256
6
ByLayer
370
18
48
1
60
1
100
AcDbLine
10
-56.5
20
8
30
0
11
-56.039216
21
4.500002
31
0
39
0
210
0
220
0
230
1
0
LINE
5
B8
100
AcDbEntity
8
1
62
256
6
ByLayer
370
18
48
1
60
1
100
AcDbLine
10
-56.039216
20
4.500002
30
0
11
-56.960784
21
4.499998
31
0
39
0
210
0
220
0
230
1
0
LINE
5
B9
100
AcDbEntity
8
1
62
256
6
ByLayer
370
18
48
1
60
1
100
AcDbLine
10
-56.960784
20
4.499998
30
0
11
-56.5
21
8
31
0
39
0
210
0
220
0
230
1
0
LINE
5
BA
100
AcDbEntity
8
1
62
256
6
ByLayer
370
18
48
1
60
1
100
AcDbLine
10
-56.5
20
-8
30
0
11
-56.960784
21
-4.500002
31
0
39
0
210
0
220
0
230
1
0
LINE
5
BB
100
AcDbEntity
8
1
62
256
6
ByLayer
370
18
48
1
60
1
100
AcDbLine
10
-56.960784
20
-4.500002
30
0
11
-56.039216
21
-4.499998
31
0
39
0
210
0
220
0
230
1
0
LINE
5
BC
100
AcDbEntity
8
1
62
256
6
ByLayer
370
18
48
1
60
1
100
AcDbLine
10
-56.039216
20
-4.499998
30
0
11
-56.5
21
-8
31
0
39
0
210
0
220
0
230
1
0
LINE
5
BD
100
AcDbEntity
8
SK2
62
256
6
ByLayer
370
13
48
1
60
0
100
AcDbLine
10
179.542996
20
1.491748
30
0
11
188.431506
21
25.910731
31
0
39
0
210
0
220
0
230
1
0
LINE
5
BE
100
AcDbEntity
8
SK2
62
256
6
ByLayer
370
13
48
1
60
0
100
AcDbLine
10
179.542996
20
-1.491748
30
0
11
188.431506
21
-25.910731
31
0
39
0
210
0
220
0
230
1
0
LINE
5
BF
100
AcDbEntity
8
1
62
256
6
ByLayer
370
18
48
1
60
1
100
AcDbLine
10
187.747416
20
24.031364
30
0
11
191.165805
21
23.14993
31
0
39
0
210
0
220
0
230
1
0
LINE
5
C0
100
AcDbEntity
8
1
62
256
6
ByLayer
370
18
48
1
60
1
100
AcDbLine
10
191.165805
20
23.14993
30
0
11
190.821198
21
22.295218
31
0
39
0
210
0
220
0
230
1
0
LINE
5
C1
100
AcDbEntity
8
1
62
256
6
ByLayer
370
18
48
1
60
1
100
AcDbLine
10
190.821198
20
22.295218
30
0
11
187.747416
21
24.031364
31
0
39
0
210
0
220
0
230
1
0
LINE
5
C2
100
AcDbEntity
8
1
62
256
6
ByLayer
370
18
48
1
60
1
100
AcDbLine
10
187.747416
20
-24.031364
30
0
11
190.821195
21
-22.295219
31
0
39
0
210
0
220
0
230
1
0
LINE
5
C3
100
AcDbEntity
8
1
62
256
6
ByLayer
370
18
48
1
60
1
100
AcDbLine
10
190.821195
20
-22.295219
30
0
11
191.165809
21
-23.149929
31
0
39
0
210
0
220
0
230
1
0
LINE
5
C4
100
AcDbEntity
8
1
62
256
6
ByLayer
370
18
48
1
60
1
100
AcDbLine
10
191.165809
20
-23.149929
30
0
11
187.747416
21
-24.031364
31
0
39
0
210
0
220
0
230
1
0
LINE
5
119
100
AcDbEntity
8
1
62
256
6
ByLayer
370
13
48
0.05
60
0
100
AcDbLine
10
-54.5
20
0
30
0
11
182.570254
21
0
31
0
39
0
210
0
220
0
230
1
0
LINE
5
11E
100
AcDbEntity
8
1
62
256
6
ByLayer
370
18
48
1
60
1
100
AcDbLine
10
186.5
20
8
30
0
11
186.960784
21
4.500002
31
0
39
0
210
0
220
0
230
1
0
LINE
5
11F
100
AcDbEntity
8
1
62
256
6
ByLayer
370
18
48
1
60
1
100
AcDbLine
10
186.960784
20
4.500002
30
0
11
186.039216
21
4.499998
31
0
39
0
210
0
220
0
230
1
0
LINE
5
120
100
AcDbEntity
8
1
62
256
6
ByLayer
370
18
48
1
60
1
100
AcDbLine
10
186.039216
20
4.499998
30
0
11
186.5
21
8
31
0
39
0
210
0
220
0
230
1
0
LINE
5
122
100
AcDbEntity
8
1
62
256
6
ByLayer
370
18
48
1
60
1
100
AcDbLine
10
186.5
20
-8
30
0
11
186.039216
21
-4.500002
31
0
39
0
210
0
220
0
230
1
0
LINE
5
123
100
AcDbEntity
8
1
62
256
6
ByLayer
370
18
48
1
60
1
100
AcDbLine
10
186.039216
20
-4.500002
30
0
11
186.960784
21
-4.499998
31
0
39
0
210
0
220
0
230
1
0
LINE
5
124
100
AcDbEntity
8
1
62
256
6
ByLayer
370
18
48
1
60
1
100
AcDbLine
10
186.960784
20
-4.499998
30
0
11
186.5
21
-8
31
0
39
0
210
0
220
0
230
1
0
LINE
5
128
100
AcDbEntity
8
1
62
256
6
ByLayer
370
18
48
1
60
1
100
AcDbLine
10
-56.5
20
8
30
0
11
-56.039216
21
4.500002
31
0
39
0
210
0
220
0
230
1
0
LINE
5
129
100
AcDbEntity
8
1
62
256
6
ByLayer
370
18
48
1
60
1
100
AcDbLine
10
-56.039216
20
4.500002
30
0
11
-56.960784
21
4.499998
31
0
39
0
210
0
220
0
230
1
0
LINE
5
12A
100
AcDbEntity
8
1
62
256
6
ByLayer
370
18
48
1
60
1
100
AcDbLine
10
-56.960784
20
4.499998
30
0
11
-56.5
21
8
31
0
39
0
210
0
220
0
230
1
0
LINE
5
12C
100
AcDbEntity
8
1
62
256
6
ByLayer
370
18
48
1
60
1
100
AcDbLine
10
-56.5
20
-8
30
0
11
-56.960784
21
-4.500002
31
0
39
0
210
0
220
0
230
1
0
LINE
5
12D
100
AcDbEntity
8
1
62
256
6
ByLayer
370
18
48
1
60
1
100
AcDbLine
10
-56.960784
20
-4.500002
30
0
11
-56.039216
21
-4.499998
31
0
39
0
210
0
220
0
230
1
0
LINE
5
12E
100
AcDbEntity
8
1
62
256
6
ByLayer
370
18
48
1
60
1
100
AcDbLine
10
-56.039216
20
-4.499998
30
0
11
-56.5
21
-8
31
0
39
0
210
0
220
0
230
1
0
LINE
5
131
100
AcDbEntity
8
1
62
256
6
ByLayer
370
18
48
1
60
1
100
AcDbLine
10
187.747416
20
24.031364
30
0
11
191.165805
21
23.14993
31
0
39
0
210
0
220
0
230
1
0
LINE
5
132
100
AcDbEntity
8
1
62
256
6
ByLayer
370
18
48
1
60
1
100
AcDbLine
10
191.165805
20
23.14993
30
0
11
190.821198
21
22.295218
31
0
39
0
210
0
220
0
230
1
0
LINE
5
133
100
AcDbEntity
8
1
62
256
6
ByLayer
370
18
48
1
60
1
100
AcDbLine
10
190.821198
20
22.295218
30
0
11
187.747416
21
24.031364
31
0
39
0
210
0
220
0
230
1
0
LINE
5
135
100
AcDbEntity
8
1
62
256
6
ByLayer
370
18
48
1
60
1
100
AcDbLine
10
187.747416
20
-24.031364
30
0
11
190.821195
21
-22.295219
31
0
39
0
210
0
220
0
230
1
0
LINE
5
136
100
AcDbEntity
8
1
62
256
6
ByLayer
370
18
48
1
60
1
100
AcDbLine
10
190.821195
20
-22.295219
30
0
11
191.165809
21
-23.149929
31
0
39
0
210
0
220
0
230
1
0
LINE
5
137
100
AcDbEntity
8
1
62
256
6
ByLayer
370
18
48
1
60
1
100
AcDbLine
10
191.165809
20
-23.149929
30
0
11
187.747416
21
-24.031364
31
0
39
0
210
0
220
0
230
1
0
MTEXT
5
11A
100
AcDbEntity
8
2
62
256
6
ByLayer
370
18
48
1
60
0
100
AcDbMText
10
185.158886
20
21.658438
30
0
210
0
220
0
230
1
1
%%c
40
3
41
0
44
1.084337
50
90
71
7
72
5
7
iso_b_vert
0
MTEXT
5
11D
100
AcDbEntity
8
2
62
256
6
ByLayer
370
18
48
1
60
0
100
AcDbMText
10
185.158886
20
27.635
30
0
210
0
220
0
230
1
1
\W0.5321;16
40
3
41
0
44
1.084337
50
90
71
7
72
5
7
iso_b_vert
0
MTEXT
5
126
100
AcDbEntity
8
SK2
62
256
6
ByLayer
370
18
48
1
60
0
100
AcDbMText
10
-57.841114
20
6.658437
30
0
210
0
220
0
230
1
1
%%c
40
3
41
0
44
1.084337
50
90
71
7
72
5
7
iso_b_vert
0
MTEXT
5
127
100
AcDbEntity
8
SK2
62
256
6
ByLayer
370
18
48
1
60
0
100
AcDbMText
10
-57.841114
20
12.635
30
0
210
0
220
0
230
1
1
\W0.5321;16
40
3
41
0
44
1.084337
50
90
71
7
72
5
7
iso_b_vert
0
MTEXT
5
130
100
AcDbEntity
8
SK2
62
256
6
ByLayer
370
18
48
1
60
0
100
AcDbMText
10
201.133231
20
-2.114886
30
0
210
0
220
0
230
1
1
\W0.7071;140%%d
40
3
41
0
44
1.084337
50
0
71
7
72
5
7
iso_b_vert
0
MTEXT
5
139
100
AcDbEntity
8
SK6
62
256
6
ByLayer
370
18
48
1
60
0
100
AcDbMText
10
44.746062
20
-77.114886
30
0
210
0
220
0
230
1
1
\W0.7307;860.1-1600-130A1-SD S2BM
40
3
41
0
44
1.084337
50
0
71
7
72
5
7
iso_b_vert
0
HATCH
5
121
100
AcDbEntity
8
2
62
256
6
ByLayer
370
13
48
1
60
0
100
AcDbHatch
10
0
20
0
30
0
210
0
220
0
230
1
2
ANSI31
70
0
71
0
91
1
92
5
93
3
72
1
10
186.5
20
8
11
186.960783741553
21
4.50000169255318
72
1
10
186.960783741553
20
4.50000169255318
11
186.039216258447
21
4.49999830744682
72
1
10
186.039216258447
20
4.49999830744682
11
186.5
21
8
97
0
75
0
76
1
52
0
41
0.0062
77
0
78
1
53
45
43
0
44
0
45
-0.0139193969876572
46
0.0139193969876572
79
0
47
0
98
1
10
0
20
0
0
HATCH
5
125
100
AcDbEntity
8
2
62
256
6
ByLayer
370
13
48
1
60
0
100
AcDbHatch
10
0
20
0
30
0
210
0
220
0
230
1
2
ANSI31
70
0
71
0
91
1
92
5
93
3
72
1
10
186.5
20
-8
11
186.039216258447
21
-4.50000169255318
72
1
10
186.039216258447
20
-4.50000169255318
11
186.960783741553
21
-4.49999830744682
72
1
10
186.960783741553
20
-4.49999830744682
11
186.5
21
-8
97
0
75
0
76
1
52
0
41
0.0062
77
0
78
1
53
45
43
0
44
0
45
-0.0139193969876572
46
0.0139193969876572
79
0
47
0
98
1
10
0
20
0
0
HATCH
5
12B
100
AcDbEntity
8
SK2
62
256
6
ByLayer
370
13
48
1
60
0
100
AcDbHatch
10
0
20
0
30
0
210
0
220
0
230
1
2
ANSI31
70
0
71
0
91
1
92
5
93
3
72
1
10
-56.5
20
8
11
-56.0392162584472
21
4.50000169255318
72
1
10
-56.0392162584472
20
4.50000169255318
11
-56.9607837415528
21
4.49999830744682
72
1
10
-56.9607837415528
20
4.49999830744682
11
-56.5
21
8
97
0
75
0
76
1
52
0
41
0.0062
77
0
78
1
53
45
43
0
44
0
45
-0.0139193969876572
46
0.0139193969876572
79
0
47
0
98
1
10
0
20
0
0
HATCH
5
12F
100
AcDbEntity
8
SK2
62
256
6
ByLayer
370
13
48
1
60
0
100
AcDbHatch
10
0
20
0
30
0
210
0
220
0
230
1
2
ANSI31
70
0
71
0
91
1
92
5
93
3
72
1
10
-56.5
20
-8
11
-56.9607837415528
21
-4.50000169255318
72
1
10
-56.9607837415528
20
-4.50000169255318
11
-56.0392162584472
21
-4.49999830744682
72
1
10
-56.0392162584472
20
-4.49999830744682
11
-56.5
21
-8
97
0
75
0
76
1
52
0
41
0.0062
77
0
78
1
53
45
43
0
44
0
45
-0.0139193969876572
46
0.0139193969876572
79
0
47
0
98
1
10
0
20
0
0
HATCH
5
134
100
AcDbEntity
8
SK2
62
256
6
ByLayer
370
13
48
1
60
0
100
AcDbHatch
10
0
20
0
30
0
210
0
220
0
230
1
2
ANSI31
70
0
71
0
91
1
92
5
93
3
72
1
10
187.747416337324
20
24.0313635640775
11
191.165805493607
21
23.1499298542504
72
1
10
191.165805493607
20
23.1499298542504
11
190.821197798817
21
22.2952181118362
72
1
10
190.821197798817
20
22.2952181118362
11
187.747416337324
21
24.0313635640775
97
0
75
0
76
1
52
0
41
0.0062
77
0
78
1
53
45
43
0
44
0
45
-0.0139193969876572
46
0.0139193969876572
79
0
47
0
98
1
10
0
20
0
0
HATCH
5
138
100
AcDbEntity
8
SK2
62
256
6
ByLayer
370
13
48
1
60
0
100
AcDbHatch
10
0
20
0
30
0
210
0
220
0
230
1
2
ANSI31
70
0
71
0
91
1
92
5
93
3
72
1
10
187.747416337324
20
-24.0313635640775
11
190.82119465929
21
-22.2952193776625
72
1
10
190.82119465929
20
-22.2952193776625
11
191.165808633134
21
-23.1499285884241
72
1
10
191.165808633134
20
-23.1499285884241
11
187.747416337324
21
-24.0313635640775
97
0
75
0
76
1
52
0
41
0.0062
77
0
78
1
53
45
43
0
44
0
45
-0.0139193969876572
46
0.0139193969876572
79
0
47
0
98
1
10
0
20
0
0
DIMENSION
5
13C
100
AcDbEntity
8
SK2
62
256
6
ByLayer
370
18
48
1
60
0
100
AcDbDimension
2
_U0
10
48.1
20
-26.415559
30
0
11
113.55
21
-26.415559
31
0
70
32
71
1
72
1
41
1
210
0
220
0
230
1
3
Standard
100
AcDbAlignedDimension
13
179
23
-8
33
0
14
48.1
24
-8
34
0
50
0
100
AcDbRotatedDimension
1001
ACAD
1000
DSTYLE
1002
{
1070
   371
1070
    13
1070
   372
1070
    13
1070
   170
1070
     0
1070
   144
1040
1.0
1070
   277
1070
     2
1070
   284
1070
     8
1070
   278
1070
    46
1070
   146
1040
1.166667
1070
   345
1005
16
1070
   347
1005
16
1070
   346
1005
16
1070
   344
1005
0
1070
   343
1005
0
1070
   172
1070
     1
1070
    76
1070
     0
1070
    75
1070
     0
1070
   282
1070
     0
1070
   281
1070
     0
1070
     3
1000

1070
    71
1070
     0
1070
    74
1070
     0
1070
   279
1070
     0
1070
   173
1070
     1
1070
   340
1005
11B
1070
   271
1070
     2
1070
   272
1070
     2
1070
    77
1070
     1
1070
    73
1070
     1
1070
   171
1070
     3
1070
   274
1070
     4
1070
   177
1070
     2
1070
   176
1070
     2
1070
   178
1070
     2
1070
    78
1070
     8
1070
    48
1040
-0.1
1070
    41
1040
3.5
1070
   147
1040
1.5
1070
    42
1040
1.5875
1070
    44
1040
2.0
1070
   140
1040
3.0
1002
}
1001
ACAD_DSTYLE_DIM_LINETYPE
1070
   380
1005
16
1001
ACAD_DSTYLE_DIM_EXT1_LINETYPE
1070
   381
1005
16
1001
ACAD_DSTYLE_DIM_EXT2_LINETYPE
1070
   382
1005
16
0
DIMENSION
5
157
100
AcDbEntity
8
SK2
62
256
6
ByLayer
370
18
48
1
60
0
100
AcDbDimension
2
_U1
10
7
20
-36.415559
30
0
11
93
21
-36.415559
31
0
70
32
71
1
72
1
41
1
210
0
220
0
230
1
3
Standard
100
AcDbAlignedDimension
13
179
23
-8
33
0
14
7
24
-8
34
0
50
0
100
AcDbRotatedDimension
1001
ACAD
1000
DSTYLE
1002
{
1070
   371
1070
    13
1070
   372
1070
    13
1070
     3
1000

1070
   170
1070
     0
1070
   144
1040
1.0
1070
   277
1070
     2
1070
   284
1070
     8
1070
   278
1070
    46
1070
   146
1040
1.166667
1070
   345
1005
16
1070
   347
1005
16
1070
   346
1005
16
1070
   344
1005
0
1070
   343
1005
0
1070
   172
1070
     1
1070
    76
1070
     0
1070
    75
1070
     0
1070
   282
1070
     0
1070
   281
1070
     0
1070
    71
1070
     0
1070
    74
1070
     0
1070
   279
1070
     0
1070
   173
1070
     1
1070
   340
1005
11B
1070
   271
1070
     2
1070
   272
1070
     2
1070
    77
1070
     1
1070
    73
1070
     1
1070
   171
1070
     3
1070
   274
1070
     4
1070
   177
1070
     2
1070
   176
1070
     2
1070
   178
1070
     2
1070
    78
1070
     8
1070
    48
1040
-0.1
1070
    41
1040
3.5
1070
   147
1040
1.5
1070
    42
1040
1.5875
1070
    44
1040
2.0
1070
   140
1040
3.0
1002
}
1001
ACAD_DSTYLE_DIM_LINETYPE
1070
   380
1005
16
1001
ACAD_DSTYLE_DIM_EXT1_LINETYPE
1070
   381
1005
16
1001
ACAD_DSTYLE_DIM_EXT2_LINETYPE
1070
   382
1005
16
0
DIMENSION
5
16F
100
AcDbEntity
8
SK2
62
256
6
ByLayer
370
18
48
1
60
0
100
AcDbDimension
2
_U2
10
0
20
-44.415559
30
0
11
-24
21
-44.415559
31
0
70
32
71
1
72
1
41
1
210
0
220
0
230
1
3
Standard
100
AcDbAlignedDimension
13
-48
23
-8
33
0
14
0
24
-8
34
0
50
0
100
AcDbRotatedDimension
1001
ACAD
1000
DSTYLE
1002
{
1070
   371
1070
    13
1070
   372
1070
    13
1070
     3
1000

1070
   170
1070
     0
1070
   144
1040
1.0
1070
   277
1070
     2
1070
   284
1070
     8
1070
   278
1070
    46
1070
   146
1040
1.166667
1070
   345
1005
16
1070
   347
1005
16
1070
   346
1005
16
1070
   344
1005
0
1070
   343
1005
0
1070
   172
1070
     1
1070
    76
1070
     0
1070
    75
1070
     0
1070
   282
1070
     0
1070
   281
1070
     0
1070
    71
1070
     0
1070
    74
1070
     0
1070
   279
1070
     0
1070
   173
1070
     1
1070
   340
1005
11B
1070
   271
1070
     2
1070
   272
1070
     2
1070
    77
1070
     1
1070
    73
1070
     1
1070
   171
1070
     3
1070
   274
1070
     4
1070
   177
1070
     2
1070
   176
1070
     2
1070
   178
1070
     2
1070
    78
1070
     8
1070
    48
1040
-0.1
1070
    41
1040
3.5
1070
   147
1040
1.5
1070
    42
1040
1.5875
1070
    44
1040
2.0
1070
   140
1040
3.0
1002
}
1001
ACAD_DSTYLE_DIM_LINETYPE
1070
   380
1005
16
1001
ACAD_DSTYLE_DIM_EXT1_LINETYPE
1070
   381
1005
16
1001
ACAD_DSTYLE_DIM_EXT2_LINETYPE
1070
   382
1005
16
0
DIMENSION
5
187
100
AcDbEntity
8
SK2
62
256
6
ByLayer
370
18
48
1
60
0
100
AcDbDimension
2
_U3
10
179
20
-52.415559
30
0
11
65.5
21
-52.415559
31
0
70
32
71
1
72
1
41
1
210
0
220
0
230
1
3
Standard
100
AcDbAlignedDimension
13
-48
23
-8
33
0
14
179
24
-8
34
0
50
0
100
AcDbRotatedDimension
1001
ACAD
1000
DSTYLE
1002
{
1070
   371
1070
    13
1070
   372
1070
    13
1070
     3
1000

1070
   170
1070
     0
1070
   144
1040
1.0
1070
   277
1070
     2
1070
   284
1070
     8
1070
   278
1070
    46
1070
   146
1040
1.166667
1070
   345
1005
16
1070
   347
1005
16
1070
   346
1005
16
1070
   344
1005
0
1070
   343
1005
0
1070
   172
1070
     1
1070
    76
1070
     0
1070
    75
1070
     0
1070
   282
1070
     0
1070
   281
1070
     0
1070
    71
1070
     0
1070
    74
1070
     0
1070
   279
1070
     0
1070
   173
1070
     1
1070
   340
1005
11B
1070
   271
1070
     2
1070
   272
1070
     2
1070
    77
1070
     1
1070
    73
1070
     1
1070
   171
1070
     3
1070
   274
1070
     4
1070
   177
1070
     2
1070
   176
1070
     2
1070
   178
1070
     2
1070
    78
1070
     8
1070
    48
1040
-0.1
1070
    41
1040
3.5
1070
   147
1040
1.5
1070
    42
1040
1.5875
1070
    44
1040
2.0
1070
   140
1040
3.0
1002
}
1001
ACAD_DSTYLE_DIM_LINETYPE
1070
   380
1005
16
1001
ACAD_DSTYLE_DIM_EXT1_LINETYPE
1070
   381
1005
16
1001
ACAD_DSTYLE_DIM_EXT2_LINETYPE
1070
   382
1005
16
0
DIMENSION
5
19F
100
AcDbEntity
8
2
62
256
6
ByLayer
370
18
48
1
60
0
100
AcDbDimension
2
_U4
10
0
20
-44.415559
30
0
11
89.5
21
-44.415559
31
0
70
32
71
1
72
1
41
1
210
0
220
0
230
1
3
Standard
100
AcDbAlignedDimension
13
179
23
-8
33
0
14
0
24
-8
34
0
50
0
100
AcDbRotatedDimension
1001
ACAD
1000
DSTYLE
1002
{
1070
   371
1070
    13
1070
   372
1070
    13
1070
     3
1000

1070
   170
1070
     0
1070
   144
1040
1.0
1070
   277
1070
     2
1070
   284
1070
     8
1070
   278
1070
    46
1070
   146
1040
1.166667
1070
   345
1005
16
1070
   347
1005
16
1070
   346
1005
16
1070
   344
1005
0
1070
   343
1005
0
1070
   172
1070
     1
1070
    76
1070
     0
1070
    75
1070
     0
1070
   282
1070
     0
1070
   281
1070
     0
1070
    71
1070
     0
1070
    74
1070
     0
1070
   279
1070
     0
1070
   173
1070
     1
1070
   340
1005
11B
1070
   271
1070
     2
1070
   272
1070
     2
1070
    77
1070
     1
1070
    73
1070
     1
1070
   171
1070
     3
1070
   274
1070
     4
1070
   177
1070
     2
1070
   176
1070
     2
1070
   178
1070
     2
1070
    78
1070
     8
1070
    48
1040
-0.1
1070
    41
1040
3.5
1070
   147
1040
1.5
1070
    42
1040
1.5875
1070
    44
1040
2.0
1070
   140
1040
3.0
1002
}
1001
ACAD_DSTYLE_DIM_LINETYPE
1070
   380
1005
16
1001
ACAD_DSTYLE_DIM_EXT1_LINETYPE
1070
   381
1005
16
1001
ACAD_DSTYLE_DIM_EXT2_LINETYPE
1070
   382
1005
16
0
ENDSEC
0
SECTION
2
OBJECTS
0
DICTIONARY
5
227
330
0
100
AcDbDictionary
280
0
281
1
3
ACAD_GROUP
350
228
3
ACAD_MLINESTYLE
350
229
0
DICTIONARY
5
228
330
0
100
AcDbDictionary
280
0
281
1
0
DICTIONARY
5
229
330
0
100
AcDbDictionary
280
0
281
1
3
Standard
350
18
0
MLINESTYLE
5
18
330
229
100
AcDbMlineStyle
2
Standard
70
0
3

62
256
51
90
52
90
71
2
49
-0.5
62
256
6
ByLayer
49
0.5
62
256
6
ByLayer
0
RASTERVARIABLES
5
215
330

100
AcDbRasterVariables
90
0
70
1
71
1
72
1
0
ENDSEC
0
EOF
